0
SECTION
2
HEADER
9
$ACADVER
1
AC1015
9
$DWGCODEPAGE
3
ANSI_1252
9
$HANDSEED
5
53c
9
$ANGBASE
50
0
9
$ANGDIR
70
0
9
$ATTMODE
70
1
9
$AUNITS
70
0
9
$AUPREC
70
0
9
$CECOLOR
62
256
9
$CELTSCALE
40
1
9
$CELTYPE
6
ByLayer
9
$CELWEIGHT
370
18
9
$CLAYER
8
0
9
$CMLJUST
70
0
9
$CMLSCALE
40
1
9
$CMLSTYLE
2
Standard
9
$DIMSTYLE
2
Standard
9
$TEXTSIZE
40
0.2
9
$TEXTSTYLE
7
Standard
9
$LUNITS
70
2
9
$LUPREC
70
4
9
$EXTNAMES
290
1
9
$INSUNITS
70
4
9
$LTSCALE
40
1
9
$LWDISPLAY
290
1
9
$PDMODE
70
0
9
$PDSIZE
40
0
9
$PLINEGEN
70
0
0
ENDSEC
0
SECTION
2
CLASSES
0
CLASS
1
RASTERVARIABLES
2
AcDbRasterVariables
3
ISM
90
0
280
0
281
0
0
ENDSEC
0
SECTION
2
TABLES
0
TABLE
2
VPORT
5
532
100
AcDbSymbolTable
0
VPORT
5
1
100
AcDbSymbolTableRecord
100
AcDbViewportTableRecord
2
*Active
70
0
10
0
20
0
11
1
21
1
12
-1
22
1
13
0
23
0
14
0.5
24
0.5
15
10
25
10
16
0
26
0
36
1
17
0
27
0
37
0
0
ENDTAB
0
TABLE
2
LTYPE
5
533
100
AcDbSymbolTable
0
LTYPE
5
14
100
AcDbSymbolTableRecord
100
AcDbLinetypeTableRecord
70
0
2
ByBlock
3

72
65
73
0
40
0
0
LTYPE
5
15
100
AcDbSymbolTableRecord
100
AcDbLinetypeTableRecord
70
0
2
ByLayer
3

72
65
73
0
40
0
0
LTYPE
5
16
100
AcDbSymbolTableRecord
100
AcDbLinetypeTableRecord
70
0
2
Continuous
3
Solid line
72
65
73
0
40
0
0
LTYPE
5
6E
100
AcDbSymbolTableRecord
100
AcDbLinetypeTableRecord
70
0
2
CENTER
3
____ _ ____ _ ____ _ ____
72
65
73
4
40
47.5
49
22
74
0
49
-8.5
74
0
49
8.5
74
0
49
-8.5
74
0
0
LTYPE
5
6F
100
AcDbSymbolTableRecord
100
AcDbLinetypeTableRecord
70
0
2
DASHED
3
__ __ __ __ __ __ __ __ __
72
65
73
2
40
25.72
49
12.86
74
0
49
-12.86
74
0
0
ENDTAB
0
TABLE
2
LAYER
5
534
100
AcDbSymbolTable
0
LAYER
5
10
100
AcDbSymbolTableRecord
100
AcDbLayerTableRecord
2
0
70
0
62
7
6
Continuous
290
1
370
-3
390
0
0
LAYER
5
71
100
AcDbSymbolTableRecord
100
AcDbLayerTableRecord
2
80
70
0
62
-6
6
Continuous
290
1
370
-3
390
0
0
LAYER
5
73
100
AcDbSymbolTableRecord
100
AcDbLayerTableRecord
2
81
70
0
62
-3
6
Continuous
290
1
370
-3
390
0
0
LAYER
5
75
100
AcDbSymbolTableRecord
100
AcDbLayerTableRecord
2
1
70
0
62
4
6
Continuous
290
1
370
-3
390
0
0
LAYER
5
30F
100
AcDbSymbolTableRecord
100
AcDbLayerTableRecord
2
4
70
0
62
-2
6
CENTER
290
1
370
-3
390
0
0
LAYER
5
342
100
AcDbSymbolTableRecord
100
AcDbLayerTableRecord
2
2
70
0
62
7
6
Continuous
290
1
370
-3
390
0
0
LAYER
5
477
100
AcDbSymbolTableRecord
100
AcDbLayerTableRecord
2
Defpoints
70
0
62
7
6
Continuous
290
0
370
-3
390
0
0
LAYER
5
51f
100
AcDbSymbolTableRecord
100
AcDbLayerTableRecord
2
SK4
70
0
62
2
6
CENTER
290
1
370
-3
390
0
0
LAYER
5
520
100
AcDbSymbolTableRecord
100
AcDbLayerTableRecord
2
SK2
70
0
62
7
6
Continuous
290
1
370
-3
390
0
0
LAYER
5
521
100
AcDbSymbolTableRecord
100
AcDbLayerTableRecord
2
SK6
70
0
62
5
6
Continuous
290
1
370
-3
390
0
0
ENDTAB
0
TABLE
2
STYLE
5
535
100
AcDbSymbolTable
0
STYLE
5
11
100
AcDbSymbolTableRecord
100
AcDbTextStyleTableRecord
2
Standard
3
txt
70
0
71
0
40
0
41
1
42
0
50
0
0
STYLE
5
44C
100
AcDbSymbolTableRecord
100
AcDbTextStyleTableRecord
2
iso_b_vert
3
simplex.shx
70
0
71
0
40
0
41
1
42
0
50
0
0
STYLE
5
44D
100
AcDbSymbolTableRecord
100
AcDbTextStyleTableRecord
2
DWGDirectTextStyle
3
simplex
70
0
71
0
40
0
41
1
42
0
50
0
0
ENDTAB
0
TABLE
2
DIMSTYLE
5
536
100
AcDbSymbolTable
100
AcDbDimStyleTable
0
DIMSTYLE
105
27
100
AcDbSymbolTableRecord
100
AcDbDimStyleTableRecord
2
Standard
70
0
3
<>
41
0.18
42
0.0625
44
0.18
140
0.18
147
0.09
73
0
74
0
77
1
271
2
275
0
278
52
280
0
340
11
0
ENDTAB
0
TABLE
2
VIEW
5
537
100
AcDbSymbolTable
0
ENDTAB
0
TABLE
2
UCS
5
538
100
AcDbSymbolTable
0
ENDTAB
0
TABLE
2
APPID
5
539
100
AcDbSymbolTable
0
APPID
5
12
100
AcDbSymbolTableRecord
100
AcDbRegAppTableRecord
2
ACAD
70
0
0
APPID
5
473
100
AcDbSymbolTableRecord
100
AcDbRegAppTableRecord
2
ACAD_DSTYLE_DIMBREAK
70
0
0
APPID
5
4DE
100
AcDbSymbolTableRecord
100
AcDbRegAppTableRecord
2
ACAD_DSTYLE_DIM_LINETYPE
70
0
0
APPID
5
4DF
100
AcDbSymbolTableRecord
100
AcDbRegAppTableRecord
2
ACAD_DSTYLE_DIM_EXT1_LINETYPE
70
0
0
APPID
5
4E0
100
AcDbSymbolTableRecord
100
AcDbRegAppTableRecord
2
ACAD_DSTYLE_DIM_EXT2_LINETYPE
70
0
0
APPID
5
51B
100
AcDbSymbolTableRecord
100
AcDbRegAppTableRecord
2
ACAD_MLEADERVER
70
0
0
ENDTAB
0
TABLE
2
BLOCK_RECORD
5
53a
100
AcDbSymbolTable
0
BLOCK_RECORD
5
1F
100
AcDbSymbolTableRecord
100
AcDbBlockTableRecord
2
*Model_Space
340
0
70
0
0
BLOCK_RECORD
5
1B
100
AcDbSymbolTableRecord
100
AcDbBlockTableRecord
2
*Paper_Space
340
0
70
0
0
BLOCK_RECORD
5
23
100
AcDbSymbolTableRecord
100
AcDbBlockTableRecord
2
*Paper_Space0
340
0
70
0
0
BLOCK_RECORD
5
478
100
AcDbSymbolTableRecord
100
AcDbBlockTableRecord
2
*D1
340
0
70
0
0
BLOCK_RECORD
5
484
100
AcDbSymbolTableRecord
100
AcDbBlockTableRecord
2
_U0
340
0
70
0
0
BLOCK_RECORD
5
490
100
AcDbSymbolTableRecord
100
AcDbBlockTableRecord
2
*D3
340
0
70
0
0
BLOCK_RECORD
5
49E
100
AcDbSymbolTableRecord
100
AcDbBlockTableRecord
2
_U1
340
0
70
0
0
BLOCK_RECORD
5
4AA
100
AcDbSymbolTableRecord
100
AcDbBlockTableRecord
2
*D5
340
0
70
0
0
BLOCK_RECORD
5
4B7
100
AcDbSymbolTableRecord
100
AcDbBlockTableRecord
2
_U2
340
0
70
0
0
ENDTAB
0
ENDSEC
0
SECTION
2
BLOCKS
0
BLOCK
5
20
100
AcDbEntity
8
0
100
AcDbBlockBegin
2
*Model_Space
70
0
10
0
20
0
30
0
3
*Model_Space
0
ENDBLK
5
21
100
AcDbEntity
8
0
100
AcDbBlockEnd
0
BLOCK
5
1C
100
AcDbEntity
8
0
100
AcDbBlockBegin
2
*Paper_Space
70
0
10
0
20
0
30
0
3
*Paper_Space
0
ENDBLK
5
1D
100
AcDbEntity
8
0
100
AcDbBlockEnd
0
BLOCK
5
24
100
AcDbEntity
8
0
100
AcDbBlockBegin
2
*Paper_Space0
70
0
10
0
20
0
30
0
3
*Paper_Space0
0
ENDBLK
5
25
100
AcDbEntity
8
0
100
AcDbBlockEnd
0
BLOCK
5
479
100
AcDbEntity
8
0
100
AcDbBlockBegin
2
*D1
70
1
10
0
20
0
30
0
3
*D1
0
LINE
5
47B
100
AcDbEntity
8
0
62
256
6
ByLayer
370
-2
48
1
60
0
100
AcDbLine
10
38
20
-51.5875
30
0
11
38
21
-65.376741
31
0
39
0
210
0
220
0
230
1
0
LINE
5
47C
100
AcDbEntity
8
0
62
256
6
ByLayer
370
-2
48
1
60
0
100
AcDbLine
10
0
20
-15.0875
30
0
11
0
21
-65.376741
31
0
39
0
210
0
220
0
230
1
0
LINE
5
47D
100
AcDbEntity
8
0
62
256
6
ByLayer
370
-2
48
1
60
0
100
AcDbLine
10
34.5
20
-63.376741
30
0
11
3.5
21
-63.376741
31
0
39
0
210
0
220
0
230
1
0
SOLID
5
47E
100
AcDbEntity
8
0
62
256
6
ByLayer
370
-1
48
1
60
0
100
AcDbTrace
10
34.5
20
-63.960075
30
0
11
34.5
21
-62.793408
31
0
12
38
22
-63.376741
32
0
13
38
23
-63.376741
33
0
39
0
210
0
220
0
230
1
0
SOLID
5
47F
100
AcDbEntity
8
0
62
256
6
ByLayer
370
-1
48
1
60
0
100
AcDbTrace
10
3.5
20
-62.793408
30
0
11
3.5
21
-63.960075
31
0
12
0
22
-63.376741
32
0
13
0
23
-63.376741
33
0
39
0
210
0
220
0
230
1
0
MTEXT
5
480
100
AcDbEntity
8
0
62
256
6
ByLayer
370
18
48
1
60
0
100
AcDbMText
10
19
20
-55.376741
30
0
210
0
220
0
230
1
1
\A1;38
40
4
41
0
44
1
50
0
71
5
72
5
7
iso_b_vert
0
POINT
5
481
100
AcDbEntity
8
Defpoints
62
0
6
ByLayer
370
-1
48
1
60
0
100
AcDbPoint
10
38
20
-50
30
0
39
0
210
0
220
0
230
1
50
360
0
POINT
5
482
100
AcDbEntity
8
Defpoints
62
0
6
ByLayer
370
-1
48
1
60
0
100
AcDbPoint
10
0
20
-13.5
30
0
39
0
210
0
220
0
230
1
50
360
0
POINT
5
483
100
AcDbEntity
8
Defpoints
62
0
6
ByLayer
370
-1
48
1
60
0
100
AcDbPoint
10
0
20
-63.376741
30
0
39
0
210
0
220
0
230
1
50
360
0
ENDBLK
5
47A
100
AcDbEntity
8
0
100
AcDbBlockEnd
0
BLOCK
5
48B
100
AcDbEntity
8
0
100
AcDbBlockBegin
2
_U0
70
0
10
0
20
0
30
0
3
_U0
0
MTEXT
5
485
100
AcDbEntity
8
2
62
256
6
ByLayer
370
13
48
1
60
0
100
AcDbMText
10
16.822896
20
-62.196589
30
0
210
0
220
0
230
1
1
\W0.6740;38
40
4
41
0
44
1.084337
50
0
71
7
72
5
7
iso_b_vert
0
LINE
5
486
100
AcDbEntity
8
2
62
256
6
ByLayer
370
13
48
1
60
0
100
AcDbLine
10
38
20
-51.5875
30
0
11
38
21
-65.376741
31
0
39
0
210
0
220
0
230
1
0
LINE
5
487
100
AcDbEntity
8
2
62
256
6
ByLayer
370
13
48
1
60
0
100
AcDbLine
10
0
20
-15.0875
30
0
11
0
21
-65.376741
31
0
39
0
210
0
220
0
230
1
0
LINE
5
488
100
AcDbEntity
8
2
62
256
6
ByLayer
370
13
48
1
60
0
100
AcDbLine
10
38
20
-63.376741
30
0
11
0
21
-63.376741
31
0
39
0
210
0
220
0
230
1
0
SOLID
5
489
100
AcDbEntity
8
2
62
256
6
ByLayer
370
18
48
1
60
0
100
AcDbTrace
10
38
20
-63.376741
30
0
11
34.500002
21
-63.837525
31
0
12
34.499998
22
-62.915958
32
0
13
34.499998
23
-62.915958
33
0
39
0
210
0
220
0
230
1
0
SOLID
5
48A
100
AcDbEntity
8
2
62
256
6
ByLayer
370
18
48
1
60
0
100
AcDbTrace
10
0
20
-63.376741
30
0
11
3.499998
21
-62.915958
31
0
12
3.500002
22
-63.837525
32
0
13
3.500002
23
-63.837525
33
0
39
0
210
0
220
0
230
1
0
ENDBLK
5
48C
100
AcDbEntity
8
0
100
AcDbBlockEnd
0
BLOCK
5
491
100
AcDbEntity
8
0
100
AcDbBlockBegin
2
*D3
70
1
10
0
20
0
30
0
3
*D3
0
LINE
5
493
100
AcDbEntity
8
0
62
256
6
ByLayer
370
-2
48
1
60
0
100
AcDbLine
10
38
20
51.5875
30
0
11
38
21
61.376741
31
0
39
0
210
0
220
0
230
1
0
LINE
5
494
100
AcDbEntity
8
0
62
256
6
ByLayer
370
-2
48
1
60
0
100
AcDbLine
10
45.6
20
51.5875
30
0
11
45.6
21
61.376741
31
0
39
0
210
0
220
0
230
1
0
LINE
5
495
100
AcDbEntity
8
0
62
256
6
ByLayer
370
-2
48
1
60
0
100
AcDbLine
10
45.6
20
59.376741
30
0
11
72.980952
21
59.376741
31
0
39
0
210
0
220
0
230
1
0
LINE
5
496
100
AcDbEntity
8
0
62
256
6
ByLayer
370
-2
48
1
60
0
100
AcDbLine
10
34.5
20
59.376741
30
0
11
31
21
59.376741
31
0
39
0
210
0
220
0
230
1
0
LINE
5
497
100
AcDbEntity
8
0
62
256
6
ByLayer
370
-2
48
1
60
0
100
AcDbLine
10
49.1
20
59.376741
30
0
11
52.6
21
59.376741
31
0
39
0
210
0
220
0
230
1
0
SOLID
5
498
100
AcDbEntity
8
0
62
256
6
ByLayer
370
-1
48
1
60
0
100
AcDbTrace
10
34.5
20
58.793408
30
0
11
34.5
21
59.960075
31
0
12
38
22
59.376741
32
0
13
38
23
59.376741
33
0
39
0
210
0
220
0
230
1
0
SOLID
5
499
100
AcDbEntity
8
0
62
256
6
ByLayer
370
-1
48
1
60
0
100
AcDbTrace
10
49.1
20
59.960075
30
0
11
49.1
21
58.793408
31
0
12
45.6
22
59.376741
32
0
13
45.6
23
59.376741
33
0
39
0
210
0
220
0
230
1
0
MTEXT
5
49A
100
AcDbEntity
8
0
62
256
6
ByLayer
370
18
48
1
60
0
100
AcDbMText
10
62.790476
20
67.376741
30
0
210
0
220
0
230
1
1
\A1;7.6
40
4
41
0
44
1
50
0
71
5
72
5
7
iso_b_vert
0
POINT
5
49B
100
AcDbEntity
8
Defpoints
62
0
6
ByLayer
370
-1
48
1
60
0
100
AcDbPoint
10
38
20
50
30
0
39
0
210
0
220
0
230
1
50
360
0
POINT
5
49C
100
AcDbEntity
8
Defpoints
62
0
6
ByLayer
370
-1
48
1
60
0
100
AcDbPoint
10
45.6
20
50
30
0
39
0
210
0
220
0
230
1
50
360
0
POINT
5
49D
100
AcDbEntity
8
Defpoints
62
0
6
ByLayer
370
-1
48
1
60
0
100
AcDbPoint
10
45.6
20
59.376741
30
0
39
0
210
0
220
0
230
1
50
360
0
ENDBLK
5
492
100
AcDbEntity
8
0
100
AcDbBlockEnd
0
BLOCK
5
4A5
100
AcDbEntity
8
0
100
AcDbBlockBegin
2
_U1
70
0
10
0
20
0
30
0
3
_U1
0
MTEXT
5
49F
100
AcDbEntity
8
SK2
62
256
6
ByLayer
370
13
48
1
60
0
100
AcDbMText
10
59.718665
20
60.556894
30
0
210
0
220
0
230
1
1
\W0.7121;7.6
40
4
41
0
44
1.084337
50
0
71
7
72
5
7
iso_b_vert
0
LINE
5
4A0
100
AcDbEntity
8
SK2
62
256
6
ByLayer
370
13
48
1
60
0
100
AcDbLine
10
38
20
51.5875
30
0
11
38
21
61.376741
31
0
39
0
210
0
220
0
230
1
0
LINE
5
4A1
100
AcDbEntity
8
SK2
62
256
6
ByLayer
370
13
48
1
60
0
100
AcDbLine
10
45.6
20
51.5875
30
0
11
45.6
21
61.376741
31
0
39
0
210
0
220
0
230
1
0
LINE
5
4A2
100
AcDbEntity
8
SK2
62
256
6
ByLayer
370
13
48
1
60
0
100
AcDbLine
10
38
20
59.376741
30
0
11
65.905444
21
59.376741
31
0
39
0
210
0
220
0
230
1
0
SOLID
5
4A3
100
AcDbEntity
8
SK2
62
256
6
ByLayer
370
18
48
1
60
0
100
AcDbTrace
10
38
20
59.376741
30
0
11
41.499998
21
59.837525
31
0
12
41.500002
22
58.915958
32
0
13
41.500002
23
58.915958
33
0
39
0
210
0
220
0
230
1
0
SOLID
5
4A4
100
AcDbEntity
8
SK2
62
256
6
ByLayer
370
18
48
1
60
0
100
AcDbTrace
10
45.6
20
59.376741
30
0
11
42.100002
21
58.915958
31
0
12
42.099998
22
59.837525
32
0
13
42.099998
23
59.837525
33
0
39
0
210
0
220
0
230
1
0
ENDBLK
5
4A6
100
AcDbEntity
8
0
100
AcDbBlockEnd
0
BLOCK
5
4AB
100
AcDbEntity
8
0
100
AcDbBlockBegin
2
*D5
70
1
10
0
20
0
30
0
3
*D5
0
LINE
5
4AD
100
AcDbEntity
8
0
62
256
6
ByLayer
370
-2
48
1
60
0
100
AcDbLine
10
38
20
51.5875
30
0
11
38
21
68.376741
31
0
39
0
210
0
220
0
230
1
0
LINE
5
4AE
100
AcDbEntity
8
0
62
256
6
ByLayer
370
-2
48
1
60
0
100
AcDbLine
10
49.5
20
51.5875
30
0
11
49.5
21
68.376741
31
0
39
0
210
0
220
0
230
1
0
LINE
5
4AF
100
AcDbEntity
8
0
62
256
6
ByLayer
370
-2
48
1
60
0
100
AcDbLine
10
34.5
20
66.376741
30
0
11
31
21
66.376741
31
0
39
0
210
0
220
0
230
1
0
LINE
5
4B0
100
AcDbEntity
8
0
62
256
6
ByLayer
370
-2
48
1
60
0
100
AcDbLine
10
53
20
66.376741
30
0
11
56.5
21
66.376741
31
0
39
0
210
0
220
0
230
1
0
SOLID
5
4B1
100
AcDbEntity
8
0
62
256
6
ByLayer
370
-1
48
1
60
0
100
AcDbTrace
10
34.5
20
65.793408
30
0
11
34.5
21
66.960075
31
0
12
38
22
66.376741
32
0
13
38
23
66.376741
33
0
39
0
210
0
220
0
230
1
0
SOLID
5
4B2
100
AcDbEntity
8
0
62
256
6
ByLayer
370
-1
48
1
60
0
100
AcDbTrace
10
53
20
66.960075
30
0
11
53
21
65.793408
31
0
12
49.5
22
66.376741
32
0
13
49.5
23
66.376741
33
0
39
0
210
0
220
0
230
1
0
MTEXT
5
4B3
100
AcDbEntity
8
0
62
256
6
ByLayer
370
18
48
1
60
0
100
AcDbMText
10
43.75
20
74.376741
30
0
210
0
220
0
230
1
1
\A1;11.5
40
4
41
0
44
1
50
0
71
5
72
5
7
iso_b_vert
0
POINT
5
4B4
100
AcDbEntity
8
Defpoints
62
0
6
ByLayer
370
-1
48
1
60
0
100
AcDbPoint
10
38
20
50
30
0
39
0
210
0
220
0
230
1
50
360
0
POINT
5
4B5
100
AcDbEntity
8
Defpoints
62
0
6
ByLayer
370
-1
48
1
60
0
100
AcDbPoint
10
49.5
20
50
30
0
39
0
210
0
220
0
230
1
50
360
0
POINT
5
4B6
100
AcDbEntity
8
Defpoints
62
0
6
ByLayer
370
-1
48
1
60
0
100
AcDbPoint
10
49.5
20
66.376741
30
0
39
0
210
0
220
0
230
1
50
360
0
ENDBLK
5
4AC
100
AcDbEntity
8
0
100
AcDbBlockEnd
0
BLOCK
5
4BE
100
AcDbEntity
8
0
100
AcDbBlockBegin
2
_U2
70
0
10
0
20
0
30
0
3
_U2
0
MTEXT
5
4B8
100
AcDbEntity
8
SK2
62
256
6
ByLayer
370
13
48
1
60
0
100
AcDbMText
10
40.267906
20
67.556894
30
0
210
0
220
0
230
1
1
\W0.5779;11.5
40
4
41
0
44
1.084337
50
0
71
7
72
5
7
iso_b_vert
0
LINE
5
4B9
100
AcDbEntity
8
SK2
62
256
6
ByLayer
370
13
48
1
60
0
100
AcDbLine
10
38
20
51.5875
30
0
11
38
21
68.376741
31
0
39
0
210
0
220
0
230
1
0
LINE
5
4BA
100
AcDbEntity
8
SK2
62
256
6
ByLayer
370
13
48
1
60
0
100
AcDbLine
10
49.5
20
51.5875
30
0
11
49.5
21
68.376741
31
0
39
0
210
0
220
0
230
1
0
LINE
5
4BB
100
AcDbEntity
8
SK2
62
256
6
ByLayer
370
13
48
1
60
0
100
AcDbLine
10
38
20
66.376741
30
0
11
49.5
21
66.376741
31
0
39
0
210
0
220
0
230
1
0
SOLID
5
4BC
100
AcDbEntity
8
SK2
62
256
6
ByLayer
370
18
48
1
60
0
100
AcDbTrace
10
38
20
66.376741
30
0
11
41.499998
21
66.837525
31
0
12
41.500002
22
65.915958
32
0
13
41.500002
23
65.915958
33
0
39
0
210
0
220
0
230
1
0
SOLID
5
4BD
100
AcDbEntity
8
SK2
62
256
6
ByLayer
370
18
48
1
60
0
100
AcDbTrace
10
49.5
20
66.376741
30
0
11
46.000002
21
65.915958
31
0
12
45.999998
22
66.837525
32
0
13
45.999998
23
66.837525
33
0
39
0
210
0
220
0
230
1
0
ENDBLK
5
4BF
100
AcDbEntity
8
0
100
AcDbBlockEnd
0
ENDSEC
0
SECTION
2
ENTITIES
0
ARC
5
35D
100
AcDbEntity
8
1
62
256
6
ByLayer
370
18
48
1
60
0
100
AcDbCircle
39
0
10
37.7
20
26.3
30
0
40
0.8
210
0
220
0
230
1
100
AcDbArc
50
270
51
0
0
ARC
5
35E
100
AcDbEntity
8
1
62
256
6
ByLayer
370
18
48
1
60
0
100
AcDbCircle
39
0
10
37.7
20
-26.3
30
0
40
0.8
210
0
220
0
230
1
100
AcDbArc
50
0
51
90
0
ARC
5
35F
100
AcDbEntity
8
1
62
256
6
ByLayer
370
18
48
1
60
0
100
AcDbCircle
39
0
10
41.880865
20
5.447061
30
0
40
5
210
0
220
0
230
1
100
AcDbArc
50
256.205716
51
293.868288
0
ELLIPSE
5
360
100
AcDbEntity
8
1
62
256
6
ByLayer
370
13
48
1
60
0
100
AcDbEllipse
10
42.214458
20
44.994023
30
0
11
-2.10682537461088
21
0.624703119722073
31
0
210
0
220
0
230
1
40
0.955145
41
0.301005702406135
42
0.333010570716934
0
ELLIPSE
5
361
100
AcDbEntity
8
1
62
256
6
ByLayer
370
13
48
1
60
0
100
AcDbEllipse
10
42.214458
20
44.994023
30
0
11
-2.10682537461088
21
0.624703119722073
31
0
210
0
220
0
230
1
40
0.955145
41
-2.9747918710517
42
-2.52878372920432
0
ELLIPSE
5
362
100
AcDbEntity
8
1
62
256
6
ByLayer
370
13
48
1
60
0
100
AcDbEllipse
10
42.214458
20
44.994023
30
0
11
-2.10682537461088
21
0.624703119722073
31
0
210
0
220
0
230
1
40
0.955145
41
-0.613001603520009
42
0
0
ELLIPSE
5
363
100
AcDbEntity
8
1
62
256
6
ByLayer
370
13
48
1
60
0
100
AcDbEllipse
10
42.214458
20
44.994023
30
0
11
-2.10682537461088
21
0.624703119722073
31
0
210
0
220
0
230
1
40
0.955145
41
0
42
0.301005513154694
0
ELLIPSE
5
364
100
AcDbEntity
8
1
62
256
6
ByLayer
370
18
48
1
60
0
100
AcDbEllipse
10
41.5
20
-37.34128
30
0
11
1
21
0
31
0
210
0
220
0
230
1
40
0.413382
41
0
42
6.28318530717959
0
ELLIPSE
5
365
100
AcDbEntity
8
1
62
256
6
ByLayer
370
13
48
1
60
0
100
AcDbEllipse
10
41.5
20
-37.34128
30
0
11
1.4
21
0
31
0
210
0
220
0
230
1
40
0.413382
41
3.14159265358979
42
-2.33444881767356
0
ELLIPSE
5
366
100
AcDbEntity
8
1
62
256
6
ByLayer
370
18
48
1
60
0
100
AcDbEllipse
10
41.5
20
-37.34128
30
0
11
1.4
21
0
31
0
210
0
220
0
230
1
40
0.413382
41
-2.33444913995386
42
-0.75466970035833
0
ELLIPSE
5
367
100
AcDbEntity
8
1
62
256
6
ByLayer
370
13
48
1
60
0
100
AcDbEllipse
10
41.5
20
-37.34128
30
0
11
1.4
21
0
31
0
210
0
220
0
230
1
40
0.413382
41
-0.754669700358334
42
0
0
ELLIPSE
5
368
100
AcDbEntity
8
1
62
256
6
ByLayer
370
13
48
1
60
0
100
AcDbEllipse
10
41.5
20
-37.432336
30
0
11
-1.5
21
1.83690953073357E-16
31
0
210
0
220
0
230
1
40
0.413382
41
0
42
3.14159265358979
0
ELLIPSE
5
369
100
AcDbEntity
8
1
62
256
6
ByLayer
370
13
48
1
60
0
100
AcDbEllipse
10
42.227807
20
45.039044
30
0
11
2.16328840868615
21
-0.641445197143794
31
0
210
0
220
0
230
1
40
0.955145
41
0.206757989609443
42
0.301005948601834
0
ELLIPSE
5
36A
100
AcDbEntity
8
1
62
256
6
ByLayer
370
18
48
1
60
0
100
AcDbEllipse
10
42.227807
20
45.039044
30
0
11
2.16328840868615
21
-0.641445197143794
31
0
210
0
220
0
230
1
40
0.955145
41
0.149227714229556
42
0.206757989609443
0
ELLIPSE
5
36B
100
AcDbEntity
8
1
62
256
6
ByLayer
370
18
48
1
60
0
100
AcDbEllipse
10
42.227807
20
45.039044
30
0
11
2.16328840868615
21
-0.641445197143794
31
0
210
0
220
0
230
1
40
0.955145
41
-3.07699153573703
42
-2.96782113315469
0
ELLIPSE
5
36C
100
AcDbEntity
8
1
62
256
6
ByLayer
370
13
48
1
60
0
100
AcDbEllipse
10
42.227807
20
45.039044
30
0
11
2.16328840868615
21
-0.641445197143794
31
0
210
0
220
0
230
1
40
0.955145
41
0.301005948601837
42
-3.07699153573703
0
ELLIPSE
5
36D
100
AcDbEntity
8
1
62
256
6
ByLayer
370
13
48
1
60
0
100
AcDbEllipse
10
42.9
20
-37.432336
30
0
11
-0.1
21
1.22460635382238E-17
31
0
210
0
220
0
230
1
40
0.910558
41
3.14159265358979
42
-1.5707963267949
0
ELLIPSE
5
36E
100
AcDbEntity
8
1
62
256
6
ByLayer
370
13
48
1
60
0
100
AcDbEllipse
10
40.1
20
-37.432336
30
0
11
0.1
21
0
31
0
210
0
220
0
230
1
40
0.910558
41
1.5707963267949
42
-3.14159265358972
0
ELLIPSE
5
36F
100
AcDbEntity
8
1
62
256
6
ByLayer
370
18
48
1
60
0
100
AcDbEllipse
10
41.5
20
-14.417055
30
0
11
1
21
0
31
0
210
0
220
0
230
1
40
0.936167
41
0
42
6.28318530717959
0
ELLIPSE
5
370
100
AcDbEntity
8
1
62
256
6
ByLayer
370
18
48
1
60
0
100
AcDbEllipse
10
41.5
20
-14.452211
30
0
11
-1.5
21
1.83690953073357E-16
31
0
210
0
220
0
230
1
40
0.936167
41
0
42
-3.14159265358979
0
ELLIPSE
5
371
100
AcDbEntity
8
1
62
256
6
ByLayer
370
13
48
1
60
0
100
AcDbEllipse
10
41.5
20
-14.417055
30
0
11
1.4
21
0
31
0
210
0
220
0
230
1
40
0.936167
41
3.14159265358979
42
5.42136740071941E-15
0
ELLIPSE
5
372
100
AcDbEntity
8
1
62
256
6
ByLayer
370
13
48
1
60
0
100
AcDbEllipse
10
42.9
20
-14.452211
30
0
11
-0.1
21
1.22460635382238E-17
31
0
210
0
220
0
230
1
40
0.351556
41
3.14159265358979
42
-1.5707963267949
0
ELLIPSE
5
373
100
AcDbEntity
8
1
62
256
6
ByLayer
370
13
48
1
60
0
100
AcDbEllipse
10
40.1
20
-14.452211
30
0
11
0.1
21
0
31
0
210
0
220
0
230
1
40
0.351556
41
1.5707963267949
42
-3.14159265358974
0
ELLIPSE
5
374
100
AcDbEntity
8
1
62
256
6
ByLayer
370
18
48
1
60
0
100
AcDbEllipse
10
44
20
-31.272214
30
0
11
3
21
0
31
0
210
0
220
0
230
1
40
0.477159
41
-0.574027713572909
42
-0.295505886517073
0
ELLIPSE
5
375
100
AcDbEntity
8
1
62
256
6
ByLayer
370
18
48
1
60
0
100
AcDbEllipse
10
44
20
-5.764381
30
0
11
3
21
0
31
0
210
0
220
0
230
1
40
0.95882
41
-3.10497353052001
42
-0.0278815316734292
0
ELLIPSE
5
376
100
AcDbEntity
8
1
62
256
6
ByLayer
370
18
48
1
60
0
100
AcDbEllipse
10
44
20
-5.977393
30
0
11
2.25
21
0
31
0
210
0
220
0
230
1
40
0.95882
41
0
42
6.28318530717959
0
ELLIPSE
5
377
100
AcDbEntity
8
1
62
256
6
ByLayer
370
18
48
1
60
0
100
AcDbEllipse
10
42.183935
20
44.891083
30
0
11
-0.89354684832783
21
0.2649491080253
31
0
210
0
220
0
230
1
40
0.955145
41
-0.748752607513567
42
-0.092492904970342
0
ELLIPSE
5
378
100
AcDbEntity
8
1
62
256
6
ByLayer
370
18
48
1
60
0
100
AcDbEllipse
10
42.295889
20
45.268651
30
0
11
2.21750536794075
21
-0.657521282042122
31
0
210
0
220
0
230
1
40
0.955145
41
0.047322012343328
42
0.301005692083907
0
ELLIPSE
5
379
100
AcDbEntity
8
1
62
256
6
ByLayer
370
18
48
1
60
0
100
AcDbEllipse
10
42.295889
20
45.268651
30
0
11
2.21750536794075
21
-0.657521282042122
31
0
210
0
220
0
230
1
40
0.955145
41
0.301005692083903
42
-2.587001530723
0
ELLIPSE
5
37A
100
AcDbEntity
8
1
62
256
6
ByLayer
370
18
48
1
60
0
100
AcDbEllipse
10
42.207801
20
32.233969
30
0
11
-0.227449814021613
21
-0.0403433030568129
31
0
210
0
220
0
230
1
40
0.876151
41
0.142419980530141
42
2.73610899910572
0
ELLIPSE
5
37B
100
AcDbEntity
8
1
62
256
6
ByLayer
370
18
48
1
60
0
100
AcDbEllipse
10
42.938418
20
32.09785
30
0
11
-0.517916026733196
21
-0.0918639714626995
31
0
210
0
220
0
230
1
40
0.876151
41
-1.95233792306184
42
-1.17891078877297
0
ELLIPSE
5
37C
100
AcDbEntity
8
1
62
256
6
ByLayer
370
18
48
1
60
0
100
AcDbEllipse
10
42.938418
20
32.09785
30
0
11
-0.517916026733196
21
-0.0918639714626995
31
0
210
0
220
0
230
1
40
0.876151
41
-1.17891078877297
42
-0.405483654484086
0
ELLIPSE
5
37D
100
AcDbEntity
8
1
62
256
6
ByLayer
370
18
48
1
60
0
100
AcDbEllipse
10
41.486423
20
32.010406
30
0
11
-0.517916026733196
21
-0.0918639714626995
31
0
210
0
220
0
230
1
40
0.876151
41
-2.99917267305967
42
-2.22574553877078
0
ELLIPSE
5
37E
100
AcDbEntity
8
1
62
256
6
ByLayer
370
18
48
1
60
0
100
AcDbEllipse
10
41.486423
20
32.010406
30
0
11
-0.517916026733196
21
-0.0918639714626995
31
0
210
0
220
0
230
1
40
0.876151
41
-2.22574553877078
42
-1.45231840448189
0
ELLIPSE
5
37F
100
AcDbEntity
8
1
62
256
6
ByLayer
370
18
48
1
60
0
100
AcDbEllipse
10
43.108452
20
32.753171
30
0
11
-0.227449814021613
21
-0.0403433030568129
31
0
210
0
220
0
230
1
40
0.876151
41
1.18925473052795
42
1.98175101422774
0
ELLIPSE
5
380
100
AcDbEntity
8
1
62
256
6
ByLayer
370
18
48
1
60
0
100
AcDbEllipse
10
42.183935
20
33.16304
30
0
11
0.917676305922695
21
0.162770382895892
31
0
210
0
220
0
230
1
40
0.876151
41
-0.156027490528957
42
-0.107036183425004
0
ELLIPSE
5
381
100
AcDbEntity
8
1
62
256
6
ByLayer
370
18
48
1
60
0
100
AcDbEllipse
10
43.635614
20
33.250465
30
0
11
-0.517916026733196
21
-0.0918639714626995
31
0
210
0
220
0
230
1
40
0.876151
41
-0.08811959766988
42
3.75738095714457E-06
0
ELLIPSE
5
382
100
AcDbEntity
8
1
62
256
6
ByLayer
370
18
48
1
60
0
100
AcDbEllipse
10
41.283298
20
32.643254
30
0
11
-0.227449814021613
21
-0.0403433030568129
31
0
210
0
220
0
230
1
40
0.876151
41
1.51750716570075
42
1.68927424910789
0
ELLIPSE
5
383
100
AcDbEntity
8
1
62
256
6
ByLayer
370
18
48
1
60
0
100
AcDbEllipse
10
43.635614
20
33.250465
30
0
11
-0.517916026733196
21
-0.0918639714626995
31
0
210
0
220
0
230
1
40
0.876151
41
-0.387497296889958
42
-0.174944076284082
0
ELLIPSE
5
384
100
AcDbEntity
8
1
62
256
6
ByLayer
370
18
48
1
60
0
100
AcDbEllipse
10
42.267606
20
32.691313
30
0
11
0.917676305922695
21
0.162770382895892
31
0
210
0
220
0
230
1
40
0.876151
41
-0.156027490528966
42
-0.107036183424995
0
ELLIPSE
5
385
100
AcDbEntity
8
1
62
256
6
ByLayer
370
18
48
1
60
0
100
AcDbEllipse
10
42.267606
20
32.691313
30
0
11
0.917676305922695
21
0.162770382895892
31
0
210
0
220
0
230
1
40
0.876151
41
2.98556516306084
42
3.03455647016481
0
ELLIPSE
5
386
100
AcDbEntity
8
1
62
256
6
ByLayer
370
18
48
1
60
0
100
AcDbEllipse
10
42.284958
20
32.593486
30
0
11
-1.26918965486519
21
-0.225119123983688
31
0
210
0
220
0
230
1
40
0.876151
41
1.43926448981791
42
2.48609923981573
0
ELLIPSE
5
387
100
AcDbEntity
8
1
62
256
6
ByLayer
370
18
48
1
60
0
100
AcDbEllipse
10
42.284958
20
32.593486
30
0
11
-1.26918965486519
21
-0.225119123983688
31
0
210
0
220
0
230
1
40
0.876151
41
0.392429739820112
42
1.43926448981791
0
ELLIPSE
5
388
100
AcDbEntity
8
1
62
256
6
ByLayer
370
18
48
1
60
0
100
AcDbEllipse
10
42.284958
20
32.593486
30
0
11
-1.26918965486519
21
-0.225119123983688
31
0
210
0
220
0
230
1
40
0.876151
41
-0.655493413774074
42
0.392429739820112
0
ELLIPSE
5
389
100
AcDbEntity
8
1
62
256
6
ByLayer
370
18
48
1
60
0
100
AcDbEllipse
10
42.284958
20
32.593486
30
0
11
-1.26918965486519
21
-0.225119123983688
31
0
210
0
220
0
230
1
40
0.876151
41
-1.70232816377187
42
-0.655493413774074
0
ELLIPSE
5
38A
100
AcDbEntity
8
1
62
256
6
ByLayer
370
18
48
1
60
0
100
AcDbEllipse
10
42.284958
20
32.593486
30
0
11
-1.26918965486519
21
-0.225119123983688
31
0
210
0
220
0
230
1
40
0.876151
41
-2.74916291376968
42
-1.70232816377187
0
ELLIPSE
5
38B
100
AcDbEntity
8
1
62
256
6
ByLayer
370
18
48
1
60
0
100
AcDbEllipse
10
42.284958
20
32.593486
30
0
11
-1.26918965486519
21
-0.225119123983688
31
0
210
0
220
0
230
1
40
0.876151
41
2.48609923981573
42
-2.74916291376968
0
ELLIPSE
5
38C
100
AcDbEntity
8
1
62
256
6
ByLayer
370
18
48
1
60
0
100
AcDbEllipse
10
42.284958
20
32.593486
30
0
11
-1.37848372134311
21
-0.244504867010986
31
0
210
0
220
0
230
1
40
0.876151
41
0
42
6.28318530717959
0
ELLIPSE
5
38D
100
AcDbEntity
8
1
62
256
6
ByLayer
370
18
48
1
60
0
100
AcDbEllipse
10
42.262869
20
32.718018
30
0
11
-2.06772558201466
21
-0.366757300516481
31
0
210
0
220
0
230
1
40
0.876151
41
-1.3997757073023
42
0
0
ELLIPSE
5
38E
100
AcDbEntity
8
1
62
256
6
ByLayer
370
18
48
1
60
0
100
AcDbEllipse
10
42.262869
20
32.718018
30
0
11
-2.06772558201466
21
-0.366757300516481
31
0
210
0
220
0
230
1
40
0.876151
41
0
42
-1.74191486737133
0
ELLIPSE
5
38F
100
AcDbEntity
8
1
62
256
6
ByLayer
370
18
48
1
60
0
100
AcDbEllipse
10
42.200772
20
33.068114
30
0
11
-2.06772558201466
21
-0.366757300516481
31
0
210
0
220
0
230
1
40
0.876151
41
-0.21362818143445
42
0
0
ELLIPSE
5
390
100
AcDbEntity
8
1
62
256
6
ByLayer
370
18
48
1
60
0
100
AcDbEllipse
10
42.200772
20
33.068114
30
0
11
-2.06772558201466
21
-0.366757300516481
31
0
210
0
220
0
230
1
40
0.876151
41
3.14159262138614
42
-2.92806275584819
0
ELLIPSE
5
391
100
AcDbEntity
8
1
62
256
6
ByLayer
370
18
48
1
60
0
100
AcDbEllipse
10
42.295889
20
0.738343
30
0
11
-2.30400205312454
21
-0.203073465480538
31
0
210
0
220
0
230
1
40
0.283919
41
0
42
6.28318530717959
0
ELLIPSE
5
392
100
AcDbEntity
8
1
62
256
6
ByLayer
370
18
48
1
60
0
100
AcDbEllipse
10
42.183935
20
44.891083
30
0
11
-0.89354684832783
21
0.2649491080253
31
0
210
0
220
0
230
1
40
0.955145
41
0.376471333699501
42
0.502686092985015
0
ELLIPSE
5
393
100
AcDbEntity
8
1
62
256
6
ByLayer
370
18
48
1
60
0
100
AcDbEllipse
10
42.160069
20
45.905541
30
0
11
0.221469229574816
21
-0.0656687166886737
31
0
210
0
220
0
230
1
40
0.955145
41
0.572578161789549
42
3.0968874563967
0
ELLIPSE
5
394
100
AcDbEntity
8
1
62
256
6
ByLayer
370
18
48
1
60
0
100
AcDbEllipse
10
42.881447
20
46.100248
30
0
11
0.504297899378153
21
-0.149531363542175
31
0
210
0
220
0
230
1
40
0.955145
41
-2.56901449180026
42
-1.79558735751139
0
ELLIPSE
5
395
100
AcDbEntity
8
1
62
256
6
ByLayer
370
18
48
1
60
0
100
AcDbEllipse
10
42.881447
20
46.100248
30
0
11
0.504297899378153
21
-0.149531363542175
31
0
210
0
220
0
230
1
40
0.955145
41
-1.79558735751139
42
-1.0221602232225
0
ELLIPSE
5
396
100
AcDbEntity
8
1
62
256
6
ByLayer
370
18
48
1
60
0
100
AcDbEllipse
10
42.183935
20
44.891083
30
0
11
-0.89354684832783
21
0.2649491080253
31
0
210
0
220
0
230
1
40
0.955145
41
-2.86746196285936
42
-2.81847065575538
0
ELLIPSE
5
397
100
AcDbEntity
8
1
62
256
6
ByLayer
370
18
48
1
60
0
100
AcDbEllipse
10
43.635614
20
44.887758
30
0
11
0.504297899378153
21
-0.149531363542175
31
0
210
0
220
0
230
1
40
0.955145
41
3.14158501689162
42
-2.88637854861448
0
ELLIPSE
5
398
100
AcDbEntity
8
1
62
256
6
ByLayer
370
18
48
1
60
0
100
AcDbEllipse
10
43.084571
20
45.396541
30
0
11
0.221469229574816
21
-0.0656687166886737
31
0
210
0
220
0
230
1
40
0.955145
41
0.67397301896773
42
2.11943243036734
0
ELLIPSE
5
399
100
AcDbEntity
8
1
62
256
6
ByLayer
370
18
48
1
60
0
100
AcDbEllipse
10
41.429451
20
46.103573
30
0
11
0.504297899378153
21
-0.149531363542175
31
0
210
0
220
0
230
1
40
0.955145
41
-1.52217974180243
42
-0.748752607513558
0
ELLIPSE
5
39A
100
AcDbEntity
8
1
62
256
6
ByLayer
370
18
48
1
60
0
100
AcDbEllipse
10
41.429451
20
46.103573
30
0
11
0.504297899378153
21
-0.149531363542175
31
0
210
0
220
0
230
1
40
0.955145
41
-0.748752607513558
42
-2.31406738090605E-06
0
ELLIPSE
5
39B
100
AcDbEntity
8
1
62
256
6
ByLayer
370
18
48
1
60
0
100
AcDbEllipse
10
41.259417
20
45.400721
30
0
11
0.221469229574816
21
-0.0656687166886737
31
0
210
0
220
0
230
1
40
0.955145
41
1.61941291178735
42
2.15377271141084
0
ELLIPSE
5
39C
100
AcDbEntity
8
1
62
256
6
ByLayer
370
18
48
1
60
0
100
AcDbEllipse
10
43.635614
20
44.887758
30
0
11
0.504297899378153
21
-0.149531363542175
31
0
210
0
220
0
230
1
40
0.955145
41
-2.79955407000028
42
-2.48480708899589
0
ELLIPSE
5
39D
100
AcDbEntity
8
1
62
256
6
ByLayer
370
18
48
1
60
0
100
AcDbEllipse
10
42.267606
20
45.173266
30
0
11
-0.89354684832783
21
0.2649491080253
31
0
210
0
220
0
230
1
40
0.955145
41
-2.86746196285936
42
-2.81847065575539
0
ELLIPSE
5
39E
100
AcDbEntity
8
1
62
256
6
ByLayer
370
18
48
1
60
0
100
AcDbEllipse
10
40.732255
20
44.894407
30
0
11
0.504297899378153
21
-0.149531363542175
31
0
210
0
220
0
230
1
40
0.955145
41
-0.0688868697748996
42
-7.63669816978621E-06
0
ELLIPSE
5
39F
100
AcDbEntity
8
1
62
256
6
ByLayer
370
18
48
1
60
0
100
AcDbEllipse
10
42.267606
20
45.173266
30
0
11
-0.89354684832783
21
0.2649491080253
31
0
210
0
220
0
230
1
40
0.955145
41
0.274130690730444
42
0.323121997834406
0
ELLIPSE
5
3A0
100
AcDbEntity
8
1
62
256
6
ByLayer
370
18
48
1
60
0
100
AcDbEllipse
10
42.200772
20
44.947867
30
0
11
2.01335663249833
21
-0.596988333533398
31
0
210
0
220
0
230
1
40
0.955145
41
-3.14159093381761
42
-2.72326820105882
0
ELLIPSE
5
3A1
100
AcDbEntity
8
1
62
256
6
ByLayer
370
18
48
1
60
0
100
AcDbEllipse
10
42.284958
20
45.231786
30
0
11
1.23581747585255
21
-0.366437124725976
31
0
210
0
220
0
230
1
40
0.955145
41
2.91625742107513
42
-2.4066044273266
0
ELLIPSE
5
3A2
100
AcDbEntity
8
1
62
256
6
ByLayer
370
18
48
1
60
0
100
AcDbEllipse
10
42.284958
20
45.231786
30
0
11
1.23581747585255
21
-0.366437124725976
31
0
210
0
220
0
230
1
40
0.955145
41
1.86942267107732
42
2.91625742107513
0
ELLIPSE
5
3A3
100
AcDbEntity
8
1
62
256
6
ByLayer
370
18
48
1
60
0
100
AcDbEllipse
10
42.284958
20
45.231786
30
0
11
1.23581747585255
21
-0.366437124725976
31
0
210
0
220
0
230
1
40
0.955145
41
0.822587921079509
42
1.86942267107732
0
ELLIPSE
5
3A4
100
AcDbEntity
8
1
62
256
6
ByLayer
370
18
48
1
60
0
100
AcDbEllipse
10
42.284958
20
45.231786
30
0
11
1.23581747585255
21
-0.366437124725976
31
0
210
0
220
0
230
1
40
0.955145
41
-0.132970282682975
42
0.822587921079509
0
ELLIPSE
5
3A5
100
AcDbEntity
8
1
62
256
6
ByLayer
370
18
48
1
60
0
100
AcDbEllipse
10
42.284958
20
45.231786
30
0
11
1.34223775499889
21
-0.397992222355599
31
0
210
0
220
0
230
1
40
0.955145
41
-0.0966021444700642
42
0
0
ELLIPSE
5
3A6
100
AcDbEntity
8
1
62
256
6
ByLayer
370
18
48
1
60
0
100
AcDbEllipse
10
42.284958
20
45.231786
30
0
11
1.34223775499889
21
-0.397992222355599
31
0
210
0
220
0
230
1
40
0.955145
41
0
42
0.301005755870791
0
ELLIPSE
5
3A7
100
AcDbEntity
8
1
62
256
6
ByLayer
370
18
48
1
60
0
100
AcDbEllipse
10
42.284958
20
45.231786
30
0
11
1.34223775499889
21
-0.397992222355599
31
0
210
0
220
0
230
1
40
0.955145
41
0.301005705756231
42
-2.44307762439342
0
ELLIPSE
5
3A8
100
AcDbEntity
8
1
62
256
6
ByLayer
370
18
48
1
60
0
100
AcDbEllipse
10
42.183935
20
44.891083
30
0
11
-0.89354684832783
21
0.2649491080253
31
0
210
0
220
0
230
1
40
0.955145
41
-1.79558735751137
42
-0.748752607513567
0
ELLIPSE
5
3A9
100
AcDbEntity
8
1
62
256
6
ByLayer
370
18
48
1
60
0
100
AcDbEllipse
10
42.262869
20
45.157291
30
0
11
2.01335663249833
21
-0.596988333533398
31
0
210
0
220
0
230
1
40
0.955145
41
0.0780507676828209
42
0.301005457526317
0
ELLIPSE
5
3AA
100
AcDbEntity
8
1
62
256
6
ByLayer
370
18
48
1
60
0
100
AcDbEllipse
10
42.262869
20
45.157291
30
0
11
2.01335663249833
21
-0.596988333533398
31
0
210
0
220
0
230
1
40
0.955145
41
0.301005953986151
42
-2.61773000636544
0
ELLIPSE
5
3AB
100
AcDbEntity
8
1
62
256
6
ByLayer
370
18
48
1
60
0
100
AcDbEllipse
10
42.183935
20
44.891083
30
0
11
-0.89354684832783
21
0.2649491080253
31
0
210
0
220
0
230
1
40
0.955145
41
-3.04226271337541
42
-2.86746196285936
0
ELLIPSE
5
3AC
100
AcDbEntity
8
1
62
256
6
ByLayer
370
18
48
1
60
0
100
AcDbEllipse
10
42.183935
20
44.891083
30
0
11
-0.89354684832783
21
0.2649491080253
31
0
210
0
220
0
230
1
40
0.955145
41
-2.81847065575539
42
-1.79558735751137
0
ELLIPSE
5
3AD
100
AcDbEntity
8
1
62
256
6
ByLayer
370
18
48
1
60
0
100
AcDbEllipse
10
42.267606
20
1.059232
30
0
11
0.928400806994253
21
0.0818287331713002
31
0
210
0
220
0
230
1
40
0.283919
41
-0.0268750431707774
42
0.0221162639331997
0
ELLIPSE
5
3AE
100
AcDbEntity
8
1
62
256
6
ByLayer
370
18
48
1
60
0
100
AcDbEllipse
10
42.267606
20
1.059232
30
0
11
0.928400806994253
21
0.0818287331713002
31
0
210
0
220
0
230
1
40
0.283919
41
3.11471761041902
42
-3.11947638965659
0
ELLIPSE
5
3AF
100
AcDbEntity
8
1
62
256
6
ByLayer
370
18
48
1
60
0
100
AcDbEllipse
10
42.284958
20
0.862363
30
0
11
-1.28402214615407
21
-0.113173001134983
31
0
210
0
220
0
230
1
40
0.283919
41
1.56841693717611
42
2.61525168717392
0
ELLIPSE
5
3B0
100
AcDbEntity
8
1
62
256
6
ByLayer
370
18
48
1
60
0
100
AcDbEllipse
10
42.284958
20
0.862363
30
0
11
-1.28402214615407
21
-0.113173001134983
31
0
210
0
220
0
230
1
40
0.283919
41
0.521582187178312
42
1.56841693717611
0
ELLIPSE
5
3B1
100
AcDbEntity
8
1
62
256
6
ByLayer
370
18
48
1
60
0
100
AcDbEllipse
10
42.284958
20
0.862363
30
0
11
-1.28402214615407
21
-0.113173001134983
31
0
210
0
220
0
230
1
40
0.283919
41
-0.52634096641587
42
0.521582187178312
0
ELLIPSE
5
3B2
100
AcDbEntity
8
1
62
256
6
ByLayer
370
18
48
1
60
0
100
AcDbEllipse
10
42.284958
20
0.862363
30
0
11
-1.28402214615407
21
-0.113173001134983
31
0
210
0
220
0
230
1
40
0.283919
41
-1.57317571641368
42
-0.52634096641587
0
ELLIPSE
5
3B3
100
AcDbEntity
8
1
62
256
6
ByLayer
370
18
48
1
60
0
100
AcDbEllipse
10
42.284958
20
0.862363
30
0
11
-1.28402214615407
21
-0.113173001134983
31
0
210
0
220
0
230
1
40
0.283919
41
-2.62001046641148
42
-1.57317571641368
0
ELLIPSE
5
3B4
100
AcDbEntity
8
1
62
256
6
ByLayer
370
18
48
1
60
0
100
AcDbEllipse
10
42.284958
20
0.862363
30
0
11
-1.28402214615407
21
-0.113173001134983
31
0
210
0
220
0
230
1
40
0.283919
41
2.61525168717392
42
-2.62001046641148
0
ELLIPSE
5
3B5
100
AcDbEntity
8
1
62
256
6
ByLayer
370
18
48
1
60
0
100
AcDbEllipse
10
42.284958
20
0.862363
30
0
11
-1.39459348690124
21
-0.122918697896801
31
0
210
0
220
0
230
1
40
0.283919
41
0
42
6.28318530717959
0
ELLIPSE
5
3B6
100
AcDbEntity
8
1
62
256
6
ByLayer
370
18
48
1
60
0
100
AcDbEllipse
10
42.262869
20
1.112974
30
0
11
-2.09189023035186
21
-0.184378046845201
31
0
210
0
220
0
230
1
40
0.283919
41
2.4473986844175
42
2.99462486090355
0
ELLIPSE
5
3B7
100
AcDbEntity
8
1
62
256
6
ByLayer
370
18
48
1
60
0
100
AcDbEllipse
10
42.262869
20
1.112974
30
0
11
-2.09189023035186
21
-0.184378046845201
31
0
210
0
220
0
230
1
40
0.283919
41
0.147065560154387
42
0.694291910435672
0
ELLIPSE
5
3B8
100
AcDbEntity
8
1
62
256
6
ByLayer
370
18
48
1
60
0
100
AcDbEllipse
10
42.183935
20
33.16304
30
0
11
0.917676305922695
21
0.162770382895892
31
0
210
0
220
0
230
1
40
0.876151
41
-2.22574553877079
42
-1.17891078877298
0
ELLIPSE
5
3B9
100
AcDbEntity
8
1
62
256
6
ByLayer
370
18
48
1
60
0
100
AcDbEllipse
10
42.183935
20
33.16304
30
0
11
0.917676305922695
21
0.162770382895892
31
0
210
0
220
0
230
1
40
0.876151
41
-1.17891078877298
42
-0.156027490528957
0
ELLIPSE
5
3BA
100
AcDbEntity
8
1
62
256
6
ByLayer
370
18
48
1
60
0
100
AcDbEllipse
10
42.183935
20
33.16304
30
0
11
0.917676305922695
21
0.162770382895892
31
0
210
0
220
0
230
1
40
0.876151
41
-0.107036183425004
42
0.0310855003147277
0
ELLIPSE
5
3BB
100
AcDbEntity
8
1
62
256
6
ByLayer
370
18
48
1
60
0
100
AcDbEllipse
10
42.183935
20
33.16304
30
0
11
0.917676305922695
21
0.162770382895892
31
0
210
0
220
0
230
1
40
0.876151
41
2.90459787686039
42
2.98556516306083
0
ELLIPSE
5
3BC
100
AcDbEntity
8
1
62
256
6
ByLayer
370
18
48
1
60
0
100
AcDbEllipse
10
42.183935
20
33.16304
30
0
11
0.917676305922695
21
0.162770382895892
31
0
210
0
220
0
230
1
40
0.876151
41
-2.9720513100711
42
-2.22574553877079
0
ELLIPSE
5
3BD
100
AcDbEntity
8
1
62
256
6
ByLayer
370
18
48
1
60
0
100
AcDbEllipse
10
42.295889
20
32.531857
30
0
11
-2.27738717698328
21
-0.403945465745712
31
0
210
0
220
0
230
1
40
0.876151
41
0
42
6.28318530717959
0
ELLIPSE
5
3BE
100
AcDbEntity
8
1
62
256
6
ByLayer
370
13
48
1
60
0
100
AcDbEllipse
10
42.214458
20
32.990954
30
0
11
2.16371836643509
21
0.383783764177498
31
0
210
0
220
0
230
1
40
0.876151
41
0
42
0.101807160533026
0
ELLIPSE
5
3BF
100
AcDbEntity
8
1
62
256
6
ByLayer
370
13
48
1
60
0
100
AcDbEllipse
10
42.214458
20
32.990954
30
0
11
2.16371836643509
21
0.383783764177498
31
0
210
0
220
0
230
1
40
0.876151
41
3.0398836454751
42
-2.75910360789904
0
ELLIPSE
5
3C0
100
AcDbEntity
8
1
62
256
6
ByLayer
370
13
48
1
60
0
100
AcDbEllipse
10
42.214458
20
32.990954
30
0
11
2.16371836643509
21
0.383783764177498
31
0
210
0
220
0
230
1
40
0.876151
41
-0.382587100832451
42
0
0
ELLIPSE
5
3C1
100
AcDbEntity
8
1
62
256
6
ByLayer
370
13
48
1
60
0
100
AcDbEllipse
10
42.227807
20
32.915692
30
0
11
-2.22170613577068
21
-0.394069189830423
31
0
210
0
220
0
230
1
40
0.876151
41
-0.0301397540540346
42
0
0
ELLIPSE
5
3C2
100
AcDbEntity
8
1
62
256
6
ByLayer
370
13
48
1
60
0
100
AcDbEllipse
10
42.227807
20
32.915692
30
0
11
-2.22170613577068
21
-0.394069189830423
31
0
210
0
220
0
230
1
40
0.876151
41
2.35266008362383
42
-3.11155115989874
0
ELLIPSE
5
3C3
100
AcDbEntity
8
1
62
256
6
ByLayer
370
13
48
1
60
0
100
AcDbEllipse
10
42.227807
20
32.915692
30
0
11
-2.22170613577068
21
-0.394069189830423
31
0
210
0
220
0
230
1
40
0.876151
41
0
42
0.789030446212459
0
ELLIPSE
5
3C4
100
AcDbEntity
8
1
62
256
6
ByLayer
370
18
48
1
60
0
100
AcDbEllipse
10
44
20
23.120148
30
0
11
-3
21
3.67381906146713E-16
31
0
210
0
220
0
230
1
40
0.878817
41
-3.06963056787276
42
-0.0807979187318931
0
ELLIPSE
5
3C5
100
AcDbEntity
8
1
62
256
6
ByLayer
370
18
48
1
60
0
100
AcDbEllipse
10
44
20
23.478017
30
0
11
-2.25
21
2.75536429610035E-16
31
0
210
0
220
0
230
1
40
0.878817
41
0
42
6.28318530717959
0
POINT
5
70
100
AcDbEntity
8
80
62
256
6
ByLayer
370
18
48
1
60
0
100
AcDbPoint
10
0
20
0
30
0
39
0
210
0
220
0
230
1
50
360
0
POINT
5
72
100
AcDbEntity
8
81
62
256
6
ByLayer
370
18
48
1
60
0
100
AcDbPoint
10
38
20
50
30
0
39
0
210
0
220
0
230
1
50
360
0
POINT
5
74
100
AcDbEntity
8
1
62
256
6
ByLayer
370
18
48
1
60
0
100
AcDbPoint
10
0
20
0
30
0
39
0
210
0
220
0
230
1
50
360
0
POINT
5
76
100
AcDbEntity
8
1
62
256
6
ByLayer
370
18
48
1
60
1
100
AcDbPoint
10
38
20
-50
30
0
39
0
210
0
220
0
230
1
50
360
0
POINT
5
77
100
AcDbEntity
8
1
62
256
6
ByLayer
370
18
48
1
60
1
100
AcDbPoint
10
0
20
-13.5
30
0
39
0
210
0
220
0
230
1
50
360
0
POINT
5
78
100
AcDbEntity
8
1
62
256
6
ByLayer
370
18
48
1
60
1
100
AcDbPoint
10
38
20
50
30
0
39
0
210
0
220
0
230
1
50
360
0
POINT
5
79
100
AcDbEntity
8
1
62
256
6
ByLayer
370
18
48
1
60
1
100
AcDbPoint
10
45.6
20
50
30
0
39
0
210
0
220
0
230
1
50
360
0
POINT
5
7A
100
AcDbEntity
8
1
62
256
6
ByLayer
370
18
48
1
60
1
100
AcDbPoint
10
49.5
20
50
30
0
39
0
210
0
220
0
230
1
50
360
0
SPLINE
5
3C6
100
AcDbEntity
8
1
62
256
6
ByLayer
370
18
48
1
60
0
100
AcDbSpline
70
4
71
3
72
10
73
6
40
0
40
0
40
0
40
0
40
0.710985745338703
40
0.710985745338703
40
1
40
1
40
1
40
1
41
1
10
38.1805214835459
20
-41.5385941799802
30
0
41
1
10
38.1827463559834
20
-41.4951062659002
30
0
41
1
10
38.1897398474279
20
-41.4522496587477
30
0
41
1
10
38.2061347410396
20
-41.3928402017856
30
0
41
1
10
38.2116489128812
20
-41.375772730147
30
0
41
1
10
38.2179584874822
20
-41.3588105601212
30
0
0
SPLINE
5
3C7
100
AcDbEntity
8
1
62
256
6
ByLayer
370
18
48
1
60
0
100
AcDbSpline
70
4
71
3
72
10
73
6
40
0
40
0
40
0
40
0
40
0.5
40
0.5
40
1
40
1
40
1
40
1
41
1
10
49.2633404146229
20
-46.7514736894442
30
0
41
1
10
49.2292589050628
20
-46.7730362079835
30
0
41
1
10
49.1905080596328
20
-46.7940790319863
30
0
41
1
10
49.0998776816053
20
-46.8347034642686
30
0
41
1
10
49.0477431177784
20
-46.8543945163412
30
0
41
1
10
48.9868161417696
20
-46.8722769964331
30
0
0
SPLINE
5
3C8
100
AcDbEntity
8
1
62
256
6
ByLayer
370
18
48
1
60
0
100
AcDbSpline
70
4
71
3
72
28
73
24
40
0
40
0
40
0
40
0
40
0.125000000000023
40
0.125000000000023
40
0.187500000000033
40
0.187500000000033
40
0.250000000000044
40
0.250000000000044
40
0.375000000000066
40
0.375000000000066
40
0.43750000000007
40
0.43750000000007
40
0.500000000000073
40
0.500000000000073
40
0.625000000000058
40
0.625000000000058
40
0.750000000000043
40
0.750000000000043
40
0.812500000000032
40
0.812500000000032
40
0.875000000000022
40
0.875000000000022
40
1
40
1
40
1
40
1
41
1
10
38.7642687247789
20
-34.4472954847904
30
0
41
1
10
38.7134512230853
20
-34.4505204668247
30
0
41
1
10
38.6634401094249
20
-34.4502442572408
30
0
41
1
10
38.5896003632756
20
-34.4447199493351
30
0
41
1
10
38.5651846595254
20
-34.4420208087022
30
0
41
1
10
38.5167599958829
20
-34.4348565188523
30
0
41
1
10
38.4928422757836
20
-34.4303937592983
30
0
41
1
10
38.4232412990538
20
-34.4146491642712
30
0
41
1
10
38.3791904322963
20
-34.4009653632053
30
0
41
1
10
38.3166491535976
20
-34.3756445225982
30
0
41
1
10
38.2962873859724
20
-34.3663394146983
30
0
41
1
10
38.257482147141
20
-34.3464133886555
30
0
41
1
10
38.2390150013879
20
-34.3357979391937
30
0
41
1
10
38.1863421243586
20
-34.3020485846676
30
0
41
1
10
38.1548393283035
20
-34.2770295453603
30
0
41
1
10
38.0992709021634
20
-34.2218044921818
30
0
41
1
10
38.0760669119159
20
-34.1924419293392
30
0
41
1
10
38.0479035345309
20
-34.1460490416804
30
0
41
1
10
38.0396231838683
20
-34.1301824716859
30
0
41
1
10
38.0253104510527
20
-34.0976327655101
30
0
41
1
10
38.0192755469421
20
-34.0809029704001
30
0
41
1
10
38.0048935690585
20
-34.0303782177977
30
0
41
1
10
38.0000906110284
20
-33.9959861912229
30
0
41
1
10
38.0000882470615
20
-33.9608830003898
30
0
0
SPLINE
5
3C9
100
AcDbEntity
8
1
62
256
6
ByLayer
370
18
48
1
60
0
100
AcDbSpline
70
4
71
3
72
14
73
10
40
0
40
0
40
0
40
0
40
0.317125698449133
40
0.317125698449133
40
0.634251396898265
40
0.634251396898265
40
0.951377095347398
40
0.951377095347398
40
1
40
1
40
1
40
1
41
1
10
38.3998989792158
20
-30.2739805296208
30
0
41
1
10
38.4006952360238
20
-30.2893783465474
30
0
41
1
10
38.4046061730843
20
-30.3042520846682
30
0
41
1
10
38.4183569909675
20
-30.3330019516727
30
0
41
1
10
38.4283371110725
20
-30.3470088510591
30
0
41
1
10
38.4538976663406
20
-30.3732875757082
30
0
41
1
10
38.4693247254101
20
-30.3854882995116
30
0
41
1
10
38.4901078419928
20
-30.3984990723679
30
0
41
1
10
38.492937210723
20
-30.4002086295386
30
0
41
1
10
38.4958294875267
20
-30.4018963300114
30
0
0
SPLINE
5
3CA
100
AcDbEntity
8
1
62
256
6
ByLayer
370
13
48
1
60
0
100
AcDbSpline
70
4
71
3
72
8
73
4
40
0
40
0
40
0
40
0
40
1
40
1
40
1
40
1
41
1
10
38.0000882470615
20
-33.9608830003899
30
0
41
1
10
38.1333584911129
20
-32.7319155101335
30
0
41
1
10
38.2666287351643
20
-31.5029480198772
30
0
41
1
10
38.3998989792158
20
-30.2739805296209
30
0
0
SPLINE
5
3CB
100
AcDbEntity
8
1
62
256
6
ByLayer
370
18
48
1
60
0
100
AcDbSpline
70
4
71
3
72
29
73
25
40
0
40
0
40
0
40
0
40
0.125
40
0.125
40
0.187500000000012
40
0.187500000000012
40
0.250000000000024
40
0.250000000000024
40
0.375000000000026
40
0.375000000000026
40
0.437500000000027
40
0.437500000000027
40
0.500000000000027
40
0.500000000000027
40
0.625000000000016
40
0.625000000000016
40
0.687500000000013
40
0.687500000000013
40
0.750000000000011
40
0.812500000000008
40
0.812500000000008
40
0.875000000000005
40
0.875000000000005
40
1
40
1
40
1
40
1
41
1
10
46.467623260972
20
-33.4235160031052
30
0
41
1
10
46.4676208967812
20
-33.4586228178994
30
0
41
1
10
46.4628170878155
20
-33.4935158274295
30
0
41
1
10
46.4485686595187
20
-33.5455417341365
30
0
41
1
10
46.4426373394891
20
-33.5628310762839
30
0
41
1
10
46.4283376018244
20
-33.5973012381824
30
0
41
1
10
46.4199749293787
20
-33.6144315895236
30
0
41
1
10
46.3917437651982
20
-33.664588283799
30
0
41
1
10
46.3686255500776
20
-33.6967416811602
30
0
41
1
10
46.327431753438
20
-33.7430241634075
30
0
41
1
10
46.3125274172971
20
-33.7581965966061
30
0
41
1
10
46.2808125326987
20
-33.7875043982371
30
0
41
1
10
46.2640967979032
20
-33.8015675653046
30
0
41
1
10
46.211440436828
20
-33.8420300986711
30
0
41
1
10
46.1730144751759
20
-33.8667188925418
30
0
41
1
10
46.110222846689
20
-33.9002056635301
30
0
41
1
10
46.0884791191968
20
-33.9107310819273
30
0
41
1
10
46.0442363719022
20
-33.9301198485799
30
0
41
1
10
45.9990105755002
20
-33.9479723644745
30
0
41
1
10
45.9518461090981
20
-33.9627952420375
30
0
41
1
10
45.9036983482
20
-33.9760814853636
30
0
41
1
10
45.8790116241334
20
-33.9819780405867
30
0
41
1
10
45.8045160436905
20
-33.997055603368
30
0
41
1
10
45.7542705511224
20
-34.0036957492989
30
0
41
1
10
45.7034427832546
20
-34.0069213828455
30
0
0
SPLINE
5
3CC
100
AcDbEntity
8
1
62
256
6
ByLayer
370
13
48
1
60
0
100
AcDbSpline
70
4
71
3
72
8
73
4
40
0
40
0
40
0
40
0
40
1
40
1
40
1
40
1
41
1
10
38.8934044780991
20
-30.5060965225696
30
0
41
1
10
38.8503592269925
20
-31.8198295099766
30
0
41
1
10
38.8073139758856
20
-33.1335624973835
30
0
41
1
10
38.7642687247789
20
-34.4472954847905
30
0
0
SPLINE
5
3CD
100
AcDbEntity
8
1
62
256
6
ByLayer
370
18
48
1
60
0
100
AcDbSpline
70
4
71
3
72
28
73
24
40
0
40
0
40
0
40
0
40
0.124999999999982
40
0.124999999999982
40
0.187499999999966
40
0.187499999999966
40
0.24999999999995
40
0.24999999999995
40
0.374999999999925
40
0.374999999999925
40
0.43749999999992
40
0.43749999999992
40
0.499999999999914
40
0.499999999999914
40
0.624999999999928
40
0.624999999999928
40
0.749999999999941
40
0.749999999999941
40
0.812499999999956
40
0.812499999999956
40
0.87499999999997
40
0.87499999999997
40
1
40
1
40
1
40
1
41
1
10
38.7642687247789
20
49.9832652244511
30
0
41
1
10
38.7134512230852
20
49.9833816059934
30
0
41
1
10
38.6634401094249
20
49.9784858822638
30
0
41
1
10
38.5896003632756
20
49.9638271227812
30
0
41
1
10
38.5651846595254
20
49.9577130287779
30
0
41
1
10
38.5167599958829
20
49.9429567240885
30
0
41
1
10
38.4928422757836
20
49.934326183678
30
0
41
1
10
38.4232412990539
20
49.9052060423195
30
0
41
1
10
38.3791904322963
20
49.8813749126085
30
0
41
1
10
38.3166491535976
20
49.838982216054
30
0
41
1
10
38.2962873859724
20
49.8236389953944
30
0
41
1
10
38.2574821471409
20
49.7912140805744
30
0
41
1
10
38.2390150013879
20
49.7741382005813
30
0
41
1
10
38.1863421243586
20
49.7203921567003
30
0
41
1
10
38.1548393283035
20
49.6812272402568
30
0
41
1
10
38.0992709021634
20
49.5960330590623
30
0
41
1
10
38.0760669119159
20
49.5513061265233
30
0
41
1
10
38.0479035345309
20
49.4814013332852
30
0
41
1
10
38.0396231838683
20
49.4576150642919
30
0
41
1
10
38.0253104510527
20
49.4090587042193
30
0
41
1
10
38.0192755469422
20
49.3842206264378
30
0
41
1
10
38.0048935690585
20
49.309553928428
30
0
41
1
10
38.0000906110284
20
49.2591767363868
30
0
41
1
10
38.0000882470615
20
49.2081982010077
30
0
0
SPLINE
5
3CE
100
AcDbEntity
8
1
62
256
6
ByLayer
370
13
48
1
60
0
100
AcDbSpline
70
4
71
3
72
8
73
4
40
0
40
0
40
0
40
0
40
1
40
1
40
1
40
1
41
1
10
45.4158998138474
20
-30.0995697484267
30
0
41
1
10
45.7664742962222
20
-31.2075518333195
30
0
41
1
10
46.1170487785972
20
-32.3155339182125
30
0
41
1
10
46.4676232609721
20
-33.4235160031054
30
0
0
SPLINE
5
3CF
100
AcDbEntity
8
1
62
256
6
ByLayer
370
13
48
1
60
0
100
AcDbSpline
70
4
71
3
72
8
73
4
40
0
40
0
40
0
40
0
40
1
40
1
40
1
40
1
41
1
10
45.7034427832545
20
-34.0069213828453
30
0
41
1
10
45.4104903697756
20
-32.7167632981763
30
0
41
1
10
45.1175379562966
20
-31.4266052135072
30
0
41
1
10
44.8245855428176
20
-30.1364471288382
30
0
0
SPLINE
5
3D0
100
AcDbEntity
8
1
62
256
6
ByLayer
370
18
48
1
60
0
100
AcDbSpline
70
4
71
3
72
29
73
25
40
0
40
0
40
0
40
0
40
0.125000000000019
40
0.125000000000019
40
0.187500000000019
40
0.187500000000019
40
0.25000000000002
40
0.25000000000002
40
0.375000000000028
40
0.375000000000028
40
0.437500000000032
40
0.437500000000032
40
0.500000000000036
40
0.500000000000036
40
0.62500000000002
40
0.62500000000002
40
0.687500000000017
40
0.687500000000017
40
0.750000000000013
40
0.81250000000001
40
0.81250000000001
40
0.875000000000007
40
0.875000000000007
40
1
40
1
40
1
40
1
41
1
10
46.467623260972
20
49.1888059689791
30
0
41
1
10
46.4676208967812
20
49.2397893422969
30
0
41
1
10
46.4628170878155
20
49.2900307030435
30
0
41
1
10
46.4485686595187
20
49.3643043669756
30
0
41
1
10
46.4426373394891
20
49.3888796134569
30
0
41
1
10
46.4283376018244
20
49.437653478729
30
0
41
1
10
46.4199749293787
20
49.4617793215147
30
0
41
1
10
46.3917437651982
20
49.5320817799767
30
0
41
1
10
46.3686255500776
20
49.5766986082987
30
0
41
1
10
46.327431753438
20
49.6402097957315
30
0
41
1
10
46.3125274172971
20
49.660904355209
30
0
41
1
10
46.2808125326987
20
49.7006160901236
30
0
41
1
10
46.2640967979032
20
49.7195369328134
30
0
41
1
10
46.2114404368279
20
49.7735659828911
30
0
41
1
10
46.1730144751759
20
49.8059666632547
30
0
41
1
10
46.110222846689
20
49.8489543421273
30
0
41
1
10
46.0884791191968
20
49.8622856421894
30
0
41
1
10
46.0442363719022
20
49.8864666348323
30
0
41
1
10
45.9990105755003
20
49.9083282712018
30
0
41
1
10
45.9518461090981
20
49.9256159077647
30
0
41
1
10
45.9036983482
20
49.9405836090965
30
0
41
1
10
45.8790116241334
20
49.946928187228
30
0
41
1
10
45.8045160436905
20
49.9621293854575
30
0
41
1
10
45.7542705511224
20
49.9672568185722
30
0
41
1
10
45.7034427832546
20
49.9673732236259
30
0
0
SPLINE
5
3D1
100
AcDbEntity
8
1
62
256
6
ByLayer
370
18
48
1
60
0
100
AcDbSpline
70
4
71
3
72
29
73
25
40
0
40
0
40
0
40
0
40
0.0838470911222632
40
0.0838470911222632
40
0.273546440636372
40
0.273546440636372
40
0.320971278014899
40
0.320971278014899
40
0.368396115393425
40
0.368396115393425
40
0.46324579015048
40
0.46324579015048
40
0.652945139664589
40
0.652945139664589
40
0.700369977043118
40
0.700369977043118
40
0.747794814421648
40
0.747794814421648
40
0.842644489178707
40
0.937494163935766
40
0.937494163935766
40
0.984919001314297
40
0.984919001314297
40
1
40
1
40
1
40
1
41
1
10
46.7322990326084
20
-31.4962269276704
30
0
41
1
10
46.7685571276753
20
-31.5377314096144
30
0
41
1
10
46.8015138408417
20
-31.5806534206926
30
0
41
1
10
46.8962695170376
20
-31.7227611769706
30
0
41
1
10
46.9431005860815
20
-31.825529801915
30
0
41
1
10
46.9782909090087
20
-31.9595735703917
30
0
41
1
10
46.9841510810829
20
-31.986662875325
30
0
41
1
10
46.9934792173407
20
-32.0414162449992
30
0
41
1
10
46.9969507689103
20
-32.0691586436005
30
0
41
1
10
47.0036506815575
20
-32.1525231649945
30
0
41
1
10
47.0032161637489
20
-32.2083314828234
30
0
41
1
10
46.9876874951752
20
-32.3764329991911
30
0
41
1
10
46.9585031141204
20
-32.4894108829827
30
0
41
1
10
46.8979821021155
20
-32.6315908339994
30
0
41
1
10
46.8846359736775
20
-32.6601190128217
30
0
41
1
10
46.8557931541586
20
-32.7166557498489
30
0
41
1
10
46.840270865357
20
-32.7447337932925
30
0
41
1
10
46.7904606167524
20
-32.828391527055
30
0
41
1
10
46.7154134620507
20
-32.9384018912228
30
0
41
1
10
46.6233377479761
20
-33.045192169689
30
0
41
1
10
46.5477958518466
20
-33.1239697629013
30
0
41
1
10
46.5215324110404
20
-33.1500092425961
30
0
41
1
10
46.4854627969983
20
-33.1840231975673
30
0
41
1
10
46.4766483962881
20
-33.1922056081253
30
0
41
1
10
46.4677322356013
20
-33.2003547784977
30
0
0
SPLINE
5
3D2
100
AcDbEntity
8
1
62
256
6
ByLayer
370
18
48
1
60
0
100
AcDbSpline
70
4
71
3
72
20
73
16
40
0
40
0
40
0
40
0
40
0.218054409657702
40
0.218054409657702
40
0.327081614486553
40
0.327081614486553
40
0.436108819315405
40
0.436108819315405
40
0.654163228973107
40
0.654163228973107
40
0.763190433801959
40
0.763190433801959
40
0.87221763863081
40
0.87221763863081
40
1
40
1
40
1
40
1
41
1
10
38.1805214835459
20
41.5385941799802
30
0
41
1
10
38.1827463559834
20
41.4951062659002
30
0
41
1
10
38.1897398474279
20
41.4522496587476
30
0
41
1
10
38.2072246509093
20
41.3888907431901
30
0
41
1
10
38.2142266828209
20
41.3679264967034
30
0
41
1
10
38.2306511826814
20
41.3263184399053
30
0
41
1
10
38.2400647335038
20
41.3057367081698
30
0
41
1
10
38.2713577608896
20
41.2457604524926
30
0
41
1
10
38.2964186408875
20
41.2076953053271
30
0
41
1
10
38.3403769560151
20
41.1535075189068
30
0
41
1
10
38.3561819381616
20
41.1358504084167
30
0
41
1
10
38.3896248025805
20
41.1019663244577
30
0
41
1
10
38.4071636812415
20
41.0858215530375
30
0
41
1
10
38.4469887185592
20
41.0524422330433
30
0
41
1
10
38.4695647188024
20
41.0354903722998
30
0
41
1
10
38.4932488780631
20
41.0196193194281
30
0
0
SPLINE
5
3D3
100
AcDbEntity
8
1
62
256
6
ByLayer
370
18
48
1
60
0
100
AcDbSpline
70
4
71
3
72
24
73
20
40
0
40
0
40
0
40
0
40
0.062500000000006
40
0.062500000000006
40
0.125000000000012
40
0.125000000000012
40
0.250000000000005
40
0.250000000000005
40
0.312500000000005
40
0.312500000000005
40
0.375000000000005
40
0.375000000000005
40
0.500000000000004
40
0.500000000000004
40
0.625000000000003
40
0.625000000000003
40
0.750000000000002
40
0.750000000000002
40
1
40
1
40
1
40
1
41
1
10
49.5
20
-45.9806681910795
30
0
41
1
10
49.5
20
-46.0002860175016
30
0
41
1
10
49.4993795036571
20
-46.0201040943062
30
0
41
1
10
49.4969627170435
20
-46.0601197073377
30
0
41
1
10
49.4951529507736
20
-46.0804287203026
30
0
41
1
10
49.4881202549814
20
-46.1411546729122
30
0
41
1
10
49.481484359127
20
-46.1802376227485
30
0
41
1
10
49.4694284219573
20
-46.2373497626665
30
0
41
1
10
49.4650434452607
20
-46.2561533688136
30
0
41
1
10
49.4558525222682
20
-46.2925603483267
30
0
41
1
10
49.451024461404
20
-46.3102744534323
30
0
41
1
10
49.4359627607956
20
-46.3622016818165
30
0
41
1
10
49.4251577411889
20
-46.3952126327199
30
0
41
1
10
49.4024173908222
20
-46.4588563813353
30
0
41
1
10
49.3905309327724
20
-46.4893169269197
30
0
41
1
10
49.366314002346
20
-46.5473720510724
30
0
41
1
10
49.3539265096779
20
-46.5751146302443
30
0
41
1
10
49.3161075202682
20
-46.655318988097
30
0
41
1
10
49.2900286139898
20
-46.704799303225
30
0
41
1
10
49.2633404146233
20
-46.7514736894437
30
0
0
SPLINE
5
3D4
100
AcDbEntity
8
1
62
256
6
ByLayer
370
18
48
1
60
0
100
AcDbSpline
70
4
71
3
72
22
73
18
40
0
40
0
40
0
40
0
40
0.12499999999999
40
0.12499999999999
40
0.249999999999981
40
0.249999999999981
40
0.499999999999982
40
0.499999999999982
40
0.624999999999986
40
0.624999999999986
40
0.74999999999999
40
0.74999999999999
40
0.874999999999994
40
0.874999999999994
40
0.937499999999997
40
0.937499999999997
40
1
40
1
40
1
40
1
41
1
10
38.7366595853769
20
-46.751473689444
30
0
41
1
10
38.7233616327862
20
-46.7282172019376
30
0
41
1
10
38.7101737347926
20
-46.7041744369628
30
0
41
1
10
38.6840610517023
20
-46.6542091150915
30
0
41
1
10
38.6711056910923
20
-46.628222672526
30
0
41
1
10
38.6330182860211
20
-46.5473848600594
30
0
41
1
10
38.6085803634758
20
-46.4897540053262
30
0
41
1
10
38.5744891194581
20
-46.3941638612908
30
0
41
1
10
38.5637099399346
20
-46.3611529106118
30
0
41
1
10
38.5437160594111
20
-46.2920597735795
30
0
41
1
10
38.5344619014456
20
-46.2558643755154
30
0
41
1
10
38.5183797040541
20
-46.1795071162743
30
0
41
1
10
38.5117723714361
20
-46.1404109854205
30
0
41
1
10
38.5047954338502
20
-46.0798892130549
30
0
41
1
10
38.5029968709042
20
-46.0595873714329
30
0
41
1
10
38.5006084002356
20
-46.0197640042362
30
0
41
1
10
38.5
20
-46.0000917643615
30
0
41
1
10
38.5
20
-45.9806681910795
30
0
0
SPLINE
5
3D5
100
AcDbEntity
8
1
62
256
6
ByLayer
370
18
48
1
60
0
100
AcDbSpline
70
4
71
3
72
10
73
6
40
0
40
0
40
0
40
0
40
0.5
40
0.5
40
1
40
1
40
1
40
1
41
1
10
39.0131838582298
20
-46.8722769964328
30
0
41
1
10
38.9521164716124
20
-46.8543533048763
30
0
41
1
10
38.900836882247
20
-46.8349823790907
30
0
41
1
10
38.810268044514
20
-46.7944676228031
30
0
41
1
10
38.7710533690741
20
-46.7732337760183
30
0
41
1
10
38.736659585377
20
-46.7514736894441
30
0
0
SPLINE
5
3D6
100
AcDbEntity
8
1
62
256
6
ByLayer
370
18
48
1
60
0
100
AcDbSpline
70
4
71
3
72
16
73
12
40
0
40
0
40
0
40
0
40
0.249999999999997
40
0.249999999999997
40
0.499999999999994
40
0.499999999999994
40
0.749999999999991
40
0.749999999999991
40
0.874999999999996
40
0.874999999999996
40
1
40
1
40
1
40
1
41
1
10
39.5
20
-46.9739747467407
30
0
41
1
10
39.4559940083834
20
-46.9739747467407
30
0
41
1
10
39.4124835975001
20
-46.971244984685
30
0
41
1
10
39.3264571725039
20
-46.9607695115117
30
0
41
1
10
39.2839402621099
20
-46.9530140895298
30
0
41
1
10
39.2000466709364
20
-46.9331899498051
30
0
41
1
10
39.1582486755849
20
-46.9208977890004
30
0
41
1
10
39.0993949512315
20
-46.9015104747394
30
0
41
1
10
39.0801732443277
20
-46.8948241450714
30
0
41
1
10
39.0443054373245
20
-46.8823486319359
30
0
41
1
10
39.0276821213596
20
-46.8765323348521
30
0
41
1
10
39.0131838582293
20
-46.8722769964327
30
0
0
SPLINE
5
3D7
100
AcDbEntity
8
1
62
256
6
ByLayer
370
18
48
1
60
0
100
AcDbSpline
70
4
71
3
72
66
73
62
40
0
40
0
40
0
40
0
40
0.0624999999999993
40
0.0624999999999993
40
0.124999999999999
40
0.124999999999999
40
0.187499999999998
40
0.187499999999998
40
0.249999999999997
40
0.249999999999997
40
0.312499999999997
40
0.312499999999997
40
0.374999999999996
40
0.374999999999996
40
0.406249999999996
40
0.406249999999996
40
0.421874999999995
40
0.421874999999995
40
0.437499999999995
40
0.437499999999995
40
0.453124999999995
40
0.453124999999995
40
0.460937499999995
40
0.460937499999995
40
0.468749999999995
40
0.468749999999995
40
0.484374999999993
40
0.484374999999993
40
0.492187499999993
40
0.492187499999993
40
0.499999999999994
40
0.499999999999994
40
0.507812499999994
40
0.507812499999994
40
0.515624999999994
40
0.515624999999994
40
0.523437499999995
40
0.523437499999995
40
0.531249999999995
40
0.531249999999995
40
0.546874999999996
40
0.546874999999996
40
0.562499999999997
40
0.562499999999997
40
0.593749999999997
40
0.593749999999997
40
0.624999999999997
40
0.624999999999997
40
0.687499999999997
40
0.687499999999997
40
0.749999999999997
40
0.749999999999997
40
0.781249999999998
40
0.781249999999998
40
0.812499999999999
40
0.812499999999999
40
0.874999999999999
40
0.874999999999999
40
0.9375
40
0.9375
40
1
40
1
40
1
40
1
41
1
10
40.0000000000001
20
-40.4498972903877
30
0
41
1
10
40.0000000000001
20
-40.6266012672271
30
0
41
1
10
40.0082587081403
20
-40.802143239453
30
0
41
1
10
40.0384592006803
20
-41.1513377175527
30
0
41
1
10
40.060419648286
20
-41.3249873432127
30
0
41
1
10
40.1166798324211
20
-41.670599663546
30
0
41
1
10
40.1509787577466
20
-41.8425625392824
30
0
41
1
10
40.2317295463844
20
-42.1848225984357
30
0
41
1
10
40.2781870581475
20
-42.355222382115
30
0
41
1
10
40.3844480047608
20
-42.6937351096607
30
0
41
1
10
40.4437513155432
20
-42.8604975192095
30
0
41
1
10
40.5779844738698
20
-43.1878110082579
30
0
41
1
10
40.6529847850334
20
-43.3489406246392
30
0
41
1
10
40.7821450876505
20
-43.5790129218
30
0
41
1
10
40.8280574991932
20
-43.6538690986309
30
0
41
1
10
40.9033120512739
20
-43.7621128219402
30
0
41
1
10
40.9294740023073
20
-43.7975127563807
30
0
41
1
10
40.9846078065219
20
-43.8665462655643
30
0
41
1
10
41.0136926531494
20
-43.9003132422196
30
0
41
1
10
41.0751736493738
20
-43.9648038782923
30
0
41
1
10
41.1073832768338
20
-43.9953654611574
30
0
41
1
10
41.1587407437657
20
-44.0377350028381
30
0
41
1
10
41.1763712106704
20
-44.0512746910517
30
0
41
1
10
41.2128724100871
20
-44.0769411376072
30
0
41
1
10
41.2318045512588
20
-44.0890949405195
30
0
41
1
10
41.2898313723024
20
-44.1223587646227
30
0
41
1
10
41.3303802880679
20
-44.1405285549557
30
0
41
1
10
41.3951103991135
20
-44.1594032544689
30
0
41
1
10
41.4170983407599
20
-44.1641884191459
30
0
41
1
10
41.4611952427492
20
-44.1703774742154
30
0
41
1
10
41.4834141669704
20
-44.1718148685945
30
0
41
1
10
41.528209570051
20
-44.1712143530839
30
0
41
1
10
41.5508096239193
20
-44.1691349862944
30
0
41
1
10
41.5948374444311
20
-44.1617404041134
30
0
41
1
10
41.6164657658242
20
-44.1564341746972
30
0
41
1
10
41.6590267918225
20
-44.1429178041691
30
0
41
1
10
41.6800777468146
20
-44.1346423495282
30
0
41
1
10
41.720635806045
20
-44.1159161157671
30
0
41
1
10
41.7402288253592
20
-44.1054574380805
30
0
41
1
10
41.7973116750187
20
-44.0713695690062
30
0
41
1
10
41.8332054930992
20
-44.0449878298757
30
0
41
1
10
41.9014076646956
20
-43.9873211551889
30
0
41
1
10
41.9331971902284
20
-43.9564983129603
30
0
41
1
10
42.0237551373042
20
-43.8598702783756
30
0
41
1
10
42.0778078761952
20
-43.7899864808431
30
0
41
1
10
42.1784539531358
20
-43.6436893799072
30
0
41
1
10
42.2243045082864
20
-43.5681478677316
30
0
41
1
10
42.3524839642866
20
-43.3378077876289
30
0
41
1
10
42.4259886527477
20
-43.1788094129421
30
0
41
1
10
42.55858334212
20
-42.8540848244975
30
0
41
1
10
42.6174114357755
20
-42.6882434263962
30
0
41
1
10
42.6966354883299
20
-42.4352039886709
30
0
41
1
10
42.721447847112
20
-42.3503217136331
30
0
41
1
10
42.7678403060602
20
-42.1803885608057
30
0
41
1
10
42.7894598934943
20
-42.0952087636603
30
0
41
1
10
42.8497521880069
20
-41.8390566656127
30
0
41
1
10
42.8838944308556
20
-41.6674772244334
30
0
41
1
10
42.9398896908831
20
-41.3226752792058
30
0
41
1
10
42.9617418783009
20
-41.1494525934614
30
0
41
1
10
42.9917878817498
20
-40.8011610457647
30
0
41
1
10
43.0000000000001
20
-40.6260949621026
30
0
41
1
10
43.0000000000001
20
-40.4498972903877
30
0
0
SPLINE
5
3D8
100
AcDbEntity
8
1
62
256
6
ByLayer
370
18
48
1
60
0
100
AcDbSpline
70
4
71
3
72
28
73
24
40
0
40
0
40
0
40
0
40
0.0624999999999937
40
0.0624999999999937
40
0.124999999999987
40
0.124999999999987
40
0.249999999999975
40
0.249999999999975
40
0.312499999999977
40
0.312499999999977
40
0.374999999999979
40
0.374999999999979
40
0.49999999999999
40
0.49999999999999
40
0.625000000000001
40
0.625000000000001
40
0.687500000000003
40
0.687500000000003
40
0.750000000000005
40
0.750000000000005
40
0.875000000000003
40
0.875000000000003
40
1
40
1
40
1
40
1
41
1
10
38.5
20
-43.7145729135791
30
0
41
1
10
38.5
20
-43.7476599266196
30
0
41
1
10
38.5015356867432
20
-43.7810402206189
30
0
41
1
10
38.5077081953442
20
-43.8472932775114
30
0
41
1
10
38.5123153799488
20
-43.8800304631407
30
0
41
1
10
38.5306076887474
20
-43.9770994345105
30
0
41
1
10
38.5487225262899
20
-44.0402987496093
30
0
41
1
10
38.585142691791
20
-44.1327474276799
30
0
41
1
10
38.598906186669
20
-44.1632772703509
30
0
41
1
10
38.6290187857804
20
-44.2222309372845
30
0
41
1
10
38.6454136141109
20
-44.2508037206349
30
0
41
1
10
38.6985685924377
20
-44.333846603294
30
0
41
1
10
38.7392596586044
20
-44.3856675879977
30
0
41
1
10
38.8318098572678
20
-44.4818221627976
30
0
41
1
10
38.8823138274351
20
-44.5246984658315
30
0
41
1
10
38.9636860669316
20
-44.5809580527079
30
0
41
1
10
38.9917820257705
20
-44.5983894051881
30
0
41
1
10
39.0499702226924
20
-44.630541898367
30
0
41
1
10
39.0802273475261
20
-44.6453204031436
30
0
41
1
10
39.1721429035404
20
-44.6845768361588
30
0
41
1
10
39.2353209078859
20
-44.7043192194226
30
0
41
1
10
39.3654482977553
20
-44.7310764096694
30
0
41
1
10
39.4327491875492
20
-44.7380062048625
30
0
41
1
10
39.5
20
-44.7380062048625
30
0
0
SPLINE
5
3D9
100
AcDbEntity
8
1
62
256
6
ByLayer
370
18
48
1
60
0
100
AcDbSpline
70
4
71
3
72
28
73
24
40
0
40
0
40
0
40
0
40
0.125000000000012
40
0.125000000000012
40
0.187500000000019
40
0.187500000000019
40
0.250000000000026
40
0.250000000000026
40
0.375000000000028
40
0.375000000000028
40
0.437500000000028
40
0.437500000000028
40
0.500000000000027
40
0.500000000000027
40
0.625000000000027
40
0.625000000000027
40
0.750000000000027
40
0.750000000000027
40
0.81250000000002
40
0.81250000000002
40
0.875000000000014
40
0.875000000000014
40
1
40
1
40
1
40
1
41
1
10
48.5
20
-44.7380062048622
30
0
41
1
10
48.5672554912557
20
-44.7380062048623
30
0
41
1
10
48.6333367569932
20
-44.7312331054832
30
0
41
1
10
48.7307717997138
20
-44.711336495346
30
0
41
1
10
48.7629668049784
20
-44.7030686388982
30
0
41
1
10
48.8267763914734
20
-44.6831794282207
30
0
41
1
10
48.8583556811336
20
-44.6715428381299
30
0
41
1
10
48.9500669246567
20
-44.6323984364326
30
0
41
1
10
49.0079468163161
20
-44.6004864653757
30
0
41
1
10
49.0899159927903
20
-44.5439394964823
30
0
41
1
10
49.116560677828
20
-44.5235073097775
30
0
41
1
10
49.1672365926789
20
-44.4804285016086
30
0
41
1
10
49.1913232770873
20
-44.4577696129116
30
0
41
1
10
49.2599451432147
20
-44.3865304189525
30
0
41
1
10
49.3009255307977
20
-44.3346391078888
30
0
41
1
10
49.3728298797569
20
-44.2223001166611
30
0
41
1
10
49.4027151004561
20
-44.1635116288018
30
0
41
1
10
49.4389570917939
20
-44.0716012448606
30
0
41
1
10
49.449596253316
20
-44.0403387020436
30
0
41
1
10
49.4679565815234
20
-43.976544112957
30
0
41
1
10
49.4756652071377
20
-43.9439739358527
30
0
41
1
10
49.493969531198
20
-43.8463482438675
30
0
41
1
10
49.5
20
-43.7807254786231
30
0
41
1
10
49.5
20
-43.7145729135791
30
0
0
SPLINE
5
3DA
100
AcDbEntity
8
1
62
256
6
ByLayer
370
18
48
1
60
0
100
AcDbSpline
70
4
71
3
72
14
73
10
40
0
40
0
40
0
40
0
40
0.25
40
0.25
40
0.5
40
0.5
40
0.75
40
0.75
40
1
40
1
40
1
40
1
41
1
10
40
20
-36.3200383485073
30
0
41
1
10
40
20
-36.3048663290326
30
0
41
1
10
40.0018201089662
20
-36.2899908495975
30
0
41
1
10
40.0092600691451
20
-36.2608556189026
30
0
41
1
10
40.0149783491558
20
-36.2464519595471
30
0
41
1
10
40.0308786611509
20
-36.2202283345116
30
0
41
1
10
40.0412119054878
20
-36.2080947695501
30
0
41
1
10
40.0674008076829
20
-36.1897205746084
30
0
41
1
10
40.0833729904094
20
-36.1838101656001
30
0
41
1
10
40.0999999999976
20
-36.1838101655995
30
0
0
SPLINE
5
3DB
100
AcDbEntity
8
1
62
256
6
ByLayer
370
18
48
1
60
0
100
AcDbSpline
70
4
71
3
72
14
73
10
40
0
40
0
40
0
40
0
40
0.25
40
0.25
40
0.5
40
0.5
40
0.75
40
0.75
40
1
40
1
40
1
40
1
41
1
10
42.9
20
-36.1838101656073
30
0
41
1
10
42.9166234439726
20
-36.1838101656073
30
0
41
1
10
42.9324385424768
20
-36.1896388397994
30
0
41
1
10
42.958706234766
20
-36.2080066438432
30
0
41
1
10
42.9690176152871
20
-36.2200867862281
30
0
41
1
10
42.9849850644774
20
-36.246362359786
30
0
41
1
10
42.990624247182
20
-36.2604843977104
30
0
41
1
10
42.9981828738587
20
-36.289921942629
30
0
41
1
10
43
20
-36.3048721706488
30
0
41
1
10
43
20
-36.3200383485073
30
0
0
SPLINE
5
3DC
100
AcDbEntity
8
1
62
256
6
ByLayer
370
18
48
1
60
0
100
AcDbSpline
70
4
71
3
72
8
73
4
40
0
40
0
40
0
40
0
40
1
40
1
40
1
40
1
41
1
10
0.399999999999977
20
-6.92750000000001
30
0
41
1
10
0.56562181492842
20
-6.76187818507162
30
0
41
1
10
0.73230350121986
20
-6.59519649878018
30
0
41
1
10
0.899999999999977
20
-6.42750000000001
30
0
0
SPLINE
5
3DD
100
AcDbEntity
8
1
62
256
6
ByLayer
370
18
48
1
60
0
100
AcDbSpline
70
4
71
3
72
8
73
4
40
0
40
0
40
0
40
0
40
1
40
1
40
1
40
1
41
1
10
0.899999999999977
20
6.42750000000001
30
0
41
1
10
0.73230350121986
20
6.59519649878018
30
0
41
1
10
0.56562181492842
20
6.76187818507162
30
0
41
1
10
0.399999999999977
20
6.92750000000001
30
0
0
SPLINE
5
3DE
100
AcDbEntity
8
1
62
256
6
ByLayer
370
18
48
1
60
0
100
AcDbSpline
70
4
71
3
72
28
73
24
40
0
40
0
40
0
40
0
40
0.124999999999979
40
0.124999999999979
40
0.18749999999997
40
0.18749999999997
40
0.24999999999996
40
0.24999999999996
40
0.374999999999953
40
0.374999999999953
40
0.437499999999952
40
0.437499999999952
40
0.499999999999951
40
0.499999999999951
40
0.624999999999959
40
0.624999999999959
40
0.749999999999967
40
0.749999999999967
40
0.812499999999973
40
0.812499999999973
40
0.874999999999978
40
0.874999999999978
40
1
40
1
40
1
40
1
41
1
10
48.5
20
44.7120806231806
30
0
41
1
10
48.5672554912557
20
44.7120806231806
30
0
41
1
10
48.6333367569932
20
44.7064464707992
30
0
41
1
10
48.7307717997138
20
44.6899247072457
30
0
41
1
10
48.7629668049784
20
44.6830622738523
30
0
41
1
10
48.8267763914735
20
44.6665710080063
30
0
41
1
10
48.8583556811336
20
44.6569297350918
30
0
41
1
10
48.9500669246568
20
44.6245396423131
30
0
41
1
10
49.0079468163161
20
44.5981818996855
30
0
41
1
10
49.0899159927904
20
44.5516578771533
30
0
41
1
10
49.116560677828
20
44.5348737587707
30
0
41
1
10
49.167236592679
20
44.4995590380659
30
0
41
1
10
49.1913232770873
20
44.4810179696145
30
0
41
1
10
49.2599451432147
20
44.4228548672521
30
0
41
1
10
49.3009255307977
20
44.3806525385103
30
0
41
1
10
49.3728298797569
20
44.289785049487
30
0
41
1
10
49.4027151004561
20
44.242462887019
30
0
41
1
10
49.4389570917939
20
44.1689049028565
30
0
41
1
10
49.449596253316
20
44.1439528422498
30
0
41
1
10
49.4679565815234
20
44.0931856775916
30
0
41
1
10
49.4756652071378
20
44.0673413496343
30
0
41
1
10
49.493969531198
20
43.9901081690797
30
0
41
1
10
49.5000000000001
20
43.9384988867117
30
0
41
1
10
49.5
20
43.8867901017879
30
0
0
SPLINE
5
3DF
100
AcDbEntity
8
1
62
256
6
ByLayer
370
18
48
1
60
0
100
AcDbSpline
70
4
71
3
72
28
73
24
40
0
40
0
40
0
40
0
40
0.0625000000000048
40
0.0625000000000048
40
0.125000000000009
40
0.125000000000009
40
0.250000000000009
40
0.250000000000009
40
0.312500000000007
40
0.312500000000007
40
0.375000000000005
40
0.375000000000005
40
0.500000000000004
40
0.500000000000004
40
0.625000000000004
40
0.625000000000004
40
0.687500000000004
40
0.687500000000004
40
0.750000000000005
40
0.750000000000005
40
0.875000000000003
40
0.875000000000003
40
1
40
1
40
1
40
1
41
1
10
38.5
20
43.8867901017881
30
0
41
1
10
38.5
20
43.9126528818624
30
0
41
1
10
38.5015356867432
20
43.9388244816698
30
0
41
1
10
38.5077081953442
20
43.990928410729
30
0
41
1
10
38.5123153799488
20
44.0167532234723
30
0
41
1
10
38.5306076887474
20
44.0935504355029
30
0
41
1
10
38.5487225262899
20
44.1438537164647
30
0
41
1
10
38.5851426917909
20
44.2178411375154
30
0
41
1
10
38.598906186669
20
44.2423444284659
30
0
41
1
10
38.6290187857804
20
44.2897848527621
30
0
41
1
10
38.6454136141109
20
44.312840701096
30
0
41
1
10
38.6985685924377
20
44.3800115469437
30
0
41
1
10
38.7392596586044
20
44.4221510660589
30
0
41
1
10
38.8318098572678
20
44.5006549758394
30
0
41
1
10
38.8823138274351
20
44.5358283997805
30
0
41
1
10
38.9636860669316
20
44.5821143683971
30
0
41
1
10
38.9917820257705
20
44.5964812880758
30
0
41
1
10
39.0499702226924
20
44.6230163139726
30
0
41
1
10
39.0802273475261
20
44.6352320000636
30
0
41
1
10
39.1721429035404
20
44.6677146217544
30
0
41
1
10
39.2353209078859
20
44.6840978763652
30
0
41
1
10
39.3654482977553
20
44.7063161767229
30
0
41
1
10
39.4327491875492
20
44.7120806231808
30
0
41
1
10
39.5
20
44.7120806231808
30
0
0
SPLINE
5
3E0
100
AcDbEntity
8
1
62
256
6
ByLayer
370
18
48
1
60
0
100
AcDbSpline
70
4
71
3
72
18
73
14
40
0
40
0
40
0
40
0
40
0.124999999999991
40
0.124999999999991
40
0.249999999999981
40
0.249999999999981
40
0.374999999999972
40
0.374999999999972
40
0.499999999999963
40
0.499999999999963
40
0.749999999999981
40
0.749999999999981
40
1
40
1
40
1
40
1
41
1
10
48.9868161417692
20
-24.9494605741099
30
0
41
1
10
48.9723246905338
20
-24.9408387484052
30
0
41
1
10
48.9557253385377
20
-24.935758870723
30
0
41
1
10
48.9199355325075
20
-24.9288543843423
30
0
41
1
10
48.9007197756213
20
-24.9271714069598
30
0
41
1
10
48.8616508387677
20
-24.9256772608589
30
0
41
1
10
48.8415845685764
20
-24.9258555026811
30
0
41
1
10
48.8005751742887
20
-24.9270835522216
30
0
41
1
10
48.7795592666656
20
-24.9281487286761
30
0
41
1
10
48.7163367654454
20
-24.9317220191732
30
0
41
1
10
48.6736854417513
20
-24.9345533593919
30
0
41
1
10
48.5875027768775
20
-24.938573061534
30
0
41
1
10
48.5439705604827
20
-24.9397887073033
30
0
41
1
10
48.5000000000016
20
-24.9397887073034
30
0
0
SPLINE
5
3E1
100
AcDbEntity
8
1
62
256
6
ByLayer
370
18
48
1
60
0
100
AcDbSpline
70
4
71
3
72
8
73
4
40
0
40
0
40
0
40
0
40
1
40
1
40
1
40
1
41
1
10
49.1003829498901
20
-25.0284237577962
30
0
41
1
10
49.0662372699562
20
-25.0008962547984
30
0
41
1
10
49.028593696159
20
-24.9743165244535
30
0
41
1
10
48.9868161417697
20
-24.9494605741098
30
0
0
SPLINE
5
3E2
100
AcDbEntity
8
1
62
256
6
ByLayer
370
18
48
1
60
0
100
AcDbSpline
70
4
71
3
72
20
73
16
40
0
40
0
40
0
40
0
40
0.0764120896002688
40
0.0764120896002688
40
0.152824179200538
40
0.152824179200538
40
0.305648358401051
40
0.305648358401051
40
0.458472537601564
40
0.458472537601564
40
0.611296716802077
40
0.611296716802077
40
0.916945075203111
40
0.916945075203111
40
1
40
1
40
1
40
1
41
1
10
49.5
20
-24.3434505550364
30
0
41
1
10
49.5
20
-24.3533369598977
30
0
41
1
10
49.4993962860195
20
-24.3645887603345
30
0
41
1
10
49.4969735242413
20
-24.3898410327158
30
0
41
1
10
49.4951518152441
20
-24.4037798452457
30
0
41
1
10
49.4881951706914
20
-24.4479578092601
30
0
41
1
10
49.4814337615553
20
-24.4814087700382
30
0
41
1
10
49.465448852858
20
-24.5509684409149
30
0
41
1
10
49.4562320988711
20
-24.5872042131715
30
0
41
1
10
49.4360576176693
20
-24.6617461226045
30
0
41
1
10
49.425149911288
20
-24.6998291214438
30
0
41
1
10
49.391307129135
20
-24.8136021324858
30
0
41
1
10
49.3669965584872
20
-24.8898634596503
30
0
41
1
10
49.334731668104
20
-24.9871657208133
30
0
41
1
10
49.327773340122
20
-25.0079264233108
30
0
41
1
10
49.3207595425518
20
-25.0286500338315
30
0
0
SPLINE
5
3E3
100
AcDbEntity
8
1
62
256
6
ByLayer
370
18
48
1
60
0
100
AcDbSpline
70
4
71
3
72
14
73
10
40
0
40
0
40
0
40
0
40
0.25
40
0.25
40
0.5
40
0.5
40
0.75
40
0.75
40
1
40
1
40
1
40
1
41
1
10
42.9
20
-11.7957880254009
30
0
41
1
10
42.9166234439726
20
-11.7957880254009
30
0
41
1
10
42.9324385424768
20
-11.8016948536038
30
0
41
1
10
42.958706234766
20
-11.8202873057567
30
0
41
1
10
42.9690176152871
20
-11.8325066763522
30
0
41
1
10
42.9849850644774
20
-11.8590486519966
30
0
41
1
10
42.990624247182
20
-11.873297886996
30
0
41
1
10
42.9981828738587
20
-11.9029590212874
30
0
41
1
10
43
20
-11.9180031409183
30
0
41
1
10
43
20
-11.9332434780401
30
0
0
SPLINE
5
3E4
100
AcDbEntity
8
1
62
256
6
ByLayer
370
18
48
1
60
0
100
AcDbSpline
70
4
71
3
72
16
73
12
40
0
40
0
40
0
40
0
40
0.250000000000009
40
0.250000000000009
40
0.500000000000018
40
0.500000000000018
40
0.750000000000026
40
0.750000000000026
40
0.875000000000013
40
0.875000000000013
40
1
40
1
40
1
40
1
41
1
10
39.5
20
-24.9397887072992
30
0
41
1
10
39.4559939047657
20
-24.9397887072992
30
0
41
1
10
39.4124833925714
20
-24.9385716669222
30
0
41
1
10
39.3264567697518
20
-24.9345607407863
30
0
41
1
10
39.2839397628248
20
-24.9317415892978
30
0
41
1
10
39.2000459849924
20
-24.9269921359193
30
0
41
1
10
39.1582479296588
20
-24.9249294158724
30
0
41
1
10
39.0993939826557
20
-24.9271605257847
30
0
41
1
10
39.0801720987991
20
-24.928838904141
30
0
41
1
10
39.0443047554445
20
-24.9357478015407
30
0
41
1
10
39.0276817561183
20
-24.9408349129083
30
0
41
1
10
39.013183858229
20
-24.9494605741111
30
0
0
SPLINE
5
3E5
100
AcDbEntity
8
1
62
256
6
ByLayer
370
18
48
1
60
0
100
AcDbSpline
70
4
71
3
72
14
73
10
40
0
40
0
40
0
40
0
40
0.25
40
0.25
40
0.5
40
0.5
40
0.75
40
0.75
40
1
40
1
40
1
40
1
41
1
10
42.9
20
19.5020467612072
30
0
41
1
10
42.9166234439726
20
19.5020467612072
30
0
41
1
10
42.9324385424768
20
19.4995219188442
30
0
41
1
10
42.958706234766
20
19.4915960248956
30
0
41
1
10
42.9690176152871
20
19.4863953676607
30
0
41
1
10
42.9849850644774
20
19.4751349192901
30
0
41
1
10
42.990624247182
20
19.4691054958247
30
0
41
1
10
42.9981828738588
20
19.4565958623531
30
0
41
1
10
43
20
19.450270492357
30
0
41
1
10
43
20
19.4438835787626
30
0
0
SPLINE
5
3E6
100
AcDbEntity
8
1
62
256
6
ByLayer
370
18
48
1
60
0
100
AcDbSpline
70
4
71
3
72
66
73
62
40
0
40
0
40
0
40
0
40
0.0625000000000005
40
0.0625000000000005
40
0.125000000000001
40
0.125000000000001
40
0.187500000000001
40
0.187500000000001
40
0.250000000000002
40
0.250000000000002
40
0.312500000000002
40
0.312500000000002
40
0.375000000000003
40
0.375000000000003
40
0.406250000000003
40
0.406250000000003
40
0.421875000000003
40
0.421875000000003
40
0.437500000000003
40
0.437500000000003
40
0.453125000000004
40
0.453125000000004
40
0.460937500000003
40
0.460937500000003
40
0.468750000000003
40
0.468750000000003
40
0.484374999999998
40
0.484374999999998
40
0.492187499999997
40
0.492187499999997
40
0.499999999999995
40
0.499999999999995
40
0.507812499999994
40
0.507812499999994
40
0.515624999999993
40
0.515624999999993
40
0.523437499999991
40
0.523437499999991
40
0.53124999999999
40
0.53124999999999
40
0.54687499999999
40
0.54687499999999
40
0.56249999999999
40
0.56249999999999
40
0.593749999999991
40
0.593749999999991
40
0.624999999999991
40
0.624999999999991
40
0.687499999999993
40
0.687499999999993
40
0.749999999999994
40
0.749999999999994
40
0.781249999999995
40
0.781249999999995
40
0.812499999999996
40
0.812499999999996
40
0.874999999999997
40
0.874999999999997
40
0.937499999999999
40
0.937499999999999
40
1
40
1
40
1
40
1
41
1
10
40.0000000000001
20
-15.6172577194023
30
0
41
1
10
40.0000000000001
20
-15.7563900957788
30
0
41
1
10
40.0082587081403
20
-15.8923596139006
30
0
41
1
10
40.0384592006803
20
-16.1585135574183
30
0
41
1
10
40.060419648286
20
-16.2886947108891
30
0
41
1
10
40.1166798324211
20
-16.5435813615184
30
0
41
1
10
40.1509787577465
20
-16.6682861493427
30
0
41
1
10
40.2317295463844
20
-16.9123673499662
30
0
41
1
10
40.2781870581475
20
-17.0318134833176
30
0
41
1
10
40.3844480047607
20
-17.2650692850352
30
0
41
1
10
40.4437513155432
20
-17.3779471538451
30
0
41
1
10
40.5779844738698
20
-17.5957544605122
30
0
41
1
10
40.6529847850334
20
-17.7010345889369
30
0
41
1
10
40.7821450876505
20
-17.8489032248953
30
0
41
1
10
40.8280574991932
20
-17.896589834442
30
0
41
1
10
40.9033120512739
20
-17.9650003802409
30
0
41
1
10
40.9294740023073
20
-17.9872793840587
30
0
41
1
10
40.9846078065219
20
-18.0305576830684
30
0
41
1
10
41.0136926531495
20
-18.0516397323157
30
0
41
1
10
41.0751736493738
20
-18.0917581259161
30
0
41
1
10
41.1073832768338
20
-18.1106941070931
30
0
41
1
10
41.1587407437657
20
-18.1368653605725
30
0
41
1
10
41.1763712106704
20
-18.1452141977395
30
0
41
1
10
41.2128724100871
20
-18.1610179085592
30
0
41
1
10
41.2318045512588
20
-18.1684893052399
30
0
41
1
10
41.2898313723024
20
-18.1889129634754
30
0
41
1
10
41.3303802880679
20
-18.2000334856799
30
0
41
1
10
41.3951103991135
20
-18.2115740054124
30
0
41
1
10
41.41709834076
20
-18.2144970490828
30
0
41
1
10
41.4611952427492
20
-18.2182769612085
30
0
41
1
10
41.4834141669704
20
-18.2191543419788
30
0
41
1
10
41.528209570051
20
-18.2187877054504
30
0
41
1
10
41.5508096239194
20
-18.2175183705074
30
0
41
1
10
41.5948374444311
20
-18.2130015318614
30
0
41
1
10
41.6164657658242
20
-18.2097594657247
30
0
41
1
10
41.6590267918226
20
-18.2014929289494
30
0
41
1
10
41.6800777468146
20
-18.1964283561946
30
0
41
1
10
41.720635806045
20
-18.1849533748234
30
0
41
1
10
41.7402288253592
20
-18.1785381660659
30
0
41
1
10
41.7973116750187
20
-18.1575985145991
30
0
41
1
10
41.8332054930992
20
-18.1413543982081
30
0
41
1
10
41.9014076646956
20
-18.1057134961007
30
0
41
1
10
41.9331971902285
20
-18.0866025736857
30
0
41
1
10
42.0237551373042
20
-18.0264536331666
30
0
41
1
10
42.0778078761952
20
-17.9826468756172
30
0
41
1
10
42.1784539531358
20
-17.8901219412535
30
0
41
1
10
42.2243045082864
20
-17.8419574748247
30
0
41
1
10
42.3524839642866
20
-17.6937963167363
30
0
41
1
10
42.4259886527477
20
-17.5898223306018
30
0
41
1
10
42.55858334212
20
-17.3736191924873
30
0
41
1
10
42.6174114357756
20
-17.2613238379055
30
0
41
1
10
42.6966354883299
20
-17.0869054740989
30
0
41
1
10
42.721447847112
20
-17.0278914016609
30
0
41
1
10
42.7678403060602
20
-16.9087204193433
30
0
41
1
10
42.7894598934943
20
-16.8484748696081
30
0
41
1
10
42.8497521880069
20
-16.6657544589373
30
0
41
1
10
42.8838944308556
20
-16.5413005548871
30
0
41
1
10
42.9398896908831
20
-16.2869672607413
30
0
41
1
10
42.9617418783009
20
-16.1570885550109
30
0
41
1
10
42.9917878817498
20
-15.8915990660633
30
0
41
1
10
43.0000000000001
20
-15.7559914435447
30
0
41
1
10
43.0000000000001
20
-15.6172577194023
30
0
0
SPLINE
5
3E7
100
AcDbEntity
8
1
62
256
6
ByLayer
370
18
48
1
60
0
100
AcDbSpline
70
4
71
3
72
14
73
10
40
0
40
0
40
0
40
0
40
0.25
40
0.25
40
0.5
40
0.5
40
0.75
40
0.75
40
1
40
1
40
1
40
1
41
1
10
40
20
-11.9332434780401
30
0
41
1
10
40
20
-11.9179972707378
30
0
41
1
10
40.0018201089662
20
-11.9030282563128
30
0
41
1
10
40.0092600691451
20
-11.873672120144
30
0
41
1
10
40.0149783491558
20
-11.8591390677913
30
0
41
1
10
40.0308786611509
20
-11.8326497513488
30
0
41
1
10
40.0412119054878
20
-11.8203764615494
30
0
41
1
10
40.0674008076829
20
-11.801777635373
30
0
41
1
10
40.0833729904094
20
-11.7957880253939
30
0
41
1
10
40.0999999999976
20
-11.7957880253933
30
0
0
SPLINE
5
3E8
100
AcDbEntity
8
1
62
256
6
ByLayer
370
18
48
1
60
0
100
AcDbSpline
70
4
71
3
72
28
73
24
40
0
40
0
40
0
40
0
40
0.124999999999981
40
0.124999999999981
40
0.187499999999979
40
0.187499999999979
40
0.249999999999978
40
0.249999999999978
40
0.374999999999992
40
0.374999999999992
40
0.43749999999999
40
0.43749999999999
40
0.499999999999988
40
0.499999999999988
40
0.624999999999997
40
0.624999999999997
40
0.750000000000007
40
0.750000000000007
40
0.812500000000007
40
0.812500000000007
40
0.875000000000006
40
0.875000000000006
40
1
40
1
40
1
40
1
41
1
10
48.5
20
-18.5570145052674
30
0
41
1
10
48.5672554912557
20
-18.5570145052674
30
0
41
1
10
48.6333367569932
20
-18.5530700486477
30
0
41
1
10
48.7307717997138
20
-18.5414537562999
30
0
41
1
10
48.7629668049784
20
-18.536623674973
30
0
41
1
10
48.8267763914734
20
-18.524987349334
30
0
41
1
10
48.8583556811336
20
-18.5181719987223
30
0
41
1
10
48.9500669246568
20
-18.4952035477297
30
0
41
1
10
49.0079468163161
20
-18.4764309480865
30
0
41
1
10
49.0899159927903
20
-18.4429854802986
30
0
41
1
10
49.116560677828
20
-18.4308741231343
30
0
41
1
10
49.1672365926789
20
-18.4052662090758
30
0
41
1
10
49.1913232770873
20
-18.3917627698236
30
0
41
1
10
49.2599451432147
20
-18.3491784379165
30
0
41
1
10
49.3009255307977
20
-18.3179953707827
30
0
41
1
10
49.3728298797569
20
-18.2499915348285
30
0
41
1
10
49.4027151004561
20
-18.2141742204544
30
0
41
1
10
49.4389570917938
20
-18.1577512931243
30
0
41
1
10
49.449596253316
20
-18.1384914416851
30
0
41
1
10
49.4679565815234
20
-18.0990394332508
30
0
41
1
10
49.4756652071377
20
-18.0788225750184
30
0
41
1
10
49.493969531198
20
-18.0179921779314
30
0
41
1
10
49.5
20
-17.9767968556904
30
0
41
1
10
49.5
20
-17.9349517859431
30
0
0
SPLINE
5
3E9
100
AcDbEntity
8
1
62
256
6
ByLayer
370
18
48
1
60
0
100
AcDbSpline
70
4
71
3
72
28
73
24
40
0
40
0
40
0
40
0
40
0.0625000000000042
40
0.0625000000000042
40
0.125000000000008
40
0.125000000000008
40
0.250000000000007
40
0.250000000000007
40
0.312500000000004
40
0.312500000000004
40
0.375000000000001
40
0.375000000000001
40
0.500000000000006
40
0.500000000000006
40
0.625000000000011
40
0.625000000000011
40
0.687500000000015
40
0.687500000000015
40
0.750000000000018
40
0.750000000000018
40
0.875000000000009
40
0.875000000000009
40
1
40
1
40
1
40
1
41
1
10
38.5
20
-17.9349517859431
30
0
41
1
10
38.5
20
-17.9558811084492
30
0
41
1
10
38.5015356867432
20
-17.9769163731316
30
0
41
1
10
38.5077081953442
20
-18.0185084156782
30
0
41
1
10
38.5123153799488
20
-18.038980974846
30
0
41
1
10
38.5306076887474
20
-18.099460018612
30
0
41
1
10
38.5487225262899
20
-18.1385340661958
30
0
41
1
10
38.5851426917909
20
-18.1952888194958
30
0
41
1
10
38.598906186669
20
-18.2139612461079
30
0
41
1
10
38.6290187857804
20
-18.2498938971408
30
0
41
1
10
38.6454136141109
20
-18.2672460665358
30
0
41
1
10
38.6985685924377
20
-18.317515591603
30
0
41
1
10
38.7392596586044
20
-18.3486620118715
30
0
41
1
10
38.8318098572678
20
-18.4061412058572
30
0
41
1
10
38.8823138274351
20
-18.4316040311709
30
0
41
1
10
38.9636860669316
20
-18.4648811333285
30
0
41
1
10
38.9917820257705
20
-18.4751658687379
30
0
41
1
10
39.0499702226924
20
-18.4941013347586
30
0
41
1
10
39.0802273475261
20
-18.5027856105545
30
0
41
1
10
39.1721429035405
20
-18.5258199688441
30
0
41
1
10
39.2353209078859
20
-18.5373566603985
30
0
41
1
10
39.3654482977553
20
-18.5529787413789
30
0
41
1
10
39.4327491875492
20
-18.5570145052675
30
0
41
1
10
39.5
20
-18.5570145052675
30
0
0
SPLINE
5
3EA
100
AcDbEntity
8
1
62
256
6
ByLayer
370
18
48
1
60
0
100
AcDbSpline
70
4
71
3
72
22
73
18
40
0
40
0
40
0
40
0
40
0.0841087092895061
40
0.0841087092895061
40
0.23675725774126
40
0.23675725774126
40
0.389405806193014
40
0.389405806193014
40
0.542054354644768
40
0.542054354644768
40
0.694702903096522
40
0.694702903096522
40
0.847351451548276
40
0.847351451548276
40
0.923675725774138
40
0.923675725774138
40
1
40
1
40
1
40
1
41
1
10
38.6798475651707
20
-25.0304443369665
30
0
41
1
10
38.6727811905126
20
-25.0095765648014
30
0
41
1
10
38.66577052396
20
-24.9886699806781
30
0
41
1
10
38.6462074434348
20
-24.9297008371592
30
0
41
1
10
38.6337967251533
20
-24.8915395580678
30
0
41
1
10
38.6094965006904
20
-24.8148538702829
30
0
41
1
10
38.5975806945347
20
-24.7762374271476
30
0
41
1
10
38.5748627193072
20
-24.6998791993838
30
0
41
1
10
38.5640008194745
20
-24.6619592111207
30
0
41
1
10
38.5437477414009
20
-24.5871325490549
30
0
41
1
10
38.5345274981904
20
-24.5508660957704
30
0
41
1
10
38.5185864377111
20
-24.4814961034655
30
0
41
1
10
38.5118117611447
20
-24.4479840670497
30
0
41
1
10
38.5048646493816
20
-24.4038932464924
30
0
41
1
10
38.5030627057295
20
-24.3901486857749
30
0
41
1
10
38.5006182567897
20
-24.3648088650145
30
0
41
1
10
38.5
20
-24.3533624834266
30
0
41
1
10
38.5
20
-24.3434505550364
30
0
0
SPLINE
5
3EB
100
AcDbEntity
8
1
62
256
6
ByLayer
370
18
48
1
60
0
100
AcDbSpline
70
4
71
3
72
8
73
4
40
0
40
0
40
0
40
0
40
1
40
1
40
1
40
1
41
1
10
39.0131838582296
20
-24.9494605741107
30
0
41
1
10
38.9715099225976
20
-24.9742548754967
30
0
41
1
10
38.9343941438719
20
-25.0004154335384
30
0
41
1
10
38.90063123046
20
-25.027580975534
30
0
0
SPLINE
5
3EC
100
AcDbEntity
8
1
62
256
6
ByLayer
370
18
48
1
60
0
100
AcDbSpline
70
4
71
3
72
14
73
10
40
0
40
0
40
0
40
0
40
0.25
40
0.25
40
0.5
40
0.5
40
0.75
40
0.75
40
1
40
1
40
1
40
1
41
1
10
40
20
19.4438835787626
30
0
41
1
10
40
20
19.4502729524295
30
0
41
1
10
40.0018201089662
20
19.4565668562097
30
0
41
1
10
40.0092600691451
20
19.4689474714236
30
0
41
1
10
40.0149783491558
20
19.475096651808
30
0
41
1
10
40.0308786611509
20
19.4863345773434
30
0
41
1
10
40.0412119054878
20
19.4915580652713
30
0
41
1
10
40.0674008076829
20
19.4994865825524
30
0
41
1
10
40.0833729904094
20
19.5020467612098
30
0
41
1
10
40.0999999999976
20
19.50204676121
30
0
0
SPLINE
5
3ED
100
AcDbEntity
8
1
62
256
6
ByLayer
370
18
48
1
60
0
100
AcDbSpline
70
4
71
3
72
28
73
24
40
0
40
0
40
0
40
0
40
0.125000000000005
40
0.125000000000005
40
0.187500000000009
40
0.187500000000009
40
0.250000000000012
40
0.250000000000012
40
0.375000000000008
40
0.375000000000008
40
0.437500000000004
40
0.437500000000004
40
0.5
40
0.5
40
0.625000000000001
40
0.625000000000001
40
0.750000000000002
40
0.750000000000002
40
0.812500000000002
40
0.812500000000002
40
0.875000000000002
40
0.875000000000002
40
1
40
1
40
1
40
1
41
1
10
48.5
20
18.4944246143589
30
0
41
1
10
48.5672554912557
20
18.4944246143589
30
0
41
1
10
48.6333367569932
20
18.4932298190276
30
0
41
1
10
48.7307717997138
20
18.4897611270732
30
0
41
1
10
48.7629668049784
20
18.4883240371452
30
0
41
1
10
48.8267763914735
20
18.4848910760026
30
0
41
1
10
48.8583556811335
20
18.4828928471791
30
0
41
1
10
48.9500669246568
20
18.4762307403823
30
0
41
1
10
49.0079468163161
20
18.4708672343417
30
0
41
1
10
49.0899159927903
20
18.4616192995939
30
0
41
1
10
49.116560677828
20
18.4583151584495
30
0
41
1
10
49.1672365926789
20
18.4514514096464
30
0
41
1
10
49.1913232770873
20
18.4478892678785
30
0
41
1
10
49.2599451432147
20
18.436873413647
30
0
41
1
10
49.3009255307977
20
18.4290816190404
30
0
41
1
10
49.3728298797569
20
18.4129145749124
30
0
41
1
10
49.4027151004561
20
18.4047794188087
30
0
41
1
10
49.4389570917939
20
18.3926631039266
30
0
41
1
10
49.449596253316
20
18.3886381042242
30
0
41
1
10
49.4679565815234
20
18.3806370805282
30
0
41
1
10
49.4756652071377
20
18.3766578585248
30
0
41
1
10
49.493969531198
20
18.3650593391045
30
0
41
1
10
49.5
20
18.3576955572797
30
0
41
1
10
49.5
20
18.3507208573907
30
0
0
SPLINE
5
3EE
100
AcDbEntity
8
1
62
256
6
ByLayer
370
18
48
1
60
0
100
AcDbSpline
70
4
71
3
72
28
73
24
40
0
40
0
40
0
40
0
40
0.0624999999999956
40
0.0624999999999956
40
0.124999999999991
40
0.124999999999991
40
0.249999999999982
40
0.249999999999982
40
0.31249999999998
40
0.31249999999998
40
0.374999999999978
40
0.374999999999978
40
0.499999999999981
40
0.499999999999981
40
0.624999999999984
40
0.624999999999984
40
0.687499999999989
40
0.687499999999989
40
0.749999999999994
40
0.749999999999994
40
0.874999999999997
40
0.874999999999997
40
1
40
1
40
1
40
1
41
1
10
38.5
20
18.3507208573907
30
0
41
1
10
38.5
20
18.3542093386919
30
0
41
1
10
38.5015356867432
20
18.3578412760892
30
0
41
1
10
38.5077081953442
20
18.3652743023254
30
0
41
1
10
38.5123153799488
20
18.3690589171233
30
0
41
1
10
38.5306076887474
20
18.3805976045597
30
0
41
1
10
38.5487225262899
20
18.3885378716288
30
0
41
1
10
38.585142691791
20
18.4007232078533
30
0
41
1
10
38.598906186669
20
18.4048462515672
30
0
41
1
10
38.6290187857804
20
18.412983476078
30
0
41
1
10
38.6454136141109
20
18.4170165861334
30
0
41
1
10
38.6985685924377
20
18.4289676246683
30
0
41
1
10
38.7392596586045
20
18.4367409194091
30
0
41
1
10
38.8318098572678
20
18.4516076385201
30
0
41
1
10
38.8823138274351
20
18.4584740686589
30
0
41
1
10
38.9636860669316
20
18.4676727263476
30
0
41
1
10
38.9917820257705
20
18.4705592665265
30
0
41
1
10
39.0499702226924
20
18.4759329668489
30
0
41
1
10
39.0802273475261
20
18.4784300510157
30
0
41
1
10
39.1721429035405
20
18.4851109821371
30
0
41
1
10
39.2353209078859
20
18.4885380197397
30
0
41
1
10
39.3654482977553
20
18.4932022511916
30
0
41
1
10
39.4327491875492
20
18.4944246143589
30
0
41
1
10
39.5
20
18.4944246143589
30
0
0
SPLINE
5
3EF
100
AcDbEntity
8
1
62
256
6
ByLayer
370
18
48
1
60
0
100
AcDbSpline
70
4
71
3
72
18
73
14
40
0
40
0
40
0
40
0
40
0.125000000000002
40
0.125000000000002
40
0.250000000000004
40
0.250000000000004
40
0.375000000000006
40
0.375000000000006
40
0.500000000000007
40
0.500000000000007
40
0.750000000000004
40
0.750000000000004
40
1
40
1
40
1
40
1
41
1
10
48.9868161417692
20
11.5884114786339
30
0
41
1
10
48.9723242528478
20
11.6048584172929
30
0
41
1
10
48.9557247695121
20
11.6178500119316
30
0
41
1
10
48.9199353586309
20
11.6400623395245
30
0
41
1
10
48.90071952002
20
11.6491267063425
30
0
41
1
10
48.8616506389751
20
11.6641140045506
30
0
41
1
10
48.8415845328152
20
11.6701402876025
30
0
41
1
10
48.8005756927273
20
11.6802223323894
30
0
41
1
10
48.7795599398614
20
11.6842741788815
30
0
41
1
10
48.7163369618386
20
11.694186460152
30
0
41
1
10
48.6736854476816
20
11.6979660468409
30
0
41
1
10
48.5875026173021
20
11.7027809646798
30
0
41
1
10
48.5439704259503
20
11.7037873141627
30
0
41
1
10
48.5000000000016
20
11.7037873141627
30
0
0
SPLINE
5
3F0
100
AcDbEntity
8
1
62
256
6
ByLayer
370
18
48
1
60
0
100
AcDbSpline
70
4
71
3
72
16
73
12
40
0
40
0
40
0
40
0
40
0.249999999999997
40
0.249999999999997
40
0.499999999999994
40
0.499999999999994
40
0.749999999999991
40
0.749999999999991
40
0.874999999999996
40
0.874999999999996
40
1
40
1
40
1
40
1
41
1
10
39.5
20
11.7037873141588
30
0
41
1
10
39.4559940083834
20
11.7037873141588
30
0
41
1
10
39.4124835975001
20
11.7027786986128
30
0
41
1
10
39.3264571725039
20
11.697975508505
30
0
41
1
10
39.2839402621099
20
11.6942069535685
30
0
41
1
10
39.2000466709364
20
11.6810995539232
30
0
41
1
10
39.1582486755849
20
11.671724523827
30
0
41
1
10
39.0993949512315
20
11.6491820816715
30
0
41
1
10
39.0801732443277
20
11.6401222857811
30
0
41
1
10
39.0443054373244
20
11.6178761877231
30
0
41
1
10
39.0276821213596
20
11.6048656514225
30
0
41
1
10
39.0131838582293
20
11.5884114786322
30
0
0
SPLINE
5
3F1
100
AcDbEntity
8
1
62
256
6
ByLayer
370
18
48
1
60
0
100
AcDbSpline
70
4
71
3
72
28
73
24
40
0
40
0
40
0
40
0
40
0.125000000000019
40
0.125000000000019
40
0.250000000000038
40
0.250000000000038
40
0.312500000000047
40
0.312500000000047
40
0.375000000000057
40
0.375000000000057
40
0.500000000000076
40
0.500000000000076
40
0.562500000000076
40
0.562500000000076
40
0.625000000000075
40
0.625000000000075
40
0.750000000000068
40
0.750000000000068
40
0.812500000000051
40
0.812500000000051
40
0.875000000000034
40
0.875000000000034
40
1
40
1
40
1
40
1
41
1
10
42.5246452701178
20
31.6630635812805
30
0
41
1
10
42.531185415159
20
31.6984410084042
30
0
41
1
10
42.5407274098782
20
31.7333265797506
30
0
41
1
10
42.5657483473695
20
31.8000732166691
30
0
41
1
10
42.5812010395844
20
31.8320582617958
30
0
41
1
10
42.6095209652684
20
31.8775947247771
30
0
41
1
10
42.6198773032837
20
31.892409281198
30
0
41
1
10
42.6419743546972
20
31.920414883867
30
0
41
1
10
42.653759911915
20
31.9336919250326
30
0
41
1
10
42.69144825874
20
31.9712117094514
30
0
41
1
10
42.7200597947687
20
31.9932572280516
30
0
41
1
10
42.7654105414382
20
32.0193297986377
30
0
41
1
10
42.7810094038982
20
32.0269534286252
30
0
41
1
10
42.8131659149012
20
32.0400855473051
30
0
41
1
10
42.8298461015365
20
32.0456231104731
30
0
41
1
10
42.8804286174284
20
32.0587984041983
30
0
41
1
10
42.9144812905668
20
32.0630273217737
30
0
41
1
10
42.9660852724599
20
32.0635975237213
30
0
41
1
10
42.9834643696627
20
32.0628005432617
30
0
41
1
10
43.0177510446776
20
32.0594140738289
30
0
41
1
10
43.0347069736971
20
32.0568355162424
30
0
41
1
10
43.0850910061517
20
32.0466865624837
30
0
41
1
10
43.1180416424032
20
32.036727890798
30
0
41
1
10
43.1504612706418
20
32.0238301417886
30
0
0
SPLINE
5
3F2
100
AcDbEntity
8
1
62
256
6
ByLayer
370
18
48
1
60
0
100
AcDbSpline
70
4
71
3
72
18
73
14
40
0
40
0
40
0
40
0
40
0.25
40
0.25
40
0.5
40
0.5
40
0.625
40
0.625
40
0.75
40
0.75
40
0.875
40
0.875
40
1
40
1
40
1
40
1
41
1
10
42.5246452701178
20
31.6630635812805
30
0
41
1
10
42.5198519455037
20
31.637135181964
30
0
41
1
10
42.5115902595855
20
31.6122241170434
30
0
41
1
10
42.4877125082087
20
31.565300439522
30
0
41
1
10
42.4724018528896
20
31.5439314975987
30
0
41
1
10
42.4444158017959
20
31.5161310558581
30
0
41
1
10
42.4344152060914
20
31.5077428834799
30
0
41
1
10
42.4130385953139
20
31.492766570684
30
0
41
1
10
42.4015395007242
20
31.4861285747451
30
0
41
1
10
42.3777607428129
20
31.475165179498
30
0
41
1
10
42.3654899008656
20
31.4708096981832
30
0
41
1
10
42.3401722572377
20
31.4643921803491
30
0
41
1
10
42.3270326410625
20
31.4623469279784
30
0
41
1
10
42.3140346536132
20
31.4615641472965
30
0
0
SPLINE
5
3F3
100
AcDbEntity
8
1
62
256
6
ByLayer
370
18
48
1
60
0
100
AcDbSpline
70
4
71
3
72
20
73
16
40
0
40
0
40
0
40
0
40
0.124999999999999
40
0.124999999999999
40
0.249999999999999
40
0.249999999999999
40
0.374999999999998
40
0.374999999999998
40
0.499999999999997
40
0.499999999999997
40
0.624999999999997
40
0.624999999999997
40
0.749999999999996
40
0.749999999999996
40
1
40
1
40
1
40
1
41
1
10
43.4113312895634
20
32.0941269658845
30
0
41
1
10
43.4050608422877
20
32.0837781479656
30
0
41
1
10
43.3978243262017
20
32.0741782918792
30
0
41
1
10
43.3814166422241
20
32.0564814331456
30
0
41
1
10
43.3722167909241
20
32.048407954313
30
0
41
1
10
43.3527261583104
20
32.034461639016
30
0
41
1
10
43.3423439212541
20
32.0284789921329
30
0
41
1
10
43.3203460216437
20
32.0184510279745
30
0
41
1
10
43.3086609185934
20
32.0144134323644
30
0
41
1
10
43.2850637595477
20
32.0085612117581
30
0
41
1
10
43.2730397992559
20
32.006683497771
30
0
41
1
10
43.2485772271639
20
32.0049176814023
30
0
41
1
10
43.2360272337862
20
32.005044255108
30
0
41
1
10
43.1986698606509
20
32.0083682753749
30
0
41
1
10
43.1742977852952
20
32.0143470785963
30
0
41
1
10
43.1504612706418
20
32.0238301417886
30
0
0
SPLINE
5
3F4
100
AcDbEntity
8
1
62
256
6
ByLayer
370
18
48
1
60
0
100
AcDbSpline
70
4
71
3
72
20
73
16
40
0
40
0
40
0
40
0
40
0.124999999999995
40
0.124999999999995
40
0.249999999999991
40
0.249999999999991
40
0.374999999999986
40
0.374999999999986
40
0.499999999999982
40
0.499999999999982
40
0.624999999999977
40
0.624999999999977
40
0.749999999999973
40
0.749999999999973
40
1
40
1
40
1
40
1
41
1
10
42.3140346536132
20
31.4615641472965
30
0
41
1
10
42.3009904631046
20
31.4607785841176
30
0
41
1
10
42.2879685548948
20
31.4612175125802
30
0
41
1
10
42.2619690022533
20
31.4645501312719
30
0
41
1
10
42.2489929994874
20
31.4674809547131
30
0
41
1
10
42.2242299503524
20
31.4755066248109
30
0
41
1
10
42.2122883397336
20
31.4806136206428
30
0
41
1
10
42.1892607772262
20
31.4929613762265
30
0
41
1
10
42.1781358120014
20
31.5002638683053
30
0
41
1
10
42.1576303913638
20
31.5163426367008
30
0
41
1
10
42.1481225031477
20
31.5251747350258
30
0
41
1
10
42.1305114825045
20
31.5443377559504
30
0
41
1
10
42.1223472982519
20
31.5547691400576
30
0
41
1
10
42.100503518127
20
31.5875416472958
30
0
41
1
10
42.0894296513842
20
31.611148462549
30
0
41
1
10
42.0815660642787
20
31.6363799239659
30
0
0
SPLINE
5
3F5
100
AcDbEntity
8
1
62
256
6
ByLayer
370
18
48
1
60
0
100
AcDbSpline
70
4
71
3
72
28
73
24
40
0
40
0
40
0
40
0
40
0.124999999999975
40
0.124999999999975
40
0.24999999999995
40
0.24999999999995
40
0.312499999999938
40
0.312499999999938
40
0.374999999999926
40
0.374999999999926
40
0.499999999999904
40
0.499999999999904
40
0.56249999999991
40
0.56249999999991
40
0.624999999999917
40
0.624999999999917
40
0.749999999999945
40
0.749999999999945
40
0.812499999999962
40
0.812499999999962
40
0.874999999999978
40
0.874999999999978
40
1
40
1
40
1
40
1
41
1
10
41.4391773050295
20
31.9207711078631
30
0
41
1
10
41.4684882487271
20
31.9373960577638
30
0
41
1
10
41.4990569684697
20
31.9513496787508
30
0
41
1
10
41.5613937295009
20
31.972647753159
30
0
41
1
10
41.59323564041
20
31.98008997421
30
0
41
1
10
41.6423829534721
20
31.9855746994531
30
0
41
1
10
41.6590628851077
20
31.9864346517294
30
0
41
1
10
41.6921540540409
20
31.9860115156068
30
0
41
1
10
41.7086529272748
20
31.9847457584294
30
0
41
1
10
41.7580389806211
20
31.9775894439682
30
0
41
1
10
41.7911396276616
20
31.9681012167612
30
0
41
1
10
41.8376435447573
20
31.9474474861428
30
0
41
1
10
41.8527339304021
20
31.9394930634948
30
0
41
1
10
41.8820949220863
20
31.921463242849
30
0
41
1
10
41.8964631011496
20
31.9113059363038
30
0
41
1
10
41.9375556366724
20
31.8782288364235
30
0
41
1
10
41.9620391641609
20
31.8530421587978
30
0
41
1
10
41.9949541923654
20
31.8112580612613
30
0
41
1
10
42.0053296811806
20
31.7965736302353
30
0
41
1
10
42.0244629994569
20
31.7664901663948
30
0
41
1
10
42.0332591981833
20
31.7510584070612
30
0
41
1
10
42.0575178183965
20
31.7036919546563
30
0
41
1
10
42.0708709319593
20
31.6706968094844
30
0
41
1
10
42.0815660642787
20
31.6363799239659
30
0
0
SPLINE
5
3F6
100
AcDbEntity
8
1
62
256
6
ByLayer
370
18
48
1
60
0
100
AcDbSpline
70
4
71
3
72
18
73
14
40
0
40
0
40
0
40
0
40
0.250000000000025
40
0.250000000000025
40
0.50000000000005
40
0.50000000000005
40
0.625000000000037
40
0.625000000000037
40
0.750000000000025
40
0.750000000000025
40
0.875000000000012
40
0.875000000000012
40
1
40
1
40
1
40
1
41
1
10
41.4391773050294
20
31.9207711078631
30
0
41
1
10
41.4176949658404
20
31.9085864843842
30
0
41
1
10
41.3951953102635
20
31.8997373281978
30
0
41
1
10
41.3486680445386
20
31.8895147194135
30
0
41
1
10
41.3252927647715
20
31.8883036012338
30
0
41
1
10
41.290976441109
20
31.8929567303363
30
0
41
1
10
41.2798730039008
20
31.8955625371682
30
0
41
1
10
41.2583683194363
20
31.9029281372345
30
0
41
1
10
41.2478705004075
20
31.9077521835271
30
0
41
1
10
41.228251734252
20
31.9194084669918
30
0
41
1
10
41.2191166313487
20
31.9262134078776
30
0
41
1
10
41.202226737359
20
31.9418079298571
30
0
41
1
10
41.1944382481979
20
31.9506815468463
30
0
41
1
10
41.1876795845417
20
31.9602114959149
30
0
0
SPLINE
5
3F7
100
AcDbEntity
8
1
62
256
6
ByLayer
370
18
48
1
60
0
100
AcDbSpline
70
4
71
3
72
16
73
12
40
0
40
0
40
0
40
0
40
0.125
40
0.125
40
0.25
40
0.25
40
0.5
40
0.5
40
0.75
40
0.75
40
1
40
1
40
1
40
1
41
1
10
43.1952660200773
20
32.7672567044908
30
0
41
1
10
43.1956754669854
20
32.7819539944141
30
0
41
1
10
43.196969976972
20
32.7962087354111
30
0
41
1
10
43.2012765799911
20
32.823876684208
30
0
41
1
10
43.204306830198
20
32.8373147176065
30
0
41
1
10
43.2156673806351
20
32.8756215916679
30
0
41
1
10
43.2262707631891
20
32.8988113249993
30
0
41
1
10
43.2529637162472
20
32.9413406730166
30
0
41
1
10
43.2689518815672
20
32.9604073222201
30
0
41
1
10
43.3047514493966
20
32.9940090651426
30
0
41
1
10
43.3246881949865
20
33.008729969961
30
0
41
1
10
43.3466037743815
20
33.0216044148889
30
0
0
SPLINE
5
3F8
100
AcDbEntity
8
1
62
256
6
ByLayer
370
18
48
1
60
0
100
AcDbSpline
70
4
71
3
72
14
73
10
40
0
40
0
40
0
40
0
40
0.25
40
0.25
40
0.5
40
0.5
40
0.75
40
0.75
40
1
40
1
40
1
40
1
41
1
10
43.363197372334
20
32.3756354242032
30
0
41
1
10
43.3402938422449
20
32.400787346369
30
0
41
1
10
43.3191771602802
20
32.4273507678469
30
0
41
1
10
43.2807208583824
20
32.4834659731778
30
0
41
1
10
43.2636446469909
20
32.5126633275332
30
0
41
1
10
43.2345142362953
20
32.5727106059925
30
0
41
1
10
43.2223077766135
20
32.6040430219352
30
0
41
1
10
43.2044518569227
20
32.6659675553159
30
0
41
1
10
43.1986500700195
20
32.6967167830642
30
0
41
1
10
43.1962958932493
20
32.7271649693936
30
0
0
SPLINE
5
3F9
100
AcDbEntity
8
1
62
256
6
ByLayer
370
18
48
1
60
0
100
AcDbSpline
70
4
71
3
72
18
73
14
40
0
40
0
40
0
40
0
40
0.250000000000006
40
0.250000000000006
40
0.500000000000012
40
0.500000000000012
40
0.625000000000009
40
0.625000000000009
40
0.750000000000006
40
0.750000000000006
40
0.875000000000003
40
0.875000000000003
40
1
40
1
40
1
40
1
41
1
10
43.3631973723342
20
32.375635424203
30
0
41
1
10
43.3809416986571
20
32.3561491741435
30
0
41
1
10
43.3961653741158
20
32.3347435939205
30
0
41
1
10
43.4206057635585
20
32.288198511552
30
0
41
1
10
43.4294637118255
20
32.2637016934564
30
0
41
1
10
43.4367756050784
20
32.2257401813256
30
0
41
1
10
43.4381680357315
20
32.2131139002569
30
0
41
1
10
43.4388008735388
20
32.1879090740883
30
0
41
1
10
43.4380161271471
20
32.1752071453284
30
0
41
1
10
43.4341900108201
20
32.1505993756373
30
0
41
1
10
43.4311774429173
20
32.138684135125
30
0
41
1
10
43.4229074333018
20
32.1156407064772
30
0
41
1
10
43.4175872158145
20
32.1044518181384
30
0
41
1
10
43.4113312895634
20
32.0941269658845
30
0
0
SPLINE
5
3FA
100
AcDbEntity
8
1
62
256
6
ByLayer
370
18
48
1
60
0
100
AcDbSpline
70
4
71
3
72
20
73
16
40
0
40
0
40
0
40
0
40
0.125000000000006
40
0.125000000000006
40
0.250000000000012
40
0.250000000000012
40
0.375000000000017
40
0.375000000000017
40
0.500000000000023
40
0.500000000000023
40
0.625000000000029
40
0.625000000000029
40
0.750000000000035
40
0.750000000000035
40
1
40
1
40
1
40
1
41
1
10
43.3822363172451
20
33.2267595604714
30
0
41
1
10
43.3890272235836
20
33.2171841481074
30
0
41
1
10
43.394782044787
20
33.2073816564602
30
0
41
1
10
43.4042182346566
20
33.1873257233906
30
0
41
1
10
43.4078695132986
20
33.1770618963165
30
0
41
1
10
43.4128073669527
20
33.1570079039225
30
0
41
1
10
43.414156812432
20
33.1470998946386
30
0
41
1
10
43.4146828586285
20
33.1275325134185
30
0
41
1
10
43.4138264388127
20
33.1178302844892
30
0
41
1
10
43.4100819149827
20
33.0994860883264
30
0
41
1
10
43.4072073573188
20
33.0907386893992
30
0
41
1
10
43.3995763671096
20
33.0740688759499
30
0
41
1
10
43.3947657208581
20
33.0660831672726
30
0
41
1
10
43.3779079000793
20
33.043941169792
30
0
41
1
10
43.3636342320988
20
33.0316090643678
30
0
41
1
10
43.3466037743815
20
33.0216044148888
30
0
0
SPLINE
5
3FB
100
AcDbEntity
8
1
62
256
6
ByLayer
370
18
48
1
60
0
100
AcDbSpline
70
4
71
3
72
16
73
12
40
0
40
0
40
0
40
0
40
0.125000000000006
40
0.125000000000006
40
0.250000000000012
40
0.250000000000012
40
0.500000000000008
40
0.500000000000008
40
0.750000000000004
40
0.750000000000004
40
1
40
1
40
1
40
1
41
1
10
41.3399460546176
20
32.615369601213
30
0
41
1
10
41.3396491634643
20
32.600037737927
30
0
41
1
10
41.3385921879263
20
32.5844438114378
30
0
41
1
10
41.3349979535715
20
32.5527596292652
30
0
41
1
10
41.3324450859581
20
32.5366301805919
30
0
41
1
10
41.3228121864514
20
32.488583055906
30
0
41
1
10
41.3137566989038
20
32.456666510324
30
0
41
1
10
41.2907805875818
20
32.3931821363776
30
0
41
1
10
41.2769445909024
20
32.3619818659783
30
0
41
1
10
41.2457662448965
20
32.3023263306135
30
0
41
1
10
41.2283165127886
20
32.2735839969308
30
0
41
1
10
41.2090269679579
20
32.2459043420175
30
0
0
SPLINE
5
3FC
100
AcDbEntity
8
1
62
256
6
ByLayer
370
18
48
1
60
0
100
AcDbSpline
70
4
71
3
72
14
73
10
40
0
40
0
40
0
40
0
40
0.282588930103622
40
0.282588930103622
40
0.565177860207243
40
0.565177860207243
40
0.847766790310865
40
0.847766790310865
40
1
40
1
40
1
40
1
41
1
10
41.1924333700054
20
32.8918733327031
30
0
41
1
10
41.2127095514062
20
32.8815340293675
30
0
41
1
10
41.2313248942476
20
32.8690728026854
30
0
41
1
10
41.2651139465523
20
32.8392708878266
30
0
41
1
10
41.2800559438277
20
32.8221059296061
30
0
41
1
10
41.3054948240002
20
32.7828709760509
30
0
41
1
10
41.3161251618757
20
32.7604245110488
30
0
41
1
10
41.3281107786149
20
32.7226596437085
30
0
41
1
10
41.3315215458509
20
32.7088132001929
30
0
41
1
10
41.3341082434629
20
32.6942901281198
30
0
0
SPLINE
5
3FD
100
AcDbEntity
8
1
62
256
6
ByLayer
370
18
48
1
60
0
100
AcDbSpline
70
4
71
3
72
20
73
16
40
0
40
0
40
0
40
0
40
0.124999999999993
40
0.124999999999993
40
0.249999999999985
40
0.249999999999985
40
0.374999999999977
40
0.374999999999977
40
0.49999999999997
40
0.49999999999997
40
0.624999999999962
40
0.624999999999962
40
0.749999999999954
40
0.749999999999954
40
1
40
1
40
1
40
1
41
1
10
41.1876795845417
20
31.9602114959149
30
0
41
1
10
41.1808886782031
20
31.9697869082789
30
0
41
1
10
41.1750455251439
20
31.9800874023868
30
0
41
1
10
41.1652548279322
20
32.0021419975122
30
0
41
1
10
41.1613345614155
20
32.0139223400288
30
0
41
1
10
41.1557043340388
20
32.0378798371556
30
0
41
1
10
41.153929985619
20
32.0501833888839
30
0
41
1
10
41.1523968113969
20
32.0754288149035
30
0
41
1
10
41.1526660625515
20
32.0884414173682
30
0
41
1
10
41.1551266136877
20
32.1140244692587
30
0
41
1
10
41.1572998151935
20
32.1267260146154
30
0
41
1
10
41.1634105884031
20
32.1519665956426
30
0
41
1
10
41.1673944378897
20
32.1646136670782
30
0
41
1
10
41.1816477501221
20
32.2014395139124
30
0
41
1
10
41.1940371850412
20
32.2243946577818
30
0
41
1
10
41.2090269679579
20
32.2459043420175
30
0
0
SPLINE
5
3FE
100
AcDbEntity
8
1
62
256
6
ByLayer
370
18
48
1
60
0
100
AcDbSpline
70
4
71
3
72
18
73
14
40
0
40
0
40
0
40
0
40
0.249999999999996
40
0.249999999999996
40
0.499999999999991
40
0.499999999999991
40
0.624999999999993
40
0.624999999999993
40
0.749999999999996
40
0.749999999999996
40
0.874999999999998
40
0.874999999999998
40
1
40
1
40
1
40
1
41
1
10
41.1924333700054
20
32.8918733327031
30
0
41
1
10
41.1767245610158
20
32.899883625074
30
0
41
1
10
41.1633954323094
20
32.9106080197266
30
0
41
1
10
41.1424306538132
20
32.9375581011035
30
0
41
1
10
41.1351044739993
20
32.9534190261666
30
0
41
1
10
41.1297292805936
20
32.9804616995635
30
0
41
1
10
41.1289102230537
20
32.989855384437
30
0
41
1
10
41.1292812933174
20
33.0094003194526
30
0
41
1
10
41.1304996515216
20
33.0196576063852
30
0
41
1
10
41.1350191680942
20
33.0403560839518
30
0
41
1
10
41.1382937441472
20
33.0507941597173
30
0
41
1
10
41.1469179222785
20
33.0718408365643
30
0
41
1
10
41.1523286859724
20
33.0825192382478
30
0
41
1
10
41.1585846122235
20
33.0928440905018
30
0
0
SPLINE
5
3FF
100
AcDbEntity
8
1
62
256
6
ByLayer
370
18
48
1
60
0
100
AcDbSpline
70
4
71
3
72
18
73
14
40
0
40
0
40
0
40
0
40
0.250000000000041
40
0.250000000000041
40
0.500000000000082
40
0.500000000000082
40
0.625000000000062
40
0.625000000000062
40
0.750000000000041
40
0.750000000000041
40
0.875000000000021
40
0.875000000000021
40
1
40
1
40
1
40
1
41
1
10
42.0310148168645
20
33.6042797346959
30
0
41
1
10
42.0378401717344
20
33.6187518359716
30
0
41
1
10
42.0479935216222
20
33.6329979680419
30
0
41
1
10
42.0753393600504
20
33.660369063224
30
0
41
1
10
42.0921788623232
20
33.6731185831136
30
0
41
1
10
42.1220970924074
20
33.6900256740682
30
0
41
1
10
42.1326697489065
20
33.6951886489174
30
0
41
1
10
42.1550479740055
20
33.7045180023948
30
0
41
1
10
42.1669796780581
20
33.7087170076106
30
0
41
1
10
42.1914501460034
20
33.7157806399061
30
0
41
1
10
42.2039823666033
20
33.7186625054929
30
0
41
1
10
42.2296533229681
20
33.7230880962854
30
0
41
1
10
42.2428832607243
20
33.7246241284078
30
0
41
1
10
42.2558812481735
20
33.7254069090897
30
0
0
SPLINE
5
400
100
AcDbEntity
8
1
62
256
6
ByLayer
370
18
48
1
60
0
100
AcDbSpline
70
4
71
3
72
28
73
24
40
0
40
0
40
0
40
0
40
0.124999999999993
40
0.124999999999993
40
0.249999999999986
40
0.249999999999986
40
0.312499999999976
40
0.312499999999976
40
0.374999999999965
40
0.374999999999965
40
0.499999999999939
40
0.499999999999939
40
0.562499999999942
40
0.562499999999942
40
0.624999999999945
40
0.624999999999945
40
0.749999999999962
40
0.749999999999962
40
0.81249999999997
40
0.81249999999997
40
0.874999999999979
40
0.874999999999979
40
1
40
1
40
1
40
1
41
1
10
42.0310148168652
20
33.6042797346973
30
0
41
1
10
42.021702113387
20
33.5845335983483
30
0
41
1
10
42.0095051870354
20
33.5646161545546
30
0
41
1
10
41.9796458407023
20
33.5251477796485
30
0
41
1
10
41.9619979176009
20
33.5055391345454
30
0
41
1
10
41.9308498577
20
33.475947290694
30
0
41
1
10
41.9196274431196
20
33.4660155509673
30
0
41
1
10
41.8960243501061
20
33.4465007969858
30
0
41
1
10
41.8835930933456
20
33.4368641181555
30
0
41
1
10
41.8443243800736
20
33.4082542153574
30
0
41
1
10
41.8151475206706
20
33.3893959096671
30
0
41
1
10
41.7698039601769
20
33.3632828244416
30
0
41
1
10
41.7543439353037
20
33.3548764478541
30
0
41
1
10
41.7227331952244
20
33.338667350204
30
0
41
1
10
41.7064640855846
20
33.3308121933063
30
0
41
1
10
41.6574808212894
20
33.3086205461667
30
0
41
1
10
41.6249571924466
20
33.2957710939704
30
0
41
1
10
41.5761780198071
20
33.2792750185637
30
0
41
1
10
41.5598361946101
20
33.2742240067432
30
0
41
1
10
41.5277421582389
20
33.2652486908495
30
0
41
1
10
41.511943363742
20
33.2613034883066
30
0
41
1
10
41.4651825800592
20
33.2510250799785
30
0
41
1
10
41.4348476745202
20
33.2462366333308
30
0
41
1
10
41.4051988163405
20
33.2435131741877
30
0
0
SPLINE
5
401
100
AcDbEntity
8
1
62
256
6
ByLayer
370
18
48
1
60
0
100
AcDbSpline
70
4
71
3
72
20
73
16
40
0
40
0
40
0
40
0
40
0.125000000000007
40
0.125000000000007
40
0.250000000000014
40
0.250000000000014
40
0.375000000000022
40
0.375000000000022
40
0.500000000000029
40
0.500000000000029
40
0.625000000000036
40
0.625000000000036
40
0.750000000000044
40
0.750000000000044
40
1
40
1
40
1
40
1
41
1
10
41.1585846122235
20
33.0928440905018
30
0
41
1
10
41.1648550594991
20
33.1031929084206
30
0
41
1
10
41.1720034753414
20
33.1132894611712
30
0
41
1
10
41.1880574474448
20
33.1329804972256
30
0
41
1
10
41.1969889856027
20
33.1425666874536
30
0
41
1
10
41.2157889318654
20
33.1604069943229
30
0
41
1
10
41.2257472575536
20
33.1687795933053
30
0
41
1
10
41.2467402245433
20
33.1844732248823
30
0
41
1
10
41.2578395051061
20
33.1918136044914
30
0
41
1
10
41.2801555996278
20
33.2048882849773
30
0
41
1
10
41.2914797178461
20
33.2107116091997
30
0
41
1
10
41.3144251867486
20
33.2210306379277
30
0
41
1
10
41.326149971268
20
33.2255564745877
30
0
41
1
10
41.3609081601859
20
33.2368862858635
30
0
41
1
10
41.3833995089193
20
33.2415107522816
30
0
41
1
10
41.4051988163405
20
33.2435131741877
30
0
0
SPLINE
5
402
100
AcDbEntity
8
1
62
256
6
ByLayer
370
18
48
1
60
0
100
AcDbSpline
70
4
71
3
72
20
73
16
40
0
40
0
40
0
40
0
40
0.125000000000006
40
0.125000000000006
40
0.250000000000012
40
0.250000000000012
40
0.375000000000018
40
0.375000000000018
40
0.500000000000025
40
0.500000000000025
40
0.625000000000031
40
0.625000000000031
40
0.750000000000037
40
0.750000000000037
40
1
40
1
40
1
40
1
41
1
10
42.2558812481735
20
33.7254069090897
30
0
41
1
10
42.2689254386822
20
33.7261924722686
30
0
41
1
10
42.2818592465813
20
33.7262502408481
30
0
41
1
10
42.3075050875334
20
33.7249117984354
30
0
41
1
10
42.3202127770119
20
33.723493687209
30
0
41
1
10
42.3442851394945
20
33.7193620103823
30
0
41
1
10
42.3558028386894
20
33.7166449669637
30
0
41
1
10
42.3778254690475
20
33.7099628761409
30
0
41
1
10
42.3883646115851
20
33.7059631691881
30
0
41
1
10
42.4075889670066
20
33.6971068645736
30
0
41
1
10
42.4163970130115
20
33.6922203772604
30
0
41
1
10
42.4324909308569
20
33.6816105664861
30
0
41
1
10
42.4398299070875
20
33.6758315880303
30
0
41
1
10
42.4590745012155
20
33.6577129223676
30
0
41
1
10
42.4682676412535
20
33.6447093772183
30
0
41
1
10
42.4740940227037
20
33.6309633920104
30
0
0
SPLINE
5
403
100
AcDbEntity
8
1
62
256
6
ByLayer
370
18
48
1
60
0
100
AcDbSpline
70
4
71
3
72
28
73
24
40
0
40
0
40
0
40
0
40
0.12500000000003
40
0.12500000000003
40
0.250000000000059
40
0.250000000000059
40
0.312500000000062
40
0.312500000000062
40
0.375000000000065
40
0.375000000000065
40
0.500000000000054
40
0.500000000000054
40
0.56250000000003
40
0.56250000000003
40
0.625000000000006
40
0.625000000000006
40
0.749999999999962
40
0.749999999999962
40
0.812499999999962
40
0.812499999999962
40
0.874999999999961
40
0.874999999999961
40
1
40
1
40
1
40
1
41
1
10
43.1164827819553
20
33.3465722081133
30
0
41
1
10
43.0843992794461
20
33.3455785510978
30
0
41
1
10
43.0511756279375
20
33.3465930584157
30
0
41
1
10
42.9840004574978
20
33.3525732492134
30
0
41
1
10
42.9499633158258
20
33.3575074274877
30
0
41
1
10
42.8979878690808
20
33.3679673183628
30
0
41
1
10
42.8804418608284
20
33.3719901830714
30
0
41
1
10
42.8458446501887
20
33.3809041684817
30
0
41
1
10
42.8287000774656
20
33.385810287692
30
0
41
1
10
42.7777336579667
20
33.4018764821138
30
0
41
1
10
42.7440676875893
20
33.4145519220189
30
0
41
1
10
42.6975709569558
20
33.4351651363829
30
0
41
1
10
42.68261940901
20
33.4423368117978
30
0
41
1
10
42.6538041882824
20
33.4572896532878
30
0
41
1
10
42.6398470859561
20
33.4651293675607
30
0
41
1
10
42.6003538026165
20
33.4891901107193
30
0
41
1
10
42.5773993197544
20
33.5057562518605
30
0
41
1
10
42.5473091003277
20
33.5316144786194
30
0
41
1
10
42.537970883357
20
33.5404509182754
30
0
41
1
10
42.5210302043248
20
33.5581725934049
30
0
41
1
10
42.513391140325
20
33.5670805914588
30
0
41
1
10
42.4927557691238
20
33.5940196804222
30
0
41
1
10
42.4820183859384
20
33.6122677091514
30
0
41
1
10
42.4740940227037
20
33.6309633920104
30
0
0
SPLINE
5
404
100
AcDbEntity
8
1
62
256
6
ByLayer
370
18
48
1
60
0
100
AcDbSpline
70
4
71
3
72
18
73
14
40
0
40
0
40
0
40
0
40
0.249999999999999
40
0.249999999999999
40
0.499999999999998
40
0.499999999999998
40
0.624999999999998
40
0.624999999999998
40
0.749999999999999
40
0.749999999999999
40
0.875
40
0.875
40
1
40
1
40
1
40
1
41
1
10
43.1164827819529
20
33.3465722081132
30
0
41
1
10
43.139997162465
20
33.347300471156
30
0
41
1
10
43.1643878011145
20
33.3454885332918
30
0
41
1
10
43.2143838409372
20
33.3361546862674
30
0
41
1
10
43.2392875179421
20
33.3287489178475
30
0
41
1
10
43.2755364019948
20
33.313200287682
30
0
41
1
10
43.2872119302975
20
33.3073691124937
30
0
41
1
10
43.3097181899773
20
33.2943567735841
30
0
41
1
10
43.3206485739196
20
33.2870939877322
30
0
41
1
10
43.340959166632
20
33.2715372843767
30
0
41
1
10
43.3503556381712
20
33.2632587842348
30
0
41
1
10
43.3675988156725
20
33.2456724999825
30
0
41
1
10
43.375477653589
20
33.23628950954
30
0
41
1
10
43.3822363172451
20
33.2267595604714
30
0
0
SPLINE
5
405
100
AcDbEntity
8
1
62
256
6
ByLayer
370
18
48
1
60
0
100
AcDbSpline
70
4
71
3
72
22
73
18
40
0
40
0
40
0
40
0
40
0.125
40
0.125
40
0.25
40
0.25
40
0.375
40
0.375
40
0.5
40
0.5
40
0.625
40
0.625
40
0.75
40
0.75
40
0.875
40
0.875
40
1
40
1
40
1
40
1
41
1
10
44.8155261227895
20
6.12795444349592
30
0
41
1
10
44.8478626342431
20
6.13078255221166
30
0
41
1
10
44.8797409876397
20
6.13268626976026
30
0
41
1
10
44.9426246017002
20
6.13473213111041
30
0
41
1
10
44.9739198070561
20
6.13486392075191
30
0
41
1
10
45.0341265603488
20
6.13330201441369
30
0
41
1
10
45.0628136071436
20
6.13163467669983
30
0
41
1
10
45.1174092639308
20
6.12656116660901
30
0
41
1
10
45.1435269339763
20
6.12310365806871
30
0
41
1
10
45.1909519140583
20
6.11466066272743
30
0
41
1
10
45.2124670249739
20
6.1096749620786
30
0
41
1
10
45.2510613403522
20
6.09816084433152
30
0
41
1
10
45.268075800525
20
6.0916100729691
30
0
41
1
10
45.2961295934751
20
6.077492190491
30
0
41
1
10
45.3074007231892
20
6.0698660230554
30
0
41
1
10
45.3242260837876
20
6.05343696494822
30
0
41
1
10
45.3296318735239
20
6.04474364039294
30
0
41
1
10
45.3318910835292
20
6.03569965278456
30
0
0
SPLINE
5
406
100
AcDbEntity
8
1
62
256
6
ByLayer
370
18
48
1
60
0
100
AcDbSpline
70
4
71
3
72
22
73
18
40
0
40
0
40
0
40
0
40
0.125
40
0.125
40
0.25
40
0.25
40
0.375
40
0.375
40
0.5
40
0.5
40
0.625
40
0.625
40
0.75
40
0.75
40
0.875
40
0.875
40
1
40
1
40
1
40
1
41
1
10
38.3998989792158
20
5.4294367503764
30
0
41
1
10
38.4006952360238
20
5.43874747153399
30
0
41
1
10
38.4046061730843
20
5.44813533970591
30
0
41
1
10
38.4183569909675
20
5.4670579291078
30
0
41
1
10
38.4283371110725
20
5.47668846520565
30
0
41
1
10
38.4538976663406
20
5.49561402772366
30
0
41
1
10
38.4693247254101
20
5.50484728519882
30
0
41
1
10
38.5053651111085
20
5.52286405702404
30
0
41
1
10
38.5262117673149
20
5.53171534362235
30
0
41
1
10
38.5715954270148
20
5.5482761748188
30
0
41
1
10
38.596233134994
20
5.55606112208909
30
0
41
1
10
38.6494365258764
20
5.57063085781266
30
0
41
1
10
38.6779704251228
20
5.57737951766234
30
0
41
1
10
38.7366328407529
20
5.58929899994706
30
0
41
1
10
38.7670393813341
20
5.59455120799987
30
0
41
1
10
38.8300869152762
20
5.60358542871217
30
0
41
1
10
38.8621793194956
20
5.60728257057764
30
0
41
1
10
38.8945115397796
20
5.61011030399334
30
0
0
SPLINE
5
407
100
AcDbEntity
8
1
62
256
6
ByLayer
370
18
48
1
60
0
100
AcDbSpline
70
4
71
3
72
28
73
24
40
0
40
0
40
0
40
0
40
0.125000000000019
40
0.125000000000019
40
0.187500000000031
40
0.187500000000031
40
0.250000000000042
40
0.250000000000042
40
0.375000000000049
40
0.375000000000049
40
0.437500000000045
40
0.437500000000045
40
0.500000000000041
40
0.500000000000041
40
0.625000000000034
40
0.625000000000034
40
0.750000000000027
40
0.750000000000027
40
0.81250000000002
40
0.81250000000002
40
0.875000000000014
40
0.875000000000014
40
1
40
1
40
1
40
1
41
1
10
38.7642687247789
20
1.26743276278705
30
0
41
1
10
38.7134512230852
20
1.26298833099799
30
0
41
1
10
38.6634401094249
20
1.25848322660789
30
0
41
1
10
38.5896003632756
20
1.25163701828842
30
0
41
1
10
38.5651846595254
20
1.24934008557483
30
0
41
1
10
38.5167599958829
20
1.24471561675602
30
0
41
1
10
38.4928422757836
20
1.24239637143228
30
0
41
1
10
38.4232412990538
20
1.23554244989532
30
0
41
1
10
38.3791904322963
20
1.23106313723639
30
0
41
1
10
38.3166491535976
20
1.22447951687923
30
0
41
1
10
38.2962873859724
20
1.22229570601115
30
0
41
1
10
38.2574821471409
20
1.21805044746481
30
0
41
1
10
38.2390150013879
20
1.21598708007133
30
0
41
1
10
38.1863421243586
20
1.20996983108262
30
0
41
1
10
38.1548393283035
20
1.20618717934497
30
0
41
1
10
38.0992709021634
20
1.19909301733833
30
0
41
1
10
38.0760669119159
20
1.19589101939732
30
0
41
1
10
38.0479035345308
20
1.19159567708391
30
0
41
1
10
38.0396231838683
20
1.19024812656517
30
0
41
1
10
38.0253104510527
20
1.18772400241778
30
0
41
1
10
38.0192755469421
20
1.18654542777637
30
0
41
1
10
38.0048935690585
20
1.18333152013247
30
0
41
1
10
38.0000906110284
20
1.1815919985109
30
0
41
1
10
38.0000882470615
20
1.18025687169052
30
0
0
SPLINE
5
408
100
AcDbEntity
8
1
62
256
6
ByLayer
370
13
48
1
60
0
100
AcDbSpline
70
4
71
3
72
8
73
4
40
0
40
0
40
0
40
0
40
1
40
1
40
1
40
1
41
1
10
45.7034427832546
20
1.87432378945027
30
0
41
1
10
45.4074705630995
20
3.29220067413212
30
0
41
1
10
45.1114983429445
20
4.71007755881402
30
0
41
1
10
44.8155261227895
20
6.12795444349592
30
0
0
SPLINE
5
409
100
AcDbEntity
8
1
62
256
6
ByLayer
370
18
48
1
60
0
100
AcDbSpline
70
4
71
3
72
29
73
25
40
0
40
0
40
0
40
0
40
0.125000000000012
40
0.125000000000012
40
0.18750000000001
40
0.18750000000001
40
0.250000000000008
40
0.250000000000008
40
0.37500000000001
40
0.37500000000001
40
0.437500000000011
40
0.437500000000011
40
0.500000000000012
40
0.500000000000012
40
0.625000000000002
40
0.625000000000002
40
0.687500000000002
40
0.687500000000002
40
0.750000000000001
40
0.812500000000001
40
0.812500000000001
40
0.875000000000001
40
0.875000000000001
40
1
40
1
40
1
40
1
41
1
10
46.467623260972
20
1.92081633519342
30
0
41
1
10
46.4676208967812
20
1.92215117489763
30
0
41
1
10
46.4628170878155
20
1.92304636833467
30
0
41
1
10
46.4485686595187
20
1.92374428940718
30
0
41
1
10
46.4426373394891
20
1.92386871373907
30
0
41
1
10
46.4283376018244
20
1.92389440855698
30
0
41
1
10
46.4199749293787
20
1.92379427614782
30
0
41
1
10
46.3917437651982
20
1.92316445732177
30
0
41
1
10
46.3686255500776
20
1.92230951501904
30
0
41
1
10
46.327431753438
20
1.92036738835759
30
0
41
1
10
46.3125274172971
20
1.91960488703143
30
0
41
1
10
46.2808125326987
20
1.917869131396
30
0
41
1
10
46.2640967979032
20
1.91690165248906
30
0
41
1
10
46.2114404368279
20
1.9137080391119
30
0
41
1
10
46.1730144751759
20
1.91119349234492
30
0
41
1
10
46.110222846689
20
1.90682372552573
30
0
41
1
10
46.0884791191968
20
1.90526983614086
30
0
41
1
10
46.0442363719022
20
1.90203097202595
30
0
41
1
10
45.999010576078
20
1.89864533838119
30
0
41
1
10
45.9518461090981
20
1.89497026037475
30
0
41
1
10
45.9036983482
20
1.89114837620178
30
0
41
1
10
45.8790116241334
20
1.88915396596559
30
0
41
1
10
45.8045160436905
20
1.88303227042218
30
0
41
1
10
45.7542705511224
20
1.8787691191053
30
0
41
1
10
45.7034427832546
20
1.87432378945016
30
0
0
SPLINE
5
40A
100
AcDbEntity
8
1
62
256
6
ByLayer
370
13
48
1
60
0
100
AcDbSpline
70
4
71
3
72
8
73
4
40
0
40
0
40
0
40
0
40
1
40
1
40
1
40
1
41
1
10
38.8945115397796
20
5.61011030399334
30
0
41
1
10
38.8510972681128
20
4.16255112359124
30
0
41
1
10
38.8076829964458
20
2.7149919431892
30
0
41
1
10
38.7642687247789
20
1.26743276278717
30
0
0
SPLINE
5
40B
100
AcDbEntity
8
1
62
256
6
ByLayer
370
18
48
1
60
0
100
AcDbSpline
70
4
71
3
72
16
73
12
40
0
40
0
40
0
40
0
40
0.297827623630955
40
0.297827623630955
40
0.446741435446433
40
0.446741435446433
40
0.59565524726191
40
0.59565524726191
40
0.89348287089286
40
0.89348287089286
40
1
40
1
40
1
40
1
41
1
10
38.1805214835459
20
-28.6059674341363
30
0
41
1
10
38.1827463559834
20
-28.5564426850223
30
0
41
1
10
38.1897398474279
20
-28.5079385619048
30
0
41
1
10
38.2072246509092
20
-28.4366794220154
30
0
41
1
10
38.2142266828209
20
-28.413177595737
30
0
41
1
10
38.2306511826814
20
-28.3666919883278
30
0
41
1
10
38.2400647335037
20
-28.343778542531
30
0
41
1
10
38.2713577608896
20
-28.2772501966039
30
0
41
1
10
38.2964186408875
20
-28.235353401516
30
0
41
1
10
38.3362052213358
20
-28.1818423250725
30
0
41
1
10
38.3472757813598
20
-28.1680197997595
30
0
41
1
10
38.3588495815779
20
-28.154595220846
30
0
0
SPLINE
5
40C
100
AcDbEntity
8
1
62
256
6
ByLayer
370
18
48
1
60
0
100
AcDbSpline
70
4
71
3
72
14
73
10
40
0
40
0
40
0
40
0
40
0.317122420423968
40
0.317122420423968
40
0.634244840847936
40
0.634244840847936
40
0.951367261271904
40
0.951367261271904
40
1
40
1
40
1
40
1
41
1
10
38.3998989792158
20
-37.9523636180501
30
0
41
1
10
38.4006952360238
20
-37.9809287831132
30
0
41
1
10
38.4046061730843
20
-38.0090789717246
30
0
41
1
10
38.4183569909675
20
-38.0645894212964
30
0
41
1
10
38.4283371110725
20
-38.0922159554452
30
0
41
1
10
38.4538976663406
20
-38.1452594672829
30
0
41
1
10
38.46932472541
20
-38.1705179890327
30
0
41
1
10
38.4901084293649
20
-38.198222637601
30
0
41
1
10
38.4929384137214
20
-38.2018810553229
30
0
41
1
10
38.4958313321495
20
-38.2055102711223
30
0
0
SPLINE
5
40D
100
AcDbEntity
8
1
62
256
6
ByLayer
370
13
48
1
60
0
100
AcDbSpline
70
4
71
3
72
8
73
4
40
0
40
0
40
0
40
0
40
1
40
1
40
1
40
1
41
1
10
38.0000882470615
20
-35.6300182754186
30
0
41
1
10
38.1333584911129
20
-36.4041333896291
30
0
41
1
10
38.2666287351643
20
-37.1782485038396
30
0
41
1
10
38.3998989792158
20
-37.9523636180501
30
0
0
SPLINE
5
40E
100
AcDbEntity
8
1
62
256
6
ByLayer
370
13
48
1
60
0
100
AcDbSpline
70
4
71
3
72
8
73
4
40
0
40
0
40
0
40
0
40
1
40
1
40
1
40
1
41
1
10
38.271330999986
20
-29.0139974574102
30
0
41
1
10
38.2410611611726
20
-28.8779874496522
30
0
41
1
10
38.2107913223592
20
-28.7419774418942
30
0
41
1
10
38.1805214835459
20
-28.6059674341363
30
0
0
SPLINE
5
40F
100
AcDbEntity
8
1
62
256
6
ByLayer
370
18
48
1
60
0
100
AcDbSpline
70
4
71
3
72
28
73
24
40
0
40
0
40
0
40
0
40
0.124999999999979
40
0.124999999999979
40
0.249999999999957
40
0.249999999999957
40
0.312499999999958
40
0.312499999999958
40
0.374999999999959
40
0.374999999999959
40
0.499999999999932
40
0.499999999999932
40
0.562499999999923
40
0.562499999999923
40
0.624999999999914
40
0.624999999999914
40
0.749999999999931
40
0.749999999999931
40
0.812499999999946
40
0.812499999999946
40
0.874999999999961
40
0.874999999999961
40
1
40
1
40
1
40
1
41
1
10
43.1164827819553
20
45.9279422684507
30
0
41
1
10
43.0843992794461
20
45.9157491196379
30
0
41
1
10
43.0511756279375
20
45.9063864821137
30
0
41
1
10
42.9840004574978
20
45.8942779079072
30
0
41
1
10
42.9499633158258
20
45.8914471065139
30
0
41
1
10
42.8979878690808
20
45.8928253004175
30
0
41
1
10
42.8804418608284
20
45.894251620124
30
0
41
1
10
42.8458446501887
20
45.8991010041124
30
0
41
1
10
42.8287000774656
20
45.9025192762534
30
0
41
1
10
42.7777336579667
20
45.9159216334322
30
0
41
1
10
42.7440676875893
20
45.9293174991935
30
0
41
1
10
42.6975709569558
20
45.9549828000508
30
0
41
1
10
42.68261940901
20
45.9644824284646
30
0
41
1
10
42.6538041882824
20
45.9853572818776
30
0
41
1
10
42.6398470859561
20
45.9968225427455
30
0
41
1
10
42.6003538026165
20
46.0334016462922
30
0
41
1
10
42.5773993197544
20
46.0603502026653
30
0
41
1
10
42.5473091003278
20
46.1041244616761
30
0
41
1
10
42.537970883357
20
46.1193640444561
30
0
41
1
10
42.5210302043248
20
46.1503445422311
30
0
41
1
10
42.513391140325
20
46.1661212303125
30
0
41
1
10
42.4927557691238
20
46.2142585889918
30
0
41
1
10
42.4820183859384
20
46.2474194358282
30
0
41
1
10
42.4740940227037
20
46.2816203220618
30
0
0
SPLINE
5
410
100
AcDbEntity
8
1
62
256
6
ByLayer
370
18
48
1
60
0
100
AcDbSpline
70
4
71
3
72
20
73
16
40
0
40
0
40
0
40
0
40
0.125000000000007
40
0.125000000000007
40
0.250000000000014
40
0.250000000000014
40
0.375000000000021
40
0.375000000000021
40
0.500000000000028
40
0.500000000000028
40
0.625000000000035
40
0.625000000000035
40
0.750000000000042
40
0.750000000000042
40
1
40
1
40
1
40
1
41
1
10
42.2558812481735
20
46.4677376756806
30
0
41
1
10
42.2689254386822
20
46.4677078020552
30
0
41
1
10
42.2818592465813
20
46.4664697221689
30
0
41
1
10
42.3075050875334
20
46.4615726918376
30
0
41
1
10
42.3202127770118
20
46.4578772106223
30
0
41
1
10
42.3442851394945
20
46.448426784382
30
0
41
1
10
42.3558028386894
20
46.4426502784838
30
0
41
1
10
42.3778254690475
20
46.4290524773974
30
0
41
1
10
42.3883646115851
20
46.4211680559656
30
0
41
1
10
42.4075889670066
20
46.4040665421514
30
0
41
1
10
42.4163970130115
20
46.3947864718255
30
0
41
1
10
42.4324909308569
20
46.3748546428738
30
0
41
1
10
42.4398299070875
20
46.3641005086822
30
0
41
1
10
42.4590745012155
20
46.3305819839013
30
0
41
1
10
42.4682676412536
20
46.3067664951014
30
0
41
1
10
42.4740940227037
20
46.2816203220618
30
0
0
SPLINE
5
411
100
AcDbEntity
8
1
62
256
6
ByLayer
370
18
48
1
60
0
100
AcDbSpline
70
4
71
3
72
18
73
14
40
0
40
0
40
0
40
0
40
0.250000000000009
40
0.250000000000009
40
0.500000000000018
40
0.500000000000018
40
0.625000000000013
40
0.625000000000013
40
0.750000000000009
40
0.750000000000009
40
0.875000000000004
40
0.875000000000004
40
1
40
1
40
1
40
1
41
1
10
43.1164827819529
20
45.9279422684498
30
0
41
1
10
43.139997162465
20
45.9368787722103
30
0
41
1
10
43.1643878011145
20
45.9423103756226
30
0
41
1
10
43.2143838409372
20
45.9453650314859
30
0
41
1
10
43.2392875179421
20
45.9429256132243
30
0
41
1
10
43.2755364019947
20
45.9327756197257
30
0
41
1
10
43.2872119302975
20
45.9283676436082
30
0
41
1
10
43.3097181899773
20
45.9174538243169
30
0
41
1
10
43.3206485739195
20
45.9108669964064
30
0
41
1
10
43.340959166632
20
45.8958438673096
30
0
41
1
10
43.3503556381712
20
45.8874333680689
30
0
41
1
10
43.3675988156725
20
45.8687833346809
30
0
41
1
10
43.375477653589
20
45.8584521234785
30
0
41
1
10
43.3822363172451
20
45.8476037415644
30
0
0
SPLINE
5
412
100
AcDbEntity
8
1
62
256
6
ByLayer
370
18
48
1
60
0
100
AcDbSpline
70
4
71
3
72
28
73
24
40
0
40
0
40
0
40
0
40
0.124999999999991
40
0.124999999999991
40
0.249999999999982
40
0.249999999999982
40
0.312499999999978
40
0.312499999999978
40
0.374999999999973
40
0.374999999999973
40
0.499999999999963
40
0.499999999999963
40
0.562499999999968
40
0.562499999999968
40
0.624999999999973
40
0.624999999999973
40
0.749999999999984
40
0.749999999999984
40
0.812499999999989
40
0.812499999999989
40
0.874999999999994
40
0.874999999999994
40
1
40
1
40
1
40
1
41
1
10
42.0310148168652
20
46.2826350559571
30
0
41
1
10
42.021702113387
20
46.2484515707296
30
0
41
1
10
42.0095051870354
20
46.2148411188883
30
0
41
1
10
41.9796458407023
20
46.1506509473089
30
0
41
1
10
41.9619979176009
20
46.119950985955
30
0
41
1
10
41.9308498577
20
46.0762512676137
30
0
41
1
10
41.9196274431196
20
46.0620351799029
30
0
41
1
10
41.8960243501061
20
46.035145692085
30
0
41
1
10
41.8835930933455
20
46.0223897380895
30
0
41
1
10
41.8443243800736
20
45.9862931850498
30
0
41
1
10
41.8151475206706
20
45.9650071931455
30
0
41
1
10
41.7698039601769
20
45.9396549629155
30
0
41
1
10
41.7543439353037
20
45.932206556856
30
0
41
1
10
41.7227331952244
20
45.9192998224039
30
0
41
1
10
41.7064640855846
20
45.9138122364914
30
0
41
1
10
41.6574808212894
20
45.9006135743841
30
0
41
1
10
41.6249571924466
20
45.8961445609271
30
0
41
1
10
41.5761780198071
20
45.8950156096532
30
0
41
1
10
41.5598361946101
20
45.8955914855603
30
0
41
1
10
41.5277421582389
20
45.8984975349433
30
0
41
1
10
41.511943363742
20
45.900816564781
30
0
41
1
10
41.4651825800592
20
45.9101559097032
30
0
41
1
10
41.4348476745202
20
45.9195348139702
30
0
41
1
10
41.4051988163405
20
45.9318614274109
30
0
0
SPLINE
5
413
100
AcDbEntity
8
1
62
256
6
ByLayer
370
18
48
1
60
0
100
AcDbSpline
70
4
71
3
72
18
73
14
40
0
40
0
40
0
40
0
40
0.249999999999975
40
0.249999999999975
40
0.49999999999995
40
0.49999999999995
40
0.624999999999962
40
0.624999999999962
40
0.749999999999975
40
0.749999999999975
40
0.874999999999988
40
0.874999999999988
40
1
40
1
40
1
40
1
41
1
10
42.0310148168645
20
46.2826350559546
30
0
41
1
10
42.0378401717344
20
46.3076884057051
30
0
41
1
10
42.0479935216222
20
46.3315964777679
30
0
41
1
10
42.0753393600504
20
46.3762010559263
30
0
41
1
10
42.0921788623232
20
46.3962842040049
30
0
41
1
10
42.1220970924074
20
46.4219444616774
30
0
41
1
10
42.1326697489065
20
46.4295966642294
30
0
41
1
10
42.1550479740055
20
46.4430477684821
30
0
41
1
10
42.1669796780581
20
46.448888316441
30
0
41
1
10
42.1914501460034
20
46.4582417966353
30
0
41
1
10
42.2039823666033
20
46.4617848857577
30
0
41
1
10
42.2296533229681
20
46.4665588654333
30
0
41
1
10
42.2428832607243
20
46.4677674434924
30
0
41
1
10
42.2558812481735
20
46.4677376756806
30
0
0
SPLINE
5
414
100
AcDbEntity
8
1
62
256
6
ByLayer
370
18
48
1
60
0
100
AcDbSpline
70
4
71
3
72
20
73
16
40
0
40
0
40
0
40
0
40
0.125000000000007
40
0.125000000000007
40
0.250000000000014
40
0.250000000000014
40
0.375000000000021
40
0.375000000000021
40
0.500000000000027
40
0.500000000000027
40
0.625000000000034
40
0.625000000000034
40
0.750000000000041
40
0.750000000000041
40
1
40
1
40
1
40
1
41
1
10
41.1585846122235
20
45.8526963180632
30
0
41
1
10
41.1648550594991
20
45.8635521594432
30
0
41
1
10
41.1720034753414
20
45.8736510467008
30
0
41
1
10
41.1880574474448
20
45.8923312304235
30
0
41
1
10
41.1969889856027
20
45.9008887716037
30
0
41
1
10
41.2157889318655
20
45.9157495666391
30
0
41
1
10
41.2257472575536
20
45.9221685031235
30
0
41
1
10
41.2467402245433
20
45.9330337935869
30
0
41
1
10
41.2578395051061
20
45.9374738332768
30
0
41
1
10
41.2801555996278
20
45.9440705602281
30
0
41
1
10
41.2914797178461
20
45.9462949572144
30
0
41
1
10
41.3144251867486
20
45.9487134104106
30
0
41
1
10
41.326149971268
20
45.9488951918287
30
0
41
1
10
41.3609081601859
20
45.9464262074724
30
0
41
1
10
41.3833995089193
20
45.940924563476
30
0
41
1
10
41.4051988163405
20
45.9318614274109
30
0
0
SPLINE
5
415
100
AcDbEntity
8
1
62
256
6
ByLayer
370
18
48
1
60
0
100
AcDbSpline
70
4
71
3
72
20
73
16
40
0
40
0
40
0
40
0
40
0.125
40
0.125
40
0.25
40
0.25
40
0.375
40
0.375
40
0.5
40
0.5
40
0.625
40
0.625
40
0.75
40
0.75
40
1
40
1
40
1
40
1
41
1
10
43.3822363172451
20
45.8476037415644
30
0
41
1
10
43.3890272235836
20
45.836703606678
30
0
41
1
10
43.394782044787
20
45.8252029110404
30
0
41
1
10
43.4042182346566
20
45.8009983277569
30
0
41
1
10
43.4078695132986
20
45.7882716818178
30
0
41
1
10
43.4128073669527
20
45.762755344201
30
0
41
1
10
43.414156812432
20
45.7498256401253
30
0
41
1
10
43.4146828586285
20
45.7236308214631
30
0
41
1
10
43.4138264388127
20
45.7102975332471
30
0
41
1
10
43.4100819149827
20
45.6843993343491
30
0
41
1
10
43.4072073573188
20
45.671696745998
30
0
41
1
10
43.3995763671097
20
45.6467555581119
30
0
41
1
10
43.3947657208581
20
45.6344136018112
30
0
41
1
10
43.3779079000793
20
45.5989363986845
30
0
41
1
10
43.3636342320988
20
45.5774304896526
30
0
41
1
10
43.3466037743815
20
45.5578993117762
30
0
0
SPLINE
5
416
100
AcDbEntity
8
1
62
256
6
ByLayer
370
18
48
1
60
0
100
AcDbSpline
70
4
71
3
72
16
73
12
40
0
40
0
40
0
40
0
40
0.125
40
0.125
40
0.25
40
0.25
40
0.5
40
0.5
40
0.75
40
0.75
40
1
40
1
40
1
40
1
41
1
10
43.1952660200773
20
45.1930285970192
30
0
41
1
10
43.1956754669854
20
45.209562702694
30
0
41
1
10
43.196969976972
20
45.2261532875965
30
0
41
1
10
43.2012765799911
20
45.2594378062727
30
0
41
1
10
43.204306830198
20
45.2761697854706
30
0
41
1
10
43.2156673806351
20
45.3254397472051
30
0
41
1
10
43.2262707631891
20
45.3574194118168
30
0
41
1
10
43.2529637162472
20
45.4197856424605
30
0
41
1
10
43.2689518815672
20
45.4498010992895
30
0
41
1
10
43.3047514493966
20
45.5061510545588
30
0
41
1
10
43.3246881949865
20
45.5327656902061
30
0
41
1
10
43.3466037743815
20
45.5578993117762
30
0
0
SPLINE
5
417
100
AcDbEntity
8
1
62
256
6
ByLayer
370
18
48
1
60
0
100
AcDbSpline
70
4
71
3
72
14
73
10
40
0
40
0
40
0
40
0
40
0.25
40
0.25
40
0.5
40
0.5
40
0.75
40
0.75
40
1
40
1
40
1
40
1
41
1
10
43.363197372334
20
44.8525618248514
30
0
41
1
10
43.3402938422449
20
44.8689438831642
30
0
41
1
10
43.3191771602802
20
44.8873473025456
30
0
41
1
10
43.2807208583823
20
44.9287631276385
30
0
41
1
10
43.2636446469909
20
44.951523182121
30
0
41
1
10
43.2345142362953
20
45.0012689009529
30
0
41
1
10
43.2223077766135
20
45.0287007637677
30
0
41
1
10
43.2044518569227
20
45.0865066682074
30
0
41
1
10
43.1986500700196
20
45.1169765097483
30
0
41
1
10
43.1962958932493
20
45.1492521865604
30
0
0
SPLINE
5
418
100
AcDbEntity
8
1
62
256
6
ByLayer
370
18
48
1
60
0
100
AcDbSpline
70
4
71
3
72
14
73
10
40
0
40
0
40
0
40
0
40
0.397241209107571
40
0.397241209107571
40
0.794482418215142
40
0.794482418215142
40
0.993103022768918
40
0.993103022768918
40
1
40
1
40
1
40
1
41
1
10
43.3631973723342
20
44.8525618248513
30
0
41
1
10
43.3809416986571
20
44.8398699565055
30
0
41
1
10
43.3961653741158
20
44.8245812537832
30
0
41
1
10
43.4206057635585
20
44.7888387833166
30
0
41
1
10
43.4294637118255
20
44.7688737300081
30
0
41
1
10
43.4367756050784
20
44.7362760043538
30
0
41
1
10
43.4381680357315
20
44.7251650817349
30
0
41
1
10
43.4384954420852
20
44.7134166872162
30
0
41
1
10
43.4385051017694
20
44.7130219865205
30
0
41
1
10
43.4385134325511
20
44.7126268692883
30
0
0
SPLINE
5
419
100
AcDbEntity
8
1
62
256
6
ByLayer
370
18
48
1
60
0
100
AcDbSpline
70
4
71
3
72
16
73
12
40
0
40
0
40
0
40
0
40
0.125000000000004
40
0.125000000000004
40
0.250000000000007
40
0.250000000000007
40
0.500000000000005
40
0.500000000000005
40
0.750000000000002
40
0.750000000000002
40
1
40
1
40
1
40
1
41
1
10
41.3399460546176
20
45.1535035733853
30
0
41
1
10
41.3396491634643
20
45.1373490645345
30
0
41
1
10
41.3385921879263
20
45.1215595699224
30
0
41
1
10
41.3349979535715
20
45.0906775306493
30
0
41
1
10
41.3324450859581
20
45.0755555350251
30
0
41
1
10
41.3228121864514
20
45.0321121150566
30
0
41
1
10
41.3137566989038
20
45.0053527612997
30
0
41
1
10
41.2907805875818
20
44.9555216633225
30
0
41
1
10
41.2769445909024
20
44.932764443822
30
0
41
1
10
41.2457662448965
20
44.8919996634812
30
0
41
1
10
41.2283165127886
20
44.8737725369491
30
0
41
1
10
41.2090269679579
20
44.8574952762327
30
0
0
SPLINE
5
41A
100
AcDbEntity
8
1
62
256
6
ByLayer
370
18
48
1
60
0
100
AcDbSpline
70
4
71
3
72
14
73
10
40
0
40
0
40
0
40
0
40
0.25
40
0.25
40
0.5
40
0.5
40
0.75
40
0.75
40
1
40
1
40
1
40
1
41
1
10
41.1924333700054
20
45.5628327631575
30
0
41
1
10
41.2127095514061
20
45.537589912078
30
0
41
1
10
41.2313248942476
20
45.5107506700326
30
0
41
1
10
41.2651139465523
20
45.4535944403188
30
0
41
1
10
41.2800559438277
20
45.423636700548
30
0
41
1
10
41.3054948240002
20
45.3614412116866
30
0
41
1
10
41.3161251618757
20
45.3286938424971
30
0
41
1
10
41.3317039574383
20
45.2632082855267
30
0
41
1
10
41.3367868368558
20
45.2303139122603
30
0
41
1
10
41.3389161814456
20
45.1972799838441
30
0
0
SPLINE
5
41B
100
AcDbEntity
8
1
62
256
6
ByLayer
370
18
48
1
60
0
100
AcDbSpline
70
4
71
3
72
18
73
14
40
0
40
0
40
0
40
0
40
0.249999999999996
40
0.249999999999996
40
0.499999999999991
40
0.499999999999991
40
0.624999999999993
40
0.624999999999993
40
0.749999999999996
40
0.749999999999996
40
0.874999999999998
40
0.874999999999998
40
1
40
1
40
1
40
1
41
1
10
41.1924333700054
20
45.5628327631575
30
0
41
1
10
41.1767245610157
20
45.5823894596638
30
0
41
1
10
41.1633954323094
20
45.6040675640799
30
0
41
1
10
41.1424306538132
20
45.6515316109293
30
0
41
1
10
41.1351044739993
20
45.6766625879272
30
0
41
1
10
41.1297292805936
20
45.7157918775393
30
0
41
1
10
41.1289102230537
20
45.7288365139271
30
0
41
1
10
41.1292812933174
20
45.7549304754025
30
0
41
1
10
41.1304996515216
20
45.7681082279231
30
0
41
1
10
41.1350191680942
20
45.793689514637
30
0
41
1
10
41.1382937441472
20
45.8061020990214
30
0
41
1
10
41.1469179222785
20
45.830158049363
30
0
41
1
10
41.1523286859724
20
45.8418656165069
30
0
41
1
10
41.1585846122235
20
45.8526963180632
30
0
0
SPLINE
5
41C
100
AcDbEntity
8
1
62
256
6
ByLayer
370
18
48
1
60
0
100
AcDbSpline
70
4
71
3
72
16
73
12
40
0
40
0
40
0
40
0
40
0.036725857635749
40
0.036725857635749
40
0.229380686108599
40
0.229380686108599
40
0.422035514581449
40
0.422035514581449
40
0.614690343054299
40
0.614690343054299
40
1
40
1
40
1
40
1
41
1
10
41.1537118973823
20
44.7124467327827
30
0
41
1
10
41.1534922900248
20
44.7146268195463
30
0
41
1
10
41.1533095332782
20
44.7168033854708
30
0
41
1
10
41.1523968113969
20
44.7303755336385
30
0
41
1
10
41.1526660625515
20
44.741728582289
30
0
41
1
10
41.1551266136877
20
44.7632965542901
30
0
41
1
10
41.1572998151935
20
44.773633803164
30
0
41
1
10
41.1634105884031
20
44.7934480248985
30
0
41
1
10
41.1673944378897
20
44.8030015904436
30
0
41
1
10
41.1816477501221
20
44.8296950296978
30
0
41
1
10
41.1940371850412
20
44.8448463201916
30
0
41
1
10
41.2090269679579
20
44.8574952762327
30
0
0
SPLINE
5
41D
100
AcDbEntity
8
1
62
256
6
ByLayer
370
18
48
1
60
0
100
AcDbSpline
70
4
71
3
72
8
73
4
40
0
40
0
40
0
40
0
40
1
40
1
40
1
40
1
41
1
10
38.0116004358004
20
34.0533520807265
30
0
41
1
10
38.0039314680541
20
34.0230966663448
30
0
41
1
10
38.0000903610497
20
33.9922741892808
30
0
41
1
10
38.0000882470615
20
33.9608830003897
30
0
0
SPLINE
5
41E
100
AcDbEntity
8
1
62
256
6
ByLayer
370
18
48
1
60
0
100
AcDbSpline
70
4
71
3
72
29
73
25
40
0
40
0
40
0
40
0
40
0.12500000000001
40
0.12500000000001
40
0.187500000000015
40
0.187500000000015
40
0.25000000000002
40
0.25000000000002
40
0.37500000000003
40
0.37500000000003
40
0.437500000000035
40
0.437500000000035
40
0.50000000000004
40
0.50000000000004
40
0.62500000000004
40
0.62500000000004
40
0.687500000000035
40
0.687500000000035
40
0.750000000000031
40
0.812500000000027
40
0.812500000000027
40
0.875000000000022
40
0.875000000000022
40
1
40
1
40
1
40
1
41
1
10
38.1805214835459
20
-1.08364706982167
30
0
41
1
10
38.1827463559834
20
-1.11019772761182
30
0
41
1
10
38.1897398474279
20
-1.13593630920303
30
0
41
1
10
38.2072246509093
20
-1.17335303572008
30
0
41
1
10
38.2142266828209
20
-1.18562539069694
30
0
41
1
10
38.2306511826814
20
-1.20975791035198
30
0
41
1
10
38.2400647335037
20
-1.22158068442303
30
0
41
1
10
38.2713577608896
20
-1.25568971783815
30
0
41
1
10
38.2964186408875
20
-1.27687558650598
30
0
41
1
10
38.340376956015
20
-1.30629874066563
30
0
41
1
10
38.3561819381616
20
-1.31575466074384
30
0
41
1
10
38.3896248025805
20
-1.33362397288403
30
0
41
1
10
38.4071636812415
20
-1.34199560261703
30
0
41
1
10
38.4621700634244
20
-1.36546452461317
30
0
41
1
10
38.5020046254836
20
-1.37893147608105
30
0
41
1
10
38.566663938825
20
-1.39575182255055
30
0
41
1
10
38.5889866443425
20
-1.40076681973062
30
0
41
1
10
38.6342790920404
20
-1.40943749721237
30
0
41
1
10
38.6804533829276
20
-1.41681316400462
30
0
41
1
10
38.7283667578009
20
-1.42163493870044
30
0
41
1
10
38.7771621959894
20
-1.42516137944597
30
0
41
1
10
38.8021230334269
20
-1.42627696572202
30
0
41
1
10
38.8772738394943
20
-1.42758923591242
30
0
41
1
10
38.927737834986
20
-1.42580514400214
30
0
41
1
10
38.9785656028538
20
-1.421359814347
30
0
0
SPLINE
5
41F
100
AcDbEntity
8
1
62
256
6
ByLayer
370
18
48
1
60
0
100
AcDbSpline
70
4
71
3
72
28
73
24
40
0
40
0
40
0
40
0
40
0.125000000000019
40
0.125000000000019
40
0.187500000000031
40
0.187500000000031
40
0.250000000000042
40
0.250000000000042
40
0.375000000000048
40
0.375000000000048
40
0.437500000000045
40
0.437500000000045
40
0.500000000000042
40
0.500000000000042
40
0.625000000000035
40
0.625000000000035
40
0.750000000000028
40
0.750000000000028
40
0.812500000000024
40
0.812500000000024
40
0.875000000000021
40
0.875000000000021
40
1
40
1
40
1
40
1
41
1
10
45.9177396613295
20
-0.814468787683893
30
0
41
1
10
45.9685571630232
20
-0.810024355894825
30
0
41
1
10
46.0183498654394
20
-0.803041232263354
30
0
41
1
10
46.0915432232393
20
-0.788861322907849
30
0
41
1
10
46.1156899588962
20
-0.783512770242169
30
0
41
1
10
46.163466519251
20
-0.771535143284382
30
0
41
1
10
46.1870056220047
20
-0.764920235110878
30
0
41
1
10
46.2553302212996
20
-0.743584971938901
30
0
41
1
10
46.2983378243116
20
-0.727269145798516
30
0
41
1
10
46.3590248424141
20
-0.699647719194957
30
0
41
1
10
46.378715723113
20
-0.68985225482038
30
0
41
1
10
46.416103594662
20
-0.669526032071929
30
0
41
1
10
46.4338245111513
20
-0.658996202790604
30
0
41
1
10
46.4841491884951
20
-0.62633708366036
30
0
41
1
10
46.5139415307047
20
-0.603148207863683
30
0
41
1
10
46.56579055542
20
-0.553854989968784
30
0
41
1
10
46.5870424564305
20
-0.528505255496498
30
0
41
1
10
46.6121556757688
20
-0.48960386366565
30
0
41
1
10
46.6193982894632
20
-0.476482504592013
30
0
41
1
10
46.6315928852011
20
-0.449926721930467
30
0
41
1
10
46.636544425219
20
-0.436456668991241
30
0
41
1
10
46.6476700361232
20
-0.39629713583787
30
0
41
1
10
46.650276431309
20
-0.369636163788925
30
0
41
1
10
46.6480564974564
20
-0.343087606318818
30
0
0
SPLINE
5
420
100
AcDbEntity
8
1
62
256
6
ByLayer
370
18
48
1
60
0
100
AcDbSpline
70
4
71
3
72
10
73
6
40
0
40
0
40
0
40
0
40
0.189392323556634
40
0.189392323556634
40
1
40
1
40
1
40
1
41
1
10
38.022002724113
20
-35.7662960038761
30
0
41
1
10
38.0192328334335
20
-35.7577392408117
30
0
41
1
10
38.0167217142074
20
-35.749152748384
30
0
41
1
10
38.0048935690585
20
-35.7038617023527
30
0
41
1
10
38.0000906110284
20
-35.6670096207086
30
0
41
1
10
38.0000882470615
20
-35.6300182754186
30
0
0
SPLINE
5
421
100
AcDbEntity
8
1
62
256
6
ByLayer
370
18
48
1
60
0
100
AcDbSpline
70
4
71
3
72
20
73
16
40
0
40
0
40
0
40
0
40
0.125
40
0.125
40
0.25
40
0.25
40
0.375
40
0.375
40
0.5
40
0.5
40
0.625
40
0.625
40
0.75
40
0.75
40
1
40
1
40
1
40
1
41
1
10
43.4113312895634
20
0.777074334993017
30
0
41
1
10
43.4050608422877
20
0.773294737717549
30
0
41
1
10
43.3978243262017
20
0.770114498361806
30
0
41
1
10
43.3814166422241
20
0.764960445733323
30
0
41
1
10
43.3722167909241
20
0.763005255781877
30
0
41
1
10
43.3527261583103
20
0.760472337891258
30
0
41
1
10
43.3423439212541
20
0.759860184673869
30
0
41
1
10
43.3203460216437
20
0.759932950172299
30
0
41
1
10
43.3086609185934
20
0.760638666955401
30
0
41
1
10
43.2850637595477
20
0.763279523183826
30
0
41
1
10
43.2730397992559
20
0.765208664775685
30
0
41
1
10
43.2485772271639
20
0.770246341272014
30
0
41
1
10
43.2360272337862
20
0.773390160445615
30
0
41
1
10
43.1986698606509
20
0.784387858085097
30
0
41
1
10
43.1742977852952
20
0.793684311684046
30
0
41
1
10
43.1504612706418
20
0.804902779581141
30
0
0
SPLINE
5
422
100
AcDbEntity
8
1
62
256
6
ByLayer
370
18
48
1
60
0
100
AcDbSpline
70
4
71
3
72
18
73
14
40
0
40
0
40
0
40
0
40
0.250000000000015
40
0.250000000000015
40
0.500000000000029
40
0.500000000000029
40
0.625000000000022
40
0.625000000000022
40
0.750000000000015
40
0.750000000000015
40
0.875000000000007
40
0.875000000000007
40
1
40
1
40
1
40
1
41
1
10
41.4391773050295
20
0.655236137117527
30
0
41
1
10
41.4176949658404
20
0.640087875864197
30
0
41
1
10
41.3951953102636
20
0.62662749947873
30
0
41
1
10
41.3486680445386
20
0.603526684400435
30
0
41
1
10
41.3252927647715
20
0.594219932193766
30
0
41
1
10
41.290976441109
20
0.58413285343363
30
0
41
1
10
41.2798730039008
20
0.581480654546567
30
0
41
1
10
41.2583683194363
20
0.577605531739096
30
0
41
1
10
41.2478705004075
20
0.576382100584794
30
0
41
1
10
41.228251734252
20
0.575510244968768
30
0
41
1
10
41.2191166313487
20
0.575841913794591
30
0
41
1
10
41.202226737359
20
0.578054408270248
30
0
41
1
10
41.1944382481978
20
0.579967683344137
30
0
41
1
10
41.1876795845417
20
0.582596684651719
30
0
0
SPLINE
5
423
100
AcDbEntity
8
1
62
256
6
ByLayer
370
18
48
1
60
0
100
AcDbSpline
70
4
71
3
72
16
73
12
40
0
40
0
40
0
40
0
40
0.125
40
0.125
40
0.25
40
0.25
40
0.5
40
0.5
40
0.75
40
0.75
40
1
40
1
40
1
40
1
41
1
10
43.1952660200773
20
1.14687023623253
30
0
41
1
10
43.1956754669854
20
1.15112123729733
30
0
41
1
10
43.196969976972
20
1.15468990044082
30
0
41
1
10
43.2012765799911
20
1.1605337701962
30
0
41
1
10
43.2043068301979
20
1.1628060400821
30
0
41
1
10
43.2156673806351
20
1.16771017917739
30
0
41
1
10
43.2262707631891
20
1.16852574995079
30
0
41
1
10
43.2529637162472
20
1.16630510007201
30
0
41
1
10
43.2689518815672
20
1.16325395713562
30
0
41
1
10
43.3047514493966
20
1.1544240424268
30
0
41
1
10
43.3246881949865
20
1.14862791002412
30
0
41
1
10
43.3466037743815
20
1.14170150307899
30
0
0
SPLINE
5
424
100
AcDbEntity
8
1
62
256
6
ByLayer
370
18
48
1
60
0
100
AcDbSpline
70
4
71
3
72
14
73
10
40
0
40
0
40
0
40
0
40
0.25
40
0.25
40
0.5
40
0.5
40
0.75
40
0.75
40
1
40
1
40
1
40
1
41
1
10
43.363197372334
20
0.933500882503608
30
0
41
1
10
43.3402938422449
20
0.952689013637496
30
0
41
1
10
43.3191771602802
20
0.971851945173057
30
0
41
1
10
43.2807208583823
20
1.00979500451456
30
0
41
1
10
43.2636446469909
20
1.02832624454692
30
0
41
1
10
43.2345142362954
20
1.06350020129571
30
0
41
1
10
43.2223077766135
20
1.08037906604898
30
0
41
1
10
43.2044518569227
20
1.11014767655985
30
0
41
1
10
43.1986500700195
20
1.12316380993309
30
0
41
1
10
43.1962958932493
20
1.13394837117778
30
0
0
SPLINE
5
425
100
AcDbEntity
8
1
62
256
6
ByLayer
370
18
48
1
60
0
100
AcDbSpline
70
4
71
3
72
18
73
14
40
0
40
0
40
0
40
0
40
0.250000000000006
40
0.250000000000006
40
0.500000000000012
40
0.500000000000012
40
0.625000000000009
40
0.625000000000009
40
0.750000000000006
40
0.750000000000006
40
0.875000000000003
40
0.875000000000003
40
1
40
1
40
1
40
1
41
1
10
43.3631973723342
20
0.933500882503495
30
0
41
1
10
43.3809416986571
20
0.918635031735334
30
0
41
1
10
43.3961653741158
20
0.903651672595686
30
0
41
1
10
43.4206057635585
20
0.873569456314954
30
0
41
1
10
43.4294637118255
20
0.858890777237662
30
0
41
1
10
43.4367756050784
20
0.837802817588454
30
0
41
1
10
43.4381680357315
20
0.831057482277743
30
0
41
1
10
43.4388008735388
20
0.818120734114359
30
0
41
1
10
43.4380161271471
20
0.811872881087538
30
0
41
1
10
43.4341900108201
20
0.800315018181948
30
0
41
1
10
43.4311774429174
20
0.794993279432902
30
0
41
1
10
43.4229074333017
20
0.785266459142235
30
0
41
1
10
43.4175872158145
20
0.780845179523681
30
0
41
1
10
43.4113312895634
20
0.777074334993017
30
0
0
SPLINE
5
426
100
AcDbEntity
8
1
62
256
6
ByLayer
370
18
48
1
60
0
100
AcDbSpline
70
4
71
3
72
16
73
12
40
0
40
0
40
0
40
0
40
0.125000000000004
40
0.125000000000004
40
0.250000000000007
40
0.250000000000007
40
0.500000000000005
40
0.500000000000005
40
0.750000000000002
40
0.750000000000002
40
1
40
1
40
1
40
1
41
1
10
41.3399460546176
20
0.971594458461482
30
0
41
1
10
41.3396491634643
20
0.966066438316659
30
0
41
1
10
41.3385921879263
20
0.959802790597109
30
0
41
1
10
41.3349979535715
20
0.945876629728957
30
0
41
1
10
41.3324450859581
20
0.938188140285831
30
0
41
1
10
41.3228121864514
20
0.913682664890359
30
0
41
1
10
41.3137566989038
20
0.895305207021181
30
0
41
1
10
41.2907805875818
20
0.855355842364474
30
0
41
1
10
41.2769445909024
20
0.833989216316695
30
0
41
1
10
41.2457662448965
20
0.790388329474013
30
0
41
1
10
41.2283165127886
20
0.767967657897657
30
0
41
1
10
41.2090269679579
20
0.745099975233927
30
0
0
SPLINE
5
427
100
AcDbEntity
8
1
62
256
6
ByLayer
370
18
48
1
60
0
100
AcDbSpline
70
4
71
3
72
14
73
10
40
0
40
0
40
0
40
0
40
0.25
40
0.25
40
0.5
40
0.5
40
0.75
40
0.75
40
1
40
1
40
1
40
1
41
1
10
41.1924333700054
20
0.95330059580931
30
0
41
1
10
41.2127095514062
20
0.963921463885981
30
0
41
1
10
41.2313248942476
20
0.973137870153721
30
0
41
1
10
41.2651139465523
20
0.988147827689488
30
0
41
1
10
41.2800559438277
20
0.993830650747384
30
0
41
1
10
41.3054948240002
20
1.00053953617191
30
0
41
1
10
41.3161251618757
20
1.00154281012817
30
0
41
1
10
41.3317039574383
20
0.997609670805332
30
0
41
1
10
41.3367868368558
20
0.992750015773765
30
0
41
1
10
41.3389161814456
20
0.984516323516175
30
0
0
SPLINE
5
428
100
AcDbEntity
8
1
62
256
6
ByLayer
370
18
48
1
60
0
100
AcDbSpline
70
4
71
3
72
20
73
16
40
0
40
0
40
0
40
0
40
0.125
40
0.125
40
0.25
40
0.25
40
0.375
40
0.375
40
0.5
40
0.5
40
0.625
40
0.625
40
0.75
40
0.75
40
1
40
1
40
1
40
1
41
1
10
41.1876795845417
20
0.582596684651719
30
0
41
1
10
41.1808886782032
20
0.585238227795742
30
0
41
1
10
41.1750455251439
20
0.588602531802906
30
0
41
1
10
41.1652548279322
20
0.596783440072954
30
0
41
1
10
41.1613345614155
20
0.601623881970625
30
0
41
1
10
41.1557043340388
20
0.612323607721351
30
0
41
1
10
41.153929985619
20
0.618226748124869
30
0
41
1
10
41.1523968113969
20
0.6311309153308
30
0
41
1
10
41.1526660625515
20
0.638180465567643
30
0
41
1
10
41.1551266136877
20
0.652792392516972
30
0
41
1
10
41.1572998151935
20
0.660417841349727
30
0
41
1
10
41.1634105884031
20
0.676299191625958
30
0
41
1
10
41.1673944378897
20
0.684631286029457
30
0
41
1
10
41.1816477501221
20
0.710017458814036
30
0
41
1
10
41.1940371850412
20
0.727329644106646
30
0
41
1
10
41.2090269679579
20
0.745099975233927
30
0
0
SPLINE
5
429
100
AcDbEntity
8
1
62
256
6
ByLayer
370
18
48
1
60
0
100
AcDbSpline
70
4
71
3
72
20
73
16
40
0
40
0
40
0
40
0
40
0.125
40
0.125
40
0.25
40
0.25
40
0.375
40
0.375
40
0.5
40
0.5
40
0.625
40
0.625
40
0.75
40
0.75
40
1
40
1
40
1
40
1
41
1
10
43.3822363172451
20
1.14213026256402
30
0
41
1
10
43.3890272235836
20
1.13948871942
30
0
41
1
10
43.394782044787
20
1.1371265984252
30
0
41
1
10
43.4042182346565
20
1.13296780915567
30
0
41
1
10
43.4078695132986
20
1.13117921164468
30
0
41
1
10
43.4128073669527
20
1.12833492123815
30
0
41
1
10
43.414156812432
20
1.12725258420846
30
0
41
1
10
43.4146828586285
20
1.1257749469691
30
0
41
1
10
43.4138264388127
20
1.12538721144796
30
0
41
1
10
43.4100819149827
20
1.12534279934175
30
0
41
1
10
43.4072073573188
20
1.1256746974945
30
0
41
1
10
43.3995763671097
20
1.12704120911849
30
0
41
1
10
43.3947657208581
20
1.12808966790232
30
0
41
1
10
43.3779079000793
20
1.13225335789417
30
0
41
1
10
43.3636342320988
20
1.1363190361825
30
0
41
1
10
43.3466037743815
20
1.14170150307899
30
0
0
SPLINE
5
42A
100
AcDbEntity
8
1
62
256
6
ByLayer
370
18
48
1
60
0
100
AcDbSpline
70
4
71
3
72
18
73
14
40
0
40
0
40
0
40
0
40
0.249999999999996
40
0.249999999999996
40
0.499999999999991
40
0.499999999999991
40
0.624999999999993
40
0.624999999999993
40
0.749999999999996
40
0.749999999999996
40
0.874999999999998
40
0.874999999999998
40
1
40
1
40
1
40
1
41
1
10
41.1924333700054
20
0.95330059580931
30
0
41
1
10
41.1767245610157
20
0.945072163412533
30
0
41
1
10
41.1633954323094
20
0.938560643362223
30
0
41
1
10
41.1424306538132
20
0.929209767103202
30
0
41
1
10
41.1351044739993
20
0.926509525441304
30
0
41
1
10
41.1297292805936
20
0.925624351309921
30
0
41
1
10
41.1289102230537
20
0.925864391470839
30
0
41
1
10
41.1292812933174
20
0.927411142170229
30
0
41
1
10
41.1304996515216
20
0.928739383942855
30
0
41
1
10
41.1350191680942
20
0.932430164924142
30
0
41
1
10
41.1382937441472
20
0.934779248852237
30
0
41
1
10
41.1469179222785
20
0.940487794350588
30
0
41
1
10
41.1523286859724
20
0.943881767692062
30
0
41
1
10
41.1585846122235
20
0.947652612222726
30
0
0
SPLINE
5
42B
100
AcDbEntity
8
1
62
256
6
ByLayer
370
18
48
1
60
0
100
AcDbSpline
70
4
71
3
72
8
73
4
40
0
40
0
40
0
40
0
40
1
40
1
40
1
40
1
41
1
10
43.3704210242939
20
1.1466180556543
30
0
41
1
10
43.3746442038864
20
1.14504691979522
30
0
41
1
10
43.3786021928707
20
1.14354387303769
30
0
41
1
10
43.3822363172451
20
1.14213026256402
30
0
0
SPLINE
5
42C
100
AcDbEntity
8
1
62
256
6
ByLayer
370
18
48
1
60
0
100
AcDbSpline
70
4
71
3
72
18
73
14
40
0
40
0
40
0
40
0
40
0.124999999999998
40
0.124999999999998
40
0.249999999999996
40
0.249999999999996
40
0.374999999999993
40
0.374999999999993
40
0.499999999999991
40
0.499999999999991
40
0.749999999999995
40
0.749999999999995
40
1
40
1
40
1
40
1
41
1
10
48.9868161417692
20
-46.8722769964331
30
0
41
1
10
48.9723242528478
20
-46.8765304639791
30
0
41
1
10
48.9557247695121
20
-46.8823381995596
30
0
41
1
10
48.9199353586309
20
-46.8947862970163
30
0
41
1
10
48.90071952002
20
-46.9014705571561
30
0
41
1
10
48.8616506389752
20
-46.9143448380699
30
0
41
1
10
48.8415845328152
20
-46.9206231996887
30
0
41
1
10
48.8005756927273
20
-46.9324419354648
30
0
41
1
10
48.7795599398614
20
-46.9380001450374
30
0
41
1
10
48.7163369618386
20
-46.9529658512503
30
0
41
1
10
48.6736854476816
20
-46.960749580287
30
0
41
1
10
48.5875026173021
20
-46.9712492237897
30
0
41
1
10
48.5439704259503
20
-46.9739747467504
30
0
41
1
10
48.5000000000016
20
-46.9739747467505
30
0
0
SPLINE
5
42D
100
AcDbEntity
8
1
62
256
6
ByLayer
370
18
48
1
60
0
100
AcDbSpline
70
4
71
3
72
29
73
25
40
0
40
0
40
0
40
0
40
0.124999999999996
40
0.124999999999996
40
0.187499999999994
40
0.187499999999994
40
0.249999999999991
40
0.249999999999991
40
0.374999999999987
40
0.374999999999987
40
0.437499999999985
40
0.437499999999985
40
0.499999999999983
40
0.499999999999983
40
0.624999999999987
40
0.624999999999987
40
0.687499999999987
40
0.687499999999987
40
0.749999999999986
40
0.812499999999985
40
0.812499999999985
40
0.874999999999985
40
0.874999999999985
40
1
40
1
40
1
40
1
41
1
10
46.467623260972
20
36.1399605151636
30
0
41
1
10
46.4676208967812
20
36.176955078371
30
0
41
1
10
46.4628170878154
20
36.2131140826007
30
0
41
1
10
46.4485686595187
20
36.2661269987538
30
0
41
1
10
46.4426373394891
20
36.2835923034789
30
0
41
1
10
46.4283376018244
20
36.3180988033375
30
0
41
1
10
46.4199749293787
20
36.3350875460675
30
0
41
1
10
46.3917437651982
20
36.3843535420173
30
0
41
1
10
46.3686255500776
20
36.415297868379
30
0
41
1
10
46.327431753438
20
36.4588337687617
30
0
41
1
10
46.3125274172971
20
36.4729278622435
30
0
41
1
10
46.2808125326987
20
36.499780934714
30
0
41
1
10
46.2640967979032
20
36.51247587999
30
0
41
1
10
46.2114404368279
20
36.5484219620055
30
0
41
1
10
46.1730144751759
20
36.5695546497352
30
0
41
1
10
46.110222846689
20
36.5968616372234
30
0
41
1
10
46.0884791191968
20
36.6051895241782
30
0
41
1
10
46.0442363719022
20
36.6199978452727
30
0
41
1
10
45.9990105755002
20
36.6330623520276
30
0
41
1
10
45.9518461090981
20
36.6426878845532
30
0
41
1
10
45.9036983482
20
36.650569167448
30
0
41
1
10
45.8790116241334
20
36.6536452006662
30
0
41
1
10
45.8045160436905
20
36.6600653785852
30
0
41
1
10
45.7542705511224
20
36.6606765181053
30
0
41
1
10
45.7034427832546
20
36.6576155061644
30
0
0
SPLINE
5
42E
100
AcDbEntity
8
1
62
256
6
ByLayer
370
13
48
1
60
0
100
AcDbSpline
70
4
71
3
72
8
73
4
40
0
40
0
40
0
40
0
40
1
40
1
40
1
40
1
41
1
10
45.7034427832546
20
36.6576155061645
30
0
41
1
10
45.4074705630995
20
37.3593389577683
30
0
41
1
10
45.1114983429445
20
38.061062409372
30
0
41
1
10
44.8155261227895
20
38.7627858609758
30
0
0
SPLINE
5
42F
100
AcDbEntity
8
1
62
256
6
ByLayer
370
13
48
1
60
0
100
AcDbSpline
70
4
71
3
72
8
73
4
40
0
40
0
40
0
40
0
40
1
40
1
40
1
40
1
41
1
10
38.8945115397796
20
38.4062032861105
30
0
41
1
10
38.8510972681128
20
37.6840408865136
30
0
41
1
10
38.8076829964458
20
36.9618784869168
30
0
41
1
10
38.7642687247789
20
36.2397160873199
30
0
0
SPLINE
5
430
100
AcDbEntity
8
1
62
256
6
ByLayer
370
18
48
1
60
0
100
AcDbSpline
70
4
71
3
72
20
73
16
40
0
40
0
40
0
40
0
40
0.114228831493373
40
0.114228831493373
40
0.261857359577811
40
0.261857359577811
40
0.409485887662249
40
0.409485887662249
40
0.557114415746687
40
0.557114415746687
40
0.704742943831124
40
0.704742943831124
40
0.852371471915562
40
0.852371471915562
40
1
40
1
40
1
40
1
41
1
10
38.41662130915
20
38.0556412813811
30
0
41
1
10
38.4230161518839
20
38.0770334089054
30
0
41
1
10
38.4312285399912
20
38.0982162767398
30
0
41
1
10
38.4538976663406
20
38.1452594672828
30
0
41
1
10
38.4693247254101
20
38.1705179890325
30
0
41
1
10
38.5053651111085
20
38.2185597732216
30
0
41
1
10
38.5262117673149
20
38.2415032536834
30
0
41
1
10
38.5715954270148
20
38.283093149274
30
0
41
1
10
38.596233134994
20
38.3019511363898
30
0
41
1
10
38.6494365258764
20
38.3357571365773
30
0
41
1
10
38.6779704251228
20
38.3506003237574
30
0
41
1
10
38.7366328407529
20
38.3750832839862
30
0
41
1
10
38.7670393813341
20
38.3849159137996
30
0
41
1
10
38.8300869152762
20
38.3995757812153
30
0
41
1
10
38.8621793194956
20
38.4042561356351
30
0
41
1
10
38.8945115397796
20
38.4062032861105
30
0
0
SPLINE
5
431
100
AcDbEntity
8
1
62
256
6
ByLayer
370
18
48
1
60
0
100
AcDbSpline
70
4
71
3
72
28
73
24
40
0
40
0
40
0
40
0
40
0.125000000000024
40
0.125000000000024
40
0.187500000000026
40
0.187500000000026
40
0.250000000000028
40
0.250000000000028
40
0.375000000000023
40
0.375000000000023
40
0.437500000000014
40
0.437500000000014
40
0.500000000000006
40
0.500000000000006
40
0.624999999999998
40
0.624999999999998
40
0.749999999999991
40
0.749999999999991
40
0.812499999999993
40
0.812499999999993
40
0.874999999999995
40
0.874999999999995
40
1
40
1
40
1
40
1
41
1
10
38.7642687247789
20
36.2397160873198
30
0
41
1
10
38.7134512230853
20
36.236655693641
30
0
41
1
10
38.6634401094249
20
36.2300083043288
30
0
41
1
10
38.5896003632756
20
36.2148019957668
30
0
41
1
10
38.5651846595254
20
36.2088545017385
30
0
41
1
10
38.5167599958829
20
36.1951502253662
30
0
41
1
10
38.4928422757836
20
36.187407557621
30
0
41
1
10
38.4232412990538
20
36.1619700538008
30
0
41
1
10
38.3791904322963
20
36.1419515480226
30
0
41
1
10
38.3166491535976
20
36.1073200622168
30
0
41
1
10
38.2962873859724
20
36.0949265793696
30
0
41
1
10
38.257482147141
20
36.0689968511149
30
0
41
1
10
38.2390150013879
20
36.0554633595011
30
0
41
1
10
38.1863421243585
20
36.0132043298468
30
0
41
1
10
38.1548393283035
20
35.9828358131504
30
0
41
1
10
38.0992709021634
20
35.9175780998485
30
0
41
1
10
38.0760669119159
20
35.883687228091
30
0
41
1
10
38.0479035345309
20
35.8312198090776
30
0
41
1
10
38.0396231838683
20
35.8134475148635
30
0
41
1
10
38.0253104510527
20
35.7773281580853
30
0
41
1
10
38.0192755469421
20
35.7589316067333
30
0
41
1
10
38.0048935690585
20
35.7038617023526
30
0
41
1
10
38.0000906110284
20
35.6670096207085
30
0
41
1
10
38.0000882470615
20
35.6300182754186
30
0
0
SPLINE
5
432
100
AcDbEntity
8
1
62
256
6
ByLayer
370
18
48
1
60
0
100
AcDbSpline
70
4
71
3
72
28
73
24
40
0
40
0
40
0
40
0
40
0.124999999999995
40
0.124999999999995
40
0.18749999999999
40
0.18749999999999
40
0.249999999999986
40
0.249999999999986
40
0.374999999999984
40
0.374999999999984
40
0.437499999999976
40
0.437499999999976
40
0.499999999999968
40
0.499999999999968
40
0.624999999999976
40
0.624999999999976
40
0.749999999999984
40
0.749999999999984
40
0.812499999999988
40
0.812499999999988
40
0.874999999999992
40
0.874999999999992
40
1
40
1
40
1
40
1
41
1
10
38.7642687247789
20
-49.9832652244511
30
0
41
1
10
38.7134512230852
20
-49.9833816059934
30
0
41
1
10
38.6634401094249
20
-49.9784858822638
30
0
41
1
10
38.5896003632756
20
-49.9638271227812
30
0
41
1
10
38.5651846595254
20
-49.9577130287779
30
0
41
1
10
38.5167599958829
20
-49.9429567240886
30
0
41
1
10
38.4928422757836
20
-49.934326183678
30
0
41
1
10
38.4232412990538
20
-49.9052060423195
30
0
41
1
10
38.3791904322963
20
-49.8813749126085
30
0
41
1
10
38.3166491535976
20
-49.838982216054
30
0
41
1
10
38.2962873859724
20
-49.8236389953944
30
0
41
1
10
38.257482147141
20
-49.7912140805744
30
0
41
1
10
38.2390150013879
20
-49.7741382005813
30
0
41
1
10
38.1863421243586
20
-49.7203921567003
30
0
41
1
10
38.1548393283035
20
-49.6812272402568
30
0
41
1
10
38.0992709021634
20
-49.5960330590624
30
0
41
1
10
38.0760669119159
20
-49.5513061265233
30
0
41
1
10
38.0479035345309
20
-49.4814013332851
30
0
41
1
10
38.0396231838683
20
-49.4576150642919
30
0
41
1
10
38.0253104510527
20
-49.4090587042193
30
0
41
1
10
38.0192755469421
20
-49.3842206264378
30
0
41
1
10
38.0048935690585
20
-49.309553928428
30
0
41
1
10
38.0000906110284
20
-49.2591767363868
30
0
41
1
10
38.0000882470615
20
-49.2081982010077
30
0
0
SPLINE
5
433
100
AcDbEntity
8
1
62
256
6
ByLayer
370
13
48
1
60
0
100
AcDbSpline
70
4
71
3
72
8
73
4
40
0
40
0
40
0
40
0
40
1
40
1
40
1
40
1
41
1
10
38.4999990999561
20
-40.3909750466538
30
0
41
1
10
38.3935065611527
20
-40.7735147577626
30
0
41
1
10
38.2870140223492
20
-41.1560544688714
30
0
41
1
10
38.1805214835459
20
-41.5385941799802
30
0
0
SPLINE
5
434
100
AcDbEntity
8
1
62
256
6
ByLayer
370
18
48
1
60
0
100
AcDbSpline
70
4
71
3
72
14
73
10
40
0
40
0
40
0
40
0
40
0.317122630226168
40
0.317122630226168
40
0.634245260452336
40
0.634245260452336
40
0.951367890678504
40
0.951367890678504
40
1
40
1
40
1
40
1
41
1
10
38.3998989792158
20
-48.2433106023852
30
0
41
1
10
38.4006952360238
20
-48.2743971250713
30
0
41
1
10
38.4046061730843
20
-48.3048196354169
30
0
41
1
10
38.4183569909675
20
-48.3644006766528
30
0
41
1
10
38.4283371110725
20
-48.3938399598297
30
0
41
1
10
38.4538976663406
20
-48.4499292511484
30
0
41
1
10
38.4693247254101
20
-48.4764169376973
30
0
41
1
10
38.4901083917712
20
-48.5052072962196
30
0
41
1
10
38.4929383367254
20
-48.5090032304307
30
0
41
1
10
38.4958312140871
20
-48.5127630549463
30
0
0
SPLINE
5
435
100
AcDbEntity
8
1
62
256
6
ByLayer
370
13
48
1
60
0
100
AcDbSpline
70
4
71
3
72
8
73
4
40
0
40
0
40
0
40
0
40
1
40
1
40
1
40
1
41
1
10
38.0000882470615
20
-49.2081982010077
30
0
41
1
10
38.1333584911129
20
-48.8865690014669
30
0
41
1
10
38.2666287351644
20
-48.564939801926
30
0
41
1
10
38.3998989792158
20
-48.2433106023852
30
0
0
SPLINE
5
436
100
AcDbEntity
8
1
62
256
6
ByLayer
370
18
48
1
60
0
100
AcDbSpline
70
4
71
3
72
29
73
25
40
0
40
0
40
0
40
0
40
0.125
40
0.125
40
0.187499999999992
40
0.187499999999992
40
0.249999999999984
40
0.249999999999984
40
0.374999999999983
40
0.374999999999983
40
0.437499999999983
40
0.437499999999983
40
0.499999999999982
40
0.499999999999982
40
0.624999999999994
40
0.624999999999994
40
0.687499999999995
40
0.687499999999995
40
0.749999999999996
40
0.812499999999997
40
0.812499999999997
40
0.874999999999998
40
0.874999999999998
40
1
40
1
40
1
40
1
41
1
10
46.467623260972
20
-49.1888059689791
30
0
41
1
10
46.4676208967812
20
-49.2397893422969
30
0
41
1
10
46.4628170878155
20
-49.2900307030434
30
0
41
1
10
46.4485686595187
20
-49.3643043669756
30
0
41
1
10
46.4426373394891
20
-49.3888796134569
30
0
41
1
10
46.4283376018244
20
-49.437653478729
30
0
41
1
10
46.4199749293787
20
-49.4617793215147
30
0
41
1
10
46.3917437651982
20
-49.5320817799768
30
0
41
1
10
46.3686255500776
20
-49.5766986082987
30
0
41
1
10
46.327431753438
20
-49.6402097957315
30
0
41
1
10
46.3125274172971
20
-49.660904355209
30
0
41
1
10
46.2808125326987
20
-49.7006160901236
30
0
41
1
10
46.2640967979032
20
-49.7195369328134
30
0
41
1
10
46.2114404368279
20
-49.7735659828911
30
0
41
1
10
46.1730144751759
20
-49.8059666632547
30
0
41
1
10
46.110222846689
20
-49.8489543421273
30
0
41
1
10
46.0884791191968
20
-49.8622856421894
30
0
41
1
10
46.0442363719022
20
-49.8864666348323
30
0
41
1
10
45.9990105755003
20
-49.9083282712018
30
0
41
1
10
45.9518461090981
20
-49.9256159077647
30
0
41
1
10
45.9036983482
20
-49.9405836090965
30
0
41
1
10
45.8790116241334
20
-49.946928187228
30
0
41
1
10
45.8045160436904
20
-49.9621293854575
30
0
41
1
10
45.7542705511224
20
-49.9672568185722
30
0
41
1
10
45.7034427832546
20
-49.9673732236259
30
0
0
SPLINE
5
437
100
AcDbEntity
8
1
62
256
6
ByLayer
370
13
48
1
60
0
100
AcDbSpline
70
4
71
3
72
8
73
4
40
0
40
0
40
0
40
0
40
1
40
1
40
1
40
1
41
1
10
38.8876086515226
20
-48.7722399536285
30
0
41
1
10
38.8464953426081
20
-49.1759150439027
30
0
41
1
10
38.8053820336934
20
-49.5795901341768
30
0
41
1
10
38.7642687247789
20
-49.9832652244511
30
0
0
SPLINE
5
438
100
AcDbEntity
8
1
62
256
6
ByLayer
370
13
48
1
60
0
100
AcDbSpline
70
4
71
3
72
8
73
4
40
0
40
0
40
0
40
0
40
1
40
1
40
1
40
1
41
1
10
45.9754961148583
20
-48.7722317657285
30
0
41
1
10
46.1395384968962
20
-48.9110898334787
30
0
41
1
10
46.3035808789341
20
-49.0499479012289
30
0
41
1
10
46.467623260972
20
-49.1888059689791
30
0
0
SPLINE
5
439
100
AcDbEntity
8
1
62
256
6
ByLayer
370
13
48
1
60
0
100
AcDbSpline
70
4
71
3
72
8
73
4
40
0
40
0
40
0
40
0
40
1
40
1
40
1
40
1
41
1
10
45.7034427832545
20
-49.9673732236258
30
0
41
1
10
45.4263295839967
20
-49.5689949150834
30
0
41
1
10
45.1492163847388
20
-49.1706166065408
30
0
41
1
10
44.8721031854809
20
-48.7722382979983
30
0
0
SPLINE
5
43A
100
AcDbEntity
8
1
62
256
6
ByLayer
370
18
48
1
60
0
100
AcDbSpline
70
4
71
3
72
20
73
16
40
0
40
0
40
0
40
0
40
0.162896224275443
40
0.162896224275443
40
0.325792448550886
40
0.325792448550886
40
0.488688672826329
40
0.488688672826329
40
0.651584897101771
40
0.651584897101771
40
0.814481121377214
40
0.814481121377214
40
0.977377345652657
40
0.977377345652657
40
1
40
1
40
1
40
1
41
1
10
44.8155261227895
20
38.7627858609758
30
0
41
1
10
44.8478626342431
20
38.7647332698793
30
0
41
1
10
44.8797409876397
20
38.7639241448878
30
0
41
1
10
44.9426246017002
20
38.7570528830706
30
0
41
1
10
44.9739198070561
20
38.7508980023239
30
0
41
1
10
45.0341265603488
20
38.7334547178548
30
0
41
1
10
45.0628136071436
20
38.7222947240437
30
0
41
1
10
45.1174092639308
20
38.6951913833414
30
0
41
1
10
45.1435269339763
20
38.679045784305
30
0
41
1
10
45.1909519140583
20
38.6430479458327
30
0
41
1
10
45.2124670249739
20
38.6231514774875
30
0
41
1
10
45.2510613403522
20
38.5795279090047
30
0
41
1
10
45.268075800525
20
38.5557454002036
30
0
41
1
10
45.2840507202396
20
38.5275874627854
30
0
41
1
10
45.2859455929563
20
38.5241311943598
30
0
41
1
10
45.2877870401108
20
38.5206521925655
30
0
0
SPLINE
5
43B
100
AcDbEntity
8
1
62
256
6
ByLayer
370
18
48
1
60
0
100
AcDbSpline
70
2053
71
3
72
127
73
123
40
0
40
0
40
0
40
0
40
0.0312499999999997
40
0.0312499999999997
40
0.0468749999999999
40
0.0468749999999999
40
0.0625000000000001
40
0.0625000000000001
40
0.0937500000000004
40
0.0937500000000004
40
0.1015625
40
0.1015625
40
0.109375
40
0.109375
40
0.125000000000001
40
0.125000000000001
40
0.156250000000001
40
0.156250000000001
40
0.164062500000001
40
0.164062500000001
40
0.171875000000001
40
0.171875000000001
40
0.187500000000001
40
0.203125000000001
40
0.203125000000001
40
0.210937500000001
40
0.210937500000001
40
0.218750000000001
40
0.218750000000001
40
0.25
40
0.25
40
0.265625
40
0.265625
40
0.273437499999999
40
0.273437499999999
40
0.281249999999999
40
0.281249999999999
40
0.312499999999996
40
0.312499999999996
40
0.320312499999996
40
0.320312499999996
40
0.328124999999995
40
0.328124999999995
40
0.343749999999995
40
0.343749999999995
40
0.374999999999995
40
0.374999999999995
40
0.406249999999994
40
0.406249999999994
40
0.421874999999994
40
0.421874999999994
40
0.429687499999993
40
0.429687499999993
40
0.437499999999993
40
0.437499999999993
40
0.468749999999993
40
0.468749999999993
40
0.476562499999993
40
0.476562499999993
40
0.484374999999992
40
0.484374999999992
40
0.499999999999991
40
0.499999999999991
40
0.531249999999989
40
0.531249999999989
40
0.539062499999988
40
0.539062499999988
40
0.546874999999988
40
0.546874999999988
40
0.562499999999988
40
0.578124999999988
40
0.578124999999988
40
0.585937499999988
40
0.585937499999988
40
0.593749999999988
40
0.593749999999988
40
0.624999999999987
40
0.624999999999987
40
0.640624999999987
40
0.640624999999987
40
0.648437499999987
40
0.648437499999987
40
0.656249999999986
40
0.656249999999986
40
0.687499999999985
40
0.687499999999985
40
0.703124999999985
40
0.703124999999985
40
0.718749999999984
40
0.718749999999984
40
0.749999999999984
40
0.749999999999984
40
0.781249999999984
40
0.781249999999984
40
0.796874999999983
40
0.796874999999983
40
0.804687499999983
40
0.804687499999983
40
0.812499999999982
40
0.812499999999982
40
0.843749999999981
40
0.843749999999981
40
0.851562499999981
40
0.851562499999981
40
0.859374999999981
40
0.859374999999981
40
0.874999999999982
40
0.874999999999982
40
0.906249999999985
40
0.906249999999985
40
0.914062499999985
40
0.914062499999985
40
0.921874999999986
40
0.921874999999986
40
0.937499999999988
40
0.95312499999999
40
0.95312499999999
40
0.960937499999992
40
0.960937499999992
40
0.968749999999993
40
0.968749999999993
40
1
40
1
40
1
40
1
41
1
10
46.2295085345386
20
-4.09099940722864
30
0
41
1
10
46.3627385096378
20
-4.2333570040463
30
0
41
1
10
46.4791944212897
20
-4.38633536335652
30
0
41
1
10
46.6297421709249
20
-4.63134368457361
30
0
41
1
10
46.6758721144299
20
-4.71562178129943
30
0
41
1
10
46.7598404682979
20
-4.88955384722578
30
0
41
1
10
46.7977025784842
20
-4.97944240588254
30
0
41
1
10
46.8962695170376
20
-5.25133601312331
30
0
41
1
10
46.9431005860815
20
-5.43738418434219
30
0
41
1
10
46.9782909090087
20
-5.67595460122482
30
0
41
1
10
46.9841510810829
20
-5.72397161197984
30
0
41
1
10
46.9934792173407
20
-5.82062210921731
30
0
41
1
10
46.9969507689103
20
-5.86939229558357
30
0
41
1
10
47.0036506815575
20
-6.0153406125857
30
0
41
1
10
47.0032161637489
20
-6.11224837776632
30
0
41
1
10
46.9876874951752
20
-6.40183718469376
30
0
41
1
10
46.9585031141205
20
-6.59339751969219
30
0
41
1
10
46.8979821021155
20
-6.83089199112192
30
0
41
1
10
46.8846359736775
20
-6.87836565394707
30
0
41
1
10
46.8557931541586
20
-6.97210589059097
30
0
41
1
10
46.840270865357
20
-7.01848912209459
30
0
41
1
10
46.7904606690241
20
-7.15620186027417
30
0
41
1
10
46.7154134620506
20
-7.33599373956719
30
0
41
1
10
46.6233377479761
20
-7.5082093826453
30
0
41
1
10
46.5477958518466
20
-7.63447129390261
30
0
41
1
10
46.5215324110404
20
-7.67607439700492
30
0
41
1
10
46.4667984633658
20
-7.75829096991669
30
0
41
1
10
46.4383262921291
20
-7.79889142321548
30
0
41
1
10
46.2919944125425
20
-7.99720111159763
30
0
41
1
10
46.1611695019259
20
-8.14278356450296
30
0
41
1
10
45.9445968563384
20
-8.34174610465789
30
0
41
1
10
45.8689922606623
20
-8.40480844076126
30
0
41
1
10
45.7502711472178
20
-8.49431615796999
30
0
41
1
10
45.709844927067
20
-8.52326603724572
30
0
41
1
10
45.6281146930305
20
-8.57881874217151
30
0
41
1
10
45.5867025897912
20
-8.60550499846556
30
0
41
1
10
45.3769423094743
20
-8.73355224785308
30
0
41
1
10
45.2005725870889
20
-8.81891548301854
30
0
41
1
10
44.9691828938765
20
-8.90377582696379
30
0
41
1
10
44.9223536692983
20
-8.91964596094277
30
0
41
1
10
44.8275664270309
20
-8.94912894121597
30
0
41
1
10
44.7796991898383
20
-8.96270527249862
30
0
41
1
10
44.636031536171
20
-8.99958823180236
30
0
41
1
10
44.5396606139503
20
-9.01921984127193
30
0
41
1
10
44.248806979632
20
-9.06354356374317
30
0
41
1
10
44.052600194125
20
-9.07380415531719
30
0
41
1
10
43.6553732970945
20
-9.05402683101164
30
0
41
1
10
43.460778560565
20
-9.02426464109897
30
0
41
1
10
43.1756267115272
20
-8.95132316622306
30
0
41
1
10
43.0816502113967
20
-8.9222554282843
30
0
41
1
10
42.9423258317432
20
-8.87139842608258
30
0
41
1
10
42.8960436414183
20
-8.85318515011295
30
0
41
1
10
42.8046129784356
20
-8.81453556348134
30
0
41
1
10
42.7595596974592
20
-8.79414742866231
30
0
41
1
10
42.5375286417216
20
-8.68701363005187
30
0
41
1
10
42.3701639220467
20
-8.58483703473399
30
0
41
1
10
42.1735564053622
20
-8.4369540344635
30
0
41
1
10
42.1348705852474
20
-8.40636012652033
30
0
41
1
10
42.0587880951484
20
-8.34311093844855
30
0
41
1
10
42.0213190801288
20
-8.31038267112609
30
0
41
1
10
41.9119921373409
20
-8.21009450151223
30
0
41
1
10
41.8428821065767
20
-8.1401928233571
30
0
41
1
10
41.6465213756528
20
-7.92167264268409
30
0
41
1
10
41.5301329716939
20
-7.76432501368794
30
0
41
1
10
41.4032648874635
20
-7.55276895238336
30
0
41
1
10
41.3788270357453
20
-7.50968313502142
30
0
41
1
10
41.3323642599926
20
-7.42294869372773
30
0
41
1
10
41.3102675758272
20
-7.3791853539135
30
0
41
1
10
41.2473264104023
20
-7.24672998163169
30
0
41
1
10
41.172320069608
20
-7.06702085449609
30
0
41
1
10
41.114957960041
20
-6.88120689887268
30
0
41
1
10
41.0786784471626
20
-6.73952398444311
30
0
41
1
10
41.0677109817175
20
-6.6919085433006
30
0
41
1
10
41.0480742648968
20
-6.59588726490267
30
0
41
1
10
41.03941469223
20
-6.5474835944928
30
0
41
1
10
41.0023574030086
20
-6.30619929222343
30
0
41
1
10
40.9920272343423
20
-6.11335175139067
30
0
41
1
10
41.0050295939843
20
-5.82436213029928
30
0
41
1
10
41.0141468957257
20
-5.72807875257206
30
0
41
1
10
41.0352543433935
20
-5.58372069273287
30
0
41
1
10
41.0435315469487
20
-5.53566767466691
30
0
41
1
10
41.0623801703197
20
-5.44066411020884
30
0
41
1
10
41.0729696399017
20
-5.39357950719648
30
0
41
1
10
41.1316552723849
20
-5.16020551259834
30
0
41
1
10
41.1968029365061
20
-4.98000911207089
30
0
41
1
10
41.3221404039508
20
-4.71942566642787
30
0
41
1
10
41.3688445855838
20
-4.63378061542028
30
0
41
1
10
41.4698434892856
20
-4.46913939414151
30
0
41
1
10
41.524217135308
20
-4.38985779933086
30
0
41
1
10
41.6987057582044
20
-4.16086481504601
30
0
41
1
10
41.8302214771868
20
-4.01979255996332
30
0
41
1
10
42.1240712473223
20
-3.76223625411234
30
0
41
1
10
42.2817575761937
20
-3.64977069142589
30
0
41
1
10
42.5338089059101
20
-3.50430277686951
30
0
41
1
10
42.6204322678521
20
-3.45971492216955
30
0
41
1
10
42.7543723691721
20
-3.3987950806964
30
0
41
1
10
42.7998053797849
20
-3.37943835044365
30
0
41
1
10
42.8914456054106
20
-3.34298976747613
30
0
41
1
10
42.9375588784597
20
-3.32592758315849
30
0
41
1
10
43.169562716706
20
-3.24630307095515
30
0
41
1
10
43.3597246630336
20
-3.20063198934775
30
0
41
1
10
43.6030979942975
20
-3.16583794902715
30
0
41
1
10
43.6520587612243
20
-3.16000433073526
30
0
41
1
10
43.7505622824525
20
-3.15062421275854
30
0
41
1
10
43.8002430259897
20
-3.14707393571104
30
0
41
1
10
43.9488086234689
20
-3.13998546936398
30
0
41
1
10
44.0473577865152
20
-3.1399563620933
30
0
41
1
10
44.3415652808507
20
-3.15354342697913
30
0
41
1
10
44.5357973662947
20
-3.18069780883099
30
0
41
1
10
44.7761388480276
20
-3.23796846164078
30
0
41
1
10
44.8241710358482
20
-3.25063108252493
30
0
41
1
10
44.9189603571526
20
-3.2780565333112
30
0
41
1
10
44.9658310889477
20
-3.29284188471701
30
0
41
1
10
45.1048991072765
20
-3.34036530572843
30
0
41
1
10
45.2862124751586
20
-3.4121614826027
30
0
41
1
10
45.4594140156708
20
-3.50067144014207
30
0
41
1
10
45.586225472243
20
-3.57345395428763
30
0
41
1
10
45.6279800878126
20
-3.59878342195714
30
0
41
1
10
45.7104379127931
20
-3.65162664003816
30
0
41
1
10
45.7511300231148
20
-3.67914221245621
30
0
41
1
10
45.9500338794413
20
-3.82092212662178
30
0
41
1
10
46.0962785594394
20
-3.94864181041095
30
0
41
1
10
46.2295085345386
20
-4.09099940722864
30
0
0
SPLINE
5
43C
100
AcDbEntity
8
1
62
256
6
ByLayer
370
13
48
1
60
0
100
AcDbSpline
70
4
71
3
72
8
73
4
40
0
40
0
40
0
40
0
40
1
40
1
40
1
40
1
41
1
10
38.4999991597878
20
27.0800033262759
30
0
41
1
10
38.4635161844679
20
27.4292677184302
30
0
41
1
10
38.427033209148
20
27.7785321105845
30
0
41
1
10
38.3905502338281
20
28.1277965027388
30
0
0
SPLINE
5
43D
100
AcDbEntity
8
1
62
256
6
ByLayer
370
18
48
1
60
0
100
AcDbSpline
70
4
71
3
72
29
73
25
40
0
40
0
40
0
40
0
40
0.125
40
0.125
40
0.1875
40
0.1875
40
0.25
40
0.25
40
0.375000000000002
40
0.375000000000002
40
0.437500000000003
40
0.437500000000003
40
0.500000000000004
40
0.500000000000004
40
0.624999999999998
40
0.624999999999998
40
0.687499999999996
40
0.687499999999996
40
0.749999999999993
40
0.81249999999999
40
0.81249999999999
40
0.874999999999988
40
0.874999999999988
40
1
40
1
40
1
40
1
41
1
10
38.1805214835459
20
28.6059674341362
30
0
41
1
10
38.1827463559834
20
28.5564426850222
30
0
41
1
10
38.1897398474279
20
28.5079385619047
30
0
41
1
10
38.2072246509092
20
28.4366794220153
30
0
41
1
10
38.2142266828209
20
28.4131775957369
30
0
41
1
10
38.2306511826814
20
28.3666919883278
30
0
41
1
10
38.2400647335038
20
28.3437785425309
30
0
41
1
10
38.2713577608896
20
28.2772501966039
30
0
41
1
10
38.2964186408875
20
28.2353534015159
30
0
41
1
10
38.340376956015
20
28.1762315384504
30
0
41
1
10
38.3561819381616
20
28.157059730677
30
0
41
1
10
38.3896248025805
20
28.1204645533459
30
0
41
1
10
38.4071636812415
20
28.1031288398402
30
0
41
1
10
38.4621700634244
20
28.0539336725151
30
0
41
1
10
38.5020046254836
20
28.0248594957065
30
0
41
1
10
38.566663938825
20
27.9870227662132
30
0
41
1
10
38.5889866443425
20
27.9754306833646
30
0
41
1
10
38.6342790920403
20
27.9547043004502
30
0
41
1
10
38.6804533829276
20
27.9362923121876
30
0
41
1
10
38.7283667578009
20
27.9224445443265
30
0
41
1
10
38.7771621959894
20
27.9109117488368
30
0
41
1
10
38.8021230334269
20
27.9062903033566
30
0
41
1
10
38.8772738394943
20
27.8961760564071
30
0
41
1
10
38.927737834986
20
27.8943330284299
30
0
41
1
10
38.9785656028538
20
27.8973940403708
30
0
0
SPLINE
5
43E
100
AcDbEntity
8
1
62
256
6
ByLayer
370
18
48
1
60
0
100
AcDbSpline
70
4
71
3
72
28
73
24
40
0
40
0
40
0
40
0
40
0.125000000000016
40
0.125000000000016
40
0.187500000000023
40
0.187500000000023
40
0.250000000000029
40
0.250000000000029
40
0.375000000000027
40
0.375000000000027
40
0.437500000000019
40
0.437500000000019
40
0.500000000000011
40
0.500000000000011
40
0.625000000000005
40
0.625000000000005
40
0.749999999999999
40
0.749999999999999
40
0.812499999999997
40
0.812499999999997
40
0.874999999999996
40
0.874999999999996
40
1
40
1
40
1
40
1
41
1
10
45.9177396613295
20
28.3152934592154
30
0
41
1
10
45.9685571630231
20
28.3183538528942
30
0
41
1
10
46.0183498654394
20
28.3262326137871
30
0
41
1
10
46.0915432232393
20
28.3450831680781
30
0
41
1
10
46.1156899588963
20
28.3525470660235
30
0
41
1
10
46.163466519251
20
28.3699052567034
30
0
41
1
10
46.1870056220048
20
28.3797825152802
30
0
41
1
10
46.2553302212996
20
28.4124160538373
30
0
41
1
10
46.2983378243116
20
28.4383163324734
30
0
41
1
10
46.3590248424141
20
28.4834018762215
30
0
41
1
10
46.378715723113
20
28.4995777242956
30
0
41
1
10
46.416103594662
20
28.5334983680274
30
0
41
1
10
46.4338245111513
20
28.5512389942685
30
0
41
1
10
46.4841491884951
20
28.6067368403132
30
0
41
1
10
46.5139415307048
20
28.6467486529112
30
0
41
1
10
46.56579055542
20
28.7329758233039
30
0
41
1
10
46.5870424564305
20
28.7778722969896
30
0
41
1
10
46.6121556757688
20
28.8475360739586
30
0
41
1
10
46.6193982894632
20
28.8711589818437
30
0
41
1
10
46.6315928852011
20
28.9192200946975
30
0
41
1
10
46.636544425219
20
28.9437244989701
30
0
41
1
10
46.6476700361232
20
29.0171533379881
30
0
41
1
10
46.650276431309
20
29.0663893290439
30
0
41
1
10
46.6480564974564
20
29.1159096738812
30
0
0
SPLINE
5
43F
100
AcDbEntity
8
1
62
256
6
ByLayer
370
18
48
1
60
0
100
AcDbSpline
70
4
71
3
72
20
73
16
40
0
40
0
40
0
40
0
40
0.124999999999996
40
0.124999999999996
40
0.249999999999991
40
0.249999999999991
40
0.374999999999987
40
0.374999999999987
40
0.499999999999982
40
0.499999999999982
40
0.624999999999978
40
0.624999999999978
40
0.749999999999973
40
0.749999999999973
40
1
40
1
40
1
40
1
41
1
10
42.3140346536132
20
0.497536775510412
30
0
41
1
10
42.3009904631045
20
0.496395947783242
30
0
41
1
10
42.2879685548948
20
0.496075726768822
30
0
41
1
10
42.2619690022532
20
0.497084631647453
30
0
41
1
10
42.2489929994874
20
0.498438853310688
30
0
41
1
10
42.2242299503524
20
0.502667794898059
30
0
41
1
10
42.2122883397336
20
0.505543322615267
30
0
41
1
10
42.1892607772262
20
0.512797041301269
30
0
41
1
10
42.1781358120014
20
0.517215603444811
30
0
41
1
10
42.1576303913638
20
0.527173323324234
30
0
41
1
10
42.1481225031476
20
0.532743959890922
30
0
41
1
10
42.1305114825045
20
0.545029198462487
30
0
41
1
10
42.1223472982519
20
0.551810301833882
30
0
41
1
10
42.100503518127
20
0.573404914716548
30
0
41
1
10
42.0894296513842
20
0.589317297482978
30
0
41
1
10
42.0815660642787
20
0.606724321442812
30
0
0
SPLINE
5
440
100
AcDbEntity
8
1
62
256
6
ByLayer
370
18
48
1
60
0
100
AcDbSpline
70
4
71
3
72
28
73
24
40
0
40
0
40
0
40
0
40
0.125000000000027
40
0.125000000000027
40
0.250000000000054
40
0.250000000000054
40
0.312500000000057
40
0.312500000000057
40
0.375000000000059
40
0.375000000000059
40
0.500000000000064
40
0.500000000000064
40
0.562500000000056
40
0.562500000000056
40
0.625000000000048
40
0.625000000000048
40
0.750000000000036
40
0.750000000000036
40
0.81250000000003
40
0.81250000000003
40
0.875000000000023
40
0.875000000000023
40
1
40
1
40
1
40
1
41
1
10
41.4391773050295
20
0.655236137117583
30
0
41
1
10
41.468488248727
20
0.675904735113534
30
0
41
1
10
41.4990569684697
20
0.695229314952087
30
0
41
1
10
41.5613937295009
20
0.729558411387984
30
0
41
1
10
41.59323564041
20
0.74465596524675
30
0
41
1
10
41.6423829534721
20
0.763328676668834
30
0
41
1
10
41.6590628851077
20
0.768892015489882
30
0
41
1
10
41.692154054041
20
0.778222154290404
30
0
41
1
10
41.7086529272748
20
0.782028011569196
30
0
41
1
10
41.7580389806211
20
0.790639632307773
30
0
41
1
10
41.7911396276616
20
0.792523684185824
30
0
41
1
10
41.8376435447573
20
0.788955962582634
30
0
41
1
10
41.8527339304021
20
0.786738105331949
30
0
41
1
10
41.8820949220863
20
0.780274316988084
30
0
41
1
10
41.8964631011496
20
0.775988611606124
30
0
41
1
10
41.9375556366724
20
0.760396117804589
30
0
41
1
10
41.9620391641609
20
0.746568595565861
30
0
41
1
10
41.9949541923654
20
0.721724485771688
30
0
41
1
10
42.0053296811806
20
0.712698924325991
30
0
41
1
10
42.0244629994569
20
0.693740254182558
30
0
41
1
10
42.0332591981833
20
0.683790675933608
30
0
41
1
10
42.0575178183965
20
0.652722266127796
30
0
41
1
10
42.0708709319593
20
0.630399321419077
30
0
41
1
10
42.0815660642787
20
0.606724321442812
30
0
0
SPLINE
5
441
100
AcDbEntity
8
1
62
256
6
ByLayer
370
18
48
1
60
0
100
AcDbSpline
70
4
71
3
72
28
73
24
40
0
40
0
40
0
40
0
40
0.125000000000003
40
0.125000000000003
40
0.250000000000005
40
0.250000000000005
40
0.312499999999999
40
0.312499999999999
40
0.374999999999993
40
0.374999999999993
40
0.500000000000011
40
0.500000000000011
40
0.562500000000016
40
0.562500000000016
40
0.625000000000021
40
0.625000000000021
40
0.75000000000003
40
0.75000000000003
40
0.812500000000023
40
0.812500000000023
40
0.875000000000016
40
0.875000000000016
40
1
40
1
40
1
40
1
41
1
10
42.5246452701178
20
0.64547544540352
30
0
41
1
10
42.531185415159
20
0.67067371333917
30
0
41
1
10
42.5407274098782
20
0.695352726495742
30
0
41
1
10
42.5657483473696
20
0.741874197141044
30
0
41
1
10
42.5812010395844
20
0.763811386123677
30
0
41
1
10
42.6095209652684
20
0.794047897808298
30
0
41
1
10
42.6198773032837
20
0.803703619477005
30
0
41
1
10
42.6419743546972
20
0.821499194072373
30
0
41
1
10
42.653759911915
20
0.82969744804717
30
0
41
1
10
42.69144825874
20
0.851991704510624
30
0
41
1
10
42.7200597947687
20
0.863789349842875
30
0
41
1
10
42.7654105414382
20
0.875285067001585
30
0
41
1
10
42.7810094038982
20
0.878149868969103
30
0
41
1
10
42.8131659149012
20
0.881974130095443
30
0
41
1
10
42.8298461015365
20
0.882931474669363
30
0
41
1
10
42.8804286174284
20
0.882971979521756
30
0
41
1
10
42.9144812905669
20
0.879326822246526
30
0
41
1
10
42.9660852724599
20
0.869477525319041
30
0
41
1
10
42.9834643696627
20
0.865428077393972
30
0
41
1
10
43.0177510446776
20
0.856150212449108
30
0
41
1
10
43.0347069736971
20
0.850920148875446
30
0
41
1
10
43.0850910061517
20
0.833687217466434
30
0
41
1
10
43.1180416424032
20
0.820160822290802
30
0
41
1
10
43.1504612706418
20
0.804902779581141
30
0
0
SPLINE
5
442
100
AcDbEntity
8
1
62
256
6
ByLayer
370
18
48
1
60
0
100
AcDbSpline
70
4
71
3
72
18
73
14
40
0
40
0
40
0
40
0
40
0.249999999999977
40
0.249999999999977
40
0.499999999999953
40
0.499999999999953
40
0.624999999999965
40
0.624999999999965
40
0.749999999999977
40
0.749999999999977
40
0.874999999999988
40
0.874999999999988
40
1
40
1
40
1
40
1
41
1
10
42.5246452701178
20
0.645475445403463
30
0
41
1
10
42.5198519455037
20
0.627007433277129
30
0
41
1
10
42.5115902595855
20
0.609306260032497
30
0
41
1
10
42.4877125082087
20
0.575854535166798
30
0
41
1
10
42.4724018528896
20
0.560561364897467
30
0
41
1
10
42.4444158017959
20
0.540389543553658
30
0
41
1
10
42.4344152060914
20
0.534249791020272
30
0
41
1
10
42.4130385953139
20
0.523143223691136
30
0
41
1
10
42.4015395007242
20
0.518137242585681
30
0
41
1
10
42.3777607428129
20
0.509653332825906
30
0
41
1
10
42.3654899008656
20
0.506155335795711
30
0
41
1
10
42.3401722572377
20
0.500662019531831
30
0
41
1
10
42.3270326410625
20
0.498673562378883
30
0
41
1
10
42.3140346536132
20
0.497536775510412
30
0
0
SPLINE
5
443
100
AcDbEntity
8
1
62
256
6
ByLayer
370
18
48
1
60
0
100
AcDbSpline
70
2053
71
3
72
127
73
123
40
0
40
0
40
0
40
0
40
0.0312499999999976
40
0.0312499999999976
40
0.0468749999999961
40
0.0468749999999961
40
0.0624999999999946
40
0.0624999999999946
40
0.0937499999999916
40
0.0937499999999916
40
0.101562499999991
40
0.101562499999991
40
0.109374999999991
40
0.109374999999991
40
0.12499999999999
40
0.12499999999999
40
0.156249999999986
40
0.156249999999986
40
0.164062499999986
40
0.164062499999986
40
0.171874999999985
40
0.171874999999985
40
0.187499999999984
40
0.203124999999983
40
0.203124999999983
40
0.210937499999983
40
0.210937499999983
40
0.218749999999983
40
0.218749999999983
40
0.249999999999983
40
0.249999999999983
40
0.265624999999983
40
0.265624999999983
40
0.273437499999983
40
0.273437499999983
40
0.281249999999982
40
0.281249999999982
40
0.312499999999981
40
0.312499999999981
40
0.320312499999982
40
0.320312499999982
40
0.328124999999982
40
0.328124999999982
40
0.343749999999983
40
0.343749999999983
40
0.374999999999984
40
0.374999999999984
40
0.406249999999986
40
0.406249999999986
40
0.421874999999987
40
0.421874999999987
40
0.429687499999988
40
0.429687499999988
40
0.437499999999989
40
0.437499999999989
40
0.468749999999991
40
0.468749999999991
40
0.476562499999991
40
0.476562499999991
40
0.484374999999991
40
0.484374999999991
40
0.49999999999999
40
0.49999999999999
40
0.531249999999988
40
0.531249999999988
40
0.539062499999988
40
0.539062499999988
40
0.546874999999987
40
0.546874999999987
40
0.562499999999986
40
0.578124999999986
40
0.578124999999986
40
0.585937499999985
40
0.585937499999985
40
0.593749999999985
40
0.593749999999985
40
0.624999999999986
40
0.624999999999986
40
0.640624999999986
40
0.640624999999986
40
0.648437499999986
40
0.648437499999986
40
0.656249999999987
40
0.656249999999987
40
0.687499999999991
40
0.687499999999991
40
0.703124999999992
40
0.703124999999992
40
0.718749999999994
40
0.718749999999994
40
0.749999999999999
40
0.749999999999999
40
0.781250000000003
40
0.781250000000003
40
0.796875000000005
40
0.796875000000005
40
0.804687500000006
40
0.804687500000006
40
0.812500000000007
40
0.812500000000007
40
0.84375000000001
40
0.84375000000001
40
0.85156250000001
40
0.85156250000001
40
0.85937500000001
40
0.85937500000001
40
0.87500000000001
40
0.87500000000001
40
0.906250000000009
40
0.906250000000009
40
0.914062500000008
40
0.914062500000008
40
0.921875000000008
40
0.921875000000008
40
0.937500000000007
40
0.953125000000005
40
0.953125000000005
40
0.960937500000004
40
0.960937500000004
40
0.968750000000003
40
0.968750000000003
40
1
40
1
40
1
40
1
41
1
10
46.2295085345386
20
25.3222669060434
30
0
41
1
10
46.3627385096378
20
25.1936888346074
30
0
41
1
10
46.4791944212897
20
25.0565467747837
30
0
41
1
10
46.6297421709249
20
24.8390373745228
30
0
41
1
10
46.6758721144299
20
24.7645520020929
30
0
41
1
10
46.7598404682979
20
24.6116043829265
30
0
41
1
10
46.7977025784842
20
24.5329425797403
30
0
41
1
10
46.8962695170376
20
24.2962505666334
30
0
41
1
10
46.9431005860816
20
24.1359073445853
30
0
41
1
10
46.9782909090087
20
23.9325615939256
30
0
41
1
10
46.9841510810829
20
23.8917445910245
30
0
41
1
10
46.9934792173407
20
23.8098135166954
30
0
41
1
10
46.9969507689103
20
23.768584456298
30
0
41
1
10
47.0036506815575
20
23.6455468883821
30
0
41
1
10
47.003216163749
20
23.5643069303933
30
0
41
1
10
46.9876874951752
20
23.3228680284927
30
0
41
1
10
46.9585031141204
20
23.1649386885169
30
0
41
1
10
46.8979821021155
20
22.971250737049
30
0
41
1
10
46.8846359736775
20
22.9326410180484
30
0
41
1
10
46.8557931541586
20
22.8566090410738
30
0
41
1
10
46.840270865357
20
22.8190912894583
30
0
41
1
10
46.790460669024
20
22.7079939966792
30
0
41
1
10
46.7154134620506
20
22.5637400512428
30
0
41
1
10
46.6233377479761
20
22.426980631615
30
0
41
1
10
46.5477958518466
20
22.3271969175162
30
0
41
1
10
46.5215324110404
20
22.2944007245669
30
0
41
1
10
46.4667984633657
20
22.2297435135464
30
0
41
1
10
46.4383262921291
20
22.1978932483058
30
0
41
1
10
46.2919944125425
20
22.0426817151546
30
0
41
1
10
46.1611695019259
20
21.9298957574952
30
0
41
1
10
45.9445968563384
20
21.7768511317241
30
0
41
1
10
45.8689922606623
20
21.7285451970687
30
0
41
1
10
45.7502711472178
20
21.6602140772109
30
0
41
1
10
45.709844927067
20
21.6381545915634
30
0
41
1
10
45.6281146930305
20
21.5958924682918
30
0
41
1
10
45.5867025897912
20
21.5756260945281
30
0
41
1
10
45.3769423094743
20
21.478527217176
30
0
41
1
10
45.2005725870889
20
21.4142649857984
30
0
41
1
10
44.9691828938765
20
21.3505784452111
30
0
41
1
10
44.9223536692983
20
21.3386812784113
30
0
41
1
10
44.8275664270308
20
21.3165975451745
30
0
41
1
10
44.7796991898383
20
21.3064383561481
30
0
41
1
10
44.636031536171
20
21.2788575225885
30
0
41
1
10
44.5396606139503
20
21.2642036457661
30
0
41
1
10
44.248806979632
20
21.2311384602251
30
0
41
1
10
44.052600194125
20
21.2235068151389
30
0
41
1
10
43.6553732970945
20
21.2382425063311
30
0
41
1
10
43.460778560565
20
21.2604056188941
30
0
41
1
10
43.1756267115272
20
21.314949353243
30
0
41
1
10
43.0816502113967
20
21.3367113929925
30
0
41
1
10
42.9423258317432
20
21.3748764822291
30
0
41
1
10
42.8960436414183
20
21.3885576213754
30
0
41
1
10
42.8046129784355
20
21.4176261304872
30
0
41
1
10
42.7595596974592
20
21.4329772103896
30
0
41
1
10
42.5375286417216
20
21.5137531842691
30
0
41
1
10
42.3701639220467
20
21.5911170033202
30
0
41
1
10
42.1735564053622
20
21.7040031223106
30
0
41
1
10
42.1348705852474
20
21.7273970778446
30
0
41
1
10
42.0587880951484
20
21.775856299536
30
0
41
1
10
42.0213190801288
20
21.8009779063106
30
0
41
1
10
41.9119921373409
20
21.8781161885084
30
0
41
1
10
41.8428821065767
20
21.9320880036395
30
0
41
1
10
41.6465213756528
20
22.1015753940927
30
0
41
1
10
41.5301329716939
20
22.2245888888947
30
0
41
1
10
41.4032648874635
20
22.391762158384
30
0
41
1
10
41.3788270357453
20
22.4258928085994
30
0
41
1
10
41.3323642599926
20
22.494777672348
30
0
41
1
10
41.3102675758272
20
22.5296223492165
30
0
41
1
10
41.2473264104023
20
22.6353596486807
30
0
41
1
10
41.172320069608
20
22.7795475900243
30
0
41
1
10
41.1149579600411
20
22.9302267093735
30
0
41
1
10
41.0786784471626
20
23.0457608479826
30
0
41
1
10
41.0677109817175
20
23.0846936567025
30
0
41
1
10
41.0480742648968
20
23.1634254192172
30
0
41
1
10
41.03941469223
20
23.2032234359794
30
0
41
1
10
41.0023574030086
20
23.4021649742607
30
0
41
1
10
40.9920272343423
20
23.5629378803743
30
0
41
1
10
41.0050295939843
20
23.8065377781456
30
0
41
1
10
41.0141468957257
20
23.8881449212994
30
0
41
1
10
41.0352543433935
20
24.0111718769238
30
0
41
1
10
41.0435315469487
20
24.0522373098551
30
0
41
1
10
41.0623801703197
20
24.1336445775673
30
0
41
1
10
41.0729696399017
20
24.1741005197726
30
0
41
1
10
41.1316552723848
20
24.3751471399987
30
0
41
1
10
41.1968029365061
20
24.5320838144707
30
0
41
1
10
41.3221404039508
20
24.761196632369
30
0
41
1
10
41.3688445855837
20
24.8368789191745
30
0
41
1
10
41.4698434892856
20
24.9830315376722
30
0
41
1
10
41.524217135308
20
25.0537489491908
30
0
41
1
10
41.6987057582044
20
25.2588538218533
30
0
41
1
10
41.8302214771868
20
25.38638427348
30
0
41
1
10
42.1240712473223
20
25.6207653550762
30
0
41
1
10
42.2817575761937
20
25.7239467151369
30
0
41
1
10
42.5338089059101
20
25.8580192316556
30
0
41
1
10
42.620432267852
20
25.8992358590569
30
0
41
1
10
42.7543723691721
20
25.9556665691592
30
0
41
1
10
42.7998053797849
20
25.9736185501186
30
0
41
1
10
42.8914456054106
20
26.0074549008593
30
0
41
1
10
42.9375588784597
20
26.0233115808201
30
0
41
1
10
43.169562716706
20
26.0973721192974
30
0
41
1
10
43.3597246630336
20
26.1400479352715
30
0
41
1
10
43.6030979942975
20
26.1725783124784
30
0
41
1
10
43.6520587612243
20
26.1780348968423
30
0
41
1
10
43.7505622824525
20
26.1868105329882
30
0
41
1
10
43.8002430259897
20
26.190133118499
30
0
41
1
10
43.9488086234689
20
26.1967674337823
30
0
41
1
10
44.0473577865152
20
26.1967947131332
30
0
41
1
10
44.3415652808507
20
26.1840780499573
30
0
41
1
10
44.5357973662947
20
26.1586494093186
30
0
41
1
10
44.7761388480276
20
26.1052129643134
30
0
41
1
10
44.8241710358482
20
26.0934050089891
30
0
41
1
10
44.9189603571526
20
26.0678520926834
30
0
41
1
10
44.9658310889477
20
26.054086090947
30
0
41
1
10
45.1048991072765
20
26.0098811258048
30
0
41
1
10
45.2862124751586
20
25.9432026860785
30
0
41
1
10
45.4594140156708
20
25.8613723816341
30
0
41
1
10
45.5862254722429
20
25.7942822896753
30
0
41
1
10
45.6279800878126
20
25.7709644070951
30
0
41
1
10
45.7104379127931
20
25.7223931712209
30
0
41
1
10
45.7511300231148
20
25.697138412249
30
0
41
1
10
45.9500338794413
20
25.5672229412676
30
0
41
1
10
46.0962785594394
20
25.4508449774794
30
0
41
1
10
46.2295085345386
20
25.3222669060434
30
0
0
SPLINE
5
444
100
AcDbEntity
8
1
62
256
6
ByLayer
370
18
48
1
60
0
100
AcDbSpline
70
4
71
1
72
4
73
2
40
0
40
0
40
1
40
1
41
1
10
38.2180560333102
20
41.3584741825774
30
0
41
1
10
38.4999940431545
20
40.3571636917101
30
0
0
SPLINE
5
445
100
AcDbEntity
8
1
62
256
6
ByLayer
370
18
48
1
60
0
100
AcDbSpline
70
4
71
1
72
4
73
2
40
0
40
0
40
1
40
1
41
1
10
46.467556847171
20
1.92113031087973
30
0
41
1
10
45.3316177533528
20
6.03673707022091
30
0
0
SPLINE
5
446
100
AcDbEntity
8
1
62
256
6
ByLayer
370
18
48
1
60
0
100
AcDbSpline
70
4
71
1
72
4
73
2
40
0
40
0
40
1
40
1
41
1
10
38.3999339482885
20
5.4298245872418
30
0
41
1
10
38.0000951445341
20
1.18035537743344
30
0
0
SPLINE
5
447
100
AcDbEntity
8
1
62
256
6
ByLayer
370
18
48
1
60
0
100
AcDbSpline
70
4
71
1
72
4
73
2
40
0
40
0
40
1
40
1
41
1
10
38.0218021334789
20
-35.7657275833361
30
0
41
1
10
38.4167193640912
20
-38.0561964722776
30
0
0
SPLINE
5
448
100
AcDbEntity
8
1
62
256
6
ByLayer
370
18
48
1
60
0
100
AcDbSpline
70
4
71
1
72
4
73
2
40
0
40
0
40
1
40
1
41
1
10
46.4176736818092
20
36.3386377329885
30
0
41
1
10
45.2878525904397
20
38.5205353318221
30
0
0
SPLINE
5
449
100
AcDbEntity
8
1
62
256
6
ByLayer
370
18
48
1
60
0
100
AcDbSpline
70
4
71
1
72
4
73
2
40
0
40
0
40
1
40
1
41
1
10
38.4167193640912
20
38.0561964722775
30
0
41
1
10
38.0218021334789
20
35.765727583336
30
0
0
SPLINE
5
44A
100
AcDbEntity
8
1
62
256
6
ByLayer
370
18
48
1
60
0
100
AcDbSpline
70
4
71
1
72
4
73
2
40
0
40
0
40
1
40
1
41
1
10
38.4999940431545
20
-40.3571636917101
30
0
41
1
10
38.2180560333102
20
-41.3584741825774
30
0
0
LINE
5
7B
100
AcDbEntity
8
1
62
256
6
ByLayer
370
18
48
1
60
0
100
AcDbLine
10
49.525
20
-11.166024
30
0
11
49.525
21
-11.104605
31
0
39
0
210
0
220
0
230
1
0
LINE
5
7C
100
AcDbEntity
8
1
62
256
6
ByLayer
370
18
48
1
60
0
100
AcDbLine
10
49.525
20
-10.997617
30
0
11
49.525
21
-11.104605
31
0
39
0
210
0
220
0
230
1
0
LINE
5
7D
100
AcDbEntity
8
1
62
256
6
ByLayer
370
18
48
1
60
0
100
AcDbLine
10
49.525
20
-10.770613
30
0
11
49.525
21
-10.997617
31
0
39
0
210
0
220
0
230
1
0
LINE
5
7E
100
AcDbEntity
8
1
62
256
6
ByLayer
370
13
48
1
60
0
100
AcDbLine
10
49.525
20
-11.566882
30
0
11
49.499849
21
-11.566882
31
0
39
0
210
0
220
0
230
1
0
LINE
5
7F
100
AcDbEntity
8
1
62
256
6
ByLayer
370
18
48
1
60
0
100
AcDbLine
10
49.525
20
-10.770622
30
0
11
49.525
21
-10.765167
31
0
39
0
210
0
220
0
230
1
0
LINE
5
80
100
AcDbEntity
8
1
62
256
6
ByLayer
370
13
48
1
60
0
100
AcDbLine
10
49.525
20
-11.505462
30
0
11
49.499849
21
-11.505462
31
0
39
0
210
0
220
0
230
1
0
LINE
5
81
100
AcDbEntity
8
1
62
256
6
ByLayer
370
13
48
1
60
0
100
AcDbLine
10
49.525
20
-11.398475
30
0
11
49.499849
21
-11.398475
31
0
39
0
210
0
220
0
230
1
0
LINE
5
82
100
AcDbEntity
8
1
62
256
6
ByLayer
370
18
48
1
60
0
100
AcDbLine
10
49.525
20
-10.703747
30
0
11
49.525
21
-10.765167
31
0
39
0
210
0
220
0
230
1
0
LINE
5
83
100
AcDbEntity
8
1
62
256
6
ByLayer
370
18
48
1
60
0
100
AcDbLine
10
49.525
20
-10.703747
30
0
11
49.525
21
-10.59676
31
0
39
0
210
0
220
0
230
1
0
LINE
5
84
100
AcDbEntity
8
1
62
256
6
ByLayer
370
18
48
1
60
0
100
AcDbLine
10
49.525
20
-10.59676
30
0
11
49.525
21
-10.369755
31
0
39
0
210
0
220
0
230
1
0
LINE
5
85
100
AcDbEntity
8
1
62
256
6
ByLayer
370
13
48
1
60
0
100
AcDbLine
10
49.525
20
-11.166024
30
0
11
49.499849
21
-11.166024
31
0
39
0
210
0
220
0
230
1
0
LINE
5
86
100
AcDbEntity
8
1
62
256
6
ByLayer
370
18
48
1
60
0
100
AcDbLine
10
49.525
20
-10.364309
30
0
11
49.525
21
-10.369764
31
0
39
0
210
0
220
0
230
1
0
LINE
5
87
100
AcDbEntity
8
1
62
256
6
ByLayer
370
13
48
1
60
0
100
AcDbLine
10
49.525
20
-11.104605
30
0
11
49.499849
21
-11.104605
31
0
39
0
210
0
220
0
230
1
0
LINE
5
88
100
AcDbEntity
8
1
62
256
6
ByLayer
370
13
48
1
60
0
100
AcDbLine
10
49.525
20
-10.997617
30
0
11
49.499849
21
-10.997617
31
0
39
0
210
0
220
0
230
1
0
LINE
5
89
100
AcDbEntity
8
1
62
256
6
ByLayer
370
18
48
1
60
0
100
AcDbLine
10
49.525
20
-10.364309
30
0
11
49.525
21
-10.30289
31
0
39
0
210
0
220
0
230
1
0
LINE
5
8A
100
AcDbEntity
8
1
62
256
6
ByLayer
370
18
48
1
60
0
100
AcDbLine
10
49.525
20
-10.195902
30
0
11
49.525
21
-10.30289
31
0
39
0
210
0
220
0
230
1
0
LINE
5
8B
100
AcDbEntity
8
1
62
256
6
ByLayer
370
18
48
1
60
0
100
AcDbLine
10
49.525
20
-9.968898
30
0
11
49.525
21
-10.195902
31
0
39
0
210
0
220
0
230
1
0
LINE
5
8C
100
AcDbEntity
8
1
62
256
6
ByLayer
370
13
48
1
60
0
100
AcDbLine
10
49.525
20
-10.765167
30
0
11
49.499849
21
-10.765167
31
0
39
0
210
0
220
0
230
1
0
LINE
5
8D
100
AcDbEntity
8
1
62
256
6
ByLayer
370
18
48
1
60
0
100
AcDbLine
10
49.525
20
-9.968907
30
0
11
49.525
21
-9.963451
31
0
39
0
210
0
220
0
230
1
0
LINE
5
8E
100
AcDbEntity
8
1
62
256
6
ByLayer
370
13
48
1
60
0
100
AcDbLine
10
49.525
20
-10.703747
30
0
11
49.499849
21
-10.703747
31
0
39
0
210
0
220
0
230
1
0
LINE
5
8F
100
AcDbEntity
8
1
62
256
6
ByLayer
370
13
48
1
60
0
100
AcDbLine
10
49.525
20
-10.59676
30
0
11
49.499849
21
-10.59676
31
0
39
0
210
0
220
0
230
1
0
LINE
5
90
100
AcDbEntity
8
1
62
256
6
ByLayer
370
18
48
1
60
0
100
AcDbLine
10
49.525
20
-9.963451
30
0
11
49.525
21
-9.902032
31
0
39
0
210
0
220
0
230
1
0
LINE
5
91
100
AcDbEntity
8
1
62
256
6
ByLayer
370
18
48
1
60
0
100
AcDbLine
10
49.525
20
-9.902032
30
0
11
49.525
21
-9.795045
31
0
39
0
210
0
220
0
230
1
0
LINE
5
92
100
AcDbEntity
8
1
62
256
6
ByLayer
370
18
48
1
60
0
100
AcDbLine
10
49.525
20
-9.795045
30
0
11
49.525
21
-9.56804
31
0
39
0
210
0
220
0
230
1
0
LINE
5
93
100
AcDbEntity
8
1
62
256
6
ByLayer
370
13
48
1
60
0
100
AcDbLine
10
49.525
20
-10.364309
30
0
11
49.499974
21
-10.364309
31
0
39
0
210
0
220
0
230
1
0
LINE
5
94
100
AcDbEntity
8
1
62
256
6
ByLayer
370
18
48
1
60
0
100
AcDbLine
10
49.525
20
-9.562594
30
0
11
49.525
21
-9.568049
31
0
39
0
210
0
220
0
230
1
0
LINE
5
95
100
AcDbEntity
8
1
62
256
6
ByLayer
370
13
48
1
60
0
100
AcDbLine
10
49.525
20
-10.30289
30
0
11
49.499958
21
-10.30289
31
0
39
0
210
0
220
0
230
1
0
LINE
5
96
100
AcDbEntity
8
1
62
256
6
ByLayer
370
13
48
1
60
0
100
AcDbLine
10
49.525
20
-10.195902
30
0
11
49.49996
21
-10.195902
31
0
39
0
210
0
220
0
230
1
0
LINE
5
97
100
AcDbEntity
8
1
62
256
6
ByLayer
370
18
48
1
60
0
100
AcDbLine
10
49.525
20
-9.562594
30
0
11
49.525
21
-9.501175
31
0
39
0
210
0
220
0
230
1
0
LINE
5
98
100
AcDbEntity
8
1
62
256
6
ByLayer
370
18
48
1
60
0
100
AcDbLine
10
49.525
20
-9.394187
30
0
11
49.525
21
-9.501175
31
0
39
0
210
0
220
0
230
1
0
LINE
5
99
100
AcDbEntity
8
1
62
256
6
ByLayer
370
18
48
1
60
0
100
AcDbLine
10
49.525
20
-9.167182
30
0
11
49.525
21
-9.394187
31
0
39
0
210
0
220
0
230
1
0
LINE
5
9A
100
AcDbEntity
8
1
62
256
6
ByLayer
370
13
48
1
60
0
100
AcDbLine
10
49.525
20
-9.963451
30
0
11
49.499958
21
-9.963451
31
0
39
0
210
0
220
0
230
1
0
LINE
5
9B
100
AcDbEntity
8
1
62
256
6
ByLayer
370
18
48
1
60
0
100
AcDbLine
10
49.525
20
-9.167192
30
0
11
49.525
21
-9.161736
31
0
39
0
210
0
220
0
230
1
0
LINE
5
9C
100
AcDbEntity
8
1
62
256
6
ByLayer
370
13
48
1
60
0
100
AcDbLine
10
49.525
20
-9.902032
30
0
11
49.499941
21
-9.902032
31
0
39
0
210
0
220
0
230
1
0
LINE
5
9D
100
AcDbEntity
8
1
62
256
6
ByLayer
370
13
48
1
60
0
100
AcDbLine
10
49.525
20
-9.795045
30
0
11
49.499902
21
-9.795045
31
0
39
0
210
0
220
0
230
1
0
LINE
5
9E
100
AcDbEntity
8
1
62
256
6
ByLayer
370
18
48
1
60
0
100
AcDbLine
10
49.525
20
-9.100317
30
0
11
49.525
21
-9.161736
31
0
39
0
210
0
220
0
230
1
0
LINE
5
9F
100
AcDbEntity
8
1
62
256
6
ByLayer
370
18
48
1
60
0
100
AcDbLine
10
49.525
20
-9.100317
30
0
11
49.525
21
-8.99333
31
0
39
0
210
0
220
0
230
1
0
LINE
5
A0
100
AcDbEntity
8
1
62
256
6
ByLayer
370
18
48
1
60
0
100
AcDbLine
10
49.525
20
-8.99333
30
0
11
49.525
21
-8.766325
31
0
39
0
210
0
220
0
230
1
0
LINE
5
A1
100
AcDbEntity
8
1
62
256
6
ByLayer
370
13
48
1
60
0
100
AcDbLine
10
49.525
20
-9.562594
30
0
11
49.499849
21
-9.562594
31
0
39
0
210
0
220
0
230
1
0
LINE
5
A2
100
AcDbEntity
8
1
62
256
6
ByLayer
370
18
48
1
60
0
100
AcDbLine
10
49.525
20
-8.760879
30
0
11
49.525
21
-8.766334
31
0
39
0
210
0
220
0
230
1
0
LINE
5
A3
100
AcDbEntity
8
1
62
256
6
ByLayer
370
13
48
1
60
0
100
AcDbLine
10
49.525
20
-9.501175
30
0
11
49.499849
21
-9.501175
31
0
39
0
210
0
220
0
230
1
0
LINE
5
A4
100
AcDbEntity
8
1
62
256
6
ByLayer
370
13
48
1
60
0
100
AcDbLine
10
49.525
20
-9.394187
30
0
11
49.499849
21
-9.394187
31
0
39
0
210
0
220
0
230
1
0
LINE
5
A5
100
AcDbEntity
8
1
62
256
6
ByLayer
370
18
48
1
60
0
100
AcDbLine
10
49.525
20
-8.760879
30
0
11
49.525
21
-8.69946
31
0
39
0
210
0
220
0
230
1
0
LINE
5
A6
100
AcDbEntity
8
1
62
256
6
ByLayer
370
18
48
1
60
0
100
AcDbLine
10
49.525
20
-8.592472
30
0
11
49.525
21
-8.69946
31
0
39
0
210
0
220
0
230
1
0
LINE
5
A7
100
AcDbEntity
8
1
62
256
6
ByLayer
370
18
48
1
60
0
100
AcDbLine
10
49.525
20
-8.365467
30
0
11
49.525
21
-8.592472
31
0
39
0
210
0
220
0
230
1
0
LINE
5
A8
100
AcDbEntity
8
1
62
256
6
ByLayer
370
13
48
1
60
0
100
AcDbLine
10
49.525
20
-9.161736
30
0
11
49.499849
21
-9.161736
31
0
39
0
210
0
220
0
230
1
0
LINE
5
A9
100
AcDbEntity
8
1
62
256
6
ByLayer
370
18
48
1
60
0
100
AcDbLine
10
49.525
20
-8.365477
30
0
11
49.525
21
-8.360021
31
0
39
0
210
0
220
0
230
1
0
LINE
5
AA
100
AcDbEntity
8
1
62
256
6
ByLayer
370
13
48
1
60
0
100
AcDbLine
10
49.525
20
-9.100317
30
0
11
49.499849
21
-9.100317
31
0
39
0
210
0
220
0
230
1
0
LINE
5
AB
100
AcDbEntity
8
1
62
256
6
ByLayer
370
13
48
1
60
0
100
AcDbLine
10
49.525
20
-8.99333
30
0
11
49.499849
21
-8.99333
31
0
39
0
210
0
220
0
230
1
0
LINE
5
AC
100
AcDbEntity
8
1
62
256
6
ByLayer
370
18
48
1
60
0
100
AcDbLine
10
49.525
20
-8.360021
30
0
11
49.525
21
-8.298602
31
0
39
0
210
0
220
0
230
1
0
LINE
5
AD
100
AcDbEntity
8
1
62
256
6
ByLayer
370
18
48
1
60
0
100
AcDbLine
10
49.525
20
-8.298602
30
0
11
49.525
21
-8.191614
31
0
39
0
210
0
220
0
230
1
0
LINE
5
AE
100
AcDbEntity
8
1
62
256
6
ByLayer
370
18
48
1
60
0
100
AcDbLine
10
49.525
20
-8.191614
30
0
11
49.525
21
-7.96461
31
0
39
0
210
0
220
0
230
1
0
LINE
5
AF
100
AcDbEntity
8
1
62
256
6
ByLayer
370
13
48
1
60
0
100
AcDbLine
10
49.525
20
-8.760879
30
0
11
49.499849
21
-8.760879
31
0
39
0
210
0
220
0
230
1
0
LINE
5
B0
100
AcDbEntity
8
1
62
256
6
ByLayer
370
18
48
1
60
0
100
AcDbLine
10
49.525
20
-7.959164
30
0
11
49.525
21
-7.964619
31
0
39
0
210
0
220
0
230
1
0
LINE
5
B1
100
AcDbEntity
8
1
62
256
6
ByLayer
370
13
48
1
60
0
100
AcDbLine
10
49.525
20
-8.69946
30
0
11
49.499849
21
-8.69946
31
0
39
0
210
0
220
0
230
1
0
LINE
5
B2
100
AcDbEntity
8
1
62
256
6
ByLayer
370
13
48
1
60
0
100
AcDbLine
10
49.525
20
-8.592472
30
0
11
49.499849
21
-8.592472
31
0
39
0
210
0
220
0
230
1
0
LINE
5
B3
100
AcDbEntity
8
1
62
256
6
ByLayer
370
18
48
1
60
0
100
AcDbLine
10
49.525
20
-7.959164
30
0
11
49.525
21
-7.897744
31
0
39
0
210
0
220
0
230
1
0
LINE
5
B4
100
AcDbEntity
8
1
62
256
6
ByLayer
370
18
48
1
60
0
100
AcDbLine
10
49.525
20
-7.790757
30
0
11
49.525
21
-7.897744
31
0
39
0
210
0
220
0
230
1
0
LINE
5
B5
100
AcDbEntity
8
1
62
256
6
ByLayer
370
18
48
1
60
0
100
AcDbLine
10
49.525
20
-7.563752
30
0
11
49.525
21
-7.790757
31
0
39
0
210
0
220
0
230
1
0
LINE
5
B6
100
AcDbEntity
8
1
62
256
6
ByLayer
370
13
48
1
60
0
100
AcDbLine
10
49.525
20
-8.360021
30
0
11
49.499849
21
-8.360021
31
0
39
0
210
0
220
0
230
1
0
LINE
5
B7
100
AcDbEntity
8
1
62
256
6
ByLayer
370
18
48
1
60
0
100
AcDbLine
10
49.525
20
-7.563762
30
0
11
49.525
21
-7.558306
31
0
39
0
210
0
220
0
230
1
0
LINE
5
B8
100
AcDbEntity
8
1
62
256
6
ByLayer
370
13
48
1
60
0
100
AcDbLine
10
49.525
20
-8.298602
30
0
11
49.499849
21
-8.298602
31
0
39
0
210
0
220
0
230
1
0
LINE
5
B9
100
AcDbEntity
8
1
62
256
6
ByLayer
370
13
48
1
60
0
100
AcDbLine
10
49.525
20
-8.191614
30
0
11
49.499849
21
-8.191614
31
0
39
0
210
0
220
0
230
1
0
LINE
5
BA
100
AcDbEntity
8
1
62
256
6
ByLayer
370
18
48
1
60
0
100
AcDbLine
10
49.525
20
-7.496887
30
0
11
49.525
21
-7.558306
31
0
39
0
210
0
220
0
230
1
0
LINE
5
BB
100
AcDbEntity
8
1
62
256
6
ByLayer
370
18
48
1
60
0
100
AcDbLine
10
49.525
20
-7.496887
30
0
11
49.525
21
-7.389899
31
0
39
0
210
0
220
0
230
1
0
LINE
5
BC
100
AcDbEntity
8
1
62
256
6
ByLayer
370
18
48
1
60
0
100
AcDbLine
10
49.525
20
-7.389899
30
0
11
49.525
21
-7.162895
31
0
39
0
210
0
220
0
230
1
0
LINE
5
BD
100
AcDbEntity
8
1
62
256
6
ByLayer
370
13
48
1
60
0
100
AcDbLine
10
49.525
20
-7.959164
30
0
11
49.499849
21
-7.959164
31
0
39
0
210
0
220
0
230
1
0
LINE
5
BE
100
AcDbEntity
8
1
62
256
6
ByLayer
370
18
48
1
60
0
100
AcDbLine
10
49.525
20
-2.244607
30
0
11
49.525
21
-2.133314
31
0
39
0
210
0
220
0
230
1
0
LINE
5
BF
100
AcDbEntity
8
1
62
256
6
ByLayer
370
13
48
1
60
0
100
AcDbLine
10
49.525
20
-7.897744
30
0
11
49.499849
21
-7.897744
31
0
39
0
210
0
220
0
230
1
0
LINE
5
C0
100
AcDbEntity
8
1
62
256
6
ByLayer
370
18
48
1
60
0
100
AcDbLine
10
49.525
20
-7.157449
30
0
11
49.525
21
-7.162904
31
0
39
0
210
0
220
0
230
1
0
LINE
5
C1
100
AcDbEntity
8
1
62
256
6
ByLayer
370
13
48
1
60
0
100
AcDbLine
10
49.525
20
-7.790757
30
0
11
49.499849
21
-7.790757
31
0
39
0
210
0
220
0
230
1
0
LINE
5
C2
100
AcDbEntity
8
1
62
256
6
ByLayer
370
18
48
1
60
0
100
AcDbLine
10
49.525
20
-1.728801
30
0
11
49.525
21
-2.133314
31
0
39
0
210
0
220
0
230
1
0
LINE
5
C3
100
AcDbEntity
8
1
62
256
6
ByLayer
370
18
48
1
60
0
100
AcDbLine
10
49.525
20
-2.133314
30
0
11
49.499849
21
-2.133314
31
0
39
0
210
0
220
0
230
1
0
LINE
5
C4
100
AcDbEntity
8
1
62
256
6
ByLayer
370
13
48
1
60
0
100
AcDbLine
10
49.525
20
-7.558306
30
0
11
49.499849
21
-7.558306
31
0
39
0
210
0
220
0
230
1
0
LINE
5
C5
100
AcDbEntity
8
1
62
256
6
ByLayer
370
18
48
1
60
0
100
AcDbLine
10
49.525
20
-7.157449
30
0
11
49.525
21
-7.096029
31
0
39
0
210
0
220
0
230
1
0
LINE
5
C6
100
AcDbEntity
8
1
62
256
6
ByLayer
370
13
48
1
60
0
100
AcDbLine
10
49.525
20
-7.496887
30
0
11
49.499849
21
-7.496887
31
0
39
0
210
0
220
0
230
1
0
LINE
5
C7
100
AcDbEntity
8
1
62
256
6
ByLayer
370
18
48
1
60
0
100
AcDbLine
10
49.525
20
-6.989042
30
0
11
49.525
21
-7.096029
31
0
39
0
210
0
220
0
230
1
0
LINE
5
C8
100
AcDbEntity
8
1
62
256
6
ByLayer
370
13
48
1
60
0
100
AcDbLine
10
49.525
20
-7.389899
30
0
11
49.499849
21
-7.389899
31
0
39
0
210
0
220
0
230
1
0
LINE
5
C9
100
AcDbEntity
8
1
62
256
6
ByLayer
370
18
48
1
60
0
100
AcDbLine
10
49.525
20
-6.301305
30
0
11
49.525
21
-6.989042
31
0
39
0
210
0
220
0
230
1
0
LINE
5
CA
100
AcDbEntity
8
1
62
256
6
ByLayer
370
18
48
1
60
0
100
AcDbLine
10
49.525
20
-2.244607
30
0
11
49.525
21
-6.301305
31
0
39
0
210
0
220
0
230
1
0
LINE
5
CB
100
AcDbEntity
8
1
62
256
6
ByLayer
370
18
48
1
60
0
100
AcDbLine
10
49.525
20
-2.244607
30
0
11
49.499849
21
-2.244607
31
0
39
0
210
0
220
0
230
1
0
LINE
5
CC
100
AcDbEntity
8
1
62
256
6
ByLayer
370
18
48
1
60
0
100
AcDbLine
10
49.499849
20
-6.301305
30
0
11
49.525
21
-6.301305
31
0
39
0
210
0
220
0
230
1
0
LINE
5
CD
100
AcDbEntity
8
1
62
256
6
ByLayer
370
13
48
1
60
0
100
AcDbLine
10
49.525
20
-7.157449
30
0
11
49.499849
21
-7.157449
31
0
39
0
210
0
220
0
230
1
0
LINE
5
CE
100
AcDbEntity
8
1
62
256
6
ByLayer
370
13
48
1
60
0
100
AcDbLine
10
49.525
20
-7.096029
30
0
11
49.499849
21
-7.096029
31
0
39
0
210
0
220
0
230
1
0
LINE
5
CF
100
AcDbEntity
8
1
62
256
6
ByLayer
370
13
48
1
60
0
100
AcDbLine
10
49.525
20
-6.989042
30
0
11
49.499849
21
-6.989042
31
0
39
0
210
0
220
0
230
1
0
LINE
5
D0
100
AcDbEntity
8
1
62
256
6
ByLayer
370
18
48
1
60
0
100
AcDbLine
10
38.764269
20
-34.447295
30
0
11
45.703443
21
-34.006921
31
0
39
0
210
0
220
0
230
1
0
LINE
5
D1
100
AcDbEntity
8
1
62
256
6
ByLayer
370
18
48
1
60
0
100
AcDbLine
10
38.399899
20
-30.273981
30
0
11
38.362625
21
-29.553181
31
0
39
0
210
0
220
0
230
1
0
LINE
5
D2
100
AcDbEntity
8
1
62
256
6
ByLayer
370
18
48
1
60
0
100
AcDbLine
10
38.486691
20
-26.924878
30
0
11
38.500001
21
-26.833016
31
0
39
0
210
0
220
0
230
1
0
LINE
5
D3
100
AcDbEntity
8
1
62
256
6
ByLayer
370
18
48
1
60
0
100
AcDbLine
10
38.362625
20
-29.553181
30
0
11
38.486691
21
-26.924878
31
0
39
0
210
0
220
0
230
1
0
LINE
5
D4
100
AcDbEntity
8
1
62
256
6
ByLayer
370
18
48
1
60
0
100
AcDbLine
10
46.467623
20
49.188806
30
0
11
46.467683
21
47.89578
31
0
39
0
210
0
220
0
230
1
0
LINE
5
D5
100
AcDbEntity
8
1
62
256
6
ByLayer
370
18
48
1
60
0
100
AcDbLine
10
38.764269
20
49.983265
30
0
11
45.703443
21
49.967373
31
0
39
0
210
0
220
0
230
1
0
LINE
5
D6
100
AcDbEntity
8
1
62
256
6
ByLayer
370
18
48
1
60
0
100
AcDbLine
10
38.000028
20
47.915173
30
0
11
38.000088
21
49.208198
31
0
39
0
210
0
220
0
230
1
0
LINE
5
D7
100
AcDbEntity
8
1
62
256
6
ByLayer
370
13
48
1
60
0
100
AcDbLine
10
49.525
20
16.92444
30
0
11
49.499849
21
16.92444
31
0
39
0
210
0
220
0
230
1
0
LINE
5
D8
100
AcDbEntity
8
1
62
256
6
ByLayer
370
18
48
1
60
0
100
AcDbLine
10
49.475
20
-35.546926
30
0
11
38.525
21
-35.546926
31
0
39
0
210
0
220
0
230
1
0
LINE
5
D9
100
AcDbEntity
8
1
62
256
6
ByLayer
370
18
48
1
60
0
100
AcDbLine
10
38.525
20
-34.428265
30
0
11
38.525
21
-35.546926
31
0
39
0
210
0
220
0
230
1
0
LINE
5
DA
100
AcDbEntity
8
1
62
256
6
ByLayer
370
18
48
1
60
0
100
AcDbLine
10
49.475
20
-31.32724
30
0
11
49.475
21
-35.546926
31
0
39
0
210
0
220
0
230
1
0
LINE
5
DB
100
AcDbEntity
8
1
62
256
6
ByLayer
370
18
48
1
60
0
100
AcDbLine
10
49.525
20
-32.841089
30
0
11
49.525
21
-33.351715
31
0
39
0
210
0
220
0
230
1
0
LINE
5
DC
100
AcDbEntity
8
1
62
256
6
ByLayer
370
18
48
1
60
0
100
AcDbLine
10
49.525
20
-32.474396
30
0
11
49.525
21
-32.695867
31
0
39
0
210
0
220
0
230
1
0
LINE
5
DD
100
AcDbEntity
8
1
62
256
6
ByLayer
370
18
48
1
60
0
100
AcDbLine
10
49.525
20
-32.695867
30
0
11
49.525
21
-32.841089
31
0
39
0
210
0
220
0
230
1
0
LINE
5
DE
100
AcDbEntity
8
1
62
256
6
ByLayer
370
13
48
1
60
0
100
AcDbLine
10
49.525
20
-31.906269
30
0
11
49.499849
21
-31.906269
31
0
39
0
210
0
220
0
230
1
0
LINE
5
DF
100
AcDbEntity
8
1
62
256
6
ByLayer
370
18
48
1
60
0
100
AcDbLine
10
49.525
20
-33.635455
30
0
11
49.525
21
-33.814705
31
0
39
0
210
0
220
0
230
1
0
LINE
5
E0
100
AcDbEntity
8
1
62
256
6
ByLayer
370
13
48
1
60
0
100
AcDbLine
10
49.525
20
-31.395643
30
0
11
49.499849
21
-31.395643
31
0
39
0
210
0
220
0
230
1
0
LINE
5
E1
100
AcDbEntity
8
1
62
256
6
ByLayer
370
18
48
1
60
0
100
AcDbLine
10
49.525
20
-33.814705
30
0
11
49.525
21
-33.919842
31
0
39
0
210
0
220
0
230
1
0
LINE
5
E2
100
AcDbEntity
8
1
62
256
6
ByLayer
370
13
48
1
60
0
100
AcDbLine
10
49.525
20
-32.190009
30
0
11
49.499849
21
-32.190009
31
0
39
0
210
0
220
0
230
1
0
LINE
5
E3
100
AcDbEntity
8
1
62
256
6
ByLayer
370
18
48
1
60
0
100
AcDbLine
10
49.525
20
-36.242606
30
0
11
49.525
21
-36.526346
31
0
39
0
210
0
220
0
230
1
0
LINE
5
E4
100
AcDbEntity
8
1
62
256
6
ByLayer
370
13
48
1
60
0
100
AcDbLine
10
49.525
20
-32.36926
30
0
11
49.499849
21
-32.36926
31
0
39
0
210
0
220
0
230
1
0
LINE
5
E5
100
AcDbEntity
8
1
62
256
6
ByLayer
370
18
48
1
60
0
100
AcDbLine
10
49.525
20
-34.797161
30
0
11
49.525
21
-34.286534
31
0
39
0
210
0
220
0
230
1
0
LINE
5
E6
100
AcDbEntity
8
1
62
256
6
ByLayer
370
18
48
1
60
0
100
AcDbLine
10
49.525
20
-34.141312
30
0
11
49.525
21
-33.919842
31
0
39
0
210
0
220
0
230
1
0
LINE
5
E7
100
AcDbEntity
8
1
62
256
6
ByLayer
370
13
48
1
60
0
100
AcDbLine
10
49.525
20
-33.351715
30
0
11
49.499849
21
-33.351715
31
0
39
0
210
0
220
0
230
1
0
LINE
5
E8
100
AcDbEntity
8
1
62
256
6
ByLayer
370
18
48
1
60
0
100
AcDbLine
10
49.525
20
-34.286534
30
0
11
49.525
21
-34.141312
31
0
39
0
210
0
220
0
230
1
0
LINE
5
E9
100
AcDbEntity
8
1
62
256
6
ByLayer
370
13
48
1
60
0
100
AcDbLine
10
49.525
20
-32.474396
30
0
11
49.499849
21
-32.474396
31
0
39
0
210
0
220
0
230
1
0
LINE
5
EA
100
AcDbEntity
8
1
62
256
6
ByLayer
370
18
48
1
60
0
100
AcDbLine
10
49.525
20
-35.260151
30
0
11
49.525
21
-35.0809
31
0
39
0
210
0
220
0
230
1
0
LINE
5
EB
100
AcDbEntity
8
1
62
256
6
ByLayer
370
13
48
1
60
0
100
AcDbLine
10
49.525
20
-32.695867
30
0
11
49.499849
21
-32.695867
31
0
39
0
210
0
220
0
230
1
0
LINE
5
EC
100
AcDbEntity
8
1
62
256
6
ByLayer
370
13
48
1
60
0
100
AcDbLine
10
49.525
20
-32.841089
30
0
11
49.499849
21
-32.841089
31
0
39
0
210
0
220
0
230
1
0
LINE
5
ED
100
AcDbEntity
8
1
62
256
6
ByLayer
370
18
48
1
60
0
100
AcDbLine
10
49.525
20
-35.365287
30
0
11
49.525
21
-35.260151
31
0
39
0
210
0
220
0
230
1
0
LINE
5
EE
100
AcDbEntity
8
1
62
256
6
ByLayer
370
13
48
1
60
0
100
AcDbLine
10
49.525
20
-33.635455
30
0
11
49.499849
21
-33.635455
31
0
39
0
210
0
220
0
230
1
0
LINE
5
EF
100
AcDbEntity
8
1
62
256
6
ByLayer
370
18
48
1
60
0
100
AcDbLine
10
49.525
20
-37.971792
30
0
11
49.525
21
-37.688052
31
0
39
0
210
0
220
0
230
1
0
LINE
5
F0
100
AcDbEntity
8
1
62
256
6
ByLayer
370
13
48
1
60
0
100
AcDbLine
10
49.525
20
-33.814705
30
0
11
49.499849
21
-33.814705
31
0
39
0
210
0
220
0
230
1
0
LINE
5
F1
100
AcDbEntity
8
1
62
256
6
ByLayer
370
18
48
1
60
0
100
AcDbLine
10
49.525
20
-35.73198
30
0
11
49.525
21
-36.242606
31
0
39
0
210
0
220
0
230
1
0
LINE
5
F2
100
AcDbEntity
8
1
62
256
6
ByLayer
370
18
48
1
60
0
100
AcDbLine
10
49.525
20
-35.586758
30
0
11
49.525
21
-35.365287
31
0
39
0
210
0
220
0
230
1
0
LINE
5
F3
100
AcDbEntity
8
1
62
256
6
ByLayer
370
13
48
1
60
0
100
AcDbLine
10
49.525
20
-34.797161
30
0
11
49.499849
21
-34.797161
31
0
39
0
210
0
220
0
230
1
0
LINE
5
F4
100
AcDbEntity
8
1
62
256
6
ByLayer
370
18
48
1
60
0
100
AcDbLine
10
49.525
20
-35.586758
30
0
11
49.525
21
-35.73198
31
0
39
0
210
0
220
0
230
1
0
LINE
5
F5
100
AcDbEntity
8
1
62
256
6
ByLayer
370
13
48
1
60
0
100
AcDbLine
10
49.525
20
-33.919842
30
0
11
49.499849
21
-33.919842
31
0
39
0
210
0
220
0
230
1
0
LINE
5
F6
100
AcDbEntity
8
1
62
256
6
ByLayer
370
18
48
1
60
0
100
AcDbLine
10
49.525
20
-36.526346
30
0
11
49.525
21
-36.705597
31
0
39
0
210
0
220
0
230
1
0
LINE
5
F7
100
AcDbEntity
8
1
62
256
6
ByLayer
370
13
48
1
60
0
100
AcDbLine
10
49.525
20
-34.141312
30
0
11
49.499849
21
-34.141312
31
0
39
0
210
0
220
0
230
1
0
LINE
5
F8
100
AcDbEntity
8
1
62
256
6
ByLayer
370
13
48
1
60
0
100
AcDbLine
10
49.525
20
-34.286534
30
0
11
49.499849
21
-34.286534
31
0
39
0
210
0
220
0
230
1
0
LINE
5
F9
100
AcDbEntity
8
1
62
256
6
ByLayer
370
18
48
1
60
0
100
AcDbLine
10
49.525
20
-36.705597
30
0
11
49.525
21
-36.810733
31
0
39
0
210
0
220
0
230
1
0
LINE
5
FA
100
AcDbEntity
8
1
62
256
6
ByLayer
370
13
48
1
60
0
100
AcDbLine
10
49.525
20
-35.0809
30
0
11
49.499849
21
-35.0809
31
0
39
0
210
0
220
0
230
1
0
LINE
5
FB
100
AcDbEntity
8
1
62
256
6
ByLayer
370
18
48
1
60
0
100
AcDbLine
10
49.525
20
-39.133498
30
0
11
49.525
21
-39.417237
31
0
39
0
210
0
220
0
230
1
0
LINE
5
FC
100
AcDbEntity
8
1
62
256
6
ByLayer
370
13
48
1
60
0
100
AcDbLine
10
49.525
20
-35.260151
30
0
11
49.499849
21
-35.260151
31
0
39
0
210
0
220
0
230
1
0
LINE
5
FD
100
AcDbEntity
8
1
62
256
6
ByLayer
370
18
48
1
60
0
100
AcDbLine
10
49.525
20
-37.688052
30
0
11
49.525
21
-37.177426
31
0
39
0
210
0
220
0
230
1
0
LINE
5
FE
100
AcDbEntity
8
1
62
256
6
ByLayer
370
18
48
1
60
0
100
AcDbLine
10
49.525
20
-37.032204
30
0
11
49.525
21
-36.810733
31
0
39
0
210
0
220
0
230
1
0
LINE
5
FF
100
AcDbEntity
8
1
62
256
6
ByLayer
370
13
48
1
60
0
100
AcDbLine
10
49.525
20
-36.242606
30
0
11
49.499849
21
-36.242606
31
0
39
0
210
0
220
0
230
1
0
LINE
5
100
100
AcDbEntity
8
1
62
256
6
ByLayer
370
18
48
1
60
0
100
AcDbLine
10
49.525
20
-37.177426
30
0
11
49.525
21
-37.032204
31
0
39
0
210
0
220
0
230
1
0
LINE
5
101
100
AcDbEntity
8
1
62
256
6
ByLayer
370
13
48
1
60
0
100
AcDbLine
10
49.525
20
-35.365287
30
0
11
49.499849
21
-35.365287
31
0
39
0
210
0
220
0
230
1
0
LINE
5
102
100
AcDbEntity
8
1
62
256
6
ByLayer
370
18
48
1
60
0
100
AcDbLine
10
49.525
20
-38.151042
30
0
11
49.525
21
-37.971792
31
0
39
0
210
0
220
0
230
1
0
LINE
5
103
100
AcDbEntity
8
1
62
256
6
ByLayer
370
13
48
1
60
0
100
AcDbLine
10
49.525
20
-35.586758
30
0
11
49.499849
21
-35.586758
31
0
39
0
210
0
220
0
230
1
0
LINE
5
104
100
AcDbEntity
8
1
62
256
6
ByLayer
370
13
48
1
60
0
100
AcDbLine
10
49.525
20
-35.73198
30
0
11
49.499849
21
-35.73198
31
0
39
0
210
0
220
0
230
1
0
LINE
5
105
100
AcDbEntity
8
1
62
256
6
ByLayer
370
18
48
1
60
0
100
AcDbLine
10
49.525
20
-38.256179
30
0
11
49.525
21
-38.151042
31
0
39
0
210
0
220
0
230
1
0
LINE
5
106
100
AcDbEntity
8
1
62
256
6
ByLayer
370
13
48
1
60
0
100
AcDbLine
10
49.525
20
-36.526346
30
0
11
49.499849
21
-36.526346
31
0
39
0
210
0
220
0
230
1
0
LINE
5
107
100
AcDbEntity
8
1
62
256
6
ByLayer
370
18
48
1
60
0
100
AcDbLine
10
49.525
20
-38.622872
30
0
11
49.525
21
-39.133498
31
0
39
0
210
0
220
0
230
1
0
LINE
5
108
100
AcDbEntity
8
1
62
256
6
ByLayer
370
13
48
1
60
0
100
AcDbLine
10
49.525
20
-36.705597
30
0
11
49.499849
21
-36.705597
31
0
39
0
210
0
220
0
230
1
0
LINE
5
109
100
AcDbEntity
8
1
62
256
6
ByLayer
370
18
48
1
60
0
100
AcDbLine
10
49.525
20
-38.256179
30
0
11
49.525
21
-38.477649
31
0
39
0
210
0
220
0
230
1
0
LINE
5
10A
100
AcDbEntity
8
1
62
256
6
ByLayer
370
18
48
1
60
0
100
AcDbLine
10
49.525
20
-38.477649
30
0
11
49.525
21
-38.622872
31
0
39
0
210
0
220
0
230
1
0
LINE
5
10B
100
AcDbEntity
8
1
62
256
6
ByLayer
370
13
48
1
60
0
100
AcDbLine
10
49.525
20
-37.688052
30
0
11
49.499849
21
-37.688052
31
0
39
0
210
0
220
0
230
1
0
LINE
5
10C
100
AcDbEntity
8
1
62
256
6
ByLayer
370
18
48
1
60
0
100
AcDbLine
10
49.525
20
-40.862683
30
0
11
49.525
21
-40.578943
31
0
39
0
210
0
220
0
230
1
0
LINE
5
10D
100
AcDbEntity
8
1
62
256
6
ByLayer
370
13
48
1
60
0
100
AcDbLine
10
49.525
20
-36.810733
30
0
11
49.499849
21
-36.810733
31
0
39
0
210
0
220
0
230
1
0
LINE
5
10E
100
AcDbEntity
8
1
62
256
6
ByLayer
370
18
48
1
60
0
100
AcDbLine
10
49.525
20
-39.417237
30
0
11
49.525
21
-39.596488
31
0
39
0
210
0
220
0
230
1
0
LINE
5
10F
100
AcDbEntity
8
1
62
256
6
ByLayer
370
13
48
1
60
0
100
AcDbLine
10
49.525
20
-37.032204
30
0
11
49.499849
21
-37.032204
31
0
39
0
210
0
220
0
230
1
0
LINE
5
110
100
AcDbEntity
8
1
62
256
6
ByLayer
370
13
48
1
60
0
100
AcDbLine
10
49.525
20
-37.177426
30
0
11
49.499849
21
-37.177426
31
0
39
0
210
0
220
0
230
1
0
LINE
5
111
100
AcDbEntity
8
1
62
256
6
ByLayer
370
18
48
1
60
0
100
AcDbLine
10
49.525
20
-39.596488
30
0
11
49.525
21
-39.701624
31
0
39
0
210
0
220
0
230
1
0
LINE
5
112
100
AcDbEntity
8
1
62
256
6
ByLayer
370
13
48
1
60
0
100
AcDbLine
10
49.525
20
-37.971792
30
0
11
49.499849
21
-37.971792
31
0
39
0
210
0
220
0
230
1
0
LINE
5
113
100
AcDbEntity
8
1
62
256
6
ByLayer
370
18
48
1
60
0
100
AcDbLine
10
49.525
20
-42.024389
30
0
11
49.525
21
-42.308129
31
0
39
0
210
0
220
0
230
1
0
LINE
5
114
100
AcDbEntity
8
1
62
256
6
ByLayer
370
13
48
1
60
0
100
AcDbLine
10
49.525
20
-38.151042
30
0
11
49.499849
21
-38.151042
31
0
39
0
210
0
220
0
230
1
0
LINE
5
115
100
AcDbEntity
8
1
62
256
6
ByLayer
370
18
48
1
60
0
100
AcDbLine
10
49.525
20
-40.578943
30
0
11
49.525
21
-40.068317
31
0
39
0
210
0
220
0
230
1
0
LINE
5
116
100
AcDbEntity
8
1
62
256
6
ByLayer
370
13
48
1
60
0
100
AcDbLine
10
49.525
20
-39.133498
30
0
11
49.499849
21
-39.133498
31
0
39
0
210
0
220
0
230
1
0
LINE
5
117
100
AcDbEntity
8
1
62
256
6
ByLayer
370
18
48
1
60
0
100
AcDbLine
10
49.525
20
-39.923095
30
0
11
49.525
21
-39.701624
31
0
39
0
210
0
220
0
230
1
0
LINE
5
118
100
AcDbEntity
8
1
62
256
6
ByLayer
370
13
48
1
60
0
100
AcDbLine
10
49.525
20
-38.256179
30
0
11
49.499849
21
-38.256179
31
0
39
0
210
0
220
0
230
1
0
LINE
5
119
100
AcDbEntity
8
1
62
256
6
ByLayer
370
18
48
1
60
0
100
AcDbLine
10
49.525
20
-40.068317
30
0
11
49.525
21
-39.923095
31
0
39
0
210
0
220
0
230
1
0
LINE
5
11A
100
AcDbEntity
8
1
62
256
6
ByLayer
370
13
48
1
60
0
100
AcDbLine
10
49.525
20
-38.477649
30
0
11
49.499849
21
-38.477649
31
0
39
0
210
0
220
0
230
1
0
LINE
5
11B
100
AcDbEntity
8
1
62
256
6
ByLayer
370
13
48
1
60
0
100
AcDbLine
10
49.525
20
-38.622872
30
0
11
49.499849
21
-38.622872
31
0
39
0
210
0
220
0
230
1
0
LINE
5
11C
100
AcDbEntity
8
1
62
256
6
ByLayer
370
18
48
1
60
0
100
AcDbLine
10
49.525
20
-41.041934
30
0
11
49.525
21
-40.862683
31
0
39
0
210
0
220
0
230
1
0
LINE
5
11D
100
AcDbEntity
8
1
62
256
6
ByLayer
370
18
48
1
60
0
100
AcDbLine
10
49.525
20
-41.14707
30
0
11
49.525
21
-41.041934
31
0
39
0
210
0
220
0
230
1
0
LINE
5
11E
100
AcDbEntity
8
1
62
256
6
ByLayer
370
13
48
1
60
0
100
AcDbLine
10
49.525
20
-39.417237
30
0
11
49.499849
21
-39.417237
31
0
39
0
210
0
220
0
230
1
0
LINE
5
11F
100
AcDbEntity
8
1
62
256
6
ByLayer
370
18
48
1
60
0
100
AcDbLine
10
49.525
20
-43.753574
30
0
11
49.525
21
-43.469835
31
0
39
0
210
0
220
0
230
1
0
LINE
5
120
100
AcDbEntity
8
1
62
256
6
ByLayer
370
13
48
1
60
0
100
AcDbLine
10
49.525
20
-39.596488
30
0
11
49.499849
21
-39.596488
31
0
39
0
210
0
220
0
230
1
0
LINE
5
121
100
AcDbEntity
8
1
62
256
6
ByLayer
370
18
48
1
60
0
100
AcDbLine
10
49.525
20
-41.513763
30
0
11
49.525
21
-42.024389
31
0
39
0
210
0
220
0
230
1
0
LINE
5
122
100
AcDbEntity
8
1
62
256
6
ByLayer
370
18
48
1
60
0
100
AcDbLine
10
49.525
20
-41.368541
30
0
11
49.525
21
-41.14707
31
0
39
0
210
0
220
0
230
1
0
LINE
5
123
100
AcDbEntity
8
1
62
256
6
ByLayer
370
13
48
1
60
0
100
AcDbLine
10
49.525
20
-40.578943
30
0
11
49.499849
21
-40.578943
31
0
39
0
210
0
220
0
230
1
0
LINE
5
124
100
AcDbEntity
8
1
62
256
6
ByLayer
370
18
48
1
60
0
100
AcDbLine
10
49.525
20
-41.368541
30
0
11
49.525
21
-41.513763
31
0
39
0
210
0
220
0
230
1
0
LINE
5
125
100
AcDbEntity
8
1
62
256
6
ByLayer
370
13
48
1
60
0
100
AcDbLine
10
49.525
20
-39.701624
30
0
11
49.499849
21
-39.701624
31
0
39
0
210
0
220
0
230
1
0
LINE
5
126
100
AcDbEntity
8
1
62
256
6
ByLayer
370
18
48
1
60
0
100
AcDbLine
10
49.525
20
-42.308129
30
0
11
49.525
21
-42.487379
31
0
39
0
210
0
220
0
230
1
0
LINE
5
127
100
AcDbEntity
8
1
62
256
6
ByLayer
370
13
48
1
60
0
100
AcDbLine
10
49.525
20
-39.923095
30
0
11
49.499849
21
-39.923095
31
0
39
0
210
0
220
0
230
1
0
LINE
5
128
100
AcDbEntity
8
1
62
256
6
ByLayer
370
13
48
1
60
0
100
AcDbLine
10
49.525
20
-40.068317
30
0
11
49.499849
21
-40.068317
31
0
39
0
210
0
220
0
230
1
0
LINE
5
129
100
AcDbEntity
8
1
62
256
6
ByLayer
370
18
48
1
60
0
100
AcDbLine
10
49.525
20
-42.487379
30
0
11
49.525
21
-42.592516
31
0
39
0
210
0
220
0
230
1
0
LINE
5
12A
100
AcDbEntity
8
1
62
256
6
ByLayer
370
13
48
1
60
0
100
AcDbLine
10
49.525
20
-40.862683
30
0
11
49.499939
21
-40.862683
31
0
39
0
210
0
220
0
230
1
0
LINE
5
12B
100
AcDbEntity
8
1
62
256
6
ByLayer
370
18
48
1
60
0
100
AcDbLine
10
49.525
20
-44.91528
30
0
11
49.525
21
-45.19902
31
0
39
0
210
0
220
0
230
1
0
LINE
5
12C
100
AcDbEntity
8
1
62
256
6
ByLayer
370
13
48
1
60
0
100
AcDbLine
10
49.525
20
-41.041934
30
0
11
49.499902
21
-41.041934
31
0
39
0
210
0
220
0
230
1
0
LINE
5
12D
100
AcDbEntity
8
1
62
256
6
ByLayer
370
18
48
1
60
0
100
AcDbLine
10
49.525
20
-43.469835
30
0
11
49.525
21
-42.959209
31
0
39
0
210
0
220
0
230
1
0
LINE
5
12E
100
AcDbEntity
8
1
62
256
6
ByLayer
370
18
48
1
60
0
100
AcDbLine
10
49.525
20
-42.813986
30
0
11
49.525
21
-42.592516
31
0
39
0
210
0
220
0
230
1
0
LINE
5
12F
100
AcDbEntity
8
1
62
256
6
ByLayer
370
13
48
1
60
0
100
AcDbLine
10
49.525
20
-42.024389
30
0
11
49.499947
21
-42.024389
31
0
39
0
210
0
220
0
230
1
0
LINE
5
130
100
AcDbEntity
8
1
62
256
6
ByLayer
370
18
48
1
60
0
100
AcDbLine
10
49.525
20
-42.959209
30
0
11
49.525
21
-42.813986
31
0
39
0
210
0
220
0
230
1
0
LINE
5
131
100
AcDbEntity
8
1
62
256
6
ByLayer
370
13
48
1
60
0
100
AcDbLine
10
49.525
20
-41.14707
30
0
11
49.499941
21
-41.14707
31
0
39
0
210
0
220
0
230
1
0
LINE
5
132
100
AcDbEntity
8
1
62
256
6
ByLayer
370
18
48
1
60
0
100
AcDbLine
10
49.525
20
-43.932825
30
0
11
49.525
21
-43.753574
31
0
39
0
210
0
220
0
230
1
0
LINE
5
133
100
AcDbEntity
8
1
62
256
6
ByLayer
370
13
48
1
60
0
100
AcDbLine
10
49.525
20
-41.513763
30
0
11
49.499932
21
-41.513763
31
0
39
0
210
0
220
0
230
1
0
LINE
5
134
100
AcDbEntity
8
1
62
256
6
ByLayer
370
13
48
1
60
0
100
AcDbLine
10
49.525
20
-41.368541
30
0
11
49.499958
21
-41.368541
31
0
39
0
210
0
220
0
230
1
0
LINE
5
135
100
AcDbEntity
8
1
62
256
6
ByLayer
370
18
48
1
60
0
100
AcDbLine
10
49.525
20
-44.037961
30
0
11
49.525
21
-43.932825
31
0
39
0
210
0
220
0
230
1
0
LINE
5
136
100
AcDbEntity
8
1
62
256
6
ByLayer
370
13
48
1
60
0
100
AcDbLine
10
49.525
20
-42.308129
30
0
11
49.499928
21
-42.308129
31
0
39
0
210
0
220
0
230
1
0
LINE
5
137
100
AcDbEntity
8
1
62
256
6
ByLayer
370
18
48
1
60
0
100
AcDbLine
10
38.5
20
-46.644466
30
0
11
38.5
21
-46.360726
31
0
39
0
210
0
220
0
230
1
0
LINE
5
138
100
AcDbEntity
8
1
62
256
6
ByLayer
370
13
48
1
60
0
100
AcDbLine
10
49.525
20
-42.487379
30
0
11
49.49996
21
-42.487379
31
0
39
0
210
0
220
0
230
1
0
LINE
5
139
100
AcDbEntity
8
1
62
256
6
ByLayer
370
18
48
1
60
0
100
AcDbLine
10
49.525
20
-46.644466
30
0
11
49.525
21
-46.360726
31
0
39
0
210
0
220
0
230
1
0
LINE
5
13A
100
AcDbEntity
8
1
62
256
6
ByLayer
370
13
48
1
60
0
100
AcDbLine
10
49.525
20
-43.469835
30
0
11
49.499979
21
-43.469835
31
0
39
0
210
0
220
0
230
1
0
LINE
5
13B
100
AcDbEntity
8
1
62
256
6
ByLayer
370
18
48
1
60
0
100
AcDbLine
10
49.525
20
-44.037961
30
0
11
49.525
21
-44.259432
31
0
39
0
210
0
220
0
230
1
0
LINE
5
13C
100
AcDbEntity
8
1
62
256
6
ByLayer
370
13
48
1
60
0
100
AcDbLine
10
49.525
20
-42.592516
30
0
11
49.499958
21
-42.592516
31
0
39
0
210
0
220
0
230
1
0
LINE
5
13D
100
AcDbEntity
8
1
62
256
6
ByLayer
370
18
48
1
60
0
100
AcDbLine
10
49.525
20
-44.259432
30
0
11
49.525
21
-44.404654
31
0
39
0
210
0
220
0
230
1
0
LINE
5
13E
100
AcDbEntity
8
1
62
256
6
ByLayer
370
13
48
1
60
0
100
AcDbLine
10
49.525
20
-42.813986
30
0
11
49.499974
21
-42.813986
31
0
39
0
210
0
220
0
230
1
0
LINE
5
13F
100
AcDbEntity
8
1
62
256
6
ByLayer
370
13
48
1
60
0
100
AcDbLine
10
49.525
20
-42.959209
30
0
11
49.499952
21
-42.959209
31
0
39
0
210
0
220
0
230
1
0
LINE
5
140
100
AcDbEntity
8
1
62
256
6
ByLayer
370
18
48
1
60
0
100
AcDbLine
10
49.525
20
-45.19902
30
0
11
49.525
21
-45.378271
31
0
39
0
210
0
220
0
230
1
0
LINE
5
141
100
AcDbEntity
8
1
62
256
6
ByLayer
370
18
48
1
60
0
100
AcDbLine
10
49.525
20
-44.404654
30
0
11
49.525
21
-44.91528
31
0
39
0
210
0
220
0
230
1
0
LINE
5
142
100
AcDbEntity
8
1
62
256
6
ByLayer
370
18
48
1
60
0
100
AcDbLine
10
38.5
20
-47.802212
30
0
11
38.5
21
-48.772236
31
0
39
0
210
0
220
0
230
1
0
LINE
5
143
100
AcDbEntity
8
1
62
256
6
ByLayer
370
13
48
1
60
0
100
AcDbLine
10
49.525
20
-43.932825
30
0
11
49.499849
21
-43.932825
31
0
39
0
210
0
220
0
230
1
0
LINE
5
144
100
AcDbEntity
8
1
62
256
6
ByLayer
370
18
48
1
60
0
100
AcDbLine
10
49.525
20
-47.802212
30
0
11
49.525
21
-48.772236
31
0
39
0
210
0
220
0
230
1
0
LINE
5
145
100
AcDbEntity
8
1
62
256
6
ByLayer
370
18
48
1
60
0
100
AcDbLine
10
38.5
20
-48.772236
30
0
11
49.525
21
-48.772236
31
0
39
0
210
0
220
0
230
1
0
LINE
5
146
100
AcDbEntity
8
1
62
256
6
ByLayer
370
18
48
1
60
0
100
AcDbLine
10
49.525
20
-45.378271
30
0
11
49.525
21
-45.483407
31
0
39
0
210
0
220
0
230
1
0
LINE
5
147
100
AcDbEntity
8
1
62
256
6
ByLayer
370
13
48
1
60
0
100
AcDbLine
10
49.525
20
-44.91528
30
0
11
49.499849
21
-44.91528
31
0
39
0
210
0
220
0
230
1
0
LINE
5
148
100
AcDbEntity
8
1
62
256
6
ByLayer
370
18
48
1
60
0
100
AcDbLine
10
38.5
20
-46.360726
30
0
11
38.5
21
-45.980669
31
0
39
0
210
0
220
0
230
1
0
LINE
5
149
100
AcDbEntity
8
1
62
256
6
ByLayer
370
13
48
1
60
0
100
AcDbLine
10
49.525
20
-44.037961
30
0
11
49.499849
21
-44.037961
31
0
39
0
210
0
220
0
230
1
0
LINE
5
14A
100
AcDbEntity
8
1
62
256
6
ByLayer
370
18
48
1
60
0
100
AcDbLine
10
49.525
20
-46.360726
30
0
11
49.525
21
-45.8501
31
0
39
0
210
0
220
0
230
1
0
LINE
5
14B
100
AcDbEntity
8
1
62
256
6
ByLayer
370
13
48
1
60
0
100
AcDbLine
10
49.525
20
-44.259432
30
0
11
49.499849
21
-44.259432
31
0
39
0
210
0
220
0
230
1
0
LINE
5
14C
100
AcDbEntity
8
1
62
256
6
ByLayer
370
13
48
1
60
0
100
AcDbLine
10
49.525
20
-44.404654
30
0
11
49.499849
21
-44.404654
31
0
39
0
210
0
220
0
230
1
0
LINE
5
14D
100
AcDbEntity
8
1
62
256
6
ByLayer
370
18
48
1
60
0
100
AcDbLine
10
49.525
20
-45.704878
30
0
11
49.525
21
-45.483407
31
0
39
0
210
0
220
0
230
1
0
LINE
5
14E
100
AcDbEntity
8
1
62
256
6
ByLayer
370
13
48
1
60
0
100
AcDbLine
10
49.525
20
-45.19902
30
0
11
49.499849
21
-45.19902
31
0
39
0
210
0
220
0
230
1
0
LINE
5
14F
100
AcDbEntity
8
1
62
256
6
ByLayer
370
18
48
1
60
0
100
AcDbLine
10
49.525
20
-45.8501
30
0
11
49.525
21
-45.704878
31
0
39
0
210
0
220
0
230
1
0
LINE
5
150
100
AcDbEntity
8
1
62
256
6
ByLayer
370
18
48
1
60
0
100
AcDbLine
10
38.5
20
-46.823716
30
0
11
38.5
21
-46.644466
31
0
39
0
210
0
220
0
230
1
0
LINE
5
151
100
AcDbEntity
8
1
62
256
6
ByLayer
370
18
48
1
60
0
100
AcDbLine
10
49.525
20
-46.823716
30
0
11
49.525
21
-46.644466
31
0
39
0
210
0
220
0
230
1
0
LINE
5
152
100
AcDbEntity
8
1
62
256
6
ByLayer
370
18
48
1
60
0
100
AcDbLine
10
38.5
20
-46.928853
30
0
11
38.5
21
-46.823716
31
0
39
0
210
0
220
0
230
1
0
LINE
5
153
100
AcDbEntity
8
1
62
256
6
ByLayer
370
13
48
1
60
0
100
AcDbLine
10
49.525
20
-45.378271
30
0
11
49.499849
21
-45.378271
31
0
39
0
210
0
220
0
230
1
0
LINE
5
154
100
AcDbEntity
8
1
62
256
6
ByLayer
370
18
48
1
60
0
100
AcDbLine
10
49.525
20
-46.928853
30
0
11
49.525
21
-46.823716
31
0
39
0
210
0
220
0
230
1
0
LINE
5
155
100
AcDbEntity
8
1
62
256
6
ByLayer
370
18
48
1
60
0
100
AcDbLine
10
38.5
20
-47.295546
30
0
11
38.5
21
-47.802212
31
0
39
0
210
0
220
0
230
1
0
LINE
5
156
100
AcDbEntity
8
1
62
256
6
ByLayer
370
13
48
1
60
0
100
AcDbLine
10
49.525
20
-46.360726
30
0
11
49.432321
21
-46.360726
31
0
39
0
210
0
220
0
230
1
0
LINE
5
157
100
AcDbEntity
8
1
62
256
6
ByLayer
370
13
48
1
60
0
100
AcDbLine
10
38.567356
20
-46.360726
30
0
11
38.5
21
-46.360726
31
0
39
0
210
0
220
0
230
1
0
LINE
5
158
100
AcDbEntity
8
1
62
256
6
ByLayer
370
18
48
1
60
0
100
AcDbLine
10
49.525
20
-47.295546
30
0
11
49.525
21
-47.802212
31
0
39
0
210
0
220
0
230
1
0
LINE
5
159
100
AcDbEntity
8
1
62
256
6
ByLayer
370
13
48
1
60
0
100
AcDbLine
10
49.525
20
-45.483407
30
0
11
49.499849
21
-45.483407
31
0
39
0
210
0
220
0
230
1
0
LINE
5
15A
100
AcDbEntity
8
1
62
256
6
ByLayer
370
18
48
1
60
0
100
AcDbLine
10
49.525
20
-47.802212
30
0
11
38.5
21
-47.802212
31
0
39
0
210
0
220
0
230
1
0
LINE
5
15B
100
AcDbEntity
8
1
62
256
6
ByLayer
370
13
48
1
60
0
100
AcDbLine
10
49.525
20
-45.704878
30
0
11
49.499849
21
-45.704878
31
0
39
0
210
0
220
0
230
1
0
LINE
5
15C
100
AcDbEntity
8
1
62
256
6
ByLayer
370
13
48
1
60
0
100
AcDbLine
10
49.525
20
-45.8501
30
0
11
49.499849
21
-45.8501
31
0
39
0
210
0
220
0
230
1
0
LINE
5
15D
100
AcDbEntity
8
1
62
256
6
ByLayer
370
18
48
1
60
0
100
AcDbLine
10
38.5
20
-47.150323
30
0
11
38.5
21
-46.928853
31
0
39
0
210
0
220
0
230
1
0
LINE
5
15E
100
AcDbEntity
8
1
62
256
6
ByLayer
370
18
48
1
60
0
100
AcDbLine
10
49.525
20
-47.150323
30
0
11
49.525
21
-46.928853
31
0
39
0
210
0
220
0
230
1
0
LINE
5
15F
100
AcDbEntity
8
1
62
256
6
ByLayer
370
13
48
1
60
0
100
AcDbLine
10
49.525
20
-46.644466
30
0
11
49.31363
21
-46.644466
31
0
39
0
210
0
220
0
230
1
0
LINE
5
160
100
AcDbEntity
8
1
62
256
6
ByLayer
370
13
48
1
60
0
100
AcDbLine
10
38.680018
20
-46.644466
30
0
11
38.5
21
-46.644466
31
0
39
0
210
0
220
0
230
1
0
LINE
5
161
100
AcDbEntity
8
1
62
256
6
ByLayer
370
18
48
1
60
0
100
AcDbLine
10
38.5
20
-47.150323
30
0
11
38.5
21
-47.295546
31
0
39
0
210
0
220
0
230
1
0
LINE
5
162
100
AcDbEntity
8
1
62
256
6
ByLayer
370
18
48
1
60
0
100
AcDbLine
10
49.525
20
-47.150323
30
0
11
49.525
21
-47.295546
31
0
39
0
210
0
220
0
230
1
0
LINE
5
163
100
AcDbEntity
8
1
62
256
6
ByLayer
370
13
48
1
60
0
100
AcDbLine
10
49.525
20
-46.823716
30
0
11
49.115869
21
-46.823716
31
0
39
0
210
0
220
0
230
1
0
LINE
5
164
100
AcDbEntity
8
1
62
256
6
ByLayer
370
13
48
1
60
0
100
AcDbLine
10
38.877606
20
-46.823716
30
0
11
38.5
21
-46.823716
31
0
39
0
210
0
220
0
230
1
0
LINE
5
165
100
AcDbEntity
8
1
62
256
6
ByLayer
370
18
48
1
60
0
100
AcDbLine
10
43.133975
20
23.841925
30
0
11
44.866025
21
23.841925
31
0
39
0
210
0
220
0
230
1
0
LINE
5
166
100
AcDbEntity
8
1
62
256
6
ByLayer
370
18
48
1
60
0
100
AcDbLine
10
43.133975
20
24.796243
30
0
11
43.133975
21
23.841925
31
0
39
0
210
0
220
0
230
1
0
LINE
5
167
100
AcDbEntity
8
1
62
256
6
ByLayer
370
18
48
1
60
0
100
AcDbLine
10
43.133975
20
23.841925
30
0
11
42.581437
21
23.000876
31
0
39
0
210
0
220
0
230
1
0
LINE
5
168
100
AcDbEntity
8
1
62
256
6
ByLayer
370
18
48
1
60
0
100
AcDbLine
10
44.866025
20
24.796243
30
0
11
44.866025
21
23.841925
31
0
39
0
210
0
220
0
230
1
0
LINE
5
169
100
AcDbEntity
8
1
62
256
6
ByLayer
370
13
48
1
60
0
100
AcDbLine
10
49.525
20
-46.928853
30
0
11
48.809925
21
-46.928853
31
0
39
0
210
0
220
0
230
1
0
LINE
5
16A
100
AcDbEntity
8
1
62
256
6
ByLayer
370
13
48
1
60
0
100
AcDbLine
10
39.196125
20
-46.928853
30
0
11
38.5
21
-46.928853
31
0
39
0
210
0
220
0
230
1
0
LINE
5
16B
100
AcDbEntity
8
1
62
256
6
ByLayer
370
18
48
1
60
0
100
AcDbLine
10
38.5
20
-45.980668
30
0
11
38.5
21
-43.714573
31
0
39
0
210
0
220
0
230
1
0
LINE
5
16C
100
AcDbEntity
8
1
62
256
6
ByLayer
370
13
48
1
60
0
100
AcDbLine
10
49.525
20
-47.150323
30
0
11
38.5
21
-47.150323
31
0
39
0
210
0
220
0
230
1
0
LINE
5
16D
100
AcDbEntity
8
1
62
256
6
ByLayer
370
13
48
1
60
0
100
AcDbLine
10
49.525
20
-47.295546
30
0
11
38.5
21
-47.295546
31
0
39
0
210
0
220
0
230
1
0
LINE
5
16E
100
AcDbEntity
8
1
62
256
6
ByLayer
370
13
48
1
60
0
100
AcDbLine
10
48.5
20
-46.973975
30
0
11
48.5
21
-44.738006
31
0
39
0
210
0
220
0
230
1
0
LINE
5
16F
100
AcDbEntity
8
1
62
256
6
ByLayer
370
18
48
1
60
0
100
AcDbLine
10
38.5
20
-35.200243
30
0
11
38.5
21
-36.18381
31
0
39
0
210
0
220
0
230
1
0
LINE
5
170
100
AcDbEntity
8
1
62
256
6
ByLayer
370
18
48
1
60
0
100
AcDbLine
10
43
20
-40.449897
30
0
11
43
21
-36.320038
31
0
39
0
210
0
220
0
230
1
0
LINE
5
171
100
AcDbEntity
8
1
62
256
6
ByLayer
370
13
48
1
60
0
100
AcDbLine
10
39.5
20
-44.738006
30
0
11
39.5
21
-46.973975
31
0
39
0
210
0
220
0
230
1
0
LINE
5
172
100
AcDbEntity
8
1
62
256
6
ByLayer
370
18
48
1
60
0
100
AcDbLine
10
39.5
20
-44.738006
30
0
11
48.5
21
-44.738006
31
0
39
0
210
0
220
0
230
1
0
LINE
5
173
100
AcDbEntity
8
1
62
256
6
ByLayer
370
18
48
1
60
0
100
AcDbLine
10
0
20
7.3275
30
0
11
0.4
21
6.9275
31
0
39
0
210
0
220
0
230
1
0
LINE
5
174
100
AcDbEntity
8
1
62
256
6
ByLayer
370
18
48
1
60
0
100
AcDbLine
10
0
20
24.5
30
0
11
0
21
7.3275
31
0
39
0
210
0
220
0
230
1
0
LINE
5
175
100
AcDbEntity
8
1
62
256
6
ByLayer
370
18
48
1
60
0
100
AcDbLine
10
40.1
20
-36.18381
30
0
11
42.9
21
-36.18381
31
0
39
0
210
0
220
0
230
1
0
LINE
5
176
100
AcDbEntity
8
1
62
256
6
ByLayer
370
18
48
1
60
0
100
AcDbLine
10
38.5
20
-35.200243
30
0
11
38.525094
21
-35.200243
31
0
39
0
210
0
220
0
230
1
0
LINE
5
177
100
AcDbEntity
8
1
62
256
6
ByLayer
370
18
48
1
60
0
100
AcDbLine
10
49.474906
20
-35.200243
30
0
11
49.5
21
-35.200243
31
0
39
0
210
0
220
0
230
1
0
LINE
5
178
100
AcDbEntity
8
1
62
256
6
ByLayer
370
18
48
1
60
0
100
AcDbLine
10
49.5
20
-43.714573
30
0
11
49.5
21
-36.18381
31
0
39
0
210
0
220
0
230
1
0
LINE
5
179
100
AcDbEntity
8
1
62
256
6
ByLayer
370
18
48
1
60
0
100
AcDbLine
10
38.5
20
-36.18381
30
0
11
38.5
21
-43.714573
31
0
39
0
210
0
220
0
230
1
0
LINE
5
17A
100
AcDbEntity
8
1
62
256
6
ByLayer
370
18
48
1
60
0
100
AcDbLine
10
42.9
20
-36.18381
30
0
11
49.5
21
-36.18381
31
0
39
0
210
0
220
0
230
1
0
LINE
5
17B
100
AcDbEntity
8
1
62
256
6
ByLayer
370
18
48
1
60
0
100
AcDbLine
10
40
20
-36.320038
30
0
11
40
21
-40.449897
31
0
39
0
210
0
220
0
230
1
0
LINE
5
17C
100
AcDbEntity
8
1
62
256
6
ByLayer
370
18
48
1
60
0
100
AcDbLine
10
38.5
20
-36.18381
30
0
11
40.1
21
-36.18381
31
0
39
0
210
0
220
0
230
1
0
LINE
5
17D
100
AcDbEntity
8
1
62
256
6
ByLayer
370
18
48
1
60
0
100
AcDbLine
10
0.4
20
-6.9275
30
0
11
0
21
-7.3275
31
0
39
0
210
0
220
0
230
1
0
LINE
5
17E
100
AcDbEntity
8
1
62
256
6
ByLayer
370
18
48
1
60
0
100
AcDbLine
10
0.4
20
25
30
0
11
0.4
21
6.9275
31
0
39
0
210
0
220
0
230
1
0
LINE
5
17F
100
AcDbEntity
8
1
62
256
6
ByLayer
370
13
48
1
60
0
100
AcDbLine
10
42.9
20
-37.34128
30
0
11
42.9
21
-36.18381
31
0
39
0
210
0
220
0
230
1
0
LINE
5
180
100
AcDbEntity
8
1
62
256
6
ByLayer
370
13
48
1
60
0
100
AcDbLine
10
40.1
20
-36.18381
30
0
11
40.1
21
-37.34128
31
0
39
0
210
0
220
0
230
1
0
LINE
5
181
100
AcDbEntity
8
1
62
256
6
ByLayer
370
18
48
1
60
0
100
AcDbLine
10
0
20
-24.5
30
0
11
0
21
-7.3275
31
0
39
0
210
0
220
0
230
1
0
LINE
5
182
100
AcDbEntity
8
1
62
256
6
ByLayer
370
18
48
1
60
0
100
AcDbLine
10
0.4
20
-6.9275
30
0
11
0.4
21
-25
31
0
39
0
210
0
220
0
230
1
0
LINE
5
183
100
AcDbEntity
8
1
62
256
6
ByLayer
370
18
48
1
60
0
100
AcDbLine
10
49.5
20
19.502071
30
0
11
49.5
21
22.144322
31
0
39
0
210
0
220
0
230
1
0
LINE
5
184
100
AcDbEntity
8
1
62
256
6
ByLayer
370
18
48
1
60
0
100
AcDbLine
10
38.5
20
22.144322
30
0
11
38.5
21
19.502071
31
0
39
0
210
0
220
0
230
1
0
LINE
5
185
100
AcDbEntity
8
1
62
256
6
ByLayer
370
18
48
1
60
0
100
AcDbLine
10
39.5
20
44.712081
30
0
11
48.5
21
44.712081
31
0
39
0
210
0
220
0
230
1
0
LINE
5
186
100
AcDbEntity
8
1
62
256
6
ByLayer
370
18
48
1
60
0
100
AcDbLine
10
49.5
20
43.88679
30
0
11
49.5
21
41.601697
31
0
39
0
210
0
220
0
230
1
0
LINE
5
187
100
AcDbEntity
8
1
62
256
6
ByLayer
370
18
48
1
60
0
100
AcDbLine
10
38.5
20
41.601697
30
0
11
38.5
21
43.88679
31
0
39
0
210
0
220
0
230
1
0
LINE
5
188
100
AcDbEntity
8
1
62
256
6
ByLayer
370
18
48
1
60
0
100
AcDbLine
10
38.124095
20
42.641522
30
0
11
38.000028
21
47.915173
31
0
39
0
210
0
220
0
230
1
0
LINE
5
189
100
AcDbEntity
8
1
62
256
6
ByLayer
370
18
48
1
60
0
100
AcDbLine
10
7
20
5.4275
30
0
11
7
21
-5.4275
31
0
39
0
210
0
220
0
230
1
0
LINE
5
18A
100
AcDbEntity
8
1
62
256
6
ByLayer
370
18
48
1
60
0
100
AcDbLine
10
38.000028
20
47.915173
30
0
11
46.467683
21
47.89578
31
0
39
0
210
0
220
0
230
1
0
LINE
5
18B
100
AcDbEntity
8
1
62
256
6
ByLayer
370
18
48
1
60
0
100
AcDbLine
10
0.9
20
25.5
30
0
11
0.9
21
6.4275
31
0
39
0
210
0
220
0
230
1
0
LINE
5
18C
100
AcDbEntity
8
1
62
256
6
ByLayer
370
18
48
1
60
0
100
AcDbLine
10
0.9
20
6.4275
30
0
11
1.1
21
6.2275
31
0
39
0
210
0
220
0
230
1
0
LINE
5
18D
100
AcDbEntity
8
1
62
256
6
ByLayer
370
18
48
1
60
0
100
AcDbLine
10
6.2
20
6.2275
30
0
11
1.1
21
6.2275
31
0
39
0
210
0
220
0
230
1
0
LINE
5
18E
100
AcDbEntity
8
1
62
256
6
ByLayer
370
18
48
1
60
0
100
AcDbLine
10
6.2
20
-6.2275
30
0
11
7
21
-5.4275
31
0
39
0
210
0
220
0
230
1
0
LINE
5
18F
100
AcDbEntity
8
1
62
256
6
ByLayer
370
13
48
1
60
0
100
AcDbLine
10
48.5
20
41.601688
30
0
11
48.5
21
44.712081
31
0
39
0
210
0
220
0
230
1
0
LINE
5
190
100
AcDbEntity
8
1
62
256
6
ByLayer
370
18
48
1
60
0
100
AcDbLine
10
1.1
20
-6.2275
30
0
11
6.2
21
-6.2275
31
0
39
0
210
0
220
0
230
1
0
LINE
5
191
100
AcDbEntity
8
1
62
256
6
ByLayer
370
18
48
1
60
0
100
AcDbLine
10
1.1
20
-6.2275
30
0
11
0.9
21
-6.4275
31
0
39
0
210
0
220
0
230
1
0
LINE
5
192
100
AcDbEntity
8
1
62
256
6
ByLayer
370
13
48
1
60
0
100
AcDbLine
10
39.5
20
44.712081
30
0
11
39.5
21
41.601688
31
0
39
0
210
0
220
0
230
1
0
LINE
5
193
100
AcDbEntity
8
1
62
256
6
ByLayer
370
18
48
1
60
0
100
AcDbLine
10
0.9
20
-25.5
30
0
11
0.9
21
-6.4275
31
0
39
0
210
0
220
0
230
1
0
LINE
5
194
100
AcDbEntity
8
1
62
256
6
ByLayer
370
18
48
1
60
0
100
AcDbLine
10
7
20
5.4275
30
0
11
6.2
21
6.2275
31
0
39
0
210
0
220
0
230
1
0
LINE
5
195
100
AcDbEntity
8
1
62
256
6
ByLayer
370
18
48
1
60
0
100
AcDbLine
10
49.5
20
-6.936823
30
0
11
49.5
21
-6.754044
31
0
39
0
210
0
220
0
230
1
0
LINE
5
196
100
AcDbEntity
8
1
62
256
6
ByLayer
370
18
48
1
60
0
100
AcDbLine
10
38.5
20
-6.754044
30
0
11
38.5
21
-6.936823
31
0
39
0
210
0
220
0
230
1
0
LINE
5
197
100
AcDbEntity
8
1
62
256
6
ByLayer
370
18
48
1
60
0
100
AcDbLine
10
49.5
20
-7.251401
30
0
11
49.5
21
-6.936823
31
0
39
0
210
0
220
0
230
1
0
LINE
5
198
100
AcDbEntity
8
1
62
256
6
ByLayer
370
18
48
1
60
0
100
AcDbLine
10
38.5
20
-6.936823
30
0
11
38.5
21
-7.251401
31
0
39
0
210
0
220
0
230
1
0
LINE
5
199
100
AcDbEntity
8
1
62
256
6
ByLayer
370
18
48
1
60
0
100
AcDbLine
10
49.5
20
-6.936823
30
0
11
49.474906
21
-6.936823
31
0
39
0
210
0
220
0
230
1
0
LINE
5
19A
100
AcDbEntity
8
1
62
256
6
ByLayer
370
18
48
1
60
0
100
AcDbLine
10
38.525094
20
-6.936823
30
0
11
38.5
21
-6.936823
31
0
39
0
210
0
220
0
230
1
0
LINE
5
19B
100
AcDbEntity
8
1
62
256
6
ByLayer
370
13
48
1
60
0
100
AcDbLine
10
37.7
20
-25.5
30
0
11
37.7
21
25.5
31
0
39
0
210
0
220
0
230
1
0
LINE
5
19C
100
AcDbEntity
8
1
62
256
6
ByLayer
370
18
48
1
60
0
100
AcDbLine
10
49.5
20
-6.754044
30
0
11
49.5
21
-1.728861
31
0
39
0
210
0
220
0
230
1
0
LINE
5
19D
100
AcDbEntity
8
1
62
256
6
ByLayer
370
18
48
1
60
0
100
AcDbLine
10
38.5
20
-1.728861
30
0
11
38.5
21
-6.754044
31
0
39
0
210
0
220
0
230
1
0
LINE
5
19E
100
AcDbEntity
8
1
62
256
6
ByLayer
370
18
48
1
60
0
100
AcDbLine
10
38.5
20
-6.754044
30
0
11
38.525094
21
-6.754044
31
0
39
0
210
0
220
0
230
1
0
LINE
5
19F
100
AcDbEntity
8
1
62
256
6
ByLayer
370
18
48
1
60
0
100
AcDbLine
10
49.474906
20
-6.754044
30
0
11
49.5
21
-6.754044
31
0
39
0
210
0
220
0
230
1
0
LINE
5
1A0
100
AcDbEntity
8
1
62
256
6
ByLayer
370
18
48
1
60
0
100
AcDbLine
10
40.1
20
19.502047
30
0
11
42.9
21
19.502047
31
0
39
0
210
0
220
0
230
1
0
LINE
5
1A1
100
AcDbEntity
8
1
62
256
6
ByLayer
370
18
48
1
60
0
100
AcDbLine
10
49.5
20
-11.100301
30
0
11
49.5
21
-7.251401
31
0
39
0
210
0
220
0
230
1
0
LINE
5
1A2
100
AcDbEntity
8
1
62
256
6
ByLayer
370
18
48
1
60
0
100
AcDbLine
10
38.5
20
-7.251401
30
0
11
38.5
21
-11.100301
31
0
39
0
210
0
220
0
230
1
0
LINE
5
1A3
100
AcDbEntity
8
1
62
256
6
ByLayer
370
18
48
1
60
0
100
AcDbLine
10
38.5
20
-7.251401
30
0
11
38.525094
21
-7.251401
31
0
39
0
210
0
220
0
230
1
0
LINE
5
1A4
100
AcDbEntity
8
1
62
256
6
ByLayer
370
18
48
1
60
0
100
AcDbLine
10
49.474906
20
-7.251401
30
0
11
49.5
21
-7.251401
31
0
39
0
210
0
220
0
230
1
0
LINE
5
1A5
100
AcDbEntity
8
1
62
256
6
ByLayer
370
18
48
1
60
0
100
AcDbLine
10
49.5
20
-11.795788
30
0
11
49.5
21
-11.100301
31
0
39
0
210
0
220
0
230
1
0
LINE
5
1A6
100
AcDbEntity
8
1
62
256
6
ByLayer
370
18
48
1
60
0
100
AcDbLine
10
38.5
20
-11.100301
30
0
11
38.5
21
-11.795788
31
0
39
0
210
0
220
0
230
1
0
LINE
5
1A7
100
AcDbEntity
8
1
62
256
6
ByLayer
370
18
48
1
60
0
100
AcDbLine
10
49.5
20
-36.18381
30
0
11
49.5
21
-35.200243
31
0
39
0
210
0
220
0
230
1
0
LINE
5
1A8
100
AcDbEntity
8
1
62
256
6
ByLayer
370
18
48
1
60
0
100
AcDbLine
10
38.5
20
-11.100301
30
0
11
38.525094
21
-11.100301
31
0
39
0
210
0
220
0
230
1
0
LINE
5
1A9
100
AcDbEntity
8
1
62
256
6
ByLayer
370
18
48
1
60
0
100
AcDbLine
10
49.474906
20
-11.100301
30
0
11
49.5
21
-11.100301
31
0
39
0
210
0
220
0
230
1
0
LINE
5
1AA
100
AcDbEntity
8
1
62
256
6
ByLayer
370
13
48
1
60
0
100
AcDbLine
10
40.1
20
19.502047
30
0
11
40.1
21
18.494412
31
0
39
0
210
0
220
0
230
1
0
LINE
5
1AB
100
AcDbEntity
8
1
62
256
6
ByLayer
370
13
48
1
60
0
100
AcDbLine
10
42.9
20
18.494412
30
0
11
42.9
21
19.502047
31
0
39
0
210
0
220
0
230
1
0
LINE
5
1AC
100
AcDbEntity
8
1
62
256
6
ByLayer
370
18
48
1
60
0
100
AcDbLine
10
40.1
20
-11.795788
30
0
11
42.9
21
-11.795788
31
0
39
0
210
0
220
0
230
1
0
LINE
5
1AD
100
AcDbEntity
8
1
62
256
6
ByLayer
370
18
48
1
60
0
100
AcDbLine
10
48.5
20
-24.939789
30
0
11
39.5
21
-24.939789
31
0
39
0
210
0
220
0
230
1
0
LINE
5
1AE
100
AcDbEntity
8
1
62
256
6
ByLayer
370
18
48
1
60
0
100
AcDbLine
10
49.5
20
-17.934952
30
0
11
49.5
21
-24.343451
31
0
39
0
210
0
220
0
230
1
0
LINE
5
1AF
100
AcDbEntity
8
1
62
256
6
ByLayer
370
18
48
1
60
0
100
AcDbLine
10
49.5
20
-17.934952
30
0
11
49.5
21
-11.795788
31
0
39
0
210
0
220
0
230
1
0
LINE
5
1B0
100
AcDbEntity
8
1
62
256
6
ByLayer
370
13
48
1
60
0
100
AcDbLine
10
42.9
20
-14.417055
30
0
11
42.9
21
-11.795788
31
0
39
0
210
0
220
0
230
1
0
LINE
5
1B1
100
AcDbEntity
8
1
62
256
6
ByLayer
370
13
48
1
60
0
100
AcDbLine
10
40.1
20
-11.795788
30
0
11
40.1
21
-14.417055
31
0
39
0
210
0
220
0
230
1
0
LINE
5
1B2
100
AcDbEntity
8
1
62
256
6
ByLayer
370
13
48
1
60
0
100
AcDbLine
10
48.986816
20
-24.949461
30
0
11
39.013184
21
-24.949461
31
0
39
0
210
0
220
0
230
1
0
LINE
5
1B3
100
AcDbEntity
8
1
62
256
6
ByLayer
370
18
48
1
60
0
100
AcDbLine
10
38.5
20
-11.795788
30
0
11
38.5
21
-17.934952
31
0
39
0
210
0
220
0
230
1
0
LINE
5
1B4
100
AcDbEntity
8
1
62
256
6
ByLayer
370
18
48
1
60
0
100
AcDbLine
10
42.9
20
-11.795788
30
0
11
49.5
21
-11.795788
31
0
39
0
210
0
220
0
230
1
0
LINE
5
1B5
100
AcDbEntity
8
1
62
256
6
ByLayer
370
13
48
1
60
0
100
AcDbLine
10
48.5
20
-24.939789
30
0
11
48.5
21
-18.557015
31
0
39
0
210
0
220
0
230
1
0
LINE
5
1B6
100
AcDbEntity
8
1
62
256
6
ByLayer
370
18
48
1
60
0
100
AcDbLine
10
38.5
20
18.35073
30
0
11
38.5
21
19.502047
31
0
39
0
210
0
220
0
230
1
0
LINE
5
1B7
100
AcDbEntity
8
1
62
256
6
ByLayer
370
18
48
1
60
0
100
AcDbLine
10
42.9
20
19.502047
30
0
11
49.5
21
19.502047
31
0
39
0
210
0
220
0
230
1
0
LINE
5
1B8
100
AcDbEntity
8
1
62
256
6
ByLayer
370
18
48
1
60
0
100
AcDbLine
10
46.467683
20
-32.533147
30
0
11
46.167346
21
-31.533337
31
0
39
0
210
0
220
0
230
1
0
LINE
5
1B9
100
AcDbEntity
8
1
62
256
6
ByLayer
370
18
48
1
60
0
100
AcDbLine
10
43
20
-15.617258
30
0
11
43
21
-11.933243
31
0
39
0
210
0
220
0
230
1
0
LINE
5
1BA
100
AcDbEntity
8
1
62
256
6
ByLayer
370
18
48
1
60
0
100
AcDbLine
10
38.000028
20
-33.070522
30
0
11
38.362625
21
-29.553181
31
0
39
0
210
0
220
0
230
1
0
LINE
5
1BB
100
AcDbEntity
8
1
62
256
6
ByLayer
370
18
48
1
60
0
100
AcDbLine
10
40
20
-11.933243
30
0
11
40
21
-15.617258
31
0
39
0
210
0
220
0
230
1
0
LINE
5
1BC
100
AcDbEntity
8
1
62
256
6
ByLayer
370
13
48
1
60
0
100
AcDbLine
10
39.5
20
-18.557015
30
0
11
39.5
21
-24.939789
31
0
39
0
210
0
220
0
230
1
0
LINE
5
1BD
100
AcDbEntity
8
1
62
256
6
ByLayer
370
18
48
1
60
0
100
AcDbLine
10
38.5
20
-11.795788
30
0
11
40.1
21
-11.795788
31
0
39
0
210
0
220
0
230
1
0
LINE
5
1BE
100
AcDbEntity
8
1
62
256
6
ByLayer
370
18
48
1
60
0
100
AcDbLine
10
39.5
20
-18.557015
30
0
11
48.5
21
-18.557015
31
0
39
0
210
0
220
0
230
1
0
LINE
5
1BF
100
AcDbEntity
8
1
62
256
6
ByLayer
370
18
48
1
60
0
100
AcDbLine
10
38.5
20
-24.343451
30
0
11
38.5
21
-17.934952
31
0
39
0
210
0
220
0
230
1
0
LINE
5
1C0
100
AcDbEntity
8
1
62
256
6
ByLayer
370
18
48
1
60
0
100
AcDbLine
10
49.5
20
18.35073
30
0
11
49.5
21
19.502047
31
0
39
0
210
0
220
0
230
1
0
LINE
5
1C1
100
AcDbEntity
8
1
62
256
6
ByLayer
370
18
48
1
60
0
100
AcDbLine
10
43
20
18.494429
30
0
11
43
21
19.443884
31
0
39
0
210
0
220
0
230
1
0
LINE
5
1C2
100
AcDbEntity
8
1
62
256
6
ByLayer
370
18
48
1
60
0
100
AcDbLine
10
40
20
19.443884
30
0
11
40
21
18.494429
31
0
39
0
210
0
220
0
230
1
0
LINE
5
1C3
100
AcDbEntity
8
1
62
256
6
ByLayer
370
18
48
1
60
0
100
AcDbLine
10
46.467623
20
-33.423516
30
0
11
46.467683
21
-32.533147
31
0
39
0
210
0
220
0
230
1
0
LINE
5
1C4
100
AcDbEntity
8
1
62
256
6
ByLayer
370
18
48
1
60
0
100
AcDbLine
10
38.5
20
19.502047
30
0
11
40.1
21
19.502047
31
0
39
0
210
0
220
0
230
1
0
LINE
5
1C5
100
AcDbEntity
8
1
62
256
6
ByLayer
370
18
48
1
60
0
100
AcDbLine
10
49.5
20
-35.200243
30
0
11
49.5
21
-31.32559
31
0
39
0
210
0
220
0
230
1
0
LINE
5
1C6
100
AcDbEntity
8
1
62
256
6
ByLayer
370
18
48
1
60
0
100
AcDbLine
10
39.5
20
18.494425
30
0
11
48.5
21
18.494425
31
0
39
0
210
0
220
0
230
1
0
LINE
5
1C7
100
AcDbEntity
8
1
62
256
6
ByLayer
370
18
48
1
60
0
100
AcDbLine
10
49.5
20
18.350721
30
0
11
49.5
21
11.55383
31
0
39
0
210
0
220
0
230
1
0
LINE
5
1C8
100
AcDbEntity
8
1
62
256
6
ByLayer
370
18
48
1
60
0
100
AcDbLine
10
38.5
20
-34.428456
30
0
11
38.5
21
-35.200243
31
0
39
0
210
0
220
0
230
1
0
LINE
5
1C9
100
AcDbEntity
8
1
62
256
6
ByLayer
370
18
48
1
60
0
100
AcDbLine
10
38.5
20
11.55383
30
0
11
38.5
21
18.350721
31
0
39
0
210
0
220
0
230
1
0
LINE
5
1CA
100
AcDbEntity
8
1
62
256
6
ByLayer
370
18
48
1
60
0
100
AcDbLine
10
48.5
20
11.703787
30
0
11
39.5
21
11.703787
31
0
39
0
210
0
220
0
230
1
0
LINE
5
1CB
100
AcDbEntity
8
1
62
256
6
ByLayer
370
18
48
1
60
0
100
AcDbLine
10
38.124095
20
-30.442219
30
0
11
38.486691
21
-26.924878
31
0
39
0
210
0
220
0
230
1
0
LINE
5
1CC
100
AcDbEntity
8
1
62
256
6
ByLayer
370
18
48
1
60
0
100
AcDbLine
10
46.467683
20
-32.533147
30
0
11
46.515904
21
-31.5116
31
0
39
0
210
0
220
0
230
1
0
LINE
5
1CD
100
AcDbEntity
8
1
62
256
6
ByLayer
370
13
48
1
60
0
100
AcDbLine
10
48.5
20
11.703787
30
0
11
48.5
21
18.494425
31
0
39
0
210
0
220
0
230
1
0
LINE
5
1CE
100
AcDbEntity
8
1
62
256
6
ByLayer
370
18
48
1
60
0
100
AcDbLine
10
38.124095
20
-30.442219
30
0
11
38.000028
21
-33.070522
31
0
39
0
210
0
220
0
230
1
0
LINE
5
1CF
100
AcDbEntity
8
1
62
256
6
ByLayer
370
18
48
1
60
0
100
AcDbLine
10
38.000028
20
-33.070522
30
0
11
38.000088
21
-33.960883
31
0
39
0
210
0
220
0
230
1
0
LINE
5
1D0
100
AcDbEntity
8
1
62
256
6
ByLayer
370
13
48
1
60
0
100
AcDbLine
10
48.986816
20
11.588411
30
0
11
39.013184
21
11.588411
31
0
39
0
210
0
220
0
230
1
0
LINE
5
1D1
100
AcDbEntity
8
1
62
256
6
ByLayer
370
18
48
1
60
0
100
AcDbLine
10
49.525
20
-1.552627
30
0
11
49.525
21
0.902029
31
0
39
0
210
0
220
0
230
1
0
LINE
5
1D2
100
AcDbEntity
8
1
62
256
6
ByLayer
370
13
48
1
60
0
100
AcDbLine
10
39.5
20
18.494425
30
0
11
39.5
21
11.703787
31
0
39
0
210
0
220
0
230
1
0
LINE
5
1D3
100
AcDbEntity
8
1
62
256
6
ByLayer
370
18
48
1
60
0
100
AcDbLine
10
46.566682
20
0.643299
30
0
11
49.525
21
0.902029
31
0
39
0
210
0
220
0
230
1
0
LINE
5
1D4
100
AcDbEntity
8
1
62
256
6
ByLayer
370
18
48
1
60
0
100
AcDbLine
10
49.525
20
11.572337
30
0
11
49.525
21
11.529325
31
0
39
0
210
0
220
0
230
1
0
LINE
5
1D5
100
AcDbEntity
8
1
62
256
6
ByLayer
370
18
48
1
60
0
100
AcDbLine
10
38.5
20
11.572337
30
0
11
38.5
21
11.529325
31
0
39
0
210
0
220
0
230
1
0
LINE
5
1D6
100
AcDbEntity
8
1
62
256
6
ByLayer
370
18
48
1
60
0
100
AcDbLine
10
49.525
20
11.529325
30
0
11
49.525
21
11.031425
31
0
39
0
210
0
220
0
230
1
0
LINE
5
1D7
100
AcDbEntity
8
1
62
256
6
ByLayer
370
18
48
1
60
0
100
AcDbLine
10
38.5
20
11.529325
30
0
11
38.5
21
11.031425
31
0
39
0
210
0
220
0
230
1
0
LINE
5
1D8
100
AcDbEntity
8
1
62
256
6
ByLayer
370
18
48
1
60
0
100
AcDbLine
10
49.525
20
3.189804
30
0
11
49.525
21
4.473299
31
0
39
0
210
0
220
0
230
1
0
LINE
5
1D9
100
AcDbEntity
8
1
62
256
6
ByLayer
370
18
48
1
60
0
100
AcDbLine
10
46.197742
20
2.898807
30
0
11
49.525
21
3.189804
31
0
39
0
210
0
220
0
230
1
0
LINE
5
1DA
100
AcDbEntity
8
1
62
256
6
ByLayer
370
18
48
1
60
0
100
AcDbLine
10
38.5
20
5.517735
30
0
11
38.5
21
5.595484
31
0
39
0
210
0
220
0
230
1
0
LINE
5
1DB
100
AcDbEntity
8
1
62
256
6
ByLayer
370
18
48
1
60
0
100
AcDbLine
10
45.609867
20
5.028615
30
0
11
45.515407
21
6.213818
31
0
39
0
210
0
220
0
230
1
0
LINE
5
1DC
100
AcDbEntity
8
1
62
256
6
ByLayer
370
18
48
1
60
0
100
AcDbLine
10
45.690982
20
4.734733
30
0
11
45.789855
21
4.67062
31
0
39
0
210
0
220
0
230
1
0
LINE
5
1DD
100
AcDbEntity
8
1
62
256
6
ByLayer
370
18
48
1
60
0
100
AcDbLine
10
45.675923
20
6.100124
30
0
11
45.789855
21
4.67062
31
0
39
0
210
0
220
0
230
1
0
LINE
5
1DE
100
AcDbEntity
8
1
62
256
6
ByLayer
370
13
48
1
60
0
100
AcDbLine
10
49.525
20
11.529325
30
0
11
38.5
21
11.529325
31
0
39
0
210
0
220
0
230
1
0
LINE
5
1DF
100
AcDbEntity
8
1
62
256
6
ByLayer
370
18
48
1
60
0
100
AcDbLine
10
45.789855
20
4.67062
30
0
11
45.827941
21
4.238511
31
0
39
0
210
0
220
0
230
1
0
LINE
5
1E0
100
AcDbEntity
8
1
62
256
6
ByLayer
370
18
48
1
60
0
100
AcDbLine
10
45.929907
20
4.15643
30
0
11
45.962107
21
3.752413
31
0
39
0
210
0
220
0
230
1
0
LINE
5
1E1
100
AcDbEntity
8
1
62
256
6
ByLayer
370
18
48
1
60
0
100
AcDbLine
10
45.801126
20
4.66856
30
0
11
45.83843
21
4.200499
31
0
39
0
210
0
220
0
230
1
0
LINE
5
1E2
100
AcDbEntity
8
1
62
256
6
ByLayer
370
18
48
1
60
0
100
AcDbLine
10
45.675923
20
6.100124
30
0
11
45.515407
21
6.213818
31
0
39
0
210
0
220
0
230
1
0
LINE
5
1E3
100
AcDbEntity
8
1
62
256
6
ByLayer
370
18
48
1
60
0
100
AcDbLine
10
49.525
20
7.533632
30
0
11
49.525
21
4.473299
31
0
39
0
210
0
220
0
230
1
0
LINE
5
1E4
100
AcDbEntity
8
1
62
256
6
ByLayer
370
18
48
1
60
0
100
AcDbLine
10
38.5
20
7.533632
30
0
11
38.5
21
5.595484
31
0
39
0
210
0
220
0
230
1
0
LINE
5
1E5
100
AcDbEntity
8
1
62
256
6
ByLayer
370
18
48
1
60
0
100
AcDbLine
10
45.515407
20
6.213818
30
0
11
38.5
21
5.595484
31
0
39
0
210
0
220
0
230
1
0
LINE
5
1E6
100
AcDbEntity
8
1
62
256
6
ByLayer
370
18
48
1
60
0
100
AcDbLine
10
49.525
20
16.92444
30
0
11
49.525
21
16.903684
31
0
39
0
210
0
220
0
230
1
0
LINE
5
1E7
100
AcDbEntity
8
1
62
256
6
ByLayer
370
18
48
1
60
0
100
AcDbLine
10
49.525
20
17.284976
30
0
11
49.525
21
16.92444
31
0
39
0
210
0
220
0
230
1
0
LINE
5
1E8
100
AcDbEntity
8
1
62
256
6
ByLayer
370
18
48
1
60
0
100
AcDbLine
10
49.525
20
4.473299
30
0
11
45.929907
21
4.15643
31
0
39
0
210
0
220
0
230
1
0
LINE
5
1E9
100
AcDbEntity
8
1
62
256
6
ByLayer
370
18
48
1
60
0
100
AcDbLine
10
49.525
20
11.031425
30
0
11
49.525
21
7.533632
31
0
39
0
210
0
220
0
230
1
0
LINE
5
1EA
100
AcDbEntity
8
1
62
256
6
ByLayer
370
18
48
1
60
0
100
AcDbLine
10
49.525
20
11.031425
30
0
11
38.5
21
11.031425
31
0
39
0
210
0
220
0
230
1
0
LINE
5
1EB
100
AcDbEntity
8
1
62
256
6
ByLayer
370
18
48
1
60
0
100
AcDbLine
10
38.5
20
11.031425
30
0
11
38.5
21
7.533632
31
0
39
0
210
0
220
0
230
1
0
LINE
5
1EC
100
AcDbEntity
8
1
62
256
6
ByLayer
370
18
48
1
60
0
100
AcDbLine
10
38.5
20
7.533632
30
0
11
49.525
21
7.533632
31
0
39
0
210
0
220
0
230
1
0
LINE
5
1ED
100
AcDbEntity
8
1
62
256
6
ByLayer
370
18
48
1
60
0
100
AcDbLine
10
45.801126
20
4.66856
30
0
11
45.675923
21
6.100124
31
0
39
0
210
0
220
0
230
1
0
LINE
5
1EE
100
AcDbEntity
8
1
62
256
6
ByLayer
370
18
48
1
60
0
100
AcDbLine
10
49.525
20
20.743878
30
0
11
49.525
21
17.284976
31
0
39
0
210
0
220
0
230
1
0
LINE
5
1EF
100
AcDbEntity
8
1
62
256
6
ByLayer
370
18
48
1
60
0
100
AcDbLine
10
45.929907
20
4.15643
30
0
11
45.801126
21
4.66856
31
0
39
0
210
0
220
0
230
1
0
LINE
5
1F0
100
AcDbEntity
8
1
62
256
6
ByLayer
370
18
48
1
60
0
100
AcDbLine
10
44.866025
20
-4.539163
30
0
11
45.732051
21
-5.977393
31
0
39
0
210
0
220
0
230
1
0
LINE
5
1F1
100
AcDbEntity
8
1
62
256
6
ByLayer
370
18
48
1
60
0
100
AcDbLine
10
44.866025
20
-7.415622
30
0
11
45.732051
21
-5.977393
31
0
39
0
210
0
220
0
230
1
0
LINE
5
1F2
100
AcDbEntity
8
1
62
256
6
ByLayer
370
18
48
1
60
0
100
AcDbLine
10
43.133975
20
-7.415622
30
0
11
44.866025
21
-7.415622
31
0
39
0
210
0
220
0
230
1
0
LINE
5
1F3
100
AcDbEntity
8
1
62
256
6
ByLayer
370
18
48
1
60
0
100
AcDbLine
10
49.525
20
48.772236
30
0
11
46.467654
21
48.772236
31
0
39
0
210
0
220
0
230
1
0
LINE
5
1F4
100
AcDbEntity
8
1
62
256
6
ByLayer
370
18
48
1
60
0
100
AcDbLine
10
49.525
20
43.886148
30
0
11
49.525
21
44.454372
31
0
39
0
210
0
220
0
230
1
0
LINE
5
1F5
100
AcDbEntity
8
1
62
256
6
ByLayer
370
18
48
1
60
0
100
AcDbLine
10
43.133975
20
-7.415622
30
0
11
42.267949
21
-5.977393
31
0
39
0
210
0
220
0
230
1
0
LINE
5
1F6
100
AcDbEntity
8
1
62
256
6
ByLayer
370
18
48
1
60
0
100
AcDbLine
10
42.267949
20
-5.977393
30
0
11
43.133975
21
-4.539163
31
0
39
0
210
0
220
0
230
1
0
LINE
5
1F7
100
AcDbEntity
8
1
62
256
6
ByLayer
370
18
48
1
60
0
100
AcDbLine
10
49.525
20
41.601677
30
0
11
49.525
21
43.886148
31
0
39
0
210
0
220
0
230
1
0
LINE
5
1F8
100
AcDbEntity
8
1
62
256
6
ByLayer
370
18
48
1
60
0
100
AcDbLine
10
49.525
20
44.454372
30
0
11
49.525
21
48.772236
31
0
39
0
210
0
220
0
230
1
0
LINE
5
1F9
100
AcDbEntity
8
1
62
256
6
ByLayer
370
18
48
1
60
0
100
AcDbLine
10
44.866025
20
-6.847592
30
0
11
43.133975
21
-6.847592
31
0
39
0
210
0
220
0
230
1
0
LINE
5
1FA
100
AcDbEntity
8
1
62
256
6
ByLayer
370
18
48
1
60
0
100
AcDbLine
10
45.561024
20
-5.69339
30
0
11
44.866025
21
-6.847592
31
0
39
0
210
0
220
0
230
1
0
LINE
5
1FB
100
AcDbEntity
8
1
62
256
6
ByLayer
370
18
48
1
60
0
100
AcDbLine
10
43.133975
20
-7.415622
30
0
11
43.133975
21
-6.847592
31
0
39
0
210
0
220
0
230
1
0
LINE
5
1FC
100
AcDbEntity
8
1
62
256
6
ByLayer
370
18
48
1
60
0
100
AcDbLine
10
44.866025
20
-4.539163
30
0
11
43.133975
21
-4.539163
31
0
39
0
210
0
220
0
230
1
0
LINE
5
1FD
100
AcDbEntity
8
1
62
256
6
ByLayer
370
18
48
1
60
0
100
AcDbLine
10
42.438976
20
-5.69339
30
0
11
43.133975
21
-6.847592
31
0
39
0
210
0
220
0
230
1
0
LINE
5
1FE
100
AcDbEntity
8
1
62
256
6
ByLayer
370
18
48
1
60
0
100
AcDbLine
10
44.866025
20
-7.415622
30
0
11
44.866025
21
-6.847592
31
0
39
0
210
0
220
0
230
1
0
LINE
5
1FF
100
AcDbEntity
8
1
62
256
6
ByLayer
370
18
48
1
60
0
100
AcDbLine
10
38.5
20
-1.619115
30
0
11
49.525
21
-1.552627
31
0
39
0
210
0
220
0
230
1
0
LINE
5
200
100
AcDbEntity
8
1
62
256
6
ByLayer
370
13
48
1
60
0
100
AcDbLine
10
42.524645
20
31.663064
30
0
11
42.43075
21
32.192432
31
0
39
0
210
0
220
0
230
1
0
LINE
5
201
100
AcDbEntity
8
1
62
256
6
ByLayer
370
13
48
1
60
0
100
AcDbLine
10
42.081566
20
31.63638
30
0
11
41.987671
21
32.165748
31
0
39
0
210
0
220
0
230
1
0
LINE
5
202
100
AcDbEntity
8
1
62
256
6
ByLayer
370
18
48
1
60
0
100
AcDbLine
10
43.196296
20
32.727165
30
0
11
43.112625
21
33.198892
31
0
39
0
210
0
220
0
230
1
0
LINE
5
203
100
AcDbEntity
8
1
62
256
6
ByLayer
370
13
48
1
60
0
100
AcDbLine
10
43.150461
20
32.02383
30
0
11
43.056566
21
32.553198
31
0
39
0
210
0
220
0
230
1
0
LINE
5
204
100
AcDbEntity
8
1
62
256
6
ByLayer
370
18
48
1
60
0
100
AcDbLine
10
43.111595
20
33.238983
30
0
11
43.195266
21
32.767257
31
0
39
0
210
0
220
0
230
1
0
LINE
5
205
100
AcDbEntity
8
1
62
256
6
ByLayer
370
13
48
1
60
0
100
AcDbLine
10
41.439177
20
31.920771
30
0
11
41.345282
21
32.450139
31
0
39
0
210
0
220
0
230
1
0
LINE
5
206
100
AcDbEntity
8
1
62
256
6
ByLayer
370
13
48
1
60
0
100
AcDbLine
10
43.346604
20
33.021604
30
0
11
43.297334
21
33.29938
31
0
39
0
210
0
220
0
230
1
0
LINE
5
207
100
AcDbEntity
8
1
62
256
6
ByLayer
370
18
48
1
60
0
100
AcDbLine
10
38.5
20
-1.619115
30
0
11
38.5
21
-1.370958
31
0
39
0
210
0
220
0
230
1
0
LINE
5
208
100
AcDbEntity
8
1
62
256
6
ByLayer
370
13
48
1
60
0
100
AcDbLine
10
41.192433
20
32.891873
30
0
11
41.157224
21
33.09038
31
0
39
0
210
0
220
0
230
1
0
LINE
5
209
100
AcDbEntity
8
1
62
256
6
ByLayer
370
18
48
1
60
0
100
AcDbLine
10
38.180521
20
-41.538594
30
0
11
38.124095
21
-42.641522
31
0
39
0
210
0
220
0
230
1
0
LINE
5
20A
100
AcDbEntity
8
1
62
256
6
ByLayer
370
18
48
1
60
0
100
AcDbLine
10
38.124095
20
-42.641522
30
0
11
38.000028
21
-47.915173
31
0
39
0
210
0
220
0
230
1
0
LINE
5
20B
100
AcDbEntity
8
1
62
256
6
ByLayer
370
18
48
1
60
0
100
AcDbLine
10
49.499849
20
17.284976
30
0
11
49.525
21
17.284976
31
0
39
0
210
0
220
0
230
1
0
LINE
5
20C
100
AcDbEntity
8
1
62
256
6
ByLayer
370
18
48
1
60
0
100
AcDbLine
10
46.59175
20
0.330293
30
0
11
46.648056
21
-0.343088
31
0
39
0
210
0
220
0
230
1
0
LINE
5
20D
100
AcDbEntity
8
1
62
256
6
ByLayer
370
18
48
1
60
0
100
AcDbLine
10
38.124095
20
-0.410277
30
0
11
38.000028
21
1.146393
31
0
39
0
210
0
220
0
230
1
0
LINE
5
20E
100
AcDbEntity
8
1
62
256
6
ByLayer
370
18
48
1
60
0
100
AcDbLine
10
38.124095
20
-0.410277
30
0
11
46.59175
21
0.330293
31
0
39
0
210
0
220
0
230
1
0
LINE
5
20F
100
AcDbEntity
8
1
62
256
6
ByLayer
370
18
48
1
60
0
100
AcDbLine
10
46.467683
20
1.886963
30
0
11
46.59175
21
0.330293
31
0
39
0
210
0
220
0
230
1
0
LINE
5
210
100
AcDbEntity
8
1
62
256
6
ByLayer
370
18
48
1
60
0
100
AcDbLine
10
38.894512
20
5.61011
30
0
11
44.815526
21
6.127954
31
0
39
0
210
0
220
0
230
1
0
LINE
5
211
100
AcDbEntity
8
1
62
256
6
ByLayer
370
18
48
1
60
0
100
AcDbLine
10
38.764269
20
1.267433
30
0
11
45.703443
21
1.874324
31
0
39
0
210
0
220
0
230
1
0
LINE
5
212
100
AcDbEntity
8
1
62
256
6
ByLayer
370
18
48
1
60
0
100
AcDbLine
10
46.467623
20
1.920816
30
0
11
46.467683
21
1.886963
31
0
39
0
210
0
220
0
230
1
0
LINE
5
213
100
AcDbEntity
8
1
62
256
6
ByLayer
370
18
48
1
60
0
100
AcDbLine
10
38.000028
20
1.146393
30
0
11
38.000088
21
1.180257
31
0
39
0
210
0
220
0
230
1
0
LINE
5
214
100
AcDbEntity
8
1
62
256
6
ByLayer
370
18
48
1
60
0
100
AcDbLine
10
38.000028
20
1.146393
30
0
11
46.467683
21
1.886963
31
0
39
0
210
0
220
0
230
1
0
LINE
5
215
100
AcDbEntity
8
1
62
256
6
ByLayer
370
18
48
1
60
0
100
AcDbLine
10
38.399899
20
-37.952364
30
0
11
38.362625
21
-36.615176
31
0
39
0
210
0
220
0
230
1
0
LINE
5
216
100
AcDbEntity
8
1
62
256
6
ByLayer
370
18
48
1
60
0
100
AcDbLine
10
38.5
20
-1.728829
30
0
11
38.525151
21
-1.728829
31
0
39
0
210
0
220
0
230
1
0
LINE
5
217
100
AcDbEntity
8
1
62
256
6
ByLayer
370
18
48
1
60
0
100
AcDbLine
10
49.474871
20
-1.728829
30
0
11
49.525
21
-1.728829
31
0
39
0
210
0
220
0
230
1
0
LINE
5
218
100
AcDbEntity
8
1
62
256
6
ByLayer
370
18
48
1
60
0
100
AcDbLine
10
38.362625
20
-36.615176
30
0
11
38.41943
21
-34.403823
31
0
39
0
210
0
220
0
230
1
0
LINE
5
219
100
AcDbEntity
8
1
62
256
6
ByLayer
370
18
48
1
60
0
100
AcDbLine
10
49.475
20
-11.297148
30
0
11
49.475
21
-11.198657
31
0
39
0
210
0
220
0
230
1
0
LINE
5
21A
100
AcDbEntity
8
1
62
256
6
ByLayer
370
18
48
1
60
0
100
AcDbLine
10
38.525
20
-11.297148
30
0
11
38.525
21
-11.198657
31
0
39
0
210
0
220
0
230
1
0
LINE
5
21B
100
AcDbEntity
8
1
62
256
6
ByLayer
370
18
48
1
60
0
100
AcDbLine
10
38.5
20
-1.619115
30
0
11
38.5
21
-1.728829
31
0
39
0
210
0
220
0
230
1
0
LINE
5
21C
100
AcDbEntity
8
1
62
256
6
ByLayer
370
18
48
1
60
0
100
AcDbLine
10
49.475
20
-2.016004
30
0
11
49.475
21
-1.70588
31
0
39
0
210
0
220
0
230
1
0
LINE
5
21D
100
AcDbEntity
8
1
62
256
6
ByLayer
370
18
48
1
60
0
100
AcDbLine
10
38.525
20
-2.016004
30
0
11
38.525
21
-1.70588
31
0
39
0
210
0
220
0
230
1
0
LINE
5
21E
100
AcDbEntity
8
1
62
256
6
ByLayer
370
18
48
1
60
0
100
AcDbLine
10
43.111595
20
44.910845
30
0
11
43.195266
21
45.193029
31
0
39
0
210
0
220
0
230
1
0
LINE
5
21F
100
AcDbEntity
8
1
62
256
6
ByLayer
370
13
48
1
60
0
100
AcDbLine
10
42.474094
20
46.28162
30
0
11
42.380199
21
45.964956
31
0
39
0
210
0
220
0
230
1
0
LINE
5
220
100
AcDbEntity
8
1
62
256
6
ByLayer
370
13
48
1
60
0
100
AcDbLine
10
43.116483
20
45.927942
30
0
11
43.022588
21
45.611278
31
0
39
0
210
0
220
0
230
1
0
LINE
5
221
100
AcDbEntity
8
1
62
256
6
ByLayer
370
18
48
1
60
0
100
AcDbLine
10
43.196296
20
45.149252
30
0
11
43.112625
21
44.867069
31
0
39
0
210
0
220
0
230
1
0
LINE
5
222
100
AcDbEntity
8
1
62
256
6
ByLayer
370
13
48
1
60
0
100
AcDbLine
10
41.405199
20
45.931861
30
0
11
41.311304
21
45.615198
31
0
39
0
210
0
220
0
230
1
0
LINE
5
223
100
AcDbEntity
8
1
62
256
6
ByLayer
370
13
48
1
60
0
100
AcDbLine
10
43.363197
20
44.852562
30
0
11
43.321542
21
44.712079
31
0
39
0
210
0
220
0
230
1
0
LINE
5
224
100
AcDbEntity
8
1
62
256
6
ByLayer
370
18
48
1
60
0
100
AcDbLine
10
46.467683
20
47.89578
30
0
11
46.542581
21
44.712143
31
0
39
0
210
0
220
0
230
1
0
LINE
5
225
100
AcDbEntity
8
1
62
256
6
ByLayer
370
18
48
1
60
0
100
AcDbLine
10
38.000028
20
33.070522
30
0
11
38.000088
21
33.960883
31
0
39
0
210
0
220
0
230
1
0
LINE
5
226
100
AcDbEntity
8
1
62
256
6
ByLayer
370
13
48
1
60
0
100
AcDbLine
10
41.209027
20
44.857495
30
0
11
41.165909
21
44.71208
31
0
39
0
210
0
220
0
230
1
0
LINE
5
227
100
AcDbEntity
8
1
62
256
6
ByLayer
370
18
48
1
60
0
100
AcDbLine
10
38.000028
20
33.070522
30
0
11
38.041837
21
33.067868
31
0
39
0
210
0
220
0
230
1
0
LINE
5
228
100
AcDbEntity
8
1
62
256
6
ByLayer
370
18
48
1
60
0
100
AcDbLine
10
38.180521
20
-1.083647
30
0
11
38.124095
21
-0.410277
31
0
39
0
210
0
220
0
230
1
0
LINE
5
229
100
AcDbEntity
8
1
62
256
6
ByLayer
370
18
48
1
60
0
100
AcDbLine
10
38.091396
20
31.134941
30
0
11
38.000028
21
33.070522
31
0
39
0
210
0
220
0
230
1
0
LINE
5
22A
100
AcDbEntity
8
1
62
256
6
ByLayer
370
18
48
1
60
0
100
AcDbLine
10
45.91774
20
-0.814469
30
0
11
38.978566
21
-1.42136
31
0
39
0
210
0
220
0
230
1
0
LINE
5
22B
100
AcDbEntity
8
1
62
256
6
ByLayer
370
18
48
1
60
0
100
AcDbLine
10
38.180521
20
-28.605967
30
0
11
38.124095
21
-29.862
31
0
39
0
210
0
220
0
230
1
0
LINE
5
22C
100
AcDbEntity
8
1
62
256
6
ByLayer
370
18
48
1
60
0
100
AcDbLine
10
38.000028
20
-34.691765
30
0
11
38.362625
21
-36.615176
31
0
39
0
210
0
220
0
230
1
0
LINE
5
22D
100
AcDbEntity
8
1
62
256
6
ByLayer
370
18
48
1
60
0
100
AcDbLine
10
38.525
20
27.271596
30
0
11
49.475
21
27.271596
31
0
39
0
210
0
220
0
230
1
0
LINE
5
22E
100
AcDbEntity
8
1
62
256
6
ByLayer
370
18
48
1
60
0
100
AcDbLine
10
49.475
20
19.709634
30
0
11
38.525
21
19.709634
31
0
39
0
210
0
220
0
230
1
0
LINE
5
22F
100
AcDbEntity
8
1
62
256
6
ByLayer
370
18
48
1
60
0
100
AcDbLine
10
38.525
20
27.271596
30
0
11
38.525
21
19.709634
31
0
39
0
210
0
220
0
230
1
0
LINE
5
230
100
AcDbEntity
8
1
62
256
6
ByLayer
370
18
48
1
60
0
100
AcDbLine
10
38.000028
20
-34.691765
30
0
11
38.000088
21
-35.630018
31
0
39
0
210
0
220
0
230
1
0
LINE
5
231
100
AcDbEntity
8
1
62
256
6
ByLayer
370
18
48
1
60
0
100
AcDbLine
10
38.124095
20
-29.862
30
0
11
38.091396
21
-31.134945
31
0
39
0
210
0
220
0
230
1
0
LINE
5
232
100
AcDbEntity
8
1
62
256
6
ByLayer
370
18
48
1
60
0
100
AcDbLine
10
38.016459
20
-34.052123
30
0
11
38.000028
21
-34.691765
31
0
39
0
210
0
220
0
230
1
0
LINE
5
233
100
AcDbEntity
8
1
62
256
6
ByLayer
370
13
48
1
60
0
100
AcDbLine
10
42.524645
20
0.645475
30
0
11
42.472168
21
1.240864
31
0
39
0
210
0
220
0
230
1
0
LINE
5
234
100
AcDbEntity
8
1
62
256
6
ByLayer
370
13
48
1
60
0
100
AcDbLine
10
42.081566
20
0.606724
30
0
11
42.029139
21
1.201547
31
0
39
0
210
0
220
0
230
1
0
LINE
5
235
100
AcDbEntity
8
1
62
256
6
ByLayer
370
13
48
1
60
0
100
AcDbLine
10
43.150461
20
0.804903
30
0
11
43.114763
21
1.209918
31
0
39
0
210
0
220
0
230
1
0
LINE
5
236
100
AcDbEntity
8
1
62
256
6
ByLayer
370
13
48
1
60
0
100
AcDbLine
10
41.439177
20
0.655236
30
0
11
41.403661
21
1.058187
31
0
39
0
210
0
220
0
230
1
0
LINE
5
237
100
AcDbEntity
8
1
62
256
6
ByLayer
370
18
48
1
60
0
100
AcDbLine
10
49.525
20
-11.398475
30
0
11
49.525
21
-11.17147
31
0
39
0
210
0
220
0
230
1
0
LINE
5
238
100
AcDbEntity
8
1
62
256
6
ByLayer
370
18
48
1
60
0
100
AcDbLine
10
49.525
20
-11.166024
30
0
11
49.525
21
-11.17148
31
0
39
0
210
0
220
0
230
1
0
LINE
5
239
100
AcDbEntity
8
1
62
256
6
ByLayer
370
13
48
1
60
0
100
AcDbLine
10
43.346604
20
1.141702
30
0
11
43.345389
21
1.155482
31
0
39
0
210
0
220
0
230
1
0
LINE
5
23A
100
AcDbEntity
8
1
62
256
6
ByLayer
370
13
48
1
60
0
100
AcDbLine
10
41.192433
20
0.953301
30
0
11
41.19128
21
0.966382
31
0
39
0
210
0
220
0
230
1
0
LINE
5
23B
100
AcDbEntity
8
1
62
256
6
ByLayer
370
18
48
1
60
0
100
AcDbLine
10
49.525
20
-11.572337
30
0
11
49.525
21
-11.566882
31
0
39
0
210
0
220
0
230
1
0
LINE
5
23C
100
AcDbEntity
8
1
62
256
6
ByLayer
370
18
48
1
60
0
100
AcDbLine
10
49.525
20
-11.566882
30
0
11
49.525
21
-11.505462
31
0
39
0
210
0
220
0
230
1
0
LINE
5
23D
100
AcDbEntity
8
1
62
256
6
ByLayer
370
18
48
1
60
0
100
AcDbLine
10
49.525
20
-11.505462
30
0
11
49.525
21
-11.398475
31
0
39
0
210
0
220
0
230
1
0
LINE
5
23E
100
AcDbEntity
8
1
62
256
6
ByLayer
370
18
48
1
60
0
100
AcDbLine
10
49.5
20
-43.714573
30
0
11
49.5
21
-45.980668
31
0
39
0
210
0
220
0
230
1
0
LINE
5
23F
100
AcDbEntity
8
1
62
256
6
ByLayer
370
18
48
1
60
0
100
AcDbLine
10
38.124095
20
-29.862
30
0
11
38.162768
21
-30.067144
31
0
39
0
210
0
220
0
230
1
0
LINE
5
240
100
AcDbEntity
8
1
62
256
6
ByLayer
370
18
48
1
60
0
100
AcDbLine
10
49.525
20
-17.661766
30
0
11
49.525
21
-17.77494
31
0
39
0
210
0
220
0
230
1
0
LINE
5
241
100
AcDbEntity
8
1
62
256
6
ByLayer
370
18
48
1
60
0
100
AcDbLine
10
49.525
20
-17.77494
30
0
11
49.525
21
-17.904184
31
0
39
0
210
0
220
0
230
1
0
LINE
5
242
100
AcDbEntity
8
1
62
256
6
ByLayer
370
18
48
1
60
0
100
AcDbLine
10
49.525
20
-17.904184
30
0
11
49.525
21
-18.380954
31
0
39
0
210
0
220
0
230
1
0
LINE
5
243
100
AcDbEntity
8
1
62
256
6
ByLayer
370
13
48
1
60
0
100
AcDbLine
10
49.525
20
-16.923131
30
0
11
49.499849
21
-16.923131
31
0
39
0
210
0
220
0
230
1
0
LINE
5
244
100
AcDbEntity
8
1
62
256
6
ByLayer
370
18
48
1
60
0
100
AcDbLine
10
49.525
20
-18.400401
30
0
11
49.525
21
-18.380955
31
0
39
0
210
0
220
0
230
1
0
LINE
5
245
100
AcDbEntity
8
1
62
256
6
ByLayer
370
13
48
1
60
0
100
AcDbLine
10
49.525
20
-17.036304
30
0
11
49.499849
21
-17.036304
31
0
39
0
210
0
220
0
230
1
0
LINE
5
246
100
AcDbEntity
8
1
62
256
6
ByLayer
370
13
48
1
60
0
100
AcDbLine
10
49.525
20
-17.165549
30
0
11
49.499849
21
-17.165549
31
0
39
0
210
0
220
0
230
1
0
LINE
5
247
100
AcDbEntity
8
1
62
256
6
ByLayer
370
18
48
1
60
0
100
AcDbLine
10
49.525
20
-18.513575
30
0
11
49.525
21
-18.400401
31
0
39
0
210
0
220
0
230
1
0
LINE
5
248
100
AcDbEntity
8
1
62
256
6
ByLayer
370
18
48
1
60
0
100
AcDbLine
10
49.525
20
-18.642819
30
0
11
49.525
21
-18.513575
31
0
39
0
210
0
220
0
230
1
0
LINE
5
249
100
AcDbEntity
8
1
62
256
6
ByLayer
370
18
48
1
60
0
100
AcDbLine
10
49.525
20
-19.119589
30
0
11
49.525
21
-18.642819
31
0
39
0
210
0
220
0
230
1
0
LINE
5
24A
100
AcDbEntity
8
1
62
256
6
ByLayer
370
13
48
1
60
0
100
AcDbLine
10
49.525
20
-17.661766
30
0
11
49.499849
21
-17.661766
31
0
39
0
210
0
220
0
230
1
0
LINE
5
24B
100
AcDbEntity
8
1
62
256
6
ByLayer
370
18
48
1
60
0
100
AcDbLine
10
49.525
20
-19.11959
30
0
11
49.525
21
-19.139037
31
0
39
0
210
0
220
0
230
1
0
LINE
5
24C
100
AcDbEntity
8
1
62
256
6
ByLayer
370
13
48
1
60
0
100
AcDbLine
10
49.525
20
-17.77494
30
0
11
49.499849
21
-17.77494
31
0
39
0
210
0
220
0
230
1
0
LINE
5
24D
100
AcDbEntity
8
1
62
256
6
ByLayer
370
13
48
1
60
0
100
AcDbLine
10
49.525
20
-17.904184
30
0
11
49.499849
21
-17.904184
31
0
39
0
210
0
220
0
230
1
0
LINE
5
24E
100
AcDbEntity
8
1
62
256
6
ByLayer
370
18
48
1
60
0
100
AcDbLine
10
49.525
20
-19.25221
30
0
11
49.525
21
-19.139037
31
0
39
0
210
0
220
0
230
1
0
LINE
5
24F
100
AcDbEntity
8
1
62
256
6
ByLayer
370
18
48
1
60
0
100
AcDbLine
10
49.525
20
-19.25221
30
0
11
49.525
21
-19.381455
31
0
39
0
210
0
220
0
230
1
0
LINE
5
250
100
AcDbEntity
8
1
62
256
6
ByLayer
370
18
48
1
60
0
100
AcDbLine
10
49.525
20
-19.381455
30
0
11
49.525
21
-19.858224
31
0
39
0
210
0
220
0
230
1
0
LINE
5
251
100
AcDbEntity
8
1
62
256
6
ByLayer
370
13
48
1
60
0
100
AcDbLine
10
49.525
20
-18.400401
30
0
11
49.499849
21
-18.400401
31
0
39
0
210
0
220
0
230
1
0
LINE
5
252
100
AcDbEntity
8
1
62
256
6
ByLayer
370
18
48
1
60
0
100
AcDbLine
10
49.525
20
-19.877672
30
0
11
49.525
21
-19.858226
31
0
39
0
210
0
220
0
230
1
0
LINE
5
253
100
AcDbEntity
8
1
62
256
6
ByLayer
370
13
48
1
60
0
100
AcDbLine
10
49.525
20
-18.513575
30
0
11
49.499849
21
-18.513575
31
0
39
0
210
0
220
0
230
1
0
LINE
5
254
100
AcDbEntity
8
1
62
256
6
ByLayer
370
13
48
1
60
0
100
AcDbLine
10
49.525
20
-18.642819
30
0
11
49.499849
21
-18.642819
31
0
39
0
210
0
220
0
230
1
0
LINE
5
255
100
AcDbEntity
8
1
62
256
6
ByLayer
370
18
48
1
60
0
100
AcDbLine
10
49.525
20
-19.990846
30
0
11
49.525
21
-19.877672
31
0
39
0
210
0
220
0
230
1
0
LINE
5
256
100
AcDbEntity
8
1
62
256
6
ByLayer
370
18
48
1
60
0
100
AcDbLine
10
49.525
20
-20.12009
30
0
11
49.525
21
-19.990846
31
0
39
0
210
0
220
0
230
1
0
LINE
5
257
100
AcDbEntity
8
1
62
256
6
ByLayer
370
18
48
1
60
0
100
AcDbLine
10
49.525
20
-20.59686
30
0
11
49.525
21
-20.12009
31
0
39
0
210
0
220
0
230
1
0
LINE
5
258
100
AcDbEntity
8
1
62
256
6
ByLayer
370
13
48
1
60
0
100
AcDbLine
10
49.525
20
-19.139037
30
0
11
49.499849
21
-19.139037
31
0
39
0
210
0
220
0
230
1
0
LINE
5
259
100
AcDbEntity
8
1
62
256
6
ByLayer
370
18
48
1
60
0
100
AcDbLine
10
49.525
20
-20.596861
30
0
11
49.525
21
-20.616308
31
0
39
0
210
0
220
0
230
1
0
LINE
5
25A
100
AcDbEntity
8
1
62
256
6
ByLayer
370
13
48
1
60
0
100
AcDbLine
10
49.525
20
-19.25221
30
0
11
49.499849
21
-19.25221
31
0
39
0
210
0
220
0
230
1
0
LINE
5
25B
100
AcDbEntity
8
1
62
256
6
ByLayer
370
13
48
1
60
0
100
AcDbLine
10
49.525
20
-19.381455
30
0
11
49.499849
21
-19.381455
31
0
39
0
210
0
220
0
230
1
0
LINE
5
25C
100
AcDbEntity
8
1
62
256
6
ByLayer
370
18
48
1
60
0
100
AcDbLine
10
49.525
20
-20.616308
30
0
11
49.525
21
-20.729481
31
0
39
0
210
0
220
0
230
1
0
LINE
5
25D
100
AcDbEntity
8
1
62
256
6
ByLayer
370
18
48
1
60
0
100
AcDbLine
10
49.525
20
-20.729481
30
0
11
49.525
21
-20.858725
31
0
39
0
210
0
220
0
230
1
0
LINE
5
25E
100
AcDbEntity
8
1
62
256
6
ByLayer
370
18
48
1
60
0
100
AcDbLine
10
49.525
20
-20.858725
30
0
11
49.525
21
-21.335495
31
0
39
0
210
0
220
0
230
1
0
LINE
5
25F
100
AcDbEntity
8
1
62
256
6
ByLayer
370
13
48
1
60
0
100
AcDbLine
10
49.525
20
-19.877672
30
0
11
49.499849
21
-19.877672
31
0
39
0
210
0
220
0
230
1
0
LINE
5
260
100
AcDbEntity
8
1
62
256
6
ByLayer
370
18
48
1
60
0
100
AcDbLine
10
49.525
20
-21.354943
30
0
11
49.525
21
-21.335496
31
0
39
0
210
0
220
0
230
1
0
LINE
5
261
100
AcDbEntity
8
1
62
256
6
ByLayer
370
13
48
1
60
0
100
AcDbLine
10
49.525
20
-19.990846
30
0
11
49.499849
21
-19.990846
31
0
39
0
210
0
220
0
230
1
0
LINE
5
262
100
AcDbEntity
8
1
62
256
6
ByLayer
370
13
48
1
60
0
100
AcDbLine
10
49.525
20
-20.12009
30
0
11
49.499849
21
-20.12009
31
0
39
0
210
0
220
0
230
1
0
LINE
5
263
100
AcDbEntity
8
1
62
256
6
ByLayer
370
18
48
1
60
0
100
AcDbLine
10
49.525
20
-21.468116
30
0
11
49.525
21
-21.354943
31
0
39
0
210
0
220
0
230
1
0
LINE
5
264
100
AcDbEntity
8
1
62
256
6
ByLayer
370
18
48
1
60
0
100
AcDbLine
10
49.525
20
-21.597361
30
0
11
49.525
21
-21.468116
31
0
39
0
210
0
220
0
230
1
0
LINE
5
265
100
AcDbEntity
8
1
62
256
6
ByLayer
370
18
48
1
60
0
100
AcDbLine
10
49.525
20
-22.07413
30
0
11
49.525
21
-21.597361
31
0
39
0
210
0
220
0
230
1
0
LINE
5
266
100
AcDbEntity
8
1
62
256
6
ByLayer
370
13
48
1
60
0
100
AcDbLine
10
49.525
20
-20.616308
30
0
11
49.499849
21
-20.616308
31
0
39
0
210
0
220
0
230
1
0
LINE
5
267
100
AcDbEntity
8
1
62
256
6
ByLayer
370
18
48
1
60
0
100
AcDbLine
10
49.525
20
-22.074132
30
0
11
49.525
21
-22.093578
31
0
39
0
210
0
220
0
230
1
0
LINE
5
268
100
AcDbEntity
8
1
62
256
6
ByLayer
370
13
48
1
60
0
100
AcDbLine
10
49.525
20
-20.729481
30
0
11
49.499849
21
-20.729481
31
0
39
0
210
0
220
0
230
1
0
LINE
5
269
100
AcDbEntity
8
1
62
256
6
ByLayer
370
13
48
1
60
0
100
AcDbLine
10
49.525
20
-20.858725
30
0
11
49.499849
21
-20.858725
31
0
39
0
210
0
220
0
230
1
0
LINE
5
26A
100
AcDbEntity
8
1
62
256
6
ByLayer
370
18
48
1
60
0
100
AcDbLine
10
49.525
20
-22.206752
30
0
11
49.525
21
-22.093578
31
0
39
0
210
0
220
0
230
1
0
LINE
5
26B
100
AcDbEntity
8
1
62
256
6
ByLayer
370
18
48
1
60
0
100
AcDbLine
10
49.525
20
-22.206752
30
0
11
49.525
21
-22.335996
31
0
39
0
210
0
220
0
230
1
0
LINE
5
26C
100
AcDbEntity
8
1
62
256
6
ByLayer
370
18
48
1
60
0
100
AcDbLine
10
49.525
20
-22.335996
30
0
11
49.525
21
-22.812766
31
0
39
0
210
0
220
0
230
1
0
LINE
5
26D
100
AcDbEntity
8
1
62
256
6
ByLayer
370
13
48
1
60
0
100
AcDbLine
10
49.525
20
-21.354943
30
0
11
49.499849
21
-21.354943
31
0
39
0
210
0
220
0
230
1
0
LINE
5
26E
100
AcDbEntity
8
1
62
256
6
ByLayer
370
18
48
1
60
0
100
AcDbLine
10
49.525
20
-22.832214
30
0
11
49.525
21
-22.812767
31
0
39
0
210
0
220
0
230
1
0
LINE
5
26F
100
AcDbEntity
8
1
62
256
6
ByLayer
370
13
48
1
60
0
100
AcDbLine
10
49.525
20
-21.468116
30
0
11
49.499849
21
-21.468116
31
0
39
0
210
0
220
0
230
1
0
LINE
5
270
100
AcDbEntity
8
1
62
256
6
ByLayer
370
13
48
1
60
0
100
AcDbLine
10
49.525
20
-21.597361
30
0
11
49.499849
21
-21.597361
31
0
39
0
210
0
220
0
230
1
0
LINE
5
271
100
AcDbEntity
8
1
62
256
6
ByLayer
370
18
48
1
60
0
100
AcDbLine
10
49.525
20
-22.945387
30
0
11
49.525
21
-22.832214
31
0
39
0
210
0
220
0
230
1
0
LINE
5
272
100
AcDbEntity
8
1
62
256
6
ByLayer
370
18
48
1
60
0
100
AcDbLine
10
49.525
20
-23.074631
30
0
11
49.525
21
-22.945387
31
0
39
0
210
0
220
0
230
1
0
LINE
5
273
100
AcDbEntity
8
1
62
256
6
ByLayer
370
18
48
1
60
0
100
AcDbLine
10
49.525
20
-23.551401
30
0
11
49.525
21
-23.074631
31
0
39
0
210
0
220
0
230
1
0
LINE
5
274
100
AcDbEntity
8
1
62
256
6
ByLayer
370
13
48
1
60
0
100
AcDbLine
10
49.525
20
-22.093578
30
0
11
49.499941
21
-22.093578
31
0
39
0
210
0
220
0
230
1
0
LINE
5
275
100
AcDbEntity
8
1
62
256
6
ByLayer
370
18
48
1
60
0
100
AcDbLine
10
49.525
20
-23.551402
30
0
11
49.525
21
-23.570849
31
0
39
0
210
0
220
0
230
1
0
LINE
5
276
100
AcDbEntity
8
1
62
256
6
ByLayer
370
13
48
1
60
0
100
AcDbLine
10
49.525
20
-22.206752
30
0
11
49.499958
21
-22.206752
31
0
39
0
210
0
220
0
230
1
0
LINE
5
277
100
AcDbEntity
8
1
62
256
6
ByLayer
370
13
48
1
60
0
100
AcDbLine
10
49.525
20
-22.335996
30
0
11
49.499932
21
-22.335996
31
0
39
0
210
0
220
0
230
1
0
LINE
5
278
100
AcDbEntity
8
1
62
256
6
ByLayer
370
18
48
1
60
0
100
AcDbLine
10
49.525
20
-23.570849
30
0
11
49.525
21
-23.684022
31
0
39
0
210
0
220
0
230
1
0
LINE
5
279
100
AcDbEntity
8
1
62
256
6
ByLayer
370
18
48
1
60
0
100
AcDbLine
10
49.525
20
-23.684022
30
0
11
49.525
21
-23.813267
31
0
39
0
210
0
220
0
230
1
0
LINE
5
27A
100
AcDbEntity
8
1
62
256
6
ByLayer
370
18
48
1
60
0
100
AcDbLine
10
49.525
20
-23.813267
30
0
11
49.525
21
-24.290036
31
0
39
0
210
0
220
0
230
1
0
LINE
5
27B
100
AcDbEntity
8
1
62
256
6
ByLayer
370
13
48
1
60
0
100
AcDbLine
10
49.525
20
-22.832214
30
0
11
49.499958
21
-22.832214
31
0
39
0
210
0
220
0
230
1
0
LINE
5
27C
100
AcDbEntity
8
1
62
256
6
ByLayer
370
18
48
1
60
0
100
AcDbLine
10
49.525
20
-29.160097
30
0
11
49.525
21
-31.324079
31
0
39
0
210
0
220
0
230
1
0
LINE
5
27D
100
AcDbEntity
8
1
62
256
6
ByLayer
370
13
48
1
60
0
100
AcDbLine
10
49.525
20
-22.945387
30
0
11
49.499974
21
-22.945387
31
0
39
0
210
0
220
0
230
1
0
LINE
5
27E
100
AcDbEntity
8
1
62
256
6
ByLayer
370
18
48
1
60
0
100
AcDbLine
10
38.5
20
-29.160097
30
0
11
38.5
21
-30.530574
31
0
39
0
210
0
220
0
230
1
0
LINE
5
27F
100
AcDbEntity
8
1
62
256
6
ByLayer
370
13
48
1
60
0
100
AcDbLine
10
49.525
20
-23.074631
30
0
11
49.499952
21
-23.074631
31
0
39
0
210
0
220
0
230
1
0
LINE
5
280
100
AcDbEntity
8
1
62
256
6
ByLayer
370
18
48
1
60
0
100
AcDbLine
10
45.515407
20
-30.093346
30
0
11
38.5
21
-30.530574
31
0
39
0
210
0
220
0
230
1
0
LINE
5
281
100
AcDbEntity
8
1
62
256
6
ByLayer
370
18
48
1
60
0
100
AcDbLine
10
45.675923
20
-30.17374
30
0
11
45.515407
21
-30.093346
31
0
39
0
210
0
220
0
230
1
0
LINE
5
282
100
AcDbEntity
8
1
62
256
6
ByLayer
370
18
48
1
60
0
100
AcDbLine
10
45.801126
20
-31.186009
30
0
11
45.675923
21
-30.17374
31
0
39
0
210
0
220
0
230
1
0
LINE
5
283
100
AcDbEntity
8
1
62
256
6
ByLayer
370
13
48
1
60
0
100
AcDbLine
10
49.525
20
-23.570849
30
0
11
49.499849
21
-23.570849
31
0
39
0
210
0
220
0
230
1
0
LINE
5
284
100
AcDbEntity
8
1
62
256
6
ByLayer
370
18
48
1
60
0
100
AcDbLine
10
45.929907
20
-31.548139
30
0
11
45.801126
21
-31.186009
31
0
39
0
210
0
220
0
230
1
0
LINE
5
285
100
AcDbEntity
8
1
62
256
6
ByLayer
370
13
48
1
60
0
100
AcDbLine
10
49.525
20
-23.684022
30
0
11
49.499849
21
-23.684022
31
0
39
0
210
0
220
0
230
1
0
LINE
5
286
100
AcDbEntity
8
1
62
256
6
ByLayer
370
18
48
1
60
0
100
AcDbLine
10
49.525
20
-31.324079
30
0
11
45.929907
21
-31.548139
31
0
39
0
210
0
220
0
230
1
0
LINE
5
287
100
AcDbEntity
8
1
62
256
6
ByLayer
370
13
48
1
60
0
100
AcDbLine
10
49.525
20
-23.813267
30
0
11
49.499849
21
-23.813267
31
0
39
0
210
0
220
0
230
1
0
LINE
5
288
100
AcDbEntity
8
1
62
256
6
ByLayer
370
18
48
1
60
0
100
AcDbLine
10
49.525
20
-24.309484
30
0
11
49.525
21
-24.290038
31
0
39
0
210
0
220
0
230
1
0
LINE
5
289
100
AcDbEntity
8
1
62
256
6
ByLayer
370
18
48
1
60
0
100
AcDbLine
10
49.525
20
-24.422658
30
0
11
49.525
21
-24.309484
31
0
39
0
210
0
220
0
230
1
0
LINE
5
28A
100
AcDbEntity
8
1
62
256
6
ByLayer
370
18
48
1
60
0
100
AcDbLine
10
38.5
20
-24.422658
30
0
11
38.5
21
-24.343452
31
0
39
0
210
0
220
0
230
1
0
LINE
5
28B
100
AcDbEntity
8
1
62
256
6
ByLayer
370
18
48
1
60
0
100
AcDbLine
10
49.525
20
-24.551902
30
0
11
49.525
21
-24.422658
31
0
39
0
210
0
220
0
230
1
0
LINE
5
28C
100
AcDbEntity
8
1
62
256
6
ByLayer
370
18
48
1
60
0
100
AcDbLine
10
38.5
20
-24.551902
30
0
11
38.5
21
-24.422658
31
0
39
0
210
0
220
0
230
1
0
LINE
5
28D
100
AcDbEntity
8
1
62
256
6
ByLayer
370
18
48
1
60
0
100
AcDbLine
10
49.525
20
-25.028672
30
0
11
49.525
21
-24.551902
31
0
39
0
210
0
220
0
230
1
0
LINE
5
28E
100
AcDbEntity
8
1
62
256
6
ByLayer
370
18
48
1
60
0
100
AcDbLine
10
38.5
20
-25.028672
30
0
11
38.5
21
-24.551902
31
0
39
0
210
0
220
0
230
1
0
LINE
5
28F
100
AcDbEntity
8
1
62
256
6
ByLayer
370
18
48
1
60
0
100
AcDbLine
10
49.525
20
-25.028673
30
0
11
49.525
21
-25.04812
31
0
39
0
210
0
220
0
230
1
0
LINE
5
290
100
AcDbEntity
8
1
62
256
6
ByLayer
370
18
48
1
60
0
100
AcDbLine
10
38.5
20
-25.028673
30
0
11
38.5
21
-25.04812
31
0
39
0
210
0
220
0
230
1
0
LINE
5
291
100
AcDbEntity
8
1
62
256
6
ByLayer
370
13
48
1
60
0
100
AcDbLine
10
49.525
20
-24.309484
30
0
11
49.499849
21
-24.309484
31
0
39
0
210
0
220
0
230
1
0
LINE
5
292
100
AcDbEntity
8
1
62
256
6
ByLayer
370
18
48
1
60
0
100
AcDbLine
10
49.525
20
-25.161293
30
0
11
49.525
21
-25.04812
31
0
39
0
210
0
220
0
230
1
0
LINE
5
293
100
AcDbEntity
8
1
62
256
6
ByLayer
370
18
48
1
60
0
100
AcDbLine
10
38.5
20
-25.161293
30
0
11
38.5
21
-25.04812
31
0
39
0
210
0
220
0
230
1
0
LINE
5
294
100
AcDbEntity
8
1
62
256
6
ByLayer
370
13
48
1
60
0
100
AcDbLine
10
49.525
20
-24.422658
30
0
11
49.491064
21
-24.422658
31
0
39
0
210
0
220
0
230
1
0
LINE
5
295
100
AcDbEntity
8
1
62
256
6
ByLayer
370
18
48
1
60
0
100
AcDbLine
10
49.525
20
-25.161293
30
0
11
49.525
21
-25.290537
31
0
39
0
210
0
220
0
230
1
0
LINE
5
296
100
AcDbEntity
8
1
62
256
6
ByLayer
370
18
48
1
60
0
100
AcDbLine
10
49.525
20
-17.642318
30
0
11
49.525
21
-17.165549
31
0
39
0
210
0
220
0
230
1
0
LINE
5
297
100
AcDbEntity
8
1
62
256
6
ByLayer
370
18
48
1
60
0
100
AcDbLine
10
38.5
20
-25.161293
30
0
11
38.5
21
-25.290537
31
0
39
0
210
0
220
0
230
1
0
LINE
5
298
100
AcDbEntity
8
1
62
256
6
ByLayer
370
13
48
1
60
0
100
AcDbLine
10
49.525
20
-24.551902
30
0
11
49.463329
21
-24.551902
31
0
39
0
210
0
220
0
230
1
0
LINE
5
299
100
AcDbEntity
8
1
62
256
6
ByLayer
370
13
48
1
60
0
100
AcDbLine
10
38.536693
20
-24.551902
30
0
11
38.5
21
-24.551902
31
0
39
0
210
0
220
0
230
1
0
LINE
5
29A
100
AcDbEntity
8
1
62
256
6
ByLayer
370
18
48
1
60
0
100
AcDbLine
10
49.525
20
-17.642319
30
0
11
49.525
21
-17.661766
31
0
39
0
210
0
220
0
230
1
0
LINE
5
29B
100
AcDbEntity
8
1
62
256
6
ByLayer
370
18
48
1
60
0
100
AcDbLine
10
49.525
20
-25.290537
30
0
11
49.525
21
-26.000873
31
0
39
0
210
0
220
0
230
1
0
LINE
5
29C
100
AcDbEntity
8
1
62
256
6
ByLayer
370
18
48
1
60
0
100
AcDbLine
10
38.5
20
-25.290537
30
0
11
38.5
21
-26.000873
31
0
39
0
210
0
220
0
230
1
0
LINE
5
29D
100
AcDbEntity
8
1
62
256
6
ByLayer
370
18
48
1
60
0
100
AcDbLine
10
49.525
20
-26.000873
30
0
11
49.525
21
-29.160097
31
0
39
0
210
0
220
0
230
1
0
LINE
5
29E
100
AcDbEntity
8
1
62
256
6
ByLayer
370
18
48
1
60
0
100
AcDbLine
10
49.525
20
-26.000873
30
0
11
38.5
21
-26.000873
31
0
39
0
210
0
220
0
230
1
0
LINE
5
29F
100
AcDbEntity
8
1
62
256
6
ByLayer
370
18
48
1
60
0
100
AcDbLine
10
38.5
20
-26.000873
30
0
11
38.5
21
-29.160097
31
0
39
0
210
0
220
0
230
1
0
LINE
5
2A0
100
AcDbEntity
8
1
62
256
6
ByLayer
370
13
48
1
60
0
100
AcDbLine
10
49.525
20
-25.04812
30
0
11
38.5
21
-25.04812
31
0
39
0
210
0
220
0
230
1
0
LINE
5
2A1
100
AcDbEntity
8
1
62
256
6
ByLayer
370
18
48
1
60
0
100
AcDbLine
10
38.5
20
-29.160097
30
0
11
49.525
21
-29.160097
31
0
39
0
210
0
220
0
230
1
0
LINE
5
2A2
100
AcDbEntity
8
1
62
256
6
ByLayer
370
13
48
1
60
0
100
AcDbLine
10
49.525
20
-25.161293
30
0
11
38.5
21
-25.161293
31
0
39
0
210
0
220
0
230
1
0
LINE
5
2A3
100
AcDbEntity
8
1
62
256
6
ByLayer
370
13
48
1
60
0
100
AcDbLine
10
49.525
20
-25.290537
30
0
11
38.5
21
-25.290537
31
0
39
0
210
0
220
0
230
1
0
LINE
5
2A4
100
AcDbEntity
8
1
62
256
6
ByLayer
370
18
48
1
60
0
100
AcDbLine
10
46.59175
20
30.37195
30
0
11
46.648056
21
29.11591
31
0
39
0
210
0
220
0
230
1
0
LINE
5
2A5
100
AcDbEntity
8
1
62
256
6
ByLayer
370
18
48
1
60
0
100
AcDbLine
10
38.124095
20
29.862
30
0
11
38.000028
21
34.691765
31
0
39
0
210
0
220
0
230
1
0
LINE
5
2A6
100
AcDbEntity
8
1
62
256
6
ByLayer
370
18
48
1
60
0
100
AcDbLine
10
38.124095
20
29.862
30
0
11
46.59175
21
30.37195
31
0
39
0
210
0
220
0
230
1
0
LINE
5
2A7
100
AcDbEntity
8
1
62
256
6
ByLayer
370
18
48
1
60
0
100
AcDbLine
10
46.467683
20
35.201715
30
0
11
46.59175
21
30.37195
31
0
39
0
210
0
220
0
230
1
0
LINE
5
2A8
100
AcDbEntity
8
1
62
256
6
ByLayer
370
18
48
1
60
0
100
AcDbLine
10
38.000028
20
34.691765
30
0
11
38.000088
21
35.630018
31
0
39
0
210
0
220
0
230
1
0
LINE
5
2A9
100
AcDbEntity
8
1
62
256
6
ByLayer
370
18
48
1
60
0
100
AcDbLine
10
38.000028
20
34.691765
30
0
11
46.467683
21
35.201715
31
0
39
0
210
0
220
0
230
1
0
LINE
5
2AA
100
AcDbEntity
8
1
62
256
6
ByLayer
370
18
48
1
60
0
100
AcDbLine
10
46.467623
20
36.139961
30
0
11
46.467683
21
35.201715
31
0
39
0
210
0
220
0
230
1
0
LINE
5
2AB
100
AcDbEntity
8
1
62
256
6
ByLayer
370
18
48
1
60
0
100
AcDbLine
10
49.525
20
-17.165549
30
0
11
49.525
21
-17.036304
31
0
39
0
210
0
220
0
230
1
0
LINE
5
2AC
100
AcDbEntity
8
1
62
256
6
ByLayer
370
18
48
1
60
0
100
AcDbLine
10
49.525
20
-17.036304
30
0
11
49.525
21
-16.923131
31
0
39
0
210
0
220
0
230
1
0
LINE
5
2AD
100
AcDbEntity
8
1
62
256
6
ByLayer
370
18
48
1
60
0
100
AcDbLine
10
49.525
20
-16.923131
30
0
11
49.525
21
-16.903684
31
0
39
0
210
0
220
0
230
1
0
LINE
5
2AE
100
AcDbEntity
8
1
62
256
6
ByLayer
370
18
48
1
60
0
100
AcDbLine
10
38.124095
20
-42.641522
30
0
11
38.486691
21
-41.514443
31
0
39
0
210
0
220
0
230
1
0
LINE
5
2AF
100
AcDbEntity
8
1
62
256
6
ByLayer
370
18
48
1
60
0
100
AcDbLine
10
38.000028
20
-47.915173
30
0
11
38.000088
21
-49.208198
31
0
39
0
210
0
220
0
230
1
0
LINE
5
2B0
100
AcDbEntity
8
1
62
256
6
ByLayer
370
18
48
1
60
0
100
AcDbLine
10
38.000028
20
-47.915173
30
0
11
38.362625
21
-46.788094
31
0
39
0
210
0
220
0
230
1
0
LINE
5
2B1
100
AcDbEntity
8
1
62
256
6
ByLayer
370
18
48
1
60
0
100
AcDbLine
10
46.467623
20
-49.188806
30
0
11
46.467643
21
-48.772229
31
0
39
0
210
0
220
0
230
1
0
LINE
5
2B2
100
AcDbEntity
8
1
62
256
6
ByLayer
370
18
48
1
60
0
100
AcDbLine
10
38.764269
20
-49.983265
30
0
11
45.703443
21
-49.967373
31
0
39
0
210
0
220
0
230
1
0
LINE
5
2B3
100
AcDbEntity
8
1
62
256
6
ByLayer
370
18
48
1
60
0
100
AcDbLine
10
38.399899
20
-48.243311
30
0
11
38.362625
21
-46.788094
31
0
39
0
210
0
220
0
230
1
0
LINE
5
2B4
100
AcDbEntity
8
1
62
256
6
ByLayer
370
18
48
1
60
0
100
AcDbLine
10
38.486691
20
-41.514443
30
0
11
38.500001
21
-41.331249
31
0
39
0
210
0
220
0
230
1
0
LINE
5
2B5
100
AcDbEntity
8
1
62
256
6
ByLayer
370
18
48
1
60
0
100
AcDbLine
10
38.362625
20
-46.788094
30
0
11
38.486691
21
-41.514443
31
0
39
0
210
0
220
0
230
1
0
LINE
5
2B6
100
AcDbEntity
8
1
62
256
6
ByLayer
370
18
48
1
60
0
100
AcDbLine
10
49.525
20
30.787118
30
0
11
49.525
21
31.058957
31
0
39
0
210
0
220
0
230
1
0
LINE
5
2B7
100
AcDbEntity
8
1
62
256
6
ByLayer
370
18
48
1
60
0
100
AcDbLine
10
49.525
20
31.058957
30
0
11
49.525
21
31.586655
31
0
39
0
210
0
220
0
230
1
0
LINE
5
2B8
100
AcDbEntity
8
1
62
256
6
ByLayer
370
18
48
1
60
0
100
AcDbLine
10
49.525
20
31.586655
30
0
11
49.525
21
31.746575
31
0
39
0
210
0
220
0
230
1
0
LINE
5
2B9
100
AcDbEntity
8
1
62
256
6
ByLayer
370
18
48
1
60
0
100
AcDbLine
10
46.56496
20
31.408392
30
0
11
49.525
21
31.586655
31
0
39
0
210
0
220
0
230
1
0
LINE
5
2BA
100
AcDbEntity
8
1
62
256
6
ByLayer
370
18
48
1
60
0
100
AcDbLine
10
49.525
20
-32.36926
30
0
11
49.525
21
-32.190009
31
0
39
0
210
0
220
0
230
1
0
LINE
5
2BB
100
AcDbEntity
8
1
62
256
6
ByLayer
370
18
48
1
60
0
100
AcDbLine
10
38.359896
20
28.154848
30
0
11
38.486691
21
26.924878
31
0
39
0
210
0
220
0
230
1
0
LINE
5
2BC
100
AcDbEntity
8
1
62
256
6
ByLayer
370
18
48
1
60
0
100
AcDbLine
10
38.486691
20
26.924878
30
0
11
38.500001
21
26.833016
31
0
39
0
210
0
220
0
230
1
0
LINE
5
2BD
100
AcDbEntity
8
1
62
256
6
ByLayer
370
18
48
1
60
0
100
AcDbLine
10
49.525
20
-32.190009
30
0
11
49.525
21
-31.906269
31
0
39
0
210
0
220
0
230
1
0
LINE
5
2BE
100
AcDbEntity
8
1
62
256
6
ByLayer
370
18
48
1
60
0
100
AcDbLine
10
49.525
20
-33.351715
30
0
11
49.525
21
-33.635455
31
0
39
0
210
0
220
0
230
1
0
LINE
5
2BF
100
AcDbEntity
8
1
62
256
6
ByLayer
370
18
48
1
60
0
100
AcDbLine
10
49.525
20
-32.474396
30
0
11
49.525
21
-32.36926
31
0
39
0
210
0
220
0
230
1
0
LINE
5
2C0
100
AcDbEntity
8
1
62
256
6
ByLayer
370
18
48
1
60
0
100
AcDbLine
10
49.525
20
-31.906269
30
0
11
49.525
21
-31.395643
31
0
39
0
210
0
220
0
230
1
0
LINE
5
2C1
100
AcDbEntity
8
1
62
256
6
ByLayer
370
18
48
1
60
0
100
AcDbLine
10
49.525
20
-35.0809
30
0
11
49.525
21
-34.797161
31
0
39
0
210
0
220
0
230
1
0
LINE
5
2C2
100
AcDbEntity
8
1
62
256
6
ByLayer
370
18
48
1
60
0
100
AcDbLine
10
49.525
20
-31.395643
30
0
11
49.525
21
-31.32408
31
0
39
0
210
0
220
0
230
1
0
LINE
5
2C3
100
AcDbEntity
8
1
62
256
6
ByLayer
370
18
48
1
60
0
100
AcDbLine
10
38.764269
20
36.239716
30
0
11
45.703443
21
36.657616
31
0
39
0
210
0
220
0
230
1
0
LINE
5
2C4
100
AcDbEntity
8
1
62
256
6
ByLayer
370
18
48
1
60
0
100
AcDbLine
10
49.475
20
-11.198657
30
0
11
38.525
21
-11.198657
31
0
39
0
210
0
220
0
230
1
0
LINE
5
2C5
100
AcDbEntity
8
1
62
256
6
ByLayer
370
18
48
1
60
0
100
AcDbLine
10
49.525
20
0.94478
30
0
11
49.525
21
3.189782
31
0
39
0
210
0
220
0
230
1
0
LINE
5
2C6
100
AcDbEntity
8
1
62
256
6
ByLayer
370
18
48
1
60
0
100
AcDbLine
10
38.525
20
-2.016004
30
0
11
38.525
21
-11.198657
31
0
39
0
210
0
220
0
230
1
0
LINE
5
2C7
100
AcDbEntity
8
1
62
256
6
ByLayer
370
18
48
1
60
0
100
AcDbLine
10
49.525
20
0.902029
30
0
11
49.525
21
0.94478
31
0
39
0
210
0
220
0
230
1
0
LINE
5
2C8
100
AcDbEntity
8
1
62
256
6
ByLayer
370
18
48
1
60
0
100
AcDbLine
10
49.525
20
-1.552627
30
0
11
49.525
21
-1.728829
31
0
39
0
210
0
220
0
230
1
0
LINE
5
2C9
100
AcDbEntity
8
1
62
256
6
ByLayer
370
18
48
1
60
0
100
AcDbLine
10
46.563409
20
0.685763
30
0
11
49.525
21
0.94478
31
0
39
0
210
0
220
0
230
1
0
LINE
5
2CA
100
AcDbEntity
8
1
62
256
6
ByLayer
370
18
48
1
60
0
100
AcDbLine
10
49.475
20
-2.016004
30
0
11
49.475
21
-11.198657
31
0
39
0
210
0
220
0
230
1
0
LINE
5
2CB
100
AcDbEntity
8
1
62
256
6
ByLayer
370
18
48
1
60
0
100
AcDbLine
10
38.525
20
-2.016004
30
0
11
49.475
21
-2.016004
31
0
39
0
210
0
220
0
230
1
0
LINE
5
2CC
100
AcDbEntity
8
1
62
256
6
ByLayer
370
18
48
1
60
0
100
AcDbLine
10
49.203853
20
44.455108
30
0
11
49.525
21
44.454372
31
0
39
0
210
0
220
0
230
1
0
LINE
5
2CD
100
AcDbEntity
8
1
62
256
6
ByLayer
370
18
48
1
60
0
100
AcDbLine
10
38.894512
20
38.406203
30
0
11
44.815526
21
38.762786
31
0
39
0
210
0
220
0
230
1
0
LINE
5
2CE
100
AcDbEntity
8
1
62
256
6
ByLayer
370
18
48
1
60
0
100
AcDbLine
10
49.525
20
43.886148
30
0
11
49.499988
21
43.886205
31
0
39
0
210
0
220
0
230
1
0
LINE
5
2CF
100
AcDbEntity
8
1
62
256
6
ByLayer
370
18
48
1
60
0
100
AcDbLine
10
38.180521
20
28.605967
30
0
11
38.124095
21
29.862
31
0
39
0
210
0
220
0
230
1
0
LINE
5
2D0
100
AcDbEntity
8
1
62
256
6
ByLayer
370
18
48
1
60
0
100
AcDbLine
10
45.91774
20
28.315293
30
0
11
38.978566
21
27.897394
31
0
39
0
210
0
220
0
230
1
0
LINE
5
2D1
100
AcDbEntity
8
1
62
256
6
ByLayer
370
18
48
1
60
0
100
AcDbLine
10
49.525
20
29.120158
30
0
11
49.525
21
29.252082
31
0
39
0
210
0
220
0
230
1
0
LINE
5
2D2
100
AcDbEntity
8
1
62
256
6
ByLayer
370
18
48
1
60
0
100
AcDbLine
10
49.525
20
29.252082
30
0
11
49.525
21
30.787118
31
0
39
0
210
0
220
0
230
1
0
LINE
5
2D3
100
AcDbEntity
8
1
62
256
6
ByLayer
370
18
48
1
60
0
100
AcDbLine
10
46.645063
20
29.078643
30
0
11
49.525
21
29.252082
31
0
39
0
210
0
220
0
230
1
0
LINE
5
2D4
100
AcDbEntity
8
1
62
256
6
ByLayer
370
18
48
1
60
0
100
AcDbLine
10
49.525
20
41.601664
30
0
11
49.525
21
39.814261
31
0
39
0
210
0
220
0
230
1
0
LINE
5
2D5
100
AcDbEntity
8
1
62
256
6
ByLayer
370
18
48
1
60
0
100
AcDbLine
10
38.5
20
41.601664
30
0
11
38.5
21
39.814261
31
0
39
0
210
0
220
0
230
1
0
LINE
5
2D6
100
AcDbEntity
8
1
62
256
6
ByLayer
370
13
48
1
60
0
100
AcDbLine
10
46.578569
20
30.881513
30
0
11
49.525
21
31.058957
31
0
39
0
210
0
220
0
230
1
0
LINE
5
2D7
100
AcDbEntity
8
1
62
256
6
ByLayer
370
18
48
1
60
0
100
AcDbLine
10
49.525
20
41.601664
30
0
11
38.5
21
41.601664
31
0
39
0
210
0
220
0
230
1
0
LINE
5
2D8
100
AcDbEntity
8
1
62
256
6
ByLayer
370
18
48
1
60
0
100
AcDbLine
10
49.525
20
27.322935
30
0
11
49.525
21
22.144435
31
0
39
0
210
0
220
0
230
1
0
LINE
5
2D9
100
AcDbEntity
8
1
62
256
6
ByLayer
370
18
48
1
60
0
100
AcDbLine
10
38.5
20
27.322935
30
0
11
38.5
21
22.144435
31
0
39
0
210
0
220
0
230
1
0
LINE
5
2DA
100
AcDbEntity
8
1
62
256
6
ByLayer
370
18
48
1
60
0
100
AcDbLine
10
38.5
20
22.144435
30
0
11
38.525151
21
22.144435
31
0
39
0
210
0
220
0
230
1
0
LINE
5
2DB
100
AcDbEntity
8
1
62
256
6
ByLayer
370
18
48
1
60
0
100
AcDbLine
10
49.474871
20
22.144435
30
0
11
49.525
21
22.144435
31
0
39
0
210
0
220
0
230
1
0
LINE
5
2DC
100
AcDbEntity
8
1
62
256
6
ByLayer
370
18
48
1
60
0
100
AcDbLine
10
49.525
20
27.896796
30
0
11
49.525
21
27.322935
31
0
39
0
210
0
220
0
230
1
0
LINE
5
2DD
100
AcDbEntity
8
1
62
256
6
ByLayer
370
13
48
1
60
0
100
AcDbLine
10
46.585632
20
30.610099
30
0
11
49.525
21
30.787118
31
0
39
0
210
0
220
0
230
1
0
LINE
5
2DE
100
AcDbEntity
8
1
62
256
6
ByLayer
370
18
48
1
60
0
100
AcDbLine
10
38.5
20
27.680257
30
0
11
38.5
21
27.322935
31
0
39
0
210
0
220
0
230
1
0
LINE
5
2DF
100
AcDbEntity
8
1
62
256
6
ByLayer
370
18
48
1
60
0
100
AcDbLine
10
38.5
20
27.322935
30
0
11
38.525151
21
27.322935
31
0
39
0
210
0
220
0
230
1
0
LINE
5
2E0
100
AcDbEntity
8
1
62
256
6
ByLayer
370
18
48
1
60
0
100
AcDbLine
10
49.474871
20
27.322935
30
0
11
49.525
21
27.322935
31
0
39
0
210
0
220
0
230
1
0
LINE
5
2E1
100
AcDbEntity
8
1
62
256
6
ByLayer
370
18
48
1
60
0
100
AcDbLine
10
49.525
20
27.896796
30
0
11
49.525
21
29.120158
31
0
39
0
210
0
220
0
230
1
0
LINE
5
2E2
100
AcDbEntity
8
1
62
256
6
ByLayer
370
18
48
1
60
0
100
AcDbLine
10
38.5
20
27.680257
30
0
11
38.5
21
28.039844
31
0
39
0
210
0
220
0
230
1
0
LINE
5
2E3
100
AcDbEntity
8
1
62
256
6
ByLayer
370
18
48
1
60
0
100
AcDbLine
10
38.5
20
27.680257
30
0
11
49.525
21
27.896796
31
0
39
0
210
0
220
0
230
1
0
LINE
5
2E4
100
AcDbEntity
8
1
62
256
6
ByLayer
370
18
48
1
60
0
100
AcDbLine
10
38.180521
20
41.538594
30
0
11
38.124095
21
42.641522
31
0
39
0
210
0
220
0
230
1
0
LINE
5
2E5
100
AcDbEntity
8
1
62
256
6
ByLayer
370
18
48
1
60
0
100
AcDbLine
10
46.634383
20
28.946075
30
0
11
49.525
21
29.120158
31
0
39
0
210
0
220
0
230
1
0
LINE
5
2E6
100
AcDbEntity
8
1
62
256
6
ByLayer
370
18
48
1
60
0
100
AcDbLine
10
49.525
20
31.746575
30
0
11
49.525
21
33.689512
31
0
39
0
210
0
220
0
230
1
0
LINE
5
2E7
100
AcDbEntity
8
1
62
256
6
ByLayer
370
18
48
1
60
0
100
AcDbLine
10
45.537028
20
38.039326
30
0
11
45.515407
21
38.881012
31
0
39
0
210
0
220
0
230
1
0
LINE
5
2E8
100
AcDbEntity
8
1
62
256
6
ByLayer
370
18
48
1
60
0
100
AcDbLine
10
38.124095
20
42.641522
30
0
11
38.500112
21
42.640661
31
0
39
0
210
0
220
0
230
1
0
LINE
5
2E9
100
AcDbEntity
8
1
62
256
6
ByLayer
370
18
48
1
60
0
100
AcDbLine
10
38.5
20
38.203855
30
0
11
38.5
21
38.443784
31
0
39
0
210
0
220
0
230
1
0
LINE
5
2EA
100
AcDbEntity
8
1
62
256
6
ByLayer
370
18
48
1
60
0
100
AcDbLine
10
46.560998
20
31.568073
30
0
11
49.525
21
31.746575
31
0
39
0
210
0
220
0
230
1
0
LINE
5
2EB
100
AcDbEntity
8
1
62
256
6
ByLayer
370
18
48
1
60
0
100
AcDbLine
10
45.675923
20
38.800618
30
0
11
45.703751
21
37.717316
31
0
39
0
210
0
220
0
230
1
0
LINE
5
2EC
100
AcDbEntity
8
1
62
256
6
ByLayer
370
18
48
1
60
0
100
AcDbLine
10
49.525
20
33.68952
30
0
11
49.525
21
37.650279
31
0
39
0
210
0
220
0
230
1
0
LINE
5
2ED
100
AcDbEntity
8
1
62
256
6
ByLayer
370
18
48
1
60
0
100
AcDbLine
10
46.511192
20
33.508019
30
0
11
49.525
21
33.68952
31
0
39
0
210
0
220
0
230
1
0
LINE
5
2EE
100
AcDbEntity
8
1
62
256
6
ByLayer
370
18
48
1
60
0
100
AcDbLine
10
45.515407
20
38.881012
30
0
11
38.5
21
38.443784
31
0
39
0
210
0
220
0
230
1
0
LINE
5
2EF
100
AcDbEntity
8
1
62
256
6
ByLayer
370
18
48
1
60
0
100
AcDbLine
10
43.196296
20
1.133948
30
0
11
43.190817
21
1.196113
31
0
39
0
210
0
220
0
230
1
0
LINE
5
2F0
100
AcDbEntity
8
1
62
256
6
ByLayer
370
18
48
1
60
0
100
AcDbLine
10
45.675923
20
38.800618
30
0
11
45.515407
21
38.881012
31
0
39
0
210
0
220
0
230
1
0
LINE
5
2F1
100
AcDbEntity
8
1
62
256
6
ByLayer
370
18
48
1
60
0
100
AcDbLine
10
41.338918
20
0.983253
30
0
11
41.339946
21
0.971594
31
0
39
0
210
0
220
0
230
1
0
LINE
5
2F2
100
AcDbEntity
8
1
62
256
6
ByLayer
370
18
48
1
60
0
100
AcDbLine
10
45.801126
20
37.788349
30
0
11
45.675923
21
38.800618
31
0
39
0
210
0
220
0
230
1
0
LINE
5
2F3
100
AcDbEntity
8
1
62
256
6
ByLayer
370
18
48
1
60
0
100
AcDbLine
10
43.190928
20
1.196086
30
0
11
43.195266
21
1.14687
31
0
39
0
210
0
220
0
230
1
0
LINE
5
2F4
100
AcDbEntity
8
1
62
256
6
ByLayer
370
18
48
1
60
0
100
AcDbLine
10
49.525
20
37.650279
30
0
11
45.929907
21
37.426219
31
0
39
0
210
0
220
0
230
1
0
LINE
5
2F5
100
AcDbEntity
8
1
62
256
6
ByLayer
370
18
48
1
60
0
100
AcDbLine
10
41.338916
20
0.984516
30
0
11
41.334686
21
1.032516
31
0
39
0
210
0
220
0
230
1
0
LINE
5
2F6
100
AcDbEntity
8
1
62
256
6
ByLayer
370
18
48
1
60
0
100
AcDbLine
10
49.525
20
39.814261
30
0
11
49.525
21
37.650279
31
0
39
0
210
0
220
0
230
1
0
LINE
5
2F7
100
AcDbEntity
8
1
62
256
6
ByLayer
370
18
48
1
60
0
100
AcDbLine
10
38.5
20
39.814261
30
0
11
49.525
21
39.814261
31
0
39
0
210
0
220
0
230
1
0
LINE
5
2F8
100
AcDbEntity
8
1
62
256
6
ByLayer
370
18
48
1
60
0
100
AcDbLine
10
38.5
20
39.814261
30
0
11
38.5
21
38.443784
31
0
39
0
210
0
220
0
230
1
0
LINE
5
2F9
100
AcDbEntity
8
1
62
256
6
ByLayer
370
18
48
1
60
0
100
AcDbLine
10
45.929907
20
37.426219
30
0
11
45.801126
21
37.788349
31
0
39
0
210
0
220
0
230
1
0
LINE
5
2FA
100
AcDbEntity
8
1
62
256
6
ByLayer
370
18
48
1
60
0
100
AcDbLine
10
45.801126
20
37.788349
30
0
11
45.808128
21
37.515768
31
0
39
0
210
0
220
0
230
1
0
LINE
5
2FB
100
AcDbEntity
8
1
62
256
6
ByLayer
370
18
48
1
60
0
100
AcDbLine
10
45.929907
20
37.426219
30
0
11
45.933844
21
37.27296
31
0
39
0
210
0
220
0
230
1
0
LINE
5
2FC
100
AcDbEntity
8
1
62
256
6
ByLayer
370
18
48
1
60
0
100
AcDbLine
10
45.418563
20
23.000876
30
0
11
44.866025
21
23.841925
31
0
39
0
210
0
220
0
230
1
0
LINE
5
2FD
100
AcDbEntity
8
1
62
256
6
ByLayer
370
18
48
1
60
0
100
AcDbLine
10
49.475
20
27.271596
30
0
11
49.475
21
19.709634
31
0
39
0
210
0
220
0
230
1
0
LINE
5
2FE
100
AcDbEntity
8
1
62
256
6
ByLayer
370
18
48
1
60
0
100
AcDbLine
10
44.866025
20
24.796243
30
0
11
43.133975
21
24.796243
31
0
39
0
210
0
220
0
230
1
0
LINE
5
2FF
100
AcDbEntity
8
1
62
256
6
ByLayer
370
18
48
1
60
0
100
AcDbLine
10
44.866025
20
24.796243
30
0
11
45.732051
21
23.478017
31
0
39
0
210
0
220
0
230
1
0
LINE
5
300
100
AcDbEntity
8
1
62
256
6
ByLayer
370
18
48
1
60
0
100
AcDbLine
10
44.866025
20
22.159791
30
0
11
45.732051
21
23.478017
31
0
39
0
210
0
220
0
230
1
0
LINE
5
301
100
AcDbEntity
8
1
62
256
6
ByLayer
370
18
48
1
60
0
100
AcDbLine
10
43.133975
20
22.159791
30
0
11
44.866025
21
22.159791
31
0
39
0
210
0
220
0
230
1
0
LINE
5
302
100
AcDbEntity
8
1
62
256
6
ByLayer
370
18
48
1
60
0
100
AcDbLine
10
49.475
20
19.50205
30
0
11
49.475
21
19.709634
31
0
39
0
210
0
220
0
230
1
0
LINE
5
303
100
AcDbEntity
8
1
62
256
6
ByLayer
370
18
48
1
60
0
100
AcDbLine
10
38.525
20
19.50205
30
0
11
38.525
21
19.709634
31
0
39
0
210
0
220
0
230
1
0
LINE
5
304
100
AcDbEntity
8
1
62
256
6
ByLayer
370
18
48
1
60
0
100
AcDbLine
10
43.133975
20
22.159791
30
0
11
42.267949
21
23.478017
31
0
39
0
210
0
220
0
230
1
0
LINE
5
305
100
AcDbEntity
8
1
62
256
6
ByLayer
370
18
48
1
60
0
100
AcDbLine
10
48.5
20
-46.973975
30
0
11
39.5
21
-46.973975
31
0
39
0
210
0
220
0
230
1
0
LINE
5
306
100
AcDbEntity
8
1
62
256
6
ByLayer
370
18
48
1
60
0
100
AcDbLine
10
49.499849
20
21.793677
30
0
11
49.525
21
21.793677
31
0
39
0
210
0
220
0
230
1
0
LINE
5
307
100
AcDbEntity
8
1
62
256
6
ByLayer
370
18
48
1
60
0
100
AcDbLine
10
42.267949
20
23.478017
30
0
11
43.133975
21
24.796243
31
0
39
0
210
0
220
0
230
1
0
LINE
5
308
100
AcDbEntity
8
1
62
256
6
ByLayer
370
18
48
1
60
0
100
AcDbLine
10
49.475
20
27.271596
30
0
11
49.475
21
27.351048
31
0
39
0
210
0
220
0
230
1
0
LINE
5
309
100
AcDbEntity
8
1
62
256
6
ByLayer
370
18
48
1
60
0
100
AcDbLine
10
38.525
20
27.271596
30
0
11
38.525
21
27.351048
31
0
39
0
210
0
220
0
230
1
0
LINE
5
30A
100
AcDbEntity
8
1
62
256
6
ByLayer
370
18
48
1
60
0
100
AcDbLine
10
49.525
20
22.144542
30
0
11
49.525
21
21.793677
31
0
39
0
210
0
220
0
230
1
0
LINE
5
30B
100
AcDbEntity
8
1
62
256
6
ByLayer
370
18
48
1
60
0
100
AcDbLine
10
49.525
20
21.793677
30
0
11
49.525
21
20.743935
31
0
39
0
210
0
220
0
230
1
0
LINE
5
30C
100
AcDbEntity
8
1
62
256
6
ByLayer
370
18
48
1
60
0
100
AcDbLine
10
49.525
20
20.743935
30
0
11
49.499849
21
20.743935
31
0
39
0
210
0
220
0
230
1
0
LINE
5
30D
100
AcDbEntity
8
80
62
256
6
ByLayer
370
18
48
1
60
0
100
AcDbLine
10
0
20
0
30
0
11
-5
21
0
31
0
39
0
210
0
220
0
230
1
0
LINE
5
30E
100
AcDbEntity
8
4
62
256
6
ByLayer
370
18
48
0.05
60
0
100
AcDbLine
10
0
20
0
30
0
11
41
21
0
31
0
39
0
210
0
220
0
230
1
0
LINE
5
310
100
AcDbEntity
8
SK4
62
256
6
ByLayer
370
18
48
0.05
60
0
100
AcDbLine
10
-3
20
0
30
0
11
41
21
0
31
0
39
0
210
0
220
0
230
1
0
LINE
5
312
100
AcDbEntity
8
1
62
256
6
ByLayer
370
18
48
1
60
0
100
AcDbLine
10
49.499849
20
16.903684
30
0
11
49.525
21
16.903684
31
0
39
0
210
0
220
0
230
1
0
LINE
5
313
100
AcDbEntity
8
1
62
256
6
ByLayer
370
18
48
1
60
0
100
AcDbLine
10
49.499849
20
-11.572337
30
0
11
49.525
21
-11.572337
31
0
39
0
210
0
220
0
230
1
0
LINE
5
314
100
AcDbEntity
8
1
62
256
6
ByLayer
370
18
48
1
60
0
100
AcDbLine
10
49.499849
20
-11.17148
30
0
11
49.525
21
-11.17148
31
0
39
0
210
0
220
0
230
1
0
LINE
5
315
100
AcDbEntity
8
1
62
256
6
ByLayer
370
18
48
1
60
0
100
AcDbLine
10
49.499849
20
-10.770622
30
0
11
49.525
21
-10.770622
31
0
39
0
210
0
220
0
230
1
0
LINE
5
316
100
AcDbEntity
8
1
62
256
6
ByLayer
370
18
48
1
60
0
100
AcDbLine
10
49.499911
20
-10.369764
30
0
11
49.525
21
-10.369764
31
0
39
0
210
0
220
0
230
1
0
LINE
5
317
100
AcDbEntity
8
1
62
256
6
ByLayer
370
18
48
1
60
0
100
AcDbLine
10
49.499946
20
-9.968907
30
0
11
49.525
21
-9.968907
31
0
39
0
210
0
220
0
230
1
0
LINE
5
318
100
AcDbEntity
8
1
62
256
6
ByLayer
370
18
48
1
60
0
100
AcDbLine
10
49.499849
20
-9.568049
30
0
11
49.525
21
-9.568049
31
0
39
0
210
0
220
0
230
1
0
LINE
5
319
100
AcDbEntity
8
1
62
256
6
ByLayer
370
18
48
1
60
0
100
AcDbLine
10
49.499849
20
-9.167192
30
0
11
49.525
21
-9.167192
31
0
39
0
210
0
220
0
230
1
0
LINE
5
31A
100
AcDbEntity
8
1
62
256
6
ByLayer
370
18
48
1
60
0
100
AcDbLine
10
49.499849
20
-8.766334
30
0
11
49.525
21
-8.766334
31
0
39
0
210
0
220
0
230
1
0
LINE
5
31B
100
AcDbEntity
8
1
62
256
6
ByLayer
370
18
48
1
60
0
100
AcDbLine
10
49.499849
20
-8.365477
30
0
11
49.525
21
-8.365477
31
0
39
0
210
0
220
0
230
1
0
LINE
5
31C
100
AcDbEntity
8
1
62
256
6
ByLayer
370
18
48
1
60
0
100
AcDbLine
10
49.499849
20
-7.964619
30
0
11
49.525
21
-7.964619
31
0
39
0
210
0
220
0
230
1
0
LINE
5
31D
100
AcDbEntity
8
1
62
256
6
ByLayer
370
18
48
1
60
0
100
AcDbLine
10
49.499849
20
-7.563762
30
0
11
49.525
21
-7.563762
31
0
39
0
210
0
220
0
230
1
0
LINE
5
31E
100
AcDbEntity
8
1
62
256
6
ByLayer
370
18
48
1
60
0
100
AcDbLine
10
49.499849
20
-7.162904
30
0
11
49.525
21
-7.162904
31
0
39
0
210
0
220
0
230
1
0
LINE
5
31F
100
AcDbEntity
8
1
62
256
6
ByLayer
370
18
48
1
60
0
100
AcDbLine
10
0
20
-24.5
30
0
11
0.4
21
-24.5
31
0
39
0
210
0
220
0
230
1
0
LINE
5
320
100
AcDbEntity
8
1
62
256
6
ByLayer
370
18
48
1
60
0
100
AcDbLine
10
0.4
20
24.5
30
0
11
0
21
24.5
31
0
39
0
210
0
220
0
230
1
0
LINE
5
321
100
AcDbEntity
8
1
62
256
6
ByLayer
370
18
48
1
60
0
100
AcDbLine
10
0.9
20
25.5
30
0
11
0.4
21
25
31
0
39
0
210
0
220
0
230
1
0
LINE
5
322
100
AcDbEntity
8
1
62
256
6
ByLayer
370
18
48
1
60
0
100
AcDbLine
10
0.4
20
-25
30
0
11
0.9
21
-25.5
31
0
39
0
210
0
220
0
230
1
0
LINE
5
323
100
AcDbEntity
8
1
62
256
6
ByLayer
370
18
48
1
60
0
100
AcDbLine
10
0.9
20
-25.5
30
0
11
37.7
21
-25.5
31
0
39
0
210
0
220
0
230
1
0
LINE
5
324
100
AcDbEntity
8
1
62
256
6
ByLayer
370
18
48
1
60
0
100
AcDbLine
10
37.7
20
25.5
30
0
11
0.9
21
25.5
31
0
39
0
210
0
220
0
230
1
0
LINE
5
325
100
AcDbEntity
8
1
62
256
6
ByLayer
370
18
48
1
60
0
100
AcDbLine
10
49.525
20
11.572337
30
0
11
38.5
21
11.572337
31
0
39
0
210
0
220
0
230
1
0
LINE
5
326
100
AcDbEntity
8
1
62
256
6
ByLayer
370
18
48
1
60
0
100
AcDbLine
10
46.489476
20
-32.071441
30
0
11
46.519284
21
-32.049442
31
0
39
0
210
0
220
0
230
1
0
LINE
5
327
100
AcDbEntity
8
1
62
256
6
ByLayer
370
18
48
1
60
0
100
AcDbLine
10
43.117698
20
33.158601
30
0
11
43.201982
21
32.683424
31
0
39
0
210
0
220
0
230
1
0
LINE
5
328
100
AcDbEntity
8
1
62
256
6
ByLayer
370
18
48
1
60
0
100
AcDbLine
10
41.334454
20
32.692303
30
0
11
41.250171
21
33.167479
31
0
39
0
210
0
220
0
230
1
0
LINE
5
329
100
AcDbEntity
8
1
62
256
6
ByLayer
370
18
48
1
60
0
100
AcDbLine
10
44.330595
20
33.084776
30
0
11
44.268498
21
33.434871
31
0
39
0
210
0
220
0
230
1
0
LINE
5
32A
100
AcDbEntity
8
1
62
256
6
ByLayer
370
18
48
1
60
0
100
AcDbLine
10
40.133046
20
32.701357
30
0
11
40.195144
21
32.351261
31
0
39
0
210
0
220
0
230
1
0
LINE
5
32B
100
AcDbEntity
8
1
62
256
6
ByLayer
370
18
48
1
60
0
100
AcDbLine
10
43.217
20
45.326259
30
0
11
43.131317
21
45.03729
31
0
39
0
210
0
220
0
230
1
0
LINE
5
32C
100
AcDbEntity
8
1
62
256
6
ByLayer
370
18
48
1
60
0
100
AcDbLine
10
41.933749
20
45.954042
30
0
11
42.027102
21
46.268876
31
0
39
0
210
0
220
0
230
1
0
LINE
5
32D
100
AcDbEntity
8
1
62
256
6
ByLayer
370
18
48
1
60
0
100
AcDbLine
10
41.236553
20
44.744876
30
0
11
41.322236
21
45.033845
31
0
39
0
210
0
220
0
230
1
0
LINE
5
32E
100
AcDbEntity
8
1
62
256
6
ByLayer
370
18
48
1
60
0
100
AcDbLine
10
40.249513
20
45.75428
30
0
11
40.187415
21
45.544855
31
0
39
0
210
0
220
0
230
1
0
LINE
5
32F
100
AcDbEntity
8
1
62
256
6
ByLayer
370
18
48
1
60
0
100
AcDbLine
10
49.525
20
-16.903684
30
0
11
49.499849
21
-16.903684
31
0
39
0
210
0
220
0
230
1
0
LINE
5
330
100
AcDbEntity
8
1
62
256
6
ByLayer
370
18
48
1
60
0
100
AcDbLine
10
49.525
20
-17.642319
30
0
11
49.499849
21
-17.642319
31
0
39
0
210
0
220
0
230
1
0
LINE
5
331
100
AcDbEntity
8
1
62
256
6
ByLayer
370
18
48
1
60
0
100
AcDbLine
10
49.525
20
-18.380955
30
0
11
49.499849
21
-18.380955
31
0
39
0
210
0
220
0
230
1
0
LINE
5
332
100
AcDbEntity
8
1
62
256
6
ByLayer
370
18
48
1
60
0
100
AcDbLine
10
49.525
20
-19.11959
30
0
11
49.499849
21
-19.11959
31
0
39
0
210
0
220
0
230
1
0
LINE
5
333
100
AcDbEntity
8
1
62
256
6
ByLayer
370
18
48
1
60
0
100
AcDbLine
10
49.525
20
-19.858226
30
0
11
49.499849
21
-19.858226
31
0
39
0
210
0
220
0
230
1
0
LINE
5
334
100
AcDbEntity
8
1
62
256
6
ByLayer
370
18
48
1
60
0
100
AcDbLine
10
49.525
20
-20.596861
30
0
11
49.499849
21
-20.596861
31
0
39
0
210
0
220
0
230
1
0
LINE
5
335
100
AcDbEntity
8
1
62
256
6
ByLayer
370
18
48
1
60
0
100
AcDbLine
10
49.525
20
-21.335496
30
0
11
49.499849
21
-21.335496
31
0
39
0
210
0
220
0
230
1
0
LINE
5
336
100
AcDbEntity
8
1
62
256
6
ByLayer
370
18
48
1
60
0
100
AcDbLine
10
49.525
20
-22.074132
30
0
11
49.499903
21
-22.074132
31
0
39
0
210
0
220
0
230
1
0
LINE
5
337
100
AcDbEntity
8
1
62
256
6
ByLayer
370
18
48
1
60
0
100
AcDbLine
10
49.525
20
-22.812767
30
0
11
49.499921
21
-22.812767
31
0
39
0
210
0
220
0
230
1
0
LINE
5
338
100
AcDbEntity
8
1
62
256
6
ByLayer
370
18
48
1
60
0
100
AcDbLine
10
49.525
20
-23.551402
30
0
11
49.499849
21
-23.551402
31
0
39
0
210
0
220
0
230
1
0
LINE
5
339
100
AcDbEntity
8
1
62
256
6
ByLayer
370
18
48
1
60
0
100
AcDbLine
10
49.525
20
-24.290038
30
0
11
49.499849
21
-24.290038
31
0
39
0
210
0
220
0
230
1
0
LINE
5
33A
100
AcDbEntity
8
1
62
256
6
ByLayer
370
18
48
1
60
0
100
AcDbLine
10
49.525
20
-25.028673
30
0
11
38.5
21
-25.028673
31
0
39
0
210
0
220
0
230
1
0
LINE
5
33B
100
AcDbEntity
8
81
62
256
6
ByLayer
370
18
48
1
60
0
100
AcDbLine
10
38
20
50
30
0
11
43
21
50
31
0
39
0
210
0
220
0
230
1
0
LINE
5
33C
100
AcDbEntity
8
SK2
62
256
6
ByLayer
370
13
48
1
60
0
100
AcDbLine
10
38.565685
20
-50.565685
30
0
11
44.576093
21
-56.576093
31
0
39
0
210
0
220
0
230
1
0
LINE
5
33E
100
AcDbEntity
8
1
62
256
6
ByLayer
370
18
48
1
60
1
100
AcDbLine
10
38.565685
20
-50.565685
30
0
11
41.366381
21
-52.714735
31
0
39
0
210
0
220
0
230
1
0
LINE
5
33F
100
AcDbEntity
8
1
62
256
6
ByLayer
370
18
48
1
60
1
100
AcDbLine
10
41.366381
20
-52.714735
30
0
11
40.714737
21
-53.366384
31
0
39
0
210
0
220
0
230
1
0
LINE
5
340
100
AcDbEntity
8
1
62
256
6
ByLayer
370
18
48
1
60
1
100
AcDbLine
10
40.714737
20
-53.366384
30
0
11
38.565685
21
-50.565685
31
0
39
0
210
0
220
0
230
1
0
LINE
5
341
100
AcDbEntity
8
2
62
256
6
ByLayer
370
13
48
1
60
0
100
AcDbLine
10
62.905444
20
50
30
0
11
62.905444
21
-50
31
0
39
0
210
0
220
0
230
1
0
LINE
5
343
100
AcDbEntity
8
2
62
256
6
ByLayer
370
13
48
1
60
0
100
AcDbLine
10
39.5875
20
-50
30
0
11
64.905444
21
-50
31
0
39
0
210
0
220
0
230
1
0
LINE
5
344
100
AcDbEntity
8
2
62
256
6
ByLayer
370
13
48
1
60
0
100
AcDbLine
10
39.5875
20
50
30
0
11
64.905444
21
50
31
0
39
0
210
0
220
0
230
1
0
LINE
5
345
100
AcDbEntity
8
1
62
256
6
ByLayer
370
18
48
1
60
1
100
AcDbLine
10
62.905444
20
-50
30
0
11
62.44466
21
-46.500002
31
0
39
0
210
0
220
0
230
1
0
LINE
5
346
100
AcDbEntity
8
1
62
256
6
ByLayer
370
18
48
1
60
1
100
AcDbLine
10
62.44466
20
-46.500002
30
0
11
63.366228
21
-46.499998
31
0
39
0
210
0
220
0
230
1
0
LINE
5
347
100
AcDbEntity
8
1
62
256
6
ByLayer
370
18
48
1
60
1
100
AcDbLine
10
63.366228
20
-46.499998
30
0
11
62.905444
21
-50
31
0
39
0
210
0
220
0
230
1
0
LINE
5
348
100
AcDbEntity
8
1
62
256
6
ByLayer
370
18
48
1
60
1
100
AcDbLine
10
62.905444
20
50
30
0
11
63.366228
21
46.500002
31
0
39
0
210
0
220
0
230
1
0
LINE
5
349
100
AcDbEntity
8
1
62
256
6
ByLayer
370
18
48
1
60
1
100
AcDbLine
10
63.366228
20
46.500002
30
0
11
62.44466
21
46.499998
31
0
39
0
210
0
220
0
230
1
0
LINE
5
34A
100
AcDbEntity
8
1
62
256
6
ByLayer
370
18
48
1
60
1
100
AcDbLine
10
62.44466
20
46.499998
30
0
11
62.905444
21
50
31
0
39
0
210
0
220
0
230
1
0
LINE
5
34B
100
AcDbEntity
8
SK2
62
256
6
ByLayer
370
13
48
1
60
0
100
AcDbLine
10
-14.35
20
13.5
30
0
11
-14.35
21
-13.5
31
0
39
0
210
0
220
0
230
1
0
LINE
5
34C
100
AcDbEntity
8
SK2
62
256
6
ByLayer
370
13
48
1
60
0
100
AcDbLine
10
-1.5875
20
-13.5
30
0
11
-16.35
21
-13.5
31
0
39
0
210
0
220
0
230
1
0
LINE
5
34D
100
AcDbEntity
8
SK2
62
256
6
ByLayer
370
13
48
1
60
0
100
AcDbLine
10
-1.5875
20
13.5
30
0
11
-16.35
21
13.5
31
0
39
0
210
0
220
0
230
1
0
LINE
5
34E
100
AcDbEntity
8
1
62
256
6
ByLayer
370
18
48
1
60
1
100
AcDbLine
10
-14.35
20
-13.5
30
0
11
-14.810784
21
-10.000002
31
0
39
0
210
0
220
0
230
1
0
LINE
5
34F
100
AcDbEntity
8
1
62
256
6
ByLayer
370
18
48
1
60
1
100
AcDbLine
10
-14.810784
20
-10.000002
30
0
11
-13.889216
21
-9.999998
31
0
39
0
210
0
220
0
230
1
0
LINE
5
350
100
AcDbEntity
8
1
62
256
6
ByLayer
370
18
48
1
60
1
100
AcDbLine
10
-13.889216
20
-9.999998
30
0
11
-14.35
21
-13.5
31
0
39
0
210
0
220
0
230
1
0
LINE
5
351
100
AcDbEntity
8
1
62
256
6
ByLayer
370
18
48
1
60
1
100
AcDbLine
10
-14.35
20
13.5
30
0
11
-13.889216
21
10.000002
31
0
39
0
210
0
220
0
230
1
0
LINE
5
352
100
AcDbEntity
8
1
62
256
6
ByLayer
370
18
48
1
60
1
100
AcDbLine
10
-13.889216
20
10.000002
30
0
11
-14.810784
21
9.999998
31
0
39
0
210
0
220
0
230
1
0
LINE
5
353
100
AcDbEntity
8
1
62
256
6
ByLayer
370
18
48
1
60
1
100
AcDbLine
10
-14.810784
20
9.999998
30
0
11
-14.35
21
13.5
31
0
39
0
210
0
220
0
230
1
0
LINE
5
354
100
AcDbEntity
8
SK2
62
256
6
ByLayer
370
13
48
1
60
0
100
AcDbLine
10
-24.35
20
25.5
30
0
11
-24.35
21
-25.5
31
0
39
0
210
0
220
0
230
1
0
LINE
5
355
100
AcDbEntity
8
SK2
62
256
6
ByLayer
370
13
48
1
60
0
100
AcDbLine
10
-1.5875
20
-25.5
30
0
11
-26.35
21
-25.5
31
0
39
0
210
0
220
0
230
1
0
LINE
5
356
100
AcDbEntity
8
SK2
62
256
6
ByLayer
370
13
48
1
60
0
100
AcDbLine
10
-1.5875
20
25.5
30
0
11
-26.35
21
25.5
31
0
39
0
210
0
220
0
230
1
0
LINE
5
357
100
AcDbEntity
8
1
62
256
6
ByLayer
370
18
48
1
60
1
100
AcDbLine
10
-24.35
20
-25.5
30
0
11
-24.810784
21
-22.000002
31
0
39
0
210
0
220
0
230
1
0
LINE
5
358
100
AcDbEntity
8
1
62
256
6
ByLayer
370
18
48
1
60
1
100
AcDbLine
10
-24.810784
20
-22.000002
30
0
11
-23.889216
21
-21.999998
31
0
39
0
210
0
220
0
230
1
0
LINE
5
359
100
AcDbEntity
8
1
62
256
6
ByLayer
370
18
48
1
60
1
100
AcDbLine
10
-23.889216
20
-21.999998
30
0
11
-24.35
21
-25.5
31
0
39
0
210
0
220
0
230
1
0
LINE
5
35A
100
AcDbEntity
8
1
62
256
6
ByLayer
370
18
48
1
60
1
100
AcDbLine
10
-24.35
20
25.5
30
0
11
-23.889216
21
22.000002
31
0
39
0
210
0
220
0
230
1
0
LINE
5
35B
100
AcDbEntity
8
1
62
256
6
ByLayer
370
18
48
1
60
1
100
AcDbLine
10
-23.889216
20
22.000002
30
0
11
-24.810784
21
21.999998
31
0
39
0
210
0
220
0
230
1
0
LINE
5
35C
100
AcDbEntity
8
1
62
256
6
ByLayer
370
18
48
1
60
1
100
AcDbLine
10
-24.810784
20
21.999998
30
0
11
-24.35
21
25.5
31
0
39
0
210
0
220
0
230
1
0
LINE
5
44F
100
AcDbEntity
8
1
62
256
6
ByLayer
370
18
48
1
60
1
100
AcDbLine
10
38.565685
20
-50.565685
30
0
11
41.366381
21
-52.714735
31
0
39
0
210
0
220
0
230
1
0
LINE
5
450
100
AcDbEntity
8
1
62
256
6
ByLayer
370
18
48
1
60
1
100
AcDbLine
10
41.366381
20
-52.714735
30
0
11
40.714737
21
-53.366384
31
0
39
0
210
0
220
0
230
1
0
LINE
5
451
100
AcDbEntity
8
1
62
256
6
ByLayer
370
18
48
1
60
1
100
AcDbLine
10
40.714737
20
-53.366384
30
0
11
38.565685
21
-50.565685
31
0
39
0
210
0
220
0
230
1
0
LINE
5
455
100
AcDbEntity
8
1
62
256
6
ByLayer
370
18
48
1
60
1
100
AcDbLine
10
62.905444
20
-50
30
0
11
62.44466
21
-46.500002
31
0
39
0
210
0
220
0
230
1
0
LINE
5
456
100
AcDbEntity
8
1
62
256
6
ByLayer
370
18
48
1
60
1
100
AcDbLine
10
62.44466
20
-46.500002
30
0
11
63.366228
21
-46.499998
31
0
39
0
210
0
220
0
230
1
0
LINE
5
457
100
AcDbEntity
8
1
62
256
6
ByLayer
370
18
48
1
60
1
100
AcDbLine
10
63.366228
20
-46.499998
30
0
11
62.905444
21
-50
31
0
39
0
210
0
220
0
230
1
0
LINE
5
459
100
AcDbEntity
8
1
62
256
6
ByLayer
370
18
48
1
60
1
100
AcDbLine
10
62.905444
20
50
30
0
11
63.366228
21
46.500002
31
0
39
0
210
0
220
0
230
1
0
LINE
5
45A
100
AcDbEntity
8
1
62
256
6
ByLayer
370
18
48
1
60
1
100
AcDbLine
10
63.366228
20
46.500002
30
0
11
62.44466
21
46.499998
31
0
39
0
210
0
220
0
230
1
0
LINE
5
45B
100
AcDbEntity
8
1
62
256
6
ByLayer
370
18
48
1
60
1
100
AcDbLine
10
62.44466
20
46.499998
30
0
11
62.905444
21
50
31
0
39
0
210
0
220
0
230
1
0
LINE
5
45F
100
AcDbEntity
8
1
62
256
6
ByLayer
370
18
48
1
60
1
100
AcDbLine
10
-14.35
20
-13.5
30
0
11
-14.810784
21
-10.000002
31
0
39
0
210
0
220
0
230
1
0
LINE
5
460
100
AcDbEntity
8
1
62
256
6
ByLayer
370
18
48
1
60
1
100
AcDbLine
10
-14.810784
20
-10.000002
30
0
11
-13.889216
21
-9.999998
31
0
39
0
210
0
220
0
230
1
0
LINE
5
461
100
AcDbEntity
8
1
62
256
6
ByLayer
370
18
48
1
60
1
100
AcDbLine
10
-13.889216
20
-9.999998
30
0
11
-14.35
21
-13.5
31
0
39
0
210
0
220
0
230
1
0
LINE
5
463
100
AcDbEntity
8
1
62
256
6
ByLayer
370
18
48
1
60
1
100
AcDbLine
10
-14.35
20
13.5
30
0
11
-13.889216
21
10.000002
31
0
39
0
210
0
220
0
230
1
0
LINE
5
464
100
AcDbEntity
8
1
62
256
6
ByLayer
370
18
48
1
60
1
100
AcDbLine
10
-13.889216
20
10.000002
30
0
11
-14.810784
21
9.999998
31
0
39
0
210
0
220
0
230
1
0
LINE
5
465
100
AcDbEntity
8
1
62
256
6
ByLayer
370
18
48
1
60
1
100
AcDbLine
10
-14.810784
20
9.999998
30
0
11
-14.35
21
13.5
31
0
39
0
210
0
220
0
230
1
0
LINE
5
469
100
AcDbEntity
8
1
62
256
6
ByLayer
370
18
48
1
60
1
100
AcDbLine
10
-24.35
20
-25.5
30
0
11
-24.810784
21
-22.000002
31
0
39
0
210
0
220
0
230
1
0
LINE
5
46A
100
AcDbEntity
8
1
62
256
6
ByLayer
370
18
48
1
60
1
100
AcDbLine
10
-24.810784
20
-22.000002
30
0
11
-23.889216
21
-21.999998
31
0
39
0
210
0
220
0
230
1
0
LINE
5
46B
100
AcDbEntity
8
1
62
256
6
ByLayer
370
18
48
1
60
1
100
AcDbLine
10
-23.889216
20
-21.999998
30
0
11
-24.35
21
-25.5
31
0
39
0
210
0
220
0
230
1
0
LINE
5
46D
100
AcDbEntity
8
1
62
256
6
ByLayer
370
18
48
1
60
1
100
AcDbLine
10
-24.35
20
25.5
30
0
11
-23.889216
21
22.000002
31
0
39
0
210
0
220
0
230
1
0
LINE
5
46E
100
AcDbEntity
8
1
62
256
6
ByLayer
370
18
48
1
60
1
100
AcDbLine
10
-23.889216
20
22.000002
30
0
11
-24.810784
21
21.999998
31
0
39
0
210
0
220
0
230
1
0
LINE
5
46F
100
AcDbEntity
8
1
62
256
6
ByLayer
370
18
48
1
60
1
100
AcDbLine
10
-24.810784
20
21.999998
30
0
11
-24.35
21
25.5
31
0
39
0
210
0
220
0
230
1
0
MTEXT
5
44B
100
AcDbEntity
8
SK2
62
256
6
ByLayer
370
13
48
1
60
0
100
AcDbMText
10
43.966192
20
-59.335314
30
0
210
0
220
0
230
1
1
\W0.6380;R
40
3.5
41
0
44
1.084337
50
315
71
7
72
5
7
iso_b_vert
0
MTEXT
5
44E
100
AcDbEntity
8
SK2
62
256
6
ByLayer
370
13
48
1
60
0
100
AcDbMText
10
46.571174
20
-61.940295
30
0
210
0
220
0
230
1
1
\W0.7121;0.8
40
3.5
41
0
44
1.084337
50
315
71
7
72
5
7
iso_b_vert
0
MTEXT
5
453
100
AcDbEntity
8
2
62
256
6
ByLayer
370
18
48
1
60
0
100
AcDbMText
10
61.117291
20
-6.172483
30
0
210
0
220
0
230
1
1
%%c
40
4
41
0
44
1.084337
50
90
71
7
72
5
7
iso_b_vert
0
MTEXT
5
454
100
AcDbEntity
8
2
62
256
6
ByLayer
370
18
48
1
60
0
100
AcDbMText
10
61.117291
20
1.796267
30
0
210
0
220
0
230
1
1
\W0.6217;100
40
4
41
0
44
1.084337
50
90
71
7
72
5
7
iso_b_vert
0
MTEXT
5
45D
100
AcDbEntity
8
SK2
62
256
6
ByLayer
370
18
48
1
60
0
100
AcDbMText
10
-16.138153
20
-7.482692
30
0
210
0
220
0
230
1
1
%%c
40
4
41
0
44
1.084337
50
90
71
7
72
5
7
iso_b_vert
0
MTEXT
5
45E
100
AcDbEntity
8
SK2
62
256
6
ByLayer
370
18
48
1
60
0
100
AcDbMText
10
-16.138153
20
0.486058
30
0
210
0
220
0
230
1
1
\W0.7346;27.0
40
4
41
0
44
1.084337
50
90
71
7
72
5
7
iso_b_vert
0
MTEXT
5
467
100
AcDbEntity
8
SK2
62
256
6
ByLayer
370
18
48
1
60
0
100
AcDbMText
10
-26.138153
20
-4.677931
30
0
210
0
220
0
230
1
1
%%c
40
4
41
0
44
1.084337
50
90
71
7
72
5
7
iso_b_vert
0
MTEXT
5
468
100
AcDbEntity
8
SK2
62
256
6
ByLayer
370
18
48
1
60
0
100
AcDbMText
10
-26.138153
20
3.290819
30
0
210
0
220
0
230
1
1
\W0.6351;51
40
4
41
0
44
1.084337
50
90
71
7
72
5
7
iso_b_vert
0
MTEXT
5
471
100
AcDbEntity
8
SK6
62
256
6
ByLayer
370
13
48
1
60
0
100
AcDbMText
10
22.463222
20
-84.217366
30
0
210
0
220
0
230
1
1
\W0.7534;R331.52C-100Q27FML
40
3.5
41
0
44
1.084337
50
0
71
7
72
5
7
iso_b_vert
0
HATCH
5
452
100
AcDbEntity
8
SK2
62
256
6
ByLayer
370
13
48
1
60
0
100
AcDbHatch
10
0
20
0
30
0
210
0
220
0
230
1
2
ANSI31
70
0
71
0
91
1
92
5
93
3
72
1
10
38.5656854249493
20
-50.5656854249493
11
41.3663812705988
21
-52.7147346539739
72
1
10
41.3663812705988
20
-52.7147346539739
11
40.7147370476056
21
-53.3663836642305
72
1
10
40.7147370476056
20
-53.3663836642305
11
38.5656854249493
21
-50.5656854249493
97
0
75
0
76
1
52
0
41
0.0062
77
0
78
1
53
44.9999999999999
43
0
44
0
45
-0.0139193969876572
46
0.0139193969876572
79
0
47
0
98
1
10
0
20
0
0
HATCH
5
458
100
AcDbEntity
8
2
62
256
6
ByLayer
370
13
48
1
60
0
100
AcDbHatch
10
0
20
0
30
0
210
0
220
0
230
1
2
ANSI31
70
0
71
0
91
1
92
5
93
3
72
1
10
62.905443963239
20
-50
11
62.4446602216863
21
-46.5000016925532
72
1
10
62.4446602216863
20
-46.5000016925532
11
63.3662277047917
21
-46.4999983074468
72
1
10
63.3662277047917
20
-46.4999983074468
11
62.905443963239
21
-50
97
0
75
0
76
1
52
0
41
0.0062
77
0
78
1
53
44.9999999999999
43
0
44
0
45
-0.0139193969876572
46
0.0139193969876572
79
0
47
0
98
1
10
0
20
0
0
HATCH
5
45C
100
AcDbEntity
8
2
62
256
6
ByLayer
370
13
48
1
60
0
100
AcDbHatch
10
0
20
0
30
0
210
0
220
0
230
1
2
ANSI31
70
0
71
0
91
1
92
5
93
3
72
1
10
62.905443963239
20
50
11
63.3662277047917
21
46.5000016925532
72
1
10
63.3662277047917
20
46.5000016925532
11
62.4446602216863
21
46.4999983074468
72
1
10
62.4446602216863
20
46.4999983074468
11
62.905443963239
21
50
97
0
75
0
76
1
52
0
41
0.0062
77
0
78
1
53
44.9999999999999
43
0
44
0
45
-0.0139193969876572
46
0.0139193969876572
79
0
47
0
98
1
10
0
20
0
0
HATCH
5
462
100
AcDbEntity
8
SK2
62
256
6
ByLayer
370
13
48
1
60
0
100
AcDbHatch
10
0
20
0
30
0
210
0
220
0
230
1
2
ANSI31
70
0
71
0
91
1
92
5
93
3
72
1
10
-14.35
20
-13.5
11
-14.8107837415528
21
-10.0000016925532
72
1
10
-14.8107837415528
20
-10.0000016925532
11
-13.8892162584473
21
-9.99999830744679
72
1
10
-13.8892162584473
20
-9.99999830744679
11
-14.35
21
-13.5
97
0
75
0
76
1
52
0
41
0.0062
77
0
78
1
53
44.9999999999999
43
0
44
0
45
-0.0139193969876572
46
0.0139193969876572
79
0
47
0
98
1
10
0
20
0
0
HATCH
5
466
100
AcDbEntity
8
SK2
62
256
6
ByLayer
370
13
48
1
60
0
100
AcDbHatch
10
0
20
0
30
0
210
0
220
0
230
1
2
ANSI31
70
0
71
0
91
1
92
5
93
3
72
1
10
-14.35
20
13.5
11
-13.8892162584473
21
10.0000016925532
72
1
10
-13.8892162584473
20
10.0000016925532
11
-14.8107837415528
21
9.99999830744679
72
1
10
-14.8107837415528
20
9.99999830744679
11
-14.35
21
13.5
97
0
75
0
76
1
52
0
41
0.0062
77
0
78
1
53
44.9999999999999
43
0
44
0
45
-0.0139193969876572
46
0.0139193969876572
79
0
47
0
98
1
10
0
20
0
0
HATCH
5
46C
100
AcDbEntity
8
SK2
62
256
6
ByLayer
370
13
48
1
60
0
100
AcDbHatch
10
0
20
0
30
0
210
0
220
0
230
1
2
ANSI31
70
0
71
0
91
1
92
5
93
3
72
1
10
-24.35
20
-25.5
11
-24.8107837415528
21
-22.0000016925532
72
1
10
-24.8107837415528
20
-22.0000016925532
11
-23.8892162584473
21
-21.9999983074468
72
1
10
-23.8892162584473
20
-21.9999983074468
11
-24.35
21
-25.5
97
0
75
0
76
1
52
0
41
0.0062
77
0
78
1
53
44.9999999999999
43
0
44
0
45
-0.0139193969876572
46
0.0139193969876572
79
0
47
0
98
1
10
0
20
0
0
HATCH
5
470
100
AcDbEntity
8
SK2
62
256
6
ByLayer
370
13
48
1
60
0
100
AcDbHatch
10
0
20
0
30
0
210
0
220
0
230
1
2
ANSI31
70
0
71
0
91
1
92
5
93
3
72
1
10
-24.35
20
25.5
11
-23.8892162584473
21
22.0000016925532
72
1
10
-23.8892162584473
20
22.0000016925532
11
-24.8107837415528
21
21.9999983074468
72
1
10
-24.8107837415528
20
21.9999983074468
11
-24.35
21
25.5
97
0
75
0
76
1
52
0
41
0.0062
77
0
78
1
53
44.9999999999999
43
0
44
0
45
-0.0139193969876572
46
0.0139193969876572
79
0
47
0
98
1
10
0
20
0
0
DIMENSION
5
474
100
AcDbEntity
8
2
62
256
6
ByLayer
370
13
48
1
60
0
100
AcDbDimension
2
_U0
10
0
20
-63.376741
30
0
11
19
21
-63.376741
31
0
70
32
71
1
72
1
41
1
210
0
220
0
230
1
3
Standard
100
AcDbAlignedDimension
13
38
23
-50
33
0
14
0
24
-13.5
34
0
50
0
100
AcDbRotatedDimension
1001
ACAD
1000
DSTYLE
1002
{
1070
   371
1070
    13
1070
   372
1070
    13
1070
   170
1070
     0
1070
   144
1040
1.0
1070
   277
1070
     2
1070
   284
1070
     8
1070
   278
1070
    46
1070
   146
1040
0.875
1070
   345
1005
16
1070
   347
1005
16
1070
   346
1005
16
1070
   344
1005
0
1070
   343
1005
0
1070
   172
1070
     1
1070
    76
1070
     0
1070
    75
1070
     0
1070
   282
1070
     0
1070
   281
1070
     0
1070
    71
1070
     0
1070
    74
1070
     0
1070
   279
1070
     0
1070
   173
1070
     1
1070
   340
1005
44C
1070
   271
1070
     2
1070
   272
1070
     2
1070
    77
1070
     1
1070
    73
1070
     1
1070
   171
1070
     3
1070
   274
1070
     4
1070
   177
1070
     2
1070
   176
1070
     2
1070
   178
1070
     2
1070
    78
1070
     8
1070
    48
1040
-0.1
1070
    41
1040
3.5
1070
   147
1040
2.0
1070
    42
1040
1.5875
1070
    44
1040
2.0
1070
   140
1040
4.0
1002
}
1001
ACAD_DSTYLE_DIM_LINETYPE
1070
   380
1005
16
1001
ACAD_DSTYLE_DIM_EXT1_LINETYPE
1070
   381
1005
16
1001
ACAD_DSTYLE_DIM_EXT2_LINETYPE
1070
   382
1005
16
0
DIMENSION
5
48D
100
AcDbEntity
8
SK2
62
256
6
ByLayer
370
13
48
1
60
0
100
AcDbDimension
2
_U1
10
45.6
20
59.376741
30
0
11
62.790476
21
59.376741
31
0
70
32
71
1
72
1
41
1
210
0
220
0
230
1
3
Standard
100
AcDbAlignedDimension
13
38
23
50
33
0
14
45.6
24
50
34
0
50
0
100
AcDbRotatedDimension
1001
ACAD
1000
DSTYLE
1002
{
1070
   371
1070
    13
1070
   372
1070
    13
1070
     3
1000

1070
   170
1070
     0
1070
   144
1040
1.0
1070
   277
1070
     2
1070
   284
1070
     8
1070
   278
1070
    46
1070
   146
1040
0.875
1070
   345
1005
16
1070
   347
1005
16
1070
   346
1005
16
1070
   344
1005
0
1070
   343
1005
0
1070
   172
1070
     1
1070
    76
1070
     0
1070
    75
1070
     0
1070
   282
1070
     0
1070
   281
1070
     0
1070
    71
1070
     0
1070
    74
1070
     0
1070
   279
1070
     0
1070
   173
1070
     1
1070
   340
1005
44C
1070
   271
1070
     2
1070
   272
1070
     2
1070
    77
1070
     1
1070
    73
1070
     1
1070
   171
1070
     3
1070
   274
1070
     4
1070
   177
1070
     2
1070
   176
1070
     2
1070
   178
1070
     2
1070
    78
1070
     8
1070
    48
1040
-0.1
1070
    41
1040
3.5
1070
   147
1040
2.0
1070
    42
1040
1.5875
1070
    44
1040
2.0
1070
   140
1040
4.0
1002
}
1001
ACAD_DSTYLE_DIM_LINETYPE
1070
   380
1005
16
1001
ACAD_DSTYLE_DIM_EXT1_LINETYPE
1070
   381
1005
16
1001
ACAD_DSTYLE_DIM_EXT2_LINETYPE
1070
   382
1005
16
0
DIMENSION
5
4A7
100
AcDbEntity
8
SK2
62
256
6
ByLayer
370
13
48
1
60
0
100
AcDbDimension
2
_U2
10
49.5
20
66.376741
30
0
11
43.75
21
66.376741
31
0
70
32
71
1
72
1
41
1
210
0
220
0
230
1
3
Standard
100
AcDbAlignedDimension
13
38
23
50
33
0
14
49.5
24
50
34
0
50
0
100
AcDbRotatedDimension
1001
ACAD
1000
DSTYLE
1002
{
1070
   371
1070
    13
1070
   372
1070
    13
1070
   170
1070
     0
1070
   144
1040
1.0
1070
   277
1070
     2
1070
   284
1070
     8
1070
   278
1070
    46
1070
   146
1040
0.875
1070
   345
1005
16
1070
   347
1005
16
1070
   346
1005
16
1070
   344
1005
0
1070
   343
1005
0
1070
   172
1070
     1
1070
    76
1070
     0
1070
    75
1070
     0
1070
   282
1070
     0
1070
   281
1070
     0
1070
    71
1070
     0
1070
    74
1070
     0
1070
   279
1070
     0
1070
   173
1070
     1
1070
   340
1005
44C
1070
   271
1070
     2
1070
   272
1070
     2
1070
    77
1070
     1
1070
    73
1070
     1
1070
   171
1070
     3
1070
   274
1070
     4
1070
   177
1070
     2
1070
   176
1070
     2
1070
   178
1070
     2
1070
    78
1070
     8
1070
    48
1040
-0.1
1070
    41
1040
3.5
1070
   147
1040
2.0
1070
    42
1040
1.5875
1070
    44
1040
2.0
1070
   140
1040
4.0
1002
}
1001
ACAD_DSTYLE_DIM_LINETYPE
1070
   380
1005
16
1001
ACAD_DSTYLE_DIM_EXT1_LINETYPE
1070
   381
1005
16
1001
ACAD_DSTYLE_DIM_EXT2_LINETYPE
1070
   382
1005
16
0
ENDSEC
0
SECTION
2
OBJECTS
0
DICTIONARY
5
52f
330
0
100
AcDbDictionary
280
0
281
1
3
ACAD_GROUP
350
530
3
ACAD_MLINESTYLE
350
531
0
DICTIONARY
5
530
330
0
100
AcDbDictionary
280
0
281
1
0
DICTIONARY
5
531
330
0
100
AcDbDictionary
280
0
281
1
3
Standard
350
18
0
MLINESTYLE
5
18
330
531
100
AcDbMlineStyle
2
Standard
70
0
3

62
256
51
90
52
90
71
2
49
-0.5
62
256
6
ByLayer
49
0.5
62
256
6
ByLayer
0
RASTERVARIABLES
5
51e
330

100
AcDbRasterVariables
90
0
70
1
71
1
72
1
0
ENDSEC
0
EOF
