0
SECTION
2
HEADER
9
$ACADVER
1
AC1015
9
$DWGCODEPAGE
3
ANSI_1252
9
$HANDSEED
5
537
9
$ANGBASE
50
0
9
$ANGDIR
70
0
9
$ATTMODE
70
1
9
$AUNITS
70
0
9
$AUPREC
70
0
9
$CECOLOR
62
256
9
$CELTSCALE
40
1
9
$CELTYPE
6
ByLayer
9
$CELWEIGHT
370
18
9
$CLAYER
8
0
9
$CMLJUST
70
0
9
$CMLSCALE
40
1
9
$CMLSTYLE
2
Standard
9
$DIMSTYLE
2
Standard
9
$TEXTSIZE
40
0.2
9
$TEXTSTYLE
7
Standard
9
$LUNITS
70
2
9
$LUPREC
70
4
9
$EXTNAMES
290
1
9
$INSUNITS
70
4
9
$LTSCALE
40
1
9
$LWDISPLAY
290
1
9
$PDMODE
70
0
9
$PDSIZE
40
0
9
$PLINEGEN
70
0
0
ENDSEC
0
SECTION
2
CLASSES
0
CLASS
1
RASTERVARIABLES
2
AcDbRasterVariables
3
ISM
90
0
280
0
281
0
0
ENDSEC
0
SECTION
2
TABLES
0
TABLE
2
VPORT
5
52d
100
AcDbSymbolTable
0
VPORT
5
1
100
AcDbSymbolTableRecord
100
AcDbViewportTableRecord
2
*Active
70
0
10
0
20
0
11
1
21
1
12
-1
22
1
13
0
23
0
14
0.5
24
0.5
15
10
25
10
16
0
26
0
36
1
17
0
27
0
37
0
0
ENDTAB
0
TABLE
2
LTYPE
5
52e
100
AcDbSymbolTable
0
LTYPE
5
14
100
AcDbSymbolTableRecord
100
AcDbLinetypeTableRecord
70
0
2
ByBlock
3

72
65
73
0
40
0
0
LTYPE
5
15
100
AcDbSymbolTableRecord
100
AcDbLinetypeTableRecord
70
0
2
ByLayer
3

72
65
73
0
40
0
0
LTYPE
5
16
100
AcDbSymbolTableRecord
100
AcDbLinetypeTableRecord
70
0
2
Continuous
3
Solid line
72
65
73
0
40
0
0
LTYPE
5
6E
100
AcDbSymbolTableRecord
100
AcDbLinetypeTableRecord
70
0
2
CENTER
3
____ _ ____ _ ____ _ ____
72
65
73
4
40
47.5
49
22
74
0
49
-8.5
74
0
49
8.5
74
0
49
-8.5
74
0
0
LTYPE
5
6F
100
AcDbSymbolTableRecord
100
AcDbLinetypeTableRecord
70
0
2
DASHED
3
__ __ __ __ __ __ __ __ __
72
65
73
2
40
25.72
49
12.86
74
0
49
-12.86
74
0
0
ENDTAB
0
TABLE
2
LAYER
5
52f
100
AcDbSymbolTable
0
LAYER
5
10
100
AcDbSymbolTableRecord
100
AcDbLayerTableRecord
2
0
70
0
62
7
6
Continuous
290
1
370
-3
390
0
0
LAYER
5
71
100
AcDbSymbolTableRecord
100
AcDbLayerTableRecord
2
80
70
0
62
-6
6
Continuous
290
1
370
-3
390
0
0
LAYER
5
73
100
AcDbSymbolTableRecord
100
AcDbLayerTableRecord
2
81
70
0
62
-3
6
Continuous
290
1
370
-3
390
0
0
LAYER
5
75
100
AcDbSymbolTableRecord
100
AcDbLayerTableRecord
2
1
70
0
62
4
6
Continuous
290
1
370
-3
390
0
0
LAYER
5
30D
100
AcDbSymbolTableRecord
100
AcDbLayerTableRecord
2
4
70
0
62
-2
6
CENTER
290
1
370
-3
390
0
0
LAYER
5
33F
100
AcDbSymbolTableRecord
100
AcDbLayerTableRecord
2
2
70
0
62
7
6
Continuous
290
1
370
-3
390
0
0
LAYER
5
472
100
AcDbSymbolTableRecord
100
AcDbLayerTableRecord
2
Defpoints
70
0
62
7
6
Continuous
290
0
370
-3
390
0
0
LAYER
5
51a
100
AcDbSymbolTableRecord
100
AcDbLayerTableRecord
2
SK4
70
0
62
2
6
CENTER
290
1
370
-3
390
0
0
LAYER
5
51b
100
AcDbSymbolTableRecord
100
AcDbLayerTableRecord
2
SK2
70
0
62
7
6
Continuous
290
1
370
-3
390
0
0
LAYER
5
51c
100
AcDbSymbolTableRecord
100
AcDbLayerTableRecord
2
SK6
70
0
62
5
6
Continuous
290
1
370
-3
390
0
0
ENDTAB
0
TABLE
2
STYLE
5
530
100
AcDbSymbolTable
0
STYLE
5
11
100
AcDbSymbolTableRecord
100
AcDbTextStyleTableRecord
2
Standard
3
txt
70
0
71
0
40
0
41
1
42
0
50
0
0
STYLE
5
447
100
AcDbSymbolTableRecord
100
AcDbTextStyleTableRecord
2
iso_b_vert
3
simplex.shx
70
0
71
0
40
0
41
1
42
0
50
0
0
STYLE
5
448
100
AcDbSymbolTableRecord
100
AcDbTextStyleTableRecord
2
DWGDirectTextStyle
3
simplex
70
0
71
0
40
0
41
1
42
0
50
0
0
ENDTAB
0
TABLE
2
DIMSTYLE
5
531
100
AcDbSymbolTable
100
AcDbDimStyleTable
0
DIMSTYLE
105
27
100
AcDbSymbolTableRecord
100
AcDbDimStyleTableRecord
2
Standard
70
0
3
<>
41
0.18
42
0.0625
44
0.18
140
0.18
147
0.09
73
0
74
0
77
1
271
2
275
0
278
52
280
0
340
11
0
ENDTAB
0
TABLE
2
VIEW
5
532
100
AcDbSymbolTable
0
ENDTAB
0
TABLE
2
UCS
5
533
100
AcDbSymbolTable
0
ENDTAB
0
TABLE
2
APPID
5
534
100
AcDbSymbolTable
0
APPID
5
12
100
AcDbSymbolTableRecord
100
AcDbRegAppTableRecord
2
ACAD
70
0
0
APPID
5
46E
100
AcDbSymbolTableRecord
100
AcDbRegAppTableRecord
2
ACAD_DSTYLE_DIMBREAK
70
0
0
APPID
5
4D9
100
AcDbSymbolTableRecord
100
AcDbRegAppTableRecord
2
ACAD_DSTYLE_DIM_LINETYPE
70
0
0
APPID
5
4DA
100
AcDbSymbolTableRecord
100
AcDbRegAppTableRecord
2
ACAD_DSTYLE_DIM_EXT1_LINETYPE
70
0
0
APPID
5
4DB
100
AcDbSymbolTableRecord
100
AcDbRegAppTableRecord
2
ACAD_DSTYLE_DIM_EXT2_LINETYPE
70
0
0
APPID
5
516
100
AcDbSymbolTableRecord
100
AcDbRegAppTableRecord
2
ACAD_MLEADERVER
70
0
0
ENDTAB
0
TABLE
2
BLOCK_RECORD
5
535
100
AcDbSymbolTable
0
BLOCK_RECORD
5
1F
100
AcDbSymbolTableRecord
100
AcDbBlockTableRecord
2
*Model_Space
340
0
70
0
0
BLOCK_RECORD
5
1B
100
AcDbSymbolTableRecord
100
AcDbBlockTableRecord
2
*Paper_Space
340
0
70
0
0
BLOCK_RECORD
5
23
100
AcDbSymbolTableRecord
100
AcDbBlockTableRecord
2
*Paper_Space0
340
0
70
0
0
BLOCK_RECORD
5
473
100
AcDbSymbolTableRecord
100
AcDbBlockTableRecord
2
*D1
340
0
70
0
0
BLOCK_RECORD
5
47F
100
AcDbSymbolTableRecord
100
AcDbBlockTableRecord
2
_U0
340
0
70
0
0
BLOCK_RECORD
5
48B
100
AcDbSymbolTableRecord
100
AcDbBlockTableRecord
2
*D3
340
0
70
0
0
BLOCK_RECORD
5
499
100
AcDbSymbolTableRecord
100
AcDbBlockTableRecord
2
_U1
340
0
70
0
0
BLOCK_RECORD
5
4A5
100
AcDbSymbolTableRecord
100
AcDbBlockTableRecord
2
*D5
340
0
70
0
0
BLOCK_RECORD
5
4B2
100
AcDbSymbolTableRecord
100
AcDbBlockTableRecord
2
_U2
340
0
70
0
0
ENDTAB
0
ENDSEC
0
SECTION
2
BLOCKS
0
BLOCK
5
20
100
AcDbEntity
8
0
100
AcDbBlockBegin
2
*Model_Space
70
0
10
0
20
0
30
0
3
*Model_Space
0
ENDBLK
5
21
100
AcDbEntity
8
0
100
AcDbBlockEnd
0
BLOCK
5
1C
100
AcDbEntity
8
0
100
AcDbBlockBegin
2
*Paper_Space
70
0
10
0
20
0
30
0
3
*Paper_Space
0
ENDBLK
5
1D
100
AcDbEntity
8
0
100
AcDbBlockEnd
0
BLOCK
5
24
100
AcDbEntity
8
0
100
AcDbBlockBegin
2
*Paper_Space0
70
0
10
0
20
0
30
0
3
*Paper_Space0
0
ENDBLK
5
25
100
AcDbEntity
8
0
100
AcDbBlockEnd
0
BLOCK
5
474
100
AcDbEntity
8
0
100
AcDbBlockBegin
2
*D1
70
1
10
0
20
0
30
0
3
*D1
0
LINE
5
476
100
AcDbEntity
8
0
62
256
6
ByLayer
370
-2
48
1
60
0
100
AcDbLine
10
40
20
-51.5875
30
0
11
40
21
-65.376741
31
0
39
0
210
0
220
0
230
1
0
LINE
5
477
100
AcDbEntity
8
0
62
256
6
ByLayer
370
-2
48
1
60
0
100
AcDbLine
10
0
20
-15.0875
30
0
11
0
21
-65.376741
31
0
39
0
210
0
220
0
230
1
0
LINE
5
478
100
AcDbEntity
8
0
62
256
6
ByLayer
370
-2
48
1
60
0
100
AcDbLine
10
36.5
20
-63.376741
30
0
11
3.5
21
-63.376741
31
0
39
0
210
0
220
0
230
1
0
SOLID
5
479
100
AcDbEntity
8
0
62
256
6
ByLayer
370
-1
48
1
60
0
100
AcDbTrace
10
36.5
20
-63.960075
30
0
11
36.5
21
-62.793408
31
0
12
40
22
-63.376741
32
0
13
40
23
-63.376741
33
0
39
0
210
0
220
0
230
1
0
SOLID
5
47A
100
AcDbEntity
8
0
62
256
6
ByLayer
370
-1
48
1
60
0
100
AcDbTrace
10
3.5
20
-62.793408
30
0
11
3.5
21
-63.960075
31
0
12
0
22
-63.376741
32
0
13
0
23
-63.376741
33
0
39
0
210
0
220
0
230
1
0
MTEXT
5
47B
100
AcDbEntity
8
0
62
256
6
ByLayer
370
18
48
1
60
0
100
AcDbMText
10
20
20
-55.376741
30
0
210
0
220
0
230
1
1
\A1;40
40
4
41
0
44
1
50
0
71
5
72
5
7
iso_b_vert
0
POINT
5
47C
100
AcDbEntity
8
Defpoints
62
0
6
ByLayer
370
-1
48
1
60
0
100
AcDbPoint
10
40
20
-50
30
0
39
0
210
0
220
0
230
1
50
360
0
POINT
5
47D
100
AcDbEntity
8
Defpoints
62
0
6
ByLayer
370
-1
48
1
60
0
100
AcDbPoint
10
0
20
-13.5
30
0
39
0
210
0
220
0
230
1
50
360
0
POINT
5
47E
100
AcDbEntity
8
Defpoints
62
0
6
ByLayer
370
-1
48
1
60
0
100
AcDbPoint
10
0
20
-63.376741
30
0
39
0
210
0
220
0
230
1
50
360
0
ENDBLK
5
475
100
AcDbEntity
8
0
100
AcDbBlockEnd
0
BLOCK
5
486
100
AcDbEntity
8
0
100
AcDbBlockBegin
2
_U0
70
0
10
0
20
0
30
0
3
_U0
0
MTEXT
5
480
100
AcDbEntity
8
2
62
256
6
ByLayer
370
13
48
1
60
0
100
AcDbMText
10
17.612305
20
-62.196589
30
0
210
0
220
0
230
1
1
\W0.7361;40
40
4
41
0
44
1.084337
50
0
71
7
72
5
7
iso_b_vert
0
LINE
5
481
100
AcDbEntity
8
2
62
256
6
ByLayer
370
13
48
1
60
0
100
AcDbLine
10
40
20
-51.5875
30
0
11
40
21
-65.376741
31
0
39
0
210
0
220
0
230
1
0
LINE
5
482
100
AcDbEntity
8
2
62
256
6
ByLayer
370
13
48
1
60
0
100
AcDbLine
10
0
20
-15.0875
30
0
11
0
21
-65.376741
31
0
39
0
210
0
220
0
230
1
0
LINE
5
483
100
AcDbEntity
8
2
62
256
6
ByLayer
370
13
48
1
60
0
100
AcDbLine
10
40
20
-63.376741
30
0
11
0
21
-63.376741
31
0
39
0
210
0
220
0
230
1
0
SOLID
5
484
100
AcDbEntity
8
2
62
256
6
ByLayer
370
18
48
1
60
0
100
AcDbTrace
10
40
20
-63.376741
30
0
11
36.500002
21
-63.837525
31
0
12
36.499998
22
-62.915958
32
0
13
36.499998
23
-62.915958
33
0
39
0
210
0
220
0
230
1
0
SOLID
5
485
100
AcDbEntity
8
2
62
256
6
ByLayer
370
18
48
1
60
0
100
AcDbTrace
10
0
20
-63.376741
30
0
11
3.499998
21
-62.915958
31
0
12
3.500002
22
-63.837525
32
0
13
3.500002
23
-63.837525
33
0
39
0
210
0
220
0
230
1
0
ENDBLK
5
487
100
AcDbEntity
8
0
100
AcDbBlockEnd
0
BLOCK
5
48C
100
AcDbEntity
8
0
100
AcDbBlockBegin
2
*D3
70
1
10
0
20
0
30
0
3
*D3
0
LINE
5
48E
100
AcDbEntity
8
0
62
256
6
ByLayer
370
-2
48
1
60
0
100
AcDbLine
10
40
20
51.5875
30
0
11
40
21
61.376741
31
0
39
0
210
0
220
0
230
1
0
LINE
5
48F
100
AcDbEntity
8
0
62
256
6
ByLayer
370
-2
48
1
60
0
100
AcDbLine
10
47.6
20
51.5875
30
0
11
47.6
21
61.376741
31
0
39
0
210
0
220
0
230
1
0
LINE
5
490
100
AcDbEntity
8
0
62
256
6
ByLayer
370
-2
48
1
60
0
100
AcDbLine
10
47.6
20
59.376741
30
0
11
74.980952
21
59.376741
31
0
39
0
210
0
220
0
230
1
0
LINE
5
491
100
AcDbEntity
8
0
62
256
6
ByLayer
370
-2
48
1
60
0
100
AcDbLine
10
36.5
20
59.376741
30
0
11
33
21
59.376741
31
0
39
0
210
0
220
0
230
1
0
LINE
5
492
100
AcDbEntity
8
0
62
256
6
ByLayer
370
-2
48
1
60
0
100
AcDbLine
10
51.1
20
59.376741
30
0
11
54.6
21
59.376741
31
0
39
0
210
0
220
0
230
1
0
SOLID
5
493
100
AcDbEntity
8
0
62
256
6
ByLayer
370
-1
48
1
60
0
100
AcDbTrace
10
36.5
20
58.793408
30
0
11
36.5
21
59.960075
31
0
12
40
22
59.376741
32
0
13
40
23
59.376741
33
0
39
0
210
0
220
0
230
1
0
SOLID
5
494
100
AcDbEntity
8
0
62
256
6
ByLayer
370
-1
48
1
60
0
100
AcDbTrace
10
51.1
20
59.960075
30
0
11
51.1
21
58.793408
31
0
12
47.6
22
59.376741
32
0
13
47.6
23
59.376741
33
0
39
0
210
0
220
0
230
1
0
MTEXT
5
495
100
AcDbEntity
8
0
62
256
6
ByLayer
370
18
48
1
60
0
100
AcDbMText
10
64.790476
20
67.376741
30
0
210
0
220
0
230
1
1
\A1;7.6
40
4
41
0
44
1
50
0
71
5
72
5
7
iso_b_vert
0
POINT
5
496
100
AcDbEntity
8
Defpoints
62
0
6
ByLayer
370
-1
48
1
60
0
100
AcDbPoint
10
40
20
50
30
0
39
0
210
0
220
0
230
1
50
360
0
POINT
5
497
100
AcDbEntity
8
Defpoints
62
0
6
ByLayer
370
-1
48
1
60
0
100
AcDbPoint
10
47.6
20
50
30
0
39
0
210
0
220
0
230
1
50
360
0
POINT
5
498
100
AcDbEntity
8
Defpoints
62
0
6
ByLayer
370
-1
48
1
60
0
100
AcDbPoint
10
47.6
20
59.376741
30
0
39
0
210
0
220
0
230
1
50
360
0
ENDBLK
5
48D
100
AcDbEntity
8
0
100
AcDbBlockEnd
0
BLOCK
5
4A0
100
AcDbEntity
8
0
100
AcDbBlockBegin
2
_U1
70
0
10
0
20
0
30
0
3
_U1
0
MTEXT
5
49A
100
AcDbEntity
8
SK2
62
256
6
ByLayer
370
13
48
1
60
0
100
AcDbMText
10
59.718665
20
60.556894
30
0
210
0
220
0
230
1
1
\W0.7121;7.6
40
4
41
0
44
1.084337
50
0
71
7
72
5
7
iso_b_vert
0
LINE
5
49B
100
AcDbEntity
8
SK2
62
256
6
ByLayer
370
13
48
1
60
0
100
AcDbLine
10
40
20
51.5875
30
0
11
40
21
61.376741
31
0
39
0
210
0
220
0
230
1
0
LINE
5
49C
100
AcDbEntity
8
SK2
62
256
6
ByLayer
370
13
48
1
60
0
100
AcDbLine
10
47.6
20
51.5875
30
0
11
47.6
21
61.376741
31
0
39
0
210
0
220
0
230
1
0
LINE
5
49D
100
AcDbEntity
8
SK2
62
256
6
ByLayer
370
13
48
1
60
0
100
AcDbLine
10
40
20
59.376741
30
0
11
65.905444
21
59.376741
31
0
39
0
210
0
220
0
230
1
0
SOLID
5
49E
100
AcDbEntity
8
SK2
62
256
6
ByLayer
370
18
48
1
60
0
100
AcDbTrace
10
40
20
59.376741
30
0
11
43.499998
21
59.837525
31
0
12
43.500002
22
58.915958
32
0
13
43.500002
23
58.915958
33
0
39
0
210
0
220
0
230
1
0
SOLID
5
49F
100
AcDbEntity
8
SK2
62
256
6
ByLayer
370
18
48
1
60
0
100
AcDbTrace
10
47.6
20
59.376741
30
0
11
44.100002
21
58.915958
31
0
12
44.099998
22
59.837525
32
0
13
44.099998
23
59.837525
33
0
39
0
210
0
220
0
230
1
0
ENDBLK
5
4A1
100
AcDbEntity
8
0
100
AcDbBlockEnd
0
BLOCK
5
4A6
100
AcDbEntity
8
0
100
AcDbBlockBegin
2
*D5
70
1
10
0
20
0
30
0
3
*D5
0
LINE
5
4A8
100
AcDbEntity
8
0
62
256
6
ByLayer
370
-2
48
1
60
0
100
AcDbLine
10
40
20
51.5875
30
0
11
40
21
68.376741
31
0
39
0
210
0
220
0
230
1
0
LINE
5
4A9
100
AcDbEntity
8
0
62
256
6
ByLayer
370
-2
48
1
60
0
100
AcDbLine
10
49.5
20
51.5875
30
0
11
49.5
21
68.376741
31
0
39
0
210
0
220
0
230
1
0
LINE
5
4AA
100
AcDbEntity
8
0
62
256
6
ByLayer
370
-2
48
1
60
0
100
AcDbLine
10
36.5
20
66.376741
30
0
11
33
21
66.376741
31
0
39
0
210
0
220
0
230
1
0
LINE
5
4AB
100
AcDbEntity
8
0
62
256
6
ByLayer
370
-2
48
1
60
0
100
AcDbLine
10
53
20
66.376741
30
0
11
56.5
21
66.376741
31
0
39
0
210
0
220
0
230
1
0
SOLID
5
4AC
100
AcDbEntity
8
0
62
256
6
ByLayer
370
-1
48
1
60
0
100
AcDbTrace
10
36.5
20
65.793408
30
0
11
36.5
21
66.960075
31
0
12
40
22
66.376741
32
0
13
40
23
66.376741
33
0
39
0
210
0
220
0
230
1
0
SOLID
5
4AD
100
AcDbEntity
8
0
62
256
6
ByLayer
370
-1
48
1
60
0
100
AcDbTrace
10
53
20
66.960075
30
0
11
53
21
65.793408
31
0
12
49.5
22
66.376741
32
0
13
49.5
23
66.376741
33
0
39
0
210
0
220
0
230
1
0
MTEXT
5
4AE
100
AcDbEntity
8
0
62
256
6
ByLayer
370
18
48
1
60
0
100
AcDbMText
10
44.75
20
74.376741
30
0
210
0
220
0
230
1
1
\A1;9.5
40
4
41
0
44
1
50
0
71
5
72
5
7
iso_b_vert
0
POINT
5
4AF
100
AcDbEntity
8
Defpoints
62
0
6
ByLayer
370
-1
48
1
60
0
100
AcDbPoint
10
40
20
50
30
0
39
0
210
0
220
0
230
1
50
360
0
POINT
5
4B0
100
AcDbEntity
8
Defpoints
62
0
6
ByLayer
370
-1
48
1
60
0
100
AcDbPoint
10
49.5
20
50
30
0
39
0
210
0
220
0
230
1
50
360
0
POINT
5
4B1
100
AcDbEntity
8
Defpoints
62
0
6
ByLayer
370
-1
48
1
60
0
100
AcDbPoint
10
49.5
20
66.376741
30
0
39
0
210
0
220
0
230
1
50
360
0
ENDBLK
5
4A7
100
AcDbEntity
8
0
100
AcDbBlockEnd
0
BLOCK
5
4B9
100
AcDbEntity
8
0
100
AcDbBlockBegin
2
_U2
70
0
10
0
20
0
30
0
3
_U2
0
MTEXT
5
4B3
100
AcDbEntity
8
SK2
62
256
6
ByLayer
370
13
48
1
60
0
100
AcDbMText
10
41.76261
20
67.556894
30
0
210
0
220
0
230
1
1
\W0.7121;9.5
40
4
41
0
44
1.084337
50
0
71
7
72
5
7
iso_b_vert
0
LINE
5
4B4
100
AcDbEntity
8
SK2
62
256
6
ByLayer
370
13
48
1
60
0
100
AcDbLine
10
40
20
51.5875
30
0
11
40
21
68.376741
31
0
39
0
210
0
220
0
230
1
0
LINE
5
4B5
100
AcDbEntity
8
SK2
62
256
6
ByLayer
370
13
48
1
60
0
100
AcDbLine
10
49.5
20
51.5875
30
0
11
49.5
21
68.376741
31
0
39
0
210
0
220
0
230
1
0
LINE
5
4B6
100
AcDbEntity
8
SK2
62
256
6
ByLayer
370
13
48
1
60
0
100
AcDbLine
10
40
20
66.376741
30
0
11
49.5
21
66.376741
31
0
39
0
210
0
220
0
230
1
0
SOLID
5
4B7
100
AcDbEntity
8
SK2
62
256
6
ByLayer
370
18
48
1
60
0
100
AcDbTrace
10
40
20
66.376741
30
0
11
43.499998
21
66.837525
31
0
12
43.500002
22
65.915958
32
0
13
43.500002
23
65.915958
33
0
39
0
210
0
220
0
230
1
0
SOLID
5
4B8
100
AcDbEntity
8
SK2
62
256
6
ByLayer
370
18
48
1
60
0
100
AcDbTrace
10
49.5
20
66.376741
30
0
11
46.000002
21
65.915958
31
0
12
45.999998
22
66.837525
32
0
13
45.999998
23
66.837525
33
0
39
0
210
0
220
0
230
1
0
ENDBLK
5
4BA
100
AcDbEntity
8
0
100
AcDbBlockEnd
0
ENDSEC
0
SECTION
2
ENTITIES
0
ARC
5
35A
100
AcDbEntity
8
1
62
256
6
ByLayer
370
18
48
1
60
0
100
AcDbCircle
39
0
10
39.7
20
26.3
30
0
40
0.8
210
0
220
0
230
1
100
AcDbArc
50
270
51
0
0
ARC
5
35B
100
AcDbEntity
8
1
62
256
6
ByLayer
370
18
48
1
60
0
100
AcDbCircle
39
0
10
39.7
20
-26.3
30
0
40
0.8
210
0
220
0
230
1
100
AcDbArc
50
0
51
90
0
ARC
5
35C
100
AcDbEntity
8
1
62
256
6
ByLayer
370
18
48
1
60
0
100
AcDbCircle
39
0
10
43.880865
20
5.447061
30
0
40
5
210
0
220
0
230
1
100
AcDbArc
50
256.205716
51
293.868288
0
ELLIPSE
5
35D
100
AcDbEntity
8
1
62
256
6
ByLayer
370
18
48
1
60
0
100
AcDbEllipse
10
45
20
23.108699
30
0
11
-3
21
3.67381906146713E-16
31
0
210
0
220
0
230
1
40
0.870356
41
-3.06648902857076
42
-0.0831541417368187
0
ELLIPSE
5
35E
100
AcDbEntity
8
1
62
256
6
ByLayer
370
18
48
1
60
0
100
AcDbEllipse
10
45
20
23.478017
30
0
11
-2.25
21
2.75536429610035E-16
31
0
210
0
220
0
230
1
40
0.870356
41
0
42
6.28318530717959
0
ELLIPSE
5
35F
100
AcDbEntity
8
1
62
256
6
ByLayer
370
18
48
1
60
0
100
AcDbEllipse
10
44.183935
20
44.891083
30
0
11
-0.893546848327829
21
0.264949108025305
31
0
210
0
220
0
230
1
40
0.955145
41
-2.86746196285936
42
-2.81847065575539
0
ELLIPSE
5
360
100
AcDbEntity
8
1
62
256
6
ByLayer
370
18
48
1
60
0
100
AcDbEllipse
10
45.635614
20
44.887758
30
0
11
0.504297899378152
21
-0.149531363542179
31
0
210
0
220
0
230
1
40
0.955145
41
3.14158501689164
42
-2.88637854861448
0
ELLIPSE
5
361
100
AcDbEntity
8
1
62
256
6
ByLayer
370
18
48
1
60
0
100
AcDbEllipse
10
45.084571
20
45.396541
30
0
11
0.221469229574816
21
-0.0656687166886758
31
0
210
0
220
0
230
1
40
0.955145
41
0.673973018967755
42
2.11943243036734
0
ELLIPSE
5
362
100
AcDbEntity
8
1
62
256
6
ByLayer
370
18
48
1
60
0
100
AcDbEllipse
10
43.429451
20
46.103573
30
0
11
0.504297899378152
21
-0.149531363542179
31
0
210
0
220
0
230
1
40
0.955145
41
-1.52217974180245
42
-0.748752607513567
0
ELLIPSE
5
363
100
AcDbEntity
8
1
62
256
6
ByLayer
370
18
48
1
60
0
100
AcDbEllipse
10
43.429451
20
46.103573
30
0
11
0.504297899378152
21
-0.149531363542179
31
0
210
0
220
0
230
1
40
0.955145
41
-0.748752607513567
42
-2.31406739504885E-06
0
ELLIPSE
5
364
100
AcDbEntity
8
1
62
256
6
ByLayer
370
18
48
1
60
0
100
AcDbEllipse
10
43.259417
20
45.400721
30
0
11
0.221469229574816
21
-0.0656687166886758
31
0
210
0
220
0
230
1
40
0.955145
41
1.61941291178739
42
2.15377271141087
0
ELLIPSE
5
365
100
AcDbEntity
8
1
62
256
6
ByLayer
370
18
48
1
60
0
100
AcDbEllipse
10
45.635614
20
44.887758
30
0
11
0.504297899378152
21
-0.149531363542179
31
0
210
0
220
0
230
1
40
0.955145
41
-2.79955407000026
42
-2.48480708899587
0
ELLIPSE
5
366
100
AcDbEntity
8
1
62
256
6
ByLayer
370
18
48
1
60
0
100
AcDbEllipse
10
44.267606
20
45.173266
30
0
11
-0.893546848327829
21
0.264949108025305
31
0
210
0
220
0
230
1
40
0.955145
41
-2.86746196285936
42
-2.81847065575539
0
ELLIPSE
5
367
100
AcDbEntity
8
1
62
256
6
ByLayer
370
18
48
1
60
0
100
AcDbEllipse
10
42.732255
20
44.894407
30
0
11
0.504297899378152
21
-0.149531363542179
31
0
210
0
220
0
230
1
40
0.955145
41
-0.0688868697748855
42
-7.63669815564342E-06
0
ELLIPSE
5
368
100
AcDbEntity
8
1
62
256
6
ByLayer
370
18
48
1
60
0
100
AcDbEllipse
10
44.267606
20
45.173266
30
0
11
-0.893546848327829
21
0.264949108025305
31
0
210
0
220
0
230
1
40
0.955145
41
0.274130690730444
42
0.323121997834416
0
ELLIPSE
5
369
100
AcDbEntity
8
1
62
256
6
ByLayer
370
18
48
1
60
0
100
AcDbEllipse
10
44.200772
20
44.947867
30
0
11
2.01335663249833
21
-0.596988333533417
31
0
210
0
220
0
230
1
40
0.955145
41
-3.1415909338176
42
-2.72326820105881
0
ELLIPSE
5
36A
100
AcDbEntity
8
1
62
256
6
ByLayer
370
18
48
1
60
0
100
AcDbEllipse
10
44.284958
20
45.231786
30
0
11
1.23581747585254
21
-0.366437124725986
31
0
210
0
220
0
230
1
40
0.955145
41
1.86942267107732
42
2.91625742107513
0
ELLIPSE
5
36B
100
AcDbEntity
8
1
62
256
6
ByLayer
370
18
48
1
60
0
100
AcDbEllipse
10
44.284958
20
45.231786
30
0
11
1.23581747585254
21
-0.366437124725986
31
0
210
0
220
0
230
1
40
0.955145
41
0.822587921079517
42
1.86942267107732
0
ELLIPSE
5
36C
100
AcDbEntity
8
1
62
256
6
ByLayer
370
18
48
1
60
0
100
AcDbEllipse
10
44.284958
20
45.231786
30
0
11
1.23581747585254
21
-0.366437124725986
31
0
210
0
220
0
230
1
40
0.955145
41
-0.13297028268297
42
0.822587921079517
0
ELLIPSE
5
36D
100
AcDbEntity
8
1
62
256
6
ByLayer
370
18
48
1
60
0
100
AcDbEllipse
10
44.284958
20
45.231786
30
0
11
1.23581747585254
21
-0.366437124725986
31
0
210
0
220
0
230
1
40
0.955145
41
2.91625742107513
42
-2.4066044273266
0
ELLIPSE
5
36E
100
AcDbEntity
8
1
62
256
6
ByLayer
370
18
48
1
60
0
100
AcDbEllipse
10
44.284958
20
45.231786
30
0
11
1.34223775499888
21
-0.397992222355612
31
0
210
0
220
0
230
1
40
0.955145
41
-0.0966021444700594
42
0
0
ELLIPSE
5
36F
100
AcDbEntity
8
1
62
256
6
ByLayer
370
18
48
1
60
0
100
AcDbEllipse
10
44.284958
20
45.231786
30
0
11
1.34223775499888
21
-0.397992222355612
31
0
210
0
220
0
230
1
40
0.955145
41
0
42
0.301005755870792
0
ELLIPSE
5
370
100
AcDbEntity
8
1
62
256
6
ByLayer
370
18
48
1
60
0
100
AcDbEllipse
10
44.284958
20
45.231786
30
0
11
1.34223775499888
21
-0.397992222355612
31
0
210
0
220
0
230
1
40
0.955145
41
0.301005705756238
42
-2.44307762439341
0
ELLIPSE
5
371
100
AcDbEntity
8
1
62
256
6
ByLayer
370
18
48
1
60
0
100
AcDbEllipse
10
44.262869
20
45.157291
30
0
11
2.01335663249833
21
-0.596988333533417
31
0
210
0
220
0
230
1
40
0.955145
41
0.0780507676828242
42
0.301005457526321
0
ELLIPSE
5
372
100
AcDbEntity
8
1
62
256
6
ByLayer
370
18
48
1
60
0
100
AcDbEllipse
10
44.262869
20
45.157291
30
0
11
2.01335663249833
21
-0.596988333533417
31
0
210
0
220
0
230
1
40
0.955145
41
0.301005953986158
42
-2.61773000636543
0
ELLIPSE
5
373
100
AcDbEntity
8
1
62
256
6
ByLayer
370
18
48
1
60
0
100
AcDbEllipse
10
44.881447
20
46.100248
30
0
11
0.504297899378152
21
-0.149531363542179
31
0
210
0
220
0
230
1
40
0.955145
41
-1.79558735751136
42
-1.02216022322247
0
ELLIPSE
5
374
100
AcDbEntity
8
1
62
256
6
ByLayer
370
18
48
1
60
0
100
AcDbEllipse
10
44.183935
20
44.891083
30
0
11
-0.893546848327829
21
0.264949108025305
31
0
210
0
220
0
230
1
40
0.955145
41
0.376471333699494
42
0.502686092985008
0
ELLIPSE
5
375
100
AcDbEntity
8
1
62
256
6
ByLayer
370
18
48
1
60
0
100
AcDbEllipse
10
44.183935
20
44.891083
30
0
11
-0.893546848327829
21
0.264949108025305
31
0
210
0
220
0
230
1
40
0.955145
41
-0.748752607513567
42
-0.092492904970342
0
ELLIPSE
5
376
100
AcDbEntity
8
1
62
256
6
ByLayer
370
18
48
1
60
0
100
AcDbEllipse
10
44.183935
20
44.891083
30
0
11
-0.893546848327829
21
0.264949108025305
31
0
210
0
220
0
230
1
40
0.955145
41
-3.04226271337541
42
-2.86746196285936
0
ELLIPSE
5
377
100
AcDbEntity
8
1
62
256
6
ByLayer
370
18
48
1
60
0
100
AcDbEllipse
10
44.183935
20
44.891083
30
0
11
-0.893546848327829
21
0.264949108025305
31
0
210
0
220
0
230
1
40
0.955145
41
-1.79558735751137
42
-0.748752607513556
0
ELLIPSE
5
378
100
AcDbEntity
8
1
62
256
6
ByLayer
370
18
48
1
60
0
100
AcDbEllipse
10
44.183935
20
44.891083
30
0
11
-0.893546848327829
21
0.264949108025305
31
0
210
0
220
0
230
1
40
0.955145
41
-2.81847065575538
42
-1.79558735751137
0
ELLIPSE
5
379
100
AcDbEntity
8
1
62
256
6
ByLayer
370
18
48
1
60
0
100
AcDbEllipse
10
45
20
-5.977393
30
0
11
2.25
21
0
31
0
210
0
220
0
230
1
40
0.96363
41
0
42
6.28318530717959
0
ELLIPSE
5
37A
100
AcDbEntity
8
1
62
256
6
ByLayer
370
18
48
1
60
0
100
AcDbEllipse
10
43.5
20
-37.34128
30
0
11
1
21
0
31
0
210
0
220
0
230
1
40
0.413382
41
0
42
6.28318530717959
0
ELLIPSE
5
37B
100
AcDbEntity
8
1
62
256
6
ByLayer
370
13
48
1
60
0
100
AcDbEllipse
10
43.5
20
-37.432336
30
0
11
-1.5
21
1.83690953073357E-16
31
0
210
0
220
0
230
1
40
0.413382
41
0
42
-3.14159265358978
0
ELLIPSE
5
37C
100
AcDbEntity
8
1
62
256
6
ByLayer
370
13
48
1
60
0
100
AcDbEllipse
10
44.9
20
-37.432336
30
0
11
-0.1
21
1.22460635382238E-17
31
0
210
0
220
0
230
1
40
0.910558
41
3.14159265358979
42
-1.5707963267949
0
ELLIPSE
5
37D
100
AcDbEntity
8
1
62
256
6
ByLayer
370
13
48
1
60
0
100
AcDbEllipse
10
42.1
20
-37.432336
30
0
11
0.1
21
0
31
0
210
0
220
0
230
1
40
0.910558
41
1.5707963267949
42
3.14159265358979
0
ELLIPSE
5
37E
100
AcDbEntity
8
1
62
256
6
ByLayer
370
18
48
1
60
0
100
AcDbEllipse
10
43.5
20
-14.417055
30
0
11
1
21
0
31
0
210
0
220
0
230
1
40
0.936167
41
0
42
6.28318530717959
0
ELLIPSE
5
37F
100
AcDbEntity
8
1
62
256
6
ByLayer
370
18
48
1
60
0
100
AcDbEllipse
10
43.5
20
-14.452211
30
0
11
-1.5
21
1.83690953073357E-16
31
0
210
0
220
0
230
1
40
0.936167
41
0
42
-3.14159265358979
0
ELLIPSE
5
380
100
AcDbEntity
8
1
62
256
6
ByLayer
370
18
48
1
60
0
100
AcDbEllipse
10
45
20
-5.776964
30
0
11
3
21
0
31
0
210
0
220
0
230
1
40
0.96363
41
-3.10664234800233
42
-0.0255254780011873
0
ELLIPSE
5
381
100
AcDbEntity
8
1
62
256
6
ByLayer
370
13
48
1
60
0
100
AcDbEllipse
10
43.5
20
-14.417055
30
0
11
1.4
21
0
31
0
210
0
220
0
230
1
40
0.936167
41
3.14159265358979
42
2.71068370035971E-15
0
ELLIPSE
5
382
100
AcDbEntity
8
1
62
256
6
ByLayer
370
13
48
1
60
0
100
AcDbEllipse
10
44.9
20
-14.452211
30
0
11
-0.1
21
1.22460635382238E-17
31
0
210
0
220
0
230
1
40
0.351556
41
3.14159265358979
42
-1.5707963267949
0
ELLIPSE
5
383
100
AcDbEntity
8
1
62
256
6
ByLayer
370
13
48
1
60
0
100
AcDbEllipse
10
42.1
20
-14.452211
30
0
11
0.1
21
0
31
0
210
0
220
0
230
1
40
0.351556
41
1.5707963267949
42
3.14159265358979
0
ELLIPSE
5
384
100
AcDbEntity
8
1
62
256
6
ByLayer
370
18
48
1
60
0
100
AcDbEllipse
10
44.938418
20
32.09785
30
0
11
-0.517916026733194
21
-0.0918639714627084
31
0
210
0
220
0
230
1
40
0.876151
41
-1.95233792306186
42
-1.17891078877301
0
ELLIPSE
5
385
100
AcDbEntity
8
1
62
256
6
ByLayer
370
18
48
1
60
0
100
AcDbEllipse
10
44.938418
20
32.09785
30
0
11
-0.517916026733194
21
-0.0918639714627084
31
0
210
0
220
0
230
1
40
0.876151
41
-1.17891078877301
42
-0.405483654484106
0
ELLIPSE
5
386
100
AcDbEntity
8
1
62
256
6
ByLayer
370
18
48
1
60
0
100
AcDbEllipse
10
43.486423
20
32.010406
30
0
11
-0.517916026733194
21
-0.0918639714627084
31
0
210
0
220
0
230
1
40
0.876151
41
-2.99917267305966
42
-2.2257455387708
0
ELLIPSE
5
387
100
AcDbEntity
8
1
62
256
6
ByLayer
370
18
48
1
60
0
100
AcDbEllipse
10
43.486423
20
32.010406
30
0
11
-0.517916026733194
21
-0.0918639714627084
31
0
210
0
220
0
230
1
40
0.876151
41
-2.2257455387708
42
-1.45231840448192
0
ELLIPSE
5
388
100
AcDbEntity
8
1
62
256
6
ByLayer
370
18
48
1
60
0
100
AcDbEllipse
10
45.108452
20
32.753171
30
0
11
-0.227449814021612
21
-0.0403433030568168
31
0
210
0
220
0
230
1
40
0.876151
41
1.18925473052792
42
1.98175101422774
0
ELLIPSE
5
389
100
AcDbEntity
8
1
62
256
6
ByLayer
370
18
48
1
60
0
100
AcDbEllipse
10
44.183935
20
33.16304
30
0
11
0.917676305922694
21
0.162770382895898
31
0
210
0
220
0
230
1
40
0.876151
41
-0.156027490528966
42
-0.107036183424986
0
ELLIPSE
5
38A
100
AcDbEntity
8
1
62
256
6
ByLayer
370
18
48
1
60
0
100
AcDbEllipse
10
45.635614
20
33.250465
30
0
11
-0.517916026733194
21
-0.0918639714627084
31
0
210
0
220
0
230
1
40
0.876151
41
-0.08811959766988
42
3.75738095714457E-06
0
ELLIPSE
5
38B
100
AcDbEntity
8
1
62
256
6
ByLayer
370
18
48
1
60
0
100
AcDbEllipse
10
43.283298
20
32.643254
30
0
11
-0.227449814021612
21
-0.0403433030568168
31
0
210
0
220
0
230
1
40
0.876151
41
1.51750716570072
42
1.68927424910785
0
ELLIPSE
5
38C
100
AcDbEntity
8
1
62
256
6
ByLayer
370
18
48
1
60
0
100
AcDbEllipse
10
45.635614
20
33.250465
30
0
11
-0.517916026733194
21
-0.0918639714627084
31
0
210
0
220
0
230
1
40
0.876151
41
-0.387497296889972
42
-0.174944076284082
0
ELLIPSE
5
38D
100
AcDbEntity
8
1
62
256
6
ByLayer
370
18
48
1
60
0
100
AcDbEllipse
10
44.267606
20
32.691313
30
0
11
0.917676305922694
21
0.162770382895898
31
0
210
0
220
0
230
1
40
0.876151
41
-0.156027490528966
42
-0.107036183424995
0
ELLIPSE
5
38E
100
AcDbEntity
8
1
62
256
6
ByLayer
370
18
48
1
60
0
100
AcDbEllipse
10
44.881447
20
46.100248
30
0
11
0.504297899378152
21
-0.149531363542179
31
0
210
0
220
0
230
1
40
0.955145
41
-2.56901449180025
42
-1.79558735751136
0
ELLIPSE
5
38F
100
AcDbEntity
8
1
62
256
6
ByLayer
370
18
48
1
60
0
100
AcDbEllipse
10
44.267606
20
32.691313
30
0
11
0.917676305922694
21
0.162770382895898
31
0
210
0
220
0
230
1
40
0.876151
41
2.98556516306084
42
3.03455647016481
0
ELLIPSE
5
390
100
AcDbEntity
8
1
62
256
6
ByLayer
370
18
48
1
60
0
100
AcDbEllipse
10
44.284958
20
32.593486
30
0
11
-1.26918965486519
21
-0.225119123983708
31
0
210
0
220
0
230
1
40
0.876151
41
-1.70232816377189
42
-0.655493413774079
0
ELLIPSE
5
391
100
AcDbEntity
8
1
62
256
6
ByLayer
370
18
48
1
60
0
100
AcDbEllipse
10
44.284958
20
32.593486
30
0
11
-1.26918965486519
21
-0.225119123983708
31
0
210
0
220
0
230
1
40
0.876151
41
-2.74916291376969
42
-1.70232816377189
0
ELLIPSE
5
392
100
AcDbEntity
8
1
62
256
6
ByLayer
370
18
48
1
60
0
100
AcDbEllipse
10
44.284958
20
32.593486
30
0
11
-1.26918965486519
21
-0.225119123983708
31
0
210
0
220
0
230
1
40
0.876151
41
2.48609923981571
42
-2.74916291376969
0
ELLIPSE
5
393
100
AcDbEntity
8
1
62
256
6
ByLayer
370
18
48
1
60
0
100
AcDbEllipse
10
44.284958
20
32.593486
30
0
11
-1.26918965486519
21
-0.225119123983708
31
0
210
0
220
0
230
1
40
0.876151
41
1.4392644898179
42
2.48609923981571
0
ELLIPSE
5
394
100
AcDbEntity
8
1
62
256
6
ByLayer
370
18
48
1
60
0
100
AcDbEllipse
10
44.284958
20
32.593486
30
0
11
-1.26918965486519
21
-0.225119123983708
31
0
210
0
220
0
230
1
40
0.876151
41
0.392429739820096
42
1.4392644898179
0
ELLIPSE
5
395
100
AcDbEntity
8
1
62
256
6
ByLayer
370
18
48
1
60
0
100
AcDbEllipse
10
44.284958
20
32.593486
30
0
11
-1.26918965486519
21
-0.225119123983708
31
0
210
0
220
0
230
1
40
0.876151
41
-0.655493413774079
42
0.392429739820096
0
ELLIPSE
5
396
100
AcDbEntity
8
1
62
256
6
ByLayer
370
18
48
1
60
0
100
AcDbEllipse
10
44.200772
20
33.068114
30
0
11
-2.06772558201466
21
-0.366757300516517
31
0
210
0
220
0
230
1
40
0.876151
41
-0.213628181434465
42
0
0
ELLIPSE
5
397
100
AcDbEntity
8
1
62
256
6
ByLayer
370
18
48
1
60
0
100
AcDbEllipse
10
44.200772
20
33.068114
30
0
11
-2.06772558201466
21
-0.366757300516517
31
0
210
0
220
0
230
1
40
0.876151
41
3.14159262138613
42
-2.9280627558482
0
ELLIPSE
5
398
100
AcDbEntity
8
1
62
256
6
ByLayer
370
18
48
1
60
0
100
AcDbEllipse
10
44.160069
20
45.905541
30
0
11
0.221469229574816
21
-0.0656687166886758
31
0
210
0
220
0
230
1
40
0.955145
41
0.572578161789593
42
3.09688745639673
0
ELLIPSE
5
399
100
AcDbEntity
8
1
62
256
6
ByLayer
370
18
48
1
60
0
100
AcDbEllipse
10
44.284958
20
32.593486
30
0
11
-1.3784837213431
21
-0.244504867011011
31
0
210
0
220
0
230
1
40
0.876151
41
0
42
6.28318530717959
0
ELLIPSE
5
39A
100
AcDbEntity
8
1
62
256
6
ByLayer
370
18
48
1
60
0
100
AcDbEllipse
10
44.183935
20
33.16304
30
0
11
0.917676305922694
21
0.162770382895898
31
0
210
0
220
0
230
1
40
0.876151
41
2.90459787686039
42
2.98556516306082
0
ELLIPSE
5
39B
100
AcDbEntity
8
1
62
256
6
ByLayer
370
18
48
1
60
0
100
AcDbEllipse
10
44.183935
20
33.16304
30
0
11
0.917676305922694
21
0.162770382895898
31
0
210
0
220
0
230
1
40
0.876151
41
-0.107036183424995
42
0.0310855003147364
0
ELLIPSE
5
39C
100
AcDbEntity
8
1
62
256
6
ByLayer
370
18
48
1
60
0
100
AcDbEllipse
10
44.183935
20
33.16304
30
0
11
0.917676305922694
21
0.162770382895898
31
0
210
0
220
0
230
1
40
0.876151
41
-2.97205131007108
42
-2.22574553877077
0
ELLIPSE
5
39D
100
AcDbEntity
8
1
62
256
6
ByLayer
370
18
48
1
60
0
100
AcDbEllipse
10
44.207801
20
32.233969
30
0
11
-0.227449814021612
21
-0.0403433030568168
31
0
210
0
220
0
230
1
40
0.876151
41
0.142419980530176
42
2.73610899910572
0
ELLIPSE
5
39E
100
AcDbEntity
8
1
62
256
6
ByLayer
370
18
48
1
60
0
100
AcDbEllipse
10
44.183935
20
33.16304
30
0
11
0.917676305922694
21
0.162770382895898
31
0
210
0
220
0
230
1
40
0.876151
41
-2.22574553877077
42
-1.17891078877298
0
ELLIPSE
5
39F
100
AcDbEntity
8
1
62
256
6
ByLayer
370
18
48
1
60
0
100
AcDbEllipse
10
44.183935
20
33.16304
30
0
11
0.917676305922694
21
0.162770382895898
31
0
210
0
220
0
230
1
40
0.876151
41
-1.17891078877298
42
-0.156027490528976
0
ELLIPSE
5
3A0
100
AcDbEntity
8
1
62
256
6
ByLayer
370
18
48
1
60
0
100
AcDbEllipse
10
44.295889
20
0.738343
30
0
11
-2.30400205312454
21
-0.203073465480544
31
0
210
0
220
0
230
1
40
0.283919
41
0
42
6.28318530717959
0
ELLIPSE
5
3A1
100
AcDbEntity
8
1
62
256
6
ByLayer
370
18
48
1
60
0
100
AcDbEllipse
10
44.262869
20
32.718018
30
0
11
-2.06772558201466
21
-0.366757300516517
31
0
210
0
220
0
230
1
40
0.876151
41
-1.39977570730229
42
0
0
ELLIPSE
5
3A2
100
AcDbEntity
8
1
62
256
6
ByLayer
370
18
48
1
60
0
100
AcDbEllipse
10
44.262869
20
32.718018
30
0
11
-2.06772558201466
21
-0.366757300516517
31
0
210
0
220
0
230
1
40
0.876151
41
0
42
-1.74191486737133
0
ELLIPSE
5
3A3
100
AcDbEntity
8
1
62
256
6
ByLayer
370
18
48
1
60
0
100
AcDbEllipse
10
44.267606
20
1.059232
30
0
11
0.928400806994253
21
0.081828733171301
31
0
210
0
220
0
230
1
40
0.283919
41
-0.0268750431707649
42
0.0221162639332006
0
ELLIPSE
5
3A4
100
AcDbEntity
8
1
62
256
6
ByLayer
370
18
48
1
60
0
100
AcDbEllipse
10
44.267606
20
1.059232
30
0
11
0.928400806994253
21
0.081828733171301
31
0
210
0
220
0
230
1
40
0.283919
41
3.11471761041902
42
-3.1194763896566
0
ELLIPSE
5
3A5
100
AcDbEntity
8
1
62
256
6
ByLayer
370
18
48
1
60
0
100
AcDbEllipse
10
44.284958
20
0.862363
30
0
11
-1.28402214615407
21
-0.113173001134986
31
0
210
0
220
0
230
1
40
0.283919
41
-1.57317571641368
42
-0.526340966415888
0
ELLIPSE
5
3A6
100
AcDbEntity
8
1
62
256
6
ByLayer
370
18
48
1
60
0
100
AcDbEllipse
10
44.284958
20
0.862363
30
0
11
-1.28402214615407
21
-0.113173001134986
31
0
210
0
220
0
230
1
40
0.283919
41
-2.62001046641148
42
-1.57317571641368
0
ELLIPSE
5
3A7
100
AcDbEntity
8
1
62
256
6
ByLayer
370
18
48
1
60
0
100
AcDbEllipse
10
44.284958
20
0.862363
30
0
11
-1.28402214615407
21
-0.113173001134986
31
0
210
0
220
0
230
1
40
0.283919
41
2.61525168717392
42
-2.62001046641148
0
ELLIPSE
5
3A8
100
AcDbEntity
8
1
62
256
6
ByLayer
370
18
48
1
60
0
100
AcDbEllipse
10
44.284958
20
0.862363
30
0
11
-1.28402214615407
21
-0.113173001134986
31
0
210
0
220
0
230
1
40
0.283919
41
1.5684169371761
42
2.61525168717392
0
ELLIPSE
5
3A9
100
AcDbEntity
8
1
62
256
6
ByLayer
370
18
48
1
60
0
100
AcDbEllipse
10
44.284958
20
0.862363
30
0
11
-1.28402214615407
21
-0.113173001134986
31
0
210
0
220
0
230
1
40
0.283919
41
0.521582187178301
42
1.5684169371761
0
ELLIPSE
5
3AA
100
AcDbEntity
8
1
62
256
6
ByLayer
370
18
48
1
60
0
100
AcDbEllipse
10
44.284958
20
0.862363
30
0
11
-1.28402214615407
21
-0.113173001134986
31
0
210
0
220
0
230
1
40
0.283919
41
-0.526340966415888
42
0.5215821871783
0
ELLIPSE
5
3AB
100
AcDbEntity
8
1
62
256
6
ByLayer
370
18
48
1
60
0
100
AcDbEllipse
10
44.284958
20
0.862363
30
0
11
-1.39459348690124
21
-0.122918697896804
31
0
210
0
220
0
230
1
40
0.283919
41
0
42
6.28318530717959
0
ELLIPSE
5
3AC
100
AcDbEntity
8
1
62
256
6
ByLayer
370
18
48
1
60
0
100
AcDbEllipse
10
44.262869
20
1.112974
30
0
11
-2.09189023035186
21
-0.184378046845206
31
0
210
0
220
0
230
1
40
0.283919
41
2.44739868441749
42
2.99462486090354
0
ELLIPSE
5
3AD
100
AcDbEntity
8
1
62
256
6
ByLayer
370
18
48
1
60
0
100
AcDbEllipse
10
44.262869
20
1.112974
30
0
11
-2.09189023035186
21
-0.184378046845206
31
0
210
0
220
0
230
1
40
0.283919
41
0.147065560154372
42
0.694291910435667
0
ELLIPSE
5
3AE
100
AcDbEntity
8
1
62
256
6
ByLayer
370
13
48
1
60
0
100
AcDbEllipse
10
44.227807
20
45.039044
30
0
11
2.16328840868614
21
-0.641445197143814
31
0
210
0
220
0
230
1
40
0.955145
41
0.229240204958613
42
0.301005948601841
0
ELLIPSE
5
3AF
100
AcDbEntity
8
1
62
256
6
ByLayer
370
18
48
1
60
0
100
AcDbEllipse
10
44.227807
20
45.039044
30
0
11
2.16328840868614
21
-0.641445197143814
31
0
210
0
220
0
230
1
40
0.955145
41
0.14922771422956
42
0.229240204958616
0
ELLIPSE
5
3B0
100
AcDbEntity
8
1
62
256
6
ByLayer
370
13
48
1
60
0
100
AcDbEllipse
10
44.227807
20
45.039044
30
0
11
2.16328840868614
21
-0.641445197143814
31
0
210
0
220
0
230
1
40
0.955145
41
0.301005948601841
42
-2.96782113315469
0
ELLIPSE
5
3B1
100
AcDbEntity
8
1
62
256
6
ByLayer
370
18
48
1
60
0
100
AcDbEllipse
10
44.295889
20
32.531857
30
0
11
-2.27738717698327
21
-0.403945465745751
31
0
210
0
220
0
230
1
40
0.876151
41
0
42
6.28318530717959
0
ELLIPSE
5
3B2
100
AcDbEntity
8
1
62
256
6
ByLayer
370
13
48
1
60
0
100
AcDbEllipse
10
44.214458
20
32.990954
30
0
11
2.16371836643508
21
0.383783764177513
31
0
210
0
220
0
230
1
40
0.876151
41
0
42
0.101807160533026
0
ELLIPSE
5
3B3
100
AcDbEntity
8
1
62
256
6
ByLayer
370
13
48
1
60
0
100
AcDbEllipse
10
44.214458
20
32.990954
30
0
11
2.16371836643508
21
0.383783764177513
31
0
210
0
220
0
230
1
40
0.876151
41
3.0398836454751
42
-2.75910360789904
0
ELLIPSE
5
3B4
100
AcDbEntity
8
1
62
256
6
ByLayer
370
13
48
1
60
0
100
AcDbEllipse
10
44.214458
20
32.990954
30
0
11
2.16371836643508
21
0.383783764177513
31
0
210
0
220
0
230
1
40
0.876151
41
-0.382587100832472
42
0
0
ELLIPSE
5
3B5
100
AcDbEntity
8
1
62
256
6
ByLayer
370
13
48
1
60
0
100
AcDbEllipse
10
44.214458
20
44.994023
30
0
11
-2.10682537461088
21
0.624703119722083
31
0
210
0
220
0
230
1
40
0.955145
41
0.301005702406139
42
0.333010570716937
0
ELLIPSE
5
3B6
100
AcDbEntity
8
1
62
256
6
ByLayer
370
13
48
1
60
0
100
AcDbEllipse
10
44.214458
20
44.994023
30
0
11
-2.10682537461088
21
0.624703119722083
31
0
210
0
220
0
230
1
40
0.955145
41
-2.97479187105169
42
-2.52878372920431
0
ELLIPSE
5
3B7
100
AcDbEntity
8
1
62
256
6
ByLayer
370
13
48
1
60
0
100
AcDbEllipse
10
44.214458
20
44.994023
30
0
11
-2.10682537461088
21
0.624703119722083
31
0
210
0
220
0
230
1
40
0.955145
41
-0.613001603520007
42
0
0
ELLIPSE
5
3B8
100
AcDbEntity
8
1
62
256
6
ByLayer
370
13
48
1
60
0
100
AcDbEllipse
10
44.214458
20
44.994023
30
0
11
-2.10682537461088
21
0.624703119722083
31
0
210
0
220
0
230
1
40
0.955145
41
0
42
0.301005513154694
0
ELLIPSE
5
3B9
100
AcDbEntity
8
1
62
256
6
ByLayer
370
13
48
1
60
0
100
AcDbEllipse
10
44.227807
20
32.915692
30
0
11
-2.22170613577067
21
-0.39406918983046
31
0
210
0
220
0
230
1
40
0.876151
41
-0.0301397540540311
42
0
0
ELLIPSE
5
3BA
100
AcDbEntity
8
1
62
256
6
ByLayer
370
18
48
1
60
0
100
AcDbEllipse
10
44.227807
20
32.915692
30
0
11
-2.22170613577067
21
-0.39406918983046
31
0
210
0
220
0
230
1
40
0.876151
41
3.01013665735926
42
-3.11155115989872
0
ELLIPSE
5
3BB
100
AcDbEntity
8
1
62
256
6
ByLayer
370
13
48
1
60
0
100
AcDbEllipse
10
44.227807
20
32.915692
30
0
11
-2.22170613577067
21
-0.39406918983046
31
0
210
0
220
0
230
1
40
0.876151
41
2.35266008362384
42
3.01013665735925
0
ELLIPSE
5
3BC
100
AcDbEntity
8
1
62
256
6
ByLayer
370
13
48
1
60
0
100
AcDbEllipse
10
44.227807
20
32.915692
30
0
11
-2.22170613577067
21
-0.39406918983046
31
0
210
0
220
0
230
1
40
0.876151
41
0
42
0.789030446212459
0
ELLIPSE
5
3BD
100
AcDbEntity
8
1
62
256
6
ByLayer
370
18
48
1
60
0
100
AcDbEllipse
10
44.295889
20
45.268651
30
0
11
2.21750536794075
21
-0.657521282042144
31
0
210
0
220
0
230
1
40
0.955145
41
0.0473220123433279
42
0.301005692083906
0
ELLIPSE
5
3BE
100
AcDbEntity
8
1
62
256
6
ByLayer
370
18
48
1
60
0
100
AcDbEllipse
10
44.295889
20
45.268651
30
0
11
2.21750536794075
21
-0.657521282042144
31
0
210
0
220
0
230
1
40
0.955145
41
0.301005692083906
42
-2.587001530723
0
ELLIPSE
5
3BF
100
AcDbEntity
8
1
62
256
6
ByLayer
370
13
48
1
60
0
100
AcDbEllipse
10
43.5
20
-37.34128
30
0
11
1.4
21
0
31
0
210
0
220
0
230
1
40
0.413382
41
3.14159265358979
42
-2.33444881767356
0
ELLIPSE
5
3C0
100
AcDbEntity
8
1
62
256
6
ByLayer
370
18
48
1
60
0
100
AcDbEllipse
10
43.5
20
-37.34128
30
0
11
1.4
21
0
31
0
210
0
220
0
230
1
40
0.413382
41
-2.33444913995386
42
-0.75466970035833
0
ELLIPSE
5
3C1
100
AcDbEntity
8
1
62
256
6
ByLayer
370
13
48
1
60
0
100
AcDbEllipse
10
43.5
20
-37.34128
30
0
11
1.4
21
0
31
0
210
0
220
0
230
1
40
0.413382
41
-0.754669700358334
42
0
0
POINT
5
70
100
AcDbEntity
8
80
62
256
6
ByLayer
370
18
48
1
60
0
100
AcDbPoint
10
0
20
0
30
0
39
0
210
0
220
0
230
1
50
360
0
POINT
5
72
100
AcDbEntity
8
81
62
256
6
ByLayer
370
18
48
1
60
0
100
AcDbPoint
10
40
20
50
30
0
39
0
210
0
220
0
230
1
50
360
0
POINT
5
74
100
AcDbEntity
8
1
62
256
6
ByLayer
370
18
48
1
60
0
100
AcDbPoint
10
0
20
0
30
0
39
0
210
0
220
0
230
1
50
360
0
POINT
5
76
100
AcDbEntity
8
1
62
256
6
ByLayer
370
18
48
1
60
1
100
AcDbPoint
10
40
20
-50
30
0
39
0
210
0
220
0
230
1
50
360
0
POINT
5
77
100
AcDbEntity
8
1
62
256
6
ByLayer
370
18
48
1
60
1
100
AcDbPoint
10
0
20
-13.5
30
0
39
0
210
0
220
0
230
1
50
360
0
POINT
5
78
100
AcDbEntity
8
1
62
256
6
ByLayer
370
18
48
1
60
1
100
AcDbPoint
10
40
20
50
30
0
39
0
210
0
220
0
230
1
50
360
0
POINT
5
79
100
AcDbEntity
8
1
62
256
6
ByLayer
370
18
48
1
60
1
100
AcDbPoint
10
47.6
20
50
30
0
39
0
210
0
220
0
230
1
50
360
0
POINT
5
7A
100
AcDbEntity
8
1
62
256
6
ByLayer
370
18
48
1
60
1
100
AcDbPoint
10
49.5
20
50
30
0
39
0
210
0
220
0
230
1
50
360
0
SPLINE
5
3C2
100
AcDbEntity
8
1
62
256
6
ByLayer
370
18
48
1
60
0
100
AcDbSpline
70
4
71
3
72
10
73
6
40
0
40
0
40
0
40
0
40
0.710985745338619
40
0.710985745338619
40
1
40
1
40
1
40
1
41
1
10
40.1805214835458
20
-41.5385941799802
30
0
41
1
10
40.1827463559834
20
-41.4951062659002
30
0
41
1
10
40.1897398474279
20
-41.4522496587477
30
0
41
1
10
40.2061347410395
20
-41.3928402017856
30
0
41
1
10
40.2116489128812
20
-41.375772730147
30
0
41
1
10
40.2179584874822
20
-41.3588105601211
30
0
0
SPLINE
5
3C3
100
AcDbEntity
8
1
62
256
6
ByLayer
370
18
48
1
60
0
100
AcDbSpline
70
4
71
3
72
20
73
16
40
0
40
0
40
0
40
0
40
0.125000000000007
40
0.125000000000007
40
0.250000000000014
40
0.250000000000014
40
0.375000000000021
40
0.375000000000021
40
0.500000000000028
40
0.500000000000028
40
0.625000000000035
40
0.625000000000035
40
0.750000000000042
40
0.750000000000042
40
1
40
1
40
1
40
1
41
1
10
44.2558812481735
20
46.4677376756806
30
0
41
1
10
44.2689254386822
20
46.4677078020552
30
0
41
1
10
44.2818592465812
20
46.466469722169
30
0
41
1
10
44.3075050875333
20
46.4615726918376
30
0
41
1
10
44.3202127770118
20
46.4578772106223
30
0
41
1
10
44.3442851394944
20
46.448426784382
30
0
41
1
10
44.3558028386894
20
46.4426502784838
30
0
41
1
10
44.3778254690475
20
46.4290524773974
30
0
41
1
10
44.3883646115851
20
46.4211680559656
30
0
41
1
10
44.4075889670066
20
46.4040665421514
30
0
41
1
10
44.4163970130115
20
46.3947864718255
30
0
41
1
10
44.4324909308569
20
46.3748546428738
30
0
41
1
10
44.4398299070875
20
46.3641005086822
30
0
41
1
10
44.4590745012154
20
46.3305819839013
30
0
41
1
10
44.4682676412535
20
46.3067664951014
30
0
41
1
10
44.4740940227036
20
46.2816203220618
30
0
0
SPLINE
5
3C4
100
AcDbEntity
8
1
62
256
6
ByLayer
370
18
48
1
60
0
100
AcDbSpline
70
4
71
3
72
28
73
24
40
0
40
0
40
0
40
0
40
0.125000000000007
40
0.125000000000007
40
0.250000000000015
40
0.250000000000015
40
0.312500000000007
40
0.312500000000007
40
0.374999999999998
40
0.374999999999998
40
0.499999999999982
40
0.499999999999982
40
0.56249999999999
40
0.56249999999999
40
0.624999999999999
40
0.624999999999999
40
0.749999999999999
40
0.749999999999999
40
0.812499999999999
40
0.812499999999999
40
0.874999999999999
40
0.874999999999999
40
1
40
1
40
1
40
1
41
1
10
45.1164827819528
20
45.9279422684498
30
0
41
1
10
45.0843992794437
20
45.9157491196372
30
0
41
1
10
45.0511756279352
20
45.9063864821131
30
0
41
1
10
44.9840004574956
20
45.8942779079069
30
0
41
1
10
44.9499633158238
20
45.8914471065139
30
0
41
1
10
44.8979878690789
20
45.8928253004177
30
0
41
1
10
44.8804418608265
20
45.8942516201242
30
0
41
1
10
44.8458446501869
20
45.8991010041128
30
0
41
1
10
44.8287000774639
20
45.9025192762538
30
0
41
1
10
44.7777336579652
20
45.9159216334327
30
0
41
1
10
44.744067687588
20
45.9293174991942
30
0
41
1
10
44.6975709569547
20
45.9549828000515
30
0
41
1
10
44.682619409009
20
45.9644824284653
30
0
41
1
10
44.6538041882815
20
45.9853572818784
30
0
41
1
10
44.6398470859553
20
45.9968225427462
30
0
41
1
10
44.6003538026158
20
46.0334016462929
30
0
41
1
10
44.5773993197538
20
46.0603502026659
30
0
41
1
10
44.5473091003274
20
46.1041244616766
30
0
41
1
10
44.5379708833567
20
46.1193640444566
30
0
41
1
10
44.5210302043245
20
46.1503445422316
30
0
41
1
10
44.5133911403248
20
46.1661212303128
30
0
41
1
10
44.4927557691237
20
46.214258588992
30
0
41
1
10
44.4820183859384
20
46.2474194358284
30
0
41
1
10
44.4740940227036
20
46.2816203220618
30
0
0
SPLINE
5
3C5
100
AcDbEntity
8
1
62
256
6
ByLayer
370
18
48
1
60
0
100
AcDbSpline
70
4
71
3
72
18
73
14
40
0
40
0
40
0
40
0
40
0.25
40
0.25
40
0.500000000000001
40
0.500000000000001
40
0.625
40
0.625
40
0.75
40
0.75
40
0.875
40
0.875
40
1
40
1
40
1
40
1
41
1
10
45.1164827819528
20
45.9279422684499
30
0
41
1
10
45.139997162465
20
45.9368787722103
30
0
41
1
10
45.1643878011145
20
45.9423103756226
30
0
41
1
10
45.2143838409372
20
45.9453650314859
30
0
41
1
10
45.2392875179421
20
45.9429256132243
30
0
41
1
10
45.2755364019947
20
45.9327756197257
30
0
41
1
10
45.2872119302975
20
45.9283676436082
30
0
41
1
10
45.3097181899773
20
45.9174538243169
30
0
41
1
10
45.3206485739195
20
45.9108669964064
30
0
41
1
10
45.3409591666319
20
45.8958438673096
30
0
41
1
10
45.3503556381711
20
45.887433368069
30
0
41
1
10
45.3675988156724
20
45.8687833346809
30
0
41
1
10
45.3754776535889
20
45.8584521234785
30
0
41
1
10
45.382236317245
20
45.8476037415645
30
0
0
SPLINE
5
3C6
100
AcDbEntity
8
1
62
256
6
ByLayer
370
18
48
1
60
0
100
AcDbSpline
70
4
71
3
72
28
73
24
40
0
40
0
40
0
40
0
40
0.124999999999982
40
0.124999999999982
40
0.249999999999965
40
0.249999999999965
40
0.312499999999959
40
0.312499999999959
40
0.374999999999953
40
0.374999999999953
40
0.499999999999941
40
0.499999999999941
40
0.562499999999935
40
0.562499999999935
40
0.624999999999929
40
0.624999999999929
40
0.749999999999945
40
0.749999999999945
40
0.812499999999954
40
0.812499999999954
40
0.874999999999962
40
0.874999999999962
40
1
40
1
40
1
40
1
41
1
10
44.0310148168645
20
46.2826350559546
30
0
41
1
10
44.0217021133861
20
46.2484515707272
30
0
41
1
10
44.0095051870344
20
46.2148411188861
30
0
41
1
10
43.9796458407012
20
46.150650947307
30
0
41
1
10
43.9619979175998
20
46.1199509859533
30
0
41
1
10
43.9308498576988
20
46.0762512676122
30
0
41
1
10
43.9196274431183
20
46.0620351799015
30
0
41
1
10
43.8960243501049
20
46.0351456920837
30
0
41
1
10
43.8835930933443
20
46.0223897380884
30
0
41
1
10
43.8443243800724
20
45.9862931850488
30
0
41
1
10
43.8151475206694
20
45.9650071931447
30
0
41
1
10
43.7698039601758
20
45.939654962915
30
0
41
1
10
43.7543439353026
20
45.9322065568555
30
0
41
1
10
43.7227331952233
20
45.9192998224036
30
0
41
1
10
43.7064640855835
20
45.9138122364911
30
0
41
1
10
43.6574808212885
20
45.9006135743839
30
0
41
1
10
43.6249571924459
20
45.8961445609271
30
0
41
1
10
43.5761780198065
20
45.8950156096532
30
0
41
1
10
43.5598361946096
20
45.8955914855603
30
0
41
1
10
43.5277421582385
20
45.8984975349433
30
0
41
1
10
43.5119433637416
20
45.9008165647811
30
0
41
1
10
43.4651825800589
20
45.9101559097032
30
0
41
1
10
43.43484767452
20
45.9195348139703
30
0
41
1
10
43.4051988163405
20
45.9318614274109
30
0
0
SPLINE
5
3C7
100
AcDbEntity
8
1
62
256
6
ByLayer
370
18
48
1
60
0
100
AcDbSpline
70
4
71
3
72
18
73
14
40
0
40
0
40
0
40
0
40
0.249999999999954
40
0.249999999999954
40
0.499999999999907
40
0.499999999999907
40
0.62499999999993
40
0.62499999999993
40
0.749999999999954
40
0.749999999999954
40
0.874999999999977
40
0.874999999999977
40
1
40
1
40
1
40
1
41
1
10
44.0310148168645
20
46.2826350559546
30
0
41
1
10
44.0378401717344
20
46.3076884057051
30
0
41
1
10
44.0479935216222
20
46.331596477768
30
0
41
1
10
44.0753393600504
20
46.3762010559263
30
0
41
1
10
44.0921788623231
20
46.3962842040049
30
0
41
1
10
44.1220970924074
20
46.4219444616775
30
0
41
1
10
44.1326697489065
20
46.4295966642295
30
0
41
1
10
44.1550479740055
20
46.4430477684821
30
0
41
1
10
44.166979678058
20
46.4488883164411
30
0
41
1
10
44.1914501460034
20
46.4582417966353
30
0
41
1
10
44.2039823666032
20
46.4617848857577
30
0
41
1
10
44.229653322968
20
46.4665588654333
30
0
41
1
10
44.2428832607243
20
46.4677674434924
30
0
41
1
10
44.2558812481735
20
46.4677376756806
30
0
0
SPLINE
5
3C8
100
AcDbEntity
8
1
62
256
6
ByLayer
370
18
48
1
60
0
100
AcDbSpline
70
4
71
3
72
20
73
16
40
0
40
0
40
0
40
0
40
0.125000000000008
40
0.125000000000008
40
0.250000000000015
40
0.250000000000015
40
0.375000000000023
40
0.375000000000023
40
0.500000000000031
40
0.500000000000031
40
0.625000000000039
40
0.625000000000039
40
0.750000000000047
40
0.750000000000047
40
1
40
1
40
1
40
1
41
1
10
43.1585846122234
20
45.8526963180632
30
0
41
1
10
43.1648550594991
20
45.8635521594432
30
0
41
1
10
43.1720034753413
20
45.8736510467008
30
0
41
1
10
43.1880574474447
20
45.8923312304235
30
0
41
1
10
43.1969889856027
20
45.9008887716038
30
0
41
1
10
43.2157889318654
20
45.9157495666391
30
0
41
1
10
43.2257472575535
20
45.9221685031235
30
0
41
1
10
43.2467402245433
20
45.9330337935869
30
0
41
1
10
43.2578395051061
20
45.9374738332769
30
0
41
1
10
43.2801555996278
20
45.9440705602281
30
0
41
1
10
43.2914797178461
20
45.9462949572144
30
0
41
1
10
43.3144251867485
20
45.9487134104106
30
0
41
1
10
43.326149971268
20
45.9488951918287
30
0
41
1
10
43.3609081601858
20
45.9464262074724
30
0
41
1
10
43.3833995089193
20
45.940924563476
30
0
41
1
10
43.4051988163405
20
45.9318614274109
30
0
0
SPLINE
5
3C9
100
AcDbEntity
8
1
62
256
6
ByLayer
370
18
48
1
60
0
100
AcDbSpline
70
4
71
3
72
16
73
12
40
0
40
0
40
0
40
0
40
0.125
40
0.125
40
0.25
40
0.25
40
0.5
40
0.5
40
0.75
40
0.75
40
1
40
1
40
1
40
1
41
1
10
45.1952660200773
20
45.1930285970192
30
0
41
1
10
45.1956754669854
20
45.209562702694
30
0
41
1
10
45.196969976972
20
45.2261532875965
30
0
41
1
10
45.2012765799911
20
45.2594378062727
30
0
41
1
10
45.2043068301979
20
45.2761697854706
30
0
41
1
10
45.215667380635
20
45.3254397472052
30
0
41
1
10
45.2262707631891
20
45.3574194118168
30
0
41
1
10
45.2529637162471
20
45.4197856424606
30
0
41
1
10
45.2689518815672
20
45.4498010992895
30
0
41
1
10
45.3047514493966
20
45.5061510545588
30
0
41
1
10
45.3246881949864
20
45.5327656902061
30
0
41
1
10
45.3466037743815
20
45.5578993117762
30
0
0
SPLINE
5
3CA
100
AcDbEntity
8
1
62
256
6
ByLayer
370
18
48
1
60
0
100
AcDbSpline
70
4
71
3
72
14
73
10
40
0
40
0
40
0
40
0
40
0.25
40
0.25
40
0.5
40
0.5
40
0.75
40
0.75
40
1
40
1
40
1
40
1
41
1
10
45.363197372334
20
44.8525618248514
30
0
41
1
10
45.3402938422449
20
44.8689438831642
30
0
41
1
10
45.3191771602801
20
44.8873473025456
30
0
41
1
10
45.2807208583823
20
44.9287631276386
30
0
41
1
10
45.2636446469908
20
44.951523182121
30
0
41
1
10
45.2345142362953
20
45.001268900953
30
0
41
1
10
45.2223077766134
20
45.0287007637677
30
0
41
1
10
45.2044518569226
20
45.0865066682074
30
0
41
1
10
45.1986500700195
20
45.1169765097483
30
0
41
1
10
45.1962958932493
20
45.1492521865604
30
0
0
SPLINE
5
3CB
100
AcDbEntity
8
1
62
256
6
ByLayer
370
18
48
1
60
0
100
AcDbSpline
70
4
71
3
72
20
73
16
40
0
40
0
40
0
40
0
40
0.125
40
0.125
40
0.25
40
0.25
40
0.375
40
0.375
40
0.5
40
0.5
40
0.625
40
0.625
40
0.75
40
0.75
40
1
40
1
40
1
40
1
41
1
10
45.382236317245
20
45.8476037415645
30
0
41
1
10
45.3890272235836
20
45.836703606678
30
0
41
1
10
45.394782044787
20
45.8252029110404
30
0
41
1
10
45.4042182346565
20
45.8009983277569
30
0
41
1
10
45.4078695132985
20
45.7882716818178
30
0
41
1
10
45.4128073669527
20
45.762755344201
30
0
41
1
10
45.4141568124319
20
45.7498256401253
30
0
41
1
10
45.4146828586285
20
45.7236308214631
30
0
41
1
10
45.4138264388127
20
45.7102975332471
30
0
41
1
10
45.4100819149827
20
45.6843993343491
30
0
41
1
10
45.4072073573188
20
45.671696745998
30
0
41
1
10
45.3995763671096
20
45.6467555581119
30
0
41
1
10
45.394765720858
20
45.6344136018113
30
0
41
1
10
45.3779079000792
20
45.5989363986845
30
0
41
1
10
45.3636342320987
20
45.5774304896526
30
0
41
1
10
45.3466037743815
20
45.5578993117762
30
0
0
SPLINE
5
3CC
100
AcDbEntity
8
1
62
256
6
ByLayer
370
18
48
1
60
0
100
AcDbSpline
70
4
71
3
72
14
73
10
40
0
40
0
40
0
40
0
40
0.397241209108877
40
0.397241209108877
40
0.794482418217753
40
0.794482418217753
40
0.993103022772202
40
0.993103022772202
40
1
40
1
40
1
40
1
41
1
10
45.363197372334
20
44.8525618248514
30
0
41
1
10
45.3809416986569
20
44.8398699565056
30
0
41
1
10
45.3961653741156
20
44.8245812537833
30
0
41
1
10
45.4206057635584
20
44.7888387833168
30
0
41
1
10
45.4294637118253
20
44.7688737300082
30
0
41
1
10
45.4367756050783
20
44.7362760043539
30
0
41
1
10
45.4381680357314
20
44.725165081735
30
0
41
1
10
45.4384954420851
20
44.7134166872165
30
0
41
1
10
45.4385051017693
20
44.7130219865209
30
0
41
1
10
45.438513432551
20
44.7126268692888
30
0
0
SPLINE
5
3CD
100
AcDbEntity
8
1
62
256
6
ByLayer
370
18
48
1
60
0
100
AcDbSpline
70
4
71
3
72
16
73
12
40
0
40
0
40
0
40
0
40
0.124999999999996
40
0.124999999999996
40
0.249999999999992
40
0.249999999999992
40
0.499999999999995
40
0.499999999999995
40
0.749999999999997
40
0.749999999999997
40
1
40
1
40
1
40
1
41
1
10
43.3399460546176
20
45.1535035733853
30
0
41
1
10
43.3396491634642
20
45.1373490645345
30
0
41
1
10
43.3385921879263
20
45.1215595699224
30
0
41
1
10
43.3349979535715
20
45.0906775306493
30
0
41
1
10
43.3324450859581
20
45.0755555350251
30
0
41
1
10
43.3228121864513
20
45.0321121150566
30
0
41
1
10
43.3137566989038
20
45.0053527612997
30
0
41
1
10
43.2907805875818
20
44.9555216633226
30
0
41
1
10
43.2769445909024
20
44.932764443822
30
0
41
1
10
43.2457662448964
20
44.8919996634812
30
0
41
1
10
43.2283165127886
20
44.8737725369492
30
0
41
1
10
43.2090269679579
20
44.8574952762327
30
0
0
SPLINE
5
3CE
100
AcDbEntity
8
1
62
256
6
ByLayer
370
18
48
1
60
0
100
AcDbSpline
70
4
71
3
72
14
73
10
40
0
40
0
40
0
40
0
40
0.25
40
0.25
40
0.5
40
0.5
40
0.75
40
0.75
40
1
40
1
40
1
40
1
41
1
10
43.1924333700053
20
45.5628327631575
30
0
41
1
10
43.2127095514061
20
45.537589912078
30
0
41
1
10
43.2313248942475
20
45.5107506700327
30
0
41
1
10
43.2651139465523
20
45.4535944403189
30
0
41
1
10
43.2800559438277
20
45.423636700548
30
0
41
1
10
43.3054948240001
20
45.3614412116867
30
0
41
1
10
43.3161251618756
20
45.3286938424972
30
0
41
1
10
43.3317039574383
20
45.2632082855267
30
0
41
1
10
43.3367868368557
20
45.2303139122603
30
0
41
1
10
43.3389161814456
20
45.1972799838441
30
0
0
SPLINE
5
3CF
100
AcDbEntity
8
1
62
256
6
ByLayer
370
18
48
1
60
0
100
AcDbSpline
70
4
71
3
72
18
73
14
40
0
40
0
40
0
40
0
40
0.250000000000028
40
0.250000000000028
40
0.500000000000056
40
0.500000000000056
40
0.625000000000042
40
0.625000000000042
40
0.750000000000028
40
0.750000000000028
40
0.875000000000014
40
0.875000000000014
40
1
40
1
40
1
40
1
41
1
10
43.1924333700052
20
45.5628327631576
30
0
41
1
10
43.1767245610156
20
45.582389459664
30
0
41
1
10
43.1633954323092
20
45.6040675640801
30
0
41
1
10
43.1424306538131
20
45.6515316109295
30
0
41
1
10
43.1351044739992
20
45.6766625879274
30
0
41
1
10
43.1297292805935
20
45.7157918775395
30
0
41
1
10
43.1289102230536
20
45.7288365139272
30
0
41
1
10
43.1292812933174
20
45.7549304754026
30
0
41
1
10
43.1304996515215
20
45.7681082279232
30
0
41
1
10
43.1350191680942
20
45.7936895146371
30
0
41
1
10
43.1382937441472
20
45.8061020990215
30
0
41
1
10
43.1469179222785
20
45.8301580493631
30
0
41
1
10
43.1523286859723
20
45.8418656165069
30
0
41
1
10
43.1585846122234
20
45.8526963180632
30
0
0
SPLINE
5
3D0
100
AcDbEntity
8
1
62
256
6
ByLayer
370
18
48
1
60
0
100
AcDbSpline
70
4
71
3
72
16
73
12
40
0
40
0
40
0
40
0
40
0.0367258576319807
40
0.0367258576319807
40
0.229380686105585
40
0.229380686105585
40
0.422035514579188
40
0.422035514579188
40
0.614690343052792
40
0.614690343052792
40
1
40
1
40
1
40
1
41
1
10
43.1537118973823
20
44.7124467327835
30
0
41
1
10
43.1534922900247
20
44.7146268195469
30
0
41
1
10
43.1533095332782
20
44.7168033854712
30
0
41
1
10
43.1523968113968
20
44.7303755336386
30
0
41
1
10
43.1526660625515
20
44.741728582289
30
0
41
1
10
43.1551266136877
20
44.7632965542902
30
0
41
1
10
43.1572998151934
20
44.773633803164
30
0
41
1
10
43.1634105884031
20
44.7934480248985
30
0
41
1
10
43.1673944378897
20
44.8030015904436
30
0
41
1
10
43.181647750122
20
44.8296950296978
30
0
41
1
10
43.1940371850412
20
44.8448463201916
30
0
41
1
10
43.2090269679578
20
44.8574952762327
30
0
0
SPLINE
5
3D1
100
AcDbEntity
8
1
62
256
6
ByLayer
370
18
48
1
60
0
100
AcDbSpline
70
4
71
3
72
28
73
24
40
0
40
0
40
0
40
0
40
0.125
40
0.125
40
0.187499999999998
40
0.187499999999998
40
0.249999999999997
40
0.249999999999997
40
0.374999999999979
40
0.374999999999979
40
0.437499999999976
40
0.437499999999976
40
0.499999999999974
40
0.499999999999974
40
0.624999999999981
40
0.624999999999981
40
0.749999999999987
40
0.749999999999987
40
0.812499999999987
40
0.812499999999987
40
0.874999999999987
40
0.874999999999987
40
1
40
1
40
1
40
1
41
1
10
47.9177396613294
20
-0.814468787683893
30
0
41
1
10
47.9685571630231
20
-0.810024355894825
30
0
41
1
10
48.0183498654394
20
-0.803041232263354
30
0
41
1
10
48.0915432232392
20
-0.788861322907906
30
0
41
1
10
48.1156899588962
20
-0.783512770242169
30
0
41
1
10
48.163466519251
20
-0.771535143284382
30
0
41
1
10
48.1870056220047
20
-0.764920235110878
30
0
41
1
10
48.2553302212996
20
-0.743584971938901
30
0
41
1
10
48.2983378243115
20
-0.727269145798516
30
0
41
1
10
48.3590248424141
20
-0.699647719194957
30
0
41
1
10
48.378715723113
20
-0.68985225482038
30
0
41
1
10
48.416103594662
20
-0.669526032071929
30
0
41
1
10
48.4338245111512
20
-0.658996202790604
30
0
41
1
10
48.4841491884951
20
-0.62633708366036
30
0
41
1
10
48.5139415307046
20
-0.603148207863683
30
0
41
1
10
48.5657905554199
20
-0.553854989968784
30
0
41
1
10
48.5870424564305
20
-0.528505255496498
30
0
41
1
10
48.6121556757687
20
-0.48960386366565
30
0
41
1
10
48.6193982894632
20
-0.476482504592013
30
0
41
1
10
48.6315928852011
20
-0.449926721930467
30
0
41
1
10
48.636544425219
20
-0.436456668991241
30
0
41
1
10
48.6476700361231
20
-0.39629713583787
30
0
41
1
10
48.650276431309
20
-0.369636163788925
30
0
41
1
10
48.6480564974564
20
-0.343087606318818
30
0
0
SPLINE
5
3D2
100
AcDbEntity
8
1
62
256
6
ByLayer
370
18
48
1
60
0
100
AcDbSpline
70
4
71
3
72
28
73
24
40
0
40
0
40
0
40
0
40
0.12500000000001
40
0.12500000000001
40
0.187500000000005
40
0.187500000000005
40
0.25
40
0.25
40
0.374999999999977
40
0.374999999999977
40
0.437499999999979
40
0.437499999999979
40
0.499999999999981
40
0.499999999999981
40
0.62499999999998
40
0.62499999999998
40
0.749999999999978
40
0.749999999999978
40
0.812499999999984
40
0.812499999999984
40
0.874999999999989
40
0.874999999999989
40
1
40
1
40
1
40
1
41
1
10
40.7642687247789
20
-34.4472954847904
30
0
41
1
10
40.7134512230852
20
-34.4505204668247
30
0
41
1
10
40.6634401094248
20
-34.4502442572409
30
0
41
1
10
40.5896003632756
20
-34.4447199493351
30
0
41
1
10
40.5651846595254
20
-34.4420208087022
30
0
41
1
10
40.5167599958829
20
-34.4348565188523
30
0
41
1
10
40.4928422757836
20
-34.4303937592984
30
0
41
1
10
40.4232412990538
20
-34.4146491642712
30
0
41
1
10
40.3791904322963
20
-34.4009653632054
30
0
41
1
10
40.3166491535976
20
-34.3756445225982
30
0
41
1
10
40.2962873859723
20
-34.3663394146983
30
0
41
1
10
40.2574821471409
20
-34.3464133886556
30
0
41
1
10
40.2390150013878
20
-34.3357979391938
30
0
41
1
10
40.1863421243585
20
-34.3020485846676
30
0
41
1
10
40.1548393283035
20
-34.2770295453603
30
0
41
1
10
40.0992709021634
20
-34.2218044921818
30
0
41
1
10
40.0760669119159
20
-34.1924419293392
30
0
41
1
10
40.0479035345308
20
-34.1460490416804
30
0
41
1
10
40.0396231838683
20
-34.130182471686
30
0
41
1
10
40.0253104510527
20
-34.0976327655101
30
0
41
1
10
40.0192755469421
20
-34.0809029704001
30
0
41
1
10
40.0048935690585
20
-34.0303782177977
30
0
41
1
10
40.0000906110284
20
-33.9959861912229
30
0
41
1
10
40.0000882470614
20
-33.9608830003898
30
0
0
SPLINE
5
3D3
100
AcDbEntity
8
1
62
256
6
ByLayer
370
18
48
1
60
0
100
AcDbSpline
70
4
71
3
72
29
73
25
40
0
40
0
40
0
40
0
40
0.124999999999998
40
0.124999999999998
40
0.187500000000009
40
0.187500000000009
40
0.25000000000002
40
0.25000000000002
40
0.37500000000002
40
0.37500000000002
40
0.43750000000002
40
0.43750000000002
40
0.50000000000002
40
0.50000000000002
40
0.62500000000001
40
0.62500000000001
40
0.687500000000009
40
0.687500000000009
40
0.750000000000007
40
0.812500000000005
40
0.812500000000005
40
0.875000000000003
40
0.875000000000003
40
1
40
1
40
1
40
1
41
1
10
48.467623260972
20
-33.4235160031052
30
0
41
1
10
48.4676208967812
20
-33.4586228178994
30
0
41
1
10
48.4628170878154
20
-33.4935158274295
30
0
41
1
10
48.4485686595187
20
-33.5455417341365
30
0
41
1
10
48.4426373394891
20
-33.5628310762839
30
0
41
1
10
48.4283376018244
20
-33.5973012381825
30
0
41
1
10
48.4199749293787
20
-33.6144315895236
30
0
41
1
10
48.3917437651982
20
-33.664588283799
30
0
41
1
10
48.3686255500776
20
-33.6967416811602
30
0
41
1
10
48.327431753438
20
-33.7430241634074
30
0
41
1
10
48.3125274172971
20
-33.7581965966061
30
0
41
1
10
48.2808125326987
20
-33.7875043982371
30
0
41
1
10
48.2640967979032
20
-33.8015675653046
30
0
41
1
10
48.2114404368279
20
-33.8420300986711
30
0
41
1
10
48.1730144751758
20
-33.8667188925418
30
0
41
1
10
48.110222846689
20
-33.9002056635301
30
0
41
1
10
48.0884791191968
20
-33.9107310819273
30
0
41
1
10
48.0442363719022
20
-33.93011984858
30
0
41
1
10
47.9990105755002
20
-33.9479723644745
30
0
41
1
10
47.9518461090981
20
-33.9627952420376
30
0
41
1
10
47.9036983482
20
-33.9760814853636
30
0
41
1
10
47.8790116241334
20
-33.9819780405867
30
0
41
1
10
47.8045160436905
20
-33.997055603368
30
0
41
1
10
47.7542705511224
20
-34.0036957492989
30
0
41
1
10
47.7034427832545
20
-34.0069213828455
30
0
0
SPLINE
5
3D4
100
AcDbEntity
8
1
62
256
6
ByLayer
370
18
48
1
60
0
100
AcDbSpline
70
4
71
3
72
14
73
10
40
0
40
0
40
0
40
0
40
0.317125698448444
40
0.317125698448444
40
0.634251396896887
40
0.634251396896887
40
0.951377095345331
40
0.951377095345331
40
1
40
1
40
1
40
1
41
1
10
40.3998989792158
20
-30.2739805296209
30
0
41
1
10
40.4006952360238
20
-30.2893783465474
30
0
41
1
10
40.4046061730843
20
-30.3042520846682
30
0
41
1
10
40.4183569909674
20
-30.3330019516727
30
0
41
1
10
40.4283371110724
20
-30.3470088510591
30
0
41
1
10
40.4538976663405
20
-30.3732875757082
30
0
41
1
10
40.46932472541
20
-30.3854882995117
30
0
41
1
10
40.4901078419928
20
-30.3984990723681
30
0
41
1
10
40.4929372107232
20
-30.4002086295388
30
0
41
1
10
40.4958294875271
20
-30.4018963300117
30
0
0
SPLINE
5
3D5
100
AcDbEntity
8
1
62
256
6
ByLayer
370
13
48
1
60
0
100
AcDbSpline
70
4
71
3
72
8
73
4
40
0
40
0
40
0
40
0
40
1
40
1
40
1
40
1
41
1
10
40.0000882470614
20
-33.9608830003897
30
0
41
1
10
40.1333584911129
20
-32.7319155101334
30
0
41
1
10
40.2666287351643
20
-31.5029480198771
30
0
41
1
10
40.3998989792158
20
-30.2739805296208
30
0
0
SPLINE
5
3D6
100
AcDbEntity
8
1
62
256
6
ByLayer
370
18
48
1
60
0
100
AcDbSpline
70
4
71
3
72
28
73
24
40
0
40
0
40
0
40
0
40
0.125000000000012
40
0.125000000000012
40
0.187500000000008
40
0.187500000000008
40
0.250000000000004
40
0.250000000000004
40
0.374999999999996
40
0.374999999999996
40
0.437499999999984
40
0.437499999999984
40
0.499999999999973
40
0.499999999999973
40
0.624999999999975
40
0.624999999999975
40
0.749999999999977
40
0.749999999999977
40
0.812499999999983
40
0.812499999999983
40
0.874999999999989
40
0.874999999999989
40
1
40
1
40
1
40
1
41
1
10
40.7642687247789
20
49.9832652244512
30
0
41
1
10
40.7134512230852
20
49.9833816059934
30
0
41
1
10
40.6634401094248
20
49.9784858822638
30
0
41
1
10
40.5896003632756
20
49.9638271227812
30
0
41
1
10
40.5651846595254
20
49.9577130287779
30
0
41
1
10
40.5167599958829
20
49.9429567240886
30
0
41
1
10
40.4928422757836
20
49.934326183678
30
0
41
1
10
40.4232412990538
20
49.9052060423195
30
0
41
1
10
40.3791904322963
20
49.8813749126085
30
0
41
1
10
40.3166491535976
20
49.838982216054
30
0
41
1
10
40.2962873859723
20
49.8236389953945
30
0
41
1
10
40.2574821471409
20
49.7912140805744
30
0
41
1
10
40.2390150013878
20
49.7741382005813
30
0
41
1
10
40.1863421243585
20
49.7203921567003
30
0
41
1
10
40.1548393283035
20
49.6812272402568
30
0
41
1
10
40.0992709021634
20
49.5960330590624
30
0
41
1
10
40.0760669119159
20
49.5513061265233
30
0
41
1
10
40.0479035345308
20
49.4814013332852
30
0
41
1
10
40.0396231838683
20
49.457615064292
30
0
41
1
10
40.0253104510527
20
49.4090587042193
30
0
41
1
10
40.0192755469421
20
49.3842206264378
30
0
41
1
10
40.0048935690585
20
49.309553928428
30
0
41
1
10
40.0000906110283
20
49.2591767363868
30
0
41
1
10
40.0000882470614
20
49.2081982010077
30
0
0
SPLINE
5
3D7
100
AcDbEntity
8
1
62
256
6
ByLayer
370
13
48
1
60
0
100
AcDbSpline
70
4
71
3
72
8
73
4
40
0
40
0
40
0
40
0
40
1
40
1
40
1
40
1
41
1
10
40.8934044780992
20
-30.5060965225695
30
0
41
1
10
40.8503592269923
20
-31.8198295099764
30
0
41
1
10
40.8073139758857
20
-33.1335624973833
30
0
41
1
10
40.7642687247789
20
-34.4472954847902
30
0
0
SPLINE
5
3D8
100
AcDbEntity
8
1
62
256
6
ByLayer
370
18
48
1
60
0
100
AcDbSpline
70
4
71
3
72
29
73
25
40
0
40
0
40
0
40
0
40
0.124999999999978
40
0.124999999999978
40
0.187499999999967
40
0.187499999999967
40
0.249999999999957
40
0.249999999999957
40
0.374999999999951
40
0.374999999999951
40
0.437499999999948
40
0.437499999999948
40
0.499999999999945
40
0.499999999999945
40
0.624999999999951
40
0.624999999999951
40
0.687499999999959
40
0.687499999999959
40
0.749999999999968
40
0.812499999999976
40
0.812499999999976
40
0.874999999999984
40
0.874999999999984
40
1
40
1
40
1
40
1
41
1
10
48.467623260972
20
49.1888059689791
30
0
41
1
10
48.4676208967812
20
49.2397893422969
30
0
41
1
10
48.4628170878154
20
49.2900307030434
30
0
41
1
10
48.4485686595187
20
49.3643043669756
30
0
41
1
10
48.4426373394891
20
49.3888796134569
30
0
41
1
10
48.4283376018244
20
49.437653478729
30
0
41
1
10
48.4199749293787
20
49.4617793215147
30
0
41
1
10
48.3917437651981
20
49.5320817799767
30
0
41
1
10
48.3686255500776
20
49.5766986082987
30
0
41
1
10
48.327431753438
20
49.6402097957315
30
0
41
1
10
48.3125274172971
20
49.660904355209
30
0
41
1
10
48.2808125326987
20
49.7006160901236
30
0
41
1
10
48.2640967979031
20
49.7195369328134
30
0
41
1
10
48.2114404368279
20
49.7735659828911
30
0
41
1
10
48.1730144751758
20
49.8059666632547
30
0
41
1
10
48.110222846689
20
49.8489543421273
30
0
41
1
10
48.0884791191968
20
49.8622856421894
30
0
41
1
10
48.0442363719021
20
49.8864666348323
30
0
41
1
10
47.9990105755002
20
49.9083282712018
30
0
41
1
10
47.9518461090981
20
49.9256159077647
30
0
41
1
10
47.9036983482
20
49.9405836090965
30
0
41
1
10
47.8790116241334
20
49.946928187228
30
0
41
1
10
47.8045160436904
20
49.9621293854575
30
0
41
1
10
47.7542705511224
20
49.9672568185722
30
0
41
1
10
47.7034427832545
20
49.9673732236259
30
0
0
SPLINE
5
3D9
100
AcDbEntity
8
1
62
256
6
ByLayer
370
13
48
1
60
0
100
AcDbSpline
70
4
71
3
72
8
73
4
40
0
40
0
40
0
40
0
40
1
40
1
40
1
40
1
41
1
10
47.4158998138473
20
-30.0995697484266
30
0
41
1
10
47.7664742962222
20
-31.2075518333195
30
0
41
1
10
48.1170487785971
20
-32.3155339182125
30
0
41
1
10
48.467623260972
20
-33.4235160031054
30
0
0
SPLINE
5
3DA
100
AcDbEntity
8
1
62
256
6
ByLayer
370
13
48
1
60
0
100
AcDbSpline
70
4
71
3
72
8
73
4
40
0
40
0
40
0
40
0
40
1
40
1
40
1
40
1
41
1
10
47.7034427832545
20
-34.0069213828455
30
0
41
1
10
47.4104903697756
20
-32.7167632981764
30
0
41
1
10
47.1175379562966
20
-31.4266052135074
30
0
41
1
10
46.8245855428176
20
-30.1364471288383
30
0
0
SPLINE
5
3DB
100
AcDbEntity
8
1
62
256
6
ByLayer
370
18
48
1
60
0
100
AcDbSpline
70
4
71
3
72
24
73
20
40
0
40
0
40
0
40
0
40
0.0624999999999956
40
0.0624999999999956
40
0.124999999999991
40
0.124999999999991
40
0.250000000000006
40
0.250000000000006
40
0.312500000000004
40
0.312500000000004
40
0.375000000000002
40
0.375000000000002
40
0.499999999999998
40
0.499999999999998
40
0.624999999999994
40
0.624999999999994
40
0.74999999999999
40
0.74999999999999
40
1
40
1
40
1
40
1
41
1
10
49.5
20
-45.9806681910795
30
0
41
1
10
49.5
20
-46.0002860175016
30
0
41
1
10
49.4993795036571
20
-46.0201040943061
30
0
41
1
10
49.4969627170435
20
-46.0601197073377
30
0
41
1
10
49.4951529507736
20
-46.0804287203026
30
0
41
1
10
49.4881202549814
20
-46.1411546729122
30
0
41
1
10
49.481484359127
20
-46.1802376227485
30
0
41
1
10
49.4694284219573
20
-46.2373497626665
30
0
41
1
10
49.4650434452607
20
-46.2561533688136
30
0
41
1
10
49.4558525222682
20
-46.2925603483267
30
0
41
1
10
49.451024461404
20
-46.3102744534323
30
0
41
1
10
49.4359627607956
20
-46.3622016818165
30
0
41
1
10
49.4251577411888
20
-46.3952126327199
30
0
41
1
10
49.4024173908222
20
-46.4588563813353
30
0
41
1
10
49.3905309327724
20
-46.4893169269197
30
0
41
1
10
49.366314002346
20
-46.5473720510724
30
0
41
1
10
49.3539265096779
20
-46.5751146302443
30
0
41
1
10
49.3161075202682
20
-46.655318988097
30
0
41
1
10
49.2900286139898
20
-46.704799303225
30
0
41
1
10
49.2633404146233
20
-46.7514736894437
30
0
0
SPLINE
5
3DC
100
AcDbEntity
8
1
62
256
6
ByLayer
370
18
48
1
60
0
100
AcDbSpline
70
4
71
3
72
22
73
18
40
0
40
0
40
0
40
0
40
0.124999999999998
40
0.124999999999998
40
0.249999999999995
40
0.249999999999995
40
0.500000000000001
40
0.500000000000001
40
0.625
40
0.625
40
0.749999999999999
40
0.749999999999999
40
0.874999999999999
40
0.874999999999999
40
0.937499999999999
40
0.937499999999999
40
1
40
1
40
1
40
1
41
1
10
40.7366595853769
20
-46.751473689444
30
0
41
1
10
40.7233616327862
20
-46.7282172019376
30
0
41
1
10
40.7101737347926
20
-46.7041744369628
30
0
41
1
10
40.6840610517023
20
-46.6542091150915
30
0
41
1
10
40.6711056910924
20
-46.6282226725261
30
0
41
1
10
40.6330182860211
20
-46.5473848600595
30
0
41
1
10
40.6085803634758
20
-46.4897540053262
30
0
41
1
10
40.5744891194581
20
-46.3941638612908
30
0
41
1
10
40.5637099399346
20
-46.3611529106118
30
0
41
1
10
40.5437160594111
20
-46.2920597735795
30
0
41
1
10
40.5344619014456
20
-46.2558643755154
30
0
41
1
10
40.5183797040541
20
-46.1795071162743
30
0
41
1
10
40.5117723714361
20
-46.1404109854205
30
0
41
1
10
40.5047954338502
20
-46.0798892130548
30
0
41
1
10
40.5029968709042
20
-46.0595873714329
30
0
41
1
10
40.5006084002356
20
-46.0197640042362
30
0
41
1
10
40.5
20
-46.0000917643615
30
0
41
1
10
40.5
20
-45.9806681910795
30
0
0
SPLINE
5
3DD
100
AcDbEntity
8
1
62
256
6
ByLayer
370
18
48
1
60
0
100
AcDbSpline
70
4
71
3
72
10
73
6
40
0
40
0
40
0
40
0
40
0.5
40
0.5
40
1
40
1
40
1
40
1
41
1
10
41.0131838582298
20
-46.8722769964328
30
0
41
1
10
40.9521164716124
20
-46.8543533048763
30
0
41
1
10
40.900836882247
20
-46.8349823790907
30
0
41
1
10
40.810268044514
20
-46.7944676228031
30
0
41
1
10
40.7710533690741
20
-46.7732337760183
30
0
41
1
10
40.736659585377
20
-46.7514736894441
30
0
0
SPLINE
5
3DE
100
AcDbEntity
8
1
62
256
6
ByLayer
370
18
48
1
60
0
100
AcDbSpline
70
4
71
3
72
16
73
12
40
0
40
0
40
0
40
0
40
0.250000000000003
40
0.250000000000003
40
0.500000000000006
40
0.500000000000006
40
0.750000000000009
40
0.750000000000009
40
0.875000000000004
40
0.875000000000004
40
1
40
1
40
1
40
1
41
1
10
41.5
20
-46.9739747467407
30
0
41
1
10
41.4559940083834
20
-46.9739747467407
30
0
41
1
10
41.4124835975
20
-46.971244984685
30
0
41
1
10
41.3264571725039
20
-46.9607695115117
30
0
41
1
10
41.2839402621099
20
-46.9530140895298
30
0
41
1
10
41.2000466709364
20
-46.9331899498051
30
0
41
1
10
41.1582486755849
20
-46.9208977890004
30
0
41
1
10
41.0993949512315
20
-46.9015104747393
30
0
41
1
10
41.0801732443277
20
-46.8948241450714
30
0
41
1
10
41.0443054373244
20
-46.8823486319359
30
0
41
1
10
41.0276821213596
20
-46.8765323348521
30
0
41
1
10
41.0131838582293
20
-46.8722769964326
30
0
0
SPLINE
5
3DF
100
AcDbEntity
8
1
62
256
6
ByLayer
370
18
48
1
60
0
100
AcDbSpline
70
4
71
3
72
14
73
10
40
0
40
0
40
0
40
0
40
0.25
40
0.25
40
0.5
40
0.5
40
0.75
40
0.75
40
1
40
1
40
1
40
1
41
1
10
44.9
20
-36.1838101656073
30
0
41
1
10
44.9166234439726
20
-36.1838101656073
30
0
41
1
10
44.9324385424768
20
-36.1896388397994
30
0
41
1
10
44.958706234766
20
-36.2080066438432
30
0
41
1
10
44.9690176152871
20
-36.2200867862281
30
0
41
1
10
44.9849850644774
20
-36.246362359786
30
0
41
1
10
44.9906242471821
20
-36.2604843977103
30
0
41
1
10
44.9981828738587
20
-36.289921942629
30
0
41
1
10
45
20
-36.3048721706488
30
0
41
1
10
45
20
-36.3200383485073
30
0
0
SPLINE
5
3E0
100
AcDbEntity
8
1
62
256
6
ByLayer
370
18
48
1
60
0
100
AcDbSpline
70
4
71
3
72
66
73
62
40
0
40
0
40
0
40
0
40
0.0625000000000074
40
0.0625000000000074
40
0.125000000000015
40
0.125000000000015
40
0.187500000000022
40
0.187500000000022
40
0.25000000000003
40
0.25000000000003
40
0.312500000000037
40
0.312500000000037
40
0.375000000000045
40
0.375000000000045
40
0.406250000000047
40
0.406250000000047
40
0.421875000000049
40
0.421875000000049
40
0.43750000000005
40
0.43750000000005
40
0.453125000000051
40
0.453125000000051
40
0.460937500000052
40
0.460937500000052
40
0.468750000000053
40
0.468750000000053
40
0.484375000000056
40
0.484375000000056
40
0.492187500000057
40
0.492187500000057
40
0.500000000000058
40
0.500000000000058
40
0.507812500000059
40
0.507812500000059
40
0.51562500000006
40
0.51562500000006
40
0.523437500000061
40
0.523437500000061
40
0.531250000000062
40
0.531250000000062
40
0.54687500000006
40
0.54687500000006
40
0.562500000000059
40
0.562500000000059
40
0.593750000000054
40
0.593750000000054
40
0.62500000000005
40
0.62500000000005
40
0.687500000000041
40
0.687500000000041
40
0.750000000000031
40
0.750000000000031
40
0.781250000000027
40
0.781250000000027
40
0.812500000000022
40
0.812500000000022
40
0.875000000000015
40
0.875000000000015
40
0.937500000000007
40
0.937500000000007
40
1
40
1
40
1
40
1
41
1
10
42.0000000000001
20
-40.4498972903877
30
0
41
1
10
42.0000000000001
20
-40.626601267227
30
0
41
1
10
42.0082587081403
20
-40.8021432394529
30
0
41
1
10
42.0384592006803
20
-41.1513377175527
30
0
41
1
10
42.060419648286
20
-41.3249873432127
30
0
41
1
10
42.1166798324211
20
-41.6705996635459
30
0
41
1
10
42.1509787577466
20
-41.8425625392823
30
0
41
1
10
42.2317295463844
20
-42.1848225984357
30
0
41
1
10
42.2781870581475
20
-42.355222382115
30
0
41
1
10
42.3844480047607
20
-42.6937351096606
30
0
41
1
10
42.4437513155432
20
-42.8604975192095
30
0
41
1
10
42.5779844738698
20
-43.1878110082579
30
0
41
1
10
42.6529847850334
20
-43.3489406246392
30
0
41
1
10
42.7821450876505
20
-43.5790129217999
30
0
41
1
10
42.8280574991932
20
-43.6538690986309
30
0
41
1
10
42.9033120512739
20
-43.7621128219402
30
0
41
1
10
42.9294740023074
20
-43.7975127563807
30
0
41
1
10
42.9846078065219
20
-43.8665462655643
30
0
41
1
10
43.0136926531495
20
-43.9003132422196
30
0
41
1
10
43.0751736493738
20
-43.9648038782923
30
0
41
1
10
43.1073832768338
20
-43.9953654611574
30
0
41
1
10
43.1587407437657
20
-44.0377350028381
30
0
41
1
10
43.1763712106704
20
-44.0512746910517
30
0
41
1
10
43.2128724100871
20
-44.0769411376072
30
0
41
1
10
43.2318045512588
20
-44.0890949405195
30
0
41
1
10
43.2898313723025
20
-44.1223587646227
30
0
41
1
10
43.3303802880679
20
-44.1405285549557
30
0
41
1
10
43.3951103991135
20
-44.159403254469
30
0
41
1
10
43.4170983407599
20
-44.1641884191459
30
0
41
1
10
43.4611952427492
20
-44.1703774742154
30
0
41
1
10
43.4834141669704
20
-44.1718148685945
30
0
41
1
10
43.528209570051
20
-44.1712143530839
30
0
41
1
10
43.5508096239194
20
-44.1691349862944
30
0
41
1
10
43.5948374444311
20
-44.1617404041134
30
0
41
1
10
43.6164657658242
20
-44.1564341746972
30
0
41
1
10
43.6590267918225
20
-44.1429178041691
30
0
41
1
10
43.6800777468146
20
-44.1346423495282
30
0
41
1
10
43.720635806045
20
-44.1159161157671
30
0
41
1
10
43.7402288253592
20
-44.1054574380805
30
0
41
1
10
43.7973116750187
20
-44.0713695690062
30
0
41
1
10
43.8332054930992
20
-44.0449878298757
30
0
41
1
10
43.9014076646956
20
-43.987321155189
30
0
41
1
10
43.9331971902285
20
-43.9564983129603
30
0
41
1
10
44.0237551373042
20
-43.8598702783756
30
0
41
1
10
44.0778078761952
20
-43.7899864808431
30
0
41
1
10
44.1784539531358
20
-43.6436893799072
30
0
41
1
10
44.2243045082864
20
-43.5681478677316
30
0
41
1
10
44.3524839642866
20
-43.3378077876289
30
0
41
1
10
44.4259886527477
20
-43.1788094129421
30
0
41
1
10
44.55858334212
20
-42.8540848244975
30
0
41
1
10
44.6174114357756
20
-42.6882434263963
30
0
41
1
10
44.6966354883299
20
-42.4352039886709
30
0
41
1
10
44.721447847112
20
-42.3503217136331
30
0
41
1
10
44.7678403060602
20
-42.1803885608057
30
0
41
1
10
44.7894598934943
20
-42.0952087636603
30
0
41
1
10
44.8497521880069
20
-41.8390566656127
30
0
41
1
10
44.8838944308556
20
-41.6674772244334
30
0
41
1
10
44.9398896908832
20
-41.3226752792058
30
0
41
1
10
44.9617418783009
20
-41.1494525934614
30
0
41
1
10
44.9917878817498
20
-40.8011610457647
30
0
41
1
10
45.0000000000001
20
-40.6260949621026
30
0
41
1
10
45.0000000000001
20
-40.4498972903877
30
0
0
SPLINE
5
3E1
100
AcDbEntity
8
1
62
256
6
ByLayer
370
18
48
1
60
0
100
AcDbSpline
70
4
71
3
72
28
73
24
40
0
40
0
40
0
40
0
40
0.0624999999999937
40
0.0624999999999937
40
0.124999999999987
40
0.124999999999987
40
0.249999999999975
40
0.249999999999975
40
0.312499999999977
40
0.312499999999977
40
0.374999999999979
40
0.374999999999979
40
0.49999999999999
40
0.49999999999999
40
0.625000000000001
40
0.625000000000001
40
0.687500000000003
40
0.687500000000003
40
0.750000000000005
40
0.750000000000005
40
0.875000000000003
40
0.875000000000003
40
1
40
1
40
1
40
1
41
1
10
40.5
20
-43.7145729135791
30
0
41
1
10
40.5
20
-43.7476599266196
30
0
41
1
10
40.5015356867432
20
-43.7810402206189
30
0
41
1
10
40.5077081953442
20
-43.8472932775114
30
0
41
1
10
40.5123153799488
20
-43.8800304631407
30
0
41
1
10
40.5306076887474
20
-43.9770994345105
30
0
41
1
10
40.5487225262899
20
-44.0402987496093
30
0
41
1
10
40.585142691791
20
-44.1327474276799
30
0
41
1
10
40.598906186669
20
-44.1632772703509
30
0
41
1
10
40.6290187857804
20
-44.2222309372845
30
0
41
1
10
40.6454136141109
20
-44.2508037206349
30
0
41
1
10
40.6985685924377
20
-44.333846603294
30
0
41
1
10
40.7392596586044
20
-44.3856675879977
30
0
41
1
10
40.8318098572678
20
-44.4818221627976
30
0
41
1
10
40.8823138274351
20
-44.5246984658315
30
0
41
1
10
40.9636860669316
20
-44.5809580527079
30
0
41
1
10
40.9917820257705
20
-44.5983894051881
30
0
41
1
10
41.0499702226924
20
-44.630541898367
30
0
41
1
10
41.0802273475261
20
-44.6453204031436
30
0
41
1
10
41.1721429035405
20
-44.6845768361588
30
0
41
1
10
41.2353209078859
20
-44.7043192194226
30
0
41
1
10
41.3654482977553
20
-44.7310764096694
30
0
41
1
10
41.4327491875492
20
-44.7380062048625
30
0
41
1
10
41.5
20
-44.7380062048625
30
0
0
SPLINE
5
3E2
100
AcDbEntity
8
1
62
256
6
ByLayer
370
18
48
1
60
0
100
AcDbSpline
70
4
71
3
72
28
73
24
40
0
40
0
40
0
40
0
40
0.125000000000012
40
0.125000000000012
40
0.187500000000019
40
0.187500000000019
40
0.250000000000026
40
0.250000000000026
40
0.375000000000028
40
0.375000000000028
40
0.437500000000028
40
0.437500000000028
40
0.500000000000027
40
0.500000000000027
40
0.625000000000027
40
0.625000000000027
40
0.750000000000027
40
0.750000000000027
40
0.81250000000002
40
0.81250000000002
40
0.875000000000014
40
0.875000000000014
40
1
40
1
40
1
40
1
41
1
10
48.5
20
-44.7380062048622
30
0
41
1
10
48.5672554912557
20
-44.7380062048623
30
0
41
1
10
48.6333367569932
20
-44.7312331054832
30
0
41
1
10
48.7307717997138
20
-44.711336495346
30
0
41
1
10
48.7629668049784
20
-44.7030686388982
30
0
41
1
10
48.8267763914734
20
-44.6831794282207
30
0
41
1
10
48.8583556811336
20
-44.6715428381299
30
0
41
1
10
48.9500669246567
20
-44.6323984364326
30
0
41
1
10
49.0079468163161
20
-44.6004864653757
30
0
41
1
10
49.0899159927903
20
-44.5439394964823
30
0
41
1
10
49.116560677828
20
-44.5235073097775
30
0
41
1
10
49.1672365926789
20
-44.4804285016086
30
0
41
1
10
49.1913232770873
20
-44.4577696129116
30
0
41
1
10
49.2599451432147
20
-44.3865304189525
30
0
41
1
10
49.3009255307977
20
-44.3346391078888
30
0
41
1
10
49.3728298797569
20
-44.2223001166611
30
0
41
1
10
49.4027151004561
20
-44.1635116288018
30
0
41
1
10
49.4389570917939
20
-44.0716012448606
30
0
41
1
10
49.449596253316
20
-44.0403387020436
30
0
41
1
10
49.4679565815234
20
-43.976544112957
30
0
41
1
10
49.4756652071377
20
-43.9439739358527
30
0
41
1
10
49.493969531198
20
-43.8463482438675
30
0
41
1
10
49.5
20
-43.7807254786231
30
0
41
1
10
49.5
20
-43.7145729135791
30
0
0
SPLINE
5
3E3
100
AcDbEntity
8
1
62
256
6
ByLayer
370
18
48
1
60
0
100
AcDbSpline
70
4
71
3
72
14
73
10
40
0
40
0
40
0
40
0
40
0.25
40
0.25
40
0.5
40
0.5
40
0.75
40
0.75
40
1
40
1
40
1
40
1
41
1
10
42
20
-36.3200383485073
30
0
41
1
10
42
20
-36.3048663290326
30
0
41
1
10
42.0018201089662
20
-36.2899908495975
30
0
41
1
10
42.0092600691451
20
-36.2608556189026
30
0
41
1
10
42.0149783491558
20
-36.2464519595471
30
0
41
1
10
42.0308786611509
20
-36.2202283345116
30
0
41
1
10
42.0412119054878
20
-36.2080947695501
30
0
41
1
10
42.0674008076829
20
-36.1897205746084
30
0
41
1
10
42.0833729904094
20
-36.1838101656001
30
0
41
1
10
42.0999999999976
20
-36.1838101655995
30
0
0
SPLINE
5
3E4
100
AcDbEntity
8
1
62
256
6
ByLayer
370
18
48
1
60
0
100
AcDbSpline
70
4
71
3
72
8
73
4
40
0
40
0
40
0
40
0
40
1
40
1
40
1
40
1
41
1
10
0.399999999999977
20
-6.92750000000001
30
0
41
1
10
0.56562181492842
20
-6.76187818507162
30
0
41
1
10
0.73230350121986
20
-6.59519649878018
30
0
41
1
10
0.899999999999977
20
-6.42750000000001
30
0
0
SPLINE
5
3E5
100
AcDbEntity
8
1
62
256
6
ByLayer
370
18
48
1
60
0
100
AcDbSpline
70
4
71
3
72
8
73
4
40
0
40
0
40
0
40
0
40
1
40
1
40
1
40
1
41
1
10
0.899999999999977
20
6.42750000000001
30
0
41
1
10
0.73230350121986
20
6.59519649878018
30
0
41
1
10
0.56562181492842
20
6.76187818507162
30
0
41
1
10
0.399999999999977
20
6.92750000000001
30
0
0
SPLINE
5
3E6
100
AcDbEntity
8
1
62
256
6
ByLayer
370
18
48
1
60
0
100
AcDbSpline
70
4
71
3
72
28
73
24
40
0
40
0
40
0
40
0
40
0.124999999999979
40
0.124999999999979
40
0.18749999999997
40
0.18749999999997
40
0.24999999999996
40
0.24999999999996
40
0.374999999999953
40
0.374999999999953
40
0.437499999999952
40
0.437499999999952
40
0.499999999999951
40
0.499999999999951
40
0.624999999999959
40
0.624999999999959
40
0.749999999999967
40
0.749999999999967
40
0.812499999999973
40
0.812499999999973
40
0.874999999999978
40
0.874999999999978
40
1
40
1
40
1
40
1
41
1
10
48.5
20
44.7120806231806
30
0
41
1
10
48.5672554912557
20
44.7120806231806
30
0
41
1
10
48.6333367569932
20
44.7064464707992
30
0
41
1
10
48.7307717997138
20
44.6899247072457
30
0
41
1
10
48.7629668049784
20
44.6830622738523
30
0
41
1
10
48.8267763914735
20
44.6665710080063
30
0
41
1
10
48.8583556811336
20
44.6569297350918
30
0
41
1
10
48.9500669246568
20
44.6245396423131
30
0
41
1
10
49.0079468163161
20
44.5981818996855
30
0
41
1
10
49.0899159927904
20
44.5516578771533
30
0
41
1
10
49.116560677828
20
44.5348737587707
30
0
41
1
10
49.167236592679
20
44.4995590380659
30
0
41
1
10
49.1913232770873
20
44.4810179696145
30
0
41
1
10
49.2599451432147
20
44.4228548672521
30
0
41
1
10
49.3009255307977
20
44.3806525385103
30
0
41
1
10
49.3728298797569
20
44.289785049487
30
0
41
1
10
49.4027151004561
20
44.242462887019
30
0
41
1
10
49.4389570917939
20
44.1689049028565
30
0
41
1
10
49.449596253316
20
44.1439528422498
30
0
41
1
10
49.4679565815234
20
44.0931856775916
30
0
41
1
10
49.4756652071378
20
44.0673413496343
30
0
41
1
10
49.493969531198
20
43.9901081690797
30
0
41
1
10
49.5000000000001
20
43.9384988867117
30
0
41
1
10
49.5
20
43.8867901017879
30
0
0
SPLINE
5
3E7
100
AcDbEntity
8
1
62
256
6
ByLayer
370
18
48
1
60
0
100
AcDbSpline
70
4
71
3
72
28
73
24
40
0
40
0
40
0
40
0
40
0.0625000000000048
40
0.0625000000000048
40
0.125000000000009
40
0.125000000000009
40
0.250000000000009
40
0.250000000000009
40
0.312500000000007
40
0.312500000000007
40
0.375000000000005
40
0.375000000000005
40
0.500000000000004
40
0.500000000000004
40
0.625000000000004
40
0.625000000000004
40
0.687500000000004
40
0.687500000000004
40
0.750000000000005
40
0.750000000000005
40
0.875000000000003
40
0.875000000000003
40
1
40
1
40
1
40
1
41
1
10
40.5
20
43.8867901017881
30
0
41
1
10
40.5
20
43.9126528818624
30
0
41
1
10
40.5015356867432
20
43.9388244816698
30
0
41
1
10
40.5077081953442
20
43.990928410729
30
0
41
1
10
40.5123153799488
20
44.0167532234723
30
0
41
1
10
40.5306076887474
20
44.0935504355029
30
0
41
1
10
40.5487225262899
20
44.1438537164647
30
0
41
1
10
40.5851426917909
20
44.2178411375154
30
0
41
1
10
40.598906186669
20
44.2423444284659
30
0
41
1
10
40.6290187857804
20
44.2897848527621
30
0
41
1
10
40.6454136141109
20
44.312840701096
30
0
41
1
10
40.6985685924377
20
44.3800115469437
30
0
41
1
10
40.7392596586044
20
44.4221510660589
30
0
41
1
10
40.8318098572678
20
44.5006549758394
30
0
41
1
10
40.8823138274351
20
44.5358283997805
30
0
41
1
10
40.9636860669316
20
44.5821143683971
30
0
41
1
10
40.9917820257705
20
44.5964812880758
30
0
41
1
10
41.0499702226924
20
44.6230163139726
30
0
41
1
10
41.0802273475261
20
44.6352320000636
30
0
41
1
10
41.1721429035404
20
44.6677146217544
30
0
41
1
10
41.2353209078859
20
44.6840978763652
30
0
41
1
10
41.3654482977553
20
44.7063161767229
30
0
41
1
10
41.4327491875492
20
44.7120806231808
30
0
41
1
10
41.5
20
44.7120806231808
30
0
0
SPLINE
5
3E8
100
AcDbEntity
8
1
62
256
6
ByLayer
370
18
48
1
60
0
100
AcDbSpline
70
4
71
3
72
18
73
14
40
0
40
0
40
0
40
0
40
0.125000000000009
40
0.125000000000009
40
0.250000000000019
40
0.250000000000019
40
0.375000000000028
40
0.375000000000028
40
0.500000000000038
40
0.500000000000038
40
0.750000000000019
40
0.750000000000019
40
1
40
1
40
1
40
1
41
1
10
48.9868161417692
20
-24.9494605741099
30
0
41
1
10
48.9723246905339
20
-24.9408387484052
30
0
41
1
10
48.9557253385377
20
-24.935758870723
30
0
41
1
10
48.9199355325075
20
-24.9288543843423
30
0
41
1
10
48.9007197756214
20
-24.9271714069598
30
0
41
1
10
48.8616508387677
20
-24.9256772608589
30
0
41
1
10
48.8415845685764
20
-24.9258555026811
30
0
41
1
10
48.8005751742888
20
-24.9270835522216
30
0
41
1
10
48.7795592666656
20
-24.9281487286761
30
0
41
1
10
48.7163367654454
20
-24.9317220191731
30
0
41
1
10
48.6736854417513
20
-24.9345533593919
30
0
41
1
10
48.5875027768776
20
-24.938573061534
30
0
41
1
10
48.5439705604827
20
-24.9397887073033
30
0
41
1
10
48.5000000000016
20
-24.9397887073034
30
0
0
SPLINE
5
3E9
100
AcDbEntity
8
1
62
256
6
ByLayer
370
18
48
1
60
0
100
AcDbSpline
70
4
71
3
72
8
73
4
40
0
40
0
40
0
40
0
40
1
40
1
40
1
40
1
41
1
10
49.10038294989
20
-25.0284237577961
30
0
41
1
10
49.0662372699561
20
-25.0008962547984
30
0
41
1
10
49.028593696159
20
-24.9743165244535
30
0
41
1
10
48.9868161417697
20
-24.9494605741098
30
0
0
SPLINE
5
3EA
100
AcDbEntity
8
1
62
256
6
ByLayer
370
18
48
1
60
0
100
AcDbSpline
70
4
71
3
72
20
73
16
40
0
40
0
40
0
40
0
40
0.0764120896004147
40
0.0764120896004147
40
0.152824179200829
40
0.152824179200829
40
0.305648358401652
40
0.305648358401652
40
0.458472537602475
40
0.458472537602475
40
0.611296716803298
40
0.611296716803298
40
0.916945075204951
40
0.916945075204951
40
1
40
1
40
1
40
1
41
1
10
49.5
20
-24.3434505550364
30
0
41
1
10
49.5
20
-24.3533369598977
30
0
41
1
10
49.4993962860195
20
-24.3645887603345
30
0
41
1
10
49.4969735242413
20
-24.3898410327158
30
0
41
1
10
49.4951518152441
20
-24.4037798452457
30
0
41
1
10
49.4881951706914
20
-24.4479578092601
30
0
41
1
10
49.4814337615553
20
-24.4814087700382
30
0
41
1
10
49.465448852858
20
-24.5509684409149
30
0
41
1
10
49.4562320988711
20
-24.5872042131714
30
0
41
1
10
49.4360576176692
20
-24.6617461226045
30
0
41
1
10
49.425149911288
20
-24.6998291214438
30
0
41
1
10
49.391307129135
20
-24.8136021324858
30
0
41
1
10
49.3669965584872
20
-24.8898634596503
30
0
41
1
10
49.3347316681042
20
-24.9871657208128
30
0
41
1
10
49.3277733401224
20
-25.0079264233097
30
0
41
1
10
49.3207595425524
20
-25.0286500338299
30
0
0
SPLINE
5
3EB
100
AcDbEntity
8
1
62
256
6
ByLayer
370
18
48
1
60
0
100
AcDbSpline
70
4
71
3
72
14
73
10
40
0
40
0
40
0
40
0
40
0.25
40
0.25
40
0.5
40
0.5
40
0.75
40
0.75
40
1
40
1
40
1
40
1
41
1
10
44.9
20
-11.7957880254009
30
0
41
1
10
44.9166234439726
20
-11.7957880254009
30
0
41
1
10
44.9324385424768
20
-11.8016948536038
30
0
41
1
10
44.958706234766
20
-11.8202873057567
30
0
41
1
10
44.9690176152871
20
-11.8325066763522
30
0
41
1
10
44.9849850644774
20
-11.8590486519966
30
0
41
1
10
44.9906242471821
20
-11.873297886996
30
0
41
1
10
44.9981828738587
20
-11.9029590212874
30
0
41
1
10
45
20
-11.9180031409183
30
0
41
1
10
45
20
-11.9332434780401
30
0
0
SPLINE
5
3EC
100
AcDbEntity
8
1
62
256
6
ByLayer
370
18
48
1
60
0
100
AcDbSpline
70
4
71
3
72
16
73
12
40
0
40
0
40
0
40
0
40
0.250000000000009
40
0.250000000000009
40
0.500000000000018
40
0.500000000000018
40
0.750000000000027
40
0.750000000000027
40
0.875000000000013
40
0.875000000000013
40
1
40
1
40
1
40
1
41
1
10
41.5
20
-24.9397887072992
30
0
41
1
10
41.4559939047657
20
-24.9397887072992
30
0
41
1
10
41.4124833925714
20
-24.9385716669221
30
0
41
1
10
41.3264567697518
20
-24.9345607407863
30
0
41
1
10
41.2839397628248
20
-24.9317415892977
30
0
41
1
10
41.2000459849924
20
-24.9269921359193
30
0
41
1
10
41.1582479296588
20
-24.9249294158724
30
0
41
1
10
41.0993939826557
20
-24.9271605257847
30
0
41
1
10
41.080172098799
20
-24.928838904141
30
0
41
1
10
41.0443047554444
20
-24.9357478015406
30
0
41
1
10
41.0276817561182
20
-24.9408349129083
30
0
41
1
10
41.0131838582289
20
-24.9494605741111
30
0
0
SPLINE
5
3ED
100
AcDbEntity
8
1
62
256
6
ByLayer
370
18
48
1
60
0
100
AcDbSpline
70
4
71
3
72
14
73
10
40
0
40
0
40
0
40
0
40
0.25
40
0.25
40
0.5
40
0.5
40
0.75
40
0.75
40
1
40
1
40
1
40
1
41
1
10
44.9
20
19.5020467612072
30
0
41
1
10
44.9166234439726
20
19.5020467612072
30
0
41
1
10
44.9324385424768
20
19.4995219188442
30
0
41
1
10
44.958706234766
20
19.4915960248956
30
0
41
1
10
44.9690176152872
20
19.4863953676607
30
0
41
1
10
44.9849850644774
20
19.4751349192901
30
0
41
1
10
44.9906242471821
20
19.4691054958247
30
0
41
1
10
44.9981828738588
20
19.4565958623531
30
0
41
1
10
45
20
19.450270492357
30
0
41
1
10
45
20
19.4438835787626
30
0
0
SPLINE
5
3EE
100
AcDbEntity
8
1
62
256
6
ByLayer
370
18
48
1
60
0
100
AcDbSpline
70
4
71
3
72
66
73
62
40
0
40
0
40
0
40
0
40
0.0624999999999994
40
0.0624999999999994
40
0.124999999999999
40
0.124999999999999
40
0.187499999999998
40
0.187499999999998
40
0.249999999999997
40
0.249999999999997
40
0.312499999999997
40
0.312499999999997
40
0.374999999999996
40
0.374999999999996
40
0.406249999999996
40
0.406249999999996
40
0.421874999999998
40
0.421874999999998
40
0.437499999999999
40
0.437499999999999
40
0.453125
40
0.453125
40
0.4609375
40
0.4609375
40
0.46875
40
0.46875
40
0.484374999999996
40
0.484374999999996
40
0.492187499999996
40
0.492187499999996
40
0.499999999999996
40
0.499999999999996
40
0.507812499999995
40
0.507812499999995
40
0.515624999999995
40
0.515624999999995
40
0.523437499999995
40
0.523437499999995
40
0.531249999999994
40
0.531249999999994
40
0.546874999999995
40
0.546874999999995
40
0.562499999999995
40
0.562499999999995
40
0.593749999999996
40
0.593749999999996
40
0.624999999999997
40
0.624999999999997
40
0.687499999999998
40
0.687499999999998
40
0.75
40
0.75
40
0.78125
40
0.78125
40
0.8125
40
0.8125
40
0.875
40
0.875
40
0.9375
40
0.9375
40
1
40
1
40
1
40
1
41
1
10
42.0000000000001
20
-15.6172577194023
30
0
41
1
10
42.0000000000001
20
-15.7563900957788
30
0
41
1
10
42.0082587081403
20
-15.8923596139006
30
0
41
1
10
42.0384592006803
20
-16.1585135574183
30
0
41
1
10
42.060419648286
20
-16.2886947108891
30
0
41
1
10
42.1166798324211
20
-16.5435813615184
30
0
41
1
10
42.1509787577466
20
-16.6682861493428
30
0
41
1
10
42.2317295463844
20
-16.9123673499662
30
0
41
1
10
42.2781870581475
20
-17.0318134833176
30
0
41
1
10
42.3844480047608
20
-17.2650692850352
30
0
41
1
10
42.4437513155433
20
-17.3779471538451
30
0
41
1
10
42.5779844738698
20
-17.5957544605121
30
0
41
1
10
42.6529847850334
20
-17.7010345889369
30
0
41
1
10
42.7821450876505
20
-17.8489032248953
30
0
41
1
10
42.8280574991932
20
-17.896589834442
30
0
41
1
10
42.9033120512739
20
-17.9650003802409
30
0
41
1
10
42.9294740023074
20
-17.9872793840587
30
0
41
1
10
42.9846078065219
20
-18.0305576830684
30
0
41
1
10
43.0136926531495
20
-18.0516397323157
30
0
41
1
10
43.0751736493738
20
-18.091758125916
30
0
41
1
10
43.1073832768338
20
-18.110694107093
30
0
41
1
10
43.1587407437657
20
-18.1368653605725
30
0
41
1
10
43.1763712106704
20
-18.1452141977395
30
0
41
1
10
43.2128724100871
20
-18.1610179085592
30
0
41
1
10
43.2318045512588
20
-18.1684893052399
30
0
41
1
10
43.2898313723025
20
-18.1889129634753
30
0
41
1
10
43.3303802880679
20
-18.2000334856798
30
0
41
1
10
43.3951103991135
20
-18.2115740054124
30
0
41
1
10
43.41709834076
20
-18.2144970490827
30
0
41
1
10
43.4611952427492
20
-18.2182769612085
30
0
41
1
10
43.4834141669704
20
-18.2191543419787
30
0
41
1
10
43.528209570051
20
-18.2187877054504
30
0
41
1
10
43.5508096239193
20
-18.2175183705074
30
0
41
1
10
43.5948374444311
20
-18.2130015318614
30
0
41
1
10
43.6164657658242
20
-18.2097594657247
30
0
41
1
10
43.6590267918226
20
-18.2014929289494
30
0
41
1
10
43.6800777468146
20
-18.1964283561946
30
0
41
1
10
43.720635806045
20
-18.1849533748234
30
0
41
1
10
43.7402288253592
20
-18.1785381660658
30
0
41
1
10
43.7973116750187
20
-18.1575985145991
30
0
41
1
10
43.8332054930992
20
-18.1413543982081
30
0
41
1
10
43.9014076646956
20
-18.1057134961007
30
0
41
1
10
43.9331971902285
20
-18.0866025736857
30
0
41
1
10
44.0237551373042
20
-18.0264536331666
30
0
41
1
10
44.0778078761952
20
-17.9826468756172
30
0
41
1
10
44.1784539531358
20
-17.8901219412535
30
0
41
1
10
44.2243045082864
20
-17.8419574748247
30
0
41
1
10
44.3524839642866
20
-17.6937963167363
30
0
41
1
10
44.4259886527477
20
-17.5898223306018
30
0
41
1
10
44.55858334212
20
-17.3736191924873
30
0
41
1
10
44.6174114357756
20
-17.2613238379055
30
0
41
1
10
44.6966354883299
20
-17.0869054740989
30
0
41
1
10
44.721447847112
20
-17.0278914016609
30
0
41
1
10
44.7678403060602
20
-16.9087204193433
30
0
41
1
10
44.7894598934944
20
-16.8484748696081
30
0
41
1
10
44.8497521880069
20
-16.6657544589373
30
0
41
1
10
44.8838944308557
20
-16.5413005548871
30
0
41
1
10
44.9398896908831
20
-16.2869672607413
30
0
41
1
10
44.9617418783009
20
-16.1570885550109
30
0
41
1
10
44.9917878817498
20
-15.8915990660633
30
0
41
1
10
45.0000000000001
20
-15.7559914435446
30
0
41
1
10
45.0000000000001
20
-15.6172577194023
30
0
0
SPLINE
5
3EF
100
AcDbEntity
8
1
62
256
6
ByLayer
370
18
48
1
60
0
100
AcDbSpline
70
4
71
3
72
14
73
10
40
0
40
0
40
0
40
0
40
0.25
40
0.25
40
0.5
40
0.5
40
0.75
40
0.75
40
1
40
1
40
1
40
1
41
1
10
42
20
-11.9332434780401
30
0
41
1
10
42
20
-11.9179972707378
30
0
41
1
10
42.0018201089662
20
-11.9030282563128
30
0
41
1
10
42.0092600691451
20
-11.873672120144
30
0
41
1
10
42.0149783491558
20
-11.8591390677913
30
0
41
1
10
42.0308786611509
20
-11.8326497513488
30
0
41
1
10
42.0412119054878
20
-11.8203764615494
30
0
41
1
10
42.0674008076829
20
-11.801777635373
30
0
41
1
10
42.0833729904094
20
-11.7957880253939
30
0
41
1
10
42.0999999999976
20
-11.7957880253933
30
0
0
SPLINE
5
3F0
100
AcDbEntity
8
1
62
256
6
ByLayer
370
18
48
1
60
0
100
AcDbSpline
70
4
71
3
72
28
73
24
40
0
40
0
40
0
40
0
40
0.124999999999981
40
0.124999999999981
40
0.187499999999979
40
0.187499999999979
40
0.249999999999978
40
0.249999999999978
40
0.374999999999992
40
0.374999999999992
40
0.43749999999999
40
0.43749999999999
40
0.499999999999988
40
0.499999999999988
40
0.624999999999997
40
0.624999999999997
40
0.750000000000007
40
0.750000000000007
40
0.812500000000007
40
0.812500000000007
40
0.875000000000006
40
0.875000000000006
40
1
40
1
40
1
40
1
41
1
10
48.5
20
-18.5570145052674
30
0
41
1
10
48.5672554912557
20
-18.5570145052674
30
0
41
1
10
48.6333367569932
20
-18.5530700486477
30
0
41
1
10
48.7307717997138
20
-18.5414537562999
30
0
41
1
10
48.7629668049784
20
-18.536623674973
30
0
41
1
10
48.8267763914734
20
-18.524987349334
30
0
41
1
10
48.8583556811336
20
-18.5181719987223
30
0
41
1
10
48.9500669246568
20
-18.4952035477297
30
0
41
1
10
49.0079468163161
20
-18.4764309480865
30
0
41
1
10
49.0899159927903
20
-18.4429854802986
30
0
41
1
10
49.116560677828
20
-18.4308741231343
30
0
41
1
10
49.1672365926789
20
-18.4052662090758
30
0
41
1
10
49.1913232770873
20
-18.3917627698236
30
0
41
1
10
49.2599451432147
20
-18.3491784379165
30
0
41
1
10
49.3009255307977
20
-18.3179953707827
30
0
41
1
10
49.3728298797569
20
-18.2499915348285
30
0
41
1
10
49.4027151004561
20
-18.2141742204544
30
0
41
1
10
49.4389570917938
20
-18.1577512931243
30
0
41
1
10
49.449596253316
20
-18.1384914416851
30
0
41
1
10
49.4679565815234
20
-18.0990394332508
30
0
41
1
10
49.4756652071377
20
-18.0788225750184
30
0
41
1
10
49.493969531198
20
-18.0179921779314
30
0
41
1
10
49.5
20
-17.9767968556904
30
0
41
1
10
49.5
20
-17.9349517859431
30
0
0
SPLINE
5
3F1
100
AcDbEntity
8
1
62
256
6
ByLayer
370
18
48
1
60
0
100
AcDbSpline
70
4
71
3
72
28
73
24
40
0
40
0
40
0
40
0
40
0.0625000000000042
40
0.0625000000000042
40
0.125000000000008
40
0.125000000000008
40
0.250000000000007
40
0.250000000000007
40
0.312500000000004
40
0.312500000000004
40
0.375000000000001
40
0.375000000000001
40
0.500000000000006
40
0.500000000000006
40
0.625000000000011
40
0.625000000000011
40
0.687500000000015
40
0.687500000000015
40
0.750000000000018
40
0.750000000000018
40
0.875000000000009
40
0.875000000000009
40
1
40
1
40
1
40
1
41
1
10
40.5
20
-17.9349517859431
30
0
41
1
10
40.5
20
-17.9558811084492
30
0
41
1
10
40.5015356867432
20
-17.9769163731316
30
0
41
1
10
40.5077081953442
20
-18.0185084156782
30
0
41
1
10
40.5123153799488
20
-18.038980974846
30
0
41
1
10
40.5306076887474
20
-18.099460018612
30
0
41
1
10
40.5487225262899
20
-18.1385340661958
30
0
41
1
10
40.5851426917909
20
-18.1952888194958
30
0
41
1
10
40.598906186669
20
-18.2139612461079
30
0
41
1
10
40.6290187857804
20
-18.2498938971408
30
0
41
1
10
40.6454136141109
20
-18.2672460665358
30
0
41
1
10
40.6985685924377
20
-18.317515591603
30
0
41
1
10
40.7392596586044
20
-18.3486620118715
30
0
41
1
10
40.8318098572678
20
-18.4061412058572
30
0
41
1
10
40.8823138274351
20
-18.4316040311709
30
0
41
1
10
40.9636860669316
20
-18.4648811333285
30
0
41
1
10
40.9917820257705
20
-18.4751658687379
30
0
41
1
10
41.0499702226924
20
-18.4941013347586
30
0
41
1
10
41.0802273475261
20
-18.5027856105545
30
0
41
1
10
41.1721429035405
20
-18.5258199688441
30
0
41
1
10
41.2353209078859
20
-18.5373566603985
30
0
41
1
10
41.3654482977553
20
-18.5529787413789
30
0
41
1
10
41.4327491875492
20
-18.5570145052675
30
0
41
1
10
41.5
20
-18.5570145052675
30
0
0
SPLINE
5
3F2
100
AcDbEntity
8
1
62
256
6
ByLayer
370
18
48
1
60
0
100
AcDbSpline
70
4
71
3
72
22
73
18
40
0
40
0
40
0
40
0
40
0.084108709283037
40
0.084108709283037
40
0.236757257735869
40
0.236757257735869
40
0.389405806188702
40
0.389405806188702
40
0.542054354641534
40
0.542054354641534
40
0.694702903094366
40
0.694702903094366
40
0.847351451547198
40
0.847351451547198
40
0.923675725773599
40
0.923675725773599
40
1
40
1
40
1
40
1
41
1
10
40.6798475651689
20
-25.0304443369613
30
0
41
1
10
40.6727811905114
20
-25.0095765647978
30
0
41
1
10
40.6657705239594
20
-24.9886699806763
30
0
41
1
10
40.6462074434348
20
-24.9297008371592
30
0
41
1
10
40.6337967251533
20
-24.8915395580678
30
0
41
1
10
40.6094965006904
20
-24.8148538702829
30
0
41
1
10
40.5975806945347
20
-24.7762374271476
30
0
41
1
10
40.5748627193072
20
-24.6998791993838
30
0
41
1
10
40.5640008194745
20
-24.6619592111207
30
0
41
1
10
40.5437477414009
20
-24.5871325490549
30
0
41
1
10
40.5345274981904
20
-24.5508660957704
30
0
41
1
10
40.5185864377111
20
-24.4814961034655
30
0
41
1
10
40.5118117611447
20
-24.4479840670497
30
0
41
1
10
40.5048646493816
20
-24.4038932464924
30
0
41
1
10
40.5030627057295
20
-24.3901486857749
30
0
41
1
10
40.5006182567897
20
-24.3648088650146
30
0
41
1
10
40.5
20
-24.3533624834266
30
0
41
1
10
40.5
20
-24.3434505550364
30
0
0
SPLINE
5
3F3
100
AcDbEntity
8
1
62
256
6
ByLayer
370
18
48
1
60
0
100
AcDbSpline
70
4
71
3
72
8
73
4
40
0
40
0
40
0
40
0
40
1
40
1
40
1
40
1
41
1
10
41.0131838582296
20
-24.9494605741107
30
0
41
1
10
40.9715099225976
20
-24.9742548754967
30
0
41
1
10
40.9343941438719
20
-25.0004154335384
30
0
41
1
10
40.90063123046
20
-25.027580975534
30
0
0
SPLINE
5
3F4
100
AcDbEntity
8
1
62
256
6
ByLayer
370
18
48
1
60
0
100
AcDbSpline
70
4
71
3
72
14
73
10
40
0
40
0
40
0
40
0
40
0.25
40
0.25
40
0.5
40
0.5
40
0.75
40
0.75
40
1
40
1
40
1
40
1
41
1
10
42
20
19.4438835787626
30
0
41
1
10
42
20
19.4502729524295
30
0
41
1
10
42.0018201089662
20
19.4565668562097
30
0
41
1
10
42.0092600691451
20
19.4689474714236
30
0
41
1
10
42.0149783491558
20
19.475096651808
30
0
41
1
10
42.0308786611509
20
19.4863345773434
30
0
41
1
10
42.0412119054878
20
19.4915580652713
30
0
41
1
10
42.0674008076829
20
19.4994865825524
30
0
41
1
10
42.0833729904094
20
19.5020467612098
30
0
41
1
10
42.0999999999976
20
19.50204676121
30
0
0
SPLINE
5
3F5
100
AcDbEntity
8
1
62
256
6
ByLayer
370
18
48
1
60
0
100
AcDbSpline
70
4
71
3
72
28
73
24
40
0
40
0
40
0
40
0
40
0.125000000000005
40
0.125000000000005
40
0.187500000000009
40
0.187500000000009
40
0.250000000000012
40
0.250000000000012
40
0.375000000000008
40
0.375000000000008
40
0.437500000000004
40
0.437500000000004
40
0.5
40
0.5
40
0.625000000000001
40
0.625000000000001
40
0.750000000000002
40
0.750000000000002
40
0.812500000000002
40
0.812500000000002
40
0.875000000000002
40
0.875000000000002
40
1
40
1
40
1
40
1
41
1
10
48.5
20
18.4944246143589
30
0
41
1
10
48.5672554912557
20
18.4944246143589
30
0
41
1
10
48.6333367569932
20
18.4932298190276
30
0
41
1
10
48.7307717997138
20
18.4897611270732
30
0
41
1
10
48.7629668049784
20
18.4883240371452
30
0
41
1
10
48.8267763914735
20
18.4848910760026
30
0
41
1
10
48.8583556811335
20
18.4828928471791
30
0
41
1
10
48.9500669246568
20
18.4762307403823
30
0
41
1
10
49.0079468163161
20
18.4708672343417
30
0
41
1
10
49.0899159927903
20
18.4616192995939
30
0
41
1
10
49.116560677828
20
18.4583151584495
30
0
41
1
10
49.1672365926789
20
18.4514514096464
30
0
41
1
10
49.1913232770873
20
18.4478892678785
30
0
41
1
10
49.2599451432147
20
18.436873413647
30
0
41
1
10
49.3009255307977
20
18.4290816190404
30
0
41
1
10
49.3728298797569
20
18.4129145749124
30
0
41
1
10
49.4027151004561
20
18.4047794188087
30
0
41
1
10
49.4389570917939
20
18.3926631039266
30
0
41
1
10
49.449596253316
20
18.3886381042242
30
0
41
1
10
49.4679565815234
20
18.3806370805282
30
0
41
1
10
49.4756652071377
20
18.3766578585248
30
0
41
1
10
49.493969531198
20
18.3650593391045
30
0
41
1
10
49.5
20
18.3576955572797
30
0
41
1
10
49.5
20
18.3507208573907
30
0
0
SPLINE
5
3F6
100
AcDbEntity
8
1
62
256
6
ByLayer
370
18
48
1
60
0
100
AcDbSpline
70
4
71
3
72
28
73
24
40
0
40
0
40
0
40
0
40
0.0624999999999956
40
0.0624999999999956
40
0.124999999999991
40
0.124999999999991
40
0.249999999999982
40
0.249999999999982
40
0.31249999999998
40
0.31249999999998
40
0.374999999999978
40
0.374999999999978
40
0.499999999999981
40
0.499999999999981
40
0.624999999999984
40
0.624999999999984
40
0.687499999999989
40
0.687499999999989
40
0.749999999999994
40
0.749999999999994
40
0.874999999999997
40
0.874999999999997
40
1
40
1
40
1
40
1
41
1
10
40.5
20
18.3507208573907
30
0
41
1
10
40.5
20
18.3542093386919
30
0
41
1
10
40.5015356867432
20
18.3578412760892
30
0
41
1
10
40.5077081953442
20
18.3652743023254
30
0
41
1
10
40.5123153799488
20
18.3690589171233
30
0
41
1
10
40.5306076887474
20
18.3805976045597
30
0
41
1
10
40.5487225262899
20
18.3885378716288
30
0
41
1
10
40.585142691791
20
18.4007232078533
30
0
41
1
10
40.598906186669
20
18.4048462515672
30
0
41
1
10
40.6290187857804
20
18.412983476078
30
0
41
1
10
40.6454136141109
20
18.4170165861334
30
0
41
1
10
40.6985685924377
20
18.4289676246683
30
0
41
1
10
40.7392596586044
20
18.4367409194091
30
0
41
1
10
40.8318098572678
20
18.4516076385201
30
0
41
1
10
40.8823138274351
20
18.4584740686589
30
0
41
1
10
40.9636860669316
20
18.4676727263476
30
0
41
1
10
40.9917820257705
20
18.4705592665265
30
0
41
1
10
41.0499702226924
20
18.4759329668489
30
0
41
1
10
41.0802273475261
20
18.4784300510157
30
0
41
1
10
41.1721429035405
20
18.4851109821371
30
0
41
1
10
41.2353209078859
20
18.4885380197397
30
0
41
1
10
41.3654482977553
20
18.4932022511916
30
0
41
1
10
41.4327491875492
20
18.4944246143589
30
0
41
1
10
41.5
20
18.4944246143589
30
0
0
SPLINE
5
3F7
100
AcDbEntity
8
1
62
256
6
ByLayer
370
18
48
1
60
0
100
AcDbSpline
70
4
71
3
72
18
73
14
40
0
40
0
40
0
40
0
40
0.124999999999998
40
0.124999999999998
40
0.249999999999996
40
0.249999999999996
40
0.374999999999993
40
0.374999999999993
40
0.499999999999991
40
0.499999999999991
40
0.749999999999995
40
0.749999999999995
40
1
40
1
40
1
40
1
41
1
10
48.9868161417692
20
11.5884114786339
30
0
41
1
10
48.9723242528478
20
11.6048584172929
30
0
41
1
10
48.9557247695121
20
11.6178500119316
30
0
41
1
10
48.9199353586309
20
11.6400623395245
30
0
41
1
10
48.90071952002
20
11.6491267063425
30
0
41
1
10
48.8616506389752
20
11.6641140045506
30
0
41
1
10
48.8415845328153
20
11.6701402876025
30
0
41
1
10
48.8005756927273
20
11.6802223323894
30
0
41
1
10
48.7795599398614
20
11.6842741788814
30
0
41
1
10
48.7163369618386
20
11.694186460152
30
0
41
1
10
48.6736854476816
20
11.6979660468409
30
0
41
1
10
48.5875026173021
20
11.7027809646798
30
0
41
1
10
48.5439704259503
20
11.7037873141627
30
0
41
1
10
48.5000000000016
20
11.7037873141627
30
0
0
SPLINE
5
3F8
100
AcDbEntity
8
1
62
256
6
ByLayer
370
18
48
1
60
0
100
AcDbSpline
70
4
71
3
72
16
73
12
40
0
40
0
40
0
40
0
40
0.250000000000001
40
0.250000000000001
40
0.500000000000002
40
0.500000000000002
40
0.750000000000002
40
0.750000000000002
40
0.875000000000001
40
0.875000000000001
40
1
40
1
40
1
40
1
41
1
10
41.5
20
11.7037873141588
30
0
41
1
10
41.4559940083834
20
11.7037873141588
30
0
41
1
10
41.4124835975001
20
11.7027786986128
30
0
41
1
10
41.3264571725039
20
11.697975508505
30
0
41
1
10
41.2839402621099
20
11.6942069535685
30
0
41
1
10
41.2000466709364
20
11.6810995539232
30
0
41
1
10
41.1582486755849
20
11.671724523827
30
0
41
1
10
41.0993949512315
20
11.6491820816715
30
0
41
1
10
41.0801732443277
20
11.6401222857811
30
0
41
1
10
41.0443054373244
20
11.6178761877231
30
0
41
1
10
41.0276821213596
20
11.6048656514226
30
0
41
1
10
41.0131838582293
20
11.5884114786322
30
0
0
SPLINE
5
3F9
100
AcDbEntity
8
1
62
256
6
ByLayer
370
18
48
1
60
0
100
AcDbSpline
70
4
71
3
72
10
73
6
40
0
40
0
40
0
40
0
40
0.189392323562334
40
0.189392323562334
40
1
40
1
40
1
40
1
41
1
10
40.0220027241133
20
-35.766296003877
30
0
41
1
10
40.0192328334338
20
-35.7577392408123
30
0
41
1
10
40.0167217142074
20
-35.7491527483842
30
0
41
1
10
40.0048935690585
20
-35.7038617023527
30
0
41
1
10
40.0000906110284
20
-35.6670096207086
30
0
41
1
10
40.0000882470614
20
-35.6300182754186
30
0
0
SPLINE
5
3FA
100
AcDbEntity
8
1
62
256
6
ByLayer
370
18
48
1
60
0
100
AcDbSpline
70
4
71
3
72
28
73
24
40
0
40
0
40
0
40
0
40
0.12499999999999
40
0.12499999999999
40
0.24999999999998
40
0.24999999999998
40
0.312499999999982
40
0.312499999999982
40
0.374999999999983
40
0.374999999999983
40
0.499999999999986
40
0.499999999999986
40
0.562499999999985
40
0.562499999999985
40
0.624999999999983
40
0.624999999999983
40
0.749999999999974
40
0.749999999999974
40
0.812499999999982
40
0.812499999999982
40
0.874999999999989
40
0.874999999999989
40
1
40
1
40
1
40
1
41
1
10
44.5246452701173
20
31.6630635812779
30
0
41
1
10
44.5311854151583
20
31.6984410084017
30
0
41
1
10
44.5407274098774
20
31.7333265797483
30
0
41
1
10
44.5657483473686
20
31.8000732166671
30
0
41
1
10
44.5812010395833
20
31.832058261794
30
0
41
1
10
44.6095209652672
20
31.8775947247755
30
0
41
1
10
44.6198773032825
20
31.8924092811965
30
0
41
1
10
44.6419743546961
20
31.9204148838657
30
0
41
1
10
44.6537599119138
20
31.9336919250314
30
0
41
1
10
44.6914482587388
20
31.9712117094504
30
0
41
1
10
44.7200597947675
20
31.9932572280508
30
0
41
1
10
44.7654105414371
20
32.0193297986372
30
0
41
1
10
44.7810094038971
20
32.0269534286248
30
0
41
1
10
44.8131659149001
20
32.0400855473048
30
0
41
1
10
44.8298461015355
20
32.0456231104728
30
0
41
1
10
44.8804286174275
20
32.0587984041982
30
0
41
1
10
44.9144812905661
20
32.0630273217736
30
0
41
1
10
44.9660852724592
20
32.0635975237213
30
0
41
1
10
44.9834643696622
20
32.0628005432618
30
0
41
1
10
45.0177510446771
20
32.059414073829
30
0
41
1
10
45.0347069736967
20
32.0568355162424
30
0
41
1
10
45.0850910061515
20
32.0466865624838
30
0
41
1
10
45.1180416424031
20
32.0367278907981
30
0
41
1
10
45.1504612706418
20
32.0238301417887
30
0
0
SPLINE
5
3FB
100
AcDbEntity
8
1
62
256
6
ByLayer
370
18
48
1
60
0
100
AcDbSpline
70
4
71
3
72
18
73
14
40
0
40
0
40
0
40
0
40
0.25
40
0.25
40
0.5
40
0.5
40
0.625
40
0.625
40
0.75
40
0.75
40
0.875
40
0.875
40
1
40
1
40
1
40
1
41
1
10
44.5246452701178
20
31.6630635812805
30
0
41
1
10
44.5198519455037
20
31.637135181964
30
0
41
1
10
44.5115902595854
20
31.6122241170435
30
0
41
1
10
44.4877125082086
20
31.565300439522
30
0
41
1
10
44.4724018528895
20
31.5439314975987
30
0
41
1
10
44.4444158017958
20
31.5161310558581
30
0
41
1
10
44.4344152060913
20
31.5077428834799
30
0
41
1
10
44.4130385953138
20
31.492766570684
30
0
41
1
10
44.4015395007242
20
31.4861285747451
30
0
41
1
10
44.3777607428129
20
31.475165179498
30
0
41
1
10
44.3654899008655
20
31.4708096981832
30
0
41
1
10
44.3401722572377
20
31.4643921803491
30
0
41
1
10
44.3270326410624
20
31.4623469279784
30
0
41
1
10
44.3140346536132
20
31.4615641472966
30
0
0
SPLINE
5
3FC
100
AcDbEntity
8
1
62
256
6
ByLayer
370
18
48
1
60
0
100
AcDbSpline
70
4
71
3
72
20
73
16
40
0
40
0
40
0
40
0
40
0.124999999999999
40
0.124999999999999
40
0.249999999999999
40
0.249999999999999
40
0.374999999999998
40
0.374999999999998
40
0.499999999999997
40
0.499999999999997
40
0.624999999999997
40
0.624999999999997
40
0.749999999999996
40
0.749999999999996
40
1
40
1
40
1
40
1
41
1
10
45.4113312895633
20
32.0941269658845
30
0
41
1
10
45.4050608422876
20
32.0837781479656
30
0
41
1
10
45.3978243262017
20
32.0741782918792
30
0
41
1
10
45.3814166422241
20
32.0564814331456
30
0
41
1
10
45.3722167909241
20
32.048407954313
30
0
41
1
10
45.3527261583102
20
32.034461639016
30
0
41
1
10
45.342343921254
20
32.028478992133
30
0
41
1
10
45.3203460216436
20
32.0184510279746
30
0
41
1
10
45.3086609185934
20
32.0144134323644
30
0
41
1
10
45.2850637595476
20
32.0085612117581
30
0
41
1
10
45.2730397992559
20
32.006683497771
30
0
41
1
10
45.2485772271638
20
32.0049176814024
30
0
41
1
10
45.2360272337862
20
32.0050442551081
30
0
41
1
10
45.1986698606509
20
32.0083682753749
30
0
41
1
10
45.1742977852952
20
32.0143470785963
30
0
41
1
10
45.1504612706418
20
32.0238301417887
30
0
0
SPLINE
5
3FD
100
AcDbEntity
8
1
62
256
6
ByLayer
370
18
48
1
60
0
100
AcDbSpline
70
4
71
3
72
28
73
24
40
0
40
0
40
0
40
0
40
0.125
40
0.125
40
0.25
40
0.25
40
0.312500000000011
40
0.312500000000011
40
0.375000000000022
40
0.375000000000022
40
0.500000000000018
40
0.500000000000018
40
0.562500000000004
40
0.562500000000004
40
0.62499999999999
40
0.62499999999999
40
0.749999999999982
40
0.749999999999982
40
0.812499999999979
40
0.812499999999979
40
0.874999999999975
40
0.874999999999975
40
1
40
1
40
1
40
1
41
1
10
43.4391773050273
20
31.9207711078619
30
0
41
1
10
43.4684882487248
20
31.9373960577628
30
0
41
1
10
43.4990569684675
20
31.9513496787499
30
0
41
1
10
43.561393729499
20
31.9726477531585
30
0
41
1
10
43.5932356404081
20
31.9800899742097
30
0
41
1
10
43.6423829534703
20
31.985574699453
30
0
41
1
10
43.6590628851059
20
31.9864346517294
30
0
41
1
10
43.6921540540393
20
31.986011515607
30
0
41
1
10
43.7086529272732
20
31.9847457584297
30
0
41
1
10
43.7580389806196
20
31.9775894439685
30
0
41
1
10
43.7911396276603
20
31.9681012167616
30
0
41
1
10
43.8376435447562
20
31.9474474861434
30
0
41
1
10
43.8527339304011
20
31.9394930634954
30
0
41
1
10
43.8820949220853
20
31.9214632428497
30
0
41
1
10
43.8964631011487
20
31.9113059363044
30
0
41
1
10
43.9375556366718
20
31.8782288364241
30
0
41
1
10
43.9620391641603
20
31.8530421587984
30
0
41
1
10
43.994954192365
20
31.8112580612618
30
0
41
1
10
44.0053296811802
20
31.7965736302357
30
0
41
1
10
44.0244629994567
20
31.7664901663952
30
0
41
1
10
44.0332591981831
20
31.7510584070615
30
0
41
1
10
44.0575178183964
20
31.7036919546564
30
0
41
1
10
44.0708709319592
20
31.6706968094845
30
0
41
1
10
44.0815660642786
20
31.6363799239659
30
0
0
SPLINE
5
3FE
100
AcDbEntity
8
1
62
256
6
ByLayer
370
18
48
1
60
0
100
AcDbSpline
70
4
71
3
72
20
73
16
40
0
40
0
40
0
40
0
40
0.125
40
0.125
40
0.25
40
0.25
40
0.375
40
0.375
40
0.5
40
0.5
40
0.625
40
0.625
40
0.75
40
0.75
40
1
40
1
40
1
40
1
41
1
10
44.3140346536132
20
31.4615641472966
30
0
41
1
10
44.3009904631045
20
31.4607785841176
30
0
41
1
10
44.2879685548947
20
31.4612175125803
30
0
41
1
10
44.2619690022532
20
31.464550131272
30
0
41
1
10
44.2489929994874
20
31.4674809547131
30
0
41
1
10
44.2242299503524
20
31.4755066248109
30
0
41
1
10
44.2122883397336
20
31.4806136206428
30
0
41
1
10
44.1892607772262
20
31.4929613762265
30
0
41
1
10
44.1781358120014
20
31.5002638683053
30
0
41
1
10
44.1576303913638
20
31.5163426367008
30
0
41
1
10
44.1481225031476
20
31.5251747350259
30
0
41
1
10
44.1305114825045
20
31.5443377559504
30
0
41
1
10
44.1223472982518
20
31.5547691400577
30
0
41
1
10
44.1005035181269
20
31.5875416472958
30
0
41
1
10
44.0894296513842
20
31.611148462549
30
0
41
1
10
44.0815660642786
20
31.6363799239659
30
0
0
SPLINE
5
3FF
100
AcDbEntity
8
1
62
256
6
ByLayer
370
18
48
1
60
0
100
AcDbSpline
70
4
71
3
72
18
73
14
40
0
40
0
40
0
40
0
40
0.250000000000004
40
0.250000000000004
40
0.500000000000008
40
0.500000000000008
40
0.625000000000006
40
0.625000000000006
40
0.750000000000004
40
0.750000000000004
40
0.875000000000002
40
0.875000000000002
40
1
40
1
40
1
40
1
41
1
10
43.4391773050294
20
31.9207711078631
30
0
41
1
10
43.4176949658403
20
31.9085864843842
30
0
41
1
10
43.3951953102635
20
31.8997373281978
30
0
41
1
10
43.3486680445385
20
31.8895147194135
30
0
41
1
10
43.3252927647714
20
31.8883036012338
30
0
41
1
10
43.290976441109
20
31.8929567303363
30
0
41
1
10
43.2798730039008
20
31.8955625371682
30
0
41
1
10
43.2583683194363
20
31.9029281372345
30
0
41
1
10
43.2478705004075
20
31.9077521835271
30
0
41
1
10
43.228251734252
20
31.9194084669918
30
0
41
1
10
43.2191166313487
20
31.9262134078776
30
0
41
1
10
43.202226737359
20
31.9418079298571
30
0
41
1
10
43.1944382481978
20
31.9506815468463
30
0
41
1
10
43.1876795845417
20
31.9602114959149
30
0
0
SPLINE
5
400
100
AcDbEntity
8
1
62
256
6
ByLayer
370
18
48
1
60
0
100
AcDbSpline
70
4
71
3
72
16
73
12
40
0
40
0
40
0
40
0
40
0.125
40
0.125
40
0.25
40
0.25
40
0.5
40
0.5
40
0.75
40
0.75
40
1
40
1
40
1
40
1
41
1
10
45.1952660200773
20
32.7672567044908
30
0
41
1
10
45.1956754669854
20
32.7819539944141
30
0
41
1
10
45.196969976972
20
32.7962087354111
30
0
41
1
10
45.2012765799911
20
32.823876684208
30
0
41
1
10
45.2043068301979
20
32.8373147176065
30
0
41
1
10
45.215667380635
20
32.8756215916679
30
0
41
1
10
45.226270763189
20
32.8988113249993
30
0
41
1
10
45.2529637162471
20
32.9413406730166
30
0
41
1
10
45.2689518815672
20
32.9604073222201
30
0
41
1
10
45.3047514493966
20
32.9940090651427
30
0
41
1
10
45.3246881949864
20
33.008729969961
30
0
41
1
10
45.3466037743815
20
33.0216044148889
30
0
0
SPLINE
5
401
100
AcDbEntity
8
1
62
256
6
ByLayer
370
18
48
1
60
0
100
AcDbSpline
70
4
71
3
72
14
73
10
40
0
40
0
40
0
40
0
40
0.25
40
0.25
40
0.5
40
0.5
40
0.75
40
0.75
40
1
40
1
40
1
40
1
41
1
10
45.363197372334
20
32.3756354242032
30
0
41
1
10
45.3402938422449
20
32.400787346369
30
0
41
1
10
45.3191771602801
20
32.4273507678469
30
0
41
1
10
45.2807208583823
20
32.4834659731779
30
0
41
1
10
45.2636446469909
20
32.5126633275332
30
0
41
1
10
45.2345142362953
20
32.5727106059926
30
0
41
1
10
45.2223077766134
20
32.6040430219352
30
0
41
1
10
45.2044518569227
20
32.6659675553159
30
0
41
1
10
45.1986500700195
20
32.6967167830642
30
0
41
1
10
45.1962958932493
20
32.7271649693936
30
0
0
SPLINE
5
402
100
AcDbEntity
8
1
62
256
6
ByLayer
370
18
48
1
60
0
100
AcDbSpline
70
4
71
3
72
18
73
14
40
0
40
0
40
0
40
0
40
0.250000000000025
40
0.250000000000025
40
0.500000000000051
40
0.500000000000051
40
0.625000000000038
40
0.625000000000038
40
0.750000000000026
40
0.750000000000026
40
0.875000000000013
40
0.875000000000013
40
1
40
1
40
1
40
1
41
1
10
45.363197372334
20
32.3756354242032
30
0
41
1
10
45.3809416986569
20
32.3561491741437
30
0
41
1
10
45.3961653741156
20
32.3347435939206
30
0
41
1
10
45.4206057635584
20
32.2881985115521
30
0
41
1
10
45.4294637118253
20
32.2637016934565
30
0
41
1
10
45.4367756050783
20
32.2257401813257
30
0
41
1
10
45.4381680357315
20
32.213113900257
30
0
41
1
10
45.4388008735387
20
32.1879090740885
30
0
41
1
10
45.438016127147
20
32.1752071453285
30
0
41
1
10
45.43419001082
20
32.1505993756374
30
0
41
1
10
45.4311774429173
20
32.1386841351251
30
0
41
1
10
45.4229074333017
20
32.1156407064772
30
0
41
1
10
45.4175872158144
20
32.1044518181384
30
0
41
1
10
45.4113312895633
20
32.0941269658845
30
0
0
SPLINE
5
403
100
AcDbEntity
8
1
62
256
6
ByLayer
370
18
48
1
60
0
100
AcDbSpline
70
4
71
3
72
20
73
16
40
0
40
0
40
0
40
0
40
0.124999999999994
40
0.124999999999994
40
0.249999999999989
40
0.249999999999989
40
0.374999999999983
40
0.374999999999983
40
0.499999999999977
40
0.499999999999977
40
0.624999999999971
40
0.624999999999971
40
0.749999999999965
40
0.749999999999965
40
1
40
1
40
1
40
1
41
1
10
45.382236317245
20
33.2267595604714
30
0
41
1
10
45.3890272235836
20
33.2171841481074
30
0
41
1
10
45.394782044787
20
33.2073816564602
30
0
41
1
10
45.4042182346565
20
33.1873257233906
30
0
41
1
10
45.4078695132985
20
33.1770618963165
30
0
41
1
10
45.4128073669527
20
33.1570079039225
30
0
41
1
10
45.4141568124319
20
33.1470998946386
30
0
41
1
10
45.4146828586285
20
33.1275325134185
30
0
41
1
10
45.4138264388127
20
33.1178302844892
30
0
41
1
10
45.4100819149827
20
33.0994860883264
30
0
41
1
10
45.4072073573188
20
33.0907386893993
30
0
41
1
10
45.3995763671096
20
33.0740688759499
30
0
41
1
10
45.394765720858
20
33.0660831672726
30
0
41
1
10
45.3779079000792
20
33.0439411697921
30
0
41
1
10
45.3636342320987
20
33.0316090643679
30
0
41
1
10
45.3466037743815
20
33.0216044148889
30
0
0
SPLINE
5
404
100
AcDbEntity
8
1
62
256
6
ByLayer
370
18
48
1
60
0
100
AcDbSpline
70
4
71
3
72
20
73
16
40
0
40
0
40
0
40
0
40
0.125
40
0.125
40
0.25
40
0.25
40
0.375
40
0.375
40
0.5
40
0.5
40
0.625
40
0.625
40
0.749999999999999
40
0.749999999999999
40
1
40
1
40
1
40
1
41
1
10
43.1876795845417
20
31.9602114959149
30
0
41
1
10
43.1808886782031
20
31.9697869082789
30
0
41
1
10
43.1750455251438
20
31.9800874023868
30
0
41
1
10
43.1652548279322
20
32.0021419975122
30
0
41
1
10
43.1613345614155
20
32.0139223400288
30
0
41
1
10
43.1557043340388
20
32.0378798371556
30
0
41
1
10
43.1539299856189
20
32.0501833888839
30
0
41
1
10
43.1523968113968
20
32.0754288149035
30
0
41
1
10
43.1526660625515
20
32.0884414173682
30
0
41
1
10
43.1551266136877
20
32.1140244692587
30
0
41
1
10
43.1572998151934
20
32.1267260146154
30
0
41
1
10
43.1634105884031
20
32.1519665956426
30
0
41
1
10
43.1673944378897
20
32.1646136670782
30
0
41
1
10
43.181647750122
20
32.2014395139124
30
0
41
1
10
43.1940371850412
20
32.2243946577818
30
0
41
1
10
43.2090269679578
20
32.2459043420175
30
0
0
SPLINE
5
405
100
AcDbEntity
8
1
62
256
6
ByLayer
370
18
48
1
60
0
100
AcDbSpline
70
4
71
3
72
16
73
12
40
0
40
0
40
0
40
0
40
0.125000000000001
40
0.125000000000001
40
0.250000000000002
40
0.250000000000002
40
0.500000000000001
40
0.500000000000001
40
0.750000000000001
40
0.750000000000001
40
1
40
1
40
1
40
1
41
1
10
43.3399460546176
20
32.615369601213
30
0
41
1
10
43.3396491634642
20
32.600037737927
30
0
41
1
10
43.3385921879263
20
32.5844438114379
30
0
41
1
10
43.3349979535715
20
32.5527596292652
30
0
41
1
10
43.3324450859581
20
32.5366301805919
30
0
41
1
10
43.3228121864513
20
32.488583055906
30
0
41
1
10
43.3137566989038
20
32.456666510324
30
0
41
1
10
43.2907805875818
20
32.3931821363776
30
0
41
1
10
43.2769445909024
20
32.3619818659783
30
0
41
1
10
43.2457662448964
20
32.3023263306135
30
0
41
1
10
43.2283165127886
20
32.2735839969308
30
0
41
1
10
43.2090269679578
20
32.2459043420175
30
0
0
SPLINE
5
406
100
AcDbEntity
8
1
62
256
6
ByLayer
370
18
48
1
60
0
100
AcDbSpline
70
4
71
3
72
14
73
10
40
0
40
0
40
0
40
0
40
0.282588930104154
40
0.282588930104154
40
0.565177860208308
40
0.565177860208308
40
0.847766790312461
40
0.847766790312461
40
1
40
1
40
1
40
1
41
1
10
43.1924333700053
20
32.8918733327031
30
0
41
1
10
43.2127095514061
20
32.8815340293675
30
0
41
1
10
43.2313248942475
20
32.8690728026854
30
0
41
1
10
43.2651139465522
20
32.8392708878266
30
0
41
1
10
43.2800559438277
20
32.8221059296061
30
0
41
1
10
43.3054948240001
20
32.782870976051
30
0
41
1
10
43.3161251618756
20
32.7604245110488
30
0
41
1
10
43.3281107786148
20
32.7226596437087
30
0
41
1
10
43.3315215458508
20
32.7088132001933
30
0
41
1
10
43.3341082434628
20
32.6942901281203
30
0
0
SPLINE
5
407
100
AcDbEntity
8
1
62
256
6
ByLayer
370
18
48
1
60
0
100
AcDbSpline
70
4
71
3
72
18
73
14
40
0
40
0
40
0
40
0
40
0.249999999999972
40
0.249999999999972
40
0.499999999999944
40
0.499999999999944
40
0.624999999999958
40
0.624999999999958
40
0.749999999999972
40
0.749999999999972
40
0.874999999999986
40
0.874999999999986
40
1
40
1
40
1
40
1
41
1
10
43.1924333700052
20
32.8918733327033
30
0
41
1
10
43.1767245610156
20
32.8998836250742
30
0
41
1
10
43.1633954323093
20
32.9106080197267
30
0
41
1
10
43.1424306538131
20
32.9375581011036
30
0
41
1
10
43.1351044739992
20
32.9534190261667
30
0
41
1
10
43.1297292805935
20
32.9804616995636
30
0
41
1
10
43.1289102230536
20
32.9898553844371
30
0
41
1
10
43.1292812933174
20
33.0094003194527
30
0
41
1
10
43.1304996515215
20
33.0196576063853
30
0
41
1
10
43.1350191680942
20
33.040356083952
30
0
41
1
10
43.1382937441472
20
33.0507941597173
30
0
41
1
10
43.1469179222785
20
33.0718408365643
30
0
41
1
10
43.1523286859723
20
33.0825192382479
30
0
41
1
10
43.1585846122234
20
33.0928440905018
30
0
0
SPLINE
5
408
100
AcDbEntity
8
1
62
256
6
ByLayer
370
18
48
1
60
0
100
AcDbSpline
70
4
71
3
72
18
73
14
40
0
40
0
40
0
40
0
40
0.250000000000041
40
0.250000000000041
40
0.500000000000082
40
0.500000000000082
40
0.625000000000062
40
0.625000000000062
40
0.750000000000041
40
0.750000000000041
40
0.875000000000021
40
0.875000000000021
40
1
40
1
40
1
40
1
41
1
10
44.0310148168645
20
33.6042797346959
30
0
41
1
10
44.0378401717344
20
33.6187518359717
30
0
41
1
10
44.0479935216221
20
33.6329979680419
30
0
41
1
10
44.0753393600504
20
33.660369063224
30
0
41
1
10
44.0921788623231
20
33.6731185831137
30
0
41
1
10
44.1220970924074
20
33.6900256740682
30
0
41
1
10
44.1326697489064
20
33.6951886489174
30
0
41
1
10
44.1550479740055
20
33.7045180023949
30
0
41
1
10
44.166979678058
20
33.7087170076106
30
0
41
1
10
44.1914501460034
20
33.7157806399061
30
0
41
1
10
44.2039823666032
20
33.7186625054929
30
0
41
1
10
44.229653322968
20
33.7230880962854
30
0
41
1
10
44.2428832607243
20
33.7246241284078
30
0
41
1
10
44.2558812481735
20
33.7254069090897
30
0
0
SPLINE
5
409
100
AcDbEntity
8
1
62
256
6
ByLayer
370
18
48
1
60
0
100
AcDbSpline
70
4
71
3
72
20
73
16
40
0
40
0
40
0
40
0
40
0.125000000000007
40
0.125000000000007
40
0.250000000000014
40
0.250000000000014
40
0.375000000000022
40
0.375000000000022
40
0.500000000000029
40
0.500000000000029
40
0.625000000000036
40
0.625000000000036
40
0.750000000000044
40
0.750000000000044
40
1
40
1
40
1
40
1
41
1
10
43.1585846122234
20
33.0928440905018
30
0
41
1
10
43.1648550594991
20
33.1031929084206
30
0
41
1
10
43.1720034753413
20
33.1132894611712
30
0
41
1
10
43.1880574474447
20
33.1329804972256
30
0
41
1
10
43.1969889856027
20
33.1425666874536
30
0
41
1
10
43.2157889318654
20
33.1604069943229
30
0
41
1
10
43.2257472575535
20
33.1687795933053
30
0
41
1
10
43.2467402245433
20
33.1844732248823
30
0
41
1
10
43.2578395051061
20
33.1918136044914
30
0
41
1
10
43.2801555996278
20
33.2048882849773
30
0
41
1
10
43.2914797178461
20
33.2107116091997
30
0
41
1
10
43.3144251867485
20
33.2210306379277
30
0
41
1
10
43.3261499712679
20
33.2255564745877
30
0
41
1
10
43.3609081601858
20
33.2368862858635
30
0
41
1
10
43.3833995089193
20
33.2415107522816
30
0
41
1
10
43.4051988163405
20
33.2435131741877
30
0
0
SPLINE
5
40A
100
AcDbEntity
8
1
62
256
6
ByLayer
370
18
48
1
60
0
100
AcDbSpline
70
4
71
3
72
28
73
24
40
0
40
0
40
0
40
0
40
0.12500000000001
40
0.12500000000001
40
0.250000000000019
40
0.250000000000019
40
0.312500000000024
40
0.312500000000024
40
0.375000000000029
40
0.375000000000029
40
0.500000000000015
40
0.500000000000015
40
0.5625
40
0.5625
40
0.624999999999985
40
0.624999999999985
40
0.749999999999986
40
0.749999999999986
40
0.812499999999987
40
0.812499999999987
40
0.874999999999988
40
0.874999999999988
40
1
40
1
40
1
40
1
41
1
10
44.0310148168645
20
33.6042797346959
30
0
41
1
10
44.0217021133861
20
33.584533598347
30
0
41
1
10
44.0095051870344
20
33.5646161545533
30
0
41
1
10
43.9796458407012
20
33.5251477796472
30
0
41
1
10
43.9619979175998
20
33.5055391345443
30
0
41
1
10
43.9308498576988
20
33.4759472906929
30
0
41
1
10
43.9196274431184
20
33.4660155509663
30
0
41
1
10
43.8960243501049
20
33.4465007969848
30
0
41
1
10
43.8835930933443
20
33.4368641181546
30
0
41
1
10
43.8443243800724
20
33.4082542153566
30
0
41
1
10
43.8151475206694
20
33.3893959096664
30
0
41
1
10
43.7698039601758
20
33.3632828244411
30
0
41
1
10
43.7543439353026
20
33.3548764478535
30
0
41
1
10
43.7227331952233
20
33.3386673502035
30
0
41
1
10
43.7064640855835
20
33.3308121933059
30
0
41
1
10
43.6574808212885
20
33.3086205461664
30
0
41
1
10
43.6249571924459
20
33.2957710939702
30
0
41
1
10
43.5761780198065
20
33.2792750185636
30
0
41
1
10
43.5598361946096
20
33.274224006743
30
0
41
1
10
43.5277421582385
20
33.2652486908494
30
0
41
1
10
43.5119433637416
20
33.2613034883066
30
0
41
1
10
43.4651825800589
20
33.2510250799785
30
0
41
1
10
43.4348476745201
20
33.2462366333309
30
0
41
1
10
43.4051988163405
20
33.2435131741877
30
0
0
SPLINE
5
40B
100
AcDbEntity
8
1
62
256
6
ByLayer
370
18
48
1
60
0
100
AcDbSpline
70
4
71
3
72
20
73
16
40
0
40
0
40
0
40
0
40
0.124999999999994
40
0.124999999999994
40
0.249999999999988
40
0.249999999999988
40
0.374999999999982
40
0.374999999999982
40
0.499999999999976
40
0.499999999999976
40
0.624999999999969
40
0.624999999999969
40
0.749999999999963
40
0.749999999999963
40
1
40
1
40
1
40
1
41
1
10
44.2558812481735
20
33.7254069090897
30
0
41
1
10
44.2689254386822
20
33.7261924722687
30
0
41
1
10
44.2818592465813
20
33.7262502408481
30
0
41
1
10
44.3075050875333
20
33.7249117984354
30
0
41
1
10
44.3202127770118
20
33.723493687209
30
0
41
1
10
44.3442851394944
20
33.7193620103823
30
0
41
1
10
44.3558028386894
20
33.7166449669637
30
0
41
1
10
44.3778254690475
20
33.7099628761409
30
0
41
1
10
44.388364611585
20
33.7059631691881
30
0
41
1
10
44.4075889670066
20
33.6971068645736
30
0
41
1
10
44.4163970130115
20
33.6922203772604
30
0
41
1
10
44.4324909308569
20
33.6816105664862
30
0
41
1
10
44.4398299070875
20
33.6758315880303
30
0
41
1
10
44.4590745012154
20
33.6577129223676
30
0
41
1
10
44.4682676412535
20
33.6447093772183
30
0
41
1
10
44.4740940227036
20
33.6309633920104
30
0
0
SPLINE
5
40C
100
AcDbEntity
8
1
62
256
6
ByLayer
370
18
48
1
60
0
100
AcDbSpline
70
4
71
3
72
28
73
24
40
0
40
0
40
0
40
0
40
0.124999999999981
40
0.124999999999981
40
0.249999999999961
40
0.249999999999961
40
0.312499999999965
40
0.312499999999965
40
0.374999999999969
40
0.374999999999969
40
0.499999999999977
40
0.499999999999977
40
0.562499999999967
40
0.562499999999967
40
0.624999999999956
40
0.624999999999956
40
0.749999999999948
40
0.749999999999948
40
0.812499999999958
40
0.812499999999958
40
0.874999999999968
40
0.874999999999968
40
1
40
1
40
1
40
1
41
1
10
45.1164827819528
20
33.3465722081132
30
0
41
1
10
45.0843992794437
20
33.3455785510978
30
0
41
1
10
45.0511756279352
20
33.3465930584159
30
0
41
1
10
44.9840004574956
20
33.3525732492137
30
0
41
1
10
44.9499633158238
20
33.357507427488
30
0
41
1
10
44.8979878690789
20
33.3679673183633
30
0
41
1
10
44.8804418608265
20
33.3719901830718
30
0
41
1
10
44.8458446501869
20
33.3809041684822
30
0
41
1
10
44.8287000774639
20
33.3858102876925
30
0
41
1
10
44.7777336579652
20
33.4018764821144
30
0
41
1
10
44.744067687588
20
33.4145519220194
30
0
41
1
10
44.6975709569547
20
33.4351651363834
30
0
41
1
10
44.682619409009
20
33.4423368117983
30
0
41
1
10
44.6538041882814
20
33.4572896532883
30
0
41
1
10
44.6398470859553
20
33.4651293675612
30
0
41
1
10
44.6003538026158
20
33.4891901107197
30
0
41
1
10
44.5773993197538
20
33.5057562518609
30
0
41
1
10
44.5473091003274
20
33.5316144786197
30
0
41
1
10
44.5379708833567
20
33.5404509182757
30
0
41
1
10
44.5210302043245
20
33.5581725934052
30
0
41
1
10
44.5133911403248
20
33.567080591459
30
0
41
1
10
44.4927557691237
20
33.5940196804223
30
0
41
1
10
44.4820183859383
20
33.6122677091515
30
0
41
1
10
44.4740940227036
20
33.6309633920104
30
0
0
SPLINE
5
40D
100
AcDbEntity
8
1
62
256
6
ByLayer
370
18
48
1
60
0
100
AcDbSpline
70
4
71
3
72
18
73
14
40
0
40
0
40
0
40
0
40
0.249999999999999
40
0.249999999999999
40
0.499999999999998
40
0.499999999999998
40
0.624999999999998
40
0.624999999999998
40
0.749999999999999
40
0.749999999999999
40
0.875
40
0.875
40
1
40
1
40
1
40
1
41
1
10
45.1164827819528
20
33.3465722081132
30
0
41
1
10
45.139997162465
20
33.347300471156
30
0
41
1
10
45.1643878011145
20
33.3454885332918
30
0
41
1
10
45.2143838409372
20
33.3361546862674
30
0
41
1
10
45.2392875179421
20
33.3287489178476
30
0
41
1
10
45.2755364019947
20
33.313200287682
30
0
41
1
10
45.2872119302975
20
33.3073691124938
30
0
41
1
10
45.3097181899773
20
33.2943567735841
30
0
41
1
10
45.3206485739195
20
33.2870939877322
30
0
41
1
10
45.3409591666319
20
33.2715372843767
30
0
41
1
10
45.3503556381712
20
33.2632587842348
30
0
41
1
10
45.3675988156724
20
33.2456724999825
30
0
41
1
10
45.3754776535889
20
33.23628950954
30
0
41
1
10
45.382236317245
20
33.2267595604714
30
0
0
SPLINE
5
40E
100
AcDbEntity
8
1
62
256
6
ByLayer
370
18
48
1
60
0
100
AcDbSpline
70
4
71
3
72
20
73
16
40
0
40
0
40
0
40
0
40
0.125
40
0.125
40
0.25
40
0.25
40
0.375
40
0.375
40
0.5
40
0.5
40
0.625
40
0.625
40
0.75
40
0.75
40
1
40
1
40
1
40
1
41
1
10
44.3140346536132
20
0.497536775510412
30
0
41
1
10
44.3009904631045
20
0.496395947783242
30
0
41
1
10
44.2879685548947
20
0.496075726768822
30
0
41
1
10
44.2619690022532
20
0.497084631647453
30
0
41
1
10
44.2489929994873
20
0.498438853310688
30
0
41
1
10
44.2242299503524
20
0.502667794898059
30
0
41
1
10
44.2122883397336
20
0.505543322615267
30
0
41
1
10
44.1892607772261
20
0.512797041301269
30
0
41
1
10
44.1781358120013
20
0.517215603444811
30
0
41
1
10
44.1576303913638
20
0.527173323324234
30
0
41
1
10
44.1481225031476
20
0.532743959890922
30
0
41
1
10
44.1305114825045
20
0.545029198462487
30
0
41
1
10
44.1223472982519
20
0.551810301833882
30
0
41
1
10
44.1005035181269
20
0.573404914716491
30
0
41
1
10
44.0894296513841
20
0.589317297482978
30
0
41
1
10
44.0815660642786
20
0.606724321442812
30
0
0
SPLINE
5
40F
100
AcDbEntity
8
1
62
256
6
ByLayer
370
18
48
1
60
0
100
AcDbSpline
70
4
71
3
72
28
73
24
40
0
40
0
40
0
40
0
40
0.124999999999993
40
0.124999999999993
40
0.249999999999987
40
0.249999999999987
40
0.31249999999999
40
0.31249999999999
40
0.374999999999993
40
0.374999999999993
40
0.499999999999999
40
0.499999999999999
40
0.562499999999997
40
0.562499999999997
40
0.624999999999994
40
0.624999999999994
40
0.74999999999998
40
0.74999999999998
40
0.812499999999985
40
0.812499999999985
40
0.87499999999999
40
0.87499999999999
40
1
40
1
40
1
40
1
41
1
10
44.5246452701173
20
0.645475445401644
30
0
41
1
10
44.5311854151583
20
0.670673713337465
30
0
41
1
10
44.5407274098774
20
0.69535272649415
30
0
41
1
10
44.5657483473686
20
0.74187419713968
30
0
41
1
10
44.5812010395833
20
0.763811386122427
30
0
41
1
10
44.6095209652672
20
0.794047897807218
30
0
41
1
10
44.6198773032825
20
0.803703619476039
30
0
41
1
10
44.6419743546961
20
0.821499194071578
30
0
41
1
10
44.6537599119138
20
0.829697448046431
30
0
41
1
10
44.6914482587388
20
0.851991704510112
30
0
41
1
10
44.7200597947675
20
0.863789349842477
30
0
41
1
10
44.7654105414371
20
0.875285067001357
30
0
41
1
10
44.7810094038971
20
0.878149868968933
30
0
41
1
10
44.8131659149001
20
0.881974130095387
30
0
41
1
10
44.8298461015355
20
0.882931474669363
30
0
41
1
10
44.8804286174275
20
0.882971979521813
30
0
41
1
10
44.9144812905661
20
0.879326822246639
30
0
41
1
10
44.9660852724592
20
0.869477525319212
30
0
41
1
10
44.9834643696622
20
0.865428077394085
30
0
41
1
10
45.0177510446771
20
0.856150212449279
30
0
41
1
10
45.0347069736967
20
0.850920148875559
30
0
41
1
10
45.0850910061515
20
0.833687217466547
30
0
41
1
10
45.1180416424031
20
0.820160822290802
30
0
41
1
10
45.1504612706418
20
0.804902779581141
30
0
0
SPLINE
5
410
100
AcDbEntity
8
1
62
256
6
ByLayer
370
18
48
1
60
0
100
AcDbSpline
70
4
71
3
72
18
73
14
40
0
40
0
40
0
40
0
40
0.249999999999992
40
0.249999999999992
40
0.499999999999985
40
0.499999999999985
40
0.624999999999988
40
0.624999999999988
40
0.749999999999992
40
0.749999999999992
40
0.874999999999996
40
0.874999999999996
40
1
40
1
40
1
40
1
41
1
10
44.5246452701178
20
0.64547544540352
30
0
41
1
10
44.5198519455037
20
0.627007433277129
30
0
41
1
10
44.5115902595854
20
0.609306260032497
30
0
41
1
10
44.4877125082086
20
0.575854535166798
30
0
41
1
10
44.4724018528895
20
0.560561364897467
30
0
41
1
10
44.4444158017958
20
0.540389543553658
30
0
41
1
10
44.4344152060914
20
0.534249791020272
30
0
41
1
10
44.4130385953138
20
0.523143223691136
30
0
41
1
10
44.4015395007242
20
0.518137242585681
30
0
41
1
10
44.3777607428129
20
0.509653332825906
30
0
41
1
10
44.3654899008655
20
0.506155335795711
30
0
41
1
10
44.3401722572377
20
0.500662019531831
30
0
41
1
10
44.3270326410624
20
0.498673562378883
30
0
41
1
10
44.3140346536132
20
0.497536775510412
30
0
0
SPLINE
5
411
100
AcDbEntity
8
1
62
256
6
ByLayer
370
18
48
1
60
0
100
AcDbSpline
70
4
71
3
72
29
73
25
40
0
40
0
40
0
40
0
40
0.124999999999995
40
0.124999999999995
40
0.187499999999992
40
0.187499999999992
40
0.249999999999989
40
0.249999999999989
40
0.374999999999983
40
0.374999999999983
40
0.43749999999998
40
0.43749999999998
40
0.499999999999978
40
0.499999999999978
40
0.624999999999972
40
0.624999999999972
40
0.687499999999973
40
0.687499999999973
40
0.749999999999975
40
0.812499999999976
40
0.812499999999976
40
0.874999999999977
40
0.874999999999977
40
1
40
1
40
1
40
1
41
1
10
40.1805214835458
20
-1.08364706982167
30
0
41
1
10
40.1827463559833
20
-1.11019772761188
30
0
41
1
10
40.1897398474279
20
-1.13593630920303
30
0
41
1
10
40.2072246509092
20
-1.17335303572008
30
0
41
1
10
40.2142266828208
20
-1.185625390697
30
0
41
1
10
40.2306511826814
20
-1.20975791035198
30
0
41
1
10
40.2400647335037
20
-1.22158068442303
30
0
41
1
10
40.2713577608896
20
-1.25568971783821
30
0
41
1
10
40.2964186408874
20
-1.27687558650604
30
0
41
1
10
40.340376956015
20
-1.30629874066563
30
0
41
1
10
40.3561819381616
20
-1.31575466074384
30
0
41
1
10
40.3896248025805
20
-1.33362397288403
30
0
41
1
10
40.4071636812415
20
-1.34199560261703
30
0
41
1
10
40.4621700634243
20
-1.36546452461323
30
0
41
1
10
40.5020046254836
20
-1.37893147608111
30
0
41
1
10
40.566663938825
20
-1.39575182255061
30
0
41
1
10
40.5889866443425
20
-1.40076681973062
30
0
41
1
10
40.6342790920403
20
-1.40943749721237
30
0
41
1
10
40.6804533834459
20
-1.41681316324343
30
0
41
1
10
40.7283667578009
20
-1.42163493870044
30
0
41
1
10
40.7771621959894
20
-1.42516137944597
30
0
41
1
10
40.8021230334269
20
-1.42627696572208
30
0
41
1
10
40.8772738394942
20
-1.42758923591242
30
0
41
1
10
40.9277378349859
20
-1.42580514400214
30
0
41
1
10
40.9785656028538
20
-1.421359814347
30
0
0
SPLINE
5
412
100
AcDbEntity
8
1
62
256
6
ByLayer
370
18
48
1
60
0
100
AcDbSpline
70
4
71
3
72
22
73
18
40
0
40
0
40
0
40
0
40
0.125
40
0.125
40
0.25
40
0.25
40
0.375
40
0.375
40
0.5
40
0.5
40
0.625
40
0.625
40
0.75
40
0.75
40
0.875
40
0.875
40
1
40
1
40
1
40
1
41
1
10
46.8155261227894
20
6.12795444349592
30
0
41
1
10
46.8478626342431
20
6.13078255221166
30
0
41
1
10
46.8797409876397
20
6.13268626976026
30
0
41
1
10
46.9426246017002
20
6.13473213111041
30
0
41
1
10
46.973919807056
20
6.13486392075191
30
0
41
1
10
47.0341265603487
20
6.13330201441369
30
0
41
1
10
47.0628136071436
20
6.13163467669983
30
0
41
1
10
47.1174092639308
20
6.12656116660901
30
0
41
1
10
47.1435269339763
20
6.12310365806871
30
0
41
1
10
47.1909519140583
20
6.11466066272743
30
0
41
1
10
47.2124670249739
20
6.1096749620786
30
0
41
1
10
47.2510613403522
20
6.09816084433152
30
0
41
1
10
47.268075800525
20
6.0916100729691
30
0
41
1
10
47.296129593475
20
6.077492190491
30
0
41
1
10
47.3074007231891
20
6.0698660230554
30
0
41
1
10
47.3242260837876
20
6.05343696494822
30
0
41
1
10
47.3296318735239
20
6.04474364039294
30
0
41
1
10
47.3318910835292
20
6.03569965278456
30
0
0
SPLINE
5
413
100
AcDbEntity
8
1
62
256
6
ByLayer
370
18
48
1
60
0
100
AcDbSpline
70
4
71
3
72
29
73
25
40
0
40
0
40
0
40
0
40
0.12499999999999
40
0.12499999999999
40
0.187499999999985
40
0.187499999999985
40
0.24999999999998
40
0.24999999999998
40
0.374999999999971
40
0.374999999999971
40
0.437499999999966
40
0.437499999999966
40
0.499999999999961
40
0.499999999999961
40
0.624999999999963
40
0.624999999999963
40
0.68749999999997
40
0.68749999999997
40
0.749999999999976
40
0.812499999999982
40
0.812499999999982
40
0.874999999999988
40
0.874999999999988
40
1
40
1
40
1
40
1
41
1
10
48.467623260972
20
1.92081633519342
30
0
41
1
10
48.4676208967812
20
1.92215117489763
30
0
41
1
10
48.4628170878154
20
1.92304636833467
30
0
41
1
10
48.4485686595187
20
1.92374428940718
30
0
41
1
10
48.4426373394891
20
1.92386871373907
30
0
41
1
10
48.4283376018244
20
1.92389440855698
30
0
41
1
10
48.4199749293787
20
1.92379427614782
30
0
41
1
10
48.3917437651982
20
1.92316445732177
30
0
41
1
10
48.3686255500776
20
1.92230951501904
30
0
41
1
10
48.327431753438
20
1.92036738835759
30
0
41
1
10
48.3125274172971
20
1.91960488703143
30
0
41
1
10
48.2808125326987
20
1.917869131396
30
0
41
1
10
48.2640967979032
20
1.91690165248906
30
0
41
1
10
48.2114404368279
20
1.9137080391119
30
0
41
1
10
48.1730144751758
20
1.91119349234492
30
0
41
1
10
48.110222846689
20
1.90682372552573
30
0
41
1
10
48.0884791191968
20
1.90526983614092
30
0
41
1
10
48.0442363719022
20
1.90203097202595
30
0
41
1
10
47.9990105755002
20
1.89864533829496
30
0
41
1
10
47.9518461090981
20
1.89497026037475
30
0
41
1
10
47.9036983482
20
1.89114837620178
30
0
41
1
10
47.8790116241334
20
1.88915396596559
30
0
41
1
10
47.8045160436905
20
1.88303227042218
30
0
41
1
10
47.7542705511224
20
1.8787691191053
30
0
41
1
10
47.7034427832545
20
1.87432378945016
30
0
0
SPLINE
5
414
100
AcDbEntity
8
1
62
256
6
ByLayer
370
18
48
1
60
0
100
AcDbSpline
70
4
71
3
72
8
73
4
40
0
40
0
40
0
40
0
40
1
40
1
40
1
40
1
41
1
10
40.0116004358036
20
34.05335208074
30
0
41
1
10
40.0039314680552
20
34.0230966663539
30
0
41
1
10
40.0000903610497
20
33.9922741892854
30
0
41
1
10
40.0000882470614
20
33.9608830003897
30
0
0
SPLINE
5
415
100
AcDbEntity
8
1
62
256
6
ByLayer
370
13
48
1
60
0
100
AcDbSpline
70
4
71
3
72
8
73
4
40
0
40
0
40
0
40
0
40
1
40
1
40
1
40
1
41
1
10
47.7034427832545
20
1.87432378945022
30
0
41
1
10
47.4074705630995
20
3.29220067413212
30
0
41
1
10
47.1114983429445
20
4.71007755881402
30
0
41
1
10
46.8155261227894
20
6.12795444349592
30
0
0
SPLINE
5
416
100
AcDbEntity
8
1
62
256
6
ByLayer
370
18
48
1
60
0
100
AcDbSpline
70
4
71
3
72
22
73
18
40
0
40
0
40
0
40
0
40
0.125
40
0.125
40
0.25
40
0.25
40
0.375
40
0.375
40
0.5
40
0.5
40
0.625
40
0.625
40
0.75
40
0.75
40
0.875
40
0.875
40
1
40
1
40
1
40
1
41
1
10
40.3998989792158
20
5.42943675037634
30
0
41
1
10
40.4006952360238
20
5.43874747153399
30
0
41
1
10
40.4046061730843
20
5.44813533970591
30
0
41
1
10
40.4183569909675
20
5.4670579291078
30
0
41
1
10
40.4283371110724
20
5.47668846520565
30
0
41
1
10
40.4538976663406
20
5.49561402772366
30
0
41
1
10
40.46932472541
20
5.50484728519882
30
0
41
1
10
40.5053651111085
20
5.52286405702404
30
0
41
1
10
40.5262117673149
20
5.5317153436223
30
0
41
1
10
40.5715954270148
20
5.5482761748188
30
0
41
1
10
40.596233134994
20
5.55606112208909
30
0
41
1
10
40.6494365258763
20
5.57063085781266
30
0
41
1
10
40.6779704251227
20
5.57737951766234
30
0
41
1
10
40.7366328407529
20
5.58929899994706
30
0
41
1
10
40.7670393813341
20
5.59455120799987
30
0
41
1
10
40.8300869152762
20
5.60358542871217
30
0
41
1
10
40.8621793194956
20
5.60728257057764
30
0
41
1
10
40.8945115397796
20
5.61011030399334
30
0
0
SPLINE
5
417
100
AcDbEntity
8
1
62
256
6
ByLayer
370
13
48
1
60
0
100
AcDbSpline
70
4
71
3
72
8
73
4
40
0
40
0
40
0
40
0
40
1
40
1
40
1
40
1
41
1
10
40.8945115397796
20
5.61011030399334
30
0
41
1
10
40.8510972681127
20
4.16255112359124
30
0
41
1
10
40.8076829964458
20
2.71499194318915
30
0
41
1
10
40.7642687247789
20
1.26743276278705
30
0
0
SPLINE
5
418
100
AcDbEntity
8
1
62
256
6
ByLayer
370
18
48
1
60
0
100
AcDbSpline
70
4
71
3
72
28
73
24
40
0
40
0
40
0
40
0
40
0.125000000000012
40
0.125000000000012
40
0.187500000000025
40
0.187500000000025
40
0.250000000000037
40
0.250000000000037
40
0.37500000000004
40
0.37500000000004
40
0.437500000000034
40
0.437500000000034
40
0.500000000000029
40
0.500000000000029
40
0.62500000000003
40
0.62500000000003
40
0.75000000000003
40
0.75000000000003
40
0.812500000000023
40
0.812500000000023
40
0.875000000000015
40
0.875000000000015
40
1
40
1
40
1
40
1
41
1
10
40.7642687247789
20
1.26743276278705
30
0
41
1
10
40.7134512230852
20
1.26298833099799
30
0
41
1
10
40.6634401094248
20
1.25848322660789
30
0
41
1
10
40.5896003632756
20
1.25163701828842
30
0
41
1
10
40.5651846595254
20
1.24934008557483
30
0
41
1
10
40.5167599958829
20
1.24471561675602
30
0
41
1
10
40.4928422757836
20
1.24239637143228
30
0
41
1
10
40.4232412990538
20
1.23554244989532
30
0
41
1
10
40.3791904322963
20
1.23106313723639
30
0
41
1
10
40.3166491535976
20
1.22447951687923
30
0
41
1
10
40.2962873859724
20
1.22229570601115
30
0
41
1
10
40.2574821471409
20
1.21805044746481
30
0
41
1
10
40.2390150013878
20
1.21598708007133
30
0
41
1
10
40.1863421243585
20
1.20996983108262
30
0
41
1
10
40.1548393283035
20
1.20618717934497
30
0
41
1
10
40.0992709021634
20
1.19909301733833
30
0
41
1
10
40.0760669119159
20
1.19589101939732
30
0
41
1
10
40.0479035345308
20
1.19159567708391
30
0
41
1
10
40.0396231838683
20
1.19024812656517
30
0
41
1
10
40.0253104510527
20
1.18772400241778
30
0
41
1
10
40.0192755469421
20
1.18654542777637
30
0
41
1
10
40.0048935690585
20
1.18333152013247
30
0
41
1
10
40.0000906110283
20
1.1815919985109
30
0
41
1
10
40.0000882470614
20
1.18025687169052
30
0
0
SPLINE
5
419
100
AcDbEntity
8
1
62
256
6
ByLayer
370
18
48
1
60
0
100
AcDbSpline
70
4
71
3
72
16
73
12
40
0
40
0
40
0
40
0
40
0.297827623630588
40
0.297827623630588
40
0.446741435445891
40
0.446741435445891
40
0.595655247261194
40
0.595655247261194
40
0.893482870891796
40
0.893482870891796
40
1
40
1
40
1
40
1
41
1
10
40.1805214835458
20
-28.6059674341363
30
0
41
1
10
40.1827463559834
20
-28.5564426850223
30
0
41
1
10
40.1897398474279
20
-28.5079385619048
30
0
41
1
10
40.2072246509092
20
-28.4366794220154
30
0
41
1
10
40.2142266828208
20
-28.413177595737
30
0
41
1
10
40.2306511826814
20
-28.3666919883278
30
0
41
1
10
40.2400647335037
20
-28.343778542531
30
0
41
1
10
40.2713577608895
20
-28.2772501966039
30
0
41
1
10
40.2964186408874
20
-28.235353401516
30
0
41
1
10
40.3362052213359
20
-28.1818423250723
30
0
41
1
10
40.34727578136
20
-28.1680197997592
30
0
41
1
10
40.3588495815783
20
-28.1545952208455
30
0
0
SPLINE
5
41A
100
AcDbEntity
8
1
62
256
6
ByLayer
370
13
48
1
60
0
100
AcDbSpline
70
4
71
3
72
8
73
4
40
0
40
0
40
0
40
0
40
1
40
1
40
1
40
1
41
1
10
40.0000882470614
20
-35.6300182754187
30
0
41
1
10
40.1333584911129
20
-36.4041333896292
30
0
41
1
10
40.2666287351643
20
-37.1782485038396
30
0
41
1
10
40.3998989792158
20
-37.9523636180501
30
0
0
SPLINE
5
41B
100
AcDbEntity
8
1
62
256
6
ByLayer
370
18
48
1
60
0
100
AcDbSpline
70
4
71
3
72
14
73
10
40
0
40
0
40
0
40
0
40
0.317122420423665
40
0.317122420423665
40
0.63424484084733
40
0.63424484084733
40
0.951367261270995
40
0.951367261270995
40
1
40
1
40
1
40
1
41
1
10
40.3998989792158
20
-37.9523636180501
30
0
41
1
10
40.4006952360238
20
-37.9809287831132
30
0
41
1
10
40.4046061730843
20
-38.0090789717246
30
0
41
1
10
40.4183569909674
20
-38.0645894212964
30
0
41
1
10
40.4283371110724
20
-38.0922159554452
30
0
41
1
10
40.4538976663405
20
-38.1452594672829
30
0
41
1
10
40.46932472541
20
-38.1705179890327
30
0
41
1
10
40.4901084293649
20
-38.1982226376011
30
0
41
1
10
40.4929384137215
20
-38.2018810553232
30
0
41
1
10
40.4958313321496
20
-38.2055102711226
30
0
0
SPLINE
5
41C
100
AcDbEntity
8
1
62
256
6
ByLayer
370
13
48
1
60
0
100
AcDbSpline
70
4
71
3
72
8
73
4
40
0
40
0
40
0
40
0
40
1
40
1
40
1
40
1
41
1
10
40.271330999986
20
-29.0139974574101
30
0
41
1
10
40.2410611611726
20
-28.8779874496522
30
0
41
1
10
40.2107913223592
20
-28.7419774418942
30
0
41
1
10
40.1805214835458
20
-28.6059674341362
30
0
0
SPLINE
5
41D
100
AcDbEntity
8
1
62
256
6
ByLayer
370
18
48
1
60
0
100
AcDbSpline
70
2053
71
3
72
127
73
123
40
0
40
0
40
0
40
0
40
0.0312499999999944
40
0.0312499999999944
40
0.0468749999999921
40
0.0468749999999921
40
0.0624999999999898
40
0.0624999999999898
40
0.0937499999999851
40
0.0937499999999851
40
0.101562499999984
40
0.101562499999984
40
0.109374999999983
40
0.109374999999983
40
0.124999999999981
40
0.124999999999981
40
0.156249999999975
40
0.156249999999975
40
0.164062499999974
40
0.164062499999974
40
0.171874999999973
40
0.171874999999973
40
0.187499999999972
40
0.20312499999997
40
0.20312499999997
40
0.210937499999969
40
0.210937499999969
40
0.218749999999967
40
0.218749999999967
40
0.249999999999962
40
0.249999999999962
40
0.265624999999959
40
0.265624999999959
40
0.273437499999957
40
0.273437499999957
40
0.281249999999955
40
0.281249999999955
40
0.312499999999947
40
0.312499999999947
40
0.320312499999946
40
0.320312499999946
40
0.328124999999945
40
0.328124999999945
40
0.343749999999942
40
0.343749999999942
40
0.374999999999937
40
0.374999999999937
40
0.406249999999933
40
0.406249999999933
40
0.42187499999993
40
0.42187499999993
40
0.429687499999929
40
0.429687499999929
40
0.437499999999929
40
0.437499999999929
40
0.46874999999993
40
0.46874999999993
40
0.476562499999929
40
0.476562499999929
40
0.484374999999929
40
0.484374999999929
40
0.499999999999927
40
0.499999999999927
40
0.531249999999926
40
0.531249999999926
40
0.539062499999925
40
0.539062499999925
40
0.546874999999925
40
0.546874999999925
40
0.562499999999925
40
0.578124999999925
40
0.578124999999925
40
0.585937499999925
40
0.585937499999925
40
0.593749999999925
40
0.593749999999925
40
0.624999999999928
40
0.624999999999928
40
0.640624999999929
40
0.640624999999929
40
0.64843749999993
40
0.64843749999993
40
0.656249999999931
40
0.656249999999931
40
0.687499999999936
40
0.687499999999936
40
0.703124999999938
40
0.703124999999938
40
0.718749999999941
40
0.718749999999941
40
0.749999999999945
40
0.749999999999945
40
0.78124999999995
40
0.78124999999995
40
0.796874999999952
40
0.796874999999952
40
0.804687499999953
40
0.804687499999953
40
0.812499999999954
40
0.812499999999954
40
0.843749999999959
40
0.843749999999959
40
0.85156249999996
40
0.85156249999996
40
0.859374999999962
40
0.859374999999962
40
0.874999999999966
40
0.874999999999966
40
0.906249999999974
40
0.906249999999974
40
0.914062499999976
40
0.914062499999976
40
0.921874999999978
40
0.921874999999978
40
0.937499999999983
40
0.953124999999988
40
0.953124999999988
40
0.960937499999989
40
0.960937499999989
40
0.968749999999991
40
0.968749999999991
40
1
40
1
40
1
40
1
41
1
10
47.2295085345386
20
25.3222669060434
30
0
41
1
10
47.3627385096378
20
25.1936888346074
30
0
41
1
10
47.4791944212897
20
25.0565467747837
30
0
41
1
10
47.6297421709249
20
24.8390373745228
30
0
41
1
10
47.6758721144299
20
24.7645520020929
30
0
41
1
10
47.7598404682979
20
24.6116043829265
30
0
41
1
10
47.7977025784842
20
24.5329425797403
30
0
41
1
10
47.8962695170376
20
24.2962505666334
30
0
41
1
10
47.9431005860815
20
24.1359073445853
30
0
41
1
10
47.9782909090087
20
23.9325615939256
30
0
41
1
10
47.9841510810829
20
23.8917445910245
30
0
41
1
10
47.9934792173407
20
23.8098135166954
30
0
41
1
10
47.9969507689104
20
23.768584456298
30
0
41
1
10
48.0036506815575
20
23.6455468883821
30
0
41
1
10
48.003216163749
20
23.5643069303933
30
0
41
1
10
47.9876874951752
20
23.3228680284927
30
0
41
1
10
47.9585031141204
20
23.1649386885169
30
0
41
1
10
47.8979821021155
20
22.971250737049
30
0
41
1
10
47.8846359736775
20
22.9326410180484
30
0
41
1
10
47.8557931541586
20
22.8566090410738
30
0
41
1
10
47.840270865357
20
22.8190912894583
30
0
41
1
10
47.7904606167525
20
22.7079938768981
30
0
41
1
10
47.7154134620507
20
22.5637400512428
30
0
41
1
10
47.6233377479761
20
22.4269806316151
30
0
41
1
10
47.5477958518466
20
22.3271969175162
30
0
41
1
10
47.5215324110404
20
22.2944007245669
30
0
41
1
10
47.4667984633657
20
22.2297435135464
30
0
41
1
10
47.438326292129
20
22.1978932483057
30
0
41
1
10
47.2919944125425
20
22.0426817151546
30
0
41
1
10
47.1611695019259
20
21.9298957574952
30
0
41
1
10
46.9445968563384
20
21.7768511317241
30
0
41
1
10
46.8689922606623
20
21.7285451970687
30
0
41
1
10
46.7502711472178
20
21.6602140772109
30
0
41
1
10
46.709844927067
20
21.6381545915634
30
0
41
1
10
46.6281146930305
20
21.5958924682918
30
0
41
1
10
46.5867025897912
20
21.5756260945281
30
0
41
1
10
46.3769423094743
20
21.478527217176
30
0
41
1
10
46.2005725870889
20
21.4142649857984
30
0
41
1
10
45.9691828938765
20
21.3505784452111
30
0
41
1
10
45.9223536692983
20
21.3386812784113
30
0
41
1
10
45.8275664270308
20
21.3165975451745
30
0
41
1
10
45.7796991898383
20
21.3064383561481
30
0
41
1
10
45.636031536171
20
21.2788575225885
30
0
41
1
10
45.5396606139503
20
21.2642036457661
30
0
41
1
10
45.248806979632
20
21.2311384602251
30
0
41
1
10
45.052600194125
20
21.2235068151389
30
0
41
1
10
44.6553732970945
20
21.2382425063311
30
0
41
1
10
44.460778560565
20
21.2604056188941
30
0
41
1
10
44.1756267115272
20
21.314949353243
30
0
41
1
10
44.0816502113967
20
21.3367113929925
30
0
41
1
10
43.9423258317431
20
21.3748764822291
30
0
41
1
10
43.8960436414183
20
21.3885576213754
30
0
41
1
10
43.8046129784356
20
21.4176261304872
30
0
41
1
10
43.7595596974592
20
21.4329772103896
30
0
41
1
10
43.5375286417216
20
21.5137531842691
30
0
41
1
10
43.3701639220467
20
21.5911170033202
30
0
41
1
10
43.1735564053622
20
21.7040031223106
30
0
41
1
10
43.1348705852474
20
21.7273970778446
30
0
41
1
10
43.0587880951484
20
21.775856299536
30
0
41
1
10
43.0213190801289
20
21.8009779063106
30
0
41
1
10
42.9119921373409
20
21.8781161885084
30
0
41
1
10
42.8428821065767
20
21.9320880036395
30
0
41
1
10
42.6465213756528
20
22.1015753940927
30
0
41
1
10
42.5301329716938
20
22.2245888888947
30
0
41
1
10
42.4032648874635
20
22.3917621583841
30
0
41
1
10
42.3788270357453
20
22.4258928085994
30
0
41
1
10
42.3323642599926
20
22.4947776723481
30
0
41
1
10
42.3102675758272
20
22.5296223492165
30
0
41
1
10
42.2473265538152
20
22.6353598087954
30
0
41
1
10
42.172320069608
20
22.7795475900243
30
0
41
1
10
42.114957960041
20
22.9302267093735
30
0
41
1
10
42.0786784471626
20
23.0457608479826
30
0
41
1
10
42.0677109817175
20
23.0846936567025
30
0
41
1
10
42.0480742648968
20
23.1634254192172
30
0
41
1
10
42.03941469223
20
23.2032234359794
30
0
41
1
10
42.0023574030086
20
23.4021649742607
30
0
41
1
10
41.9920272343423
20
23.5629378803743
30
0
41
1
10
42.0050295939843
20
23.8065377781456
30
0
41
1
10
42.0141468957257
20
23.8881449212994
30
0
41
1
10
42.0352543433935
20
24.0111718769238
30
0
41
1
10
42.0435315469487
20
24.0522373098551
30
0
41
1
10
42.0623801703197
20
24.1336445775673
30
0
41
1
10
42.0729696399016
20
24.1741005197725
30
0
41
1
10
42.1316552723849
20
24.3751471399987
30
0
41
1
10
42.1968029365061
20
24.5320838144706
30
0
41
1
10
42.3221404039508
20
24.761196632369
30
0
41
1
10
42.3688445855837
20
24.8368789191745
30
0
41
1
10
42.4698434892857
20
24.9830315376722
30
0
41
1
10
42.524217135308
20
25.0537489491908
30
0
41
1
10
42.6987057582044
20
25.2588538218533
30
0
41
1
10
42.8302214771868
20
25.38638427348
30
0
41
1
10
43.1240712473223
20
25.6207653550762
30
0
41
1
10
43.2817575761937
20
25.7239467151369
30
0
41
1
10
43.5338089059101
20
25.8580192316556
30
0
41
1
10
43.620432267852
20
25.8992358590569
30
0
41
1
10
43.7543723691721
20
25.9556665691592
30
0
41
1
10
43.7998053797849
20
25.9736185501187
30
0
41
1
10
43.8914456054106
20
26.0074549008593
30
0
41
1
10
43.9375588784597
20
26.0233115808201
30
0
41
1
10
44.169562716706
20
26.0973721192974
30
0
41
1
10
44.3597246630337
20
26.1400479352715
30
0
41
1
10
44.6030979942975
20
26.1725783124784
30
0
41
1
10
44.6520587612243
20
26.1780348968424
30
0
41
1
10
44.7505622824525
20
26.1868105329882
30
0
41
1
10
44.8002430259897
20
26.190133118499
30
0
41
1
10
44.9488086234689
20
26.1967674337823
30
0
41
1
10
45.0473577865152
20
26.1967947131332
30
0
41
1
10
45.3415652808507
20
26.1840780499572
30
0
41
1
10
45.5357973662947
20
26.1586494093186
30
0
41
1
10
45.7761388480276
20
26.1052129643133
30
0
41
1
10
45.8241710358482
20
26.0934050089891
30
0
41
1
10
45.9189603571526
20
26.0678520926834
30
0
41
1
10
45.9658310889477
20
26.054086090947
30
0
41
1
10
46.1048991072765
20
26.0098811258048
30
0
41
1
10
46.2862124751586
20
25.9432026860785
30
0
41
1
10
46.4594140156708
20
25.8613723816341
30
0
41
1
10
46.586225472243
20
25.7942822896753
30
0
41
1
10
46.6279800878126
20
25.7709644070951
30
0
41
1
10
46.7104379127931
20
25.7223931712209
30
0
41
1
10
46.7511300231148
20
25.697138412249
30
0
41
1
10
46.9500338794413
20
25.5672229412676
30
0
41
1
10
47.0962785594393
20
25.4508449774795
30
0
41
1
10
47.2295085345386
20
25.3222669060434
30
0
0
SPLINE
5
41E
100
AcDbEntity
8
1
62
256
6
ByLayer
370
18
48
1
60
0
100
AcDbSpline
70
4
71
3
72
20
73
16
40
0
40
0
40
0
40
0
40
0.125
40
0.125
40
0.25
40
0.25
40
0.375
40
0.375
40
0.5
40
0.5
40
0.625
40
0.625
40
0.75
40
0.75
40
1
40
1
40
1
40
1
41
1
10
45.4113312895633
20
0.777074334993017
30
0
41
1
10
45.4050608422876
20
0.773294737717549
30
0
41
1
10
45.3978243262017
20
0.770114498361806
30
0
41
1
10
45.3814166422241
20
0.764960445733323
30
0
41
1
10
45.3722167909241
20
0.763005255781877
30
0
41
1
10
45.3527261583102
20
0.760472337891258
30
0
41
1
10
45.342343921254
20
0.759860184673869
30
0
41
1
10
45.3203460216436
20
0.759932950172299
30
0
41
1
10
45.3086609185934
20
0.760638666955401
30
0
41
1
10
45.2850637595476
20
0.763279523183826
30
0
41
1
10
45.2730397992559
20
0.765208664775685
30
0
41
1
10
45.2485772271638
20
0.770246341272014
30
0
41
1
10
45.2360272337862
20
0.773390160445615
30
0
41
1
10
45.1986698606509
20
0.784387858085097
30
0
41
1
10
45.1742977852951
20
0.793684311684046
30
0
41
1
10
45.1504612706418
20
0.804902779581141
30
0
0
SPLINE
5
41F
100
AcDbEntity
8
1
62
256
6
ByLayer
370
18
48
1
60
0
100
AcDbSpline
70
4
71
3
72
18
73
14
40
0
40
0
40
0
40
0
40
0.250000000000014
40
0.250000000000014
40
0.500000000000028
40
0.500000000000028
40
0.625000000000021
40
0.625000000000021
40
0.750000000000014
40
0.750000000000014
40
0.875000000000007
40
0.875000000000007
40
1
40
1
40
1
40
1
41
1
10
43.4391773050294
20
0.655236137117583
30
0
41
1
10
43.4176949658404
20
0.640087875864197
30
0
41
1
10
43.3951953102635
20
0.62662749947873
30
0
41
1
10
43.3486680445385
20
0.603526684400435
30
0
41
1
10
43.3252927647714
20
0.594219932193766
30
0
41
1
10
43.290976441109
20
0.58413285343363
30
0
41
1
10
43.2798730039008
20
0.581480654546567
30
0
41
1
10
43.2583683194363
20
0.577605531739096
30
0
41
1
10
43.2478705004075
20
0.576382100584794
30
0
41
1
10
43.228251734252
20
0.575510244968768
30
0
41
1
10
43.2191166313487
20
0.575841913794591
30
0
41
1
10
43.202226737359
20
0.578054408270248
30
0
41
1
10
43.1944382481978
20
0.579967683344137
30
0
41
1
10
43.1876795845417
20
0.582596684651719
30
0
0
SPLINE
5
420
100
AcDbEntity
8
1
62
256
6
ByLayer
370
18
48
1
60
0
100
AcDbSpline
70
4
71
3
72
16
73
12
40
0
40
0
40
0
40
0
40
0.125
40
0.125
40
0.25
40
0.25
40
0.5
40
0.5
40
0.75
40
0.75
40
1
40
1
40
1
40
1
41
1
10
45.1952660200773
20
1.14687023623253
30
0
41
1
10
45.1956754669854
20
1.15112123729733
30
0
41
1
10
45.196969976972
20
1.15468990044082
30
0
41
1
10
45.2012765799911
20
1.1605337701962
30
0
41
1
10
45.2043068301979
20
1.1628060400821
30
0
41
1
10
45.215667380635
20
1.16771017917739
30
0
41
1
10
45.226270763189
20
1.16852574995079
30
0
41
1
10
45.2529637162471
20
1.16630510007201
30
0
41
1
10
45.2689518815672
20
1.16325395713562
30
0
41
1
10
45.3047514493966
20
1.1544240424268
30
0
41
1
10
45.3246881949864
20
1.14862791002412
30
0
41
1
10
45.3466037743815
20
1.14170150307899
30
0
0
SPLINE
5
421
100
AcDbEntity
8
1
62
256
6
ByLayer
370
18
48
1
60
0
100
AcDbSpline
70
4
71
3
72
14
73
10
40
0
40
0
40
0
40
0
40
0.25
40
0.25
40
0.5
40
0.5
40
0.75
40
0.75
40
1
40
1
40
1
40
1
41
1
10
45.363197372334
20
0.933500882503608
30
0
41
1
10
45.3402938422449
20
0.952689013637496
30
0
41
1
10
45.3191771602801
20
0.971851945173057
30
0
41
1
10
45.2807208583823
20
1.0097950045145
30
0
41
1
10
45.2636446469909
20
1.02832624454692
30
0
41
1
10
45.2345142362953
20
1.06350020129571
30
0
41
1
10
45.2223077766134
20
1.08037906604898
30
0
41
1
10
45.2044518569226
20
1.11014767655985
30
0
41
1
10
45.1986500700195
20
1.12316380993309
30
0
41
1
10
45.1962958932493
20
1.13394837117778
30
0
0
SPLINE
5
422
100
AcDbEntity
8
1
62
256
6
ByLayer
370
18
48
1
60
0
100
AcDbSpline
70
4
71
3
72
18
73
14
40
0
40
0
40
0
40
0
40
0.249999999999994
40
0.249999999999994
40
0.499999999999988
40
0.499999999999988
40
0.624999999999991
40
0.624999999999991
40
0.749999999999994
40
0.749999999999994
40
0.874999999999997
40
0.874999999999997
40
1
40
1
40
1
40
1
41
1
10
45.363197372334
20
0.933500882503608
30
0
41
1
10
45.3809416986569
20
0.918635031735505
30
0
41
1
10
45.3961653741156
20
0.903651672595856
30
0
41
1
10
45.4206057635584
20
0.873569456315067
30
0
41
1
10
45.4294637118253
20
0.858890777237775
30
0
41
1
10
45.4367756050783
20
0.837802817588511
30
0
41
1
10
45.4381680357314
20
0.831057482277799
30
0
41
1
10
45.4388008735387
20
0.818120734114416
30
0
41
1
10
45.4380161271471
20
0.811872881087595
30
0
41
1
10
45.43419001082
20
0.800315018182005
30
0
41
1
10
45.4311774429173
20
0.794993279432902
30
0
41
1
10
45.4229074333017
20
0.785266459142235
30
0
41
1
10
45.4175872158144
20
0.780845179523681
30
0
41
1
10
45.4113312895633
20
0.777074334993017
30
0
0
SPLINE
5
423
100
AcDbEntity
8
1
62
256
6
ByLayer
370
18
48
1
60
0
100
AcDbSpline
70
4
71
3
72
20
73
16
40
0
40
0
40
0
40
0
40
0.125
40
0.125
40
0.25
40
0.25
40
0.375
40
0.375
40
0.5
40
0.5
40
0.625
40
0.625
40
0.75
40
0.75
40
1
40
1
40
1
40
1
41
1
10
43.1876795845417
20
0.582596684651719
30
0
41
1
10
43.1808886782031
20
0.585238227795742
30
0
41
1
10
43.1750455251438
20
0.588602531802906
30
0
41
1
10
43.1652548279322
20
0.596783440072954
30
0
41
1
10
43.1613345614155
20
0.601623881970625
30
0
41
1
10
43.1557043340388
20
0.612323607721351
30
0
41
1
10
43.1539299856189
20
0.618226748124869
30
0
41
1
10
43.1523968113968
20
0.6311309153308
30
0
41
1
10
43.1526660625515
20
0.638180465567643
30
0
41
1
10
43.1551266136877
20
0.652792392516972
30
0
41
1
10
43.1572998151934
20
0.660417841349727
30
0
41
1
10
43.1634105884031
20
0.676299191625958
30
0
41
1
10
43.1673944378897
20
0.684631286029457
30
0
41
1
10
43.181647750122
20
0.710017458814036
30
0
41
1
10
43.1940371850412
20
0.727329644106646
30
0
41
1
10
43.2090269679578
20
0.745099975233927
30
0
0
SPLINE
5
424
100
AcDbEntity
8
1
62
256
6
ByLayer
370
18
48
1
60
0
100
AcDbSpline
70
4
71
3
72
16
73
12
40
0
40
0
40
0
40
0
40
0.125000000000004
40
0.125000000000004
40
0.250000000000007
40
0.250000000000007
40
0.500000000000005
40
0.500000000000005
40
0.750000000000002
40
0.750000000000002
40
1
40
1
40
1
40
1
41
1
10
43.3399460546176
20
0.971594458461482
30
0
41
1
10
43.3396491634643
20
0.966066438316602
30
0
41
1
10
43.3385921879263
20
0.959802790597109
30
0
41
1
10
43.3349979535715
20
0.945876629728957
30
0
41
1
10
43.3324450859581
20
0.938188140285831
30
0
41
1
10
43.3228121864513
20
0.913682664890359
30
0
41
1
10
43.3137566989038
20
0.895305207021181
30
0
41
1
10
43.2907805875818
20
0.855355842364474
30
0
41
1
10
43.2769445909024
20
0.833989216316695
30
0
41
1
10
43.2457662448964
20
0.790388329474013
30
0
41
1
10
43.2283165127886
20
0.767967657897657
30
0
41
1
10
43.2090269679579
20
0.745099975233927
30
0
0
SPLINE
5
425
100
AcDbEntity
8
1
62
256
6
ByLayer
370
18
48
1
60
0
100
AcDbSpline
70
4
71
3
72
14
73
10
40
0
40
0
40
0
40
0
40
0.25
40
0.25
40
0.5
40
0.5
40
0.75
40
0.75
40
1
40
1
40
1
40
1
41
1
10
43.1924333700053
20
0.95330059580931
30
0
41
1
10
43.2127095514061
20
0.963921463885981
30
0
41
1
10
43.2313248942475
20
0.973137870153721
30
0
41
1
10
43.2651139465522
20
0.988147827689488
30
0
41
1
10
43.2800559438277
20
0.993830650747384
30
0
41
1
10
43.3054948240001
20
1.00053953617191
30
0
41
1
10
43.3161251618756
20
1.00154281012811
30
0
41
1
10
43.3317039574383
20
0.997609670805332
30
0
41
1
10
43.3367868368557
20
0.992750015773765
30
0
41
1
10
43.3389161814456
20
0.984516323516175
30
0
0
SPLINE
5
426
100
AcDbEntity
8
1
62
256
6
ByLayer
370
18
48
1
60
0
100
AcDbSpline
70
4
71
3
72
20
73
16
40
0
40
0
40
0
40
0
40
0.125
40
0.125
40
0.25
40
0.25
40
0.375
40
0.375
40
0.5
40
0.5
40
0.625
40
0.625
40
0.75
40
0.75
40
1
40
1
40
1
40
1
41
1
10
45.382236317245
20
1.14213026256402
30
0
41
1
10
45.3890272235836
20
1.13948871942
30
0
41
1
10
45.394782044787
20
1.13712659842514
30
0
41
1
10
45.4042182346565
20
1.13296780915567
30
0
41
1
10
45.4078695132985
20
1.13117921164468
30
0
41
1
10
45.4128073669527
20
1.12833492123815
30
0
41
1
10
45.4141568124319
20
1.12725258420846
30
0
41
1
10
45.4146828586285
20
1.1257749469691
30
0
41
1
10
45.4138264388127
20
1.12538721144796
30
0
41
1
10
45.4100819149827
20
1.12534279934175
30
0
41
1
10
45.4072073573188
20
1.1256746974945
30
0
41
1
10
45.3995763671096
20
1.12704120911849
30
0
41
1
10
45.394765720858
20
1.12808966790232
30
0
41
1
10
45.3779079000792
20
1.13225335789417
30
0
41
1
10
45.3636342320987
20
1.1363190361825
30
0
41
1
10
45.3466037743815
20
1.14170150307899
30
0
0
SPLINE
5
427
100
AcDbEntity
8
1
62
256
6
ByLayer
370
18
48
1
60
0
100
AcDbSpline
70
4
71
3
72
18
73
14
40
0
40
0
40
0
40
0
40
0.250000000000028
40
0.250000000000028
40
0.500000000000056
40
0.500000000000056
40
0.625000000000042
40
0.625000000000042
40
0.750000000000028
40
0.750000000000028
40
0.875000000000014
40
0.875000000000014
40
1
40
1
40
1
40
1
41
1
10
43.1924333700052
20
0.953300595809196
30
0
41
1
10
43.1767245610156
20
0.945072163412476
30
0
41
1
10
43.1633954323092
20
0.938560643362166
30
0
41
1
10
43.1424306538131
20
0.929209767103202
30
0
41
1
10
43.1351044739992
20
0.926509525441247
30
0
41
1
10
43.1297292805935
20
0.925624351309921
30
0
41
1
10
43.1289102230536
20
0.925864391470839
30
0
41
1
10
43.1292812933174
20
0.927411142170229
30
0
41
1
10
43.1304996515215
20
0.928739383942855
30
0
41
1
10
43.1350191680942
20
0.932430164924142
30
0
41
1
10
43.1382937441472
20
0.934779248852294
30
0
41
1
10
43.1469179222785
20
0.940487794350588
30
0
41
1
10
43.1523286859723
20
0.943881767692062
30
0
41
1
10
43.1585846122234
20
0.947652612222726
30
0
0
SPLINE
5
428
100
AcDbEntity
8
1
62
256
6
ByLayer
370
18
48
1
60
0
100
AcDbSpline
70
4
71
3
72
8
73
4
40
0
40
0
40
0
40
0
40
1
40
1
40
1
40
1
41
1
10
45.3704210242833
20
1.14661805565817
30
0
41
1
10
45.3746442038798
20
1.14504691979772
30
0
41
1
10
45.3786021928677
20
1.14354387303882
30
0
41
1
10
45.382236317245
20
1.14213026256402
30
0
0
SPLINE
5
429
100
AcDbEntity
8
1
62
256
6
ByLayer
370
18
48
1
60
0
100
AcDbSpline
70
4
71
3
72
28
73
24
40
0
40
0
40
0
40
0
40
0.125000000000024
40
0.125000000000024
40
0.250000000000048
40
0.250000000000048
40
0.31250000000006
40
0.31250000000006
40
0.375000000000072
40
0.375000000000072
40
0.500000000000074
40
0.500000000000074
40
0.562500000000058
40
0.562500000000058
40
0.625000000000043
40
0.625000000000043
40
0.75000000000003
40
0.75000000000003
40
0.812500000000015
40
0.812500000000015
40
0.875000000000001
40
0.875000000000001
40
1
40
1
40
1
40
1
41
1
10
43.4391773050273
20
0.655236137116049
30
0
41
1
10
43.4684882487249
20
0.675904735112169
30
0
41
1
10
43.4990569684675
20
0.695229314950836
30
0
41
1
10
43.561393729499
20
0.729558411387018
30
0
41
1
10
43.5932356404081
20
0.744655965245897
30
0
41
1
10
43.6423829534703
20
0.763328676668209
30
0
41
1
10
43.6590628851059
20
0.768892015489314
30
0
41
1
10
43.6921540540393
20
0.778222154290006
30
0
41
1
10
43.7086529272732
20
0.782028011568855
30
0
41
1
10
43.7580389806196
20
0.790639632307659
30
0
41
1
10
43.7911396276603
20
0.792523684185824
30
0
41
1
10
43.8376435447562
20
0.788955962582747
30
0
41
1
10
43.8527339304011
20
0.78673810533212
30
0
41
1
10
43.8820949220853
20
0.780274316988312
30
0
41
1
10
43.8964631011487
20
0.775988611606408
30
0
41
1
10
43.9375556366718
20
0.76039611780493
30
0
41
1
10
43.9620391641603
20
0.746568595566202
30
0
41
1
10
43.994954192365
20
0.721724485771972
30
0
41
1
10
44.0053296811802
20
0.712698924326276
30
0
41
1
10
44.0244629994567
20
0.693740254182785
30
0
41
1
10
44.0332591981831
20
0.683790675933835
30
0
41
1
10
44.0575178183964
20
0.652722266127967
30
0
41
1
10
44.0708709319592
20
0.630399321419134
30
0
41
1
10
44.0815660642786
20
0.606724321442812
30
0
0
SPLINE
5
42A
100
AcDbEntity
8
1
62
256
6
ByLayer
370
18
48
1
60
0
100
AcDbSpline
70
4
71
3
72
29
73
25
40
0
40
0
40
0
40
0
40
0.124999999999993
40
0.124999999999993
40
0.18749999999999
40
0.18749999999999
40
0.249999999999987
40
0.249999999999987
40
0.374999999999978
40
0.374999999999978
40
0.437499999999977
40
0.437499999999977
40
0.499999999999976
40
0.499999999999976
40
0.624999999999977
40
0.624999999999977
40
0.687499999999978
40
0.687499999999978
40
0.749999999999979
40
0.81249999999998
40
0.81249999999998
40
0.87499999999998
40
0.87499999999998
40
1
40
1
40
1
40
1
41
1
10
40.1805214835458
20
28.6059674341362
30
0
41
1
10
40.1827463559834
20
28.5564426850222
30
0
41
1
10
40.1897398474279
20
28.5079385619047
30
0
41
1
10
40.2072246509092
20
28.4366794220153
30
0
41
1
10
40.2142266828208
20
28.4131775957368
30
0
41
1
10
40.2306511826814
20
28.3666919883278
30
0
41
1
10
40.2400647335037
20
28.3437785425309
30
0
41
1
10
40.2713577608896
20
28.2772501966039
30
0
41
1
10
40.2964186408874
20
28.2353534015159
30
0
41
1
10
40.340376956015
20
28.1762315384504
30
0
41
1
10
40.3561819381616
20
28.1570597306771
30
0
41
1
10
40.3896248025805
20
28.1204645533459
30
0
41
1
10
40.4071636812415
20
28.1031288398402
30
0
41
1
10
40.4621700634243
20
28.0539336725151
30
0
41
1
10
40.5020046254835
20
28.0248594957064
30
0
41
1
10
40.566663938825
20
27.9870227662132
30
0
41
1
10
40.5889866443425
20
27.9754306833646
30
0
41
1
10
40.6342790920403
20
27.9547043004503
30
0
41
1
10
40.6804533829276
20
27.9362923121876
30
0
41
1
10
40.7283667578009
20
27.9224445443265
30
0
41
1
10
40.7771621959894
20
27.9109117488368
30
0
41
1
10
40.8021230334269
20
27.9062903033566
30
0
41
1
10
40.8772738394942
20
27.8961760564071
30
0
41
1
10
40.9277378349859
20
27.8943330284299
30
0
41
1
10
40.9785656028538
20
27.8973940403708
30
0
0
SPLINE
5
42B
100
AcDbEntity
8
1
62
256
6
ByLayer
370
18
48
1
60
0
100
AcDbSpline
70
4
71
3
72
20
73
16
40
0
40
0
40
0
40
0
40
0.162896224278153
40
0.162896224278153
40
0.325792448556305
40
0.325792448556305
40
0.488688672834458
40
0.488688672834458
40
0.65158489711261
40
0.65158489711261
40
0.814481121390763
40
0.814481121390763
40
0.977377345668916
40
0.977377345668916
40
1
40
1
40
1
40
1
41
1
10
46.8155261227894
20
38.7627858609758
30
0
41
1
10
46.8478626342431
20
38.7647332698793
30
0
41
1
10
46.8797409876397
20
38.7639241448878
30
0
41
1
10
46.9426246017002
20
38.7570528830706
30
0
41
1
10
46.973919807056
20
38.7508980023239
30
0
41
1
10
47.0341265603487
20
38.7334547178548
30
0
41
1
10
47.0628136071436
20
38.7222947240437
30
0
41
1
10
47.1174092639308
20
38.6951913833414
30
0
41
1
10
47.1435269339763
20
38.679045784305
30
0
41
1
10
47.1909519140583
20
38.6430479458327
30
0
41
1
10
47.2124670249738
20
38.6231514774875
30
0
41
1
10
47.2510613403522
20
38.5795279090047
30
0
41
1
10
47.268075800525
20
38.5557454002036
30
0
41
1
10
47.2840507202382
20
38.5275874627879
30
0
41
1
10
47.2859455929535
20
38.5241311943649
30
0
41
1
10
47.2877870401067
20
38.5206521925732
30
0
0
SPLINE
5
42C
100
AcDbEntity
8
1
62
256
6
ByLayer
370
18
48
1
60
0
100
AcDbSpline
70
4
71
3
72
20
73
16
40
0
40
0
40
0
40
0
40
0.11422883149345
40
0.11422883149345
40
0.261857359577875
40
0.261857359577875
40
0.4094858876623
40
0.4094858876623
40
0.557114415746725
40
0.557114415746725
40
0.70474294383115
40
0.70474294383115
40
0.852371471915575
40
0.852371471915575
40
1
40
1
40
1
40
1
41
1
10
40.41662130915
20
38.055641281381
30
0
41
1
10
40.4230161518839
20
38.0770334089053
30
0
41
1
10
40.4312285399911
20
38.0982162767397
30
0
41
1
10
40.4538976663405
20
38.1452594672828
30
0
41
1
10
40.46932472541
20
38.1705179890326
30
0
41
1
10
40.5053651111085
20
38.2185597732216
30
0
41
1
10
40.5262117673149
20
38.2415032536834
30
0
41
1
10
40.5715954270148
20
38.283093149274
30
0
41
1
10
40.596233134994
20
38.3019511363898
30
0
41
1
10
40.6494365258763
20
38.3357571365774
30
0
41
1
10
40.6779704251228
20
38.3506003237575
30
0
41
1
10
40.7366328407529
20
38.3750832839863
30
0
41
1
10
40.7670393813341
20
38.3849159137997
30
0
41
1
10
40.8300869152762
20
38.3995757812153
30
0
41
1
10
40.8621793194956
20
38.4042561356351
30
0
41
1
10
40.8945115397796
20
38.4062032861105
30
0
0
SPLINE
5
42D
100
AcDbEntity
8
1
62
256
6
ByLayer
370
18
48
1
60
0
100
AcDbSpline
70
4
71
3
72
29
73
25
40
0
40
0
40
0
40
0
40
0.125000000000011
40
0.125000000000011
40
0.187500000000017
40
0.187500000000017
40
0.250000000000022
40
0.250000000000022
40
0.375000000000017
40
0.375000000000017
40
0.437500000000015
40
0.437500000000015
40
0.500000000000013
40
0.500000000000013
40
0.625000000000005
40
0.625000000000005
40
0.687500000000004
40
0.687500000000004
40
0.750000000000003
40
0.812500000000003
40
0.812500000000003
40
0.875000000000002
40
0.875000000000002
40
1
40
1
40
1
40
1
41
1
10
48.467623260972
20
36.1399605151636
30
0
41
1
10
48.4676208967812
20
36.1769550783711
30
0
41
1
10
48.4628170878155
20
36.2131140826008
30
0
41
1
10
48.4485686595187
20
36.2661269987539
30
0
41
1
10
48.4426373394891
20
36.2835923034789
30
0
41
1
10
48.4283376018243
20
36.3180988033375
30
0
41
1
10
48.4199749293787
20
36.3350875460675
30
0
41
1
10
48.3917437651982
20
36.3843535420173
30
0
41
1
10
48.3686255500776
20
36.415297868379
30
0
41
1
10
48.327431753438
20
36.4588337687617
30
0
41
1
10
48.3125274172971
20
36.4729278622435
30
0
41
1
10
48.2808125326987
20
36.499780934714
30
0
41
1
10
48.2640967979032
20
36.51247587999
30
0
41
1
10
48.2114404368278
20
36.5484219620055
30
0
41
1
10
48.1730144751758
20
36.5695546497352
30
0
41
1
10
48.110222846689
20
36.5968616372234
30
0
41
1
10
48.0884791191967
20
36.6051895241782
30
0
41
1
10
48.0442363719021
20
36.6199978452727
30
0
41
1
10
47.9990105755002
20
36.6330623520275
30
0
41
1
10
47.9518461090981
20
36.6426878845532
30
0
41
1
10
47.9036983482
20
36.650569167448
30
0
41
1
10
47.8790116241334
20
36.6536452006661
30
0
41
1
10
47.8045160436905
20
36.6600653785852
30
0
41
1
10
47.7542705511224
20
36.6606765181053
30
0
41
1
10
47.7034427832545
20
36.6576155061644
30
0
0
SPLINE
5
42E
100
AcDbEntity
8
1
62
256
6
ByLayer
370
13
48
1
60
0
100
AcDbSpline
70
4
71
3
72
8
73
4
40
0
40
0
40
0
40
0
40
1
40
1
40
1
40
1
41
1
10
47.7034427832545
20
36.6576155061646
30
0
41
1
10
47.4074705630995
20
37.3593389577683
30
0
41
1
10
47.1114983429445
20
38.0610624093721
30
0
41
1
10
46.8155261227894
20
38.7627858609758
30
0
0
SPLINE
5
42F
100
AcDbEntity
8
1
62
256
6
ByLayer
370
18
48
1
60
0
100
AcDbSpline
70
4
71
3
72
28
73
24
40
0
40
0
40
0
40
0
40
0.124999999999988
40
0.124999999999988
40
0.18749999999999
40
0.18749999999999
40
0.249999999999991
40
0.249999999999991
40
0.374999999999996
40
0.374999999999996
40
0.437499999999985
40
0.437499999999985
40
0.499999999999973
40
0.499999999999973
40
0.62499999999998
40
0.62499999999998
40
0.749999999999987
40
0.749999999999987
40
0.81249999999999
40
0.81249999999999
40
0.874999999999993
40
0.874999999999993
40
1
40
1
40
1
40
1
41
1
10
40.7642687247789
20
36.2397160873198
30
0
41
1
10
40.7134512230852
20
36.236655693641
30
0
41
1
10
40.6634401094248
20
36.2300083043289
30
0
41
1
10
40.5896003632755
20
36.2148019957668
30
0
41
1
10
40.5651846595254
20
36.2088545017385
30
0
41
1
10
40.5167599958829
20
36.1951502253662
30
0
41
1
10
40.4928422757836
20
36.187407557621
30
0
41
1
10
40.4232412990538
20
36.1619700538008
30
0
41
1
10
40.3791904322963
20
36.1419515480226
30
0
41
1
10
40.3166491535976
20
36.1073200622168
30
0
41
1
10
40.2962873859724
20
36.0949265793696
30
0
41
1
10
40.257482147141
20
36.0689968511149
30
0
41
1
10
40.2390150013878
20
36.0554633595011
30
0
41
1
10
40.1863421243585
20
36.0132043298469
30
0
41
1
10
40.1548393283035
20
35.9828358131504
30
0
41
1
10
40.0992709021634
20
35.9175780998485
30
0
41
1
10
40.0760669119159
20
35.883687228091
30
0
41
1
10
40.0479035345308
20
35.8312198090777
30
0
41
1
10
40.0396231838683
20
35.8134475148636
30
0
41
1
10
40.0253104510527
20
35.7773281580853
30
0
41
1
10
40.0192755469421
20
35.7589316067333
30
0
41
1
10
40.0048935690585
20
35.7038617023526
30
0
41
1
10
40.0000906110283
20
35.6670096207085
30
0
41
1
10
40.0000882470614
20
35.6300182754186
30
0
0
SPLINE
5
430
100
AcDbEntity
8
1
62
256
6
ByLayer
370
13
48
1
60
0
100
AcDbSpline
70
4
71
3
72
8
73
4
40
0
40
0
40
0
40
0
40
1
40
1
40
1
40
1
41
1
10
40.8945115397796
20
38.4062032861105
30
0
41
1
10
40.8510972681127
20
37.6840408865136
30
0
41
1
10
40.8076829964458
20
36.9618784869167
30
0
41
1
10
40.7642687247788
20
36.2397160873198
30
0
0
SPLINE
5
431
100
AcDbEntity
8
1
62
256
6
ByLayer
370
18
48
1
60
0
100
AcDbSpline
70
4
71
3
72
28
73
24
40
0
40
0
40
0
40
0
40
0.125000000000016
40
0.125000000000016
40
0.187500000000017
40
0.187500000000017
40
0.250000000000019
40
0.250000000000019
40
0.375000000000015
40
0.375000000000015
40
0.43750000000002
40
0.43750000000002
40
0.500000000000025
40
0.500000000000025
40
0.62500000000001
40
0.62500000000001
40
0.749999999999996
40
0.749999999999996
40
0.812499999999997
40
0.812499999999997
40
0.874999999999998
40
0.874999999999998
40
1
40
1
40
1
40
1
41
1
10
40.7642687247789
20
-49.9832652244512
30
0
41
1
10
40.7134512230852
20
-49.9833816059934
30
0
41
1
10
40.6634401094248
20
-49.9784858822638
30
0
41
1
10
40.5896003632756
20
-49.9638271227812
30
0
41
1
10
40.5651846595254
20
-49.9577130287779
30
0
41
1
10
40.5167599958829
20
-49.9429567240886
30
0
41
1
10
40.4928422757836
20
-49.9343261836781
30
0
41
1
10
40.4232412990538
20
-49.9052060423195
30
0
41
1
10
40.3791904322962
20
-49.8813749126085
30
0
41
1
10
40.3166491535975
20
-49.838982216054
30
0
41
1
10
40.2962873859724
20
-49.8236389953945
30
0
41
1
10
40.2574821471409
20
-49.7912140805744
30
0
41
1
10
40.2390150013878
20
-49.7741382005813
30
0
41
1
10
40.1863421243585
20
-49.7203921567003
30
0
41
1
10
40.1548393283035
20
-49.6812272402568
30
0
41
1
10
40.0992709021634
20
-49.5960330590624
30
0
41
1
10
40.0760669119159
20
-49.5513061265233
30
0
41
1
10
40.0479035345308
20
-49.4814013332852
30
0
41
1
10
40.0396231838683
20
-49.457615064292
30
0
41
1
10
40.0253104510527
20
-49.4090587042193
30
0
41
1
10
40.0192755469421
20
-49.3842206264378
30
0
41
1
10
40.0048935690585
20
-49.309553928428
30
0
41
1
10
40.0000906110284
20
-49.2591767363868
30
0
41
1
10
40.0000882470614
20
-49.2081982010077
30
0
0
SPLINE
5
432
100
AcDbEntity
8
1
62
256
6
ByLayer
370
13
48
1
60
0
100
AcDbSpline
70
4
71
3
72
8
73
4
40
0
40
0
40
0
40
0
40
1
40
1
40
1
40
1
41
1
10
40.499999099956
20
-40.3909750466538
30
0
41
1
10
40.3935065611526
20
-40.7735147577626
30
0
41
1
10
40.2870140223492
20
-41.1560544688715
30
0
41
1
10
40.1805214835458
20
-41.5385941799802
30
0
0
SPLINE
5
433
100
AcDbEntity
8
1
62
256
6
ByLayer
370
18
48
1
60
0
100
AcDbSpline
70
4
71
3
72
14
73
10
40
0
40
0
40
0
40
0
40
0.317122630226407
40
0.317122630226407
40
0.634245260452813
40
0.634245260452813
40
0.95136789067922
40
0.95136789067922
40
1
40
1
40
1
40
1
41
1
10
40.3998989792158
20
-48.2433106023852
30
0
41
1
10
40.4006952360238
20
-48.2743971250712
30
0
41
1
10
40.4046061730843
20
-48.3048196354169
30
0
41
1
10
40.4183569909674
20
-48.3644006766529
30
0
41
1
10
40.4283371110725
20
-48.3938399598297
30
0
41
1
10
40.4538976663406
20
-48.4499292511484
30
0
41
1
10
40.46932472541
20
-48.4764169376973
30
0
41
1
10
40.4901083917711
20
-48.5052072962196
30
0
41
1
10
40.4929383367253
20
-48.5090032304306
30
0
41
1
10
40.4958312140869
20
-48.5127630549462
30
0
0
SPLINE
5
434
100
AcDbEntity
8
1
62
256
6
ByLayer
370
13
48
1
60
0
100
AcDbSpline
70
4
71
3
72
8
73
4
40
0
40
0
40
0
40
0
40
1
40
1
40
1
40
1
41
1
10
40.0000882470614
20
-49.2081982010077
30
0
41
1
10
40.1333584911129
20
-48.8865690014669
30
0
41
1
10
40.2666287351643
20
-48.564939801926
30
0
41
1
10
40.3998989792158
20
-48.2433106023852
30
0
0
SPLINE
5
435
100
AcDbEntity
8
1
62
256
6
ByLayer
370
18
48
1
60
0
100
AcDbSpline
70
4
71
3
72
29
73
25
40
0
40
0
40
0
40
0
40
0.124999999999991
40
0.124999999999991
40
0.187499999999986
40
0.187499999999986
40
0.249999999999981
40
0.249999999999981
40
0.374999999999988
40
0.374999999999988
40
0.437499999999991
40
0.437499999999991
40
0.499999999999994
40
0.499999999999994
40
0.624999999999988
40
0.624999999999988
40
0.68749999999999
40
0.68749999999999
40
0.749999999999992
40
0.812499999999994
40
0.812499999999994
40
0.874999999999996
40
0.874999999999996
40
1
40
1
40
1
40
1
41
1
10
48.467623260972
20
-49.1888059689791
30
0
41
1
10
48.4676208967812
20
-49.2397893422969
30
0
41
1
10
48.4628170878154
20
-49.2900307030435
30
0
41
1
10
48.4485686595187
20
-49.3643043669756
30
0
41
1
10
48.4426373394891
20
-49.3888796134569
30
0
41
1
10
48.4283376018244
20
-49.437653478729
30
0
41
1
10
48.4199749293787
20
-49.4617793215147
30
0
41
1
10
48.3917437651981
20
-49.5320817799767
30
0
41
1
10
48.3686255500776
20
-49.5766986082987
30
0
41
1
10
48.327431753438
20
-49.6402097957315
30
0
41
1
10
48.3125274172971
20
-49.660904355209
30
0
41
1
10
48.2808125326987
20
-49.7006160901236
30
0
41
1
10
48.2640967979032
20
-49.7195369328134
30
0
41
1
10
48.2114404368279
20
-49.7735659828911
30
0
41
1
10
48.1730144751758
20
-49.8059666632547
30
0
41
1
10
48.110222846689
20
-49.8489543421273
30
0
41
1
10
48.0884791191968
20
-49.8622856421894
30
0
41
1
10
48.0442363719022
20
-49.8864666348323
30
0
41
1
10
47.9990105755002
20
-49.9083282712018
30
0
41
1
10
47.9518461090981
20
-49.9256159077647
30
0
41
1
10
47.9036983482
20
-49.9405836090965
30
0
41
1
10
47.8790116241333
20
-49.946928187228
30
0
41
1
10
47.8045160436904
20
-49.9621293854575
30
0
41
1
10
47.7542705511224
20
-49.9672568185722
30
0
41
1
10
47.7034427832545
20
-49.9673732236259
30
0
0
SPLINE
5
436
100
AcDbEntity
8
1
62
256
6
ByLayer
370
13
48
1
60
0
100
AcDbSpline
70
4
71
3
72
8
73
4
40
0
40
0
40
0
40
0
40
1
40
1
40
1
40
1
41
1
10
40.8876086515226
20
-48.7722399536286
30
0
41
1
10
40.846495342608
20
-49.1759150439028
30
0
41
1
10
40.8053820336935
20
-49.579590134177
30
0
41
1
10
40.7642687247789
20
-49.9832652244512
30
0
0
SPLINE
5
437
100
AcDbEntity
8
1
62
256
6
ByLayer
370
13
48
1
60
0
100
AcDbSpline
70
4
71
3
72
8
73
4
40
0
40
0
40
0
40
0
40
1
40
1
40
1
40
1
41
1
10
47.9754961148582
20
-48.7722317657285
30
0
41
1
10
48.1395384968961
20
-48.9110898334787
30
0
41
1
10
48.3035808789341
20
-49.049947901229
30
0
41
1
10
48.467623260972
20
-49.1888059689791
30
0
0
SPLINE
5
438
100
AcDbEntity
8
1
62
256
6
ByLayer
370
13
48
1
60
0
100
AcDbSpline
70
4
71
3
72
8
73
4
40
0
40
0
40
0
40
0
40
1
40
1
40
1
40
1
41
1
10
47.7034427832545
20
-49.9673732236259
30
0
41
1
10
47.4263295839966
20
-49.5689949150834
30
0
41
1
10
47.1492163847388
20
-49.1706166065409
30
0
41
1
10
46.8721031854809
20
-48.7722382979983
30
0
0
SPLINE
5
439
100
AcDbEntity
8
1
62
256
6
ByLayer
370
18
48
1
60
0
100
AcDbSpline
70
2053
71
3
72
127
73
123
40
0
40
0
40
0
40
0
40
0.031249999999999
40
0.031249999999999
40
0.0468749999999989
40
0.0468749999999989
40
0.0624999999999987
40
0.0624999999999987
40
0.0937499999999982
40
0.0937499999999982
40
0.101562499999998
40
0.101562499999998
40
0.109374999999998
40
0.109374999999998
40
0.124999999999998
40
0.124999999999998
40
0.156249999999997
40
0.156249999999997
40
0.164062499999997
40
0.164062499999997
40
0.171874999999997
40
0.171874999999997
40
0.187499999999997
40
0.203124999999996
40
0.203124999999996
40
0.210937499999996
40
0.210937499999996
40
0.218749999999996
40
0.218749999999996
40
0.249999999999996
40
0.249999999999996
40
0.265624999999996
40
0.265624999999996
40
0.273437499999995
40
0.273437499999995
40
0.281249999999995
40
0.281249999999995
40
0.312499999999993
40
0.312499999999993
40
0.320312499999993
40
0.320312499999993
40
0.328124999999993
40
0.328124999999993
40
0.343749999999993
40
0.343749999999993
40
0.374999999999993
40
0.374999999999993
40
0.406249999999993
40
0.406249999999993
40
0.421874999999993
40
0.421874999999993
40
0.429687499999993
40
0.429687499999993
40
0.437499999999992
40
0.437499999999992
40
0.468749999999993
40
0.468749999999993
40
0.476562499999993
40
0.476562499999993
40
0.484374999999992
40
0.484374999999992
40
0.499999999999992
40
0.499999999999992
40
0.531249999999989
40
0.531249999999989
40
0.539062499999989
40
0.539062499999989
40
0.546874999999989
40
0.546874999999989
40
0.562499999999989
40
0.578124999999989
40
0.578124999999989
40
0.585937499999989
40
0.585937499999989
40
0.593749999999989
40
0.593749999999989
40
0.624999999999989
40
0.624999999999989
40
0.640624999999988
40
0.640624999999988
40
0.648437499999988
40
0.648437499999988
40
0.656249999999988
40
0.656249999999988
40
0.687499999999987
40
0.687499999999987
40
0.703124999999987
40
0.703124999999987
40
0.718749999999987
40
0.718749999999987
40
0.749999999999986
40
0.749999999999986
40
0.781249999999986
40
0.781249999999986
40
0.796874999999986
40
0.796874999999986
40
0.804687499999985
40
0.804687499999985
40
0.812499999999985
40
0.812499999999985
40
0.843749999999984
40
0.843749999999984
40
0.851562499999984
40
0.851562499999984
40
0.859374999999984
40
0.859374999999984
40
0.874999999999986
40
0.874999999999986
40
0.906249999999988
40
0.906249999999988
40
0.914062499999988
40
0.914062499999988
40
0.921874999999988
40
0.921874999999988
40
0.93749999999999
40
0.953124999999991
40
0.953124999999991
40
0.960937499999993
40
0.960937499999993
40
0.968749999999994
40
0.968749999999994
40
1
40
1
40
1
40
1
41
1
10
47.2295085345386
20
-4.09099940722864
30
0
41
1
10
47.3627385096378
20
-4.2333570040463
30
0
41
1
10
47.4791944212897
20
-4.38633536335652
30
0
41
1
10
47.6297421709249
20
-4.63134368457361
30
0
41
1
10
47.6758721144299
20
-4.71562178129943
30
0
41
1
10
47.7598404682979
20
-4.88955384722578
30
0
41
1
10
47.7977025784842
20
-4.97944240588254
30
0
41
1
10
47.8962695170376
20
-5.25133601312331
30
0
41
1
10
47.9431005860815
20
-5.43738418434219
30
0
41
1
10
47.9782909090087
20
-5.67595460122482
30
0
41
1
10
47.9841510810829
20
-5.72397161197984
30
0
41
1
10
47.9934792173407
20
-5.82062210921731
30
0
41
1
10
47.9969507689103
20
-5.86939229558357
30
0
41
1
10
48.0036506815575
20
-6.0153406125857
30
0
41
1
10
48.003216163749
20
-6.11224837776632
30
0
41
1
10
47.9876874951753
20
-6.40183718469376
30
0
41
1
10
47.9585031141204
20
-6.59339751969219
30
0
41
1
10
47.8979821021155
20
-6.83089199112192
30
0
41
1
10
47.8846359736775
20
-6.87836565394707
30
0
41
1
10
47.8557931541586
20
-6.97210589059097
30
0
41
1
10
47.840270865357
20
-7.01848912209459
30
0
41
1
10
47.7904606690241
20
-7.15620186027417
30
0
41
1
10
47.7154134620507
20
-7.33599373956719
30
0
41
1
10
47.6233377479761
20
-7.5082093826453
30
0
41
1
10
47.5477958518466
20
-7.63447129390261
30
0
41
1
10
47.5215324110404
20
-7.67607439700492
30
0
41
1
10
47.4667984633657
20
-7.75829096991669
30
0
41
1
10
47.4383262921291
20
-7.79889142321548
30
0
41
1
10
47.2919944125425
20
-7.99720111159763
30
0
41
1
10
47.1611695019259
20
-8.14278356450296
30
0
41
1
10
46.9445968563384
20
-8.34174610465789
30
0
41
1
10
46.8689922606623
20
-8.40480844076131
30
0
41
1
10
46.7502711472178
20
-8.49431615796999
30
0
41
1
10
46.709844927067
20
-8.52326603724572
30
0
41
1
10
46.6281146930305
20
-8.57881874217151
30
0
41
1
10
46.5867025897912
20
-8.60550499846556
30
0
41
1
10
46.3769423094743
20
-8.73355224785308
30
0
41
1
10
46.2005725870889
20
-8.81891548301854
30
0
41
1
10
45.9691828938765
20
-8.90377582696379
30
0
41
1
10
45.9223536692983
20
-8.91964596094277
30
0
41
1
10
45.8275664270308
20
-8.94912894121597
30
0
41
1
10
45.7796991898383
20
-8.96270527249862
30
0
41
1
10
45.636031536171
20
-8.99958823180236
30
0
41
1
10
45.5396606139503
20
-9.01921984127193
30
0
41
1
10
45.2488069796321
20
-9.06354356374317
30
0
41
1
10
45.052600194125
20
-9.07380415531719
30
0
41
1
10
44.6553732970945
20
-9.05402683101164
30
0
41
1
10
44.460778560565
20
-9.02426464109902
30
0
41
1
10
44.1756267115272
20
-8.95132316622306
30
0
41
1
10
44.0816502113967
20
-8.9222554282843
30
0
41
1
10
43.9423258317432
20
-8.87139842608258
30
0
41
1
10
43.8960436414183
20
-8.85318515011295
30
0
41
1
10
43.8046129784356
20
-8.81453556348134
30
0
41
1
10
43.7595596974592
20
-8.79414742866231
30
0
41
1
10
43.5375286417216
20
-8.68701363005187
30
0
41
1
10
43.3701639220468
20
-8.58483703473399
30
0
41
1
10
43.1735564053622
20
-8.4369540344635
30
0
41
1
10
43.1348705852474
20
-8.40636012652033
30
0
41
1
10
43.0587880951484
20
-8.34311093844855
30
0
41
1
10
43.0213190801289
20
-8.31038267112609
30
0
41
1
10
42.9119921373409
20
-8.21009450151223
30
0
41
1
10
42.8428821065767
20
-8.1401928233571
30
0
41
1
10
42.6465213756528
20
-7.92167264268409
30
0
41
1
10
42.5301329716938
20
-7.76432501368794
30
0
41
1
10
42.4032648874635
20
-7.5527689523833
30
0
41
1
10
42.3788270357453
20
-7.50968313502142
30
0
41
1
10
42.3323642599926
20
-7.42294869372779
30
0
41
1
10
42.3102675758272
20
-7.3791853539135
30
0
41
1
10
42.2473264104023
20
-7.24672998163163
30
0
41
1
10
42.172320069608
20
-7.06702085449609
30
0
41
1
10
42.1149579600411
20
-6.88120689887268
30
0
41
1
10
42.0786784471626
20
-6.73952398444311
30
0
41
1
10
42.0677109817175
20
-6.6919085433006
30
0
41
1
10
42.0480742648968
20
-6.59588726490267
30
0
41
1
10
42.0394146922301
20
-6.5474835944928
30
0
41
1
10
42.0023574030086
20
-6.30619929222343
30
0
41
1
10
41.9920272343423
20
-6.11335175139067
30
0
41
1
10
42.0050295939843
20
-5.82436213029928
30
0
41
1
10
42.0141468957257
20
-5.72807875257206
30
0
41
1
10
42.0352543433935
20
-5.58372069273287
30
0
41
1
10
42.0435315469487
20
-5.53566767466691
30
0
41
1
10
42.0623801703197
20
-5.44066411020884
30
0
41
1
10
42.0729696399017
20
-5.39357950719648
30
0
41
1
10
42.1316552723849
20
-5.16020551259834
30
0
41
1
10
42.1968029365059
20
-4.98000911207089
30
0
41
1
10
42.3221404039508
20
-4.71942566642787
30
0
41
1
10
42.3688445855837
20
-4.63378061542028
30
0
41
1
10
42.4698434892856
20
-4.46913939414151
30
0
41
1
10
42.524217135308
20
-4.38985779933086
30
0
41
1
10
42.6987057582044
20
-4.16086481504601
30
0
41
1
10
42.8302214771867
20
-4.01979255996332
30
0
41
1
10
43.1240712473223
20
-3.76223625411234
30
0
41
1
10
43.2817575761937
20
-3.64977069142589
30
0
41
1
10
43.5338089059101
20
-3.50430277686951
30
0
41
1
10
43.6204322678521
20
-3.45971492216955
30
0
41
1
10
43.7543723691721
20
-3.3987950806964
30
0
41
1
10
43.7998053797849
20
-3.37943835044365
30
0
41
1
10
43.8914456054106
20
-3.34298976747613
30
0
41
1
10
43.9375588784597
20
-3.32592758315849
30
0
41
1
10
44.169562716706
20
-3.24630307095515
30
0
41
1
10
44.3597246630336
20
-3.20063198934775
30
0
41
1
10
44.6030979942975
20
-3.16583794902715
30
0
41
1
10
44.6520587612243
20
-3.16000433073526
30
0
41
1
10
44.7505622824525
20
-3.15062421275854
30
0
41
1
10
44.8002430259897
20
-3.14707393571104
30
0
41
1
10
44.9488086234688
20
-3.13998546936398
30
0
41
1
10
45.0473577865152
20
-3.1399563620933
30
0
41
1
10
45.3415652808507
20
-3.15354342697913
30
0
41
1
10
45.5357973662946
20
-3.18069780883099
30
0
41
1
10
45.7761388480276
20
-3.23796846164078
30
0
41
1
10
45.8241710358482
20
-3.25063108252493
30
0
41
1
10
45.9189603571526
20
-3.2780565333112
30
0
41
1
10
45.9658310889477
20
-3.29284188471701
30
0
41
1
10
46.1048991072765
20
-3.34036530572843
30
0
41
1
10
46.2862124751586
20
-3.4121614826027
30
0
41
1
10
46.4594140156708
20
-3.50067144014207
30
0
41
1
10
46.586225472243
20
-3.57345395428763
30
0
41
1
10
46.6279800878126
20
-3.59878342195714
30
0
41
1
10
46.7104379127931
20
-3.65162664003816
30
0
41
1
10
46.7511300231148
20
-3.67914221245621
30
0
41
1
10
46.9500338794413
20
-3.82092212662178
30
0
41
1
10
47.0962785594394
20
-3.94864181041095
30
0
41
1
10
47.2295085345386
20
-4.09099940722864
30
0
0
SPLINE
5
43A
100
AcDbEntity
8
1
62
256
6
ByLayer
370
13
48
1
60
0
100
AcDbSpline
70
4
71
3
72
8
73
4
40
0
40
0
40
0
40
0
40
1
40
1
40
1
40
1
41
1
10
40.4999991597878
20
27.0800033262758
30
0
41
1
10
40.4635161844678
20
27.4292677184301
30
0
41
1
10
40.4270332091479
20
27.7785321105844
30
0
41
1
10
40.390550233828
20
28.1277965027387
30
0
0
SPLINE
5
43B
100
AcDbEntity
8
1
62
256
6
ByLayer
370
18
48
1
60
0
100
AcDbSpline
70
4
71
3
72
28
73
24
40
0
40
0
40
0
40
0
40
0.124999999999995
40
0.124999999999995
40
0.187499999999991
40
0.187499999999991
40
0.249999999999987
40
0.249999999999987
40
0.374999999999979
40
0.374999999999979
40
0.437499999999983
40
0.437499999999983
40
0.499999999999986
40
0.499999999999986
40
0.624999999999991
40
0.624999999999991
40
0.749999999999997
40
0.749999999999997
40
0.8125
40
0.8125
40
0.875000000000003
40
0.875000000000003
40
1
40
1
40
1
40
1
41
1
10
47.9177396613294
20
28.3152934592154
30
0
41
1
10
47.9685571630231
20
28.3183538528942
30
0
41
1
10
48.0183498654394
20
28.3262326137871
30
0
41
1
10
48.0915432232392
20
28.3450831680781
30
0
41
1
10
48.1156899588962
20
28.3525470660235
30
0
41
1
10
48.163466519251
20
28.3699052567034
30
0
41
1
10
48.1870056220047
20
28.3797825152802
30
0
41
1
10
48.2553302212996
20
28.4124160538373
30
0
41
1
10
48.2983378243115
20
28.4383163324734
30
0
41
1
10
48.3590248424141
20
28.4834018762215
30
0
41
1
10
48.378715723113
20
28.4995777242956
30
0
41
1
10
48.4161035946619
20
28.5334983680274
30
0
41
1
10
48.4338245111512
20
28.5512389942685
30
0
41
1
10
48.4841491884951
20
28.6067368403132
30
0
41
1
10
48.5139415307047
20
28.6467486529112
30
0
41
1
10
48.5657905554199
20
28.7329758233039
30
0
41
1
10
48.5870424564305
20
28.7778722969896
30
0
41
1
10
48.6121556757688
20
28.8475360739586
30
0
41
1
10
48.6193982894632
20
28.8711589818437
30
0
41
1
10
48.6315928852011
20
28.9192200946976
30
0
41
1
10
48.636544425219
20
28.9437244989701
30
0
41
1
10
48.6476700361231
20
29.0171533379881
30
0
41
1
10
48.650276431309
20
29.0663893290439
30
0
41
1
10
48.6480564974564
20
29.1159096738812
30
0
0
SPLINE
5
43C
100
AcDbEntity
8
1
62
256
6
ByLayer
370
18
48
1
60
0
100
AcDbSpline
70
4
71
3
72
20
73
16
40
0
40
0
40
0
40
0
40
0.218054409659024
40
0.218054409659024
40
0.327081614488536
40
0.327081614488536
40
0.436108819318047
40
0.436108819318047
40
0.654163228977071
40
0.654163228977071
40
0.763190433806583
40
0.763190433806583
40
0.872217638636095
40
0.872217638636095
40
1
40
1
40
1
40
1
41
1
10
40.1805214835458
20
41.5385941799802
30
0
41
1
10
40.1827463559834
20
41.4951062659002
30
0
41
1
10
40.1897398474279
20
41.4522496587477
30
0
41
1
10
40.2072246509092
20
41.3888907431902
30
0
41
1
10
40.2142266828208
20
41.3679264967034
30
0
41
1
10
40.2306511826814
20
41.3263184399054
30
0
41
1
10
40.2400647335037
20
41.3057367081699
30
0
41
1
10
40.2713577608896
20
41.2457604524926
30
0
41
1
10
40.2964186408874
20
41.2076953053272
30
0
41
1
10
40.340376956015
20
41.1535075189068
30
0
41
1
10
40.3561819381616
20
41.1358504084167
30
0
41
1
10
40.3896248025805
20
41.1019663244577
30
0
41
1
10
40.4071636812415
20
41.0858215530375
30
0
41
1
10
40.4469887185581
20
41.0524422330441
30
0
41
1
10
40.4695647188003
20
41.0354903723015
30
0
41
1
10
40.4932488780598
20
41.0196193194303
30
0
0
SPLINE
5
43D
100
AcDbEntity
8
1
62
256
6
ByLayer
370
18
48
1
60
0
100
AcDbSpline
70
4
71
3
72
18
73
14
40
0
40
0
40
0
40
0
40
0.125000000000002
40
0.125000000000002
40
0.250000000000004
40
0.250000000000004
40
0.375000000000006
40
0.375000000000006
40
0.500000000000007
40
0.500000000000007
40
0.750000000000004
40
0.750000000000004
40
1
40
1
40
1
40
1
41
1
10
48.9868161417692
20
-46.8722769964331
30
0
41
1
10
48.9723242528478
20
-46.8765304639791
30
0
41
1
10
48.9557247695121
20
-46.8823381995596
30
0
41
1
10
48.919935358631
20
-46.8947862970163
30
0
41
1
10
48.90071952002
20
-46.9014705571561
30
0
41
1
10
48.8616506389752
20
-46.9143448380699
30
0
41
1
10
48.8415845328152
20
-46.9206231996887
30
0
41
1
10
48.8005756927273
20
-46.9324419354648
30
0
41
1
10
48.7795599398614
20
-46.9380001450374
30
0
41
1
10
48.7163369618386
20
-46.9529658512503
30
0
41
1
10
48.6736854476816
20
-46.960749580287
30
0
41
1
10
48.5875026173021
20
-46.9712492237897
30
0
41
1
10
48.5439704259503
20
-46.9739747467504
30
0
41
1
10
48.5000000000016
20
-46.9739747467505
30
0
0
SPLINE
5
43E
100
AcDbEntity
8
1
62
256
6
ByLayer
370
18
48
1
60
0
100
AcDbSpline
70
4
71
3
72
10
73
6
40
0
40
0
40
0
40
0
40
0.5
40
0.5
40
1
40
1
40
1
40
1
41
1
10
49.2633404146229
20
-46.7514736894442
30
0
41
1
10
49.2292589050628
20
-46.7730362079835
30
0
41
1
10
49.1905080596328
20
-46.7940790319864
30
0
41
1
10
49.0998776816053
20
-46.8347034642686
30
0
41
1
10
49.0477431177785
20
-46.8543945163412
30
0
41
1
10
48.9868161417696
20
-46.8722769964331
30
0
0
SPLINE
5
43F
100
AcDbEntity
8
1
62
256
6
ByLayer
370
18
48
1
60
0
100
AcDbSpline
70
4
71
1
72
4
73
2
40
0
40
0
40
1
40
1
41
1
10
40.2180560333102
20
41.3584741825775
30
0
41
1
10
40.4999940431545
20
40.3571636917101
30
0
0
SPLINE
5
440
100
AcDbEntity
8
1
62
256
6
ByLayer
370
18
48
1
60
0
100
AcDbSpline
70
4
71
1
72
4
73
2
40
0
40
0
40
1
40
1
41
1
10
48.467556847171
20
1.92113031087979
30
0
41
1
10
47.3316177533528
20
6.03673707022091
30
0
0
SPLINE
5
441
100
AcDbEntity
8
1
62
256
6
ByLayer
370
18
48
1
60
0
100
AcDbSpline
70
4
71
1
72
4
73
2
40
0
40
0
40
1
40
1
41
1
10
40.3999339482885
20
5.4298245872418
30
0
41
1
10
40.000095144534
20
1.18035537743344
30
0
0
SPLINE
5
442
100
AcDbEntity
8
1
62
256
6
ByLayer
370
18
48
1
60
0
100
AcDbSpline
70
4
71
1
72
4
73
2
40
0
40
0
40
1
40
1
41
1
10
40.0218021334788
20
-35.7657275833361
30
0
41
1
10
40.4167193640911
20
-38.0561964722776
30
0
0
SPLINE
5
443
100
AcDbEntity
8
1
62
256
6
ByLayer
370
18
48
1
60
0
100
AcDbSpline
70
4
71
1
72
4
73
2
40
0
40
0
40
1
40
1
41
1
10
48.4176736818091
20
36.3386377329885
30
0
41
1
10
47.2878525904397
20
38.5205353318221
30
0
0
SPLINE
5
444
100
AcDbEntity
8
1
62
256
6
ByLayer
370
18
48
1
60
0
100
AcDbSpline
70
4
71
1
72
4
73
2
40
0
40
0
40
1
40
1
41
1
10
40.4167193640911
20
38.0561964722776
30
0
41
1
10
40.0218021334789
20
35.765727583336
30
0
0
SPLINE
5
445
100
AcDbEntity
8
1
62
256
6
ByLayer
370
18
48
1
60
0
100
AcDbSpline
70
4
71
1
72
4
73
2
40
0
40
0
40
1
40
1
41
1
10
40.4999940431545
20
-40.3571636917101
30
0
41
1
10
40.2180560333102
20
-41.3584741825775
30
0
0
LINE
5
7B
100
AcDbEntity
8
1
62
256
6
ByLayer
370
18
48
1
60
0
100
AcDbLine
10
45.866025
20
-6.888362
30
0
11
44.133975
21
-6.888362
31
0
39
0
210
0
220
0
230
1
0
LINE
5
7C
100
AcDbEntity
8
1
62
256
6
ByLayer
370
18
48
1
60
0
100
AcDbLine
10
44.133975
20
-7.422838
30
0
11
44.133975
21
-6.888362
31
0
39
0
210
0
220
0
230
1
0
LINE
5
7D
100
AcDbEntity
8
1
62
256
6
ByLayer
370
18
48
1
60
0
100
AcDbLine
10
43.428069
20
-5.710165
30
0
11
44.133975
21
-6.888362
31
0
39
0
210
0
220
0
230
1
0
LINE
5
7E
100
AcDbEntity
8
1
62
256
6
ByLayer
370
18
48
1
60
0
100
AcDbLine
10
49.525
20
-11.166024
30
0
11
49.525
21
-11.104605
31
0
39
0
210
0
220
0
230
1
0
LINE
5
7F
100
AcDbEntity
8
1
62
256
6
ByLayer
370
18
48
1
60
0
100
AcDbLine
10
49.525
20
-10.997617
30
0
11
49.525
21
-11.104605
31
0
39
0
210
0
220
0
230
1
0
LINE
5
80
100
AcDbEntity
8
1
62
256
6
ByLayer
370
18
48
1
60
0
100
AcDbLine
10
49.525
20
-10.770613
30
0
11
49.525
21
-10.997617
31
0
39
0
210
0
220
0
230
1
0
LINE
5
81
100
AcDbEntity
8
1
62
256
6
ByLayer
370
13
48
1
60
0
100
AcDbLine
10
49.525
20
-11.566882
30
0
11
49.499899
21
-11.566882
31
0
39
0
210
0
220
0
230
1
0
LINE
5
82
100
AcDbEntity
8
1
62
256
6
ByLayer
370
18
48
1
60
0
100
AcDbLine
10
49.525
20
-10.770622
30
0
11
49.525
21
-10.765167
31
0
39
0
210
0
220
0
230
1
0
LINE
5
83
100
AcDbEntity
8
1
62
256
6
ByLayer
370
13
48
1
60
0
100
AcDbLine
10
49.525
20
-11.505462
30
0
11
49.499899
21
-11.505462
31
0
39
0
210
0
220
0
230
1
0
LINE
5
84
100
AcDbEntity
8
1
62
256
6
ByLayer
370
13
48
1
60
0
100
AcDbLine
10
49.525
20
-11.398475
30
0
11
49.499899
21
-11.398475
31
0
39
0
210
0
220
0
230
1
0
LINE
5
85
100
AcDbEntity
8
1
62
256
6
ByLayer
370
18
48
1
60
0
100
AcDbLine
10
49.525
20
-10.703747
30
0
11
49.525
21
-10.765167
31
0
39
0
210
0
220
0
230
1
0
LINE
5
86
100
AcDbEntity
8
1
62
256
6
ByLayer
370
18
48
1
60
0
100
AcDbLine
10
49.525
20
-10.703747
30
0
11
49.525
21
-10.59676
31
0
39
0
210
0
220
0
230
1
0
LINE
5
87
100
AcDbEntity
8
1
62
256
6
ByLayer
370
18
48
1
60
0
100
AcDbLine
10
49.525
20
-10.59676
30
0
11
49.525
21
-10.369755
31
0
39
0
210
0
220
0
230
1
0
LINE
5
88
100
AcDbEntity
8
1
62
256
6
ByLayer
370
13
48
1
60
0
100
AcDbLine
10
49.525
20
-11.166024
30
0
11
49.499899
21
-11.166024
31
0
39
0
210
0
220
0
230
1
0
LINE
5
89
100
AcDbEntity
8
1
62
256
6
ByLayer
370
18
48
1
60
0
100
AcDbLine
10
49.525
20
-10.364309
30
0
11
49.525
21
-10.369764
31
0
39
0
210
0
220
0
230
1
0
LINE
5
8A
100
AcDbEntity
8
1
62
256
6
ByLayer
370
13
48
1
60
0
100
AcDbLine
10
49.525
20
-11.104605
30
0
11
49.499899
21
-11.104605
31
0
39
0
210
0
220
0
230
1
0
LINE
5
8B
100
AcDbEntity
8
1
62
256
6
ByLayer
370
13
48
1
60
0
100
AcDbLine
10
49.525
20
-10.997617
30
0
11
49.499899
21
-10.997617
31
0
39
0
210
0
220
0
230
1
0
LINE
5
8C
100
AcDbEntity
8
1
62
256
6
ByLayer
370
18
48
1
60
0
100
AcDbLine
10
49.525
20
-10.364309
30
0
11
49.525
21
-10.30289
31
0
39
0
210
0
220
0
230
1
0
LINE
5
8D
100
AcDbEntity
8
1
62
256
6
ByLayer
370
18
48
1
60
0
100
AcDbLine
10
49.525
20
-10.195902
30
0
11
49.525
21
-10.30289
31
0
39
0
210
0
220
0
230
1
0
LINE
5
8E
100
AcDbEntity
8
1
62
256
6
ByLayer
370
18
48
1
60
0
100
AcDbLine
10
49.525
20
-9.968898
30
0
11
49.525
21
-10.195902
31
0
39
0
210
0
220
0
230
1
0
LINE
5
8F
100
AcDbEntity
8
1
62
256
6
ByLayer
370
13
48
1
60
0
100
AcDbLine
10
49.525
20
-10.765167
30
0
11
49.499899
21
-10.765167
31
0
39
0
210
0
220
0
230
1
0
LINE
5
90
100
AcDbEntity
8
1
62
256
6
ByLayer
370
18
48
1
60
0
100
AcDbLine
10
49.525
20
-9.968907
30
0
11
49.525
21
-9.963451
31
0
39
0
210
0
220
0
230
1
0
LINE
5
91
100
AcDbEntity
8
1
62
256
6
ByLayer
370
13
48
1
60
0
100
AcDbLine
10
49.525
20
-10.703747
30
0
11
49.499899
21
-10.703747
31
0
39
0
210
0
220
0
230
1
0
LINE
5
92
100
AcDbEntity
8
1
62
256
6
ByLayer
370
13
48
1
60
0
100
AcDbLine
10
49.525
20
-10.59676
30
0
11
49.499899
21
-10.59676
31
0
39
0
210
0
220
0
230
1
0
LINE
5
93
100
AcDbEntity
8
1
62
256
6
ByLayer
370
18
48
1
60
0
100
AcDbLine
10
49.525
20
-9.963451
30
0
11
49.525
21
-9.902032
31
0
39
0
210
0
220
0
230
1
0
LINE
5
94
100
AcDbEntity
8
1
62
256
6
ByLayer
370
18
48
1
60
0
100
AcDbLine
10
49.525
20
-9.902032
30
0
11
49.525
21
-9.795045
31
0
39
0
210
0
220
0
230
1
0
LINE
5
95
100
AcDbEntity
8
1
62
256
6
ByLayer
370
18
48
1
60
0
100
AcDbLine
10
49.525
20
-9.795045
30
0
11
49.525
21
-9.56804
31
0
39
0
210
0
220
0
230
1
0
LINE
5
96
100
AcDbEntity
8
1
62
256
6
ByLayer
370
13
48
1
60
0
100
AcDbLine
10
49.525
20
-10.364309
30
0
11
49.499993
21
-10.364309
31
0
39
0
210
0
220
0
230
1
0
LINE
5
97
100
AcDbEntity
8
1
62
256
6
ByLayer
370
18
48
1
60
0
100
AcDbLine
10
49.525
20
-9.562594
30
0
11
49.525
21
-9.568049
31
0
39
0
210
0
220
0
230
1
0
LINE
5
98
100
AcDbEntity
8
1
62
256
6
ByLayer
370
13
48
1
60
0
100
AcDbLine
10
49.525
20
-10.30289
30
0
11
49.499938
21
-10.30289
31
0
39
0
210
0
220
0
230
1
0
LINE
5
99
100
AcDbEntity
8
1
62
256
6
ByLayer
370
13
48
1
60
0
100
AcDbLine
10
49.525
20
-10.195902
30
0
11
49.499953
21
-10.195902
31
0
39
0
210
0
220
0
230
1
0
LINE
5
9A
100
AcDbEntity
8
1
62
256
6
ByLayer
370
18
48
1
60
0
100
AcDbLine
10
49.525
20
-9.562594
30
0
11
49.525
21
-9.501175
31
0
39
0
210
0
220
0
230
1
0
LINE
5
9B
100
AcDbEntity
8
1
62
256
6
ByLayer
370
18
48
1
60
0
100
AcDbLine
10
49.525
20
-9.394187
30
0
11
49.525
21
-9.501175
31
0
39
0
210
0
220
0
230
1
0
LINE
5
9C
100
AcDbEntity
8
1
62
256
6
ByLayer
370
18
48
1
60
0
100
AcDbLine
10
49.525
20
-9.167182
30
0
11
49.525
21
-9.394187
31
0
39
0
210
0
220
0
230
1
0
LINE
5
9D
100
AcDbEntity
8
1
62
256
6
ByLayer
370
13
48
1
60
0
100
AcDbLine
10
49.525
20
-9.963451
30
0
11
49.49999
21
-9.963451
31
0
39
0
210
0
220
0
230
1
0
LINE
5
9E
100
AcDbEntity
8
1
62
256
6
ByLayer
370
18
48
1
60
0
100
AcDbLine
10
49.525
20
-9.167192
30
0
11
49.525
21
-9.161736
31
0
39
0
210
0
220
0
230
1
0
LINE
5
9F
100
AcDbEntity
8
1
62
256
6
ByLayer
370
13
48
1
60
0
100
AcDbLine
10
49.525
20
-9.902032
30
0
11
49.499996
21
-9.902032
31
0
39
0
210
0
220
0
230
1
0
LINE
5
A0
100
AcDbEntity
8
1
62
256
6
ByLayer
370
13
48
1
60
0
100
AcDbLine
10
49.525
20
-9.795045
30
0
11
49.499999
21
-9.795045
31
0
39
0
210
0
220
0
230
1
0
LINE
5
A1
100
AcDbEntity
8
1
62
256
6
ByLayer
370
18
48
1
60
0
100
AcDbLine
10
49.525
20
-9.100317
30
0
11
49.525
21
-9.161736
31
0
39
0
210
0
220
0
230
1
0
LINE
5
A2
100
AcDbEntity
8
1
62
256
6
ByLayer
370
18
48
1
60
0
100
AcDbLine
10
49.525
20
-9.100317
30
0
11
49.525
21
-8.99333
31
0
39
0
210
0
220
0
230
1
0
LINE
5
A3
100
AcDbEntity
8
1
62
256
6
ByLayer
370
18
48
1
60
0
100
AcDbLine
10
49.525
20
-8.99333
30
0
11
49.525
21
-8.766325
31
0
39
0
210
0
220
0
230
1
0
LINE
5
A4
100
AcDbEntity
8
1
62
256
6
ByLayer
370
13
48
1
60
0
100
AcDbLine
10
49.525
20
-9.562594
30
0
11
49.499899
21
-9.562594
31
0
39
0
210
0
220
0
230
1
0
LINE
5
A5
100
AcDbEntity
8
1
62
256
6
ByLayer
370
18
48
1
60
0
100
AcDbLine
10
49.525
20
-8.760879
30
0
11
49.525
21
-8.766334
31
0
39
0
210
0
220
0
230
1
0
LINE
5
A6
100
AcDbEntity
8
1
62
256
6
ByLayer
370
13
48
1
60
0
100
AcDbLine
10
49.525
20
-9.501175
30
0
11
49.499899
21
-9.501175
31
0
39
0
210
0
220
0
230
1
0
LINE
5
A7
100
AcDbEntity
8
1
62
256
6
ByLayer
370
13
48
1
60
0
100
AcDbLine
10
49.525
20
-9.394187
30
0
11
49.499899
21
-9.394187
31
0
39
0
210
0
220
0
230
1
0
LINE
5
A8
100
AcDbEntity
8
1
62
256
6
ByLayer
370
18
48
1
60
0
100
AcDbLine
10
49.525
20
-8.760879
30
0
11
49.525
21
-8.69946
31
0
39
0
210
0
220
0
230
1
0
LINE
5
A9
100
AcDbEntity
8
1
62
256
6
ByLayer
370
18
48
1
60
0
100
AcDbLine
10
49.525
20
-8.592472
30
0
11
49.525
21
-8.69946
31
0
39
0
210
0
220
0
230
1
0
LINE
5
AA
100
AcDbEntity
8
1
62
256
6
ByLayer
370
18
48
1
60
0
100
AcDbLine
10
49.525
20
-8.365467
30
0
11
49.525
21
-8.592472
31
0
39
0
210
0
220
0
230
1
0
LINE
5
AB
100
AcDbEntity
8
1
62
256
6
ByLayer
370
13
48
1
60
0
100
AcDbLine
10
49.525
20
-9.161736
30
0
11
49.499899
21
-9.161736
31
0
39
0
210
0
220
0
230
1
0
LINE
5
AC
100
AcDbEntity
8
1
62
256
6
ByLayer
370
18
48
1
60
0
100
AcDbLine
10
49.525
20
-8.365477
30
0
11
49.525
21
-8.360021
31
0
39
0
210
0
220
0
230
1
0
LINE
5
AD
100
AcDbEntity
8
1
62
256
6
ByLayer
370
13
48
1
60
0
100
AcDbLine
10
49.525
20
-9.100317
30
0
11
49.499899
21
-9.100317
31
0
39
0
210
0
220
0
230
1
0
LINE
5
AE
100
AcDbEntity
8
1
62
256
6
ByLayer
370
13
48
1
60
0
100
AcDbLine
10
49.525
20
-8.99333
30
0
11
49.499899
21
-8.99333
31
0
39
0
210
0
220
0
230
1
0
LINE
5
AF
100
AcDbEntity
8
1
62
256
6
ByLayer
370
18
48
1
60
0
100
AcDbLine
10
49.525
20
-8.360021
30
0
11
49.525
21
-8.298602
31
0
39
0
210
0
220
0
230
1
0
LINE
5
B0
100
AcDbEntity
8
1
62
256
6
ByLayer
370
18
48
1
60
0
100
AcDbLine
10
49.525
20
-8.298602
30
0
11
49.525
21
-8.191614
31
0
39
0
210
0
220
0
230
1
0
LINE
5
B1
100
AcDbEntity
8
1
62
256
6
ByLayer
370
18
48
1
60
0
100
AcDbLine
10
49.525
20
-8.191614
30
0
11
49.525
21
-7.96461
31
0
39
0
210
0
220
0
230
1
0
LINE
5
B2
100
AcDbEntity
8
1
62
256
6
ByLayer
370
13
48
1
60
0
100
AcDbLine
10
49.525
20
-8.760879
30
0
11
49.499899
21
-8.760879
31
0
39
0
210
0
220
0
230
1
0
LINE
5
B3
100
AcDbEntity
8
1
62
256
6
ByLayer
370
18
48
1
60
0
100
AcDbLine
10
49.525
20
-7.959164
30
0
11
49.525
21
-7.964619
31
0
39
0
210
0
220
0
230
1
0
LINE
5
B4
100
AcDbEntity
8
1
62
256
6
ByLayer
370
13
48
1
60
0
100
AcDbLine
10
49.525
20
-8.69946
30
0
11
49.499899
21
-8.69946
31
0
39
0
210
0
220
0
230
1
0
LINE
5
B5
100
AcDbEntity
8
1
62
256
6
ByLayer
370
13
48
1
60
0
100
AcDbLine
10
49.525
20
-8.592472
30
0
11
49.499899
21
-8.592472
31
0
39
0
210
0
220
0
230
1
0
LINE
5
B6
100
AcDbEntity
8
1
62
256
6
ByLayer
370
18
48
1
60
0
100
AcDbLine
10
49.525
20
-7.959164
30
0
11
49.525
21
-7.897744
31
0
39
0
210
0
220
0
230
1
0
LINE
5
B7
100
AcDbEntity
8
1
62
256
6
ByLayer
370
18
48
1
60
0
100
AcDbLine
10
49.525
20
-7.790757
30
0
11
49.525
21
-7.897744
31
0
39
0
210
0
220
0
230
1
0
LINE
5
B8
100
AcDbEntity
8
1
62
256
6
ByLayer
370
18
48
1
60
0
100
AcDbLine
10
49.525
20
-7.563752
30
0
11
49.525
21
-7.790757
31
0
39
0
210
0
220
0
230
1
0
LINE
5
B9
100
AcDbEntity
8
1
62
256
6
ByLayer
370
13
48
1
60
0
100
AcDbLine
10
49.525
20
-8.360021
30
0
11
49.499899
21
-8.360021
31
0
39
0
210
0
220
0
230
1
0
LINE
5
BA
100
AcDbEntity
8
1
62
256
6
ByLayer
370
18
48
1
60
0
100
AcDbLine
10
49.525
20
-7.563762
30
0
11
49.525
21
-7.558306
31
0
39
0
210
0
220
0
230
1
0
LINE
5
BB
100
AcDbEntity
8
1
62
256
6
ByLayer
370
13
48
1
60
0
100
AcDbLine
10
49.525
20
-8.298602
30
0
11
49.499899
21
-8.298602
31
0
39
0
210
0
220
0
230
1
0
LINE
5
BC
100
AcDbEntity
8
1
62
256
6
ByLayer
370
13
48
1
60
0
100
AcDbLine
10
49.525
20
-8.191614
30
0
11
49.499899
21
-8.191614
31
0
39
0
210
0
220
0
230
1
0
LINE
5
BD
100
AcDbEntity
8
1
62
256
6
ByLayer
370
18
48
1
60
0
100
AcDbLine
10
49.525
20
-7.496887
30
0
11
49.525
21
-7.558306
31
0
39
0
210
0
220
0
230
1
0
LINE
5
BE
100
AcDbEntity
8
1
62
256
6
ByLayer
370
18
48
1
60
0
100
AcDbLine
10
49.525
20
-7.496887
30
0
11
49.525
21
-7.389899
31
0
39
0
210
0
220
0
230
1
0
LINE
5
BF
100
AcDbEntity
8
1
62
256
6
ByLayer
370
18
48
1
60
0
100
AcDbLine
10
49.525
20
-7.389899
30
0
11
49.525
21
-7.162895
31
0
39
0
210
0
220
0
230
1
0
LINE
5
C0
100
AcDbEntity
8
1
62
256
6
ByLayer
370
13
48
1
60
0
100
AcDbLine
10
49.525
20
-7.959164
30
0
11
49.499899
21
-7.959164
31
0
39
0
210
0
220
0
230
1
0
LINE
5
C1
100
AcDbEntity
8
1
62
256
6
ByLayer
370
18
48
1
60
0
100
AcDbLine
10
49.525
20
-2.133314
30
0
11
49.525
21
-2.244607
31
0
39
0
210
0
220
0
230
1
0
LINE
5
C2
100
AcDbEntity
8
1
62
256
6
ByLayer
370
13
48
1
60
0
100
AcDbLine
10
49.525
20
-7.897744
30
0
11
49.499899
21
-7.897744
31
0
39
0
210
0
220
0
230
1
0
LINE
5
C3
100
AcDbEntity
8
1
62
256
6
ByLayer
370
18
48
1
60
0
100
AcDbLine
10
49.525
20
-7.157449
30
0
11
49.525
21
-7.162904
31
0
39
0
210
0
220
0
230
1
0
LINE
5
C4
100
AcDbEntity
8
1
62
256
6
ByLayer
370
13
48
1
60
0
100
AcDbLine
10
49.525
20
-7.790757
30
0
11
49.499899
21
-7.790757
31
0
39
0
210
0
220
0
230
1
0
LINE
5
C5
100
AcDbEntity
8
1
62
256
6
ByLayer
370
18
48
1
60
0
100
AcDbLine
10
49.525
20
-1.728801
30
0
11
49.525
21
-2.133314
31
0
39
0
210
0
220
0
230
1
0
LINE
5
C6
100
AcDbEntity
8
1
62
256
6
ByLayer
370
18
48
1
60
0
100
AcDbLine
10
49.499899
20
-2.133314
30
0
11
49.525
21
-2.133314
31
0
39
0
210
0
220
0
230
1
0
LINE
5
C7
100
AcDbEntity
8
1
62
256
6
ByLayer
370
13
48
1
60
0
100
AcDbLine
10
49.525
20
-7.558306
30
0
11
49.499899
21
-7.558306
31
0
39
0
210
0
220
0
230
1
0
LINE
5
C8
100
AcDbEntity
8
1
62
256
6
ByLayer
370
18
48
1
60
0
100
AcDbLine
10
49.525
20
-7.157449
30
0
11
49.525
21
-7.096029
31
0
39
0
210
0
220
0
230
1
0
LINE
5
C9
100
AcDbEntity
8
1
62
256
6
ByLayer
370
13
48
1
60
0
100
AcDbLine
10
49.525
20
-7.496887
30
0
11
49.499899
21
-7.496887
31
0
39
0
210
0
220
0
230
1
0
LINE
5
CA
100
AcDbEntity
8
1
62
256
6
ByLayer
370
18
48
1
60
0
100
AcDbLine
10
49.525
20
-6.989042
30
0
11
49.525
21
-7.096029
31
0
39
0
210
0
220
0
230
1
0
LINE
5
CB
100
AcDbEntity
8
1
62
256
6
ByLayer
370
13
48
1
60
0
100
AcDbLine
10
49.525
20
-7.389899
30
0
11
49.499899
21
-7.389899
31
0
39
0
210
0
220
0
230
1
0
LINE
5
CC
100
AcDbEntity
8
1
62
256
6
ByLayer
370
18
48
1
60
0
100
AcDbLine
10
49.525
20
-2.244607
30
0
11
49.525
21
-6.301305
31
0
39
0
210
0
220
0
230
1
0
LINE
5
CD
100
AcDbEntity
8
1
62
256
6
ByLayer
370
18
48
1
60
0
100
AcDbLine
10
49.525
20
-2.244607
30
0
11
49.499899
21
-2.244607
31
0
39
0
210
0
220
0
230
1
0
LINE
5
CE
100
AcDbEntity
8
1
62
256
6
ByLayer
370
18
48
1
60
0
100
AcDbLine
10
49.525
20
-6.301305
30
0
11
49.525
21
-6.989042
31
0
39
0
210
0
220
0
230
1
0
LINE
5
CF
100
AcDbEntity
8
1
62
256
6
ByLayer
370
18
48
1
60
0
100
AcDbLine
10
49.499899
20
-6.301305
30
0
11
49.525
21
-6.301305
31
0
39
0
210
0
220
0
230
1
0
LINE
5
D0
100
AcDbEntity
8
1
62
256
6
ByLayer
370
18
48
1
60
0
100
AcDbLine
10
40.525
20
-34.428265
30
0
11
40.525
21
-35.546926
31
0
39
0
210
0
220
0
230
1
0
LINE
5
D1
100
AcDbEntity
8
1
62
256
6
ByLayer
370
18
48
1
60
0
100
AcDbLine
10
49.475
20
-31.451883
30
0
11
49.475
21
-35.546926
31
0
39
0
210
0
220
0
230
1
0
LINE
5
D2
100
AcDbEntity
8
1
62
256
6
ByLayer
370
13
48
1
60
0
100
AcDbLine
10
49.525
20
-7.157449
30
0
11
49.499899
21
-7.157449
31
0
39
0
210
0
220
0
230
1
0
LINE
5
D3
100
AcDbEntity
8
1
62
256
6
ByLayer
370
18
48
1
60
0
100
AcDbLine
10
49.475
20
-35.546926
30
0
11
40.525
21
-35.546926
31
0
39
0
210
0
220
0
230
1
0
LINE
5
D4
100
AcDbEntity
8
1
62
256
6
ByLayer
370
13
48
1
60
0
100
AcDbLine
10
49.525
20
-7.096029
30
0
11
49.499899
21
-7.096029
31
0
39
0
210
0
220
0
230
1
0
LINE
5
D5
100
AcDbEntity
8
1
62
256
6
ByLayer
370
18
48
1
60
0
100
AcDbLine
10
49.525
20
16.92444
30
0
11
49.525
21
16.903684
31
0
39
0
210
0
220
0
230
1
0
LINE
5
D6
100
AcDbEntity
8
1
62
256
6
ByLayer
370
13
48
1
60
0
100
AcDbLine
10
49.525
20
-6.989042
30
0
11
49.499899
21
-6.989042
31
0
39
0
210
0
220
0
230
1
0
LINE
5
D7
100
AcDbEntity
8
1
62
256
6
ByLayer
370
18
48
1
60
0
100
AcDbLine
10
45.866025
20
22.172483
30
0
11
46.732051
21
23.478017
31
0
39
0
210
0
220
0
230
1
0
LINE
5
D8
100
AcDbEntity
8
1
62
256
6
ByLayer
370
18
48
1
60
0
100
AcDbLine
10
44.133975
20
22.172483
30
0
11
45.866025
21
22.172483
31
0
39
0
210
0
220
0
230
1
0
LINE
5
D9
100
AcDbEntity
8
1
62
256
6
ByLayer
370
18
48
1
60
0
100
AcDbLine
10
45.866025
20
24.78355
30
0
11
46.732051
21
23.478017
31
0
39
0
210
0
220
0
230
1
0
LINE
5
DA
100
AcDbEntity
8
1
62
256
6
ByLayer
370
18
48
1
60
0
100
AcDbLine
10
44.133975
20
22.172483
30
0
11
43.267949
21
23.478017
31
0
39
0
210
0
220
0
230
1
0
LINE
5
DB
100
AcDbEntity
8
1
62
256
6
ByLayer
370
18
48
1
60
0
100
AcDbLine
10
43.267949
20
23.478017
30
0
11
44.133975
21
24.78355
31
0
39
0
210
0
220
0
230
1
0
LINE
5
DC
100
AcDbEntity
8
1
62
256
6
ByLayer
370
18
48
1
60
0
100
AcDbLine
10
49.525
20
31.466209
30
0
11
49.525
21
31.626129
31
0
39
0
210
0
220
0
230
1
0
LINE
5
DD
100
AcDbEntity
8
1
62
256
6
ByLayer
370
18
48
1
60
0
100
AcDbLine
10
48.565107
20
31.408401
30
0
11
49.525
21
31.466209
31
0
39
0
210
0
220
0
230
1
0
LINE
5
DE
100
AcDbEntity
8
1
62
256
6
ByLayer
370
18
48
1
60
0
100
AcDbLine
10
49.525
20
30.666671
30
0
11
49.525
21
30.93851
31
0
39
0
210
0
220
0
230
1
0
LINE
5
DF
100
AcDbEntity
8
1
62
256
6
ByLayer
370
18
48
1
60
0
100
AcDbLine
10
45.111595
20
44.910845
30
0
11
45.195266
21
45.193029
31
0
39
0
210
0
220
0
230
1
0
LINE
5
E0
100
AcDbEntity
8
1
62
256
6
ByLayer
370
13
48
1
60
0
100
AcDbLine
10
44.474094
20
46.28162
30
0
11
44.380199
21
45.964956
31
0
39
0
210
0
220
0
230
1
0
LINE
5
E1
100
AcDbEntity
8
1
62
256
6
ByLayer
370
13
48
1
60
0
100
AcDbLine
10
45.116483
20
45.927942
30
0
11
45.022588
21
45.611278
31
0
39
0
210
0
220
0
230
1
0
LINE
5
E2
100
AcDbEntity
8
1
62
256
6
ByLayer
370
18
48
1
60
0
100
AcDbLine
10
45.196296
20
45.149252
30
0
11
45.112625
21
44.867069
31
0
39
0
210
0
220
0
230
1
0
LINE
5
E3
100
AcDbEntity
8
1
62
256
6
ByLayer
370
13
48
1
60
0
100
AcDbLine
10
43.405199
20
45.931861
30
0
11
43.311304
21
45.615198
31
0
39
0
210
0
220
0
230
1
0
LINE
5
E4
100
AcDbEntity
8
1
62
256
6
ByLayer
370
13
48
1
60
0
100
AcDbLine
10
45.363197
20
44.852562
30
0
11
45.321542
21
44.712079
31
0
39
0
210
0
220
0
230
1
0
LINE
5
E5
100
AcDbEntity
8
1
62
256
6
ByLayer
370
18
48
1
60
0
100
AcDbLine
10
49.525
20
30.93851
30
0
11
49.525
21
31.466209
31
0
39
0
210
0
220
0
230
1
0
LINE
5
E6
100
AcDbEntity
8
1
62
256
6
ByLayer
370
13
48
1
60
0
100
AcDbLine
10
43.209027
20
44.857495
30
0
11
43.165909
21
44.71208
31
0
39
0
210
0
220
0
230
1
0
LINE
5
E7
100
AcDbEntity
8
1
62
256
6
ByLayer
370
18
48
1
60
0
100
AcDbLine
10
40.180521
20
-1.083647
30
0
11
40.124095
21
-0.410277
31
0
39
0
210
0
220
0
230
1
0
LINE
5
E8
100
AcDbEntity
8
1
62
256
6
ByLayer
370
18
48
1
60
0
100
AcDbLine
10
47.91774
20
-0.814469
30
0
11
40.978566
21
-1.42136
31
0
39
0
210
0
220
0
230
1
0
LINE
5
E9
100
AcDbEntity
8
1
62
256
6
ByLayer
370
18
48
1
60
0
100
AcDbLine
10
48.59175
20
0.330293
30
0
11
48.648056
21
-0.343088
31
0
39
0
210
0
220
0
230
1
0
LINE
5
EA
100
AcDbEntity
8
1
62
256
6
ByLayer
370
18
48
1
60
0
100
AcDbLine
10
40.764269
20
-34.447295
30
0
11
47.703443
21
-34.006921
31
0
39
0
210
0
220
0
230
1
0
LINE
5
EB
100
AcDbEntity
8
1
62
256
6
ByLayer
370
18
48
1
60
0
100
AcDbLine
10
40.486691
20
-26.924878
30
0
11
40.500001
21
-26.833016
31
0
39
0
210
0
220
0
230
1
0
LINE
5
EC
100
AcDbEntity
8
1
62
256
6
ByLayer
370
18
48
1
60
0
100
AcDbLine
10
40.362625
20
-29.553181
30
0
11
40.486691
21
-26.924878
31
0
39
0
210
0
220
0
230
1
0
LINE
5
ED
100
AcDbEntity
8
1
62
256
6
ByLayer
370
18
48
1
60
0
100
AcDbLine
10
40.399899
20
-30.273981
30
0
11
40.362625
21
-29.553181
31
0
39
0
210
0
220
0
230
1
0
LINE
5
EE
100
AcDbEntity
8
1
62
256
6
ByLayer
370
18
48
1
60
0
100
AcDbLine
10
48.467623
20
49.188806
30
0
11
48.467683
21
47.89578
31
0
39
0
210
0
220
0
230
1
0
LINE
5
EF
100
AcDbEntity
8
1
62
256
6
ByLayer
370
18
48
1
60
0
100
AcDbLine
10
40.764269
20
49.983265
30
0
11
47.703443
21
49.967373
31
0
39
0
210
0
220
0
230
1
0
LINE
5
F0
100
AcDbEntity
8
1
62
256
6
ByLayer
370
18
48
1
60
0
100
AcDbLine
10
49.525
20
-32.841089
30
0
11
49.525
21
-33.351715
31
0
39
0
210
0
220
0
230
1
0
LINE
5
F1
100
AcDbEntity
8
1
62
256
6
ByLayer
370
18
48
1
60
0
100
AcDbLine
10
49.525
20
-32.474396
30
0
11
49.525
21
-32.695867
31
0
39
0
210
0
220
0
230
1
0
LINE
5
F2
100
AcDbEntity
8
1
62
256
6
ByLayer
370
18
48
1
60
0
100
AcDbLine
10
49.525
20
-32.695867
30
0
11
49.525
21
-32.841089
31
0
39
0
210
0
220
0
230
1
0
LINE
5
F3
100
AcDbEntity
8
1
62
256
6
ByLayer
370
18
48
1
60
0
100
AcDbLine
10
49.525
20
-33.635455
30
0
11
49.525
21
-33.814705
31
0
39
0
210
0
220
0
230
1
0
LINE
5
F4
100
AcDbEntity
8
1
62
256
6
ByLayer
370
13
48
1
60
0
100
AcDbLine
10
49.525
20
-31.906269
30
0
11
49.499899
21
-31.906269
31
0
39
0
210
0
220
0
230
1
0
LINE
5
F5
100
AcDbEntity
8
1
62
256
6
ByLayer
370
18
48
1
60
0
100
AcDbLine
10
49.525
20
-33.814705
30
0
11
49.525
21
-33.919842
31
0
39
0
210
0
220
0
230
1
0
LINE
5
F6
100
AcDbEntity
8
1
62
256
6
ByLayer
370
13
48
1
60
0
100
AcDbLine
10
49.525
20
-32.190009
30
0
11
49.499899
21
-32.190009
31
0
39
0
210
0
220
0
230
1
0
LINE
5
F7
100
AcDbEntity
8
1
62
256
6
ByLayer
370
18
48
1
60
0
100
AcDbLine
10
49.525
20
-36.242606
30
0
11
49.525
21
-36.526346
31
0
39
0
210
0
220
0
230
1
0
LINE
5
F8
100
AcDbEntity
8
1
62
256
6
ByLayer
370
13
48
1
60
0
100
AcDbLine
10
49.525
20
-32.36926
30
0
11
49.499899
21
-32.36926
31
0
39
0
210
0
220
0
230
1
0
LINE
5
F9
100
AcDbEntity
8
1
62
256
6
ByLayer
370
18
48
1
60
0
100
AcDbLine
10
49.525
20
-34.797161
30
0
11
49.525
21
-34.286534
31
0
39
0
210
0
220
0
230
1
0
LINE
5
FA
100
AcDbEntity
8
1
62
256
6
ByLayer
370
18
48
1
60
0
100
AcDbLine
10
49.525
20
-34.141312
30
0
11
49.525
21
-33.919842
31
0
39
0
210
0
220
0
230
1
0
LINE
5
FB
100
AcDbEntity
8
1
62
256
6
ByLayer
370
13
48
1
60
0
100
AcDbLine
10
49.525
20
-33.351715
30
0
11
49.499899
21
-33.351715
31
0
39
0
210
0
220
0
230
1
0
LINE
5
FC
100
AcDbEntity
8
1
62
256
6
ByLayer
370
18
48
1
60
0
100
AcDbLine
10
49.525
20
-34.286534
30
0
11
49.525
21
-34.141312
31
0
39
0
210
0
220
0
230
1
0
LINE
5
FD
100
AcDbEntity
8
1
62
256
6
ByLayer
370
13
48
1
60
0
100
AcDbLine
10
49.525
20
-32.474396
30
0
11
49.499899
21
-32.474396
31
0
39
0
210
0
220
0
230
1
0
LINE
5
FE
100
AcDbEntity
8
1
62
256
6
ByLayer
370
18
48
1
60
0
100
AcDbLine
10
49.525
20
-35.260151
30
0
11
49.525
21
-35.0809
31
0
39
0
210
0
220
0
230
1
0
LINE
5
FF
100
AcDbEntity
8
1
62
256
6
ByLayer
370
13
48
1
60
0
100
AcDbLine
10
49.525
20
-32.695867
30
0
11
49.499899
21
-32.695867
31
0
39
0
210
0
220
0
230
1
0
LINE
5
100
100
AcDbEntity
8
1
62
256
6
ByLayer
370
13
48
1
60
0
100
AcDbLine
10
49.525
20
-32.841089
30
0
11
49.499899
21
-32.841089
31
0
39
0
210
0
220
0
230
1
0
LINE
5
101
100
AcDbEntity
8
1
62
256
6
ByLayer
370
18
48
1
60
0
100
AcDbLine
10
49.525
20
-35.365287
30
0
11
49.525
21
-35.260151
31
0
39
0
210
0
220
0
230
1
0
LINE
5
102
100
AcDbEntity
8
1
62
256
6
ByLayer
370
13
48
1
60
0
100
AcDbLine
10
49.525
20
-33.635455
30
0
11
49.499899
21
-33.635455
31
0
39
0
210
0
220
0
230
1
0
LINE
5
103
100
AcDbEntity
8
1
62
256
6
ByLayer
370
18
48
1
60
0
100
AcDbLine
10
49.525
20
-37.971792
30
0
11
49.525
21
-37.688052
31
0
39
0
210
0
220
0
230
1
0
LINE
5
104
100
AcDbEntity
8
1
62
256
6
ByLayer
370
13
48
1
60
0
100
AcDbLine
10
49.525
20
-33.814705
30
0
11
49.499899
21
-33.814705
31
0
39
0
210
0
220
0
230
1
0
LINE
5
105
100
AcDbEntity
8
1
62
256
6
ByLayer
370
18
48
1
60
0
100
AcDbLine
10
49.525
20
-35.73198
30
0
11
49.525
21
-36.242606
31
0
39
0
210
0
220
0
230
1
0
LINE
5
106
100
AcDbEntity
8
1
62
256
6
ByLayer
370
18
48
1
60
0
100
AcDbLine
10
49.525
20
-35.586758
30
0
11
49.525
21
-35.365287
31
0
39
0
210
0
220
0
230
1
0
LINE
5
107
100
AcDbEntity
8
1
62
256
6
ByLayer
370
13
48
1
60
0
100
AcDbLine
10
49.525
20
-34.797161
30
0
11
49.499899
21
-34.797161
31
0
39
0
210
0
220
0
230
1
0
LINE
5
108
100
AcDbEntity
8
1
62
256
6
ByLayer
370
18
48
1
60
0
100
AcDbLine
10
49.525
20
-35.586758
30
0
11
49.525
21
-35.73198
31
0
39
0
210
0
220
0
230
1
0
LINE
5
109
100
AcDbEntity
8
1
62
256
6
ByLayer
370
13
48
1
60
0
100
AcDbLine
10
49.525
20
-33.919842
30
0
11
49.499899
21
-33.919842
31
0
39
0
210
0
220
0
230
1
0
LINE
5
10A
100
AcDbEntity
8
1
62
256
6
ByLayer
370
18
48
1
60
0
100
AcDbLine
10
49.525
20
-36.526346
30
0
11
49.525
21
-36.705597
31
0
39
0
210
0
220
0
230
1
0
LINE
5
10B
100
AcDbEntity
8
1
62
256
6
ByLayer
370
13
48
1
60
0
100
AcDbLine
10
49.525
20
-34.141312
30
0
11
49.499899
21
-34.141312
31
0
39
0
210
0
220
0
230
1
0
LINE
5
10C
100
AcDbEntity
8
1
62
256
6
ByLayer
370
13
48
1
60
0
100
AcDbLine
10
49.525
20
-34.286534
30
0
11
49.499899
21
-34.286534
31
0
39
0
210
0
220
0
230
1
0
LINE
5
10D
100
AcDbEntity
8
1
62
256
6
ByLayer
370
18
48
1
60
0
100
AcDbLine
10
49.525
20
-36.705597
30
0
11
49.525
21
-36.810733
31
0
39
0
210
0
220
0
230
1
0
LINE
5
10E
100
AcDbEntity
8
1
62
256
6
ByLayer
370
13
48
1
60
0
100
AcDbLine
10
49.525
20
-35.0809
30
0
11
49.499899
21
-35.0809
31
0
39
0
210
0
220
0
230
1
0
LINE
5
10F
100
AcDbEntity
8
1
62
256
6
ByLayer
370
18
48
1
60
0
100
AcDbLine
10
49.525
20
-39.133498
30
0
11
49.525
21
-39.417237
31
0
39
0
210
0
220
0
230
1
0
LINE
5
110
100
AcDbEntity
8
1
62
256
6
ByLayer
370
13
48
1
60
0
100
AcDbLine
10
49.525
20
-35.260151
30
0
11
49.499899
21
-35.260151
31
0
39
0
210
0
220
0
230
1
0
LINE
5
111
100
AcDbEntity
8
1
62
256
6
ByLayer
370
18
48
1
60
0
100
AcDbLine
10
49.525
20
-37.688052
30
0
11
49.525
21
-37.177426
31
0
39
0
210
0
220
0
230
1
0
LINE
5
112
100
AcDbEntity
8
1
62
256
6
ByLayer
370
18
48
1
60
0
100
AcDbLine
10
49.525
20
-37.032204
30
0
11
49.525
21
-36.810733
31
0
39
0
210
0
220
0
230
1
0
LINE
5
113
100
AcDbEntity
8
1
62
256
6
ByLayer
370
13
48
1
60
0
100
AcDbLine
10
49.525
20
-36.242606
30
0
11
49.499899
21
-36.242606
31
0
39
0
210
0
220
0
230
1
0
LINE
5
114
100
AcDbEntity
8
1
62
256
6
ByLayer
370
18
48
1
60
0
100
AcDbLine
10
49.525
20
-37.177426
30
0
11
49.525
21
-37.032204
31
0
39
0
210
0
220
0
230
1
0
LINE
5
115
100
AcDbEntity
8
1
62
256
6
ByLayer
370
13
48
1
60
0
100
AcDbLine
10
49.525
20
-35.365287
30
0
11
49.499899
21
-35.365287
31
0
39
0
210
0
220
0
230
1
0
LINE
5
116
100
AcDbEntity
8
1
62
256
6
ByLayer
370
18
48
1
60
0
100
AcDbLine
10
49.525
20
-38.151042
30
0
11
49.525
21
-37.971792
31
0
39
0
210
0
220
0
230
1
0
LINE
5
117
100
AcDbEntity
8
1
62
256
6
ByLayer
370
13
48
1
60
0
100
AcDbLine
10
49.525
20
-35.586758
30
0
11
49.499899
21
-35.586758
31
0
39
0
210
0
220
0
230
1
0
LINE
5
118
100
AcDbEntity
8
1
62
256
6
ByLayer
370
13
48
1
60
0
100
AcDbLine
10
49.525
20
-35.73198
30
0
11
49.499899
21
-35.73198
31
0
39
0
210
0
220
0
230
1
0
LINE
5
119
100
AcDbEntity
8
1
62
256
6
ByLayer
370
18
48
1
60
0
100
AcDbLine
10
49.525
20
-38.256179
30
0
11
49.525
21
-38.151042
31
0
39
0
210
0
220
0
230
1
0
LINE
5
11A
100
AcDbEntity
8
1
62
256
6
ByLayer
370
13
48
1
60
0
100
AcDbLine
10
49.525
20
-36.526346
30
0
11
49.499899
21
-36.526346
31
0
39
0
210
0
220
0
230
1
0
LINE
5
11B
100
AcDbEntity
8
1
62
256
6
ByLayer
370
18
48
1
60
0
100
AcDbLine
10
49.525
20
-38.622872
30
0
11
49.525
21
-39.133498
31
0
39
0
210
0
220
0
230
1
0
LINE
5
11C
100
AcDbEntity
8
1
62
256
6
ByLayer
370
13
48
1
60
0
100
AcDbLine
10
49.525
20
-36.705597
30
0
11
49.499899
21
-36.705597
31
0
39
0
210
0
220
0
230
1
0
LINE
5
11D
100
AcDbEntity
8
1
62
256
6
ByLayer
370
18
48
1
60
0
100
AcDbLine
10
49.525
20
-38.256179
30
0
11
49.525
21
-38.477649
31
0
39
0
210
0
220
0
230
1
0
LINE
5
11E
100
AcDbEntity
8
1
62
256
6
ByLayer
370
18
48
1
60
0
100
AcDbLine
10
49.525
20
-38.477649
30
0
11
49.525
21
-38.622872
31
0
39
0
210
0
220
0
230
1
0
LINE
5
11F
100
AcDbEntity
8
1
62
256
6
ByLayer
370
13
48
1
60
0
100
AcDbLine
10
49.525
20
-37.688052
30
0
11
49.499899
21
-37.688052
31
0
39
0
210
0
220
0
230
1
0
LINE
5
120
100
AcDbEntity
8
1
62
256
6
ByLayer
370
18
48
1
60
0
100
AcDbLine
10
49.525
20
-40.862683
30
0
11
49.525
21
-40.578943
31
0
39
0
210
0
220
0
230
1
0
LINE
5
121
100
AcDbEntity
8
1
62
256
6
ByLayer
370
13
48
1
60
0
100
AcDbLine
10
49.525
20
-36.810733
30
0
11
49.499899
21
-36.810733
31
0
39
0
210
0
220
0
230
1
0
LINE
5
122
100
AcDbEntity
8
1
62
256
6
ByLayer
370
18
48
1
60
0
100
AcDbLine
10
49.525
20
-39.417237
30
0
11
49.525
21
-39.596488
31
0
39
0
210
0
220
0
230
1
0
LINE
5
123
100
AcDbEntity
8
1
62
256
6
ByLayer
370
13
48
1
60
0
100
AcDbLine
10
49.525
20
-37.032204
30
0
11
49.499899
21
-37.032204
31
0
39
0
210
0
220
0
230
1
0
LINE
5
124
100
AcDbEntity
8
1
62
256
6
ByLayer
370
13
48
1
60
0
100
AcDbLine
10
49.525
20
-37.177426
30
0
11
49.499899
21
-37.177426
31
0
39
0
210
0
220
0
230
1
0
LINE
5
125
100
AcDbEntity
8
1
62
256
6
ByLayer
370
18
48
1
60
0
100
AcDbLine
10
49.525
20
-39.596488
30
0
11
49.525
21
-39.701624
31
0
39
0
210
0
220
0
230
1
0
LINE
5
126
100
AcDbEntity
8
1
62
256
6
ByLayer
370
13
48
1
60
0
100
AcDbLine
10
49.525
20
-37.971792
30
0
11
49.499899
21
-37.971792
31
0
39
0
210
0
220
0
230
1
0
LINE
5
127
100
AcDbEntity
8
1
62
256
6
ByLayer
370
18
48
1
60
0
100
AcDbLine
10
49.525
20
-42.024389
30
0
11
49.525
21
-42.308129
31
0
39
0
210
0
220
0
230
1
0
LINE
5
128
100
AcDbEntity
8
1
62
256
6
ByLayer
370
13
48
1
60
0
100
AcDbLine
10
49.525
20
-38.151042
30
0
11
49.499899
21
-38.151042
31
0
39
0
210
0
220
0
230
1
0
LINE
5
129
100
AcDbEntity
8
1
62
256
6
ByLayer
370
18
48
1
60
0
100
AcDbLine
10
49.525
20
-40.578943
30
0
11
49.525
21
-40.068317
31
0
39
0
210
0
220
0
230
1
0
LINE
5
12A
100
AcDbEntity
8
1
62
256
6
ByLayer
370
13
48
1
60
0
100
AcDbLine
10
49.525
20
-39.133498
30
0
11
49.499899
21
-39.133498
31
0
39
0
210
0
220
0
230
1
0
LINE
5
12B
100
AcDbEntity
8
1
62
256
6
ByLayer
370
18
48
1
60
0
100
AcDbLine
10
49.525
20
-39.923095
30
0
11
49.525
21
-39.701624
31
0
39
0
210
0
220
0
230
1
0
LINE
5
12C
100
AcDbEntity
8
1
62
256
6
ByLayer
370
13
48
1
60
0
100
AcDbLine
10
49.525
20
-38.256179
30
0
11
49.499899
21
-38.256179
31
0
39
0
210
0
220
0
230
1
0
LINE
5
12D
100
AcDbEntity
8
1
62
256
6
ByLayer
370
18
48
1
60
0
100
AcDbLine
10
49.525
20
-40.068317
30
0
11
49.525
21
-39.923095
31
0
39
0
210
0
220
0
230
1
0
LINE
5
12E
100
AcDbEntity
8
1
62
256
6
ByLayer
370
13
48
1
60
0
100
AcDbLine
10
49.525
20
-38.477649
30
0
11
49.499899
21
-38.477649
31
0
39
0
210
0
220
0
230
1
0
LINE
5
12F
100
AcDbEntity
8
1
62
256
6
ByLayer
370
13
48
1
60
0
100
AcDbLine
10
49.525
20
-38.622872
30
0
11
49.499899
21
-38.622872
31
0
39
0
210
0
220
0
230
1
0
LINE
5
130
100
AcDbEntity
8
1
62
256
6
ByLayer
370
18
48
1
60
0
100
AcDbLine
10
49.525
20
-41.041934
30
0
11
49.525
21
-40.862683
31
0
39
0
210
0
220
0
230
1
0
LINE
5
131
100
AcDbEntity
8
1
62
256
6
ByLayer
370
18
48
1
60
0
100
AcDbLine
10
49.525
20
-41.14707
30
0
11
49.525
21
-41.041934
31
0
39
0
210
0
220
0
230
1
0
LINE
5
132
100
AcDbEntity
8
1
62
256
6
ByLayer
370
13
48
1
60
0
100
AcDbLine
10
49.525
20
-39.417237
30
0
11
49.499899
21
-39.417237
31
0
39
0
210
0
220
0
230
1
0
LINE
5
133
100
AcDbEntity
8
1
62
256
6
ByLayer
370
18
48
1
60
0
100
AcDbLine
10
49.525
20
-43.753574
30
0
11
49.525
21
-43.469835
31
0
39
0
210
0
220
0
230
1
0
LINE
5
134
100
AcDbEntity
8
1
62
256
6
ByLayer
370
13
48
1
60
0
100
AcDbLine
10
49.525
20
-39.596488
30
0
11
49.499899
21
-39.596488
31
0
39
0
210
0
220
0
230
1
0
LINE
5
135
100
AcDbEntity
8
1
62
256
6
ByLayer
370
18
48
1
60
0
100
AcDbLine
10
49.525
20
-41.513763
30
0
11
49.525
21
-42.024389
31
0
39
0
210
0
220
0
230
1
0
LINE
5
136
100
AcDbEntity
8
1
62
256
6
ByLayer
370
18
48
1
60
0
100
AcDbLine
10
49.525
20
-41.368541
30
0
11
49.525
21
-41.14707
31
0
39
0
210
0
220
0
230
1
0
LINE
5
137
100
AcDbEntity
8
1
62
256
6
ByLayer
370
13
48
1
60
0
100
AcDbLine
10
49.525
20
-40.578943
30
0
11
49.499899
21
-40.578943
31
0
39
0
210
0
220
0
230
1
0
LINE
5
138
100
AcDbEntity
8
1
62
256
6
ByLayer
370
18
48
1
60
0
100
AcDbLine
10
49.525
20
-41.368541
30
0
11
49.525
21
-41.513763
31
0
39
0
210
0
220
0
230
1
0
LINE
5
139
100
AcDbEntity
8
1
62
256
6
ByLayer
370
13
48
1
60
0
100
AcDbLine
10
49.525
20
-39.701624
30
0
11
49.499899
21
-39.701624
31
0
39
0
210
0
220
0
230
1
0
LINE
5
13A
100
AcDbEntity
8
1
62
256
6
ByLayer
370
18
48
1
60
0
100
AcDbLine
10
49.525
20
-42.308129
30
0
11
49.525
21
-42.487379
31
0
39
0
210
0
220
0
230
1
0
LINE
5
13B
100
AcDbEntity
8
1
62
256
6
ByLayer
370
13
48
1
60
0
100
AcDbLine
10
49.525
20
-39.923095
30
0
11
49.499899
21
-39.923095
31
0
39
0
210
0
220
0
230
1
0
LINE
5
13C
100
AcDbEntity
8
1
62
256
6
ByLayer
370
13
48
1
60
0
100
AcDbLine
10
49.525
20
-40.068317
30
0
11
49.499899
21
-40.068317
31
0
39
0
210
0
220
0
230
1
0
LINE
5
13D
100
AcDbEntity
8
1
62
256
6
ByLayer
370
18
48
1
60
0
100
AcDbLine
10
49.525
20
-42.487379
30
0
11
49.525
21
-42.592516
31
0
39
0
210
0
220
0
230
1
0
LINE
5
13E
100
AcDbEntity
8
1
62
256
6
ByLayer
370
13
48
1
60
0
100
AcDbLine
10
49.525
20
-40.862683
30
0
11
49.49993
21
-40.862683
31
0
39
0
210
0
220
0
230
1
0
LINE
5
13F
100
AcDbEntity
8
1
62
256
6
ByLayer
370
18
48
1
60
0
100
AcDbLine
10
49.525
20
-44.91528
30
0
11
49.525
21
-45.19902
31
0
39
0
210
0
220
0
230
1
0
LINE
5
140
100
AcDbEntity
8
1
62
256
6
ByLayer
370
13
48
1
60
0
100
AcDbLine
10
49.525
20
-41.041934
30
0
11
49.499999
21
-41.041934
31
0
39
0
210
0
220
0
230
1
0
LINE
5
141
100
AcDbEntity
8
1
62
256
6
ByLayer
370
18
48
1
60
0
100
AcDbLine
10
49.525
20
-43.469835
30
0
11
49.525
21
-42.959209
31
0
39
0
210
0
220
0
230
1
0
LINE
5
142
100
AcDbEntity
8
1
62
256
6
ByLayer
370
18
48
1
60
0
100
AcDbLine
10
49.525
20
-42.813986
30
0
11
49.525
21
-42.592516
31
0
39
0
210
0
220
0
230
1
0
LINE
5
143
100
AcDbEntity
8
1
62
256
6
ByLayer
370
13
48
1
60
0
100
AcDbLine
10
49.525
20
-42.024389
30
0
11
49.499987
21
-42.024389
31
0
39
0
210
0
220
0
230
1
0
LINE
5
144
100
AcDbEntity
8
1
62
256
6
ByLayer
370
18
48
1
60
0
100
AcDbLine
10
49.525
20
-42.959209
30
0
11
49.525
21
-42.813986
31
0
39
0
210
0
220
0
230
1
0
LINE
5
145
100
AcDbEntity
8
1
62
256
6
ByLayer
370
13
48
1
60
0
100
AcDbLine
10
49.525
20
-41.14707
30
0
11
49.499996
21
-41.14707
31
0
39
0
210
0
220
0
230
1
0
LINE
5
146
100
AcDbEntity
8
1
62
256
6
ByLayer
370
18
48
1
60
0
100
AcDbLine
10
49.525
20
-43.932825
30
0
11
49.525
21
-43.753574
31
0
39
0
210
0
220
0
230
1
0
LINE
5
147
100
AcDbEntity
8
1
62
256
6
ByLayer
370
13
48
1
60
0
100
AcDbLine
10
49.525
20
-41.513763
30
0
11
49.499979
21
-41.513763
31
0
39
0
210
0
220
0
230
1
0
LINE
5
148
100
AcDbEntity
8
1
62
256
6
ByLayer
370
13
48
1
60
0
100
AcDbLine
10
49.525
20
-41.368541
30
0
11
49.49999
21
-41.368541
31
0
39
0
210
0
220
0
230
1
0
LINE
5
149
100
AcDbEntity
8
1
62
256
6
ByLayer
370
18
48
1
60
0
100
AcDbLine
10
49.525
20
-44.037961
30
0
11
49.525
21
-43.932825
31
0
39
0
210
0
220
0
230
1
0
LINE
5
14A
100
AcDbEntity
8
1
62
256
6
ByLayer
370
13
48
1
60
0
100
AcDbLine
10
49.525
20
-42.308129
30
0
11
49.499982
21
-42.308129
31
0
39
0
210
0
220
0
230
1
0
LINE
5
14B
100
AcDbEntity
8
1
62
256
6
ByLayer
370
18
48
1
60
0
100
AcDbLine
10
49.525
20
-46.644466
30
0
11
49.525
21
-46.360726
31
0
39
0
210
0
220
0
230
1
0
LINE
5
14C
100
AcDbEntity
8
1
62
256
6
ByLayer
370
13
48
1
60
0
100
AcDbLine
10
49.525
20
-42.487379
30
0
11
49.499953
21
-42.487379
31
0
39
0
210
0
220
0
230
1
0
LINE
5
14D
100
AcDbEntity
8
1
62
256
6
ByLayer
370
18
48
1
60
0
100
AcDbLine
10
40.5
20
-46.644466
30
0
11
40.5
21
-46.360726
31
0
39
0
210
0
220
0
230
1
0
LINE
5
14E
100
AcDbEntity
8
1
62
256
6
ByLayer
370
13
48
1
60
0
100
AcDbLine
10
49.525
20
-43.469835
30
0
11
49.49998
21
-43.469835
31
0
39
0
210
0
220
0
230
1
0
LINE
5
14F
100
AcDbEntity
8
1
62
256
6
ByLayer
370
18
48
1
60
0
100
AcDbLine
10
49.525
20
-44.037961
30
0
11
49.525
21
-44.259432
31
0
39
0
210
0
220
0
230
1
0
LINE
5
150
100
AcDbEntity
8
1
62
256
6
ByLayer
370
13
48
1
60
0
100
AcDbLine
10
49.525
20
-42.592516
30
0
11
49.499938
21
-42.592516
31
0
39
0
210
0
220
0
230
1
0
LINE
5
151
100
AcDbEntity
8
1
62
256
6
ByLayer
370
18
48
1
60
0
100
AcDbLine
10
49.525
20
-44.259432
30
0
11
49.525
21
-44.404654
31
0
39
0
210
0
220
0
230
1
0
LINE
5
152
100
AcDbEntity
8
1
62
256
6
ByLayer
370
13
48
1
60
0
100
AcDbLine
10
49.525
20
-42.813986
30
0
11
49.499993
21
-42.813986
31
0
39
0
210
0
220
0
230
1
0
LINE
5
153
100
AcDbEntity
8
1
62
256
6
ByLayer
370
13
48
1
60
0
100
AcDbLine
10
49.525
20
-42.959209
30
0
11
49.49994
21
-42.959209
31
0
39
0
210
0
220
0
230
1
0
LINE
5
154
100
AcDbEntity
8
1
62
256
6
ByLayer
370
18
48
1
60
0
100
AcDbLine
10
49.525
20
-45.19902
30
0
11
49.525
21
-45.378271
31
0
39
0
210
0
220
0
230
1
0
LINE
5
155
100
AcDbEntity
8
1
62
256
6
ByLayer
370
18
48
1
60
0
100
AcDbLine
10
49.525
20
-44.404654
30
0
11
49.525
21
-44.91528
31
0
39
0
210
0
220
0
230
1
0
LINE
5
156
100
AcDbEntity
8
1
62
256
6
ByLayer
370
18
48
1
60
0
100
AcDbLine
10
49.525
20
-47.802212
30
0
11
49.525
21
-48.772236
31
0
39
0
210
0
220
0
230
1
0
LINE
5
157
100
AcDbEntity
8
1
62
256
6
ByLayer
370
13
48
1
60
0
100
AcDbLine
10
49.525
20
-43.932825
30
0
11
49.499899
21
-43.932825
31
0
39
0
210
0
220
0
230
1
0
LINE
5
158
100
AcDbEntity
8
1
62
256
6
ByLayer
370
18
48
1
60
0
100
AcDbLine
10
40.5
20
-47.802212
30
0
11
40.5
21
-48.772236
31
0
39
0
210
0
220
0
230
1
0
LINE
5
159
100
AcDbEntity
8
1
62
256
6
ByLayer
370
18
48
1
60
0
100
AcDbLine
10
40.5
20
-48.772236
30
0
11
49.525
21
-48.772236
31
0
39
0
210
0
220
0
230
1
0
LINE
5
15A
100
AcDbEntity
8
1
62
256
6
ByLayer
370
18
48
1
60
0
100
AcDbLine
10
49.525
20
-45.378271
30
0
11
49.525
21
-45.483407
31
0
39
0
210
0
220
0
230
1
0
LINE
5
15B
100
AcDbEntity
8
1
62
256
6
ByLayer
370
13
48
1
60
0
100
AcDbLine
10
49.525
20
-44.91528
30
0
11
49.499899
21
-44.91528
31
0
39
0
210
0
220
0
230
1
0
LINE
5
15C
100
AcDbEntity
8
1
62
256
6
ByLayer
370
18
48
1
60
0
100
AcDbLine
10
49.525
20
-46.360726
30
0
11
49.525
21
-45.8501
31
0
39
0
210
0
220
0
230
1
0
LINE
5
15D
100
AcDbEntity
8
1
62
256
6
ByLayer
370
13
48
1
60
0
100
AcDbLine
10
49.525
20
-44.037961
30
0
11
49.499899
21
-44.037961
31
0
39
0
210
0
220
0
230
1
0
LINE
5
15E
100
AcDbEntity
8
1
62
256
6
ByLayer
370
13
48
1
60
0
100
AcDbLine
10
49.525
20
-44.259432
30
0
11
49.499899
21
-44.259432
31
0
39
0
210
0
220
0
230
1
0
LINE
5
15F
100
AcDbEntity
8
1
62
256
6
ByLayer
370
13
48
1
60
0
100
AcDbLine
10
49.525
20
-44.404654
30
0
11
49.499899
21
-44.404654
31
0
39
0
210
0
220
0
230
1
0
LINE
5
160
100
AcDbEntity
8
1
62
256
6
ByLayer
370
18
48
1
60
0
100
AcDbLine
10
49.525
20
-45.704878
30
0
11
49.525
21
-45.483407
31
0
39
0
210
0
220
0
230
1
0
LINE
5
161
100
AcDbEntity
8
1
62
256
6
ByLayer
370
13
48
1
60
0
100
AcDbLine
10
49.525
20
-45.19902
30
0
11
49.499899
21
-45.19902
31
0
39
0
210
0
220
0
230
1
0
LINE
5
162
100
AcDbEntity
8
1
62
256
6
ByLayer
370
18
48
1
60
0
100
AcDbLine
10
49.525
20
-45.8501
30
0
11
49.525
21
-45.704878
31
0
39
0
210
0
220
0
230
1
0
LINE
5
163
100
AcDbEntity
8
1
62
256
6
ByLayer
370
18
48
1
60
0
100
AcDbLine
10
49.525
20
-46.823716
30
0
11
49.525
21
-46.644466
31
0
39
0
210
0
220
0
230
1
0
LINE
5
164
100
AcDbEntity
8
1
62
256
6
ByLayer
370
18
48
1
60
0
100
AcDbLine
10
40.5
20
-46.823716
30
0
11
40.5
21
-46.644466
31
0
39
0
210
0
220
0
230
1
0
LINE
5
165
100
AcDbEntity
8
1
62
256
6
ByLayer
370
18
48
1
60
0
100
AcDbLine
10
49.525
20
-46.928853
30
0
11
49.525
21
-46.823716
31
0
39
0
210
0
220
0
230
1
0
LINE
5
166
100
AcDbEntity
8
1
62
256
6
ByLayer
370
13
48
1
60
0
100
AcDbLine
10
49.525
20
-45.378271
30
0
11
49.499899
21
-45.378271
31
0
39
0
210
0
220
0
230
1
0
LINE
5
167
100
AcDbEntity
8
1
62
256
6
ByLayer
370
18
48
1
60
0
100
AcDbLine
10
40.5
20
-46.928853
30
0
11
40.5
21
-46.823716
31
0
39
0
210
0
220
0
230
1
0
LINE
5
168
100
AcDbEntity
8
1
62
256
6
ByLayer
370
18
48
1
60
0
100
AcDbLine
10
49.525
20
-47.295546
30
0
11
49.525
21
-47.802212
31
0
39
0
210
0
220
0
230
1
0
LINE
5
169
100
AcDbEntity
8
1
62
256
6
ByLayer
370
13
48
1
60
0
100
AcDbLine
10
49.525
20
-46.360726
30
0
11
49.432353
21
-46.360726
31
0
39
0
210
0
220
0
230
1
0
LINE
5
16A
100
AcDbEntity
8
1
62
256
6
ByLayer
370
13
48
1
60
0
100
AcDbLine
10
40.567264
20
-46.360726
30
0
11
40.5
21
-46.360726
31
0
39
0
210
0
220
0
230
1
0
LINE
5
16B
100
AcDbEntity
8
1
62
256
6
ByLayer
370
18
48
1
60
0
100
AcDbLine
10
40.5
20
-47.295546
30
0
11
40.5
21
-47.802212
31
0
39
0
210
0
220
0
230
1
0
LINE
5
16C
100
AcDbEntity
8
1
62
256
6
ByLayer
370
13
48
1
60
0
100
AcDbLine
10
49.525
20
-45.483407
30
0
11
49.499899
21
-45.483407
31
0
39
0
210
0
220
0
230
1
0
LINE
5
16D
100
AcDbEntity
8
1
62
256
6
ByLayer
370
18
48
1
60
0
100
AcDbLine
10
49.525
20
-47.802212
30
0
11
40.5
21
-47.802212
31
0
39
0
210
0
220
0
230
1
0
LINE
5
16E
100
AcDbEntity
8
1
62
256
6
ByLayer
370
13
48
1
60
0
100
AcDbLine
10
49.525
20
-45.704878
30
0
11
49.499899
21
-45.704878
31
0
39
0
210
0
220
0
230
1
0
LINE
5
16F
100
AcDbEntity
8
1
62
256
6
ByLayer
370
13
48
1
60
0
100
AcDbLine
10
49.525
20
-45.8501
30
0
11
49.499899
21
-45.8501
31
0
39
0
210
0
220
0
230
1
0
LINE
5
170
100
AcDbEntity
8
1
62
256
6
ByLayer
370
18
48
1
60
0
100
AcDbLine
10
49.525
20
-47.150323
30
0
11
49.525
21
-46.928853
31
0
39
0
210
0
220
0
230
1
0
LINE
5
171
100
AcDbEntity
8
1
62
256
6
ByLayer
370
18
48
1
60
0
100
AcDbLine
10
40.5
20
-47.150323
30
0
11
40.5
21
-46.928853
31
0
39
0
210
0
220
0
230
1
0
LINE
5
172
100
AcDbEntity
8
1
62
256
6
ByLayer
370
13
48
1
60
0
100
AcDbLine
10
49.525
20
-46.644466
30
0
11
49.313618
21
-46.644466
31
0
39
0
210
0
220
0
230
1
0
LINE
5
173
100
AcDbEntity
8
1
62
256
6
ByLayer
370
13
48
1
60
0
100
AcDbLine
10
40.679936
20
-46.644466
30
0
11
40.5
21
-46.644466
31
0
39
0
210
0
220
0
230
1
0
LINE
5
174
100
AcDbEntity
8
1
62
256
6
ByLayer
370
18
48
1
60
0
100
AcDbLine
10
49.525
20
-47.150323
30
0
11
49.525
21
-47.295546
31
0
39
0
210
0
220
0
230
1
0
LINE
5
175
100
AcDbEntity
8
1
62
256
6
ByLayer
370
18
48
1
60
0
100
AcDbLine
10
40.5
20
-47.150323
30
0
11
40.5
21
-47.295546
31
0
39
0
210
0
220
0
230
1
0
LINE
5
176
100
AcDbEntity
8
1
62
256
6
ByLayer
370
13
48
1
60
0
100
AcDbLine
10
49.525
20
-46.823716
30
0
11
49.115773
21
-46.823716
31
0
39
0
210
0
220
0
230
1
0
LINE
5
177
100
AcDbEntity
8
1
62
256
6
ByLayer
370
13
48
1
60
0
100
AcDbLine
10
40.87764
20
-46.823716
30
0
11
40.5
21
-46.823716
31
0
39
0
210
0
220
0
230
1
0
LINE
5
178
100
AcDbEntity
8
1
62
256
6
ByLayer
370
18
48
1
60
0
100
AcDbLine
10
46.571931
20
-5.710165
30
0
11
45.866025
21
-6.888362
31
0
39
0
210
0
220
0
230
1
0
LINE
5
179
100
AcDbEntity
8
1
62
256
6
ByLayer
370
13
48
1
60
0
100
AcDbLine
10
49.525
20
-46.928853
30
0
11
48.80991
21
-46.928853
31
0
39
0
210
0
220
0
230
1
0
LINE
5
17A
100
AcDbEntity
8
1
62
256
6
ByLayer
370
13
48
1
60
0
100
AcDbLine
10
41.196053
20
-46.928853
30
0
11
40.5
21
-46.928853
31
0
39
0
210
0
220
0
230
1
0
LINE
5
17B
100
AcDbEntity
8
1
62
256
6
ByLayer
370
13
48
1
60
0
100
AcDbLine
10
49.525
20
-47.150323
30
0
11
40.5
21
-47.150323
31
0
39
0
210
0
220
0
230
1
0
LINE
5
17C
100
AcDbEntity
8
1
62
256
6
ByLayer
370
18
48
1
60
0
100
AcDbLine
10
45.866025
20
-4.531947
30
0
11
44.133975
21
-4.531947
31
0
39
0
210
0
220
0
230
1
0
LINE
5
17D
100
AcDbEntity
8
1
62
256
6
ByLayer
370
13
48
1
60
0
100
AcDbLine
10
49.525
20
-47.295546
30
0
11
40.5
21
-47.295546
31
0
39
0
210
0
220
0
230
1
0
LINE
5
17E
100
AcDbEntity
8
1
62
256
6
ByLayer
370
18
48
1
60
0
100
AcDbLine
10
45.866025
20
-4.531947
30
0
11
46.732051
21
-5.977393
31
0
39
0
210
0
220
0
230
1
0
LINE
5
17F
100
AcDbEntity
8
1
62
256
6
ByLayer
370
18
48
1
60
0
100
AcDbLine
10
45.866025
20
-7.422838
30
0
11
46.732051
21
-5.977393
31
0
39
0
210
0
220
0
230
1
0
LINE
5
180
100
AcDbEntity
8
1
62
256
6
ByLayer
370
18
48
1
60
0
100
AcDbLine
10
44.133975
20
-7.422838
30
0
11
45.866025
21
-7.422838
31
0
39
0
210
0
220
0
230
1
0
LINE
5
181
100
AcDbEntity
8
1
62
256
6
ByLayer
370
18
48
1
60
0
100
AcDbLine
10
49.525
20
44.458952
30
0
11
49.525
21
48.772236
31
0
39
0
210
0
220
0
230
1
0
LINE
5
182
100
AcDbEntity
8
1
62
256
6
ByLayer
370
18
48
1
60
0
100
AcDbLine
10
44.133975
20
-7.422838
30
0
11
43.267949
21
-5.977393
31
0
39
0
210
0
220
0
230
1
0
LINE
5
183
100
AcDbEntity
8
1
62
256
6
ByLayer
370
18
48
1
60
0
100
AcDbLine
10
43.267949
20
-5.977393
30
0
11
44.133975
21
-4.531947
31
0
39
0
210
0
220
0
230
1
0
LINE
5
184
100
AcDbEntity
8
1
62
256
6
ByLayer
370
18
48
1
60
0
100
AcDbLine
10
49.525
20
43.890729
30
0
11
49.49936
21
43.890787
31
0
39
0
210
0
220
0
230
1
0
LINE
5
185
100
AcDbEntity
8
1
62
256
6
ByLayer
370
18
48
1
60
0
100
AcDbLine
10
49.525
20
43.890729
30
0
11
49.525
21
44.458952
31
0
39
0
210
0
220
0
230
1
0
LINE
5
186
100
AcDbEntity
8
1
62
256
6
ByLayer
370
18
48
1
60
0
100
AcDbLine
10
40.5
20
-45.980668
30
0
11
40.5
21
-43.714573
31
0
39
0
210
0
220
0
230
1
0
LINE
5
187
100
AcDbEntity
8
1
62
256
6
ByLayer
370
13
48
1
60
0
100
AcDbLine
10
48.5
20
-46.973975
30
0
11
48.5
21
-44.738006
31
0
39
0
210
0
220
0
230
1
0
LINE
5
188
100
AcDbEntity
8
1
62
256
6
ByLayer
370
18
48
1
60
0
100
AcDbLine
10
40.5
20
-35.200243
30
0
11
40.5
21
-36.18381
31
0
39
0
210
0
220
0
230
1
0
LINE
5
189
100
AcDbEntity
8
1
62
256
6
ByLayer
370
18
48
1
60
0
100
AcDbLine
10
49.5
20
-43.714573
30
0
11
49.5
21
-36.18381
31
0
39
0
210
0
220
0
230
1
0
LINE
5
18A
100
AcDbEntity
8
1
62
256
6
ByLayer
370
13
48
1
60
0
100
AcDbLine
10
41.5
20
-44.738006
30
0
11
41.5
21
-46.973975
31
0
39
0
210
0
220
0
230
1
0
LINE
5
18B
100
AcDbEntity
8
1
62
256
6
ByLayer
370
18
48
1
60
0
100
AcDbLine
10
40.5
20
-36.18381
30
0
11
40.5
21
-43.714573
31
0
39
0
210
0
220
0
230
1
0
LINE
5
18C
100
AcDbEntity
8
1
62
256
6
ByLayer
370
18
48
1
60
0
100
AcDbLine
10
44.9
20
-36.18381
30
0
11
49.5
21
-36.18381
31
0
39
0
210
0
220
0
230
1
0
LINE
5
18D
100
AcDbEntity
8
1
62
256
6
ByLayer
370
18
48
1
60
0
100
AcDbLine
10
42.1
20
-36.18381
30
0
11
44.9
21
-36.18381
31
0
39
0
210
0
220
0
230
1
0
LINE
5
18E
100
AcDbEntity
8
1
62
256
6
ByLayer
370
18
48
1
60
0
100
AcDbLine
10
45
20
-40.449897
30
0
11
45
21
-36.320038
31
0
39
0
210
0
220
0
230
1
0
LINE
5
18F
100
AcDbEntity
8
1
62
256
6
ByLayer
370
18
48
1
60
0
100
AcDbLine
10
42
20
-36.320038
30
0
11
42
21
-40.449897
31
0
39
0
210
0
220
0
230
1
0
LINE
5
190
100
AcDbEntity
8
1
62
256
6
ByLayer
370
18
48
1
60
0
100
AcDbLine
10
41.5
20
-44.738006
30
0
11
48.5
21
-44.738006
31
0
39
0
210
0
220
0
230
1
0
LINE
5
191
100
AcDbEntity
8
1
62
256
6
ByLayer
370
18
48
1
60
0
100
AcDbLine
10
0.4
20
-6.9275
30
0
11
0
21
-7.3275
31
0
39
0
210
0
220
0
230
1
0
LINE
5
192
100
AcDbEntity
8
1
62
256
6
ByLayer
370
18
48
1
60
0
100
AcDbLine
10
0
20
-24.5
30
0
11
0
21
-7.3275
31
0
39
0
210
0
220
0
230
1
0
LINE
5
193
100
AcDbEntity
8
1
62
256
6
ByLayer
370
18
48
1
60
0
100
AcDbLine
10
40.5
20
-36.18381
30
0
11
42.1
21
-36.18381
31
0
39
0
210
0
220
0
230
1
0
LINE
5
194
100
AcDbEntity
8
1
62
256
6
ByLayer
370
18
48
1
60
0
100
AcDbLine
10
0
20
7.3275
30
0
11
0.4
21
6.9275
31
0
39
0
210
0
220
0
230
1
0
LINE
5
195
100
AcDbEntity
8
1
62
256
6
ByLayer
370
18
48
1
60
0
100
AcDbLine
10
0.4
20
25
30
0
11
0.4
21
6.9275
31
0
39
0
210
0
220
0
230
1
0
LINE
5
196
100
AcDbEntity
8
1
62
256
6
ByLayer
370
13
48
1
60
0
100
AcDbLine
10
44.9
20
-37.34128
30
0
11
44.9
21
-36.18381
31
0
39
0
210
0
220
0
230
1
0
LINE
5
197
100
AcDbEntity
8
1
62
256
6
ByLayer
370
13
48
1
60
0
100
AcDbLine
10
42.1
20
-36.18381
30
0
11
42.1
21
-37.34128
31
0
39
0
210
0
220
0
230
1
0
LINE
5
198
100
AcDbEntity
8
1
62
256
6
ByLayer
370
18
48
1
60
0
100
AcDbLine
10
0
20
24.5
30
0
11
0
21
7.3275
31
0
39
0
210
0
220
0
230
1
0
LINE
5
199
100
AcDbEntity
8
1
62
256
6
ByLayer
370
18
48
1
60
0
100
AcDbLine
10
40.5
20
22.144322
30
0
11
40.5
21
19.502071
31
0
39
0
210
0
220
0
230
1
0
LINE
5
19A
100
AcDbEntity
8
1
62
256
6
ByLayer
370
18
48
1
60
0
100
AcDbLine
10
41.5
20
44.712081
30
0
11
48.5
21
44.712081
31
0
39
0
210
0
220
0
230
1
0
LINE
5
19B
100
AcDbEntity
8
1
62
256
6
ByLayer
370
18
48
1
60
0
100
AcDbLine
10
49.5
20
43.88679
30
0
11
49.5
21
41.601697
31
0
39
0
210
0
220
0
230
1
0
LINE
5
19C
100
AcDbEntity
8
1
62
256
6
ByLayer
370
18
48
1
60
0
100
AcDbLine
10
0.4
20
-6.9275
30
0
11
0.4
21
-25
31
0
39
0
210
0
220
0
230
1
0
LINE
5
19D
100
AcDbEntity
8
1
62
256
6
ByLayer
370
18
48
1
60
0
100
AcDbLine
10
49.5
20
19.502071
30
0
11
49.5
21
22.144322
31
0
39
0
210
0
220
0
230
1
0
LINE
5
19E
100
AcDbEntity
8
1
62
256
6
ByLayer
370
18
48
1
60
0
100
AcDbLine
10
40.5
20
41.601697
30
0
11
40.5
21
43.88679
31
0
39
0
210
0
220
0
230
1
0
LINE
5
19F
100
AcDbEntity
8
1
62
256
6
ByLayer
370
18
48
1
60
0
100
AcDbLine
10
0.9
20
25.5
30
0
11
0.9
21
6.4275
31
0
39
0
210
0
220
0
230
1
0
LINE
5
1A0
100
AcDbEntity
8
1
62
256
6
ByLayer
370
18
48
1
60
0
100
AcDbLine
10
0.9
20
6.4275
30
0
11
1.1
21
6.2275
31
0
39
0
210
0
220
0
230
1
0
LINE
5
1A1
100
AcDbEntity
8
1
62
256
6
ByLayer
370
18
48
1
60
0
100
AcDbLine
10
6.2
20
6.2275
30
0
11
1.1
21
6.2275
31
0
39
0
210
0
220
0
230
1
0
LINE
5
1A2
100
AcDbEntity
8
1
62
256
6
ByLayer
370
18
48
1
60
0
100
AcDbLine
10
7
20
5.4275
30
0
11
6.2
21
6.2275
31
0
39
0
210
0
220
0
230
1
0
LINE
5
1A3
100
AcDbEntity
8
1
62
256
6
ByLayer
370
18
48
1
60
0
100
AcDbLine
10
0.9
20
-25.5
30
0
11
0.9
21
-6.4275
31
0
39
0
210
0
220
0
230
1
0
LINE
5
1A4
100
AcDbEntity
8
1
62
256
6
ByLayer
370
13
48
1
60
0
100
AcDbLine
10
48.5
20
41.601688
30
0
11
48.5
21
44.712081
31
0
39
0
210
0
220
0
230
1
0
LINE
5
1A5
100
AcDbEntity
8
1
62
256
6
ByLayer
370
18
48
1
60
0
100
AcDbLine
10
7
20
5.4275
30
0
11
7
21
-5.4275
31
0
39
0
210
0
220
0
230
1
0
LINE
5
1A6
100
AcDbEntity
8
1
62
256
6
ByLayer
370
18
48
1
60
0
100
AcDbLine
10
6.2
20
-6.2275
30
0
11
7
21
-5.4275
31
0
39
0
210
0
220
0
230
1
0
LINE
5
1A7
100
AcDbEntity
8
1
62
256
6
ByLayer
370
13
48
1
60
0
100
AcDbLine
10
41.5
20
44.712081
30
0
11
41.5
21
41.601688
31
0
39
0
210
0
220
0
230
1
0
LINE
5
1A8
100
AcDbEntity
8
1
62
256
6
ByLayer
370
18
48
1
60
0
100
AcDbLine
10
1.1
20
-6.2275
30
0
11
6.2
21
-6.2275
31
0
39
0
210
0
220
0
230
1
0
LINE
5
1A9
100
AcDbEntity
8
1
62
256
6
ByLayer
370
18
48
1
60
0
100
AcDbLine
10
1.1
20
-6.2275
30
0
11
0.9
21
-6.4275
31
0
39
0
210
0
220
0
230
1
0
LINE
5
1AA
100
AcDbEntity
8
1
62
256
6
ByLayer
370
18
48
1
60
0
100
AcDbLine
10
49.5
20
-6.936823
30
0
11
49.5
21
-6.754044
31
0
39
0
210
0
220
0
230
1
0
LINE
5
1AB
100
AcDbEntity
8
1
62
256
6
ByLayer
370
18
48
1
60
0
100
AcDbLine
10
40.5
20
-6.754044
30
0
11
40.5
21
-6.936823
31
0
39
0
210
0
220
0
230
1
0
LINE
5
1AC
100
AcDbEntity
8
1
62
256
6
ByLayer
370
18
48
1
60
0
100
AcDbLine
10
49.5
20
-7.251401
30
0
11
49.5
21
-6.936823
31
0
39
0
210
0
220
0
230
1
0
LINE
5
1AD
100
AcDbEntity
8
1
62
256
6
ByLayer
370
18
48
1
60
0
100
AcDbLine
10
40.5
20
-6.936823
30
0
11
40.5
21
-7.251401
31
0
39
0
210
0
220
0
230
1
0
LINE
5
1AE
100
AcDbEntity
8
1
62
256
6
ByLayer
370
18
48
1
60
0
100
AcDbLine
10
49.5
20
-6.936823
30
0
11
49.474969
21
-6.936823
31
0
39
0
210
0
220
0
230
1
0
LINE
5
1AF
100
AcDbEntity
8
1
62
256
6
ByLayer
370
18
48
1
60
0
100
AcDbLine
10
40.525031
20
-6.936823
30
0
11
40.5
21
-6.936823
31
0
39
0
210
0
220
0
230
1
0
LINE
5
1B0
100
AcDbEntity
8
1
62
256
6
ByLayer
370
13
48
1
60
0
100
AcDbLine
10
39.7
20
-25.5
30
0
11
39.7
21
25.5
31
0
39
0
210
0
220
0
230
1
0
LINE
5
1B1
100
AcDbEntity
8
1
62
256
6
ByLayer
370
18
48
1
60
0
100
AcDbLine
10
49.5
20
-6.754044
30
0
11
49.5
21
-1.728861
31
0
39
0
210
0
220
0
230
1
0
LINE
5
1B2
100
AcDbEntity
8
1
62
256
6
ByLayer
370
18
48
1
60
0
100
AcDbLine
10
40.5
20
-1.728861
30
0
11
40.5
21
-6.754044
31
0
39
0
210
0
220
0
230
1
0
LINE
5
1B3
100
AcDbEntity
8
1
62
256
6
ByLayer
370
18
48
1
60
0
100
AcDbLine
10
40.5
20
-6.754044
30
0
11
40.525031
21
-6.754044
31
0
39
0
210
0
220
0
230
1
0
LINE
5
1B4
100
AcDbEntity
8
1
62
256
6
ByLayer
370
18
48
1
60
0
100
AcDbLine
10
49.474969
20
-6.754044
30
0
11
49.5
21
-6.754044
31
0
39
0
210
0
220
0
230
1
0
LINE
5
1B5
100
AcDbEntity
8
1
62
256
6
ByLayer
370
18
48
1
60
0
100
AcDbLine
10
42.1
20
19.502047
30
0
11
44.9
21
19.502047
31
0
39
0
210
0
220
0
230
1
0
LINE
5
1B6
100
AcDbEntity
8
1
62
256
6
ByLayer
370
18
48
1
60
0
100
AcDbLine
10
49.5
20
-11.100301
30
0
11
49.5
21
-7.251401
31
0
39
0
210
0
220
0
230
1
0
LINE
5
1B7
100
AcDbEntity
8
1
62
256
6
ByLayer
370
18
48
1
60
0
100
AcDbLine
10
40.5
20
-7.251401
30
0
11
40.5
21
-11.100301
31
0
39
0
210
0
220
0
230
1
0
LINE
5
1B8
100
AcDbEntity
8
1
62
256
6
ByLayer
370
18
48
1
60
0
100
AcDbLine
10
40.5
20
-7.251401
30
0
11
40.525031
21
-7.251401
31
0
39
0
210
0
220
0
230
1
0
LINE
5
1B9
100
AcDbEntity
8
1
62
256
6
ByLayer
370
18
48
1
60
0
100
AcDbLine
10
49.474969
20
-7.251401
30
0
11
49.5
21
-7.251401
31
0
39
0
210
0
220
0
230
1
0
LINE
5
1BA
100
AcDbEntity
8
1
62
256
6
ByLayer
370
18
48
1
60
0
100
AcDbLine
10
49.5
20
-11.795788
30
0
11
49.5
21
-11.100301
31
0
39
0
210
0
220
0
230
1
0
LINE
5
1BB
100
AcDbEntity
8
1
62
256
6
ByLayer
370
18
48
1
60
0
100
AcDbLine
10
40.5
20
-11.100301
30
0
11
40.5
21
-11.795788
31
0
39
0
210
0
220
0
230
1
0
LINE
5
1BC
100
AcDbEntity
8
1
62
256
6
ByLayer
370
18
48
1
60
0
100
AcDbLine
10
42.1
20
-11.795788
30
0
11
44.9
21
-11.795788
31
0
39
0
210
0
220
0
230
1
0
LINE
5
1BD
100
AcDbEntity
8
1
62
256
6
ByLayer
370
13
48
1
60
0
100
AcDbLine
10
42.1
20
19.502047
30
0
11
42.1
21
18.494412
31
0
39
0
210
0
220
0
230
1
0
LINE
5
1BE
100
AcDbEntity
8
1
62
256
6
ByLayer
370
13
48
1
60
0
100
AcDbLine
10
44.9
20
18.494412
30
0
11
44.9
21
19.502047
31
0
39
0
210
0
220
0
230
1
0
LINE
5
1BF
100
AcDbEntity
8
1
62
256
6
ByLayer
370
18
48
1
60
0
100
AcDbLine
10
48.5
20
-24.939789
30
0
11
41.5
21
-24.939789
31
0
39
0
210
0
220
0
230
1
0
LINE
5
1C0
100
AcDbEntity
8
1
62
256
6
ByLayer
370
18
48
1
60
0
100
AcDbLine
10
40.5
20
-11.100301
30
0
11
40.525031
21
-11.100301
31
0
39
0
210
0
220
0
230
1
0
LINE
5
1C1
100
AcDbEntity
8
1
62
256
6
ByLayer
370
18
48
1
60
0
100
AcDbLine
10
49.474969
20
-11.100301
30
0
11
49.5
21
-11.100301
31
0
39
0
210
0
220
0
230
1
0
LINE
5
1C2
100
AcDbEntity
8
1
62
256
6
ByLayer
370
18
48
1
60
0
100
AcDbLine
10
49.5
20
-17.934952
30
0
11
49.5
21
-24.343451
31
0
39
0
210
0
220
0
230
1
0
LINE
5
1C3
100
AcDbEntity
8
1
62
256
6
ByLayer
370
18
48
1
60
0
100
AcDbLine
10
49.5
20
-17.934952
30
0
11
49.5
21
-11.795788
31
0
39
0
210
0
220
0
230
1
0
LINE
5
1C4
100
AcDbEntity
8
1
62
256
6
ByLayer
370
13
48
1
60
0
100
AcDbLine
10
44.9
20
-14.417055
30
0
11
44.9
21
-11.795788
31
0
39
0
210
0
220
0
230
1
0
LINE
5
1C5
100
AcDbEntity
8
1
62
256
6
ByLayer
370
13
48
1
60
0
100
AcDbLine
10
42.1
20
-11.795788
30
0
11
42.1
21
-14.417055
31
0
39
0
210
0
220
0
230
1
0
LINE
5
1C6
100
AcDbEntity
8
1
62
256
6
ByLayer
370
13
48
1
60
0
100
AcDbLine
10
48.986816
20
-24.949461
30
0
11
41.013184
21
-24.949461
31
0
39
0
210
0
220
0
230
1
0
LINE
5
1C7
100
AcDbEntity
8
1
62
256
6
ByLayer
370
18
48
1
60
0
100
AcDbLine
10
40.5
20
-11.795788
30
0
11
40.5
21
-17.934952
31
0
39
0
210
0
220
0
230
1
0
LINE
5
1C8
100
AcDbEntity
8
1
62
256
6
ByLayer
370
18
48
1
60
0
100
AcDbLine
10
44.9
20
-11.795788
30
0
11
49.5
21
-11.795788
31
0
39
0
210
0
220
0
230
1
0
LINE
5
1C9
100
AcDbEntity
8
1
62
256
6
ByLayer
370
13
48
1
60
0
100
AcDbLine
10
48.5
20
-24.939789
30
0
11
48.5
21
-18.557015
31
0
39
0
210
0
220
0
230
1
0
LINE
5
1CA
100
AcDbEntity
8
1
62
256
6
ByLayer
370
18
48
1
60
0
100
AcDbLine
10
40.5
20
18.35073
30
0
11
40.5
21
19.502047
31
0
39
0
210
0
220
0
230
1
0
LINE
5
1CB
100
AcDbEntity
8
1
62
256
6
ByLayer
370
18
48
1
60
0
100
AcDbLine
10
44.9
20
19.502047
30
0
11
49.5
21
19.502047
31
0
39
0
210
0
220
0
230
1
0
LINE
5
1CC
100
AcDbEntity
8
1
62
256
6
ByLayer
370
18
48
1
60
0
100
AcDbLine
10
45
20
-15.617258
30
0
11
45
21
-11.933243
31
0
39
0
210
0
220
0
230
1
0
LINE
5
1CD
100
AcDbEntity
8
1
62
256
6
ByLayer
370
18
48
1
60
0
100
AcDbLine
10
42
20
-11.933243
30
0
11
42
21
-15.617258
31
0
39
0
210
0
220
0
230
1
0
LINE
5
1CE
100
AcDbEntity
8
1
62
256
6
ByLayer
370
13
48
1
60
0
100
AcDbLine
10
41.5
20
-18.557015
30
0
11
41.5
21
-24.939789
31
0
39
0
210
0
220
0
230
1
0
LINE
5
1CF
100
AcDbEntity
8
1
62
256
6
ByLayer
370
18
48
1
60
0
100
AcDbLine
10
40.5
20
-11.795788
30
0
11
42.1
21
-11.795788
31
0
39
0
210
0
220
0
230
1
0
LINE
5
1D0
100
AcDbEntity
8
1
62
256
6
ByLayer
370
18
48
1
60
0
100
AcDbLine
10
41.5
20
-18.557015
30
0
11
48.5
21
-18.557015
31
0
39
0
210
0
220
0
230
1
0
LINE
5
1D1
100
AcDbEntity
8
1
62
256
6
ByLayer
370
18
48
1
60
0
100
AcDbLine
10
40.5
20
-24.343451
30
0
11
40.5
21
-17.934952
31
0
39
0
210
0
220
0
230
1
0
LINE
5
1D2
100
AcDbEntity
8
1
62
256
6
ByLayer
370
18
48
1
60
0
100
AcDbLine
10
49.5
20
18.35073
30
0
11
49.5
21
19.502047
31
0
39
0
210
0
220
0
230
1
0
LINE
5
1D3
100
AcDbEntity
8
1
62
256
6
ByLayer
370
18
48
1
60
0
100
AcDbLine
10
45
20
18.494429
30
0
11
45
21
19.443884
31
0
39
0
210
0
220
0
230
1
0
LINE
5
1D4
100
AcDbEntity
8
1
62
256
6
ByLayer
370
18
48
1
60
0
100
AcDbLine
10
42
20
19.443884
30
0
11
42
21
18.494429
31
0
39
0
210
0
220
0
230
1
0
LINE
5
1D5
100
AcDbEntity
8
1
62
256
6
ByLayer
370
18
48
1
60
0
100
AcDbLine
10
40.5
20
19.502047
30
0
11
42.1
21
19.502047
31
0
39
0
210
0
220
0
230
1
0
LINE
5
1D6
100
AcDbEntity
8
1
62
256
6
ByLayer
370
18
48
1
60
0
100
AcDbLine
10
41.5
20
18.494425
30
0
11
48.5
21
18.494425
31
0
39
0
210
0
220
0
230
1
0
LINE
5
1D7
100
AcDbEntity
8
1
62
256
6
ByLayer
370
18
48
1
60
0
100
AcDbLine
10
49.5
20
18.350721
30
0
11
49.5
21
11.55383
31
0
39
0
210
0
220
0
230
1
0
LINE
5
1D8
100
AcDbEntity
8
1
62
256
6
ByLayer
370
18
48
1
60
0
100
AcDbLine
10
40.5
20
11.55383
30
0
11
40.5
21
18.350721
31
0
39
0
210
0
220
0
230
1
0
LINE
5
1D9
100
AcDbEntity
8
1
62
256
6
ByLayer
370
18
48
1
60
0
100
AcDbLine
10
48.5
20
11.703787
30
0
11
41.5
21
11.703787
31
0
39
0
210
0
220
0
230
1
0
LINE
5
1DA
100
AcDbEntity
8
1
62
256
6
ByLayer
370
13
48
1
60
0
100
AcDbLine
10
48.5
20
11.703787
30
0
11
48.5
21
18.494425
31
0
39
0
210
0
220
0
230
1
0
LINE
5
1DB
100
AcDbEntity
8
1
62
256
6
ByLayer
370
18
48
1
60
0
100
AcDbLine
10
40.000028
20
-34.691765
30
0
11
40.000088
21
-35.630018
31
0
39
0
210
0
220
0
230
1
0
LINE
5
1DC
100
AcDbEntity
8
1
62
256
6
ByLayer
370
18
48
1
60
0
100
AcDbLine
10
40.124095
20
-29.862
30
0
11
40.091396
21
-31.134945
31
0
39
0
210
0
220
0
230
1
0
LINE
5
1DD
100
AcDbEntity
8
1
62
256
6
ByLayer
370
18
48
1
60
0
100
AcDbLine
10
40.016459
20
-34.052123
30
0
11
40.000028
21
-34.691765
31
0
39
0
210
0
220
0
230
1
0
LINE
5
1DE
100
AcDbEntity
8
1
62
256
6
ByLayer
370
13
48
1
60
0
100
AcDbLine
10
41.5
20
18.494425
30
0
11
41.5
21
11.703787
31
0
39
0
210
0
220
0
230
1
0
LINE
5
1DF
100
AcDbEntity
8
1
62
256
6
ByLayer
370
18
48
1
60
0
100
AcDbLine
10
49.525
20
17.284976
30
0
11
49.525
21
16.92444
31
0
39
0
210
0
220
0
230
1
0
LINE
5
1E0
100
AcDbEntity
8
1
62
256
6
ByLayer
370
18
48
1
60
0
100
AcDbLine
10
49.525
20
20.743878
30
0
11
49.525
21
17.284976
31
0
39
0
210
0
220
0
230
1
0
LINE
5
1E1
100
AcDbEntity
8
1
62
256
6
ByLayer
370
13
48
1
60
0
100
AcDbLine
10
48.986816
20
11.588411
30
0
11
41.013184
21
11.588411
31
0
39
0
210
0
220
0
230
1
0
LINE
5
1E2
100
AcDbEntity
8
1
62
256
6
ByLayer
370
13
48
1
60
0
100
AcDbLine
10
44.524645
20
31.663064
30
0
11
44.43075
21
32.192432
31
0
39
0
210
0
220
0
230
1
0
LINE
5
1E3
100
AcDbEntity
8
1
62
256
6
ByLayer
370
13
48
1
60
0
100
AcDbLine
10
44.081566
20
31.63638
30
0
11
43.987671
21
32.165748
31
0
39
0
210
0
220
0
230
1
0
LINE
5
1E4
100
AcDbEntity
8
1
62
256
6
ByLayer
370
18
48
1
60
0
100
AcDbLine
10
45.196296
20
32.727165
30
0
11
45.112625
21
33.198892
31
0
39
0
210
0
220
0
230
1
0
LINE
5
1E5
100
AcDbEntity
8
1
62
256
6
ByLayer
370
13
48
1
60
0
100
AcDbLine
10
45.150461
20
32.02383
30
0
11
45.056566
21
32.553198
31
0
39
0
210
0
220
0
230
1
0
LINE
5
1E6
100
AcDbEntity
8
1
62
256
6
ByLayer
370
18
48
1
60
0
100
AcDbLine
10
45.111595
20
33.238983
30
0
11
45.195266
21
32.767257
31
0
39
0
210
0
220
0
230
1
0
LINE
5
1E7
100
AcDbEntity
8
1
62
256
6
ByLayer
370
13
48
1
60
0
100
AcDbLine
10
43.439177
20
31.920771
30
0
11
43.345282
21
32.450139
31
0
39
0
210
0
220
0
230
1
0
LINE
5
1E8
100
AcDbEntity
8
1
62
256
6
ByLayer
370
13
48
1
60
0
100
AcDbLine
10
45.346604
20
33.021604
30
0
11
45.297334
21
33.29938
31
0
39
0
210
0
220
0
230
1
0
LINE
5
1E9
100
AcDbEntity
8
1
62
256
6
ByLayer
370
13
48
1
60
0
100
AcDbLine
10
43.192433
20
32.891873
30
0
11
43.157224
21
33.09038
31
0
39
0
210
0
220
0
230
1
0
LINE
5
1EA
100
AcDbEntity
8
1
62
256
6
ByLayer
370
18
48
1
60
0
100
AcDbLine
10
49.525
20
41.601709
30
0
11
49.525
21
43.890729
31
0
39
0
210
0
220
0
230
1
0
LINE
5
1EB
100
AcDbEntity
8
1
62
256
6
ByLayer
370
18
48
1
60
0
100
AcDbLine
10
40.5
20
-1.619115
30
0
11
40.5
21
-1.370958
31
0
39
0
210
0
220
0
230
1
0
LINE
5
1EC
100
AcDbEntity
8
1
62
256
6
ByLayer
370
18
48
1
60
0
100
AcDbLine
10
40.5
20
-1.619115
30
0
11
49.525
21
-1.564689
31
0
39
0
210
0
220
0
230
1
0
LINE
5
1ED
100
AcDbEntity
8
1
62
256
6
ByLayer
370
18
48
1
60
0
100
AcDbLine
10
49.525
20
-1.564689
30
0
11
49.525
21
0.727112
31
0
39
0
210
0
220
0
230
1
0
LINE
5
1EE
100
AcDbEntity
8
1
62
256
6
ByLayer
370
18
48
1
60
0
100
AcDbLine
10
48.566799
20
0.643309
30
0
11
49.525
21
0.727112
31
0
39
0
210
0
220
0
230
1
0
LINE
5
1EF
100
AcDbEntity
8
1
62
256
6
ByLayer
370
18
48
1
60
0
100
AcDbLine
10
49.525
20
11.572337
30
0
11
49.525
21
11.529325
31
0
39
0
210
0
220
0
230
1
0
LINE
5
1F0
100
AcDbEntity
8
1
62
256
6
ByLayer
370
18
48
1
60
0
100
AcDbLine
10
40.5
20
11.572337
30
0
11
40.5
21
11.529325
31
0
39
0
210
0
220
0
230
1
0
LINE
5
1F1
100
AcDbEntity
8
1
62
256
6
ByLayer
370
18
48
1
60
0
100
AcDbLine
10
40.5
20
11.529325
30
0
11
40.5
21
11.031425
31
0
39
0
210
0
220
0
230
1
0
LINE
5
1F2
100
AcDbEntity
8
1
62
256
6
ByLayer
370
18
48
1
60
0
100
AcDbLine
10
47.690982
20
4.734733
30
0
11
47.789855
21
4.67062
31
0
39
0
210
0
220
0
230
1
0
LINE
5
1F3
100
AcDbEntity
8
1
62
256
6
ByLayer
370
18
48
1
60
0
100
AcDbLine
10
49.525
20
11.529325
30
0
11
49.525
21
11.031425
31
0
39
0
210
0
220
0
230
1
0
LINE
5
1F4
100
AcDbEntity
8
1
62
256
6
ByLayer
370
18
48
1
60
0
100
AcDbLine
10
40.5
20
7.533632
30
0
11
40.5
21
5.595484
31
0
39
0
210
0
220
0
230
1
0
LINE
5
1F5
100
AcDbEntity
8
1
62
256
6
ByLayer
370
18
48
1
60
0
100
AcDbLine
10
40.000028
20
-33.070522
30
0
11
40.362625
21
-29.553181
31
0
39
0
210
0
220
0
230
1
0
LINE
5
1F6
100
AcDbEntity
8
1
62
256
6
ByLayer
370
18
48
1
60
0
100
AcDbLine
10
47.929907
20
4.15643
30
0
11
47.801126
21
4.66856
31
0
39
0
210
0
220
0
230
1
0
LINE
5
1F7
100
AcDbEntity
8
1
62
256
6
ByLayer
370
18
48
1
60
0
100
AcDbLine
10
48.467623
20
-33.423516
30
0
11
48.467683
21
-32.533147
31
0
39
0
210
0
220
0
230
1
0
LINE
5
1F8
100
AcDbEntity
8
1
62
256
6
ByLayer
370
18
48
1
60
0
100
AcDbLine
10
47.675923
20
6.100124
30
0
11
47.515407
21
6.213818
31
0
39
0
210
0
220
0
230
1
0
LINE
5
1F9
100
AcDbEntity
8
1
62
256
6
ByLayer
370
18
48
1
60
0
100
AcDbLine
10
49.525
20
7.533632
30
0
11
49.525
21
4.29702
31
0
39
0
210
0
220
0
230
1
0
LINE
5
1FA
100
AcDbEntity
8
1
62
256
6
ByLayer
370
18
48
1
60
0
100
AcDbLine
10
47.609867
20
5.028615
30
0
11
47.515407
21
6.213818
31
0
39
0
210
0
220
0
230
1
0
LINE
5
1FB
100
AcDbEntity
8
1
62
256
6
ByLayer
370
13
48
1
60
0
100
AcDbLine
10
49.525
20
11.529325
30
0
11
40.5
21
11.529325
31
0
39
0
210
0
220
0
230
1
0
LINE
5
1FC
100
AcDbEntity
8
1
62
256
6
ByLayer
370
18
48
1
60
0
100
AcDbLine
10
47.515407
20
6.213818
30
0
11
40.5
21
5.595484
31
0
39
0
210
0
220
0
230
1
0
LINE
5
1FD
100
AcDbEntity
8
1
62
256
6
ByLayer
370
18
48
1
60
0
100
AcDbLine
10
40.5
20
5.517735
30
0
11
40.5
21
5.595484
31
0
39
0
210
0
220
0
230
1
0
LINE
5
1FE
100
AcDbEntity
8
1
62
256
6
ByLayer
370
18
48
1
60
0
100
AcDbLine
10
48.197731
20
2.898806
30
0
11
49.525
21
3.014887
31
0
39
0
210
0
220
0
230
1
0
LINE
5
1FF
100
AcDbEntity
8
1
62
256
6
ByLayer
370
18
48
1
60
0
100
AcDbLine
10
49.525
20
4.29702
30
0
11
47.929907
21
4.15643
31
0
39
0
210
0
220
0
230
1
0
LINE
5
200
100
AcDbEntity
8
1
62
256
6
ByLayer
370
18
48
1
60
0
100
AcDbLine
10
47.929907
20
4.15643
30
0
11
47.962107
21
3.752413
31
0
39
0
210
0
220
0
230
1
0
LINE
5
201
100
AcDbEntity
8
1
62
256
6
ByLayer
370
18
48
1
60
0
100
AcDbLine
10
49.525
20
3.014887
30
0
11
49.525
21
4.29702
31
0
39
0
210
0
220
0
230
1
0
LINE
5
202
100
AcDbEntity
8
1
62
256
6
ByLayer
370
18
48
1
60
0
100
AcDbLine
10
48.467683
20
-32.533147
30
0
11
48.167346
21
-31.533337
31
0
39
0
210
0
220
0
230
1
0
LINE
5
203
100
AcDbEntity
8
1
62
256
6
ByLayer
370
18
48
1
60
0
100
AcDbLine
10
48.467683
20
-32.533147
30
0
11
48.515904
21
-31.5116
31
0
39
0
210
0
220
0
230
1
0
LINE
5
204
100
AcDbEntity
8
1
62
256
6
ByLayer
370
18
48
1
60
0
100
AcDbLine
10
40.000028
20
-33.070522
30
0
11
40.000088
21
-33.960883
31
0
39
0
210
0
220
0
230
1
0
LINE
5
205
100
AcDbEntity
8
1
62
256
6
ByLayer
370
18
48
1
60
0
100
AcDbLine
10
40.5
20
11.031425
30
0
11
40.5
21
7.533632
31
0
39
0
210
0
220
0
230
1
0
LINE
5
206
100
AcDbEntity
8
1
62
256
6
ByLayer
370
18
48
1
60
0
100
AcDbLine
10
47.801126
20
4.66856
30
0
11
47.675923
21
6.100124
31
0
39
0
210
0
220
0
230
1
0
LINE
5
207
100
AcDbEntity
8
1
62
256
6
ByLayer
370
18
48
1
60
0
100
AcDbLine
10
49.525
20
11.031425
30
0
11
49.525
21
7.533632
31
0
39
0
210
0
220
0
230
1
0
LINE
5
208
100
AcDbEntity
8
1
62
256
6
ByLayer
370
18
48
1
60
0
100
AcDbLine
10
40.124095
20
-30.442219
30
0
11
40.486691
21
-26.924878
31
0
39
0
210
0
220
0
230
1
0
LINE
5
209
100
AcDbEntity
8
1
62
256
6
ByLayer
370
18
48
1
60
0
100
AcDbLine
10
49.525
20
11.031425
30
0
11
40.5
21
11.031425
31
0
39
0
210
0
220
0
230
1
0
LINE
5
20A
100
AcDbEntity
8
1
62
256
6
ByLayer
370
18
48
1
60
0
100
AcDbLine
10
40.5
20
7.533632
30
0
11
49.525
21
7.533632
31
0
39
0
210
0
220
0
230
1
0
LINE
5
20B
100
AcDbEntity
8
1
62
256
6
ByLayer
370
18
48
1
60
0
100
AcDbLine
10
47.789855
20
4.67062
30
0
11
47.827941
21
4.238511
31
0
39
0
210
0
220
0
230
1
0
LINE
5
20C
100
AcDbEntity
8
1
62
256
6
ByLayer
370
18
48
1
60
0
100
AcDbLine
10
40.124095
20
-30.442219
30
0
11
40.000028
21
-33.070522
31
0
39
0
210
0
220
0
230
1
0
LINE
5
20D
100
AcDbEntity
8
1
62
256
6
ByLayer
370
18
48
1
60
0
100
AcDbLine
10
47.801126
20
4.66856
30
0
11
47.83843
21
4.200499
31
0
39
0
210
0
220
0
230
1
0
LINE
5
20E
100
AcDbEntity
8
1
62
256
6
ByLayer
370
18
48
1
60
0
100
AcDbLine
10
47.675923
20
6.100124
30
0
11
47.789855
21
4.67062
31
0
39
0
210
0
220
0
230
1
0
LINE
5
20F
100
AcDbEntity
8
1
62
256
6
ByLayer
370
18
48
1
60
0
100
AcDbLine
10
49.499899
20
17.284976
30
0
11
49.525
21
17.284976
31
0
39
0
210
0
220
0
230
1
0
LINE
5
210
100
AcDbEntity
8
1
62
256
6
ByLayer
370
18
48
1
60
0
100
AcDbLine
10
49.499899
20
20.743935
30
0
11
49.525
21
20.743935
31
0
39
0
210
0
220
0
230
1
0
LINE
5
211
100
AcDbEntity
8
1
62
256
6
ByLayer
370
18
48
1
60
0
100
AcDbLine
10
49.525
20
21.793677
30
0
11
49.525
21
20.743935
31
0
39
0
210
0
220
0
230
1
0
LINE
5
212
100
AcDbEntity
8
1
62
256
6
ByLayer
370
18
48
1
60
0
100
AcDbLine
10
49.499899
20
21.793677
30
0
11
49.525
21
21.793677
31
0
39
0
210
0
220
0
230
1
0
LINE
5
213
100
AcDbEntity
8
1
62
256
6
ByLayer
370
18
48
1
60
0
100
AcDbLine
10
49.525
20
22.144542
30
0
11
49.525
21
21.793677
31
0
39
0
210
0
220
0
230
1
0
LINE
5
214
100
AcDbEntity
8
1
62
256
6
ByLayer
370
13
48
1
60
0
100
AcDbLine
10
49.525
20
16.92444
30
0
11
49.499899
21
16.92444
31
0
39
0
210
0
220
0
230
1
0
LINE
5
215
100
AcDbEntity
8
1
62
256
6
ByLayer
370
18
48
1
60
0
100
AcDbLine
10
40.124095
20
-0.410277
30
0
11
40.000028
21
1.146393
31
0
39
0
210
0
220
0
230
1
0
LINE
5
216
100
AcDbEntity
8
1
62
256
6
ByLayer
370
18
48
1
60
0
100
AcDbLine
10
48.59175
20
0.330293
30
0
11
40.124095
21
-0.410277
31
0
39
0
210
0
220
0
230
1
0
LINE
5
217
100
AcDbEntity
8
1
62
256
6
ByLayer
370
18
48
1
60
0
100
AcDbLine
10
48.467683
20
1.886963
30
0
11
48.59175
21
0.330293
31
0
39
0
210
0
220
0
230
1
0
LINE
5
218
100
AcDbEntity
8
1
62
256
6
ByLayer
370
18
48
1
60
0
100
AcDbLine
10
40.894512
20
5.61011
30
0
11
46.815526
21
6.127954
31
0
39
0
210
0
220
0
230
1
0
LINE
5
219
100
AcDbEntity
8
1
62
256
6
ByLayer
370
18
48
1
60
0
100
AcDbLine
10
48.467623
20
1.920816
30
0
11
48.467683
21
1.886963
31
0
39
0
210
0
220
0
230
1
0
LINE
5
21A
100
AcDbEntity
8
1
62
256
6
ByLayer
370
18
48
1
60
0
100
AcDbLine
10
40.764269
20
1.267433
30
0
11
47.703443
21
1.874324
31
0
39
0
210
0
220
0
230
1
0
LINE
5
21B
100
AcDbEntity
8
1
62
256
6
ByLayer
370
18
48
1
60
0
100
AcDbLine
10
40.000028
20
1.146393
30
0
11
40.000088
21
1.180257
31
0
39
0
210
0
220
0
230
1
0
LINE
5
21C
100
AcDbEntity
8
1
62
256
6
ByLayer
370
18
48
1
60
0
100
AcDbLine
10
40.091396
20
31.134941
30
0
11
40.000028
21
33.070522
31
0
39
0
210
0
220
0
230
1
0
LINE
5
21D
100
AcDbEntity
8
1
62
256
6
ByLayer
370
18
48
1
60
0
100
AcDbLine
10
48.467683
20
1.886963
30
0
11
40.000028
21
1.146393
31
0
39
0
210
0
220
0
230
1
0
LINE
5
21E
100
AcDbEntity
8
1
62
256
6
ByLayer
370
18
48
1
60
0
100
AcDbLine
10
40.041837
20
33.067868
30
0
11
40.000028
21
33.070522
31
0
39
0
210
0
220
0
230
1
0
LINE
5
21F
100
AcDbEntity
8
1
62
256
6
ByLayer
370
18
48
1
60
0
100
AcDbLine
10
40.000028
20
33.070522
30
0
11
40.000088
21
33.960883
31
0
39
0
210
0
220
0
230
1
0
LINE
5
220
100
AcDbEntity
8
1
62
256
6
ByLayer
370
18
48
1
60
0
100
AcDbLine
10
40.000028
20
-34.691765
30
0
11
40.362625
21
-36.615176
31
0
39
0
210
0
220
0
230
1
0
LINE
5
221
100
AcDbEntity
8
1
62
256
6
ByLayer
370
18
48
1
60
0
100
AcDbLine
10
40.180521
20
-28.605967
30
0
11
40.124095
21
-29.862
31
0
39
0
210
0
220
0
230
1
0
LINE
5
222
100
AcDbEntity
8
1
62
256
6
ByLayer
370
18
48
1
60
0
100
AcDbLine
10
40.124095
20
-29.862
30
0
11
40.162768
21
-30.067144
31
0
39
0
210
0
220
0
230
1
0
LINE
5
223
100
AcDbEntity
8
1
62
256
6
ByLayer
370
18
48
1
60
0
100
AcDbLine
10
40.362625
20
-36.615176
30
0
11
40.41943
21
-34.403823
31
0
39
0
210
0
220
0
230
1
0
LINE
5
224
100
AcDbEntity
8
1
62
256
6
ByLayer
370
18
48
1
60
0
100
AcDbLine
10
40.399899
20
-37.952364
30
0
11
40.362625
21
-36.615176
31
0
39
0
210
0
220
0
230
1
0
LINE
5
225
100
AcDbEntity
8
1
62
256
6
ByLayer
370
18
48
1
60
0
100
AcDbLine
10
40.5
20
-1.728829
30
0
11
40.525101
21
-1.728829
31
0
39
0
210
0
220
0
230
1
0
LINE
5
226
100
AcDbEntity
8
1
62
256
6
ByLayer
370
18
48
1
60
0
100
AcDbLine
10
49.474939
20
-1.728829
30
0
11
49.525
21
-1.728829
31
0
39
0
210
0
220
0
230
1
0
LINE
5
227
100
AcDbEntity
8
1
62
256
6
ByLayer
370
18
48
1
60
0
100
AcDbLine
10
40.525
20
-11.297148
30
0
11
40.525
21
-11.198657
31
0
39
0
210
0
220
0
230
1
0
LINE
5
228
100
AcDbEntity
8
1
62
256
6
ByLayer
370
18
48
1
60
0
100
AcDbLine
10
49.475
20
-11.297148
30
0
11
49.475
21
-11.198657
31
0
39
0
210
0
220
0
230
1
0
LINE
5
229
100
AcDbEntity
8
1
62
256
6
ByLayer
370
18
48
1
60
0
100
AcDbLine
10
49.525
20
-1.564689
30
0
11
49.525
21
-1.728829
31
0
39
0
210
0
220
0
230
1
0
LINE
5
22A
100
AcDbEntity
8
1
62
256
6
ByLayer
370
18
48
1
60
0
100
AcDbLine
10
40.525
20
-2.016004
30
0
11
40.525
21
-1.70588
31
0
39
0
210
0
220
0
230
1
0
LINE
5
22B
100
AcDbEntity
8
1
62
256
6
ByLayer
370
18
48
1
60
0
100
AcDbLine
10
49.525
20
-35.0809
30
0
11
49.525
21
-34.797161
31
0
39
0
210
0
220
0
230
1
0
LINE
5
22C
100
AcDbEntity
8
1
62
256
6
ByLayer
370
18
48
1
60
0
100
AcDbLine
10
49.475
20
-2.016004
30
0
11
49.475
21
-1.70588
31
0
39
0
210
0
220
0
230
1
0
LINE
5
22D
100
AcDbEntity
8
1
62
256
6
ByLayer
370
18
48
1
60
0
100
AcDbLine
10
49.525
20
-32.474396
30
0
11
49.525
21
-32.36926
31
0
39
0
210
0
220
0
230
1
0
LINE
5
22E
100
AcDbEntity
8
1
62
256
6
ByLayer
370
18
48
1
60
0
100
AcDbLine
10
40.525
20
27.271596
30
0
11
49.475
21
27.271596
31
0
39
0
210
0
220
0
230
1
0
LINE
5
22F
100
AcDbEntity
8
1
62
256
6
ByLayer
370
18
48
1
60
0
100
AcDbLine
10
49.525
20
-33.351715
30
0
11
49.525
21
-33.635455
31
0
39
0
210
0
220
0
230
1
0
LINE
5
230
100
AcDbEntity
8
1
62
256
6
ByLayer
370
18
48
1
60
0
100
AcDbLine
10
49.525
20
-31.906269
30
0
11
49.525
21
-31.448732
31
0
39
0
210
0
220
0
230
1
0
LINE
5
231
100
AcDbEntity
8
1
62
256
6
ByLayer
370
18
48
1
60
0
100
AcDbLine
10
40.5
20
-46.360726
30
0
11
40.5
21
-45.980669
31
0
39
0
210
0
220
0
230
1
0
LINE
5
232
100
AcDbEntity
8
1
62
256
6
ByLayer
370
18
48
1
60
0
100
AcDbLine
10
49.525
20
-32.36926
30
0
11
49.525
21
-32.190009
31
0
39
0
210
0
220
0
230
1
0
LINE
5
233
100
AcDbEntity
8
1
62
256
6
ByLayer
370
18
48
1
60
0
100
AcDbLine
10
45.196296
20
1.133948
30
0
11
45.190817
21
1.196113
31
0
39
0
210
0
220
0
230
1
0
LINE
5
234
100
AcDbEntity
8
1
62
256
6
ByLayer
370
13
48
1
60
0
100
AcDbLine
10
44.524645
20
0.645475
30
0
11
44.472168
21
1.240864
31
0
39
0
210
0
220
0
230
1
0
LINE
5
235
100
AcDbEntity
8
1
62
256
6
ByLayer
370
13
48
1
60
0
100
AcDbLine
10
44.081566
20
0.606724
30
0
11
44.029139
21
1.201547
31
0
39
0
210
0
220
0
230
1
0
LINE
5
236
100
AcDbEntity
8
1
62
256
6
ByLayer
370
18
48
1
60
0
100
AcDbLine
10
43.338918
20
0.983253
30
0
11
43.339946
21
0.971594
31
0
39
0
210
0
220
0
230
1
0
LINE
5
237
100
AcDbEntity
8
1
62
256
6
ByLayer
370
18
48
1
60
0
100
AcDbLine
10
45.190928
20
1.196086
30
0
11
45.195266
21
1.14687
31
0
39
0
210
0
220
0
230
1
0
LINE
5
238
100
AcDbEntity
8
1
62
256
6
ByLayer
370
18
48
1
60
0
100
AcDbLine
10
43.338916
20
0.984516
30
0
11
43.334686
21
1.032516
31
0
39
0
210
0
220
0
230
1
0
LINE
5
239
100
AcDbEntity
8
1
62
256
6
ByLayer
370
13
48
1
60
0
100
AcDbLine
10
45.150461
20
0.804903
30
0
11
45.114763
21
1.209918
31
0
39
0
210
0
220
0
230
1
0
LINE
5
23A
100
AcDbEntity
8
1
62
256
6
ByLayer
370
13
48
1
60
0
100
AcDbLine
10
43.439177
20
0.655236
30
0
11
43.403661
21
1.058187
31
0
39
0
210
0
220
0
230
1
0
LINE
5
23B
100
AcDbEntity
8
1
62
256
6
ByLayer
370
13
48
1
60
0
100
AcDbLine
10
45.346604
20
1.141702
30
0
11
45.345389
21
1.155482
31
0
39
0
210
0
220
0
230
1
0
LINE
5
23C
100
AcDbEntity
8
1
62
256
6
ByLayer
370
13
48
1
60
0
100
AcDbLine
10
43.192433
20
0.953301
30
0
11
43.19128
21
0.966382
31
0
39
0
210
0
220
0
230
1
0
LINE
5
23D
100
AcDbEntity
8
1
62
256
6
ByLayer
370
18
48
1
60
0
100
AcDbLine
10
40.180521
20
-41.538594
30
0
11
40.124095
21
-42.641522
31
0
39
0
210
0
220
0
230
1
0
LINE
5
23E
100
AcDbEntity
8
1
62
256
6
ByLayer
370
18
48
1
60
0
100
AcDbLine
10
40.124095
20
-42.641522
30
0
11
40.000028
21
-47.915173
31
0
39
0
210
0
220
0
230
1
0
LINE
5
23F
100
AcDbEntity
8
1
62
256
6
ByLayer
370
18
48
1
60
0
100
AcDbLine
10
40.5
20
-35.200243
30
0
11
40.525031
21
-35.200243
31
0
39
0
210
0
220
0
230
1
0
LINE
5
240
100
AcDbEntity
8
1
62
256
6
ByLayer
370
18
48
1
60
0
100
AcDbLine
10
49.474969
20
-35.200243
30
0
11
49.5
21
-35.200243
31
0
39
0
210
0
220
0
230
1
0
LINE
5
241
100
AcDbEntity
8
1
62
256
6
ByLayer
370
18
48
1
60
0
100
AcDbLine
10
49.525
20
-17.661766
30
0
11
49.525
21
-17.77494
31
0
39
0
210
0
220
0
230
1
0
LINE
5
242
100
AcDbEntity
8
1
62
256
6
ByLayer
370
18
48
1
60
0
100
AcDbLine
10
49.525
20
-17.77494
30
0
11
49.525
21
-17.904184
31
0
39
0
210
0
220
0
230
1
0
LINE
5
243
100
AcDbEntity
8
1
62
256
6
ByLayer
370
18
48
1
60
0
100
AcDbLine
10
49.525
20
-17.904184
30
0
11
49.525
21
-18.380954
31
0
39
0
210
0
220
0
230
1
0
LINE
5
244
100
AcDbEntity
8
1
62
256
6
ByLayer
370
13
48
1
60
0
100
AcDbLine
10
49.525
20
-16.923131
30
0
11
49.499899
21
-16.923131
31
0
39
0
210
0
220
0
230
1
0
LINE
5
245
100
AcDbEntity
8
1
62
256
6
ByLayer
370
18
48
1
60
0
100
AcDbLine
10
49.525
20
-18.400401
30
0
11
49.525
21
-18.380955
31
0
39
0
210
0
220
0
230
1
0
LINE
5
246
100
AcDbEntity
8
1
62
256
6
ByLayer
370
13
48
1
60
0
100
AcDbLine
10
49.525
20
-17.036304
30
0
11
49.499899
21
-17.036304
31
0
39
0
210
0
220
0
230
1
0
LINE
5
247
100
AcDbEntity
8
1
62
256
6
ByLayer
370
13
48
1
60
0
100
AcDbLine
10
49.525
20
-17.165549
30
0
11
49.499899
21
-17.165549
31
0
39
0
210
0
220
0
230
1
0
LINE
5
248
100
AcDbEntity
8
1
62
256
6
ByLayer
370
18
48
1
60
0
100
AcDbLine
10
49.525
20
-18.513575
30
0
11
49.525
21
-18.400401
31
0
39
0
210
0
220
0
230
1
0
LINE
5
249
100
AcDbEntity
8
1
62
256
6
ByLayer
370
18
48
1
60
0
100
AcDbLine
10
49.525
20
-18.642819
30
0
11
49.525
21
-18.513575
31
0
39
0
210
0
220
0
230
1
0
LINE
5
24A
100
AcDbEntity
8
1
62
256
6
ByLayer
370
18
48
1
60
0
100
AcDbLine
10
49.525
20
-19.119589
30
0
11
49.525
21
-18.642819
31
0
39
0
210
0
220
0
230
1
0
LINE
5
24B
100
AcDbEntity
8
1
62
256
6
ByLayer
370
13
48
1
60
0
100
AcDbLine
10
49.525
20
-17.661766
30
0
11
49.499899
21
-17.661766
31
0
39
0
210
0
220
0
230
1
0
LINE
5
24C
100
AcDbEntity
8
1
62
256
6
ByLayer
370
18
48
1
60
0
100
AcDbLine
10
49.525
20
-19.11959
30
0
11
49.525
21
-19.139037
31
0
39
0
210
0
220
0
230
1
0
LINE
5
24D
100
AcDbEntity
8
1
62
256
6
ByLayer
370
13
48
1
60
0
100
AcDbLine
10
49.525
20
-17.77494
30
0
11
49.499899
21
-17.77494
31
0
39
0
210
0
220
0
230
1
0
LINE
5
24E
100
AcDbEntity
8
1
62
256
6
ByLayer
370
13
48
1
60
0
100
AcDbLine
10
49.525
20
-17.904184
30
0
11
49.499899
21
-17.904184
31
0
39
0
210
0
220
0
230
1
0
LINE
5
24F
100
AcDbEntity
8
1
62
256
6
ByLayer
370
18
48
1
60
0
100
AcDbLine
10
49.525
20
-19.25221
30
0
11
49.525
21
-19.139037
31
0
39
0
210
0
220
0
230
1
0
LINE
5
250
100
AcDbEntity
8
1
62
256
6
ByLayer
370
18
48
1
60
0
100
AcDbLine
10
49.525
20
-19.25221
30
0
11
49.525
21
-19.381455
31
0
39
0
210
0
220
0
230
1
0
LINE
5
251
100
AcDbEntity
8
1
62
256
6
ByLayer
370
18
48
1
60
0
100
AcDbLine
10
49.525
20
-19.381455
30
0
11
49.525
21
-19.858224
31
0
39
0
210
0
220
0
230
1
0
LINE
5
252
100
AcDbEntity
8
1
62
256
6
ByLayer
370
13
48
1
60
0
100
AcDbLine
10
49.525
20
-18.400401
30
0
11
49.499899
21
-18.400401
31
0
39
0
210
0
220
0
230
1
0
LINE
5
253
100
AcDbEntity
8
1
62
256
6
ByLayer
370
18
48
1
60
0
100
AcDbLine
10
49.525
20
-19.877672
30
0
11
49.525
21
-19.858226
31
0
39
0
210
0
220
0
230
1
0
LINE
5
254
100
AcDbEntity
8
1
62
256
6
ByLayer
370
13
48
1
60
0
100
AcDbLine
10
49.525
20
-18.513575
30
0
11
49.499899
21
-18.513575
31
0
39
0
210
0
220
0
230
1
0
LINE
5
255
100
AcDbEntity
8
1
62
256
6
ByLayer
370
13
48
1
60
0
100
AcDbLine
10
49.525
20
-18.642819
30
0
11
49.499899
21
-18.642819
31
0
39
0
210
0
220
0
230
1
0
LINE
5
256
100
AcDbEntity
8
1
62
256
6
ByLayer
370
18
48
1
60
0
100
AcDbLine
10
49.525
20
-19.990846
30
0
11
49.525
21
-19.877672
31
0
39
0
210
0
220
0
230
1
0
LINE
5
257
100
AcDbEntity
8
1
62
256
6
ByLayer
370
18
48
1
60
0
100
AcDbLine
10
49.525
20
-20.12009
30
0
11
49.525
21
-19.990846
31
0
39
0
210
0
220
0
230
1
0
LINE
5
258
100
AcDbEntity
8
1
62
256
6
ByLayer
370
18
48
1
60
0
100
AcDbLine
10
49.525
20
-20.59686
30
0
11
49.525
21
-20.12009
31
0
39
0
210
0
220
0
230
1
0
LINE
5
259
100
AcDbEntity
8
1
62
256
6
ByLayer
370
13
48
1
60
0
100
AcDbLine
10
49.525
20
-19.139037
30
0
11
49.499899
21
-19.139037
31
0
39
0
210
0
220
0
230
1
0
LINE
5
25A
100
AcDbEntity
8
1
62
256
6
ByLayer
370
18
48
1
60
0
100
AcDbLine
10
49.525
20
-20.596861
30
0
11
49.525
21
-20.616308
31
0
39
0
210
0
220
0
230
1
0
LINE
5
25B
100
AcDbEntity
8
1
62
256
6
ByLayer
370
13
48
1
60
0
100
AcDbLine
10
49.525
20
-19.25221
30
0
11
49.499899
21
-19.25221
31
0
39
0
210
0
220
0
230
1
0
LINE
5
25C
100
AcDbEntity
8
1
62
256
6
ByLayer
370
13
48
1
60
0
100
AcDbLine
10
49.525
20
-19.381455
30
0
11
49.499899
21
-19.381455
31
0
39
0
210
0
220
0
230
1
0
LINE
5
25D
100
AcDbEntity
8
1
62
256
6
ByLayer
370
18
48
1
60
0
100
AcDbLine
10
49.525
20
-20.616308
30
0
11
49.525
21
-20.729481
31
0
39
0
210
0
220
0
230
1
0
LINE
5
25E
100
AcDbEntity
8
1
62
256
6
ByLayer
370
18
48
1
60
0
100
AcDbLine
10
49.525
20
-20.729481
30
0
11
49.525
21
-20.858725
31
0
39
0
210
0
220
0
230
1
0
LINE
5
25F
100
AcDbEntity
8
1
62
256
6
ByLayer
370
18
48
1
60
0
100
AcDbLine
10
49.525
20
-20.858725
30
0
11
49.525
21
-21.335495
31
0
39
0
210
0
220
0
230
1
0
LINE
5
260
100
AcDbEntity
8
1
62
256
6
ByLayer
370
13
48
1
60
0
100
AcDbLine
10
49.525
20
-19.877672
30
0
11
49.499899
21
-19.877672
31
0
39
0
210
0
220
0
230
1
0
LINE
5
261
100
AcDbEntity
8
1
62
256
6
ByLayer
370
18
48
1
60
0
100
AcDbLine
10
49.525
20
-21.354943
30
0
11
49.525
21
-21.335496
31
0
39
0
210
0
220
0
230
1
0
LINE
5
262
100
AcDbEntity
8
1
62
256
6
ByLayer
370
13
48
1
60
0
100
AcDbLine
10
49.525
20
-19.990846
30
0
11
49.499899
21
-19.990846
31
0
39
0
210
0
220
0
230
1
0
LINE
5
263
100
AcDbEntity
8
1
62
256
6
ByLayer
370
13
48
1
60
0
100
AcDbLine
10
49.525
20
-20.12009
30
0
11
49.499899
21
-20.12009
31
0
39
0
210
0
220
0
230
1
0
LINE
5
264
100
AcDbEntity
8
1
62
256
6
ByLayer
370
18
48
1
60
0
100
AcDbLine
10
49.525
20
-21.468116
30
0
11
49.525
21
-21.354943
31
0
39
0
210
0
220
0
230
1
0
LINE
5
265
100
AcDbEntity
8
1
62
256
6
ByLayer
370
18
48
1
60
0
100
AcDbLine
10
49.525
20
-21.597361
30
0
11
49.525
21
-21.468116
31
0
39
0
210
0
220
0
230
1
0
LINE
5
266
100
AcDbEntity
8
1
62
256
6
ByLayer
370
18
48
1
60
0
100
AcDbLine
10
49.525
20
-22.07413
30
0
11
49.525
21
-21.597361
31
0
39
0
210
0
220
0
230
1
0
LINE
5
267
100
AcDbEntity
8
1
62
256
6
ByLayer
370
13
48
1
60
0
100
AcDbLine
10
49.525
20
-20.616308
30
0
11
49.499899
21
-20.616308
31
0
39
0
210
0
220
0
230
1
0
LINE
5
268
100
AcDbEntity
8
1
62
256
6
ByLayer
370
18
48
1
60
0
100
AcDbLine
10
49.525
20
-22.074132
30
0
11
49.525
21
-22.093578
31
0
39
0
210
0
220
0
230
1
0
LINE
5
269
100
AcDbEntity
8
1
62
256
6
ByLayer
370
13
48
1
60
0
100
AcDbLine
10
49.525
20
-20.729481
30
0
11
49.499899
21
-20.729481
31
0
39
0
210
0
220
0
230
1
0
LINE
5
26A
100
AcDbEntity
8
1
62
256
6
ByLayer
370
13
48
1
60
0
100
AcDbLine
10
49.525
20
-20.858725
30
0
11
49.499899
21
-20.858725
31
0
39
0
210
0
220
0
230
1
0
LINE
5
26B
100
AcDbEntity
8
1
62
256
6
ByLayer
370
18
48
1
60
0
100
AcDbLine
10
49.525
20
-22.206752
30
0
11
49.525
21
-22.093578
31
0
39
0
210
0
220
0
230
1
0
LINE
5
26C
100
AcDbEntity
8
1
62
256
6
ByLayer
370
18
48
1
60
0
100
AcDbLine
10
49.525
20
-22.206752
30
0
11
49.525
21
-22.335996
31
0
39
0
210
0
220
0
230
1
0
LINE
5
26D
100
AcDbEntity
8
1
62
256
6
ByLayer
370
18
48
1
60
0
100
AcDbLine
10
49.525
20
-22.335996
30
0
11
49.525
21
-22.812766
31
0
39
0
210
0
220
0
230
1
0
LINE
5
26E
100
AcDbEntity
8
1
62
256
6
ByLayer
370
13
48
1
60
0
100
AcDbLine
10
49.525
20
-21.354943
30
0
11
49.499899
21
-21.354943
31
0
39
0
210
0
220
0
230
1
0
LINE
5
26F
100
AcDbEntity
8
1
62
256
6
ByLayer
370
18
48
1
60
0
100
AcDbLine
10
49.525
20
-22.832214
30
0
11
49.525
21
-22.812767
31
0
39
0
210
0
220
0
230
1
0
LINE
5
270
100
AcDbEntity
8
1
62
256
6
ByLayer
370
13
48
1
60
0
100
AcDbLine
10
49.525
20
-21.468116
30
0
11
49.499899
21
-21.468116
31
0
39
0
210
0
220
0
230
1
0
LINE
5
271
100
AcDbEntity
8
1
62
256
6
ByLayer
370
13
48
1
60
0
100
AcDbLine
10
49.525
20
-21.597361
30
0
11
49.499899
21
-21.597361
31
0
39
0
210
0
220
0
230
1
0
LINE
5
272
100
AcDbEntity
8
1
62
256
6
ByLayer
370
18
48
1
60
0
100
AcDbLine
10
49.525
20
-22.945387
30
0
11
49.525
21
-22.832214
31
0
39
0
210
0
220
0
230
1
0
LINE
5
273
100
AcDbEntity
8
1
62
256
6
ByLayer
370
18
48
1
60
0
100
AcDbLine
10
49.525
20
-23.074631
30
0
11
49.525
21
-22.945387
31
0
39
0
210
0
220
0
230
1
0
LINE
5
274
100
AcDbEntity
8
1
62
256
6
ByLayer
370
18
48
1
60
0
100
AcDbLine
10
49.525
20
-23.551401
30
0
11
49.525
21
-23.074631
31
0
39
0
210
0
220
0
230
1
0
LINE
5
275
100
AcDbEntity
8
1
62
256
6
ByLayer
370
13
48
1
60
0
100
AcDbLine
10
49.525
20
-22.093578
30
0
11
49.499996
21
-22.093578
31
0
39
0
210
0
220
0
230
1
0
LINE
5
276
100
AcDbEntity
8
1
62
256
6
ByLayer
370
18
48
1
60
0
100
AcDbLine
10
49.525
20
-23.551402
30
0
11
49.525
21
-23.570849
31
0
39
0
210
0
220
0
230
1
0
LINE
5
277
100
AcDbEntity
8
1
62
256
6
ByLayer
370
13
48
1
60
0
100
AcDbLine
10
49.525
20
-22.206752
30
0
11
49.49999
21
-22.206752
31
0
39
0
210
0
220
0
230
1
0
LINE
5
278
100
AcDbEntity
8
1
62
256
6
ByLayer
370
13
48
1
60
0
100
AcDbLine
10
49.525
20
-22.335996
30
0
11
49.499979
21
-22.335996
31
0
39
0
210
0
220
0
230
1
0
LINE
5
279
100
AcDbEntity
8
1
62
256
6
ByLayer
370
18
48
1
60
0
100
AcDbLine
10
49.525
20
-23.570849
30
0
11
49.525
21
-23.684022
31
0
39
0
210
0
220
0
230
1
0
LINE
5
27A
100
AcDbEntity
8
1
62
256
6
ByLayer
370
18
48
1
60
0
100
AcDbLine
10
49.525
20
-23.684022
30
0
11
49.525
21
-23.813267
31
0
39
0
210
0
220
0
230
1
0
LINE
5
27B
100
AcDbEntity
8
1
62
256
6
ByLayer
370
18
48
1
60
0
100
AcDbLine
10
49.525
20
-23.813267
30
0
11
49.525
21
-24.290036
31
0
39
0
210
0
220
0
230
1
0
LINE
5
27C
100
AcDbEntity
8
1
62
256
6
ByLayer
370
13
48
1
60
0
100
AcDbLine
10
49.525
20
-22.832214
30
0
11
49.499938
21
-22.832214
31
0
39
0
210
0
220
0
230
1
0
LINE
5
27D
100
AcDbEntity
8
1
62
256
6
ByLayer
370
18
48
1
60
0
100
AcDbLine
10
49.525
20
-29.160097
30
0
11
49.525
21
-31.448727
31
0
39
0
210
0
220
0
230
1
0
LINE
5
27E
100
AcDbEntity
8
1
62
256
6
ByLayer
370
13
48
1
60
0
100
AcDbLine
10
49.525
20
-22.945387
30
0
11
49.499993
21
-22.945387
31
0
39
0
210
0
220
0
230
1
0
LINE
5
27F
100
AcDbEntity
8
1
62
256
6
ByLayer
370
18
48
1
60
0
100
AcDbLine
10
40.5
20
-29.160097
30
0
11
40.5
21
-30.530574
31
0
39
0
210
0
220
0
230
1
0
LINE
5
280
100
AcDbEntity
8
1
62
256
6
ByLayer
370
13
48
1
60
0
100
AcDbLine
10
49.525
20
-23.074631
30
0
11
49.49994
21
-23.074631
31
0
39
0
210
0
220
0
230
1
0
LINE
5
281
100
AcDbEntity
8
1
62
256
6
ByLayer
370
18
48
1
60
0
100
AcDbLine
10
47.515407
20
-30.093346
30
0
11
40.5
21
-30.530574
31
0
39
0
210
0
220
0
230
1
0
LINE
5
282
100
AcDbEntity
8
1
62
256
6
ByLayer
370
18
48
1
60
0
100
AcDbLine
10
47.675923
20
-30.17374
30
0
11
47.515407
21
-30.093346
31
0
39
0
210
0
220
0
230
1
0
LINE
5
283
100
AcDbEntity
8
1
62
256
6
ByLayer
370
18
48
1
60
0
100
AcDbLine
10
47.801126
20
-31.186009
30
0
11
47.675923
21
-30.17374
31
0
39
0
210
0
220
0
230
1
0
LINE
5
284
100
AcDbEntity
8
1
62
256
6
ByLayer
370
13
48
1
60
0
100
AcDbLine
10
49.525
20
-23.570849
30
0
11
49.499899
21
-23.570849
31
0
39
0
210
0
220
0
230
1
0
LINE
5
285
100
AcDbEntity
8
1
62
256
6
ByLayer
370
18
48
1
60
0
100
AcDbLine
10
47.929907
20
-31.548139
30
0
11
47.801126
21
-31.186009
31
0
39
0
210
0
220
0
230
1
0
LINE
5
286
100
AcDbEntity
8
1
62
256
6
ByLayer
370
13
48
1
60
0
100
AcDbLine
10
49.525
20
-23.684022
30
0
11
49.499899
21
-23.684022
31
0
39
0
210
0
220
0
230
1
0
LINE
5
287
100
AcDbEntity
8
1
62
256
6
ByLayer
370
18
48
1
60
0
100
AcDbLine
10
49.525
20
-31.448727
30
0
11
47.929907
21
-31.548139
31
0
39
0
210
0
220
0
230
1
0
LINE
5
288
100
AcDbEntity
8
1
62
256
6
ByLayer
370
13
48
1
60
0
100
AcDbLine
10
49.525
20
-23.813267
30
0
11
49.499899
21
-23.813267
31
0
39
0
210
0
220
0
230
1
0
LINE
5
289
100
AcDbEntity
8
1
62
256
6
ByLayer
370
18
48
1
60
0
100
AcDbLine
10
49.525
20
-24.309484
30
0
11
49.525
21
-24.290038
31
0
39
0
210
0
220
0
230
1
0
LINE
5
28A
100
AcDbEntity
8
1
62
256
6
ByLayer
370
18
48
1
60
0
100
AcDbLine
10
49.525
20
-24.422658
30
0
11
49.525
21
-24.309484
31
0
39
0
210
0
220
0
230
1
0
LINE
5
28B
100
AcDbEntity
8
1
62
256
6
ByLayer
370
18
48
1
60
0
100
AcDbLine
10
40.5
20
-24.422658
30
0
11
40.5
21
-24.343452
31
0
39
0
210
0
220
0
230
1
0
LINE
5
28C
100
AcDbEntity
8
1
62
256
6
ByLayer
370
18
48
1
60
0
100
AcDbLine
10
49.525
20
-24.551902
30
0
11
49.525
21
-24.422658
31
0
39
0
210
0
220
0
230
1
0
LINE
5
28D
100
AcDbEntity
8
1
62
256
6
ByLayer
370
18
48
1
60
0
100
AcDbLine
10
40.5
20
-24.551902
30
0
11
40.5
21
-24.422658
31
0
39
0
210
0
220
0
230
1
0
LINE
5
28E
100
AcDbEntity
8
1
62
256
6
ByLayer
370
18
48
1
60
0
100
AcDbLine
10
49.525
20
-25.028672
30
0
11
49.525
21
-24.551902
31
0
39
0
210
0
220
0
230
1
0
LINE
5
28F
100
AcDbEntity
8
1
62
256
6
ByLayer
370
18
48
1
60
0
100
AcDbLine
10
40.5
20
-25.028672
30
0
11
40.5
21
-24.551902
31
0
39
0
210
0
220
0
230
1
0
LINE
5
290
100
AcDbEntity
8
1
62
256
6
ByLayer
370
18
48
1
60
0
100
AcDbLine
10
49.525
20
-25.028673
30
0
11
49.525
21
-25.04812
31
0
39
0
210
0
220
0
230
1
0
LINE
5
291
100
AcDbEntity
8
1
62
256
6
ByLayer
370
18
48
1
60
0
100
AcDbLine
10
40.5
20
-25.028673
30
0
11
40.5
21
-25.04812
31
0
39
0
210
0
220
0
230
1
0
LINE
5
292
100
AcDbEntity
8
1
62
256
6
ByLayer
370
18
48
1
60
0
100
AcDbLine
10
49.525
20
-11.398475
30
0
11
49.525
21
-11.17147
31
0
39
0
210
0
220
0
230
1
0
LINE
5
293
100
AcDbEntity
8
1
62
256
6
ByLayer
370
13
48
1
60
0
100
AcDbLine
10
49.525
20
-24.309484
30
0
11
49.499899
21
-24.309484
31
0
39
0
210
0
220
0
230
1
0
LINE
5
294
100
AcDbEntity
8
1
62
256
6
ByLayer
370
18
48
1
60
0
100
AcDbLine
10
49.525
20
-25.161293
30
0
11
49.525
21
-25.04812
31
0
39
0
210
0
220
0
230
1
0
LINE
5
295
100
AcDbEntity
8
1
62
256
6
ByLayer
370
18
48
1
60
0
100
AcDbLine
10
40.5
20
-25.161293
30
0
11
40.5
21
-25.04812
31
0
39
0
210
0
220
0
230
1
0
LINE
5
296
100
AcDbEntity
8
1
62
256
6
ByLayer
370
13
48
1
60
0
100
AcDbLine
10
49.525
20
-24.422658
30
0
11
49.491015
21
-24.422658
31
0
39
0
210
0
220
0
230
1
0
LINE
5
297
100
AcDbEntity
8
1
62
256
6
ByLayer
370
18
48
1
60
0
100
AcDbLine
10
49.525
20
-11.166024
30
0
11
49.525
21
-11.17148
31
0
39
0
210
0
220
0
230
1
0
LINE
5
298
100
AcDbEntity
8
1
62
256
6
ByLayer
370
18
48
1
60
0
100
AcDbLine
10
49.525
20
-25.161293
30
0
11
49.525
21
-25.290537
31
0
39
0
210
0
220
0
230
1
0
LINE
5
299
100
AcDbEntity
8
1
62
256
6
ByLayer
370
18
48
1
60
0
100
AcDbLine
10
40.5
20
-25.161293
30
0
11
40.5
21
-25.290537
31
0
39
0
210
0
220
0
230
1
0
LINE
5
29A
100
AcDbEntity
8
1
62
256
6
ByLayer
370
13
48
1
60
0
100
AcDbLine
10
49.525
20
-24.551902
30
0
11
49.463376
21
-24.551902
31
0
39
0
210
0
220
0
230
1
0
LINE
5
29B
100
AcDbEntity
8
1
62
256
6
ByLayer
370
13
48
1
60
0
100
AcDbLine
10
40.536664
20
-24.551902
30
0
11
40.5
21
-24.551902
31
0
39
0
210
0
220
0
230
1
0
LINE
5
29C
100
AcDbEntity
8
1
62
256
6
ByLayer
370
18
48
1
60
0
100
AcDbLine
10
49.525
20
-17.642318
30
0
11
49.525
21
-17.165549
31
0
39
0
210
0
220
0
230
1
0
LINE
5
29D
100
AcDbEntity
8
1
62
256
6
ByLayer
370
18
48
1
60
0
100
AcDbLine
10
49.525
20
-25.290537
30
0
11
49.525
21
-26.000873
31
0
39
0
210
0
220
0
230
1
0
LINE
5
29E
100
AcDbEntity
8
1
62
256
6
ByLayer
370
18
48
1
60
0
100
AcDbLine
10
49.525
20
-17.642319
30
0
11
49.525
21
-17.661766
31
0
39
0
210
0
220
0
230
1
0
LINE
5
29F
100
AcDbEntity
8
1
62
256
6
ByLayer
370
18
48
1
60
0
100
AcDbLine
10
40.5
20
-25.290537
30
0
11
40.5
21
-26.000873
31
0
39
0
210
0
220
0
230
1
0
LINE
5
2A0
100
AcDbEntity
8
1
62
256
6
ByLayer
370
18
48
1
60
0
100
AcDbLine
10
49.525
20
-26.000873
30
0
11
49.525
21
-29.160097
31
0
39
0
210
0
220
0
230
1
0
LINE
5
2A1
100
AcDbEntity
8
1
62
256
6
ByLayer
370
18
48
1
60
0
100
AcDbLine
10
49.525
20
-26.000873
30
0
11
40.5
21
-26.000873
31
0
39
0
210
0
220
0
230
1
0
LINE
5
2A2
100
AcDbEntity
8
1
62
256
6
ByLayer
370
18
48
1
60
0
100
AcDbLine
10
49.525
20
-11.572337
30
0
11
49.525
21
-11.566882
31
0
39
0
210
0
220
0
230
1
0
LINE
5
2A3
100
AcDbEntity
8
1
62
256
6
ByLayer
370
13
48
1
60
0
100
AcDbLine
10
49.525
20
-25.04812
30
0
11
40.5
21
-25.04812
31
0
39
0
210
0
220
0
230
1
0
LINE
5
2A4
100
AcDbEntity
8
1
62
256
6
ByLayer
370
18
48
1
60
0
100
AcDbLine
10
49.525
20
-11.566882
30
0
11
49.525
21
-11.505462
31
0
39
0
210
0
220
0
230
1
0
LINE
5
2A5
100
AcDbEntity
8
1
62
256
6
ByLayer
370
18
48
1
60
0
100
AcDbLine
10
49.525
20
-11.505462
30
0
11
49.525
21
-11.398475
31
0
39
0
210
0
220
0
230
1
0
LINE
5
2A6
100
AcDbEntity
8
1
62
256
6
ByLayer
370
13
48
1
60
0
100
AcDbLine
10
49.525
20
-25.161293
30
0
11
40.5
21
-25.161293
31
0
39
0
210
0
220
0
230
1
0
LINE
5
2A7
100
AcDbEntity
8
1
62
256
6
ByLayer
370
18
48
1
60
0
100
AcDbLine
10
40.5
20
-26.000873
30
0
11
40.5
21
-29.160097
31
0
39
0
210
0
220
0
230
1
0
LINE
5
2A8
100
AcDbEntity
8
1
62
256
6
ByLayer
370
18
48
1
60
0
100
AcDbLine
10
40.5
20
-29.160097
30
0
11
49.525
21
-29.160097
31
0
39
0
210
0
220
0
230
1
0
LINE
5
2A9
100
AcDbEntity
8
1
62
256
6
ByLayer
370
13
48
1
60
0
100
AcDbLine
10
49.525
20
-25.290537
30
0
11
40.5
21
-25.290537
31
0
39
0
210
0
220
0
230
1
0
LINE
5
2AA
100
AcDbEntity
8
1
62
256
6
ByLayer
370
18
48
1
60
0
100
AcDbLine
10
40.894512
20
38.406203
30
0
11
46.815526
21
38.762786
31
0
39
0
210
0
220
0
230
1
0
LINE
5
2AB
100
AcDbEntity
8
1
62
256
6
ByLayer
370
18
48
1
60
0
100
AcDbLine
10
45.866025
20
-7.422838
30
0
11
45.866025
21
-6.888362
31
0
39
0
210
0
220
0
230
1
0
LINE
5
2AC
100
AcDbEntity
8
1
62
256
6
ByLayer
370
18
48
1
60
0
100
AcDbLine
10
48.467623
20
36.139961
30
0
11
48.467683
21
35.201715
31
0
39
0
210
0
220
0
230
1
0
LINE
5
2AD
100
AcDbEntity
8
1
62
256
6
ByLayer
370
18
48
1
60
0
100
AcDbLine
10
40.525
20
19.50205
30
0
11
40.525
21
19.709634
31
0
39
0
210
0
220
0
230
1
0
LINE
5
2AE
100
AcDbEntity
8
1
62
256
6
ByLayer
370
18
48
1
60
0
100
AcDbLine
10
40.000028
20
34.691765
30
0
11
40.000088
21
35.630018
31
0
39
0
210
0
220
0
230
1
0
LINE
5
2AF
100
AcDbEntity
8
1
62
256
6
ByLayer
370
18
48
1
60
0
100
AcDbLine
10
48.467683
20
35.201715
30
0
11
40.000028
21
34.691765
31
0
39
0
210
0
220
0
230
1
0
LINE
5
2B0
100
AcDbEntity
8
1
62
256
6
ByLayer
370
18
48
1
60
0
100
AcDbLine
10
49.525
20
-16.923131
30
0
11
49.525
21
-16.903684
31
0
39
0
210
0
220
0
230
1
0
LINE
5
2B1
100
AcDbEntity
8
1
62
256
6
ByLayer
370
18
48
1
60
0
100
AcDbLine
10
49.525
20
-17.036304
30
0
11
49.525
21
-16.923131
31
0
39
0
210
0
220
0
230
1
0
LINE
5
2B2
100
AcDbEntity
8
1
62
256
6
ByLayer
370
18
48
1
60
0
100
AcDbLine
10
49.525
20
-17.165549
30
0
11
49.525
21
-17.036304
31
0
39
0
210
0
220
0
230
1
0
LINE
5
2B3
100
AcDbEntity
8
1
62
256
6
ByLayer
370
18
48
1
60
0
100
AcDbLine
10
40.764269
20
36.239716
30
0
11
47.703443
21
36.657616
31
0
39
0
210
0
220
0
230
1
0
LINE
5
2B4
100
AcDbEntity
8
1
62
256
6
ByLayer
370
18
48
1
60
0
100
AcDbLine
10
49.475
20
19.50205
30
0
11
49.475
21
19.709634
31
0
39
0
210
0
220
0
230
1
0
LINE
5
2B5
100
AcDbEntity
8
1
62
256
6
ByLayer
370
18
48
1
60
0
100
AcDbLine
10
40.124095
20
-42.641522
30
0
11
40.486691
21
-41.514443
31
0
39
0
210
0
220
0
230
1
0
LINE
5
2B6
100
AcDbEntity
8
1
62
256
6
ByLayer
370
18
48
1
60
0
100
AcDbLine
10
40.000028
20
-47.915173
30
0
11
40.000088
21
-49.208198
31
0
39
0
210
0
220
0
230
1
0
LINE
5
2B7
100
AcDbEntity
8
1
62
256
6
ByLayer
370
18
48
1
60
0
100
AcDbLine
10
40.000028
20
-47.915173
30
0
11
40.362625
21
-46.788094
31
0
39
0
210
0
220
0
230
1
0
LINE
5
2B8
100
AcDbEntity
8
1
62
256
6
ByLayer
370
18
48
1
60
0
100
AcDbLine
10
49.475
20
19.709634
30
0
11
40.525
21
19.709634
31
0
39
0
210
0
220
0
230
1
0
LINE
5
2B9
100
AcDbEntity
8
1
62
256
6
ByLayer
370
18
48
1
60
0
100
AcDbLine
10
49.525
20
-32.190009
30
0
11
49.525
21
-31.906269
31
0
39
0
210
0
220
0
230
1
0
LINE
5
2BA
100
AcDbEntity
8
1
62
256
6
ByLayer
370
18
48
1
60
0
100
AcDbLine
10
48.467623
20
-49.188806
30
0
11
48.467643
21
-48.772229
31
0
39
0
210
0
220
0
230
1
0
LINE
5
2BB
100
AcDbEntity
8
1
62
256
6
ByLayer
370
18
48
1
60
0
100
AcDbLine
10
40.764269
20
-49.983265
30
0
11
47.703443
21
-49.967373
31
0
39
0
210
0
220
0
230
1
0
LINE
5
2BC
100
AcDbEntity
8
1
62
256
6
ByLayer
370
18
48
1
60
0
100
AcDbLine
10
40.486691
20
-41.514443
30
0
11
40.500001
21
-41.331249
31
0
39
0
210
0
220
0
230
1
0
LINE
5
2BD
100
AcDbEntity
8
1
62
256
6
ByLayer
370
18
48
1
60
0
100
AcDbLine
10
40.362625
20
-46.788094
30
0
11
40.486691
21
-41.514443
31
0
39
0
210
0
220
0
230
1
0
LINE
5
2BE
100
AcDbEntity
8
1
62
256
6
ByLayer
370
18
48
1
60
0
100
AcDbLine
10
40.399899
20
-48.243311
30
0
11
40.362625
21
-46.788094
31
0
39
0
210
0
220
0
230
1
0
LINE
5
2BF
100
AcDbEntity
8
1
62
256
6
ByLayer
370
18
48
1
60
0
100
AcDbLine
10
49.475
20
27.271596
30
0
11
49.475
21
19.709634
31
0
39
0
210
0
220
0
230
1
0
LINE
5
2C0
100
AcDbEntity
8
1
62
256
6
ByLayer
370
18
48
1
60
0
100
AcDbLine
10
40.525
20
27.271596
30
0
11
40.525
21
27.351048
31
0
39
0
210
0
220
0
230
1
0
LINE
5
2C1
100
AcDbEntity
8
1
62
256
6
ByLayer
370
18
48
1
60
0
100
AcDbLine
10
49.475
20
27.271596
30
0
11
49.475
21
27.351048
31
0
39
0
210
0
220
0
230
1
0
LINE
5
2C2
100
AcDbEntity
8
1
62
256
6
ByLayer
370
18
48
1
60
0
100
AcDbLine
10
40.525
20
27.271596
30
0
11
40.525
21
19.709634
31
0
39
0
210
0
220
0
230
1
0
LINE
5
2C3
100
AcDbEntity
8
1
62
256
6
ByLayer
370
18
48
1
60
0
100
AcDbLine
10
40.359896
20
28.154848
30
0
11
40.486691
21
26.924878
31
0
39
0
210
0
220
0
230
1
0
LINE
5
2C4
100
AcDbEntity
8
1
62
256
6
ByLayer
370
18
48
1
60
0
100
AcDbLine
10
40.486691
20
26.924878
30
0
11
40.500001
21
26.833016
31
0
39
0
210
0
220
0
230
1
0
LINE
5
2C5
100
AcDbEntity
8
1
62
256
6
ByLayer
370
18
48
1
60
0
100
AcDbLine
10
45.866025
20
24.78355
30
0
11
45.866025
21
23.798703
31
0
39
0
210
0
220
0
230
1
0
LINE
5
2C6
100
AcDbEntity
8
1
62
256
6
ByLayer
370
18
48
1
60
0
100
AcDbLine
10
44.133975
20
23.798703
30
0
11
43.594603
21
22.985601
31
0
39
0
210
0
220
0
230
1
0
LINE
5
2C7
100
AcDbEntity
8
1
62
256
6
ByLayer
370
18
48
1
60
0
100
AcDbLine
10
44.133975
20
23.798703
30
0
11
45.866025
21
23.798703
31
0
39
0
210
0
220
0
230
1
0
LINE
5
2C8
100
AcDbEntity
8
1
62
256
6
ByLayer
370
18
48
1
60
0
100
AcDbLine
10
46.405397
20
22.985601
30
0
11
45.866025
21
23.798703
31
0
39
0
210
0
220
0
230
1
0
LINE
5
2C9
100
AcDbEntity
8
1
62
256
6
ByLayer
370
18
48
1
60
0
100
AcDbLine
10
45.866025
20
24.78355
30
0
11
44.133975
21
24.78355
31
0
39
0
210
0
220
0
230
1
0
LINE
5
2CA
100
AcDbEntity
8
1
62
256
6
ByLayer
370
18
48
1
60
0
100
AcDbLine
10
44.133975
20
24.78355
30
0
11
44.133975
21
23.798703
31
0
39
0
210
0
220
0
230
1
0
LINE
5
2CB
100
AcDbEntity
8
1
62
256
6
ByLayer
370
18
48
1
60
0
100
AcDbLine
10
48.467683
20
35.201715
30
0
11
48.59175
21
30.37195
31
0
39
0
210
0
220
0
230
1
0
LINE
5
2CC
100
AcDbEntity
8
1
62
256
6
ByLayer
370
18
48
1
60
0
100
AcDbLine
10
40.525
20
-2.016004
30
0
11
40.525
21
-11.198657
31
0
39
0
210
0
220
0
230
1
0
LINE
5
2CD
100
AcDbEntity
8
1
62
256
6
ByLayer
370
18
48
1
60
0
100
AcDbLine
10
40.124095
20
29.862
30
0
11
40.000028
21
34.691765
31
0
39
0
210
0
220
0
230
1
0
LINE
5
2CE
100
AcDbEntity
8
1
62
256
6
ByLayer
370
18
48
1
60
0
100
AcDbLine
10
48.563414
20
0.685763
30
0
11
49.525
21
0.769862
31
0
39
0
210
0
220
0
230
1
0
LINE
5
2CF
100
AcDbEntity
8
1
62
256
6
ByLayer
370
18
48
1
60
0
100
AcDbLine
10
49.525
20
0.727112
30
0
11
49.525
21
0.769862
31
0
39
0
210
0
220
0
230
1
0
LINE
5
2D0
100
AcDbEntity
8
1
62
256
6
ByLayer
370
18
48
1
60
0
100
AcDbLine
10
49.525
20
0.769862
30
0
11
49.525
21
3.014864
31
0
39
0
210
0
220
0
230
1
0
LINE
5
2D1
100
AcDbEntity
8
1
62
256
6
ByLayer
370
18
48
1
60
0
100
AcDbLine
10
40.525
20
-2.016004
30
0
11
49.475
21
-2.016004
31
0
39
0
210
0
220
0
230
1
0
LINE
5
2D2
100
AcDbEntity
8
1
62
256
6
ByLayer
370
18
48
1
60
0
100
AcDbLine
10
40.5
20
-1.619115
30
0
11
40.5
21
-1.728829
31
0
39
0
210
0
220
0
230
1
0
LINE
5
2D3
100
AcDbEntity
8
1
62
256
6
ByLayer
370
18
48
1
60
0
100
AcDbLine
10
49.475
20
-2.016004
30
0
11
49.475
21
-11.198657
31
0
39
0
210
0
220
0
230
1
0
LINE
5
2D4
100
AcDbEntity
8
1
62
256
6
ByLayer
370
18
48
1
60
0
100
AcDbLine
10
49.475
20
-11.198657
30
0
11
40.525
21
-11.198657
31
0
39
0
210
0
220
0
230
1
0
LINE
5
2D5
100
AcDbEntity
8
1
62
256
6
ByLayer
370
18
48
1
60
0
100
AcDbLine
10
49.525
20
48.772236
30
0
11
48.467653
21
48.772236
31
0
39
0
210
0
220
0
230
1
0
LINE
5
2D6
100
AcDbEntity
8
1
62
256
6
ByLayer
370
18
48
1
60
0
100
AcDbLine
10
48.59175
20
30.37195
30
0
11
40.124095
21
29.862
31
0
39
0
210
0
220
0
230
1
0
LINE
5
2D7
100
AcDbEntity
8
1
62
256
6
ByLayer
370
18
48
1
60
0
100
AcDbLine
10
47.91774
20
28.315293
30
0
11
40.978566
21
27.897394
31
0
39
0
210
0
220
0
230
1
0
LINE
5
2D8
100
AcDbEntity
8
1
62
256
6
ByLayer
370
18
48
1
60
0
100
AcDbLine
10
49.198767
20
44.4597
30
0
11
49.525
21
44.458952
31
0
39
0
210
0
220
0
230
1
0
LINE
5
2D9
100
AcDbEntity
8
1
62
256
6
ByLayer
370
18
48
1
60
0
100
AcDbLine
10
48.59175
20
30.37195
30
0
11
48.648056
21
29.11591
31
0
39
0
210
0
220
0
230
1
0
LINE
5
2DA
100
AcDbEntity
8
1
62
256
6
ByLayer
370
18
48
1
60
0
100
AcDbLine
10
40.180521
20
28.605967
30
0
11
40.124095
21
29.862
31
0
39
0
210
0
220
0
230
1
0
LINE
5
2DB
100
AcDbEntity
8
1
62
256
6
ByLayer
370
18
48
1
60
0
100
AcDbLine
10
49.525
20
29.131636
30
0
11
49.525
21
30.666671
31
0
39
0
210
0
220
0
230
1
0
LINE
5
2DC
100
AcDbEntity
8
1
62
256
6
ByLayer
370
18
48
1
60
0
100
AcDbLine
10
49.525
20
28.999711
30
0
11
49.525
21
29.131636
31
0
39
0
210
0
220
0
230
1
0
LINE
5
2DD
100
AcDbEntity
8
1
62
256
6
ByLayer
370
18
48
1
60
0
100
AcDbLine
10
48.645062
20
29.078643
30
0
11
49.525
21
29.131636
31
0
39
0
210
0
220
0
230
1
0
LINE
5
2DE
100
AcDbEntity
8
1
62
256
6
ByLayer
370
18
48
1
60
0
100
AcDbLine
10
49.525
20
41.601664
30
0
11
49.525
21
39.814261
31
0
39
0
210
0
220
0
230
1
0
LINE
5
2DF
100
AcDbEntity
8
1
62
256
6
ByLayer
370
18
48
1
60
0
100
AcDbLine
10
40.5
20
41.601664
30
0
11
40.5
21
39.814261
31
0
39
0
210
0
220
0
230
1
0
LINE
5
2E0
100
AcDbEntity
8
1
62
256
6
ByLayer
370
13
48
1
60
0
100
AcDbLine
10
48.578644
20
30.881518
30
0
11
49.525
21
30.93851
31
0
39
0
210
0
220
0
230
1
0
LINE
5
2E1
100
AcDbEntity
8
1
62
256
6
ByLayer
370
18
48
1
60
0
100
AcDbLine
10
49.525
20
41.601664
30
0
11
40.5
21
41.601664
31
0
39
0
210
0
220
0
230
1
0
LINE
5
2E2
100
AcDbEntity
8
1
62
256
6
ByLayer
370
18
48
1
60
0
100
AcDbLine
10
49.525
20
27.322935
30
0
11
49.525
21
22.144435
31
0
39
0
210
0
220
0
230
1
0
LINE
5
2E3
100
AcDbEntity
8
1
62
256
6
ByLayer
370
18
48
1
60
0
100
AcDbLine
10
40.5
20
27.322935
30
0
11
40.5
21
22.144435
31
0
39
0
210
0
220
0
230
1
0
LINE
5
2E4
100
AcDbEntity
8
1
62
256
6
ByLayer
370
13
48
1
60
0
100
AcDbLine
10
48.585554
20
30.610095
30
0
11
49.525
21
30.666671
31
0
39
0
210
0
220
0
230
1
0
LINE
5
2E5
100
AcDbEntity
8
1
62
256
6
ByLayer
370
18
48
1
60
0
100
AcDbLine
10
40.5
20
22.144435
30
0
11
40.525101
21
22.144435
31
0
39
0
210
0
220
0
230
1
0
LINE
5
2E6
100
AcDbEntity
8
1
62
256
6
ByLayer
370
18
48
1
60
0
100
AcDbLine
10
49.474939
20
22.144435
30
0
11
49.525
21
22.144435
31
0
39
0
210
0
220
0
230
1
0
LINE
5
2E7
100
AcDbEntity
8
1
62
256
6
ByLayer
370
18
48
1
60
0
100
AcDbLine
10
49.525
20
27.857515
30
0
11
49.525
21
28.999711
31
0
39
0
210
0
220
0
230
1
0
LINE
5
2E8
100
AcDbEntity
8
1
62
256
6
ByLayer
370
18
48
1
60
0
100
AcDbLine
10
40.5
20
27.680257
30
0
11
40.5
21
28.039844
31
0
39
0
210
0
220
0
230
1
0
LINE
5
2E9
100
AcDbEntity
8
1
62
256
6
ByLayer
370
18
48
1
60
0
100
AcDbLine
10
48.634345
20
28.946073
30
0
11
49.525
21
28.999711
31
0
39
0
210
0
220
0
230
1
0
LINE
5
2EA
100
AcDbEntity
8
1
62
256
6
ByLayer
370
18
48
1
60
0
100
AcDbLine
10
49.525
20
27.857515
30
0
11
49.525
21
27.322935
31
0
39
0
210
0
220
0
230
1
0
LINE
5
2EB
100
AcDbEntity
8
1
62
256
6
ByLayer
370
18
48
1
60
0
100
AcDbLine
10
40.5
20
27.680257
30
0
11
40.5
21
27.322935
31
0
39
0
210
0
220
0
230
1
0
LINE
5
2EC
100
AcDbEntity
8
1
62
256
6
ByLayer
370
18
48
1
60
0
100
AcDbLine
10
40.5
20
27.680257
30
0
11
49.525
21
27.857515
31
0
39
0
210
0
220
0
230
1
0
LINE
5
2ED
100
AcDbEntity
8
1
62
256
6
ByLayer
370
18
48
1
60
0
100
AcDbLine
10
40.180521
20
41.538594
30
0
11
40.124095
21
42.641522
31
0
39
0
210
0
220
0
230
1
0
LINE
5
2EE
100
AcDbEntity
8
1
62
256
6
ByLayer
370
18
48
1
60
0
100
AcDbLine
10
40.5
20
27.322935
30
0
11
40.525101
21
27.322935
31
0
39
0
210
0
220
0
230
1
0
LINE
5
2EF
100
AcDbEntity
8
1
62
256
6
ByLayer
370
18
48
1
60
0
100
AcDbLine
10
49.474939
20
27.322935
30
0
11
49.525
21
27.322935
31
0
39
0
210
0
220
0
230
1
0
LINE
5
2F0
100
AcDbEntity
8
1
62
256
6
ByLayer
370
18
48
1
60
0
100
AcDbLine
10
49.525
20
31.626129
30
0
11
49.525
21
33.569065
31
0
39
0
210
0
220
0
230
1
0
LINE
5
2F1
100
AcDbEntity
8
1
62
256
6
ByLayer
370
18
48
1
60
0
100
AcDbLine
10
40.5
20
38.203855
30
0
11
40.5
21
38.443784
31
0
39
0
210
0
220
0
230
1
0
LINE
5
2F2
100
AcDbEntity
8
1
62
256
6
ByLayer
370
18
48
1
60
0
100
AcDbLine
10
47.537028
20
38.039326
30
0
11
47.515407
21
38.881012
31
0
39
0
210
0
220
0
230
1
0
LINE
5
2F3
100
AcDbEntity
8
1
62
256
6
ByLayer
370
18
48
1
60
0
100
AcDbLine
10
48.561017
20
31.568074
30
0
11
49.525
21
31.626129
31
0
39
0
210
0
220
0
230
1
0
LINE
5
2F4
100
AcDbEntity
8
1
62
256
6
ByLayer
370
18
48
1
60
0
100
AcDbLine
10
47.675923
20
38.800618
30
0
11
47.703751
21
37.717316
31
0
39
0
210
0
220
0
230
1
0
LINE
5
2F5
100
AcDbEntity
8
1
62
256
6
ByLayer
370
18
48
1
60
0
100
AcDbLine
10
48.511198
20
33.508019
30
0
11
49.525
21
33.569074
31
0
39
0
210
0
220
0
230
1
0
LINE
5
2F6
100
AcDbEntity
8
1
62
256
6
ByLayer
370
18
48
1
60
0
100
AcDbLine
10
49.525
20
33.569074
30
0
11
49.525
21
37.525631
31
0
39
0
210
0
220
0
230
1
0
LINE
5
2F7
100
AcDbEntity
8
1
62
256
6
ByLayer
370
18
48
1
60
0
100
AcDbLine
10
47.515407
20
38.881012
30
0
11
40.5
21
38.443784
31
0
39
0
210
0
220
0
230
1
0
LINE
5
2F8
100
AcDbEntity
8
1
62
256
6
ByLayer
370
18
48
1
60
0
100
AcDbLine
10
47.675923
20
38.800618
30
0
11
47.515407
21
38.881012
31
0
39
0
210
0
220
0
230
1
0
LINE
5
2F9
100
AcDbEntity
8
1
62
256
6
ByLayer
370
18
48
1
60
0
100
AcDbLine
10
49.5
20
-35.200243
30
0
11
49.5
21
-31.450199
31
0
39
0
210
0
220
0
230
1
0
LINE
5
2FA
100
AcDbEntity
8
1
62
256
6
ByLayer
370
18
48
1
60
0
100
AcDbLine
10
47.801126
20
37.788349
30
0
11
47.675923
21
38.800618
31
0
39
0
210
0
220
0
230
1
0
LINE
5
2FB
100
AcDbEntity
8
1
62
256
6
ByLayer
370
18
48
1
60
0
100
AcDbLine
10
40.5
20
-34.428456
30
0
11
40.5
21
-35.200243
31
0
39
0
210
0
220
0
230
1
0
LINE
5
2FC
100
AcDbEntity
8
1
62
256
6
ByLayer
370
18
48
1
60
0
100
AcDbLine
10
49.525
20
37.525631
30
0
11
47.929907
21
37.426219
31
0
39
0
210
0
220
0
230
1
0
LINE
5
2FD
100
AcDbEntity
8
1
62
256
6
ByLayer
370
18
48
1
60
0
100
AcDbLine
10
49.5
20
-36.18381
30
0
11
49.5
21
-35.200243
31
0
39
0
210
0
220
0
230
1
0
LINE
5
2FE
100
AcDbEntity
8
1
62
256
6
ByLayer
370
18
48
1
60
0
100
AcDbLine
10
49.525
20
39.814261
30
0
11
49.525
21
37.525631
31
0
39
0
210
0
220
0
230
1
0
LINE
5
2FF
100
AcDbEntity
8
1
62
256
6
ByLayer
370
18
48
1
60
0
100
AcDbLine
10
40.5
20
39.814261
30
0
11
49.525
21
39.814261
31
0
39
0
210
0
220
0
230
1
0
LINE
5
300
100
AcDbEntity
8
1
62
256
6
ByLayer
370
18
48
1
60
0
100
AcDbLine
10
40.5
20
39.814261
30
0
11
40.5
21
38.443784
31
0
39
0
210
0
220
0
230
1
0
LINE
5
301
100
AcDbEntity
8
1
62
256
6
ByLayer
370
18
48
1
60
0
100
AcDbLine
10
47.929907
20
37.426219
30
0
11
47.801126
21
37.788349
31
0
39
0
210
0
220
0
230
1
0
LINE
5
302
100
AcDbEntity
8
1
62
256
6
ByLayer
370
18
48
1
60
0
100
AcDbLine
10
47.801126
20
37.788349
30
0
11
47.808128
21
37.515768
31
0
39
0
210
0
220
0
230
1
0
LINE
5
303
100
AcDbEntity
8
1
62
256
6
ByLayer
370
18
48
1
60
0
100
AcDbLine
10
47.929907
20
37.426219
30
0
11
47.933844
21
37.27296
31
0
39
0
210
0
220
0
230
1
0
LINE
5
304
100
AcDbEntity
8
1
62
256
6
ByLayer
370
18
48
1
60
0
100
AcDbLine
10
48.5
20
-46.973975
30
0
11
41.5
21
-46.973975
31
0
39
0
210
0
220
0
230
1
0
LINE
5
305
100
AcDbEntity
8
1
62
256
6
ByLayer
370
18
48
1
60
0
100
AcDbLine
10
49.5
20
-43.714573
30
0
11
49.5
21
-45.980668
31
0
39
0
210
0
220
0
230
1
0
LINE
5
306
100
AcDbEntity
8
1
62
256
6
ByLayer
370
18
48
1
60
0
100
AcDbLine
10
48.467683
20
47.89578
30
0
11
48.542722
21
44.706128
31
0
39
0
210
0
220
0
230
1
0
LINE
5
307
100
AcDbEntity
8
1
62
256
6
ByLayer
370
18
48
1
60
0
100
AcDbLine
10
40.500112
20
42.640661
30
0
11
40.124095
21
42.641522
31
0
39
0
210
0
220
0
230
1
0
LINE
5
308
100
AcDbEntity
8
1
62
256
6
ByLayer
370
18
48
1
60
0
100
AcDbLine
10
48.467683
20
47.89578
30
0
11
40.000028
21
47.915173
31
0
39
0
210
0
220
0
230
1
0
LINE
5
309
100
AcDbEntity
8
1
62
256
6
ByLayer
370
18
48
1
60
0
100
AcDbLine
10
40.124095
20
42.641522
30
0
11
40.000028
21
47.915173
31
0
39
0
210
0
220
0
230
1
0
LINE
5
30A
100
AcDbEntity
8
1
62
256
6
ByLayer
370
18
48
1
60
0
100
AcDbLine
10
40.000028
20
47.915173
30
0
11
40.000088
21
49.208198
31
0
39
0
210
0
220
0
230
1
0
LINE
5
30B
100
AcDbEntity
8
80
62
256
6
ByLayer
370
18
48
1
60
0
100
AcDbLine
10
0
20
0
30
0
11
-5
21
0
31
0
39
0
210
0
220
0
230
1
0
LINE
5
30C
100
AcDbEntity
8
4
62
256
6
ByLayer
370
18
48
0.05
60
0
100
AcDbLine
10
0
20
0
30
0
11
43
21
0
31
0
39
0
210
0
220
0
230
1
0
LINE
5
30E
100
AcDbEntity
8
SK4
62
256
6
ByLayer
370
18
48
0.05
60
0
100
AcDbLine
10
-3
20
0
30
0
11
43
21
0
31
0
39
0
210
0
220
0
230
1
0
LINE
5
310
100
AcDbEntity
8
1
62
256
6
ByLayer
370
18
48
1
60
0
100
AcDbLine
10
49.499899
20
-11.572337
30
0
11
49.525
21
-11.572337
31
0
39
0
210
0
220
0
230
1
0
LINE
5
311
100
AcDbEntity
8
1
62
256
6
ByLayer
370
18
48
1
60
0
100
AcDbLine
10
49.499899
20
-11.17148
30
0
11
49.525
21
-11.17148
31
0
39
0
210
0
220
0
230
1
0
LINE
5
312
100
AcDbEntity
8
1
62
256
6
ByLayer
370
18
48
1
60
0
100
AcDbLine
10
49.499899
20
-10.770622
30
0
11
49.525
21
-10.770622
31
0
39
0
210
0
220
0
230
1
0
LINE
5
313
100
AcDbEntity
8
1
62
256
6
ByLayer
370
18
48
1
60
0
100
AcDbLine
10
49.499967
20
-10.369764
30
0
11
49.525
21
-10.369764
31
0
39
0
210
0
220
0
230
1
0
LINE
5
314
100
AcDbEntity
8
1
62
256
6
ByLayer
370
18
48
1
60
0
100
AcDbLine
10
49.499982
20
-9.968907
30
0
11
49.525
21
-9.968907
31
0
39
0
210
0
220
0
230
1
0
LINE
5
315
100
AcDbEntity
8
1
62
256
6
ByLayer
370
18
48
1
60
0
100
AcDbLine
10
49.499899
20
-9.568049
30
0
11
49.525
21
-9.568049
31
0
39
0
210
0
220
0
230
1
0
LINE
5
316
100
AcDbEntity
8
1
62
256
6
ByLayer
370
18
48
1
60
0
100
AcDbLine
10
49.499899
20
-9.167192
30
0
11
49.525
21
-9.167192
31
0
39
0
210
0
220
0
230
1
0
LINE
5
317
100
AcDbEntity
8
1
62
256
6
ByLayer
370
18
48
1
60
0
100
AcDbLine
10
49.499899
20
-8.766334
30
0
11
49.525
21
-8.766334
31
0
39
0
210
0
220
0
230
1
0
LINE
5
318
100
AcDbEntity
8
1
62
256
6
ByLayer
370
18
48
1
60
0
100
AcDbLine
10
49.499899
20
-8.365477
30
0
11
49.525
21
-8.365477
31
0
39
0
210
0
220
0
230
1
0
LINE
5
319
100
AcDbEntity
8
1
62
256
6
ByLayer
370
18
48
1
60
0
100
AcDbLine
10
49.499899
20
-7.964619
30
0
11
49.525
21
-7.964619
31
0
39
0
210
0
220
0
230
1
0
LINE
5
31A
100
AcDbEntity
8
1
62
256
6
ByLayer
370
18
48
1
60
0
100
AcDbLine
10
49.499899
20
-7.563762
30
0
11
49.525
21
-7.563762
31
0
39
0
210
0
220
0
230
1
0
LINE
5
31B
100
AcDbEntity
8
1
62
256
6
ByLayer
370
18
48
1
60
0
100
AcDbLine
10
49.499899
20
-7.162904
30
0
11
49.525
21
-7.162904
31
0
39
0
210
0
220
0
230
1
0
LINE
5
31C
100
AcDbEntity
8
1
62
256
6
ByLayer
370
18
48
1
60
0
100
AcDbLine
10
45.217
20
45.326259
30
0
11
45.131317
21
45.03729
31
0
39
0
210
0
220
0
230
1
0
LINE
5
31D
100
AcDbEntity
8
1
62
256
6
ByLayer
370
18
48
1
60
0
100
AcDbLine
10
43.933749
20
45.954042
30
0
11
44.027102
21
46.268876
31
0
39
0
210
0
220
0
230
1
0
LINE
5
31E
100
AcDbEntity
8
1
62
256
6
ByLayer
370
18
48
1
60
0
100
AcDbLine
10
43.236553
20
44.744876
30
0
11
43.322236
21
45.033845
31
0
39
0
210
0
220
0
230
1
0
LINE
5
31F
100
AcDbEntity
8
1
62
256
6
ByLayer
370
18
48
1
60
0
100
AcDbLine
10
42.249513
20
45.75428
30
0
11
42.187415
21
45.544855
31
0
39
0
210
0
220
0
230
1
0
LINE
5
320
100
AcDbEntity
8
1
62
256
6
ByLayer
370
18
48
1
60
0
100
AcDbLine
10
0.4
20
24.5
30
0
11
0
21
24.5
31
0
39
0
210
0
220
0
230
1
0
LINE
5
321
100
AcDbEntity
8
1
62
256
6
ByLayer
370
18
48
1
60
0
100
AcDbLine
10
0
20
-24.5
30
0
11
0.4
21
-24.5
31
0
39
0
210
0
220
0
230
1
0
LINE
5
322
100
AcDbEntity
8
1
62
256
6
ByLayer
370
18
48
1
60
0
100
AcDbLine
10
0.4
20
-25
30
0
11
0.9
21
-25.5
31
0
39
0
210
0
220
0
230
1
0
LINE
5
323
100
AcDbEntity
8
1
62
256
6
ByLayer
370
18
48
1
60
0
100
AcDbLine
10
0.9
20
25.5
30
0
11
0.4
21
25
31
0
39
0
210
0
220
0
230
1
0
LINE
5
324
100
AcDbEntity
8
1
62
256
6
ByLayer
370
18
48
1
60
0
100
AcDbLine
10
0.9
20
-25.5
30
0
11
39.7
21
-25.5
31
0
39
0
210
0
220
0
230
1
0
LINE
5
325
100
AcDbEntity
8
1
62
256
6
ByLayer
370
18
48
1
60
0
100
AcDbLine
10
39.7
20
25.5
30
0
11
0.9
21
25.5
31
0
39
0
210
0
220
0
230
1
0
LINE
5
326
100
AcDbEntity
8
1
62
256
6
ByLayer
370
18
48
1
60
0
100
AcDbLine
10
45.117698
20
33.158601
30
0
11
45.201982
21
32.683424
31
0
39
0
210
0
220
0
230
1
0
LINE
5
327
100
AcDbEntity
8
1
62
256
6
ByLayer
370
18
48
1
60
0
100
AcDbLine
10
43.334454
20
32.692303
30
0
11
43.250171
21
33.167479
31
0
39
0
210
0
220
0
230
1
0
LINE
5
328
100
AcDbEntity
8
1
62
256
6
ByLayer
370
18
48
1
60
0
100
AcDbLine
10
46.330595
20
33.084776
30
0
11
46.268498
21
33.434871
31
0
39
0
210
0
220
0
230
1
0
LINE
5
329
100
AcDbEntity
8
1
62
256
6
ByLayer
370
18
48
1
60
0
100
AcDbLine
10
42.133046
20
32.701357
30
0
11
42.195144
21
32.351261
31
0
39
0
210
0
220
0
230
1
0
LINE
5
32A
100
AcDbEntity
8
1
62
256
6
ByLayer
370
18
48
1
60
0
100
AcDbLine
10
49.525
20
11.572337
30
0
11
40.5
21
11.572337
31
0
39
0
210
0
220
0
230
1
0
LINE
5
32B
100
AcDbEntity
8
1
62
256
6
ByLayer
370
18
48
1
60
0
100
AcDbLine
10
49.499899
20
16.903684
30
0
11
49.525
21
16.903684
31
0
39
0
210
0
220
0
230
1
0
LINE
5
32C
100
AcDbEntity
8
1
62
256
6
ByLayer
370
18
48
1
60
0
100
AcDbLine
10
49.525
20
-16.903684
30
0
11
49.499899
21
-16.903684
31
0
39
0
210
0
220
0
230
1
0
LINE
5
32D
100
AcDbEntity
8
1
62
256
6
ByLayer
370
18
48
1
60
0
100
AcDbLine
10
49.525
20
-17.642319
30
0
11
49.499899
21
-17.642319
31
0
39
0
210
0
220
0
230
1
0
LINE
5
32E
100
AcDbEntity
8
1
62
256
6
ByLayer
370
18
48
1
60
0
100
AcDbLine
10
49.525
20
-18.380955
30
0
11
49.499899
21
-18.380955
31
0
39
0
210
0
220
0
230
1
0
LINE
5
32F
100
AcDbEntity
8
1
62
256
6
ByLayer
370
18
48
1
60
0
100
AcDbLine
10
49.525
20
-19.11959
30
0
11
49.499899
21
-19.11959
31
0
39
0
210
0
220
0
230
1
0
LINE
5
330
100
AcDbEntity
8
1
62
256
6
ByLayer
370
18
48
1
60
0
100
AcDbLine
10
49.525
20
-19.858226
30
0
11
49.499899
21
-19.858226
31
0
39
0
210
0
220
0
230
1
0
LINE
5
331
100
AcDbEntity
8
1
62
256
6
ByLayer
370
18
48
1
60
0
100
AcDbLine
10
49.525
20
-20.596861
30
0
11
49.499899
21
-20.596861
31
0
39
0
210
0
220
0
230
1
0
LINE
5
332
100
AcDbEntity
8
1
62
256
6
ByLayer
370
18
48
1
60
0
100
AcDbLine
10
49.525
20
-21.335496
30
0
11
49.499899
21
-21.335496
31
0
39
0
210
0
220
0
230
1
0
LINE
5
333
100
AcDbEntity
8
1
62
256
6
ByLayer
370
18
48
1
60
0
100
AcDbLine
10
49.525
20
-22.074132
30
0
11
49.499931
21
-22.074132
31
0
39
0
210
0
220
0
230
1
0
LINE
5
334
100
AcDbEntity
8
1
62
256
6
ByLayer
370
18
48
1
60
0
100
AcDbLine
10
49.525
20
-22.812767
30
0
11
49.499961
21
-22.812767
31
0
39
0
210
0
220
0
230
1
0
LINE
5
335
100
AcDbEntity
8
1
62
256
6
ByLayer
370
18
48
1
60
0
100
AcDbLine
10
49.525
20
-23.551402
30
0
11
49.499899
21
-23.551402
31
0
39
0
210
0
220
0
230
1
0
LINE
5
336
100
AcDbEntity
8
1
62
256
6
ByLayer
370
18
48
1
60
0
100
AcDbLine
10
49.525
20
-24.290038
30
0
11
49.499899
21
-24.290038
31
0
39
0
210
0
220
0
230
1
0
LINE
5
337
100
AcDbEntity
8
1
62
256
6
ByLayer
370
18
48
1
60
0
100
AcDbLine
10
49.525
20
-25.028673
30
0
11
40.5
21
-25.028673
31
0
39
0
210
0
220
0
230
1
0
LINE
5
338
100
AcDbEntity
8
81
62
256
6
ByLayer
370
18
48
1
60
0
100
AcDbLine
10
40
20
50
30
0
11
45
21
50
31
0
39
0
210
0
220
0
230
1
0
LINE
5
339
100
AcDbEntity
8
SK2
62
256
6
ByLayer
370
13
48
1
60
0
100
AcDbLine
10
40.565685
20
-50.565685
30
0
11
46.576093
21
-56.576093
31
0
39
0
210
0
220
0
230
1
0
LINE
5
33B
100
AcDbEntity
8
1
62
256
6
ByLayer
370
18
48
1
60
1
100
AcDbLine
10
40.565685
20
-50.565685
30
0
11
43.366381
21
-52.714735
31
0
39
0
210
0
220
0
230
1
0
LINE
5
33C
100
AcDbEntity
8
1
62
256
6
ByLayer
370
18
48
1
60
1
100
AcDbLine
10
43.366381
20
-52.714735
30
0
11
42.714737
21
-53.366384
31
0
39
0
210
0
220
0
230
1
0
LINE
5
33D
100
AcDbEntity
8
1
62
256
6
ByLayer
370
18
48
1
60
1
100
AcDbLine
10
42.714737
20
-53.366384
30
0
11
40.565685
21
-50.565685
31
0
39
0
210
0
220
0
230
1
0
LINE
5
33E
100
AcDbEntity
8
2
62
256
6
ByLayer
370
13
48
1
60
0
100
AcDbLine
10
62.905444
20
50
30
0
11
62.905444
21
-50
31
0
39
0
210
0
220
0
230
1
0
LINE
5
340
100
AcDbEntity
8
2
62
256
6
ByLayer
370
13
48
1
60
0
100
AcDbLine
10
41.5875
20
-50
30
0
11
64.905444
21
-50
31
0
39
0
210
0
220
0
230
1
0
LINE
5
341
100
AcDbEntity
8
2
62
256
6
ByLayer
370
13
48
1
60
0
100
AcDbLine
10
41.5875
20
50
30
0
11
64.905444
21
50
31
0
39
0
210
0
220
0
230
1
0
LINE
5
342
100
AcDbEntity
8
1
62
256
6
ByLayer
370
18
48
1
60
1
100
AcDbLine
10
62.905444
20
-50
30
0
11
62.44466
21
-46.500002
31
0
39
0
210
0
220
0
230
1
0
LINE
5
343
100
AcDbEntity
8
1
62
256
6
ByLayer
370
18
48
1
60
1
100
AcDbLine
10
62.44466
20
-46.500002
30
0
11
63.366228
21
-46.499998
31
0
39
0
210
0
220
0
230
1
0
LINE
5
344
100
AcDbEntity
8
1
62
256
6
ByLayer
370
18
48
1
60
1
100
AcDbLine
10
63.366228
20
-46.499998
30
0
11
62.905444
21
-50
31
0
39
0
210
0
220
0
230
1
0
LINE
5
345
100
AcDbEntity
8
1
62
256
6
ByLayer
370
18
48
1
60
1
100
AcDbLine
10
62.905444
20
50
30
0
11
63.366228
21
46.500002
31
0
39
0
210
0
220
0
230
1
0
LINE
5
346
100
AcDbEntity
8
1
62
256
6
ByLayer
370
18
48
1
60
1
100
AcDbLine
10
63.366228
20
46.500002
30
0
11
62.44466
21
46.499998
31
0
39
0
210
0
220
0
230
1
0
LINE
5
347
100
AcDbEntity
8
1
62
256
6
ByLayer
370
18
48
1
60
1
100
AcDbLine
10
62.44466
20
46.499998
30
0
11
62.905444
21
50
31
0
39
0
210
0
220
0
230
1
0
LINE
5
348
100
AcDbEntity
8
SK2
62
256
6
ByLayer
370
13
48
1
60
0
100
AcDbLine
10
-14.35
20
13.5
30
0
11
-14.35
21
-13.5
31
0
39
0
210
0
220
0
230
1
0
LINE
5
349
100
AcDbEntity
8
SK2
62
256
6
ByLayer
370
13
48
1
60
0
100
AcDbLine
10
-1.5875
20
-13.5
30
0
11
-16.35
21
-13.5
31
0
39
0
210
0
220
0
230
1
0
LINE
5
34A
100
AcDbEntity
8
SK2
62
256
6
ByLayer
370
13
48
1
60
0
100
AcDbLine
10
-1.5875
20
13.5
30
0
11
-16.35
21
13.5
31
0
39
0
210
0
220
0
230
1
0
LINE
5
34B
100
AcDbEntity
8
1
62
256
6
ByLayer
370
18
48
1
60
1
100
AcDbLine
10
-14.35
20
-13.5
30
0
11
-14.810784
21
-10.000002
31
0
39
0
210
0
220
0
230
1
0
LINE
5
34C
100
AcDbEntity
8
1
62
256
6
ByLayer
370
18
48
1
60
1
100
AcDbLine
10
-14.810784
20
-10.000002
30
0
11
-13.889216
21
-9.999998
31
0
39
0
210
0
220
0
230
1
0
LINE
5
34D
100
AcDbEntity
8
1
62
256
6
ByLayer
370
18
48
1
60
1
100
AcDbLine
10
-13.889216
20
-9.999998
30
0
11
-14.35
21
-13.5
31
0
39
0
210
0
220
0
230
1
0
LINE
5
34E
100
AcDbEntity
8
1
62
256
6
ByLayer
370
18
48
1
60
1
100
AcDbLine
10
-14.35
20
13.5
30
0
11
-13.889216
21
10.000002
31
0
39
0
210
0
220
0
230
1
0
LINE
5
34F
100
AcDbEntity
8
1
62
256
6
ByLayer
370
18
48
1
60
1
100
AcDbLine
10
-13.889216
20
10.000002
30
0
11
-14.810784
21
9.999998
31
0
39
0
210
0
220
0
230
1
0
LINE
5
350
100
AcDbEntity
8
1
62
256
6
ByLayer
370
18
48
1
60
1
100
AcDbLine
10
-14.810784
20
9.999998
30
0
11
-14.35
21
13.5
31
0
39
0
210
0
220
0
230
1
0
LINE
5
351
100
AcDbEntity
8
SK2
62
256
6
ByLayer
370
13
48
1
60
0
100
AcDbLine
10
-24.35
20
25.5
30
0
11
-24.35
21
-25.5
31
0
39
0
210
0
220
0
230
1
0
LINE
5
352
100
AcDbEntity
8
SK2
62
256
6
ByLayer
370
13
48
1
60
0
100
AcDbLine
10
-1.5875
20
-25.5
30
0
11
-26.35
21
-25.5
31
0
39
0
210
0
220
0
230
1
0
LINE
5
353
100
AcDbEntity
8
SK2
62
256
6
ByLayer
370
13
48
1
60
0
100
AcDbLine
10
-1.5875
20
25.5
30
0
11
-26.35
21
25.5
31
0
39
0
210
0
220
0
230
1
0
LINE
5
354
100
AcDbEntity
8
1
62
256
6
ByLayer
370
18
48
1
60
1
100
AcDbLine
10
-24.35
20
-25.5
30
0
11
-24.810784
21
-22.000002
31
0
39
0
210
0
220
0
230
1
0
LINE
5
355
100
AcDbEntity
8
1
62
256
6
ByLayer
370
18
48
1
60
1
100
AcDbLine
10
-24.810784
20
-22.000002
30
0
11
-23.889216
21
-21.999998
31
0
39
0
210
0
220
0
230
1
0
LINE
5
356
100
AcDbEntity
8
1
62
256
6
ByLayer
370
18
48
1
60
1
100
AcDbLine
10
-23.889216
20
-21.999998
30
0
11
-24.35
21
-25.5
31
0
39
0
210
0
220
0
230
1
0
LINE
5
357
100
AcDbEntity
8
1
62
256
6
ByLayer
370
18
48
1
60
1
100
AcDbLine
10
-24.35
20
25.5
30
0
11
-23.889216
21
22.000002
31
0
39
0
210
0
220
0
230
1
0
LINE
5
358
100
AcDbEntity
8
1
62
256
6
ByLayer
370
18
48
1
60
1
100
AcDbLine
10
-23.889216
20
22.000002
30
0
11
-24.810784
21
21.999998
31
0
39
0
210
0
220
0
230
1
0
LINE
5
359
100
AcDbEntity
8
1
62
256
6
ByLayer
370
18
48
1
60
1
100
AcDbLine
10
-24.810784
20
21.999998
30
0
11
-24.35
21
25.5
31
0
39
0
210
0
220
0
230
1
0
LINE
5
44A
100
AcDbEntity
8
1
62
256
6
ByLayer
370
18
48
1
60
1
100
AcDbLine
10
40.565685
20
-50.565685
30
0
11
43.366381
21
-52.714735
31
0
39
0
210
0
220
0
230
1
0
LINE
5
44B
100
AcDbEntity
8
1
62
256
6
ByLayer
370
18
48
1
60
1
100
AcDbLine
10
43.366381
20
-52.714735
30
0
11
42.714737
21
-53.366384
31
0
39
0
210
0
220
0
230
1
0
LINE
5
44C
100
AcDbEntity
8
1
62
256
6
ByLayer
370
18
48
1
60
1
100
AcDbLine
10
42.714737
20
-53.366384
30
0
11
40.565685
21
-50.565685
31
0
39
0
210
0
220
0
230
1
0
LINE
5
450
100
AcDbEntity
8
1
62
256
6
ByLayer
370
18
48
1
60
1
100
AcDbLine
10
62.905444
20
-50
30
0
11
62.44466
21
-46.500002
31
0
39
0
210
0
220
0
230
1
0
LINE
5
451
100
AcDbEntity
8
1
62
256
6
ByLayer
370
18
48
1
60
1
100
AcDbLine
10
62.44466
20
-46.500002
30
0
11
63.366228
21
-46.499998
31
0
39
0
210
0
220
0
230
1
0
LINE
5
452
100
AcDbEntity
8
1
62
256
6
ByLayer
370
18
48
1
60
1
100
AcDbLine
10
63.366228
20
-46.499998
30
0
11
62.905444
21
-50
31
0
39
0
210
0
220
0
230
1
0
LINE
5
454
100
AcDbEntity
8
1
62
256
6
ByLayer
370
18
48
1
60
1
100
AcDbLine
10
62.905444
20
50
30
0
11
63.366228
21
46.500002
31
0
39
0
210
0
220
0
230
1
0
LINE
5
455
100
AcDbEntity
8
1
62
256
6
ByLayer
370
18
48
1
60
1
100
AcDbLine
10
63.366228
20
46.500002
30
0
11
62.44466
21
46.499998
31
0
39
0
210
0
220
0
230
1
0
LINE
5
456
100
AcDbEntity
8
1
62
256
6
ByLayer
370
18
48
1
60
1
100
AcDbLine
10
62.44466
20
46.499998
30
0
11
62.905444
21
50
31
0
39
0
210
0
220
0
230
1
0
LINE
5
45A
100
AcDbEntity
8
1
62
256
6
ByLayer
370
18
48
1
60
1
100
AcDbLine
10
-14.35
20
-13.5
30
0
11
-14.810784
21
-10.000002
31
0
39
0
210
0
220
0
230
1
0
LINE
5
45B
100
AcDbEntity
8
1
62
256
6
ByLayer
370
18
48
1
60
1
100
AcDbLine
10
-14.810784
20
-10.000002
30
0
11
-13.889216
21
-9.999998
31
0
39
0
210
0
220
0
230
1
0
LINE
5
45C
100
AcDbEntity
8
1
62
256
6
ByLayer
370
18
48
1
60
1
100
AcDbLine
10
-13.889216
20
-9.999998
30
0
11
-14.35
21
-13.5
31
0
39
0
210
0
220
0
230
1
0
LINE
5
45E
100
AcDbEntity
8
1
62
256
6
ByLayer
370
18
48
1
60
1
100
AcDbLine
10
-14.35
20
13.5
30
0
11
-13.889216
21
10.000002
31
0
39
0
210
0
220
0
230
1
0
LINE
5
45F
100
AcDbEntity
8
1
62
256
6
ByLayer
370
18
48
1
60
1
100
AcDbLine
10
-13.889216
20
10.000002
30
0
11
-14.810784
21
9.999998
31
0
39
0
210
0
220
0
230
1
0
LINE
5
460
100
AcDbEntity
8
1
62
256
6
ByLayer
370
18
48
1
60
1
100
AcDbLine
10
-14.810784
20
9.999998
30
0
11
-14.35
21
13.5
31
0
39
0
210
0
220
0
230
1
0
LINE
5
464
100
AcDbEntity
8
1
62
256
6
ByLayer
370
18
48
1
60
1
100
AcDbLine
10
-24.35
20
-25.5
30
0
11
-24.810784
21
-22.000002
31
0
39
0
210
0
220
0
230
1
0
LINE
5
465
100
AcDbEntity
8
1
62
256
6
ByLayer
370
18
48
1
60
1
100
AcDbLine
10
-24.810784
20
-22.000002
30
0
11
-23.889216
21
-21.999998
31
0
39
0
210
0
220
0
230
1
0
LINE
5
466
100
AcDbEntity
8
1
62
256
6
ByLayer
370
18
48
1
60
1
100
AcDbLine
10
-23.889216
20
-21.999998
30
0
11
-24.35
21
-25.5
31
0
39
0
210
0
220
0
230
1
0
LINE
5
468
100
AcDbEntity
8
1
62
256
6
ByLayer
370
18
48
1
60
1
100
AcDbLine
10
-24.35
20
25.5
30
0
11
-23.889216
21
22.000002
31
0
39
0
210
0
220
0
230
1
0
LINE
5
469
100
AcDbEntity
8
1
62
256
6
ByLayer
370
18
48
1
60
1
100
AcDbLine
10
-23.889216
20
22.000002
30
0
11
-24.810784
21
21.999998
31
0
39
0
210
0
220
0
230
1
0
LINE
5
46A
100
AcDbEntity
8
1
62
256
6
ByLayer
370
18
48
1
60
1
100
AcDbLine
10
-24.810784
20
21.999998
30
0
11
-24.35
21
25.5
31
0
39
0
210
0
220
0
230
1
0
MTEXT
5
446
100
AcDbEntity
8
SK2
62
256
6
ByLayer
370
13
48
1
60
0
100
AcDbMText
10
45.966192
20
-59.335314
30
0
210
0
220
0
230
1
1
\W0.6380;R
40
3.5
41
0
44
1.084337
50
315
71
7
72
5
7
iso_b_vert
0
MTEXT
5
449
100
AcDbEntity
8
SK2
62
256
6
ByLayer
370
13
48
1
60
0
100
AcDbMText
10
48.571174
20
-61.940295
30
0
210
0
220
0
230
1
1
\W0.7121;0.8
40
3.5
41
0
44
1.084337
50
315
71
7
72
5
7
iso_b_vert
0
MTEXT
5
44E
100
AcDbEntity
8
2
62
256
6
ByLayer
370
18
48
1
60
0
100
AcDbMText
10
61.117291
20
-6.172483
30
0
210
0
220
0
230
1
1
%%c
40
4
41
0
44
1.084337
50
90
71
7
72
5
7
iso_b_vert
0
MTEXT
5
44F
100
AcDbEntity
8
2
62
256
6
ByLayer
370
18
48
1
60
0
100
AcDbMText
10
61.117291
20
1.796267
30
0
210
0
220
0
230
1
1
\W0.6217;100
40
4
41
0
44
1.084337
50
90
71
7
72
5
7
iso_b_vert
0
MTEXT
5
458
100
AcDbEntity
8
SK2
62
256
6
ByLayer
370
18
48
1
60
0
100
AcDbMText
10
-16.138153
20
-7.482692
30
0
210
0
220
0
230
1
1
%%c
40
4
41
0
44
1.084337
50
90
71
7
72
5
7
iso_b_vert
0
MTEXT
5
459
100
AcDbEntity
8
SK2
62
256
6
ByLayer
370
18
48
1
60
0
100
AcDbMText
10
-16.138153
20
0.486058
30
0
210
0
220
0
230
1
1
\W0.7346;27.0
40
4
41
0
44
1.084337
50
90
71
7
72
5
7
iso_b_vert
0
MTEXT
5
462
100
AcDbEntity
8
SK2
62
256
6
ByLayer
370
18
48
1
60
0
100
AcDbMText
10
-26.138153
20
-4.677931
30
0
210
0
220
0
230
1
1
%%c
40
4
41
0
44
1.084337
50
90
71
7
72
5
7
iso_b_vert
0
MTEXT
5
463
100
AcDbEntity
8
SK2
62
256
6
ByLayer
370
18
48
1
60
0
100
AcDbMText
10
-26.138153
20
3.290819
30
0
210
0
220
0
230
1
1
\W0.6351;51
40
4
41
0
44
1.084337
50
90
71
7
72
5
7
iso_b_vert
0
MTEXT
5
46C
100
AcDbEntity
8
SK6
62
256
6
ByLayer
370
13
48
1
60
0
100
AcDbMText
10
22.463222
20
-84.217366
30
0
210
0
220
0
230
1
1
\W0.7513;R331.52C-100Q27EML
40
3.5
41
0
44
1.084337
50
0
71
7
72
5
7
iso_b_vert
0
HATCH
5
44D
100
AcDbEntity
8
SK2
62
256
6
ByLayer
370
13
48
1
60
0
100
AcDbHatch
10
0
20
0
30
0
210
0
220
0
230
1
2
ANSI31
70
0
71
0
91
1
92
5
93
3
72
1
10
40.5656854249493
20
-50.5656854249493
11
43.3663812705988
21
-52.7147346539739
72
1
10
43.3663812705988
20
-52.7147346539739
11
42.7147370476056
21
-53.3663836642305
72
1
10
42.7147370476056
20
-53.3663836642305
11
40.5656854249493
21
-50.5656854249493
97
0
75
0
76
1
52
0
41
0.0062
77
0
78
1
53
44.9999999999999
43
0
44
0
45
-0.0139193969876572
46
0.0139193969876572
79
0
47
0
98
1
10
0
20
0
0
HATCH
5
453
100
AcDbEntity
8
2
62
256
6
ByLayer
370
13
48
1
60
0
100
AcDbHatch
10
0
20
0
30
0
210
0
220
0
230
1
2
ANSI31
70
0
71
0
91
1
92
5
93
3
72
1
10
62.905443963239
20
-50
11
62.4446602216863
21
-46.5000016925532
72
1
10
62.4446602216863
20
-46.5000016925532
11
63.3662277047917
21
-46.4999983074468
72
1
10
63.3662277047917
20
-46.4999983074468
11
62.905443963239
21
-50
97
0
75
0
76
1
52
0
41
0.0062
77
0
78
1
53
44.9999999999999
43
0
44
0
45
-0.0139193969876572
46
0.0139193969876572
79
0
47
0
98
1
10
0
20
0
0
HATCH
5
457
100
AcDbEntity
8
2
62
256
6
ByLayer
370
13
48
1
60
0
100
AcDbHatch
10
0
20
0
30
0
210
0
220
0
230
1
2
ANSI31
70
0
71
0
91
1
92
5
93
3
72
1
10
62.905443963239
20
50
11
63.3662277047917
21
46.5000016925532
72
1
10
63.3662277047917
20
46.5000016925532
11
62.4446602216863
21
46.4999983074468
72
1
10
62.4446602216863
20
46.4999983074468
11
62.905443963239
21
50
97
0
75
0
76
1
52
0
41
0.0062
77
0
78
1
53
44.9999999999999
43
0
44
0
45
-0.0139193969876572
46
0.0139193969876572
79
0
47
0
98
1
10
0
20
0
0
HATCH
5
45D
100
AcDbEntity
8
SK2
62
256
6
ByLayer
370
13
48
1
60
0
100
AcDbHatch
10
0
20
0
30
0
210
0
220
0
230
1
2
ANSI31
70
0
71
0
91
1
92
5
93
3
72
1
10
-14.35
20
-13.5
11
-14.8107837415528
21
-10.0000016925532
72
1
10
-14.8107837415528
20
-10.0000016925532
11
-13.8892162584473
21
-9.99999830744679
72
1
10
-13.8892162584473
20
-9.99999830744679
11
-14.35
21
-13.5
97
0
75
0
76
1
52
0
41
0.0062
77
0
78
1
53
44.9999999999999
43
0
44
0
45
-0.0139193969876572
46
0.0139193969876572
79
0
47
0
98
1
10
0
20
0
0
HATCH
5
461
100
AcDbEntity
8
SK2
62
256
6
ByLayer
370
13
48
1
60
0
100
AcDbHatch
10
0
20
0
30
0
210
0
220
0
230
1
2
ANSI31
70
0
71
0
91
1
92
5
93
3
72
1
10
-14.35
20
13.5
11
-13.8892162584473
21
10.0000016925532
72
1
10
-13.8892162584473
20
10.0000016925532
11
-14.8107837415528
21
9.99999830744679
72
1
10
-14.8107837415528
20
9.99999830744679
11
-14.35
21
13.5
97
0
75
0
76
1
52
0
41
0.0062
77
0
78
1
53
44.9999999999999
43
0
44
0
45
-0.0139193969876572
46
0.0139193969876572
79
0
47
0
98
1
10
0
20
0
0
HATCH
5
467
100
AcDbEntity
8
SK2
62
256
6
ByLayer
370
13
48
1
60
0
100
AcDbHatch
10
0
20
0
30
0
210
0
220
0
230
1
2
ANSI31
70
0
71
0
91
1
92
5
93
3
72
1
10
-24.35
20
-25.5
11
-24.8107837415528
21
-22.0000016925532
72
1
10
-24.8107837415528
20
-22.0000016925532
11
-23.8892162584473
21
-21.9999983074468
72
1
10
-23.8892162584473
20
-21.9999983074468
11
-24.35
21
-25.5
97
0
75
0
76
1
52
0
41
0.0062
77
0
78
1
53
44.9999999999999
43
0
44
0
45
-0.0139193969876572
46
0.0139193969876572
79
0
47
0
98
1
10
0
20
0
0
HATCH
5
46B
100
AcDbEntity
8
SK2
62
256
6
ByLayer
370
13
48
1
60
0
100
AcDbHatch
10
0
20
0
30
0
210
0
220
0
230
1
2
ANSI31
70
0
71
0
91
1
92
5
93
3
72
1
10
-24.35
20
25.5
11
-23.8892162584473
21
22.0000016925532
72
1
10
-23.8892162584473
20
22.0000016925532
11
-24.8107837415528
21
21.9999983074468
72
1
10
-24.8107837415528
20
21.9999983074468
11
-24.35
21
25.5
97
0
75
0
76
1
52
0
41
0.0062
77
0
78
1
53
44.9999999999999
43
0
44
0
45
-0.0139193969876572
46
0.0139193969876572
79
0
47
0
98
1
10
0
20
0
0
DIMENSION
5
46F
100
AcDbEntity
8
2
62
256
6
ByLayer
370
13
48
1
60
0
100
AcDbDimension
2
_U0
10
0
20
-63.376741
30
0
11
20
21
-63.376741
31
0
70
32
71
1
72
1
41
1
210
0
220
0
230
1
3
Standard
100
AcDbAlignedDimension
13
40
23
-50
33
0
14
0
24
-13.5
34
0
50
0
100
AcDbRotatedDimension
1001
ACAD
1000
DSTYLE
1002
{
1070
   371
1070
    13
1070
   372
1070
    13
1070
   170
1070
     0
1070
   144
1040
1.0
1070
   277
1070
     2
1070
   284
1070
     8
1070
   278
1070
    46
1070
   146
1040
0.875
1070
   345
1005
16
1070
   347
1005
16
1070
   346
1005
16
1070
   344
1005
0
1070
   343
1005
0
1070
   172
1070
     1
1070
    76
1070
     0
1070
    75
1070
     0
1070
   282
1070
     0
1070
   281
1070
     0
1070
    71
1070
     0
1070
    74
1070
     0
1070
   279
1070
     0
1070
   173
1070
     1
1070
   340
1005
447
1070
   271
1070
     2
1070
   272
1070
     2
1070
    77
1070
     1
1070
    73
1070
     1
1070
   171
1070
     3
1070
   274
1070
     4
1070
   177
1070
     2
1070
   176
1070
     2
1070
   178
1070
     2
1070
    78
1070
     8
1070
    48
1040
-0.1
1070
    41
1040
3.5
1070
   147
1040
2.0
1070
    42
1040
1.5875
1070
    44
1040
2.0
1070
   140
1040
4.0
1002
}
1001
ACAD_DSTYLE_DIM_LINETYPE
1070
   380
1005
16
1001
ACAD_DSTYLE_DIM_EXT1_LINETYPE
1070
   381
1005
16
1001
ACAD_DSTYLE_DIM_EXT2_LINETYPE
1070
   382
1005
16
0
DIMENSION
5
488
100
AcDbEntity
8
SK2
62
256
6
ByLayer
370
13
48
1
60
0
100
AcDbDimension
2
_U1
10
47.6
20
59.376741
30
0
11
64.790476
21
59.376741
31
0
70
32
71
1
72
1
41
1
210
0
220
0
230
1
3
Standard
100
AcDbAlignedDimension
13
40
23
50
33
0
14
47.6
24
50
34
0
50
0
100
AcDbRotatedDimension
1001
ACAD
1000
DSTYLE
1002
{
1070
   371
1070
    13
1070
   372
1070
    13
1070
     3
1000

1070
   170
1070
     0
1070
   144
1040
1.0
1070
   277
1070
     2
1070
   284
1070
     8
1070
   278
1070
    46
1070
   146
1040
0.875
1070
   345
1005
16
1070
   347
1005
16
1070
   346
1005
16
1070
   344
1005
0
1070
   343
1005
0
1070
   172
1070
     1
1070
    76
1070
     0
1070
    75
1070
     0
1070
   282
1070
     0
1070
   281
1070
     0
1070
    71
1070
     0
1070
    74
1070
     0
1070
   279
1070
     0
1070
   173
1070
     1
1070
   340
1005
447
1070
   271
1070
     2
1070
   272
1070
     2
1070
    77
1070
     1
1070
    73
1070
     1
1070
   171
1070
     3
1070
   274
1070
     4
1070
   177
1070
     2
1070
   176
1070
     2
1070
   178
1070
     2
1070
    78
1070
     8
1070
    48
1040
-0.1
1070
    41
1040
3.5
1070
   147
1040
2.0
1070
    42
1040
1.5875
1070
    44
1040
2.0
1070
   140
1040
4.0
1002
}
1001
ACAD_DSTYLE_DIM_LINETYPE
1070
   380
1005
16
1001
ACAD_DSTYLE_DIM_EXT1_LINETYPE
1070
   381
1005
16
1001
ACAD_DSTYLE_DIM_EXT2_LINETYPE
1070
   382
1005
16
0
DIMENSION
5
4A2
100
AcDbEntity
8
SK2
62
256
6
ByLayer
370
13
48
1
60
0
100
AcDbDimension
2
_U2
10
49.5
20
66.376741
30
0
11
44.75
21
66.376741
31
0
70
32
71
1
72
1
41
1
210
0
220
0
230
1
3
Standard
100
AcDbAlignedDimension
13
40
23
50
33
0
14
49.5
24
50
34
0
50
0
100
AcDbRotatedDimension
1001
ACAD
1000
DSTYLE
1002
{
1070
   371
1070
    13
1070
   372
1070
    13
1070
   170
1070
     0
1070
   144
1040
1.0
1070
   277
1070
     2
1070
   284
1070
     8
1070
   278
1070
    46
1070
   146
1040
0.875
1070
   345
1005
16
1070
   347
1005
16
1070
   346
1005
16
1070
   344
1005
0
1070
   343
1005
0
1070
   172
1070
     1
1070
    76
1070
     0
1070
    75
1070
     0
1070
   282
1070
     0
1070
   281
1070
     0
1070
    71
1070
     0
1070
    74
1070
     0
1070
   279
1070
     0
1070
   173
1070
     1
1070
   340
1005
447
1070
   271
1070
     2
1070
   272
1070
     2
1070
    77
1070
     1
1070
    73
1070
     1
1070
   171
1070
     3
1070
   274
1070
     4
1070
   177
1070
     2
1070
   176
1070
     2
1070
   178
1070
     2
1070
    78
1070
     8
1070
    48
1040
-0.1
1070
    41
1040
3.5
1070
   147
1040
2.0
1070
    42
1040
1.5875
1070
    44
1040
2.0
1070
   140
1040
4.0
1002
}
1001
ACAD_DSTYLE_DIM_LINETYPE
1070
   380
1005
16
1001
ACAD_DSTYLE_DIM_EXT1_LINETYPE
1070
   381
1005
16
1001
ACAD_DSTYLE_DIM_EXT2_LINETYPE
1070
   382
1005
16
0
ENDSEC
0
SECTION
2
OBJECTS
0
DICTIONARY
5
52a
330
0
100
AcDbDictionary
280
0
281
1
3
ACAD_GROUP
350
52b
3
ACAD_MLINESTYLE
350
52c
0
DICTIONARY
5
52b
330
0
100
AcDbDictionary
280
0
281
1
0
DICTIONARY
5
52c
330
0
100
AcDbDictionary
280
0
281
1
3
Standard
350
18
0
MLINESTYLE
5
18
330
52c
100
AcDbMlineStyle
2
Standard
70
0
3

62
256
51
90
52
90
71
2
49
-0.5
62
256
6
ByLayer
49
0.5
62
256
6
ByLayer
0
RASTERVARIABLES
5
519
330

100
AcDbRasterVariables
90
0
70
1
71
1
72
1
0
ENDSEC
0
EOF
