0
SECTION
2
HEADER
9
$ACADVER
1
AC1015
9
$DWGCODEPAGE
3
ANSI_1252
9
$HANDSEED
5
4dd
9
$ANGBASE
50
0
9
$ANGDIR
70
0
9
$ATTMODE
70
1
9
$AUNITS
70
0
9
$AUPREC
70
0
9
$CECOLOR
62
256
9
$CELTSCALE
40
1
9
$CELTYPE
6
ByLayer
9
$CELWEIGHT
370
18
9
$CLAYER
8
0
9
$CMLJUST
70
0
9
$CMLSCALE
40
1
9
$CMLSTYLE
2
Standard
9
$DIMSTYLE
2
Standard
9
$TEXTSIZE
40
0.2
9
$TEXTSTYLE
7
Standard
9
$LUNITS
70
2
9
$LUPREC
70
4
9
$EXTNAMES
290
1
9
$INSUNITS
70
4
9
$LTSCALE
40
1
9
$LWDISPLAY
290
1
9
$PDMODE
70
0
9
$PDSIZE
40
0
9
$PLINEGEN
70
0
0
ENDSEC
0
SECTION
2
CLASSES
0
CLASS
1
RASTERVARIABLES
2
AcDbRasterVariables
3
ISM
90
0
280
0
281
0
0
ENDSEC
0
SECTION
2
TABLES
0
TABLE
2
VPORT
5
4d3
100
AcDbSymbolTable
0
VPORT
5
1
100
AcDbSymbolTableRecord
100
AcDbViewportTableRecord
2
*Active
70
0
10
0
20
0
11
1
21
1
12
-1
22
1
13
0
23
0
14
0.5
24
0.5
15
10
25
10
16
0
26
0
36
1
17
0
27
0
37
0
0
ENDTAB
0
TABLE
2
LTYPE
5
4d4
100
AcDbSymbolTable
0
LTYPE
5
14
100
AcDbSymbolTableRecord
100
AcDbLinetypeTableRecord
70
0
2
ByBlock
3

72
65
73
0
40
0
0
LTYPE
5
15
100
AcDbSymbolTableRecord
100
AcDbLinetypeTableRecord
70
0
2
ByLayer
3

72
65
73
0
40
0
0
LTYPE
5
16
100
AcDbSymbolTableRecord
100
AcDbLinetypeTableRecord
70
0
2
Continuous
3
Solid line
72
65
73
0
40
0
0
LTYPE
5
6E
100
AcDbSymbolTableRecord
100
AcDbLinetypeTableRecord
70
0
2
CENTER
3
____ _ ____ _ ____ _ ____
72
65
73
4
40
47.5
49
22
74
0
49
-8.5
74
0
49
8.5
74
0
49
-8.5
74
0
0
LTYPE
5
6F
100
AcDbSymbolTableRecord
100
AcDbLinetypeTableRecord
70
0
2
DASHED
3
__ __ __ __ __ __ __ __ __
72
65
73
2
40
25.72
49
12.86
74
0
49
-12.86
74
0
0
ENDTAB
0
TABLE
2
LAYER
5
4d5
100
AcDbSymbolTable
0
LAYER
5
10
100
AcDbSymbolTableRecord
100
AcDbLayerTableRecord
2
0
70
0
62
7
6
Continuous
290
1
370
-3
390
0
0
LAYER
5
71
100
AcDbSymbolTableRecord
100
AcDbLayerTableRecord
2
80
70
0
62
-6
6
Continuous
290
1
370
-3
390
0
0
LAYER
5
73
100
AcDbSymbolTableRecord
100
AcDbLayerTableRecord
2
81
70
0
62
-3
6
Continuous
290
1
370
-3
390
0
0
LAYER
5
75
100
AcDbSymbolTableRecord
100
AcDbLayerTableRecord
2
1
70
0
62
4
6
Continuous
290
1
370
-3
390
0
0
LAYER
5
2B2
100
AcDbSymbolTableRecord
100
AcDbLayerTableRecord
2
4
70
0
62
-2
6
CENTER
290
1
370
-3
390
0
0
LAYER
5
2D9
100
AcDbSymbolTableRecord
100
AcDbLayerTableRecord
2
2
70
0
62
7
6
Continuous
290
1
370
-3
390
0
0
LAYER
5
3FF
100
AcDbSymbolTableRecord
100
AcDbLayerTableRecord
2
Defpoints
70
0
62
7
6
Continuous
290
0
370
-3
390
0
0
LAYER
5
4bf
100
AcDbSymbolTableRecord
100
AcDbLayerTableRecord
2
SK1
70
0
62
4
6
Continuous
290
1
370
-3
390
0
0
LAYER
5
4c0
100
AcDbSymbolTableRecord
100
AcDbLayerTableRecord
2
SK4
70
0
62
2
6
CENTER
290
1
370
-3
390
0
0
LAYER
5
4c1
100
AcDbSymbolTableRecord
100
AcDbLayerTableRecord
2
SK2
70
0
62
7
6
Continuous
290
1
370
-3
390
0
0
LAYER
5
4c2
100
AcDbSymbolTableRecord
100
AcDbLayerTableRecord
2
SK6
70
0
62
5
6
Continuous
290
1
370
-3
390
0
0
ENDTAB
0
TABLE
2
STYLE
5
4d6
100
AcDbSymbolTable
0
STYLE
5
11
100
AcDbSymbolTableRecord
100
AcDbTextStyleTableRecord
2
Standard
3
txt
70
0
71
0
40
0
41
1
42
0
50
0
0
STYLE
5
3DE
100
AcDbSymbolTableRecord
100
AcDbTextStyleTableRecord
2
iso_b_vert
3
simplex.shx
70
0
71
0
40
0
41
1
42
0
50
0
0
STYLE
5
3DF
100
AcDbSymbolTableRecord
100
AcDbTextStyleTableRecord
2
DWGDirectTextStyle
3
simplex
70
0
71
0
40
0
41
1
42
0
50
0
0
ENDTAB
0
TABLE
2
DIMSTYLE
5
4d7
100
AcDbSymbolTable
100
AcDbDimStyleTable
0
DIMSTYLE
105
27
100
AcDbSymbolTableRecord
100
AcDbDimStyleTableRecord
2
Standard
70
0
3
<>
41
0.18
42
0.0625
44
0.18
140
0.18
147
0.09
73
0
74
0
77
1
271
2
275
0
278
52
280
0
340
11
0
ENDTAB
0
TABLE
2
VIEW
5
4d8
100
AcDbSymbolTable
0
ENDTAB
0
TABLE
2
UCS
5
4d9
100
AcDbSymbolTable
0
ENDTAB
0
TABLE
2
APPID
5
4da
100
AcDbSymbolTable
0
APPID
5
12
100
AcDbSymbolTableRecord
100
AcDbRegAppTableRecord
2
ACAD
70
0
0
APPID
5
3FB
100
AcDbSymbolTableRecord
100
AcDbRegAppTableRecord
2
ACAD_DSTYLE_DIMBREAK
70
0
0
APPID
5
47E
100
AcDbSymbolTableRecord
100
AcDbRegAppTableRecord
2
ACAD_DSTYLE_DIM_LINETYPE
70
0
0
APPID
5
47F
100
AcDbSymbolTableRecord
100
AcDbRegAppTableRecord
2
ACAD_DSTYLE_DIM_EXT1_LINETYPE
70
0
0
APPID
5
480
100
AcDbSymbolTableRecord
100
AcDbRegAppTableRecord
2
ACAD_DSTYLE_DIM_EXT2_LINETYPE
70
0
0
APPID
5
4BB
100
AcDbSymbolTableRecord
100
AcDbRegAppTableRecord
2
ACAD_MLEADERVER
70
0
0
ENDTAB
0
TABLE
2
BLOCK_RECORD
5
4db
100
AcDbSymbolTable
0
BLOCK_RECORD
5
1F
100
AcDbSymbolTableRecord
100
AcDbBlockTableRecord
2
*Model_Space
340
0
70
0
0
BLOCK_RECORD
5
1B
100
AcDbSymbolTableRecord
100
AcDbBlockTableRecord
2
*Paper_Space
340
0
70
0
0
BLOCK_RECORD
5
23
100
AcDbSymbolTableRecord
100
AcDbBlockTableRecord
2
*Paper_Space0
340
0
70
0
0
BLOCK_RECORD
5
400
100
AcDbSymbolTableRecord
100
AcDbBlockTableRecord
2
*D1
340
0
70
0
0
BLOCK_RECORD
5
40C
100
AcDbSymbolTableRecord
100
AcDbBlockTableRecord
2
_U0
340
0
70
0
0
BLOCK_RECORD
5
418
100
AcDbSymbolTableRecord
100
AcDbBlockTableRecord
2
*D3
340
0
70
0
0
BLOCK_RECORD
5
424
100
AcDbSymbolTableRecord
100
AcDbBlockTableRecord
2
_U1
340
0
70
0
0
BLOCK_RECORD
5
430
100
AcDbSymbolTableRecord
100
AcDbBlockTableRecord
2
*D5
340
0
70
0
0
BLOCK_RECORD
5
43E
100
AcDbSymbolTableRecord
100
AcDbBlockTableRecord
2
_U2
340
0
70
0
0
BLOCK_RECORD
5
44A
100
AcDbSymbolTableRecord
100
AcDbBlockTableRecord
2
*D7
340
0
70
0
0
BLOCK_RECORD
5
457
100
AcDbSymbolTableRecord
100
AcDbBlockTableRecord
2
_U3
340
0
70
0
0
ENDTAB
0
ENDSEC
0
SECTION
2
BLOCKS
0
BLOCK
5
20
100
AcDbEntity
8
0
100
AcDbBlockBegin
2
*Model_Space
70
0
10
0
20
0
30
0
3
*Model_Space
0
ENDBLK
5
21
100
AcDbEntity
8
0
100
AcDbBlockEnd
0
BLOCK
5
1C
100
AcDbEntity
8
0
100
AcDbBlockBegin
2
*Paper_Space
70
0
10
0
20
0
30
0
3
*Paper_Space
0
ENDBLK
5
1D
100
AcDbEntity
8
0
100
AcDbBlockEnd
0
BLOCK
5
24
100
AcDbEntity
8
0
100
AcDbBlockBegin
2
*Paper_Space0
70
0
10
0
20
0
30
0
3
*Paper_Space0
0
ENDBLK
5
25
100
AcDbEntity
8
0
100
AcDbBlockEnd
0
BLOCK
5
401
100
AcDbEntity
8
0
100
AcDbBlockBegin
2
*D1
70
1
10
0
20
0
30
0
3
*D1
0
LINE
5
403
100
AcDbEntity
8
0
62
256
6
ByLayer
370
-2
48
1
60
0
100
AcDbLine
10
125
20
-51.5875
30
0
11
125
21
-65.379236
31
0
39
0
210
0
220
0
230
1
0
LINE
5
404
100
AcDbEntity
8
0
62
256
6
ByLayer
370
-2
48
1
60
0
100
AcDbLine
10
74
20
-21.5875
30
0
11
74
21
-65.379236
31
0
39
0
210
0
220
0
230
1
0
LINE
5
405
100
AcDbEntity
8
0
62
256
6
ByLayer
370
-2
48
1
60
0
100
AcDbLine
10
121.5
20
-63.379236
30
0
11
77.5
21
-63.379236
31
0
39
0
210
0
220
0
230
1
0
SOLID
5
406
100
AcDbEntity
8
0
62
256
6
ByLayer
370
-1
48
1
60
0
100
AcDbTrace
10
121.5
20
-63.962569
30
0
11
121.5
21
-62.795902
31
0
12
125
22
-63.379236
32
0
13
125
23
-63.379236
33
0
39
0
210
0
220
0
230
1
0
SOLID
5
407
100
AcDbEntity
8
0
62
256
6
ByLayer
370
-1
48
1
60
0
100
AcDbTrace
10
77.5
20
-62.795902
30
0
11
77.5
21
-63.962569
31
0
12
74
22
-63.379236
32
0
13
74
23
-63.379236
33
0
39
0
210
0
220
0
230
1
0
MTEXT
5
408
100
AcDbEntity
8
0
62
256
6
ByLayer
370
18
48
1
60
0
100
AcDbMText
10
99.5
20
-55.379236
30
0
210
0
220
0
230
1
1
\A1;51
40
4
41
0
44
1
50
0
71
5
72
5
7
iso_b_vert
0
POINT
5
409
100
AcDbEntity
8
Defpoints
62
0
6
ByLayer
370
-1
48
1
60
0
100
AcDbPoint
10
125
20
-50
30
0
39
0
210
0
220
0
230
1
50
360
0
POINT
5
40A
100
AcDbEntity
8
Defpoints
62
0
6
ByLayer
370
-1
48
1
60
0
100
AcDbPoint
10
74
20
-20
30
0
39
0
210
0
220
0
230
1
50
360
0
POINT
5
40B
100
AcDbEntity
8
Defpoints
62
0
6
ByLayer
370
-1
48
1
60
0
100
AcDbPoint
10
74
20
-63.379236
30
0
39
0
210
0
220
0
230
1
50
360
0
ENDBLK
5
402
100
AcDbEntity
8
0
100
AcDbBlockEnd
0
BLOCK
5
413
100
AcDbEntity
8
0
100
AcDbBlockBegin
2
_U0
70
0
10
0
20
0
30
0
3
_U0
0
MTEXT
5
40D
100
AcDbEntity
8
SK2
62
256
6
ByLayer
370
13
48
1
60
0
100
AcDbMText
10
97.822819
20
-62.199083
30
0
210
0
220
0
230
1
1
\W0.6351;51
40
4
41
0
44
1.084337
50
0
71
7
72
5
7
iso_b_vert
0
LINE
5
40E
100
AcDbEntity
8
SK2
62
256
6
ByLayer
370
13
48
1
60
0
100
AcDbLine
10
125
20
-51.5875
30
0
11
125
21
-65.379236
31
0
39
0
210
0
220
0
230
1
0
LINE
5
40F
100
AcDbEntity
8
SK2
62
256
6
ByLayer
370
13
48
1
60
0
100
AcDbLine
10
74
20
-21.5875
30
0
11
74
21
-65.379236
31
0
39
0
210
0
220
0
230
1
0
LINE
5
410
100
AcDbEntity
8
SK2
62
256
6
ByLayer
370
13
48
1
60
0
100
AcDbLine
10
125
20
-63.379236
30
0
11
74
21
-63.379236
31
0
39
0
210
0
220
0
230
1
0
SOLID
5
411
100
AcDbEntity
8
SK2
62
256
6
ByLayer
370
18
48
1
60
0
100
AcDbTrace
10
125
20
-63.379236
30
0
11
121.500002
21
-63.840019
31
0
12
121.499998
22
-62.918452
32
0
13
121.499998
23
-62.918452
33
0
39
0
210
0
220
0
230
1
0
SOLID
5
412
100
AcDbEntity
8
SK2
62
256
6
ByLayer
370
18
48
1
60
0
100
AcDbTrace
10
74
20
-63.379236
30
0
11
77.499998
21
-62.918452
31
0
12
77.500002
22
-63.840019
32
0
13
77.500002
23
-63.840019
33
0
39
0
210
0
220
0
230
1
0
ENDBLK
5
414
100
AcDbEntity
8
0
100
AcDbBlockEnd
0
BLOCK
5
419
100
AcDbEntity
8
0
100
AcDbBlockBegin
2
*D3
70
1
10
0
20
0
30
0
3
*D3
0
LINE
5
41B
100
AcDbEntity
8
0
62
256
6
ByLayer
370
-2
48
1
60
0
100
AcDbLine
10
125
20
-51.5875
30
0
11
125
21
-75.379236
31
0
39
0
210
0
220
0
230
1
0
LINE
5
41C
100
AcDbEntity
8
0
62
256
6
ByLayer
370
-2
48
1
60
0
100
AcDbLine
10
0
20
-21.5875
30
0
11
0
21
-75.379236
31
0
39
0
210
0
220
0
230
1
0
LINE
5
41D
100
AcDbEntity
8
0
62
256
6
ByLayer
370
-2
48
1
60
0
100
AcDbLine
10
121.5
20
-73.379236
30
0
11
3.5
21
-73.379236
31
0
39
0
210
0
220
0
230
1
0
SOLID
5
41E
100
AcDbEntity
8
0
62
256
6
ByLayer
370
-1
48
1
60
0
100
AcDbTrace
10
121.5
20
-73.962569
30
0
11
121.5
21
-72.795902
31
0
12
125
22
-73.379236
32
0
13
125
23
-73.379236
33
0
39
0
210
0
220
0
230
1
0
SOLID
5
41F
100
AcDbEntity
8
0
62
256
6
ByLayer
370
-1
48
1
60
0
100
AcDbTrace
10
3.5
20
-72.795902
30
0
11
3.5
21
-73.962569
31
0
12
0
22
-73.379236
32
0
13
0
23
-73.379236
33
0
39
0
210
0
220
0
230
1
0
MTEXT
5
420
100
AcDbEntity
8
0
62
256
6
ByLayer
370
18
48
1
60
0
100
AcDbMText
10
62.5
20
-65.379236
30
0
210
0
220
0
230
1
1
\A1;125
40
4
41
0
44
1
50
0
71
5
72
5
7
iso_b_vert
0
POINT
5
421
100
AcDbEntity
8
Defpoints
62
0
6
ByLayer
370
-1
48
1
60
0
100
AcDbPoint
10
125
20
-50
30
0
39
0
210
0
220
0
230
1
50
360
0
POINT
5
422
100
AcDbEntity
8
Defpoints
62
0
6
ByLayer
370
-1
48
1
60
0
100
AcDbPoint
10
0
20
-20
30
0
39
0
210
0
220
0
230
1
50
360
0
POINT
5
423
100
AcDbEntity
8
Defpoints
62
0
6
ByLayer
370
-1
48
1
60
0
100
AcDbPoint
10
0
20
-73.379236
30
0
39
0
210
0
220
0
230
1
50
360
0
ENDBLK
5
41A
100
AcDbEntity
8
0
100
AcDbBlockEnd
0
BLOCK
5
42B
100
AcDbEntity
8
0
100
AcDbBlockBegin
2
_U1
70
0
10
0
20
0
30
0
3
_U1
0
MTEXT
5
425
100
AcDbEntity
8
SK2
62
256
6
ByLayer
370
13
48
1
60
0
100
AcDbMText
10
59.328267
20
-72.199083
30
0
210
0
220
0
230
1
1
\W0.6217;125
40
4
41
0
44
1.084337
50
0
71
7
72
5
7
iso_b_vert
0
LINE
5
426
100
AcDbEntity
8
SK2
62
256
6
ByLayer
370
13
48
1
60
0
100
AcDbLine
10
125
20
-51.5875
30
0
11
125
21
-75.379236
31
0
39
0
210
0
220
0
230
1
0
LINE
5
427
100
AcDbEntity
8
SK2
62
256
6
ByLayer
370
13
48
1
60
0
100
AcDbLine
10
0
20
-21.5875
30
0
11
0
21
-75.379236
31
0
39
0
210
0
220
0
230
1
0
LINE
5
428
100
AcDbEntity
8
SK2
62
256
6
ByLayer
370
13
48
1
60
0
100
AcDbLine
10
125
20
-73.379236
30
0
11
0
21
-73.379236
31
0
39
0
210
0
220
0
230
1
0
SOLID
5
429
100
AcDbEntity
8
SK2
62
256
6
ByLayer
370
18
48
1
60
0
100
AcDbTrace
10
125
20
-73.379236
30
0
11
121.500002
21
-73.840019
31
0
12
121.499998
22
-72.918452
32
0
13
121.499998
23
-72.918452
33
0
39
0
210
0
220
0
230
1
0
SOLID
5
42A
100
AcDbEntity
8
SK2
62
256
6
ByLayer
370
18
48
1
60
0
100
AcDbTrace
10
0
20
-73.379236
30
0
11
3.499998
21
-72.918452
31
0
12
3.500002
22
-73.840019
32
0
13
3.500002
23
-73.840019
33
0
39
0
210
0
220
0
230
1
0
ENDBLK
5
42C
100
AcDbEntity
8
0
100
AcDbBlockEnd
0
BLOCK
5
431
100
AcDbEntity
8
0
100
AcDbBlockBegin
2
*D5
70
1
10
0
20
0
30
0
3
*D5
0
LINE
5
433
100
AcDbEntity
8
0
62
256
6
ByLayer
370
-2
48
1
60
0
100
AcDbLine
10
125
20
51.5875
30
0
11
125
21
61.379236
31
0
39
0
210
0
220
0
230
1
0
LINE
5
434
100
AcDbEntity
8
0
62
256
6
ByLayer
370
-2
48
1
60
0
100
AcDbLine
10
117.4
20
51.5875
30
0
11
117.4
21
61.379236
31
0
39
0
210
0
220
0
230
1
0
LINE
5
435
100
AcDbEntity
8
0
62
256
6
ByLayer
370
-2
48
1
60
0
100
AcDbLine
10
125
20
59.379236
30
0
11
155.341087
21
59.379236
31
0
39
0
210
0
220
0
230
1
0
LINE
5
436
100
AcDbEntity
8
0
62
256
6
ByLayer
370
-2
48
1
60
0
100
AcDbLine
10
128.5
20
59.379236
30
0
11
132
21
59.379236
31
0
39
0
210
0
220
0
230
1
0
LINE
5
437
100
AcDbEntity
8
0
62
256
6
ByLayer
370
-2
48
1
60
0
100
AcDbLine
10
113.9
20
59.379236
30
0
11
110.4
21
59.379236
31
0
39
0
210
0
220
0
230
1
0
SOLID
5
438
100
AcDbEntity
8
0
62
256
6
ByLayer
370
-1
48
1
60
0
100
AcDbTrace
10
128.5
20
59.962569
30
0
11
128.5
21
58.795902
31
0
12
125
22
59.379236
32
0
13
125
23
59.379236
33
0
39
0
210
0
220
0
230
1
0
SOLID
5
439
100
AcDbEntity
8
0
62
256
6
ByLayer
370
-1
48
1
60
0
100
AcDbTrace
10
113.9
20
58.795902
30
0
11
113.9
21
59.962569
31
0
12
117.4
22
59.379236
32
0
13
117.4
23
59.379236
33
0
39
0
210
0
220
0
230
1
0
MTEXT
5
43A
100
AcDbEntity
8
0
62
256
6
ByLayer
370
18
48
1
60
0
100
AcDbMText
10
145.15061
20
67.379236
30
0
210
0
220
0
230
1
1
\A1;7.6
40
4
41
0
44
1
50
0
71
5
72
5
7
iso_b_vert
0
POINT
5
43B
100
AcDbEntity
8
Defpoints
62
0
6
ByLayer
370
-1
48
1
60
0
100
AcDbPoint
10
125
20
50
30
0
39
0
210
0
220
0
230
1
50
360
0
POINT
5
43C
100
AcDbEntity
8
Defpoints
62
0
6
ByLayer
370
-1
48
1
60
0
100
AcDbPoint
10
117.4
20
50
30
0
39
0
210
0
220
0
230
1
50
360
0
POINT
5
43D
100
AcDbEntity
8
Defpoints
62
0
6
ByLayer
370
-1
48
1
60
0
100
AcDbPoint
10
117.4
20
59.379236
30
0
39
0
210
0
220
0
230
1
50
360
0
ENDBLK
5
432
100
AcDbEntity
8
0
100
AcDbBlockEnd
0
BLOCK
5
445
100
AcDbEntity
8
0
100
AcDbBlockBegin
2
_U2
70
0
10
0
20
0
30
0
3
_U2
0
MTEXT
5
43F
100
AcDbEntity
8
SK2
62
256
6
ByLayer
370
13
48
1
60
0
100
AcDbMText
10
142.163221
20
60.559388
30
0
210
0
220
0
230
1
1
\W0.7121;7.6
40
4
41
0
44
1.084337
50
0
71
7
72
5
7
iso_b_vert
0
LINE
5
440
100
AcDbEntity
8
SK2
62
256
6
ByLayer
370
13
48
1
60
0
100
AcDbLine
10
125
20
51.5875
30
0
11
125
21
61.379236
31
0
39
0
210
0
220
0
230
1
0
LINE
5
441
100
AcDbEntity
8
SK2
62
256
6
ByLayer
370
13
48
1
60
0
100
AcDbLine
10
117.4
20
51.5875
30
0
11
117.4
21
61.379236
31
0
39
0
210
0
220
0
230
1
0
LINE
5
442
100
AcDbEntity
8
SK2
62
256
6
ByLayer
370
13
48
1
60
0
100
AcDbLine
10
117.4
20
59.379236
30
0
11
148.35
21
59.379236
31
0
39
0
210
0
220
0
230
1
0
SOLID
5
443
100
AcDbEntity
8
SK2
62
256
6
ByLayer
370
18
48
1
60
0
100
AcDbTrace
10
125
20
59.379236
30
0
11
121.500002
21
58.918452
31
0
12
121.499998
22
59.840019
32
0
13
121.499998
23
59.840019
33
0
39
0
210
0
220
0
230
1
0
SOLID
5
444
100
AcDbEntity
8
SK2
62
256
6
ByLayer
370
18
48
1
60
0
100
AcDbTrace
10
117.4
20
59.379236
30
0
11
120.899998
21
59.840019
31
0
12
120.900002
22
58.918452
32
0
13
120.900002
23
58.918452
33
0
39
0
210
0
220
0
230
1
0
ENDBLK
5
446
100
AcDbEntity
8
0
100
AcDbBlockEnd
0
BLOCK
5
44B
100
AcDbEntity
8
0
100
AcDbBlockBegin
2
*D7
70
1
10
0
20
0
30
0
3
*D7
0
LINE
5
44D
100
AcDbEntity
8
0
62
256
6
ByLayer
370
-2
48
1
60
0
100
AcDbLine
10
125
20
51.5875
30
0
11
125
21
68.379236
31
0
39
0
210
0
220
0
230
1
0
LINE
5
44E
100
AcDbEntity
8
0
62
256
6
ByLayer
370
-2
48
1
60
0
100
AcDbLine
10
115.5
20
51.5875
30
0
11
115.5
21
68.379236
31
0
39
0
210
0
220
0
230
1
0
LINE
5
44F
100
AcDbEntity
8
0
62
256
6
ByLayer
370
-2
48
1
60
0
100
AcDbLine
10
128.5
20
66.379236
30
0
11
132
21
66.379236
31
0
39
0
210
0
220
0
230
1
0
LINE
5
450
100
AcDbEntity
8
0
62
256
6
ByLayer
370
-2
48
1
60
0
100
AcDbLine
10
112
20
66.379236
30
0
11
108.5
21
66.379236
31
0
39
0
210
0
220
0
230
1
0
SOLID
5
451
100
AcDbEntity
8
0
62
256
6
ByLayer
370
-1
48
1
60
0
100
AcDbTrace
10
128.5
20
66.962569
30
0
11
128.5
21
65.795902
31
0
12
125
22
66.379236
32
0
13
125
23
66.379236
33
0
39
0
210
0
220
0
230
1
0
SOLID
5
452
100
AcDbEntity
8
0
62
256
6
ByLayer
370
-1
48
1
60
0
100
AcDbTrace
10
112
20
65.795902
30
0
11
112
21
66.962569
31
0
12
115.5
22
66.379236
32
0
13
115.5
23
66.379236
33
0
39
0
210
0
220
0
230
1
0
MTEXT
5
453
100
AcDbEntity
8
0
62
256
6
ByLayer
370
18
48
1
60
0
100
AcDbMText
10
120.25
20
74.379236
30
0
210
0
220
0
230
1
1
\A1;9.5
40
4
41
0
44
1
50
0
71
5
72
5
7
iso_b_vert
0
POINT
5
454
100
AcDbEntity
8
Defpoints
62
0
6
ByLayer
370
-1
48
1
60
0
100
AcDbPoint
10
125
20
50
30
0
39
0
210
0
220
0
230
1
50
360
0
POINT
5
455
100
AcDbEntity
8
Defpoints
62
0
6
ByLayer
370
-1
48
1
60
0
100
AcDbPoint
10
115.5
20
50
30
0
39
0
210
0
220
0
230
1
50
360
0
POINT
5
456
100
AcDbEntity
8
Defpoints
62
0
6
ByLayer
370
-1
48
1
60
0
100
AcDbPoint
10
115.5
20
66.379236
30
0
39
0
210
0
220
0
230
1
50
360
0
ENDBLK
5
44C
100
AcDbEntity
8
0
100
AcDbBlockEnd
0
BLOCK
5
45E
100
AcDbEntity
8
0
100
AcDbBlockBegin
2
_U3
70
0
10
0
20
0
30
0
3
_U3
0
MTEXT
5
458
100
AcDbEntity
8
SK2
62
256
6
ByLayer
370
13
48
1
60
0
100
AcDbMText
10
117.26261
20
67.559388
30
0
210
0
220
0
230
1
1
\W0.7121;9.5
40
4
41
0
44
1.084337
50
0
71
7
72
5
7
iso_b_vert
0
LINE
5
459
100
AcDbEntity
8
SK2
62
256
6
ByLayer
370
13
48
1
60
0
100
AcDbLine
10
125
20
51.5875
30
0
11
125
21
68.379236
31
0
39
0
210
0
220
0
230
1
0
LINE
5
45A
100
AcDbEntity
8
SK2
62
256
6
ByLayer
370
13
48
1
60
0
100
AcDbLine
10
115.5
20
51.5875
30
0
11
115.5
21
68.379236
31
0
39
0
210
0
220
0
230
1
0
LINE
5
45B
100
AcDbEntity
8
SK2
62
256
6
ByLayer
370
13
48
1
60
0
100
AcDbLine
10
125
20
66.379236
30
0
11
115.5
21
66.379236
31
0
39
0
210
0
220
0
230
1
0
SOLID
5
45C
100
AcDbEntity
8
SK2
62
256
6
ByLayer
370
18
48
1
60
0
100
AcDbTrace
10
125
20
66.379236
30
0
11
121.500002
21
65.918452
31
0
12
121.499998
22
66.840019
32
0
13
121.499998
23
66.840019
33
0
39
0
210
0
220
0
230
1
0
SOLID
5
45D
100
AcDbEntity
8
SK2
62
256
6
ByLayer
370
18
48
1
60
0
100
AcDbTrace
10
115.5
20
66.379236
30
0
11
118.999998
21
66.840019
31
0
12
119.000002
22
65.918452
32
0
13
119.000002
23
65.918452
33
0
39
0
210
0
220
0
230
1
0
ENDBLK
5
45F
100
AcDbEntity
8
0
100
AcDbBlockEnd
0
ENDSEC
0
SECTION
2
ENTITIES
0
ARC
5
2EB
100
AcDbEntity
8
1
62
256
6
ByLayer
370
18
48
1
60
0
100
AcDbCircle
39
0
10
72.158095
20
21.1
30
0
40
1.6
210
0
220
0
230
1
100
AcDbArc
50
223.630109
51
270
0
ARC
5
2EC
100
AcDbEntity
8
1
62
256
6
ByLayer
370
18
48
1
60
0
100
AcDbCircle
39
0
10
72.158095
20
-21.1
30
0
40
1.6
210
0
220
0
230
1
100
AcDbArc
50
90
51
136.369891
0
ARC
5
2ED
100
AcDbEntity
8
1
62
256
6
ByLayer
370
18
48
1
60
0
100
AcDbCircle
39
0
10
72.838105
20
-21.1
30
0
40
1.6
210
0
220
0
230
1
100
AcDbArc
50
43.432537
51
90
0
ARC
5
2EE
100
AcDbEntity
8
1
62
256
6
ByLayer
370
18
48
1
60
0
100
AcDbCircle
39
0
10
72.838105
20
21.1
30
0
40
1.6
210
0
220
0
230
1
100
AcDbArc
50
270
51
316.567463
0
ARC
5
2EF
100
AcDbEntity
8
1
62
256
6
ByLayer
370
18
48
1
60
0
100
AcDbCircle
39
0
10
121.119135
20
5.447061
30
0
40
5
210
0
220
0
230
1
100
AcDbArc
50
246.131712
51
283.794284
0
ELLIPSE
5
2F0
100
AcDbEntity
8
1
62
256
6
ByLayer
370
18
48
1
60
0
100
AcDbEllipse
10
121.5
20
-37.34128
30
0
11
1
21
0
31
0
210
0
220
0
230
1
40
0.413382
41
0
42
6.28318530717959
0
ELLIPSE
5
2F1
100
AcDbEntity
8
1
62
256
6
ByLayer
370
13
48
1
60
0
100
AcDbEllipse
10
121.5
20
-37.432336
30
0
11
-1.5
21
1.83690953073357E-16
31
0
210
0
220
0
230
1
40
0.413382
41
0
42
3.14159265358979
0
ELLIPSE
5
2F2
100
AcDbEntity
8
1
62
256
6
ByLayer
370
18
48
1
60
0
100
AcDbEllipse
10
120
20
23.108699
30
0
11
-3
21
3.67381906146713E-16
31
0
210
0
220
0
230
1
40
0.870356
41
-3.06648902857076
42
-0.0831541417368187
0
ELLIPSE
5
2F3
100
AcDbEntity
8
1
62
256
6
ByLayer
370
13
48
1
60
0
100
AcDbEllipse
10
122.9
20
-37.432336
30
0
11
-0.1
21
1.22460635382238E-17
31
0
210
0
220
0
230
1
40
0.910558
41
3.14159265358979
42
-1.5707963267949
0
ELLIPSE
5
2F4
100
AcDbEntity
8
1
62
256
6
ByLayer
370
13
48
1
60
0
100
AcDbEllipse
10
120.1
20
-37.432336
30
0
11
0.1
21
0
31
0
210
0
220
0
230
1
40
0.910558
41
1.5707963267949
42
-3.14159265358972
0
ELLIPSE
5
2F5
100
AcDbEntity
8
1
62
256
6
ByLayer
370
18
48
1
60
0
100
AcDbEllipse
10
120
20
23.478017
30
0
11
-2.25
21
2.75536429610035E-16
31
0
210
0
220
0
230
1
40
0.870356
41
0
42
6.28318530717959
0
ELLIPSE
5
2F6
100
AcDbEntity
8
1
62
256
6
ByLayer
370
18
48
1
60
0
100
AcDbEllipse
10
121.5
20
-14.417055
30
0
11
1
21
0
31
0
210
0
220
0
230
1
40
0.936167
41
0
42
6.28318530717959
0
ELLIPSE
5
2F7
100
AcDbEntity
8
1
62
256
6
ByLayer
370
18
48
1
60
0
100
AcDbEllipse
10
121.5
20
-14.452211
30
0
11
-1.5
21
1.83690953073357E-16
31
0
210
0
220
0
230
1
40
0.936167
41
0
42
-3.14159265358979
0
ELLIPSE
5
2F8
100
AcDbEntity
8
1
62
256
6
ByLayer
370
13
48
1
60
0
100
AcDbEllipse
10
121.5
20
-14.417055
30
0
11
1.4
21
0
31
0
210
0
220
0
230
1
40
0.936167
41
3.14159265358979
42
5.42136740071939E-15
0
ELLIPSE
5
2F9
100
AcDbEntity
8
1
62
256
6
ByLayer
370
13
48
1
60
0
100
AcDbEllipse
10
122.9
20
-14.452211
30
0
11
-0.1
21
1.22460635382238E-17
31
0
210
0
220
0
230
1
40
0.351556
41
3.14159265358979
42
-1.5707963267949
0
ELLIPSE
5
2FA
100
AcDbEntity
8
1
62
256
6
ByLayer
370
13
48
1
60
0
100
AcDbEllipse
10
120.1
20
-14.452211
30
0
11
0.1
21
0
31
0
210
0
220
0
230
1
40
0.351556
41
1.5707963267949
42
-3.14159265358974
0
ELLIPSE
5
2FB
100
AcDbEntity
8
1
62
256
6
ByLayer
370
18
48
1
60
0
100
AcDbEllipse
10
120.118553
20
46.100248
30
0
11
-0.504297899378152
21
-0.149531363542181
31
0
210
0
220
0
230
1
40
0.955145
41
1.02216022322248
42
1.79558735751135
0
ELLIPSE
5
2FC
100
AcDbEntity
8
1
62
256
6
ByLayer
370
18
48
1
60
0
100
AcDbEllipse
10
120.816065
20
44.891083
30
0
11
0.89354684832783
21
0.2649491080253
31
0
210
0
220
0
230
1
40
0.955145
41
2.81847065575537
42
2.86746196285935
0
ELLIPSE
5
2FD
100
AcDbEntity
8
1
62
256
6
ByLayer
370
18
48
1
60
0
100
AcDbEllipse
10
119.364386
20
44.887758
30
0
11
-0.504297899378152
21
-0.149531363542181
31
0
210
0
220
0
230
1
40
0.955145
41
2.88637854861448
42
-3.14158501689162
0
ELLIPSE
5
2FE
100
AcDbEntity
8
1
62
256
6
ByLayer
370
18
48
1
60
0
100
AcDbEllipse
10
119.915429
20
45.396541
30
0
11
-0.221469229574816
21
-0.0656687166886762
31
0
210
0
220
0
230
1
40
0.955145
41
-2.11943243036727
42
-0.701059888885824
0
ELLIPSE
5
2FF
100
AcDbEntity
8
1
62
256
6
ByLayer
370
18
48
1
60
0
100
AcDbEllipse
10
121.570549
20
46.103573
30
0
11
-0.504297899378152
21
-0.149531363542181
31
0
210
0
220
0
230
1
40
0.955145
41
2.31406740919164E-06
42
0.748752607513587
0
ELLIPSE
5
300
100
AcDbEntity
8
1
62
256
6
ByLayer
370
18
48
1
60
0
100
AcDbEllipse
10
121.570549
20
46.103573
30
0
11
-0.504297899378152
21
-0.149531363542181
31
0
210
0
220
0
230
1
40
0.955145
41
0.748752607513587
42
1.52217974180243
0
ELLIPSE
5
301
100
AcDbEntity
8
1
62
256
6
ByLayer
370
18
48
1
60
0
100
AcDbEllipse
10
121.740583
20
45.400721
30
0
11
-0.221469229574816
21
-0.0656687166886762
31
0
210
0
220
0
230
1
40
0.955145
41
-2.1449725747283
42
-1.61941291178726
0
ELLIPSE
5
302
100
AcDbEntity
8
1
62
256
6
ByLayer
370
18
48
1
60
0
100
AcDbEllipse
10
119.364386
20
44.887758
30
0
11
-0.504297899378152
21
-0.149531363542181
31
0
210
0
220
0
230
1
40
0.955145
41
2.48480708899586
42
2.79955407000025
0
ELLIPSE
5
303
100
AcDbEntity
8
1
62
256
6
ByLayer
370
18
48
1
60
0
100
AcDbEllipse
10
120.732394
20
45.173266
30
0
11
0.89354684832783
21
0.2649491080253
31
0
210
0
220
0
230
1
40
0.955145
41
2.81847065575539
42
2.86746196285935
0
ELLIPSE
5
304
100
AcDbEntity
8
1
62
256
6
ByLayer
370
18
48
1
60
0
100
AcDbEllipse
10
122.267745
20
44.894407
30
0
11
-0.504297899378152
21
-0.149531363542181
31
0
210
0
220
0
230
1
40
0.955145
41
8.64382260729906E-06
42
0.0688878766700812
0
ELLIPSE
5
305
100
AcDbEntity
8
1
62
256
6
ByLayer
370
18
48
1
60
0
100
AcDbEllipse
10
120.732394
20
45.173266
30
0
11
0.89354684832783
21
0.2649491080253
31
0
210
0
220
0
230
1
40
0.955145
41
-0.323121997834396
42
-0.274130690730454
0
ELLIPSE
5
306
100
AcDbEntity
8
1
62
256
6
ByLayer
370
18
48
1
60
0
100
AcDbEllipse
10
120.799228
20
44.947867
30
0
11
2.01335663249833
21
0.596988333533401
31
0
210
0
220
0
230
1
40
0.955145
41
-0.418422664358563
42
-0.301005507640864
0
ELLIPSE
5
307
100
AcDbEntity
8
1
62
256
6
ByLayer
370
18
48
1
60
0
100
AcDbEllipse
10
120.799228
20
44.947867
30
0
11
2.01335663249833
21
0.596988333533401
31
0
210
0
220
0
230
1
40
0.955145
41
-0.301005507640861
42
0
0
ELLIPSE
5
308
100
AcDbEntity
8
1
62
256
6
ByLayer
370
18
48
1
60
0
100
AcDbEllipse
10
120.715042
20
45.231786
30
0
11
1.23581747585255
21
0.366437124725978
31
0
210
0
220
0
230
1
40
0.955145
41
2.31900473251028
42
-3.00862237090682
0
ELLIPSE
5
309
100
AcDbEntity
8
1
62
256
6
ByLayer
370
18
48
1
60
0
100
AcDbEllipse
10
120.715042
20
45.231786
30
0
11
1.23581747585255
21
0.366437124725978
31
0
210
0
220
0
230
1
40
0.955145
41
1.27216998251247
42
2.31900473251028
0
ELLIPSE
5
30A
100
AcDbEntity
8
1
62
256
6
ByLayer
370
18
48
1
60
0
100
AcDbEllipse
10
120.715042
20
45.231786
30
0
11
1.23581747585255
21
0.366437124725978
31
0
210
0
220
0
230
1
40
0.955145
41
0.22533523251466
42
1.27216998251247
0
ELLIPSE
5
30B
100
AcDbEntity
8
1
62
256
6
ByLayer
370
18
48
1
60
0
100
AcDbEllipse
10
120.715042
20
45.231786
30
0
11
1.23581747585255
21
0.366437124725978
31
0
210
0
220
0
230
1
40
0.955145
41
-0.734988226263201
42
0.22533523251466
0
ELLIPSE
5
30C
100
AcDbEntity
8
1
62
256
6
ByLayer
370
18
48
1
60
0
100
AcDbEllipse
10
120.715042
20
45.231786
30
0
11
1.34223775499889
21
0.397992222355601
31
0
210
0
220
0
230
1
40
0.955145
41
-0.698613328421419
42
-0.301005755870779
0
ELLIPSE
5
30D
100
AcDbEntity
8
1
62
256
6
ByLayer
370
18
48
1
60
0
100
AcDbEllipse
10
120.715042
20
45.231786
30
0
11
1.34223775499889
21
0.397992222355601
31
0
210
0
220
0
230
1
40
0.955145
41
-0.301005755870784
42
0
0
ELLIPSE
5
30E
100
AcDbEntity
8
1
62
256
6
ByLayer
370
18
48
1
60
0
100
AcDbEllipse
10
120.715042
20
45.231786
30
0
11
1.34223775499889
21
0.397992222355601
31
0
210
0
220
0
230
1
40
0.955145
41
0
42
-3.04508840588031
0
ELLIPSE
5
30F
100
AcDbEntity
8
1
62
256
6
ByLayer
370
18
48
1
60
0
100
AcDbEllipse
10
120.737131
20
45.157291
30
0
11
2.01335663249833
21
0.596988333533401
31
0
210
0
220
0
230
1
40
0.955145
41
-0.52396046547735
42
-0.301005507640868
0
ELLIPSE
5
310
100
AcDbEntity
8
1
62
256
6
ByLayer
370
18
48
1
60
0
100
AcDbEllipse
10
120.737131
20
45.157291
30
0
11
2.01335663249833
21
0.596988333533401
31
0
210
0
220
0
230
1
40
0.955145
41
-0.301005507640875
42
0
0
ELLIPSE
5
311
100
AcDbEntity
8
1
62
256
6
ByLayer
370
18
48
1
60
0
100
AcDbEllipse
10
120.737131
20
45.157291
30
0
11
2.01335663249833
21
0.596988333533401
31
0
210
0
220
0
230
1
40
0.955145
41
0
42
3.0634434253513
0
ELLIPSE
5
312
100
AcDbEntity
8
1
62
256
6
ByLayer
370
18
48
1
60
0
100
AcDbEllipse
10
120
20
-5.776964
30
0
11
3
21
0
31
0
210
0
220
0
230
1
40
0.96363
41
-3.10664234800233
42
-0.0255254780011873
0
ELLIPSE
5
313
100
AcDbEntity
8
1
62
256
6
ByLayer
370
18
48
1
60
0
100
AcDbEllipse
10
120.732394
20
1.059232
30
0
11
-0.928400806994253
21
0.0818287331712984
31
0
210
0
220
0
230
1
40
0.283919
41
-0.0221162639332014
42
0.0268750431707648
0
ELLIPSE
5
314
100
AcDbEntity
8
1
62
256
6
ByLayer
370
18
48
1
60
0
100
AcDbEllipse
10
120
20
-5.977393
30
0
11
2.25
21
0
31
0
210
0
220
0
230
1
40
0.96363
41
0
42
6.28318530717959
0
ELLIPSE
5
315
100
AcDbEntity
8
1
62
256
6
ByLayer
370
18
48
1
60
0
100
AcDbEllipse
10
120.732394
20
1.059232
30
0
11
-0.928400806994253
21
0.0818287331712984
31
0
210
0
220
0
230
1
40
0.283919
41
3.1194763896566
42
-3.11471761041903
0
ELLIPSE
5
316
100
AcDbEntity
8
1
62
256
6
ByLayer
370
18
48
1
60
0
100
AcDbEllipse
10
120.715042
20
0.862363
30
0
11
-1.28402214615407
21
0.113173001134983
31
0
210
0
220
0
230
1
40
0.283919
41
-0.521582187178305
42
0.526340966415869
0
ELLIPSE
5
317
100
AcDbEntity
8
1
62
256
6
ByLayer
370
18
48
1
60
0
100
AcDbEllipse
10
120.715042
20
0.862363
30
0
11
-1.28402214615407
21
0.113173001134983
31
0
210
0
220
0
230
1
40
0.283919
41
-2.6152516871739
42
-1.56841693717611
0
ELLIPSE
5
318
100
AcDbEntity
8
1
62
256
6
ByLayer
370
18
48
1
60
0
100
AcDbEllipse
10
120.715042
20
0.862363
30
0
11
-1.39459348690124
21
0.1229186978968
31
0
210
0
220
0
230
1
40
0.283919
41
0
42
6.28318530717959
0
ELLIPSE
5
319
100
AcDbEntity
8
1
62
256
6
ByLayer
370
18
48
1
60
0
100
AcDbEllipse
10
120.737131
20
1.112974
30
0
11
-2.09189023035186
21
0.1843780468452
31
0
210
0
220
0
230
1
40
0.283919
41
2.4473986844175
42
2.99462486090355
0
ELLIPSE
5
31A
100
AcDbEntity
8
1
62
256
6
ByLayer
370
18
48
1
60
0
100
AcDbEllipse
10
120.737131
20
1.112974
30
0
11
-2.09189023035186
21
0.1843780468452
31
0
210
0
220
0
230
1
40
0.283919
41
0.14706556015438
42
0.694291910435668
0
ELLIPSE
5
31B
100
AcDbEntity
8
1
62
256
6
ByLayer
370
18
48
1
60
0
100
AcDbEllipse
10
120.715042
20
0.862363
30
0
11
-1.28402214615407
21
0.113173001134983
31
0
210
0
220
0
230
1
40
0.283919
41
-1.56841693717611
42
-0.521582187178305
0
ELLIPSE
5
31C
100
AcDbEntity
8
1
62
256
6
ByLayer
370
18
48
1
60
0
100
AcDbEllipse
10
120.715042
20
0.862363
30
0
11
-1.28402214615407
21
0.113173001134983
31
0
210
0
220
0
230
1
40
0.283919
41
1.57317571641367
42
2.62001046641149
0
ELLIPSE
5
31D
100
AcDbEntity
8
1
62
256
6
ByLayer
370
18
48
1
60
0
100
AcDbEllipse
10
120.816065
20
33.16304
30
0
11
0.917676305922695
21
-0.162770382895897
31
0
210
0
220
0
230
1
40
0.876151
41
-1.96268186481683
42
-0.915847114819021
0
ELLIPSE
5
31E
100
AcDbEntity
8
1
62
256
6
ByLayer
370
18
48
1
60
0
100
AcDbEllipse
10
120.792199
20
32.233969
30
0
11
0.227449814021612
21
-0.0403433030568159
31
0
210
0
220
0
230
1
40
0.876151
41
-2.73610899910563
42
-0.142419980530176
0
ELLIPSE
5
31F
100
AcDbEntity
8
1
62
256
6
ByLayer
370
18
48
1
60
0
100
AcDbEllipse
10
120.061582
20
32.09785
30
0
11
0.517916026733195
21
-0.0918639714627059
31
0
210
0
220
0
230
1
40
0.876151
41
0.405483654484092
42
1.17891078877297
0
ELLIPSE
5
320
100
AcDbEntity
8
1
62
256
6
ByLayer
370
18
48
1
60
0
100
AcDbEllipse
10
120.061582
20
32.09785
30
0
11
0.517916026733195
21
-0.0918639714627059
31
0
210
0
220
0
230
1
40
0.876151
41
1.17891078877297
42
1.95233792306185
0
ELLIPSE
5
321
100
AcDbEntity
8
1
62
256
6
ByLayer
370
13
48
1
60
0
100
AcDbEllipse
10
121.5
20
-37.34128
30
0
11
1.4
21
0
31
0
210
0
220
0
230
1
40
0.413382
41
3.14159265358979
42
-2.33444881767355
0
ELLIPSE
5
322
100
AcDbEntity
8
1
62
256
6
ByLayer
370
18
48
1
60
0
100
AcDbEllipse
10
121.5
20
-37.34128
30
0
11
1.4
21
0
31
0
210
0
220
0
230
1
40
0.413382
41
-2.33444913995386
42
-0.754669700358334
0
ELLIPSE
5
323
100
AcDbEntity
8
1
62
256
6
ByLayer
370
13
48
1
60
0
100
AcDbEllipse
10
121.5
20
-37.34128
30
0
11
1.4
21
0
31
0
210
0
220
0
230
1
40
0.413382
41
-0.754669700358334
42
0
0
ELLIPSE
5
324
100
AcDbEntity
8
1
62
256
6
ByLayer
370
18
48
1
60
0
100
AcDbEllipse
10
121.513577
20
32.010406
30
0
11
0.517916026733195
21
-0.0918639714627059
31
0
210
0
220
0
230
1
40
0.876151
41
1.45231840448194
42
2.22574553877076
0
ELLIPSE
5
325
100
AcDbEntity
8
1
62
256
6
ByLayer
370
18
48
1
60
0
100
AcDbEllipse
10
121.513577
20
32.010406
30
0
11
0.517916026733195
21
-0.0918639714627059
31
0
210
0
220
0
230
1
40
0.876151
41
2.22574553877076
42
2.99917267305965
0
ELLIPSE
5
326
100
AcDbEntity
8
1
62
256
6
ByLayer
370
18
48
1
60
0
100
AcDbEllipse
10
120.816065
20
33.16304
30
0
11
-0.917676305922695
21
0.162770382895897
31
0
210
0
220
0
230
1
40
0.876151
41
0.107036183424978
42
0.156027490528966
0
ELLIPSE
5
327
100
AcDbEntity
8
1
62
256
6
ByLayer
370
18
48
1
60
0
100
AcDbEllipse
10
119.364386
20
33.250465
30
0
11
0.517916026733195
21
-0.0918639714627059
31
0
210
0
220
0
230
1
40
0.876151
41
-3.75738097256248E-06
42
0.0881195976698646
0
ELLIPSE
5
328
100
AcDbEntity
8
1
62
256
6
ByLayer
370
18
48
1
60
0
100
AcDbEllipse
10
121.716702
20
32.643254
30
0
11
0.227449814021612
21
-0.0403433030568159
31
0
210
0
220
0
230
1
40
0.876151
41
-1.68927424910801
42
-1.51945583686404
0
ELLIPSE
5
329
100
AcDbEntity
8
1
62
256
6
ByLayer
370
18
48
1
60
0
100
AcDbEllipse
10
119.364386
20
33.250465
30
0
11
0.517916026733195
21
-0.0918639714627059
31
0
210
0
220
0
230
1
40
0.876151
41
0.174944076284097
42
0.385087872498142
0
ELLIPSE
5
32A
100
AcDbEntity
8
1
62
256
6
ByLayer
370
18
48
1
60
0
100
AcDbEllipse
10
120.732394
20
32.691313
30
0
11
-0.917676305922695
21
0.162770382895897
31
0
210
0
220
0
230
1
40
0.876151
41
0.107036183424986
42
0.156027490528966
0
ELLIPSE
5
32B
100
AcDbEntity
8
1
62
256
6
ByLayer
370
18
48
1
60
0
100
AcDbEllipse
10
120.732394
20
32.691313
30
0
11
-0.917676305922695
21
0.162770382895897
31
0
210
0
220
0
230
1
40
0.876151
41
-3.0345564701648
42
-2.98556516306083
0
ELLIPSE
5
32C
100
AcDbEntity
8
1
62
256
6
ByLayer
370
18
48
1
60
0
100
AcDbEllipse
10
120.715042
20
32.593486
30
0
11
-1.26918965486519
21
0.225119123983703
31
0
210
0
220
0
230
1
40
0.876151
41
0.655493413774066
42
1.70232816377187
0
ELLIPSE
5
32D
100
AcDbEntity
8
1
62
256
6
ByLayer
370
18
48
1
60
0
100
AcDbEllipse
10
120.715042
20
32.593486
30
0
11
-1.26918965486519
21
0.225119123983703
31
0
210
0
220
0
230
1
40
0.876151
41
-1.43926448981791
42
-0.392429739820112
0
ELLIPSE
5
32E
100
AcDbEntity
8
1
62
256
6
ByLayer
370
18
48
1
60
0
100
AcDbEllipse
10
120.715042
20
32.593486
30
0
11
-1.26918965486519
21
0.225119123983703
31
0
210
0
220
0
230
1
40
0.876151
41
-0.392429739820112
42
0.655493413774066
0
ELLIPSE
5
32F
100
AcDbEntity
8
1
62
256
6
ByLayer
370
18
48
1
60
0
100
AcDbEllipse
10
120.715042
20
32.593486
30
0
11
-1.26918965486519
21
0.225119123983703
31
0
210
0
220
0
230
1
40
0.876151
41
1.70232816377187
42
2.74916291376969
0
ELLIPSE
5
330
100
AcDbEntity
8
1
62
256
6
ByLayer
370
18
48
1
60
0
100
AcDbEllipse
10
120.715042
20
32.593486
30
0
11
-1.26918965486519
21
0.225119123983703
31
0
210
0
220
0
230
1
40
0.876151
41
-2.48609923981571
42
-1.43926448981791
0
ELLIPSE
5
331
100
AcDbEntity
8
1
62
256
6
ByLayer
370
18
48
1
60
0
100
AcDbEllipse
10
120.715042
20
32.593486
30
0
11
-1.26918965486519
21
0.225119123983703
31
0
210
0
220
0
230
1
40
0.876151
41
2.74916291376969
42
-2.48609923981571
0
ELLIPSE
5
332
100
AcDbEntity
8
1
62
256
6
ByLayer
370
18
48
1
60
0
100
AcDbEllipse
10
120.715042
20
32.593486
30
0
11
-1.3784837213431
21
0.244504867011004
31
0
210
0
220
0
230
1
40
0.876151
41
0
42
6.28318530717959
0
ELLIPSE
5
333
100
AcDbEntity
8
1
62
256
6
ByLayer
370
18
48
1
60
0
100
AcDbEllipse
10
120.737131
20
32.718018
30
0
11
-2.06772558201466
21
0.366757300516506
31
0
210
0
220
0
230
1
40
0.876151
41
-1.3997757073023
42
0
0
ELLIPSE
5
334
100
AcDbEntity
8
1
62
256
6
ByLayer
370
18
48
1
60
0
100
AcDbEllipse
10
120.737131
20
32.718018
30
0
11
-2.06772558201466
21
0.366757300516506
31
0
210
0
220
0
230
1
40
0.876151
41
0
42
-1.74191486737133
0
ELLIPSE
5
335
100
AcDbEntity
8
1
62
256
6
ByLayer
370
18
48
1
60
0
100
AcDbEllipse
10
120.799228
20
33.068114
30
0
11
-2.06772558201466
21
0.366757300516506
31
0
210
0
220
0
230
1
40
0.876151
41
-0.213628181434453
42
0
0
ELLIPSE
5
336
100
AcDbEntity
8
1
62
256
6
ByLayer
370
18
48
1
60
0
100
AcDbEllipse
10
120.799228
20
33.068114
30
0
11
-2.06772558201466
21
0.366757300516506
31
0
210
0
220
0
230
1
40
0.876151
41
3.14159262138614
42
-2.92806275584819
0
ELLIPSE
5
337
100
AcDbEntity
8
1
62
256
6
ByLayer
370
18
48
1
60
0
100
AcDbEllipse
10
120.715042
20
0.862363
30
0
11
-1.28402214615407
21
0.113173001134983
31
0
210
0
220
0
230
1
40
0.283919
41
0.526340966415869
42
1.57317571641367
0
ELLIPSE
5
338
100
AcDbEntity
8
1
62
256
6
ByLayer
370
18
48
1
60
0
100
AcDbEllipse
10
120.772193
20
45.039044
30
0
11
2.16328840868614
21
0.641445197143798
31
0
210
0
220
0
230
1
40
0.955145
41
2.89419045618304
42
2.99226713122105
0
ELLIPSE
5
339
100
AcDbEntity
8
1
62
256
6
ByLayer
370
13
48
1
60
0
100
AcDbEllipse
10
120.772193
20
45.039044
30
0
11
2.16328840868614
21
0.641445197143798
31
0
210
0
220
0
230
1
40
0.955145
41
-0.173672832875056
42
0
0
ELLIPSE
5
33A
100
AcDbEntity
8
1
62
256
6
ByLayer
370
13
48
1
60
0
100
AcDbEllipse
10
120.772193
20
45.039044
30
0
11
2.16328840868614
21
0.641445197143798
31
0
210
0
220
0
230
1
40
0.955145
41
0
42
2.89419046161174
0
ELLIPSE
5
33B
100
AcDbEntity
8
1
62
256
6
ByLayer
370
18
48
1
60
0
100
AcDbEllipse
10
120.704111
20
45.268651
30
0
11
2.21750536794075
21
0.657521282042127
31
0
210
0
220
0
230
1
40
0.955145
41
-0.55468940888294
42
-0.301005699047291
0
ELLIPSE
5
33C
100
AcDbEntity
8
1
62
256
6
ByLayer
370
18
48
1
60
0
100
AcDbEllipse
10
120.704111
20
45.268651
30
0
11
2.21750536794075
21
0.657521282042127
31
0
210
0
220
0
230
1
40
0.955145
41
-0.301005699047309
42
0
0
ELLIPSE
5
33D
100
AcDbEntity
8
1
62
256
6
ByLayer
370
18
48
1
60
0
100
AcDbEllipse
10
120.704111
20
45.268651
30
0
11
2.21750536794075
21
0.657521282042127
31
0
210
0
220
0
230
1
40
0.955145
41
0
42
3.0941724222125
0
ELLIPSE
5
33E
100
AcDbEntity
8
1
62
256
6
ByLayer
370
13
48
1
60
0
100
AcDbEllipse
10
120.785542
20
44.994023
30
0
11
-2.10682537461087
21
-0.624703119722094
31
0
210
0
220
0
230
1
40
0.955145
41
-0.301005513154683
42
-0.166702195979871
0
ELLIPSE
5
33F
100
AcDbEntity
8
1
62
256
6
ByLayer
370
13
48
1
60
0
100
AcDbEllipse
10
120.785542
20
44.994023
30
0
11
-2.10682537461087
21
-0.624703119722094
31
0
210
0
220
0
230
1
40
0.955145
41
2.80868001196863
42
-2.52868945330929
0
ELLIPSE
5
340
100
AcDbEntity
8
1
62
256
6
ByLayer
370
13
48
1
60
0
100
AcDbEllipse
10
120.785542
20
44.994023
30
0
11
-2.10682537461087
21
-0.624703119722094
31
0
210
0
220
0
230
1
40
0.955145
41
-0.613005355770182
42
-0.301005987589211
0
ELLIPSE
5
341
100
AcDbEntity
8
1
62
256
6
ByLayer
370
18
48
1
60
0
100
AcDbEllipse
10
120.715042
20
0.862363
30
0
11
-1.28402214615407
21
0.113173001134983
31
0
210
0
220
0
230
1
40
0.283919
41
2.62001046641149
42
-2.6152516871739
0
ELLIPSE
5
342
100
AcDbEntity
8
1
62
256
6
ByLayer
370
18
48
1
60
0
100
AcDbEllipse
10
120.118553
20
46.100248
30
0
11
-0.504297899378152
21
-0.149531363542181
31
0
210
0
220
0
230
1
40
0.955145
41
1.79558735751135
42
2.56901449180018
0
ELLIPSE
5
343
100
AcDbEntity
8
1
62
256
6
ByLayer
370
18
48
1
60
0
100
AcDbEllipse
10
120.816065
20
33.16304
30
0
11
-0.917676305922695
21
0.162770382895897
31
0
210
0
220
0
230
1
40
0.876151
41
2.22574553877077
42
2.97205131007107
0
ELLIPSE
5
344
100
AcDbEntity
8
1
62
256
6
ByLayer
370
18
48
1
60
0
100
AcDbEllipse
10
120.816065
20
33.16304
30
0
11
0.917676305922695
21
-0.162770382895897
31
0
210
0
220
0
230
1
40
0.876151
41
0.156027490528966
42
0.246184728907683
0
ELLIPSE
5
345
100
AcDbEntity
8
1
62
256
6
ByLayer
370
18
48
1
60
0
100
AcDbEllipse
10
119.891548
20
32.753171
30
0
11
0.227449814021612
21
-0.0403433030568159
31
0
210
0
220
0
230
1
40
0.876151
41
-1.99979566168728
42
-1.18925473052792
0
ELLIPSE
5
346
100
AcDbEntity
8
1
62
256
6
ByLayer
370
18
48
1
60
0
100
AcDbEllipse
10
120.816065
20
33.16304
30
0
11
0.917676305922695
21
-0.162770382895897
31
0
210
0
220
0
230
1
40
0.876151
41
3.11220180781381
42
-3.03455647016482
0
ELLIPSE
5
347
100
AcDbEntity
8
1
62
256
6
ByLayer
370
18
48
1
60
0
100
AcDbEllipse
10
120.816065
20
33.16304
30
0
11
0.917676305922695
21
-0.162770382895897
31
0
210
0
220
0
230
1
40
0.876151
41
-2.98556516306083
42
-1.96268186481683
0
ELLIPSE
5
348
100
AcDbEntity
8
1
62
256
6
ByLayer
370
18
48
1
60
0
100
AcDbEllipse
10
120.772193
20
32.915692
30
0
11
-2.22170613577067
21
0.394069189830449
31
0
210
0
220
0
230
1
40
0.876151
41
-0.0301397540540274
42
0
0
ELLIPSE
5
349
100
AcDbEntity
8
1
62
256
6
ByLayer
370
13
48
1
60
0
100
AcDbEllipse
10
120.772193
20
32.915692
30
0
11
-2.22170613577067
21
0.394069189830449
31
0
210
0
220
0
230
1
40
0.876151
41
2.35266008362384
42
-3.11155115989874
0
ELLIPSE
5
34A
100
AcDbEntity
8
1
62
256
6
ByLayer
370
13
48
1
60
0
100
AcDbEllipse
10
120.772193
20
32.915692
30
0
11
-2.22170613577067
21
0.394069189830449
31
0
210
0
220
0
230
1
40
0.876151
41
0.131553953256941
42
0.789030181638485
0
ELLIPSE
5
34B
100
AcDbEntity
8
1
62
256
6
ByLayer
370
18
48
1
60
0
100
AcDbEllipse
10
120.772193
20
32.915692
30
0
11
-2.22170613577067
21
0.394069189830449
31
0
210
0
220
0
230
1
40
0.876151
41
0
42
0.131554236545722
0
ELLIPSE
5
34C
100
AcDbEntity
8
1
62
256
6
ByLayer
370
18
48
1
60
0
100
AcDbEllipse
10
120.816065
20
44.891083
30
0
11
0.89354684832783
21
0.2649491080253
31
0
210
0
220
0
230
1
40
0.955145
41
-0.502686004926247
42
-0.376471245236575
0
ELLIPSE
5
34D
100
AcDbEntity
8
1
62
256
6
ByLayer
370
18
48
1
60
0
100
AcDbEllipse
10
120.839931
20
45.905541
30
0
11
-0.221469229574816
21
-0.0656687166886762
31
0
210
0
220
0
230
1
40
0.955145
41
-3.09688745639673
42
-0.572578161789576
0
ELLIPSE
5
34E
100
AcDbEntity
8
1
62
256
6
ByLayer
370
18
48
1
60
0
100
AcDbEllipse
10
120.704111
20
32.531857
30
0
11
-2.27738717698327
21
0.40394546574574
31
0
210
0
220
0
230
1
40
0.876151
41
0
42
6.28318530717959
0
ELLIPSE
5
34F
100
AcDbEntity
8
1
62
256
6
ByLayer
370
13
48
1
60
0
100
AcDbEllipse
10
120.785542
20
32.990954
30
0
11
2.16371836643509
21
-0.38378376417751
31
0
210
0
220
0
230
1
40
0.876151
41
0
42
0.101807160533026
0
ELLIPSE
5
350
100
AcDbEntity
8
1
62
256
6
ByLayer
370
13
48
1
60
0
100
AcDbEllipse
10
120.785542
20
32.990954
30
0
11
2.16371836643509
21
-0.38378376417751
31
0
210
0
220
0
230
1
40
0.876151
41
3.03988364547508
42
-2.75910360789905
0
ELLIPSE
5
351
100
AcDbEntity
8
1
62
256
6
ByLayer
370
13
48
1
60
0
100
AcDbEllipse
10
120.785542
20
32.990954
30
0
11
2.16371836643509
21
-0.38378376417751
31
0
210
0
220
0
230
1
40
0.876151
41
-0.38258710083247
42
0
0
ELLIPSE
5
352
100
AcDbEntity
8
1
62
256
6
ByLayer
370
18
48
1
60
0
100
AcDbEllipse
10
120.816065
20
44.891083
30
0
11
-0.893546848327827
21
-0.264949108025309
31
0
210
0
220
0
230
1
40
0.955145
41
-3.01304241560061
42
-2.39284004607623
0
ELLIPSE
5
353
100
AcDbEntity
8
1
62
256
6
ByLayer
370
18
48
1
60
0
100
AcDbEllipse
10
120.816065
20
44.891083
30
0
11
-0.893546848327827
21
-0.264949108025309
31
0
210
0
220
0
230
1
40
0.955145
41
-2.39284004607623
42
-1.3460052960784
0
ELLIPSE
5
354
100
AcDbEntity
8
1
62
256
6
ByLayer
370
18
48
1
60
0
100
AcDbEllipse
10
120.816065
20
44.891083
30
0
11
-0.893546848327827
21
-0.264949108025309
31
0
210
0
220
0
230
1
40
0.955145
41
-1.3460052960784
42
-0.323121997834408
0
ELLIPSE
5
355
100
AcDbEntity
8
1
62
256
6
ByLayer
370
18
48
1
60
0
100
AcDbEllipse
10
120.816065
20
44.891083
30
0
11
-0.893546848327827
21
-0.264949108025309
31
0
210
0
220
0
230
1
40
0.955145
41
-0.274130690730439
42
-0.099329940214387
0
ELLIPSE
5
356
100
AcDbEntity
8
1
62
256
6
ByLayer
370
18
48
1
60
0
100
AcDbEllipse
10
120.704111
20
0.738343
30
0
11
-2.30400205312454
21
0.203073465480539
31
0
210
0
220
0
230
1
40
0.283919
41
0
42
6.28318530717959
0
POINT
5
70
100
AcDbEntity
8
80
62
256
6
ByLayer
370
18
48
1
60
0
100
AcDbPoint
10
0
20
0
30
0
39
0
210
0
220
0
230
1
50
360
0
POINT
5
72
100
AcDbEntity
8
81
62
256
6
ByLayer
370
18
48
1
60
0
100
AcDbPoint
10
125
20
50
30
0
39
0
210
0
220
0
230
1
50
360
0
POINT
5
74
100
AcDbEntity
8
1
62
256
6
ByLayer
370
18
48
1
60
0
100
AcDbPoint
10
0
20
0
30
0
39
0
210
0
220
0
230
1
50
360
0
POINT
5
76
100
AcDbEntity
8
1
62
256
6
ByLayer
370
18
48
1
60
1
100
AcDbPoint
10
125
20
-50
30
0
39
0
210
0
220
0
230
1
50
360
0
POINT
5
77
100
AcDbEntity
8
1
62
256
6
ByLayer
370
18
48
1
60
1
100
AcDbPoint
10
74
20
-20
30
0
39
0
210
0
220
0
230
1
50
360
0
POINT
5
78
100
AcDbEntity
8
1
62
256
6
ByLayer
370
18
48
1
60
1
100
AcDbPoint
10
125
20
-50
30
0
39
0
210
0
220
0
230
1
50
360
0
POINT
5
79
100
AcDbEntity
8
1
62
256
6
ByLayer
370
18
48
1
60
1
100
AcDbPoint
10
0
20
-20
30
0
39
0
210
0
220
0
230
1
50
360
0
POINT
5
7A
100
AcDbEntity
8
1
62
256
6
ByLayer
370
18
48
1
60
1
100
AcDbPoint
10
125
20
50
30
0
39
0
210
0
220
0
230
1
50
360
0
POINT
5
7B
100
AcDbEntity
8
1
62
256
6
ByLayer
370
18
48
1
60
1
100
AcDbPoint
10
117.4
20
50
30
0
39
0
210
0
220
0
230
1
50
360
0
POINT
5
7C
100
AcDbEntity
8
1
62
256
6
ByLayer
370
18
48
1
60
1
100
AcDbPoint
10
115.5
20
50
30
0
39
0
210
0
220
0
230
1
50
360
0
SPLINE
5
357
100
AcDbEntity
8
1
62
256
6
ByLayer
370
13
48
1
60
0
100
AcDbSpline
70
4
71
3
72
8
73
4
40
0
40
0
40
0
40
0
40
1
40
1
40
1
40
1
41
1
10
124.610209318177
20
28.1350679620173
30
0
41
1
10
124.573473159609
20
27.7833797573201
30
0
41
1
10
124.536737001042
20
27.4316915526229
30
0
41
1
10
124.500000842474
20
27.0800033479256
30
0
0
SPLINE
5
358
100
AcDbEntity
8
1
62
256
6
ByLayer
370
18
48
1
60
0
100
AcDbSpline
70
4
71
3
72
29
73
25
40
0
40
0
40
0
40
0
40
0.124999999999971
40
0.124999999999971
40
0.187499999999958
40
0.187499999999958
40
0.249999999999945
40
0.249999999999945
40
0.374999999999927
40
0.374999999999927
40
0.437499999999919
40
0.437499999999919
40
0.49999999999991
40
0.49999999999991
40
0.624999999999916
40
0.624999999999916
40
0.68749999999993
40
0.68749999999993
40
0.749999999999944
40
0.812499999999958
40
0.812499999999958
40
0.874999999999972
40
0.874999999999972
40
1
40
1
40
1
40
1
41
1
10
116.351943502544
20
29.1159096738813
30
0
41
1
10
116.349723358488
20
29.0663846400088
30
0
41
1
10
116.352337484975
20
29.0173019151852
30
0
41
1
10
116.363349538087
20
28.9443266027789
30
0
41
1
10
116.368210146234
20
28.9201103700963
30
0
41
1
10
116.380385121703
20
28.8719024101393
30
0
41
1
10
116.387696915772
20
28.8479817101864
30
0
41
1
10
116.412866216748
20
28.7780530209317
30
0
41
1
10
116.434041766991
20
28.7333717190474
30
0
41
1
10
116.472471045143
20
28.6692882096734
30
0
41
1
10
116.486474735278
20
28.6483212276159
30
0
41
1
10
116.516461640056
20
28.607906105222
30
0
41
1
10
116.532354230986
20
28.5885570409059
30
0
41
1
10
116.582660570953
20
28.5330196021502
30
0
41
1
10
116.619677932198
20
28.4993171549141
30
0
41
1
10
116.680601875831
20
28.4539173970743
30
0
41
1
10
116.701766625297
20
28.439706359576
30
0
41
1
10
116.744959672189
20
28.4136510950897
30
0
41
1
10
116.789236973587
20
28.3897918218464
30
0
41
1
10
116.835652532036
20
28.370263260377
30
0
41
1
10
116.883152615644
20
28.3529312383141
30
0
41
1
10
116.90756522634
20
28.345336364713
30
0
41
1
10
116.981405581158
20
28.3262493900263
30
0
41
1
10
117.031432570803
20
28.3183544711563
30
0
41
1
10
117.082260338671
20
28.3152934592155
30
0
0
SPLINE
5
359
100
AcDbEntity
8
1
62
256
6
ByLayer
370
18
48
1
60
0
100
AcDbSpline
70
2053
71
3
72
127
73
123
40
0
40
0
40
0
40
0
40
0.0312500000000051
40
0.0312500000000051
40
0.0468750000000069
40
0.0468750000000069
40
0.0625000000000087
40
0.0625000000000087
40
0.0937500000000132
40
0.0937500000000132
40
0.101562500000015
40
0.101562500000015
40
0.109375000000016
40
0.109375000000016
40
0.12500000000002
40
0.12500000000002
40
0.156250000000028
40
0.156250000000028
40
0.16406250000003
40
0.16406250000003
40
0.171875000000032
40
0.171875000000032
40
0.187500000000037
40
0.203125000000043
40
0.203125000000043
40
0.210937500000045
40
0.210937500000045
40
0.218750000000048
40
0.218750000000048
40
0.250000000000059
40
0.250000000000059
40
0.265625000000065
40
0.265625000000065
40
0.273437500000069
40
0.273437500000069
40
0.281250000000072
40
0.281250000000072
40
0.312500000000083
40
0.312500000000083
40
0.320312500000085
40
0.320312500000085
40
0.328125000000087
40
0.328125000000087
40
0.343750000000092
40
0.343750000000092
40
0.3750000000001
40
0.3750000000001
40
0.406250000000109
40
0.406250000000109
40
0.421875000000112
40
0.421875000000112
40
0.429687500000114
40
0.429687500000114
40
0.437500000000116
40
0.437500000000116
40
0.46875000000012
40
0.46875000000012
40
0.476562500000119
40
0.476562500000119
40
0.484375000000119
40
0.484375000000119
40
0.500000000000118
40
0.500000000000118
40
0.531250000000116
40
0.531250000000116
40
0.539062500000115
40
0.539062500000115
40
0.546875000000114
40
0.546875000000114
40
0.562500000000112
40
0.578125000000109
40
0.578125000000109
40
0.585937500000107
40
0.585937500000107
40
0.593750000000106
40
0.593750000000106
40
0.6250000000001
40
0.6250000000001
40
0.640625000000098
40
0.640625000000098
40
0.648437500000096
40
0.648437500000096
40
0.656250000000095
40
0.656250000000095
40
0.687500000000089
40
0.687500000000089
40
0.703125000000087
40
0.703125000000087
40
0.718750000000085
40
0.718750000000085
40
0.750000000000082
40
0.750000000000082
40
0.781250000000079
40
0.781250000000079
40
0.796875000000076
40
0.796875000000076
40
0.804687500000075
40
0.804687500000075
40
0.812500000000074
40
0.812500000000074
40
0.843750000000069
40
0.843750000000069
40
0.851562500000067
40
0.851562500000067
40
0.859375000000065
40
0.859375000000065
40
0.875000000000061
40
0.875000000000061
40
0.906250000000051
40
0.906250000000051
40
0.914062500000048
40
0.914062500000048
40
0.921875000000044
40
0.921875000000044
40
0.937500000000037
40
0.95312500000003
40
0.95312500000003
40
0.960937500000026
40
0.960937500000026
40
0.968750000000021
40
0.968750000000021
40
1
40
1
40
1
40
1
41
1
10
122.229508534539
20
25.3222669060435
30
0
41
1
10
122.362738509638
20
25.1936888346074
30
0
41
1
10
122.47919442129
20
25.0565467747837
30
0
41
1
10
122.629742170925
20
24.8390373745228
30
0
41
1
10
122.67587211443
20
24.7645520020929
30
0
41
1
10
122.759840468298
20
24.6116043829265
30
0
41
1
10
122.797702578484
20
24.5329425797403
30
0
41
1
10
122.896269517038
20
24.2962505666334
30
0
41
1
10
122.943100586081
20
24.1359073445853
30
0
41
1
10
122.978290909009
20
23.9325615939256
30
0
41
1
10
122.984151081083
20
23.8917445910245
30
0
41
1
10
122.993479217341
20
23.8098135166954
30
0
41
1
10
122.99695076891
20
23.768584456298
30
0
41
1
10
123.003650681558
20
23.6455468883821
30
0
41
1
10
123.003216163749
20
23.5643069303933
30
0
41
1
10
122.987687495175
20
23.3228680284927
30
0
41
1
10
122.958503114121
20
23.1649386885169
30
0
41
1
10
122.897982102116
20
22.971250737049
30
0
41
1
10
122.884635973678
20
22.9326410180484
30
0
41
1
10
122.855793154159
20
22.8566090410738
30
0
41
1
10
122.840270865357
20
22.8190912894583
30
0
41
1
10
122.790460616752
20
22.7079938768981
30
0
41
1
10
122.715413462051
20
22.5637400512428
30
0
41
1
10
122.623337747976
20
22.4269806316151
30
0
41
1
10
122.547795851847
20
22.3271969175162
30
0
41
1
10
122.52153241104
20
22.2944007245669
30
0
41
1
10
122.466798463366
20
22.2297435135464
30
0
41
1
10
122.438326292129
20
22.1978932483058
30
0
41
1
10
122.291994412542
20
22.0426817151546
30
0
41
1
10
122.161169501926
20
21.9298957574952
30
0
41
1
10
121.944596856338
20
21.7768511317241
30
0
41
1
10
121.868992260662
20
21.7285451970687
30
0
41
1
10
121.750271147218
20
21.6602140772109
30
0
41
1
10
121.709844927067
20
21.6381545915634
30
0
41
1
10
121.62811469303
20
21.5958924682918
30
0
41
1
10
121.586702589791
20
21.5756260945281
30
0
41
1
10
121.376942309474
20
21.478527217176
30
0
41
1
10
121.200572587089
20
21.4142649857984
30
0
41
1
10
120.969182893876
20
21.3505784452111
30
0
41
1
10
120.922353669298
20
21.3386812784113
30
0
41
1
10
120.827566427031
20
21.3165975451745
30
0
41
1
10
120.779699189838
20
21.3064383561481
30
0
41
1
10
120.636031536171
20
21.2788575225885
30
0
41
1
10
120.53966061395
20
21.2642036457661
30
0
41
1
10
120.248806979632
20
21.2311384602251
30
0
41
1
10
120.052600194125
20
21.2235068151389
30
0
41
1
10
119.655373297094
20
21.2382425063311
30
0
41
1
10
119.460778560565
20
21.2604056188941
30
0
41
1
10
119.175626711527
20
21.314949353243
30
0
41
1
10
119.081650211397
20
21.3367113929925
30
0
41
1
10
118.942325831743
20
21.3748764822291
30
0
41
1
10
118.896043641418
20
21.3885576213754
30
0
41
1
10
118.804612978436
20
21.4176261304872
30
0
41
1
10
118.759559697459
20
21.4329772103896
30
0
41
1
10
118.537528641722
20
21.5137531842691
30
0
41
1
10
118.370163922047
20
21.5911170033202
30
0
41
1
10
118.173556405362
20
21.7040031223106
30
0
41
1
10
118.134870585247
20
21.7273970778446
30
0
41
1
10
118.058788095148
20
21.775856299536
30
0
41
1
10
118.021319080129
20
21.8009779063106
30
0
41
1
10
117.911992137341
20
21.8781161885084
30
0
41
1
10
117.842882106577
20
21.9320880036395
30
0
41
1
10
117.646521375653
20
22.1015753940927
30
0
41
1
10
117.530132971694
20
22.2245888888947
30
0
41
1
10
117.403264887463
20
22.391762158384
30
0
41
1
10
117.378827035745
20
22.4258928085994
30
0
41
1
10
117.332364259993
20
22.4947776723481
30
0
41
1
10
117.310267575827
20
22.5296223492165
30
0
41
1
10
117.247326553815
20
22.6353598087954
30
0
41
1
10
117.172320069608
20
22.7795475900243
30
0
41
1
10
117.114957960041
20
22.9302267093735
30
0
41
1
10
117.078678447163
20
23.0457608479826
30
0
41
1
10
117.067710981717
20
23.0846936567025
30
0
41
1
10
117.048074264897
20
23.1634254192172
30
0
41
1
10
117.03941469223
20
23.2032234359794
30
0
41
1
10
117.002357403009
20
23.4021649742607
30
0
41
1
10
116.992027234343
20
23.5629378803743
30
0
41
1
10
117.005029593984
20
23.8065377781456
30
0
41
1
10
117.014146895726
20
23.8881449212994
30
0
41
1
10
117.035254343394
20
24.0111718769238
30
0
41
1
10
117.043531546949
20
24.0522373098551
30
0
41
1
10
117.06238017032
20
24.1336445775673
30
0
41
1
10
117.072969639902
20
24.1741005197726
30
0
41
1
10
117.131655272385
20
24.3751471399987
30
0
41
1
10
117.196802936506
20
24.5320838144707
30
0
41
1
10
117.322140403951
20
24.761196632369
30
0
41
1
10
117.368844585584
20
24.8368789191745
30
0
41
1
10
117.469843489286
20
24.9830315376722
30
0
41
1
10
117.524217135308
20
25.0537489491908
30
0
41
1
10
117.698705758204
20
25.2588538218533
30
0
41
1
10
117.830221477187
20
25.38638427348
30
0
41
1
10
118.124071247322
20
25.6207653550762
30
0
41
1
10
118.281757576194
20
25.7239467151369
30
0
41
1
10
118.53380890591
20
25.8580192316556
30
0
41
1
10
118.620432267852
20
25.8992358590569
30
0
41
1
10
118.754372369172
20
25.9556665691592
30
0
41
1
10
118.799805379785
20
25.9736185501186
30
0
41
1
10
118.89144560541
20
26.0074549008593
30
0
41
1
10
118.93755887846
20
26.0233115808201
30
0
41
1
10
119.169562716706
20
26.0973721192974
30
0
41
1
10
119.359724663034
20
26.1400479352715
30
0
41
1
10
119.603097994297
20
26.1725783124784
30
0
41
1
10
119.652058761224
20
26.1780348968424
30
0
41
1
10
119.750562282453
20
26.1868105329882
30
0
41
1
10
119.80024302599
20
26.190133118499
30
0
41
1
10
119.948808623469
20
26.1967674337823
30
0
41
1
10
120.047357786515
20
26.1967947131333
30
0
41
1
10
120.341565280851
20
26.1840780499572
30
0
41
1
10
120.535797366295
20
26.1586494093186
30
0
41
1
10
120.776138848028
20
26.1052129643134
30
0
41
1
10
120.824171035848
20
26.0934050089891
30
0
41
1
10
120.918960357153
20
26.0678520926834
30
0
41
1
10
120.965831088948
20
26.054086090947
30
0
41
1
10
121.104899107276
20
26.0098811258048
30
0
41
1
10
121.286212475158
20
25.9432026860785
30
0
41
1
10
121.459414015671
20
25.8613723816341
30
0
41
1
10
121.586225472243
20
25.7942822896753
30
0
41
1
10
121.627980087813
20
25.7709644070951
30
0
41
1
10
121.710437912793
20
25.7223931712209
30
0
41
1
10
121.751130023115
20
25.6971384122491
30
0
41
1
10
121.950033879441
20
25.5672229412676
30
0
41
1
10
122.09627855944
20
25.4508449774794
30
0
41
1
10
122.229508534539
20
25.3222669060435
30
0
0
SPLINE
5
35A
100
AcDbEntity
8
1
62
256
6
ByLayer
370
18
48
1
60
0
100
AcDbSpline
70
4
71
3
72
29
73
25
40
0
40
0
40
0
40
0
40
0.124999999999987
40
0.124999999999987
40
0.18749999999998
40
0.18749999999998
40
0.249999999999974
40
0.249999999999974
40
0.374999999999973
40
0.374999999999973
40
0.437499999999967
40
0.437499999999967
40
0.499999999999962
40
0.499999999999962
40
0.624999999999961
40
0.624999999999961
40
0.687499999999967
40
0.687499999999967
40
0.749999999999973
40
0.81249999999998
40
0.81249999999998
40
0.874999999999986
40
0.874999999999986
40
1
40
1
40
1
40
1
41
1
10
124.999911752939
20
-33.9608830003898
30
0
41
1
10
124.999909388748
20
-33.9959895151112
30
0
41
1
10
124.995105579782
20
-34.0302728056629
30
0
41
1
10
124.980857151485
20
-34.0804902438799
30
0
41
1
10
124.974925831456
20
-34.0970267587573
30
0
41
1
10
124.960626093791
20
-34.1296819397722
30
0
41
1
10
124.952263421345
20
-34.1457508667026
30
0
41
1
10
124.924032257165
20
-34.1923243467602
30
0
41
1
10
124.900914042044
20
-34.2215434862007
30
0
41
1
10
124.859720245405
20
-34.2625974841794
30
0
41
1
10
124.844815909264
20
-34.275878198396
30
0
41
1
10
124.813101024665
20
-34.3011606178401
30
0
41
1
10
124.79638528987
20
-34.3131021558386
30
0
41
1
10
124.743728928795
20
-34.3468813296222
30
0
41
1
10
124.705302967143
20
-34.3666929441021
30
0
41
1
10
124.642511338656
20
-34.3922099461319
30
0
41
1
10
124.620767611163
20
-34.3999755621702
30
0
41
1
10
124.576524863869
20
-34.4137488593323
30
0
41
1
10
124.531299068045
20
-34.4258611341203
30
0
41
1
10
124.484134601065
20
-34.4346977047403
30
0
41
1
10
124.435986840167
20
-34.4418728383615
30
0
41
1
10
124.4113001161
20
-34.4446360541268
30
0
41
1
10
124.336804535657
20
-34.4502583347492
30
0
41
1
10
124.286559043089
20
-34.450521118337
30
0
41
1
10
124.235731275221
20
-34.4472954847904
30
0
0
SPLINE
5
35B
100
AcDbEntity
8
1
62
256
6
ByLayer
370
18
48
1
60
0
100
AcDbSpline
70
4
71
3
72
14
73
10
40
0
40
0
40
0
40
0
40
0.0467503540611404
40
0.0467503540611404
40
0.36450023604076
40
0.36450023604076
40
0.68225011802038
40
0.68225011802038
40
1
40
1
40
1
40
1
41
1
10
124.504011766821
20
-30.401992871364
30
0
41
1
10
124.506777470162
20
-30.4003790579795
30
0
41
1
10
124.509493251073
20
-30.3987412110454
30
0
41
1
10
124.530277717763
20
-30.3857837091606
30
0
41
1
10
124.546019657252
20
-30.3733441778223
30
0
41
1
10
124.571450247794
20
-30.3472555358171
30
0
41
1
10
124.58135813827
20
-30.3334877240001
30
0
41
1
10
124.595349896155
20
-30.3044512027407
30
0
41
1
10
124.599304721449
20
-30.2893791689266
30
0
41
1
10
124.600101020784
20
-30.2739805296209
30
0
0
SPLINE
5
35C
100
AcDbEntity
8
1
62
256
6
ByLayer
370
18
48
1
60
0
100
AcDbSpline
70
4
71
3
72
28
73
24
40
0
40
0
40
0
40
0
40
0.12500000000007
40
0.12500000000007
40
0.187500000000104
40
0.187500000000104
40
0.250000000000139
40
0.250000000000139
40
0.375000000000177
40
0.375000000000177
40
0.437500000000177
40
0.437500000000177
40
0.500000000000177
40
0.500000000000177
40
0.625000000000141
40
0.625000000000141
40
0.750000000000105
40
0.750000000000105
40
0.812500000000078
40
0.812500000000078
40
0.875000000000052
40
0.875000000000052
40
1
40
1
40
1
40
1
41
1
10
117.296557216746
20
49.9673732236259
30
0
41
1
10
117.245739715052
20
49.9672568420837
30
0
41
1
10
117.195728601391
20
49.9621320488271
30
0
41
1
10
117.121888855242
20
49.9471350758059
30
0
41
1
10
117.097473151492
20
49.9409091487859
30
0
41
1
10
117.04904848785
20
49.9259310411015
30
0
41
1
10
117.02513076775
20
49.9171909486249
30
0
41
1
10
116.95552979102
20
49.8877520088705
30
0
41
1
10
116.911478924263
20
49.8637191097831
30
0
41
1
10
116.848937645564
20
49.821039950879
30
0
41
1
10
116.828575877939
20
49.8056034657401
30
0
41
1
10
116.789770639108
20
49.7730008084733
30
0
41
1
10
116.771303493354
20
49.7558403420747
30
0
41
1
10
116.718630616325
20
49.7018530367992
30
0
41
1
10
116.68712782027
20
49.6625438258166
30
0
41
1
10
116.63155939413
20
49.5770951205343
30
0
41
1
10
116.608355403883
20
49.5322619050777
30
0
41
1
10
116.580192026498
20
49.4622281130818
30
0
41
1
10
116.571911675835
20
49.4384039169986
30
0
41
1
10
116.557598943019
20
49.389781999279
30
0
41
1
10
116.551564038909
20
49.3649162793889
30
0
41
1
10
116.537182061025
20
49.2901837065639
30
0
41
1
10
116.532379102995
20
49.2397845151861
30
0
41
1
10
116.532376739028
20
49.1888059689791
30
0
0
SPLINE
5
35D
100
AcDbEntity
8
1
62
256
6
ByLayer
370
18
48
1
60
0
100
AcDbSpline
70
4
71
3
72
28
73
24
40
0
40
0
40
0
40
0
40
0.125000000000059
40
0.125000000000059
40
0.187500000000088
40
0.187500000000088
40
0.250000000000117
40
0.250000000000117
40
0.375000000000145
40
0.375000000000145
40
0.437500000000144
40
0.437500000000144
40
0.500000000000143
40
0.500000000000143
40
0.625000000000119
40
0.625000000000119
40
0.750000000000095
40
0.750000000000095
40
0.812500000000077
40
0.812500000000077
40
0.875000000000059
40
0.875000000000059
40
1
40
1
40
1
40
1
41
1
10
117.296557216746
20
-34.0069213828455
30
0
41
1
10
117.245739715052
20
-34.0036964008112
30
0
41
1
10
117.195728601391
20
-33.9970725772088
30
0
41
1
10
117.121888855242
20
-33.982176228301
30
0
41
1
10
117.097473151492
20
-33.9763781472116
30
0
41
1
10
117.04904848785
20
-33.9630676020339
30
0
41
1
10
117.02513076775
20
-33.9555691081344
30
0
41
1
10
116.95552979102
20
-33.9309904739656
30
0
41
1
10
116.911478924263
20
-33.9117155576677
30
0
41
1
10
116.848937645564
20
-33.8784567235156
30
0
41
1
10
116.828575877939
20
-33.8665672172258
30
0
41
1
10
116.789770639108
20
-33.8417158723895
30
0
41
1
10
116.771303493354
20
-33.8287564976542
30
0
41
1
10
116.718630616325
20
-33.7883216872731
30
0
41
1
10
116.68712782027
20
-33.7593041849198
30
0
41
1
10
116.63155939413
20
-33.6970261610126
30
0
41
1
10
116.608355403883
20
-33.6647184533211
30
0
41
1
10
116.580192026498
20
-33.6147509552205
30
0
41
1
10
116.571911675835
20
-33.5978334094309
30
0
41
1
10
116.557598943019
20
-33.5634670729739
30
0
41
1
10
116.551564038909
20
-33.545971303281
30
0
41
1
10
116.537182061025
20
-33.4936211315318
30
0
41
1
10
116.532379102995
20
-33.4586194939827
30
0
41
1
10
116.532376739028
20
-33.4235160031053
30
0
0
SPLINE
5
35E
100
AcDbEntity
8
1
62
256
6
ByLayer
370
18
48
1
60
0
100
AcDbSpline
70
4
71
3
72
29
73
25
40
0
40
0
40
0
40
0
40
0.124999999999982
40
0.124999999999982
40
0.187499999999973
40
0.187499999999973
40
0.249999999999965
40
0.249999999999965
40
0.374999999999963
40
0.374999999999963
40
0.437499999999971
40
0.437499999999971
40
0.49999999999998
40
0.49999999999998
40
0.624999999999985
40
0.624999999999985
40
0.687499999999987
40
0.687499999999987
40
0.74999999999999
40
0.812499999999992
40
0.812499999999992
40
0.874999999999995
40
0.874999999999995
40
1
40
1
40
1
40
1
41
1
10
124.999911752939
20
49.2081982010077
30
0
41
1
10
124.999909388748
20
49.2591815634967
30
0
41
1
10
124.995105579782
20
49.309400921009
30
0
41
1
10
124.980857151485
20
49.3836093218328
30
0
41
1
10
124.974925831456
20
49.4081574006593
30
0
41
1
10
124.960626093791
20
49.456865767807
30
0
41
1
10
124.952263421345
20
49.4809533064383
30
0
41
1
10
124.924032257165
20
49.5511264556537
30
0
41
1
10
124.900914042044
20
49.5956373939401
30
0
41
1
10
124.859720245405
20
49.6589598984419
30
0
41
1
10
124.844815909264
20
49.6795861905089
30
0
41
1
10
124.813101024665
20
49.7191526594399
30
0
41
1
10
124.79638528987
20
49.7379969378387
30
0
41
1
10
124.743728928795
20
49.791784802171
30
0
41
1
10
124.705302967143
20
49.8240094773187
30
0
41
1
10
124.642511338656
20
49.8667095471464
30
0
41
1
10
124.620767611163
20
49.8799412528383
30
0
41
1
10
124.576524863869
20
49.9039195972206
30
0
41
1
10
124.531299067467
20
49.9255740825984
30
0
41
1
10
124.484134601065
20
49.942645688339
30
0
41
1
10
124.435986840167
20
49.9573928549934
30
0
41
1
10
124.4113001161
20
49.9636243587343
30
0
41
1
10
124.336804535657
20
49.9784843394598
30
0
41
1
10
124.286559043089
20
49.9833816295048
30
0
41
1
10
124.235731275221
20
49.9832652244512
30
0
0
SPLINE
5
35F
100
AcDbEntity
8
1
62
256
6
ByLayer
370
13
48
1
60
0
100
AcDbSpline
70
4
71
3
72
8
73
4
40
0
40
0
40
0
40
0
40
1
40
1
40
1
40
1
41
1
10
124.600101020784
20
-30.2739805296211
30
0
41
1
10
124.733371264836
20
-31.5029480198773
30
0
41
1
10
124.866641508887
20
-32.7319155101335
30
0
41
1
10
124.999911752939
20
-33.9608830003897
30
0
0
SPLINE
5
360
100
AcDbEntity
8
1
62
256
6
ByLayer
370
13
48
1
60
0
100
AcDbSpline
70
4
71
3
72
8
73
4
40
0
40
0
40
0
40
0
40
1
40
1
40
1
40
1
41
1
10
124.235731275221
20
-34.4472954847904
30
0
41
1
10
124.192686024114
20
-33.1335624973835
30
0
41
1
10
124.149640773008
20
-31.8198295099765
30
0
41
1
10
124.106595521901
20
-30.5060965225695
30
0
0
SPLINE
5
361
100
AcDbEntity
8
1
62
256
6
ByLayer
370
13
48
1
60
0
100
AcDbSpline
70
4
71
3
72
8
73
4
40
0
40
0
40
0
40
0
40
1
40
1
40
1
40
1
41
1
10
116.532376739028
20
-33.4235160031052
30
0
41
1
10
116.882951221403
20
-32.3155339182123
30
0
41
1
10
117.233525703778
20
-31.2075518333194
30
0
41
1
10
117.584100186153
20
-30.0995697484265
30
0
0
SPLINE
5
362
100
AcDbEntity
8
1
62
256
6
ByLayer
370
13
48
1
60
0
100
AcDbSpline
70
4
71
3
72
8
73
4
40
0
40
0
40
0
40
0
40
1
40
1
40
1
40
1
41
1
10
118.175414457183
20
-30.1364471288382
30
0
41
1
10
117.882462043704
20
-31.4266052135072
30
0
41
1
10
117.589509630225
20
-32.7167632981762
30
0
41
1
10
117.296557216746
20
-34.0069213828453
30
0
0
SPLINE
5
363
100
AcDbEntity
8
1
62
256
6
ByLayer
370
18
48
1
60
0
100
AcDbSpline
70
4
71
3
72
16
73
12
40
0
40
0
40
0
40
0
40
0.09307240400845
40
0.09307240400845
40
0.395381602672294
40
0.395381602672294
40
0.546536202004215
40
0.546536202004215
40
0.697690801336137
40
0.697690801336137
40
1
40
1
40
1
40
1
41
1
10
124.645343695948
20
-28.1594896585266
30
0
41
1
10
124.655143879504
20
-28.1710628575021
30
0
41
1
10
124.664608716581
20
-28.182969554598
30
0
41
1
10
124.703379148287
20
-28.2349797816447
30
0
41
1
10
124.728535227771
20
-28.277081417225
30
0
41
1
10
124.759748763203
20
-28.3433530155448
30
0
41
1
10
124.769066850834
20
-28.36597858464
30
0
41
1
10
124.785497720727
20
-28.4123157797262
30
0
41
1
10
124.79261598893
20
-28.4360933012604
30
0
41
1
10
124.810254333793
20
-28.5077898821887
30
0
41
1
10
124.817253854668
20
-28.5564473740304
30
0
41
1
10
124.819478516454
20
-28.6059674341364
30
0
0
SPLINE
5
364
100
AcDbEntity
8
1
62
256
6
ByLayer
370
18
48
1
60
0
100
AcDbSpline
70
4
71
3
72
14
73
10
40
0
40
0
40
0
40
0
40
0.0467485691920053
40
0.0467485691920053
40
0.364499046128003
40
0.364499046128003
40
0.682249523064002
40
0.682249523064002
40
1
40
1
40
1
40
1
41
1
10
124.504012099129
20
-38.2057139097828
30
0
41
1
10
124.506777687702
20
-38.2022444331525
30
0
41
1
10
124.50949335784
20
-38.1987394489749
30
0
41
1
10
124.530277717763
20
-38.1711338224042
30
0
41
1
10
124.546019657252
20
-38.1453786176789
30
0
41
1
10
124.571450247794
20
-38.0927090451297
30
0
41
1
10
124.58135813827
20
-38.0655366713594
30
0
41
1
10
124.595349896155
20
-38.0094543301149
30
0
41
1
10
124.599304721449
20
-37.980930308745
30
0
41
1
10
124.600101020784
20
-37.9523636180501
30
0
0
SPLINE
5
365
100
AcDbEntity
8
1
62
256
6
ByLayer
370
13
48
1
60
0
100
AcDbSpline
70
4
71
3
72
8
73
4
40
0
40
0
40
0
40
0
40
1
40
1
40
1
40
1
41
1
10
124.600101020784
20
-37.95236361805
30
0
41
1
10
124.733371264836
20
-37.1782485038396
30
0
41
1
10
124.866641508887
20
-36.4041333896293
30
0
41
1
10
124.999911752939
20
-35.6300182754189
30
0
0
SPLINE
5
366
100
AcDbEntity
8
1
62
256
6
ByLayer
370
13
48
1
60
0
100
AcDbSpline
70
4
71
3
72
8
73
4
40
0
40
0
40
0
40
0
40
1
40
1
40
1
40
1
41
1
10
124.819478516454
20
-28.6059674341364
30
0
41
1
10
124.789208677641
20
-28.7419774418944
30
0
41
1
10
124.758938838828
20
-28.8779874496524
30
0
41
1
10
124.728669000014
20
-29.0139974574104
30
0
0
SPLINE
5
367
100
AcDbEntity
8
1
62
256
6
ByLayer
370
18
48
1
60
0
100
AcDbSpline
70
2053
71
3
72
127
73
123
40
0
40
0
40
0
40
0
40
0.031249999999999
40
0.031249999999999
40
0.0468749999999991
40
0.0468749999999991
40
0.0624999999999992
40
0.0624999999999992
40
0.0937499999999993
40
0.0937499999999993
40
0.1015625
40
0.1015625
40
0.109375
40
0.109375
40
0.125
40
0.125
40
0.156250000000001
40
0.156250000000001
40
0.164062500000002
40
0.164062500000002
40
0.171875000000002
40
0.171875000000002
40
0.187500000000003
40
0.203125000000005
40
0.203125000000005
40
0.210937500000005
40
0.210937500000005
40
0.218750000000006
40
0.218750000000006
40
0.250000000000009
40
0.250000000000009
40
0.265625000000011
40
0.265625000000011
40
0.273437500000012
40
0.273437500000012
40
0.281250000000013
40
0.281250000000013
40
0.312500000000013
40
0.312500000000013
40
0.320312500000014
40
0.320312500000014
40
0.328125000000016
40
0.328125000000016
40
0.343750000000019
40
0.343750000000019
40
0.375000000000026
40
0.375000000000026
40
0.406250000000033
40
0.406250000000033
40
0.421875000000035
40
0.421875000000035
40
0.429687500000036
40
0.429687500000036
40
0.437500000000037
40
0.437500000000037
40
0.468750000000042
40
0.468750000000042
40
0.476562500000042
40
0.476562500000042
40
0.484375000000041
40
0.484375000000041
40
0.500000000000041
40
0.500000000000041
40
0.531250000000041
40
0.531250000000041
40
0.53906250000004
40
0.53906250000004
40
0.54687500000004
40
0.54687500000004
40
0.56250000000004
40
0.578125000000039
40
0.578125000000039
40
0.585937500000039
40
0.585937500000039
40
0.593750000000039
40
0.593750000000039
40
0.625000000000036
40
0.625000000000036
40
0.640625000000035
40
0.640625000000035
40
0.648437500000035
40
0.648437500000035
40
0.656250000000035
40
0.656250000000035
40
0.687500000000033
40
0.687500000000033
40
0.703125000000033
40
0.703125000000033
40
0.718750000000033
40
0.718750000000033
40
0.750000000000033
40
0.750000000000033
40
0.781250000000032
40
0.781250000000032
40
0.796875000000033
40
0.796875000000033
40
0.804687500000033
40
0.804687500000033
40
0.812500000000034
40
0.812500000000034
40
0.843750000000035
40
0.843750000000035
40
0.851562500000035
40
0.851562500000035
40
0.859375000000034
40
0.859375000000034
40
0.875000000000034
40
0.875000000000034
40
0.906250000000031
40
0.906250000000031
40
0.914062500000029
40
0.914062500000029
40
0.921875000000027
40
0.921875000000027
40
0.937500000000023
40
0.95312500000002
40
0.95312500000002
40
0.960937500000017
40
0.960937500000017
40
0.968750000000014
40
0.968750000000014
40
1
40
1
40
1
40
1
41
1
10
122.229508534539
20
-4.09099940722862
30
0
41
1
10
122.362738509638
20
-4.2333570040463
30
0
41
1
10
122.47919442129
20
-4.38633536335652
30
0
41
1
10
122.629742170925
20
-4.63134368457361
30
0
41
1
10
122.67587211443
20
-4.71562178129943
30
0
41
1
10
122.759840468298
20
-4.88955384722578
30
0
41
1
10
122.797702578484
20
-4.97944240588254
30
0
41
1
10
122.896269517038
20
-5.25133601312331
30
0
41
1
10
122.943100586081
20
-5.43738418434219
30
0
41
1
10
122.978290909009
20
-5.67595460122482
30
0
41
1
10
122.984151081083
20
-5.72397161197984
30
0
41
1
10
122.993479217341
20
-5.82062210921731
30
0
41
1
10
122.99695076891
20
-5.86939229558357
30
0
41
1
10
123.003650681558
20
-6.0153406125857
30
0
41
1
10
123.003216163749
20
-6.11224837776632
30
0
41
1
10
122.987687495175
20
-6.40183718469376
30
0
41
1
10
122.958503114121
20
-6.59339751969219
30
0
41
1
10
122.897982102115
20
-6.83089199112192
30
0
41
1
10
122.884635973678
20
-6.87836565394707
30
0
41
1
10
122.855793154159
20
-6.97210589059097
30
0
41
1
10
122.840270865357
20
-7.01848912209459
30
0
41
1
10
122.790460616752
20
-7.15620180673028
30
0
41
1
10
122.715413462051
20
-7.33599373956719
30
0
41
1
10
122.623337747976
20
-7.5082093826453
30
0
41
1
10
122.547795851847
20
-7.63447129390255
30
0
41
1
10
122.52153241104
20
-7.67607439700492
30
0
41
1
10
122.466798463366
20
-7.75829096991669
30
0
41
1
10
122.438326292129
20
-7.79889142321548
30
0
41
1
10
122.291994412542
20
-7.99720111159763
30
0
41
1
10
122.161169501926
20
-8.14278356450296
30
0
41
1
10
121.944596856338
20
-8.34174610465789
30
0
41
1
10
121.868992260662
20
-8.40480844076126
30
0
41
1
10
121.750271147218
20
-8.49431615796999
30
0
41
1
10
121.709844927067
20
-8.52326603724566
30
0
41
1
10
121.62811469303
20
-8.57881874217151
30
0
41
1
10
121.586702589791
20
-8.60550499846556
30
0
41
1
10
121.376942309474
20
-8.73355224785308
30
0
41
1
10
121.200572587089
20
-8.81891548301854
30
0
41
1
10
120.969182893877
20
-8.90377582696374
30
0
41
1
10
120.922353669298
20
-8.91964596094277
30
0
41
1
10
120.827566427031
20
-8.94912894121597
30
0
41
1
10
120.779699189838
20
-8.96270527249862
30
0
41
1
10
120.636031536171
20
-8.99958823180236
30
0
41
1
10
120.53966061395
20
-9.01921984127193
30
0
41
1
10
120.248806979632
20
-9.06354356374317
30
0
41
1
10
120.052600194125
20
-9.07380415531719
30
0
41
1
10
119.655373297094
20
-9.05402683101164
30
0
41
1
10
119.460778560565
20
-9.02426464109902
30
0
41
1
10
119.175626711527
20
-8.95132316622306
30
0
41
1
10
119.081650211397
20
-8.9222554282843
30
0
41
1
10
118.942325831743
20
-8.87139842608258
30
0
41
1
10
118.896043641418
20
-8.85318515011295
30
0
41
1
10
118.804612978436
20
-8.81453556348134
30
0
41
1
10
118.759559697459
20
-8.79414742866237
30
0
41
1
10
118.537528641722
20
-8.68701363005187
30
0
41
1
10
118.370163922047
20
-8.58483703473405
30
0
41
1
10
118.173556405362
20
-8.4369540344635
30
0
41
1
10
118.134870585247
20
-8.40636012652033
30
0
41
1
10
118.058788095148
20
-8.34311093844855
30
0
41
1
10
118.021319080129
20
-8.31038267112609
30
0
41
1
10
117.911992137341
20
-8.21009450151223
30
0
41
1
10
117.842882106577
20
-8.1401928233571
30
0
41
1
10
117.646521375653
20
-7.92167264268409
30
0
41
1
10
117.530132971694
20
-7.76432501368794
30
0
41
1
10
117.403264887463
20
-7.55276895238336
30
0
41
1
10
117.378827035745
20
-7.50968313502142
30
0
41
1
10
117.332364259993
20
-7.42294869372779
30
0
41
1
10
117.310267575827
20
-7.3791853539135
30
0
41
1
10
117.247326410402
20
-7.24672998163169
30
0
41
1
10
117.172320069608
20
-7.06702085449609
30
0
41
1
10
117.114957960041
20
-6.88120689887268
30
0
41
1
10
117.078678447163
20
-6.73952398444311
30
0
41
1
10
117.067710981717
20
-6.6919085433006
30
0
41
1
10
117.048074264897
20
-6.59588726490273
30
0
41
1
10
117.03941469223
20
-6.5474835944928
30
0
41
1
10
117.002357403009
20
-6.30619929222343
30
0
41
1
10
116.992027234342
20
-6.11335175139067
30
0
41
1
10
117.005029593984
20
-5.82436213029928
30
0
41
1
10
117.014146895726
20
-5.72807875257206
30
0
41
1
10
117.035254343394
20
-5.58372069273287
30
0
41
1
10
117.043531546949
20
-5.53566767466691
30
0
41
1
10
117.06238017032
20
-5.44066411020884
30
0
41
1
10
117.072969639902
20
-5.39357950719648
30
0
41
1
10
117.131655272385
20
-5.16020551259834
30
0
41
1
10
117.196802936506
20
-4.98000911207089
30
0
41
1
10
117.322140403951
20
-4.71942566642787
30
0
41
1
10
117.368844585584
20
-4.63378061542028
30
0
41
1
10
117.469843489286
20
-4.46913939414156
30
0
41
1
10
117.524217135308
20
-4.38985779933086
30
0
41
1
10
117.698705758204
20
-4.16086481504601
30
0
41
1
10
117.830221477187
20
-4.01979255996338
30
0
41
1
10
118.124071247322
20
-3.76223625411234
30
0
41
1
10
118.281757576194
20
-3.64977069142589
30
0
41
1
10
118.53380890591
20
-3.50430277686951
30
0
41
1
10
118.620432267852
20
-3.45971492216955
30
0
41
1
10
118.754372369172
20
-3.3987950806964
30
0
41
1
10
118.799805379785
20
-3.37943835044365
30
0
41
1
10
118.891445605411
20
-3.34298976747613
30
0
41
1
10
118.93755887846
20
-3.32592758315849
30
0
41
1
10
119.169562716706
20
-3.24630307095515
30
0
41
1
10
119.359724663034
20
-3.20063198934775
30
0
41
1
10
119.603097994297
20
-3.16583794902715
30
0
41
1
10
119.652058761224
20
-3.16000433073526
30
0
41
1
10
119.750562282453
20
-3.15062421275854
30
0
41
1
10
119.80024302599
20
-3.14707393571104
30
0
41
1
10
119.948808623469
20
-3.13998546936398
30
0
41
1
10
120.047357786515
20
-3.1399563620933
30
0
41
1
10
120.341565280851
20
-3.15354342697913
30
0
41
1
10
120.535797366295
20
-3.18069780883099
30
0
41
1
10
120.776138848028
20
-3.23796846164078
30
0
41
1
10
120.824171035848
20
-3.25063108252493
30
0
41
1
10
120.918960357153
20
-3.2780565333112
30
0
41
1
10
120.965831088948
20
-3.29284188471701
30
0
41
1
10
121.104899078686
20
-3.34036543289489
30
0
41
1
10
121.286212475158
20
-3.4121614826027
30
0
41
1
10
121.459414015671
20
-3.50067144014207
30
0
41
1
10
121.586225472243
20
-3.57345395428763
30
0
41
1
10
121.627980087813
20
-3.59878342195714
30
0
41
1
10
121.710437912793
20
-3.65162664003816
30
0
41
1
10
121.751130023115
20
-3.67914221245616
30
0
41
1
10
121.950033879441
20
-3.82092212662178
30
0
41
1
10
122.096278559439
20
-3.948641810411
30
0
41
1
10
122.229508534539
20
-4.09099940722862
30
0
0
SPLINE
5
368
100
AcDbEntity
8
1
62
256
6
ByLayer
370
13
48
1
60
0
100
AcDbSpline
70
4
71
3
72
8
73
4
40
0
40
0
40
0
40
0
40
1
40
1
40
1
40
1
41
1
10
124.575646448493
20
-1.34165089676048
30
0
41
1
10
124.550431245424
20
-1.5924562204433
30
0
41
1
10
124.525216042355
20
-1.84326154412611
30
0
41
1
10
124.500000839287
20
-2.09406686780892
30
0
0
SPLINE
5
369
100
AcDbEntity
8
1
62
256
6
ByLayer
370
18
48
1
60
0
100
AcDbSpline
70
4
71
3
72
22
73
18
40
0
40
0
40
0
40
0
40
0.125000000000001
40
0.125000000000001
40
0.250000000000002
40
0.250000000000002
40
0.49999999999999
40
0.49999999999999
40
0.624999999999991
40
0.624999999999991
40
0.749999999999992
40
0.749999999999992
40
0.874999999999994
40
0.874999999999994
40
0.937499999999997
40
0.937499999999997
40
1
40
1
40
1
40
1
41
1
10
124.263340414623
20
-46.7514736894437
30
0
41
1
10
124.276638367214
20
-46.7282172019373
30
0
41
1
10
124.289826265207
20
-46.7041744369626
30
0
41
1
10
124.315938948298
20
-46.6542091150912
30
0
41
1
10
124.328894308908
20
-46.6282226725259
30
0
41
1
10
124.366981713979
20
-46.5473848600593
30
0
41
1
10
124.391419636524
20
-46.4897540053261
30
0
41
1
10
124.425510880542
20
-46.3941638612907
30
0
41
1
10
124.436290060065
20
-46.3611529106116
30
0
41
1
10
124.456283940589
20
-46.2920597735794
30
0
41
1
10
124.465538098555
20
-46.2558643755153
30
0
41
1
10
124.481620295946
20
-46.1795071162742
30
0
41
1
10
124.488227628564
20
-46.1404109854205
30
0
41
1
10
124.49520456615
20
-46.0798892130548
30
0
41
1
10
124.497003129096
20
-46.0595873714329
30
0
41
1
10
124.499391599764
20
-46.0197640042362
30
0
41
1
10
124.5
20
-46.0000917643614
30
0
41
1
10
124.5
20
-45.9806681910795
30
0
0
SPLINE
5
36A
100
AcDbEntity
8
1
62
256
6
ByLayer
370
18
48
1
60
0
100
AcDbSpline
70
4
71
3
72
24
73
20
40
0
40
0
40
0
40
0
40
0.0625000000000191
40
0.0625000000000191
40
0.125000000000038
40
0.125000000000038
40
0.250000000000056
40
0.250000000000056
40
0.312500000000063
40
0.312500000000063
40
0.375000000000071
40
0.375000000000071
40
0.50000000000006
40
0.50000000000006
40
0.625000000000049
40
0.625000000000049
40
0.750000000000037
40
0.750000000000037
40
1
40
1
40
1
40
1
41
1
10
115.5
20
-45.9806681910795
30
0
41
1
10
115.5
20
-46.0002860175016
30
0
41
1
10
115.500620496343
20
-46.0201040943062
30
0
41
1
10
115.503037282957
20
-46.0601197073377
30
0
41
1
10
115.504847049226
20
-46.0804287203026
30
0
41
1
10
115.511879745019
20
-46.1411546729123
30
0
41
1
10
115.518515640873
20
-46.1802376227485
30
0
41
1
10
115.530571578043
20
-46.2373497626666
30
0
41
1
10
115.534956554739
20
-46.2561533688137
30
0
41
1
10
115.544147477732
20
-46.2925603483268
30
0
41
1
10
115.548975538596
20
-46.3102744534325
30
0
41
1
10
115.564037239204
20
-46.3622016818166
30
0
41
1
10
115.574842258811
20
-46.3952126327201
30
0
41
1
10
115.597582609178
20
-46.4588563813354
30
0
41
1
10
115.609469067228
20
-46.4893169269198
30
0
41
1
10
115.633685997654
20
-46.5473720510726
30
0
41
1
10
115.646073490322
20
-46.5751146302445
30
0
41
1
10
115.683892479732
20
-46.6553189880971
30
0
41
1
10
115.70997138601
20
-46.7047993032251
30
0
41
1
10
115.736659585377
20
-46.751473689444
30
0
0
SPLINE
5
36B
100
AcDbEntity
8
1
62
256
6
ByLayer
370
18
48
1
60
0
100
AcDbSpline
70
4
71
3
72
10
73
6
40
0
40
0
40
0
40
0
40
0.5
40
0.5
40
1
40
1
40
1
40
1
41
1
10
116.01318385823
20
-46.8722769964328
30
0
41
1
10
115.952116471612
20
-46.8543533048763
30
0
41
1
10
115.900836882247
20
-46.8349823790907
30
0
41
1
10
115.810268044514
20
-46.7944676228031
30
0
41
1
10
115.771053369074
20
-46.7732337760183
30
0
41
1
10
115.736659585377
20
-46.7514736894441
30
0
0
SPLINE
5
36C
100
AcDbEntity
8
1
62
256
6
ByLayer
370
18
48
1
60
0
100
AcDbSpline
70
4
71
3
72
16
73
12
40
0
40
0
40
0
40
0
40
0.250000000000003
40
0.250000000000003
40
0.500000000000006
40
0.500000000000006
40
0.750000000000009
40
0.750000000000009
40
0.875000000000004
40
0.875000000000004
40
1
40
1
40
1
40
1
41
1
10
116.5
20
-46.9739747467407
30
0
41
1
10
116.455994008383
20
-46.9739747467407
30
0
41
1
10
116.4124835975
20
-46.971244984685
30
0
41
1
10
116.326457172504
20
-46.9607695115117
30
0
41
1
10
116.28394026211
20
-46.9530140895298
30
0
41
1
10
116.200046670936
20
-46.9331899498051
30
0
41
1
10
116.158248675585
20
-46.9208977890004
30
0
41
1
10
116.099394951232
20
-46.9015104747393
30
0
41
1
10
116.080173244328
20
-46.8948241450714
30
0
41
1
10
116.044305437324
20
-46.8823486319359
30
0
41
1
10
116.02768212136
20
-46.8765323348521
30
0
41
1
10
116.013183858229
20
-46.8722769964326
30
0
0
SPLINE
5
36D
100
AcDbEntity
8
1
62
256
6
ByLayer
370
18
48
1
60
0
100
AcDbSpline
70
4
71
3
72
14
73
10
40
0
40
0
40
0
40
0
40
0.25
40
0.25
40
0.5
40
0.5
40
0.75
40
0.75
40
1
40
1
40
1
40
1
41
1
10
122.9
20
-36.1838101656073
30
0
41
1
10
122.916623443973
20
-36.1838101656073
30
0
41
1
10
122.932438542477
20
-36.1896388397994
30
0
41
1
10
122.958706234766
20
-36.2080066438432
30
0
41
1
10
122.969017615287
20
-36.2200867862281
30
0
41
1
10
122.984985064477
20
-36.246362359786
30
0
41
1
10
122.990624247182
20
-36.2604843977103
30
0
41
1
10
122.998182873859
20
-36.289921942629
30
0
41
1
10
123
20
-36.3048721706488
30
0
41
1
10
123
20
-36.3200383485073
30
0
0
SPLINE
5
36E
100
AcDbEntity
8
1
62
256
6
ByLayer
370
18
48
1
60
0
100
AcDbSpline
70
4
71
3
72
66
73
62
40
0
40
0
40
0
40
0
40
0.0624999999999957
40
0.0624999999999957
40
0.124999999999992
40
0.124999999999992
40
0.187499999999987
40
0.187499999999987
40
0.249999999999983
40
0.249999999999983
40
0.312499999999979
40
0.312499999999979
40
0.374999999999975
40
0.374999999999975
40
0.406249999999975
40
0.406249999999975
40
0.421874999999973
40
0.421874999999973
40
0.437499999999972
40
0.437499999999972
40
0.45312499999997
40
0.45312499999997
40
0.460937499999972
40
0.460937499999972
40
0.468749999999973
40
0.468749999999973
40
0.484374999999975
40
0.484374999999975
40
0.492187499999976
40
0.492187499999976
40
0.499999999999977
40
0.499999999999977
40
0.507812499999978
40
0.507812499999978
40
0.515624999999978
40
0.515624999999978
40
0.523437499999979
40
0.523437499999979
40
0.53124999999998
40
0.53124999999998
40
0.546874999999982
40
0.546874999999982
40
0.562499999999983
40
0.562499999999983
40
0.593749999999984
40
0.593749999999984
40
0.624999999999986
40
0.624999999999986
40
0.687499999999986
40
0.687499999999986
40
0.749999999999987
40
0.749999999999987
40
0.781249999999989
40
0.781249999999989
40
0.812499999999991
40
0.812499999999991
40
0.874999999999994
40
0.874999999999994
40
0.937499999999997
40
0.937499999999997
40
1
40
1
40
1
40
1
41
1
10
120
20
-40.4498972903877
30
0
41
1
10
120
20
-40.6266012672271
30
0
41
1
10
120.00825870814
20
-40.802143239453
30
0
41
1
10
120.03845920068
20
-41.1513377175528
30
0
41
1
10
120.060419648286
20
-41.3249873432127
30
0
41
1
10
120.116679832421
20
-41.670599663546
30
0
41
1
10
120.150978757747
20
-41.8425625392824
30
0
41
1
10
120.231729546385
20
-42.1848225984357
30
0
41
1
10
120.278187058148
20
-42.3552223821151
30
0
41
1
10
120.384448004761
20
-42.6937351096607
30
0
41
1
10
120.443751315543
20
-42.8604975192095
30
0
41
1
10
120.57798447387
20
-43.1878110082579
30
0
41
1
10
120.652984785034
20
-43.3489406246392
30
0
41
1
10
120.782145087651
20
-43.5790129218
30
0
41
1
10
120.828057499193
20
-43.6538690986309
30
0
41
1
10
120.903312051274
20
-43.7621128219402
30
0
41
1
10
120.929474002308
20
-43.7975127563807
30
0
41
1
10
120.984607806522
20
-43.8665462655643
30
0
41
1
10
121.01369265315
20
-43.9003132422196
30
0
41
1
10
121.075173649374
20
-43.9648038782923
30
0
41
1
10
121.107383276834
20
-43.9953654611575
30
0
41
1
10
121.158740743766
20
-44.0377350028382
30
0
41
1
10
121.17637121067
20
-44.0512746910517
30
0
41
1
10
121.212872410087
20
-44.0769411376072
30
0
41
1
10
121.231804551259
20
-44.0890949405196
30
0
41
1
10
121.289831372303
20
-44.1223587646227
30
0
41
1
10
121.330380288068
20
-44.1405285549557
30
0
41
1
10
121.395110399114
20
-44.1594032544689
30
0
41
1
10
121.41709834076
20
-44.1641884191459
30
0
41
1
10
121.461195242749
20
-44.1703774742154
30
0
41
1
10
121.483414166971
20
-44.1718148685945
30
0
41
1
10
121.528209570051
20
-44.1712143530839
30
0
41
1
10
121.55080962392
20
-44.1691349862944
30
0
41
1
10
121.594837444431
20
-44.1617404041134
30
0
41
1
10
121.616465765824
20
-44.1564341746971
30
0
41
1
10
121.659026791823
20
-44.1429178041691
30
0
41
1
10
121.680077746815
20
-44.1346423495282
30
0
41
1
10
121.720635806045
20
-44.1159161157671
30
0
41
1
10
121.740228825359
20
-44.1054574380804
30
0
41
1
10
121.797311675019
20
-44.0713695690062
30
0
41
1
10
121.833205493099
20
-44.0449878298757
30
0
41
1
10
121.901407664696
20
-43.9873211551889
30
0
41
1
10
121.933197190229
20
-43.9564983129603
30
0
41
1
10
122.023755137304
20
-43.8598702783756
30
0
41
1
10
122.077807876195
20
-43.7899864808431
30
0
41
1
10
122.178453953136
20
-43.6436893799072
30
0
41
1
10
122.224304508286
20
-43.5681478677316
30
0
41
1
10
122.352483964287
20
-43.3378077876289
30
0
41
1
10
122.425988652748
20
-43.1788094129421
30
0
41
1
10
122.55858334212
20
-42.8540848244975
30
0
41
1
10
122.617411435776
20
-42.6882434263963
30
0
41
1
10
122.69663548833
20
-42.4352039886709
30
0
41
1
10
122.721447847112
20
-42.3503217136331
30
0
41
1
10
122.76784030606
20
-42.1803885608057
30
0
41
1
10
122.789459893494
20
-42.0952087636603
30
0
41
1
10
122.849752188007
20
-41.8390566656127
30
0
41
1
10
122.883894430856
20
-41.6674772244334
30
0
41
1
10
122.939889690883
20
-41.3226752792058
30
0
41
1
10
122.961741878301
20
-41.1494525934614
30
0
41
1
10
122.99178788175
20
-40.8011610457647
30
0
41
1
10
123
20
-40.6260949621026
30
0
41
1
10
123
20
-40.4498972903877
30
0
0
SPLINE
5
36F
100
AcDbEntity
8
1
62
256
6
ByLayer
370
18
48
1
60
0
100
AcDbSpline
70
4
71
3
72
28
73
24
40
0
40
0
40
0
40
0
40
0.0625000000000013
40
0.0625000000000013
40
0.125000000000002
40
0.125000000000002
40
0.25
40
0.25
40
0.312499999999999
40
0.312499999999999
40
0.374999999999997
40
0.374999999999997
40
0.49999999999998
40
0.49999999999998
40
0.624999999999963
40
0.624999999999963
40
0.687499999999969
40
0.687499999999969
40
0.749999999999975
40
0.749999999999975
40
0.874999999999988
40
0.874999999999988
40
1
40
1
40
1
40
1
41
1
10
115.5
20
-43.7145729135791
30
0
41
1
10
115.5
20
-43.7476599266197
30
0
41
1
10
115.501535686743
20
-43.7810402206189
30
0
41
1
10
115.507708195344
20
-43.8472932775114
30
0
41
1
10
115.512315379949
20
-43.8800304631407
30
0
41
1
10
115.530607688747
20
-43.9770994345105
30
0
41
1
10
115.54872252629
20
-44.0402987496093
30
0
41
1
10
115.585142691791
20
-44.1327474276799
30
0
41
1
10
115.598906186669
20
-44.1632772703509
30
0
41
1
10
115.629018785781
20
-44.2222309372845
30
0
41
1
10
115.645413614111
20
-44.2508037206349
30
0
41
1
10
115.698568592438
20
-44.333846603294
30
0
41
1
10
115.739259658604
20
-44.3856675879977
30
0
41
1
10
115.831809857268
20
-44.4818221627976
30
0
41
1
10
115.882313827435
20
-44.5246984658315
30
0
41
1
10
115.963686066932
20
-44.5809580527079
30
0
41
1
10
115.991782025771
20
-44.5983894051881
30
0
41
1
10
116.049970222692
20
-44.630541898367
30
0
41
1
10
116.080227347526
20
-44.6453204031437
30
0
41
1
10
116.172142903541
20
-44.6845768361588
30
0
41
1
10
116.235320907886
20
-44.7043192194226
30
0
41
1
10
116.365448297755
20
-44.7310764096694
30
0
41
1
10
116.432749187549
20
-44.7380062048625
30
0
41
1
10
116.5
20
-44.7380062048625
30
0
0
SPLINE
5
370
100
AcDbEntity
8
1
62
256
6
ByLayer
370
18
48
1
60
0
100
AcDbSpline
70
4
71
3
72
28
73
24
40
0
40
0
40
0
40
0
40
0.124999999999992
40
0.124999999999992
40
0.187499999999988
40
0.187499999999988
40
0.249999999999984
40
0.249999999999984
40
0.374999999999981
40
0.374999999999981
40
0.437499999999979
40
0.437499999999979
40
0.499999999999978
40
0.499999999999978
40
0.624999999999975
40
0.624999999999975
40
0.749999999999973
40
0.749999999999973
40
0.812499999999976
40
0.812499999999976
40
0.87499999999998
40
0.87499999999998
40
1
40
1
40
1
40
1
41
1
10
123.5
20
-44.7380062048622
30
0
41
1
10
123.567255491256
20
-44.7380062048623
30
0
41
1
10
123.633336756993
20
-44.7312331054832
30
0
41
1
10
123.730771799714
20
-44.711336495346
30
0
41
1
10
123.762966804978
20
-44.7030686388982
30
0
41
1
10
123.826776391474
20
-44.6831794282207
30
0
41
1
10
123.858355681134
20
-44.6715428381299
30
0
41
1
10
123.950066924657
20
-44.6323984364326
30
0
41
1
10
124.007946816316
20
-44.6004864653756
30
0
41
1
10
124.08991599279
20
-44.5439394964822
30
0
41
1
10
124.116560677828
20
-44.5235073097774
30
0
41
1
10
124.167236592679
20
-44.4804285016086
30
0
41
1
10
124.191323277087
20
-44.4577696129115
30
0
41
1
10
124.259945143215
20
-44.3865304189525
30
0
41
1
10
124.300925530798
20
-44.3346391078887
30
0
41
1
10
124.372829879757
20
-44.222300116661
30
0
41
1
10
124.402715100456
20
-44.1635116288016
30
0
41
1
10
124.438957091794
20
-44.0716012448605
30
0
41
1
10
124.449596253316
20
-44.0403387020435
30
0
41
1
10
124.467956581523
20
-43.9765441129569
30
0
41
1
10
124.475665207138
20
-43.9439739358526
30
0
41
1
10
124.493969531198
20
-43.8463482438673
30
0
41
1
10
124.5
20
-43.7807254786229
30
0
41
1
10
124.5
20
-43.7145729135789
30
0
0
SPLINE
5
371
100
AcDbEntity
8
1
62
256
6
ByLayer
370
18
48
1
60
0
100
AcDbSpline
70
4
71
3
72
14
73
10
40
0
40
0
40
0
40
0
40
0.25
40
0.25
40
0.5
40
0.5
40
0.75
40
0.75
40
1
40
1
40
1
40
1
41
1
10
120
20
-36.3200383485073
30
0
41
1
10
120
20
-36.3048663290326
30
0
41
1
10
120.001820108966
20
-36.2899908495975
30
0
41
1
10
120.009260069145
20
-36.2608556189026
30
0
41
1
10
120.014978349156
20
-36.2464519595471
30
0
41
1
10
120.030878661151
20
-36.2202283345116
30
0
41
1
10
120.041211905488
20
-36.2080947695501
30
0
41
1
10
120.067400807683
20
-36.1897205746084
30
0
41
1
10
120.083372990409
20
-36.1838101656001
30
0
41
1
10
120.099999999998
20
-36.1838101655995
30
0
0
SPLINE
5
372
100
AcDbEntity
8
1
62
256
6
ByLayer
370
18
48
1
60
0
100
AcDbSpline
70
4
71
3
72
10
73
6
40
0
40
0
40
0
40
0
40
0.289216554343998
40
0.289216554343998
40
1
40
1
40
1
40
1
41
1
10
124.781756476506
20
-41.3580489930033
30
0
41
1
10
124.788105661038
20
-41.3750575327009
30
0
41
1
10
124.793710762545
20
-41.3923255965322
30
0
41
1
10
124.810254333793
20
-41.4521191497446
30
0
41
1
10
124.817253854668
20
-41.4951103833402
30
0
41
1
10
124.819478516454
20
-41.5385941799802
30
0
0
SPLINE
5
373
100
AcDbEntity
8
1
62
256
6
ByLayer
370
18
48
1
60
0
100
AcDbSpline
70
4
71
3
72
28
73
24
40
0
40
0
40
0
40
0
40
0.124999999999997
40
0.124999999999997
40
0.187499999999997
40
0.187499999999997
40
0.249999999999996
40
0.249999999999996
40
0.374999999999994
40
0.374999999999994
40
0.43749999999999
40
0.43749999999999
40
0.499999999999986
40
0.499999999999986
40
0.62499999999998
40
0.62499999999998
40
0.749999999999975
40
0.749999999999975
40
0.812499999999978
40
0.812499999999978
40
0.874999999999982
40
0.874999999999982
40
1
40
1
40
1
40
1
41
1
10
123.5
20
44.7120806231806
30
0
41
1
10
123.567255491256
20
44.7120806231806
30
0
41
1
10
123.633336756993
20
44.7064464707992
30
0
41
1
10
123.730771799714
20
44.6899247072457
30
0
41
1
10
123.762966804978
20
44.6830622738523
30
0
41
1
10
123.826776391473
20
44.6665710080063
30
0
41
1
10
123.858355681134
20
44.6569297350918
30
0
41
1
10
123.950066924657
20
44.6245396423131
30
0
41
1
10
124.007946816316
20
44.5981818996855
30
0
41
1
10
124.08991599279
20
44.5516578771533
30
0
41
1
10
124.116560677828
20
44.5348737587707
30
0
41
1
10
124.167236592679
20
44.4995590380659
30
0
41
1
10
124.191323277087
20
44.4810179696145
30
0
41
1
10
124.259945143215
20
44.4228548672522
30
0
41
1
10
124.300925530798
20
44.3806525385103
30
0
41
1
10
124.372829879757
20
44.289785049487
30
0
41
1
10
124.402715100456
20
44.242462887019
30
0
41
1
10
124.438957091794
20
44.1689049028565
30
0
41
1
10
124.449596253316
20
44.1439528422498
30
0
41
1
10
124.467956581523
20
44.0931856775916
30
0
41
1
10
124.475665207138
20
44.0673413496343
30
0
41
1
10
124.493969531198
20
43.9901081690797
30
0
41
1
10
124.5
20
43.9384988867117
30
0
41
1
10
124.5
20
43.8867901017879
30
0
0
SPLINE
5
374
100
AcDbEntity
8
1
62
256
6
ByLayer
370
18
48
1
60
0
100
AcDbSpline
70
4
71
3
72
28
73
24
40
0
40
0
40
0
40
0
40
0.0624999999999993
40
0.0624999999999993
40
0.124999999999999
40
0.124999999999999
40
0.250000000000003
40
0.250000000000003
40
0.312500000000003
40
0.312500000000003
40
0.375000000000003
40
0.375000000000003
40
0.499999999999992
40
0.499999999999992
40
0.624999999999982
40
0.624999999999982
40
0.687499999999986
40
0.687499999999986
40
0.749999999999991
40
0.749999999999991
40
0.874999999999995
40
0.874999999999995
40
1
40
1
40
1
40
1
41
1
10
115.5
20
43.8867901017881
30
0
41
1
10
115.5
20
43.9126528818624
30
0
41
1
10
115.501535686743
20
43.9388244816698
30
0
41
1
10
115.507708195344
20
43.990928410729
30
0
41
1
10
115.512315379949
20
44.0167532234723
30
0
41
1
10
115.530607688747
20
44.0935504355029
30
0
41
1
10
115.54872252629
20
44.1438537164647
30
0
41
1
10
115.585142691791
20
44.2178411375155
30
0
41
1
10
115.598906186669
20
44.2423444284659
30
0
41
1
10
115.629018785781
20
44.2897848527621
30
0
41
1
10
115.645413614111
20
44.312840701096
30
0
41
1
10
115.698568592438
20
44.3800115469438
30
0
41
1
10
115.739259658604
20
44.4221510660589
30
0
41
1
10
115.831809857268
20
44.5006549758394
30
0
41
1
10
115.882313827435
20
44.5358283997805
30
0
41
1
10
115.963686066932
20
44.5821143683971
30
0
41
1
10
115.991782025771
20
44.5964812880758
30
0
41
1
10
116.049970222692
20
44.6230163139726
30
0
41
1
10
116.080227347526
20
44.6352320000636
30
0
41
1
10
116.172142903541
20
44.6677146217544
30
0
41
1
10
116.235320907886
20
44.6840978763652
30
0
41
1
10
116.365448297755
20
44.7063161767229
30
0
41
1
10
116.432749187549
20
44.7120806231808
30
0
41
1
10
116.5
20
44.7120806231808
30
0
0
SPLINE
5
375
100
AcDbEntity
8
1
62
256
6
ByLayer
370
18
48
1
60
0
100
AcDbSpline
70
4
71
3
72
18
73
14
40
0
40
0
40
0
40
0
40
0.124999999999981
40
0.124999999999981
40
0.249999999999962
40
0.249999999999962
40
0.374999999999943
40
0.374999999999943
40
0.499999999999924
40
0.499999999999924
40
0.749999999999962
40
0.749999999999962
40
1
40
1
40
1
40
1
41
1
10
123.986816141769
20
-24.9494605741099
30
0
41
1
10
123.972324690534
20
-24.9408387484052
30
0
41
1
10
123.955725338538
20
-24.935758870723
30
0
41
1
10
123.919935532507
20
-24.9288543843423
30
0
41
1
10
123.900719775621
20
-24.9271714069598
30
0
41
1
10
123.861650838768
20
-24.9256772608589
30
0
41
1
10
123.841584568576
20
-24.9258555026811
30
0
41
1
10
123.800575174289
20
-24.9270835522216
30
0
41
1
10
123.779559266666
20
-24.9281487286761
30
0
41
1
10
123.716336765446
20
-24.9317220191732
30
0
41
1
10
123.673685441751
20
-24.9345533593919
30
0
41
1
10
123.587502776878
20
-24.938573061534
30
0
41
1
10
123.543970560483
20
-24.9397887073033
30
0
41
1
10
123.500000000002
20
-24.9397887073034
30
0
0
SPLINE
5
376
100
AcDbEntity
8
1
62
256
6
ByLayer
370
18
48
1
60
0
100
AcDbSpline
70
4
71
3
72
8
73
4
40
0
40
0
40
0
40
0
40
1
40
1
40
1
40
1
41
1
10
124.10038294989
20
-25.0284237577961
30
0
41
1
10
124.066237269956
20
-25.0008962547984
30
0
41
1
10
124.028593696159
20
-24.9743165244535
30
0
41
1
10
123.98681614177
20
-24.9494605741098
30
0
0
SPLINE
5
377
100
AcDbEntity
8
1
62
256
6
ByLayer
370
18
48
1
60
0
100
AcDbSpline
70
4
71
3
72
22
73
18
40
0
40
0
40
0
40
0
40
0.0841087092805116
40
0.0841087092805116
40
0.236757257733761
40
0.236757257733761
40
0.389405806187011
40
0.389405806187011
40
0.542054354640261
40
0.542054354640261
40
0.69470290309351
40
0.69470290309351
40
0.84735145154676
40
0.84735145154676
40
0.92367572577338
40
0.92367572577338
40
1
40
1
40
1
40
1
41
1
10
124.320152434832
20
-25.0304443369591
30
0
41
1
10
124.327218809489
20
-25.0095765647963
30
0
41
1
10
124.334229476041
20
-24.9886699806754
30
0
41
1
10
124.353792556565
20
-24.9297008371589
30
0
41
1
10
124.366203274847
20
-24.8915395580676
30
0
41
1
10
124.39050349931
20
-24.8148538702828
30
0
41
1
10
124.402419305465
20
-24.7762374271474
30
0
41
1
10
124.425137280693
20
-24.6998791993836
30
0
41
1
10
124.435999180526
20
-24.6619592111205
30
0
41
1
10
124.456252258599
20
-24.5871325490548
30
0
41
1
10
124.46547250181
20
-24.5508660957703
30
0
41
1
10
124.481413562289
20
-24.4814961034654
30
0
41
1
10
124.488188238855
20
-24.4479840670497
30
0
41
1
10
124.495135350618
20
-24.4038932464924
30
0
41
1
10
124.49693729427
20
-24.3901486857748
30
0
41
1
10
124.49938174321
20
-24.3648088650145
30
0
41
1
10
124.5
20
-24.3533624834266
30
0
41
1
10
124.5
20
-24.3434505550364
30
0
0
SPLINE
5
378
100
AcDbEntity
8
1
62
256
6
ByLayer
370
18
48
1
60
0
100
AcDbSpline
70
4
71
3
72
8
73
4
40
0
40
0
40
0
40
0
40
1
40
1
40
1
40
1
41
1
10
116.01318385823
20
-24.9494605741107
30
0
41
1
10
115.971509922598
20
-24.9742548754967
30
0
41
1
10
115.934394143872
20
-25.0004154335384
30
0
41
1
10
115.90063123046
20
-25.027580975534
30
0
0
SPLINE
5
379
100
AcDbEntity
8
1
62
256
6
ByLayer
370
18
48
1
60
0
100
AcDbSpline
70
4
71
3
72
66
73
62
40
0
40
0
40
0
40
0
40
0.0625000000000095
40
0.0625000000000095
40
0.125000000000019
40
0.125000000000019
40
0.187500000000028
40
0.187500000000028
40
0.250000000000038
40
0.250000000000038
40
0.312500000000047
40
0.312500000000047
40
0.375000000000057
40
0.375000000000057
40
0.406250000000064
40
0.406250000000064
40
0.421875000000069
40
0.421875000000069
40
0.437500000000074
40
0.437500000000074
40
0.453125000000079
40
0.453125000000079
40
0.46093750000008
40
0.46093750000008
40
0.468750000000081
40
0.468750000000081
40
0.484375000000083
40
0.484375000000083
40
0.492187500000083
40
0.492187500000083
40
0.500000000000084
40
0.500000000000084
40
0.507812500000084
40
0.507812500000084
40
0.515625000000085
40
0.515625000000085
40
0.523437500000085
40
0.523437500000085
40
0.531250000000085
40
0.531250000000085
40
0.546875000000083
40
0.546875000000083
40
0.562500000000081
40
0.562500000000081
40
0.593750000000076
40
0.593750000000076
40
0.625000000000072
40
0.625000000000072
40
0.687500000000059
40
0.687500000000059
40
0.750000000000047
40
0.750000000000047
40
0.781250000000042
40
0.781250000000042
40
0.812500000000036
40
0.812500000000036
40
0.875000000000024
40
0.875000000000024
40
0.937500000000012
40
0.937500000000012
40
1
40
1
40
1
40
1
41
1
10
120
20
-15.6172577194023
30
0
41
1
10
120
20
-15.7563900957788
30
0
41
1
10
120.00825870814
20
-15.8923596139007
30
0
41
1
10
120.03845920068
20
-16.1585135574183
30
0
41
1
10
120.060419648286
20
-16.2886947108891
30
0
41
1
10
120.116679832421
20
-16.5435813615184
30
0
41
1
10
120.150978757747
20
-16.6682861493428
30
0
41
1
10
120.231729546385
20
-16.9123673499662
30
0
41
1
10
120.278187058148
20
-17.0318134833176
30
0
41
1
10
120.384448004761
20
-17.2650692850352
30
0
41
1
10
120.443751315543
20
-17.3779471538451
30
0
41
1
10
120.57798447387
20
-17.5957544605122
30
0
41
1
10
120.652984785033
20
-17.7010345889369
30
0
41
1
10
120.782145087651
20
-17.8489032248953
30
0
41
1
10
120.828057499193
20
-17.896589834442
30
0
41
1
10
120.903312051274
20
-17.9650003802409
30
0
41
1
10
120.929474002308
20
-17.9872793840587
30
0
41
1
10
120.984607806522
20
-18.0305576830684
30
0
41
1
10
121.01369265315
20
-18.0516397323157
30
0
41
1
10
121.075173649374
20
-18.091758125916
30
0
41
1
10
121.107383276834
20
-18.1106941070931
30
0
41
1
10
121.158740743766
20
-18.1368653605725
30
0
41
1
10
121.17637121067
20
-18.1452141977395
30
0
41
1
10
121.212872410087
20
-18.1610179085592
30
0
41
1
10
121.231804551259
20
-18.1684893052399
30
0
41
1
10
121.289831372303
20
-18.1889129634753
30
0
41
1
10
121.330380288068
20
-18.2000334856798
30
0
41
1
10
121.395110399114
20
-18.2115740054124
30
0
41
1
10
121.41709834076
20
-18.2144970490828
30
0
41
1
10
121.461195242749
20
-18.2182769612085
30
0
41
1
10
121.483414166971
20
-18.2191543419787
30
0
41
1
10
121.528209570051
20
-18.2187877054504
30
0
41
1
10
121.55080962392
20
-18.2175183705074
30
0
41
1
10
121.594837444431
20
-18.2130015318614
30
0
41
1
10
121.616465765824
20
-18.2097594657247
30
0
41
1
10
121.659026791823
20
-18.2014929289494
30
0
41
1
10
121.680077746815
20
-18.1964283561946
30
0
41
1
10
121.720635806045
20
-18.1849533748234
30
0
41
1
10
121.740228825359
20
-18.1785381660658
30
0
41
1
10
121.797311675019
20
-18.1575985145991
30
0
41
1
10
121.833205493099
20
-18.1413543982081
30
0
41
1
10
121.901407664696
20
-18.1057134961007
30
0
41
1
10
121.933197190229
20
-18.0866025736857
30
0
41
1
10
122.023755137304
20
-18.0264536331666
30
0
41
1
10
122.077807876195
20
-17.9826468756173
30
0
41
1
10
122.178453953136
20
-17.8901219412535
30
0
41
1
10
122.224304508286
20
-17.8419574748247
30
0
41
1
10
122.352483964287
20
-17.6937963167363
30
0
41
1
10
122.425988652748
20
-17.5898223306018
30
0
41
1
10
122.55858334212
20
-17.3736191924874
30
0
41
1
10
122.617411435776
20
-17.2613238379055
30
0
41
1
10
122.69663548833
20
-17.0869054740989
30
0
41
1
10
122.721447847112
20
-17.0278914016609
30
0
41
1
10
122.76784030606
20
-16.9087204193433
30
0
41
1
10
122.789459893494
20
-16.8484748696081
30
0
41
1
10
122.849752188007
20
-16.6657544589374
30
0
41
1
10
122.883894430856
20
-16.5413005548871
30
0
41
1
10
122.939889690883
20
-16.2869672607413
30
0
41
1
10
122.961741878301
20
-16.157088555011
30
0
41
1
10
122.99178788175
20
-15.8915990660633
30
0
41
1
10
123
20
-15.7559914435447
30
0
41
1
10
123
20
-15.6172577194023
30
0
0
SPLINE
5
37A
100
AcDbEntity
8
1
62
256
6
ByLayer
370
18
48
1
60
0
100
AcDbSpline
70
4
71
3
72
14
73
10
40
0
40
0
40
0
40
0
40
0.25
40
0.25
40
0.5
40
0.5
40
0.75
40
0.75
40
1
40
1
40
1
40
1
41
1
10
120
20
-11.9332434780401
30
0
41
1
10
120
20
-11.9179972707378
30
0
41
1
10
120.001820108966
20
-11.9030282563128
30
0
41
1
10
120.009260069145
20
-11.873672120144
30
0
41
1
10
120.014978349156
20
-11.8591390677913
30
0
41
1
10
120.030878661151
20
-11.8326497513488
30
0
41
1
10
120.041211905488
20
-11.8203764615494
30
0
41
1
10
120.067400807683
20
-11.801777635373
30
0
41
1
10
120.083372990409
20
-11.7957880253939
30
0
41
1
10
120.099999999998
20
-11.7957880253933
30
0
0
SPLINE
5
37B
100
AcDbEntity
8
1
62
256
6
ByLayer
370
18
48
1
60
0
100
AcDbSpline
70
4
71
3
72
28
73
24
40
0
40
0
40
0
40
0
40
0.125000000000005
40
0.125000000000005
40
0.187500000000008
40
0.187500000000008
40
0.250000000000012
40
0.250000000000012
40
0.375000000000018
40
0.375000000000018
40
0.437500000000018
40
0.437500000000018
40
0.500000000000018
40
0.500000000000018
40
0.625000000000013
40
0.625000000000013
40
0.750000000000008
40
0.750000000000008
40
0.812500000000009
40
0.812500000000009
40
0.875000000000009
40
0.875000000000009
40
1
40
1
40
1
40
1
41
1
10
123.5
20
-18.5570145052674
30
0
41
1
10
123.567255491256
20
-18.5570145052674
30
0
41
1
10
123.633336756993
20
-18.5530700486477
30
0
41
1
10
123.730771799714
20
-18.5414537562999
30
0
41
1
10
123.762966804978
20
-18.5366236749729
30
0
41
1
10
123.826776391473
20
-18.524987349334
30
0
41
1
10
123.858355681134
20
-18.5181719987223
30
0
41
1
10
123.950066924657
20
-18.4952035477297
30
0
41
1
10
124.007946816316
20
-18.4764309480865
30
0
41
1
10
124.08991599279
20
-18.4429854802986
30
0
41
1
10
124.116560677828
20
-18.4308741231343
30
0
41
1
10
124.167236592679
20
-18.4052662090758
30
0
41
1
10
124.191323277087
20
-18.3917627698235
30
0
41
1
10
124.259945143215
20
-18.3491784379165
30
0
41
1
10
124.300925530798
20
-18.3179953707827
30
0
41
1
10
124.372829879757
20
-18.2499915348284
30
0
41
1
10
124.402715100456
20
-18.2141742204543
30
0
41
1
10
124.438957091794
20
-18.1577512931243
30
0
41
1
10
124.449596253316
20
-18.1384914416851
30
0
41
1
10
124.467956581523
20
-18.0990394332508
30
0
41
1
10
124.475665207138
20
-18.0788225750183
30
0
41
1
10
124.493969531198
20
-18.0179921779313
30
0
41
1
10
124.5
20
-17.9767968556903
30
0
41
1
10
124.5
20
-17.934951785943
30
0
0
SPLINE
5
37C
100
AcDbEntity
8
1
62
256
6
ByLayer
370
18
48
1
60
0
100
AcDbSpline
70
4
71
3
72
16
73
12
40
0
40
0
40
0
40
0
40
0.25
40
0.25
40
0.5
40
0.5
40
0.75
40
0.75
40
0.875
40
0.875
40
1
40
1
40
1
40
1
41
1
10
116.5
20
-24.9397887072992
30
0
41
1
10
116.455993904766
20
-24.9397887072992
30
0
41
1
10
116.412483392572
20
-24.9385716669221
30
0
41
1
10
116.326456769752
20
-24.9345607407863
30
0
41
1
10
116.283939762825
20
-24.9317415892977
30
0
41
1
10
116.200045984992
20
-24.9269921359193
30
0
41
1
10
116.158247929659
20
-24.9249294158724
30
0
41
1
10
116.099393982656
20
-24.9271605257847
30
0
41
1
10
116.080172098799
20
-24.928838904141
30
0
41
1
10
116.044304755444
20
-24.9357478015406
30
0
41
1
10
116.027681756118
20
-24.9408349129083
30
0
41
1
10
116.013183858229
20
-24.9494605741111
30
0
0
SPLINE
5
37D
100
AcDbEntity
8
1
62
256
6
ByLayer
370
18
48
1
60
0
100
AcDbSpline
70
4
71
3
72
20
73
16
40
0
40
0
40
0
40
0
40
0.0764120896009399
40
0.0764120896009399
40
0.15282417920188
40
0.15282417920188
40
0.305648358403762
40
0.305648358403762
40
0.458472537605643
40
0.458472537605643
40
0.611296716807525
40
0.611296716807525
40
0.916945075211321
40
0.916945075211321
40
1
40
1
40
1
40
1
41
1
10
115.5
20
-24.3434505550364
30
0
41
1
10
115.5
20
-24.3533369598977
30
0
41
1
10
115.50060371398
20
-24.3645887603345
30
0
41
1
10
115.503026475759
20
-24.3898410327158
30
0
41
1
10
115.504848184756
20
-24.4037798452458
30
0
41
1
10
115.511804829309
20
-24.4479578092602
30
0
41
1
10
115.518566238445
20
-24.4814087700383
30
0
41
1
10
115.534551147142
20
-24.550968440915
30
0
41
1
10
115.543767901129
20
-24.5872042131716
30
0
41
1
10
115.563942382331
20
-24.6617461226047
30
0
41
1
10
115.574850088712
20
-24.699829121444
30
0
41
1
10
115.608692870865
20
-24.813602132486
30
0
41
1
10
115.633003441513
20
-24.8898634596506
30
0
41
1
10
115.665268331895
20
-24.9871657208113
30
0
41
1
10
115.672226659877
20
-25.0079264233066
30
0
41
1
10
115.679240457446
20
-25.028650033825
30
0
0
SPLINE
5
37E
100
AcDbEntity
8
1
62
256
6
ByLayer
370
18
48
1
60
0
100
AcDbSpline
70
4
71
3
72
14
73
10
40
0
40
0
40
0
40
0
40
0.25
40
0.25
40
0.5
40
0.5
40
0.75
40
0.75
40
1
40
1
40
1
40
1
41
1
10
122.9
20
19.5020467612072
30
0
41
1
10
122.916623443973
20
19.5020467612072
30
0
41
1
10
122.932438542477
20
19.4995219188442
30
0
41
1
10
122.958706234766
20
19.4915960248956
30
0
41
1
10
122.969017615287
20
19.4863953676607
30
0
41
1
10
122.984985064477
20
19.4751349192901
30
0
41
1
10
122.990624247182
20
19.4691054958247
30
0
41
1
10
122.998182873859
20
19.4565958623531
30
0
41
1
10
123
20
19.450270492357
30
0
41
1
10
123
20
19.4438835787626
30
0
0
SPLINE
5
37F
100
AcDbEntity
8
1
62
256
6
ByLayer
370
18
48
1
60
0
100
AcDbSpline
70
4
71
3
72
28
73
24
40
0
40
0
40
0
40
0
40
0.0624999999999993
40
0.0624999999999993
40
0.124999999999999
40
0.124999999999999
40
0.250000000000003
40
0.250000000000003
40
0.312500000000003
40
0.312500000000003
40
0.375000000000003
40
0.375000000000003
40
0.499999999999992
40
0.499999999999992
40
0.624999999999982
40
0.624999999999982
40
0.687499999999986
40
0.687499999999986
40
0.749999999999991
40
0.749999999999991
40
0.874999999999995
40
0.874999999999995
40
1
40
1
40
1
40
1
41
1
10
115.5
20
-17.9349517859431
30
0
41
1
10
115.5
20
-17.9558811084492
30
0
41
1
10
115.501535686743
20
-17.9769163731316
30
0
41
1
10
115.507708195344
20
-18.0185084156783
30
0
41
1
10
115.512315379949
20
-18.038980974846
30
0
41
1
10
115.530607688747
20
-18.099460018612
30
0
41
1
10
115.54872252629
20
-18.1385340661958
30
0
41
1
10
115.585142691791
20
-18.1952888194958
30
0
41
1
10
115.598906186669
20
-18.2139612461079
30
0
41
1
10
115.629018785781
20
-18.2498938971408
30
0
41
1
10
115.645413614111
20
-18.2672460665358
30
0
41
1
10
115.698568592438
20
-18.317515591603
30
0
41
1
10
115.739259658604
20
-18.3486620118715
30
0
41
1
10
115.831809857268
20
-18.4061412058572
30
0
41
1
10
115.882313827435
20
-18.4316040311709
30
0
41
1
10
115.963686066932
20
-18.4648811333285
30
0
41
1
10
115.991782025771
20
-18.4751658687379
30
0
41
1
10
116.049970222692
20
-18.4941013347586
30
0
41
1
10
116.080227347526
20
-18.5027856105545
30
0
41
1
10
116.172142903541
20
-18.5258199688441
30
0
41
1
10
116.235320907886
20
-18.5373566603985
30
0
41
1
10
116.365448297755
20
-18.5529787413789
30
0
41
1
10
116.432749187549
20
-18.5570145052675
30
0
41
1
10
116.5
20
-18.5570145052675
30
0
0
SPLINE
5
380
100
AcDbEntity
8
1
62
256
6
ByLayer
370
18
48
1
60
0
100
AcDbSpline
70
4
71
3
72
14
73
10
40
0
40
0
40
0
40
0
40
0.25
40
0.25
40
0.5
40
0.5
40
0.75
40
0.75
40
1
40
1
40
1
40
1
41
1
10
122.9
20
-11.7957880254009
30
0
41
1
10
122.916623443973
20
-11.7957880254009
30
0
41
1
10
122.932438542477
20
-11.8016948536038
30
0
41
1
10
122.958706234766
20
-11.8202873057567
30
0
41
1
10
122.969017615287
20
-11.8325066763522
30
0
41
1
10
122.984985064477
20
-11.8590486519966
30
0
41
1
10
122.990624247182
20
-11.873297886996
30
0
41
1
10
122.998182873859
20
-11.9029590212874
30
0
41
1
10
123
20
-11.9180031409183
30
0
41
1
10
123
20
-11.9332434780401
30
0
0
SPLINE
5
381
100
AcDbEntity
8
1
62
256
6
ByLayer
370
18
48
1
60
0
100
AcDbSpline
70
4
71
3
72
14
73
10
40
0
40
0
40
0
40
0
40
0.25
40
0.25
40
0.5
40
0.5
40
0.75
40
0.75
40
1
40
1
40
1
40
1
41
1
10
120
20
19.4438835787626
30
0
41
1
10
120
20
19.4502729524295
30
0
41
1
10
120.001820108966
20
19.4565668562097
30
0
41
1
10
120.009260069145
20
19.4689474714236
30
0
41
1
10
120.014978349156
20
19.475096651808
30
0
41
1
10
120.030878661151
20
19.4863345773434
30
0
41
1
10
120.041211905488
20
19.4915580652713
30
0
41
1
10
120.067400807683
20
19.4994865825524
30
0
41
1
10
120.083372990409
20
19.5020467612098
30
0
41
1
10
120.099999999998
20
19.50204676121
30
0
0
SPLINE
5
382
100
AcDbEntity
8
1
62
256
6
ByLayer
370
18
48
1
60
0
100
AcDbSpline
70
4
71
3
72
28
73
24
40
0
40
0
40
0
40
0
40
0.125000000000005
40
0.125000000000005
40
0.187500000000008
40
0.187500000000008
40
0.250000000000011
40
0.250000000000011
40
0.375000000000011
40
0.375000000000011
40
0.437500000000011
40
0.437500000000011
40
0.50000000000001
40
0.50000000000001
40
0.625
40
0.625
40
0.749999999999989
40
0.749999999999989
40
0.812499999999988
40
0.812499999999988
40
0.874999999999988
40
0.874999999999988
40
1
40
1
40
1
40
1
41
1
10
123.5
20
18.4944246143589
30
0
41
1
10
123.567255491256
20
18.4944246143589
30
0
41
1
10
123.633336756993
20
18.4932298190276
30
0
41
1
10
123.730771799714
20
18.4897611270732
30
0
41
1
10
123.762966804978
20
18.4883240371452
30
0
41
1
10
123.826776391474
20
18.4848910760026
30
0
41
1
10
123.858355681134
20
18.4828928471791
30
0
41
1
10
123.950066924657
20
18.4762307403823
30
0
41
1
10
124.007946816316
20
18.4708672343417
30
0
41
1
10
124.08991599279
20
18.4616192995939
30
0
41
1
10
124.116560677828
20
18.4583151584495
30
0
41
1
10
124.167236592679
20
18.4514514096464
30
0
41
1
10
124.191323277087
20
18.4478892678785
30
0
41
1
10
124.259945143215
20
18.436873413647
30
0
41
1
10
124.300925530798
20
18.4290816190404
30
0
41
1
10
124.372829879757
20
18.4129145749124
30
0
41
1
10
124.402715100456
20
18.4047794188087
30
0
41
1
10
124.438957091794
20
18.3926631039266
30
0
41
1
10
124.449596253316
20
18.3886381042242
30
0
41
1
10
124.467956581523
20
18.3806370805282
30
0
41
1
10
124.475665207138
20
18.3766578585248
30
0
41
1
10
124.493969531198
20
18.3650593391045
30
0
41
1
10
124.5
20
18.3576955572797
30
0
41
1
10
124.5
20
18.3507208573907
30
0
0
SPLINE
5
383
100
AcDbEntity
8
1
62
256
6
ByLayer
370
18
48
1
60
0
100
AcDbSpline
70
4
71
3
72
28
73
24
40
0
40
0
40
0
40
0
40
0.0625000000000076
40
0.0625000000000076
40
0.125000000000015
40
0.125000000000015
40
0.250000000000025
40
0.250000000000025
40
0.312500000000031
40
0.312500000000031
40
0.375000000000036
40
0.375000000000036
40
0.500000000000046
40
0.500000000000046
40
0.625000000000057
40
0.625000000000057
40
0.687500000000047
40
0.687500000000047
40
0.750000000000038
40
0.750000000000038
40
0.875000000000019
40
0.875000000000019
40
1
40
1
40
1
40
1
41
1
10
115.5
20
18.3507208573907
30
0
41
1
10
115.5
20
18.3542093386919
30
0
41
1
10
115.501535686743
20
18.3578412760892
30
0
41
1
10
115.507708195344
20
18.3652743023254
30
0
41
1
10
115.512315379949
20
18.3690589171233
30
0
41
1
10
115.530607688747
20
18.3805976045597
30
0
41
1
10
115.54872252629
20
18.3885378716288
30
0
41
1
10
115.585142691791
20
18.4007232078533
30
0
41
1
10
115.598906186669
20
18.4048462515672
30
0
41
1
10
115.62901878578
20
18.412983476078
30
0
41
1
10
115.645413614111
20
18.4170165861334
30
0
41
1
10
115.698568592438
20
18.4289676246683
30
0
41
1
10
115.739259658604
20
18.4367409194091
30
0
41
1
10
115.831809857268
20
18.4516076385201
30
0
41
1
10
115.882313827435
20
18.4584740686589
30
0
41
1
10
115.963686066932
20
18.4676727263476
30
0
41
1
10
115.991782025771
20
18.4705592665265
30
0
41
1
10
116.049970222692
20
18.4759329668489
30
0
41
1
10
116.080227347526
20
18.4784300510157
30
0
41
1
10
116.172142903541
20
18.4851109821372
30
0
41
1
10
116.235320907886
20
18.4885380197397
30
0
41
1
10
116.365448297755
20
18.4932022511916
30
0
41
1
10
116.432749187549
20
18.4944246143589
30
0
41
1
10
116.5
20
18.4944246143589
30
0
0
SPLINE
5
384
100
AcDbEntity
8
1
62
256
6
ByLayer
370
18
48
1
60
0
100
AcDbSpline
70
4
71
3
72
18
73
14
40
0
40
0
40
0
40
0
40
0.125000000000002
40
0.125000000000002
40
0.250000000000004
40
0.250000000000004
40
0.375000000000006
40
0.375000000000006
40
0.500000000000007
40
0.500000000000007
40
0.750000000000004
40
0.750000000000004
40
1
40
1
40
1
40
1
41
1
10
123.986816141769
20
11.5884114786339
30
0
41
1
10
123.972324252848
20
11.6048584172929
30
0
41
1
10
123.955724769512
20
11.6178500119316
30
0
41
1
10
123.919935358631
20
11.6400623395245
30
0
41
1
10
123.90071952002
20
11.6491267063425
30
0
41
1
10
123.861650638975
20
11.6641140045506
30
0
41
1
10
123.841584532815
20
11.6701402876025
30
0
41
1
10
123.800575692727
20
11.6802223323894
30
0
41
1
10
123.779559939861
20
11.6842741788814
30
0
41
1
10
123.716336961839
20
11.694186460152
30
0
41
1
10
123.673685447682
20
11.6979660468409
30
0
41
1
10
123.587502617302
20
11.7027809646798
30
0
41
1
10
123.54397042595
20
11.7037873141627
30
0
41
1
10
123.500000000002
20
11.7037873141627
30
0
0
SPLINE
5
385
100
AcDbEntity
8
1
62
256
6
ByLayer
370
18
48
1
60
0
100
AcDbSpline
70
4
71
3
72
16
73
12
40
0
40
0
40
0
40
0
40
0.249999999999998
40
0.249999999999998
40
0.499999999999996
40
0.499999999999996
40
0.749999999999994
40
0.749999999999994
40
0.874999999999997
40
0.874999999999997
40
1
40
1
40
1
40
1
41
1
10
116.5
20
11.7037873141588
30
0
41
1
10
116.455994008383
20
11.7037873141588
30
0
41
1
10
116.4124835975
20
11.7027786986128
30
0
41
1
10
116.326457172504
20
11.697975508505
30
0
41
1
10
116.28394026211
20
11.6942069535685
30
0
41
1
10
116.200046670936
20
11.6810995539232
30
0
41
1
10
116.158248675585
20
11.671724523827
30
0
41
1
10
116.099394951232
20
11.6491820816715
30
0
41
1
10
116.080173244328
20
11.6401222857811
30
0
41
1
10
116.044305437324
20
11.6178761877231
30
0
41
1
10
116.02768212136
20
11.6048656514225
30
0
41
1
10
116.013183858229
20
11.5884114786322
30
0
0
SPLINE
5
386
100
AcDbEntity
8
1
62
256
6
ByLayer
370
18
48
1
60
0
100
AcDbSpline
70
4
71
3
72
29
73
25
40
0
40
0
40
0
40
0
40
0.124999999999988
40
0.124999999999988
40
0.187499999999978
40
0.187499999999978
40
0.249999999999967
40
0.249999999999967
40
0.374999999999959
40
0.374999999999959
40
0.437499999999956
40
0.437499999999956
40
0.499999999999952
40
0.499999999999952
40
0.624999999999944
40
0.624999999999944
40
0.687499999999954
40
0.687499999999954
40
0.749999999999964
40
0.812499999999973
40
0.812499999999973
40
0.874999999999983
40
0.874999999999983
40
1
40
1
40
1
40
1
41
1
10
116.351943502544
20
-0.343087606318704
30
0
41
1
10
116.349723358488
20
-0.36963867764689
30
0
41
1
10
116.352337484975
20
-0.396217528852503
30
0
41
1
10
116.363349538087
20
-0.436126552926737
30
0
41
1
10
116.368210146234
20
-0.449436398784201
30
0
41
1
10
116.380385121703
20
-0.476070190895939
30
0
41
1
10
116.387696915772
20
-0.4893557416097
30
0
41
1
10
116.412866216748
20
-0.528402895921943
30
0
41
1
10
116.434041766991
20
-0.553632541901209
30
0
41
1
10
116.472471045143
20
-0.590261206493096
30
0
41
1
10
116.486474735278
20
-0.602324153801362
30
0
41
1
10
116.516461640056
20
-0.625740950040438
30
0
41
1
10
116.532354230986
20
-0.637036452086249
30
0
41
1
10
116.582660570953
20
-0.669715886101244
30
0
41
1
10
116.619677932198
20
-0.689904205593905
30
0
41
1
10
116.680601875831
20
-0.717707898368644
30
0
41
1
10
116.701766625297
20
-0.726526251103735
30
0
41
1
10
116.744959672189
20
-0.74293575343745
30
0
41
1
10
116.789236973587
20
-0.758222196681743
30
0
41
1
10
116.835652532036
20
-0.77129385640319
30
0
41
1
10
116.883152615644
20
-0.783242176697115
30
0
41
1
10
116.90756522634
20
-0.788675899739189
30
0
41
1
10
116.981405581158
20
-0.803018740690845
30
0
41
1
10
117.031432570803
20
-0.810023458028695
30
0
41
1
10
117.082260338671
20
-0.814468787683836
30
0
0
SPLINE
5
387
100
AcDbEntity
8
1
62
256
6
ByLayer
370
18
48
1
60
0
100
AcDbSpline
70
4
71
3
72
28
73
24
40
0
40
0
40
0
40
0
40
0.125000000000023
40
0.125000000000023
40
0.187500000000035
40
0.187500000000035
40
0.250000000000046
40
0.250000000000046
40
0.375000000000116
40
0.375000000000116
40
0.437500000000127
40
0.437500000000127
40
0.500000000000139
40
0.500000000000139
40
0.625000000000108
40
0.625000000000108
40
0.687500000000092
40
0.687500000000092
40
0.750000000000077
40
0.750000000000077
40
0.875000000000038
40
0.875000000000038
40
1
40
1
40
1
40
1
41
1
10
119.883517218047
20
45.9279422684499
30
0
41
1
10
119.915580021466
20
45.9157569862064
30
0
41
1
10
119.948300298461
20
45.9065224900496
30
0
41
1
10
119.998537599411
20
45.8974052888045
30
0
41
1
10
120.015477986879
20
45.8951612377902
30
0
41
1
10
120.049805473017
20
45.892407306063
30
0
41
1
10
120.067241592636
20
45.8919087879397
30
0
41
1
10
120.119128240705
20
45.8932682826893
30
0
41
1
10
120.153516108895
20
45.8978905359349
30
0
41
1
10
120.204851933289
20
45.911318947437
30
0
41
1
10
120.221824725483
20
45.9168826634952
30
0
41
1
10
120.254635290873
20
45.9299369347335
30
0
41
1
10
120.27059732061
20
45.9374573031495
30
0
41
1
10
120.317146449256
20
45.9630199847501
30
0
41
1
10
120.346717835264
20
45.9844405210766
30
0
41
1
10
120.385983422738
20
46.02071693229
30
0
41
1
10
120.398319270761
20
46.0335296075676
30
0
41
1
10
120.421564546307
20
46.0605263868738
30
0
41
1
10
120.43252225228
20
46.0747932711911
30
0
41
1
10
120.462677231329
20
46.1186333849076
30
0
41
1
10
120.47940208299
20
46.1494120663166
30
0
41
1
10
120.507062479344
20
46.2137339688182
30
0
41
1
10
120.517976496538
20
46.2473973490241
30
0
41
1
10
120.525905977297
20
46.2816203220644
30
0
0
SPLINE
5
388
100
AcDbEntity
8
1
62
256
6
ByLayer
370
18
48
1
60
0
100
AcDbSpline
70
4
71
3
72
18
73
14
40
0
40
0
40
0
40
0
40
0.124999999999989
40
0.124999999999989
40
0.249999999999978
40
0.249999999999978
40
0.374999999999967
40
0.374999999999967
40
0.499999999999956
40
0.499999999999956
40
0.749999999999978
40
0.749999999999978
40
1
40
1
40
1
40
1
41
1
10
120.744118751827
20
46.4677376756806
30
0
41
1
10
120.731120764377
20
46.4677079078689
30
0
41
1
10
120.717930025491
20
46.4664388215401
30
0
41
1
10
120.69241303321
20
46.4615476119298
30
0
41
1
10
120.679994877355
20
46.457947381799
30
0
41
1
10
120.65582828463
20
46.4484825136785
30
0
41
1
10
120.644087431714
20
46.4425877511557
30
0
41
1
10
120.622155007972
20
46.4290351672655
30
0
41
1
10
120.611838627052
20
46.4213351249278
30
0
41
1
10
120.582795346555
20
46.3955398344161
30
0
41
1
10
120.566659272531
20
46.375381166127
30
0
41
1
10
120.540955112017
20
46.3306550935919
30
0
41
1
10
120.531717557172
20
46.3067026127462
30
0
41
1
10
120.525905977297
20
46.2816203220619
30
0
0
SPLINE
5
389
100
AcDbEntity
8
1
62
256
6
ByLayer
370
18
48
1
60
0
100
AcDbSpline
70
4
71
3
72
20
73
16
40
0
40
0
40
0
40
0
40
0.25
40
0.25
40
0.375
40
0.375
40
0.5
40
0.5
40
0.625
40
0.625
40
0.75
40
0.75
40
0.875
40
0.875
40
1
40
1
40
1
40
1
41
1
10
119.883517218047
20
45.9279422684499
30
0
41
1
10
119.859943058656
20
45.9369014908264
30
0
41
1
10
119.835678105817
20
45.9422960541851
30
0
41
1
10
119.79822678935
20
45.944599665327
30
0
41
1
10
119.785601457922
20
45.9443621176088
30
0
41
1
10
119.760902158222
20
45.94183454902
30
0
41
1
10
119.74871674376
20
45.9395563108259
30
0
41
1
10
119.72470506154
20
45.9328534846387
30
0
41
1
10
119.712763326665
20
45.9283606767326
30
0
41
1
10
119.690172117951
20
45.9173955703904
30
0
41
1
10
119.679453112548
20
45.9109292789673
30
0
41
1
10
119.659206353426
20
45.8959790597052
30
0
41
1
10
119.64958156881
20
45.8873790210902
30
0
41
1
10
119.632265092075
20
45.8686224128253
30
0
41
1
10
119.624545617033
20
45.8584894753288
30
0
41
1
10
119.617763682755
20
45.8476037415645
30
0
0
SPLINE
5
38A
100
AcDbEntity
8
1
62
256
6
ByLayer
370
18
48
1
60
0
100
AcDbSpline
70
4
71
3
72
28
73
24
40
0
40
0
40
0
40
0
40
0.125000000000049
40
0.125000000000049
40
0.187500000000063
40
0.187500000000063
40
0.250000000000078
40
0.250000000000078
40
0.375000000000106
40
0.375000000000106
40
0.437500000000103
40
0.437500000000103
40
0.5000000000001
40
0.5000000000001
40
0.625000000000134
40
0.625000000000134
40
0.687500000000127
40
0.687500000000127
40
0.750000000000119
40
0.750000000000119
40
0.875000000000059
40
0.875000000000059
40
1
40
1
40
1
40
1
41
1
10
120.968985183136
20
46.2826350559546
30
0
41
1
10
120.978291876386
20
46.2484736320492
30
0
41
1
10
120.990293482116
20
46.2153648617319
30
0
41
1
10
121.012576951895
20
46.1673257951909
30
0
41
1
10
121.020723492475
20
46.1515852590836
30
0
41
1
10
121.038574972511
20
46.120684441832
30
0
41
1
10
121.048316742234
20
46.1054885557746
30
0
41
1
10
121.079399544788
20
46.0618543943759
30
0
41
1
10
121.102738912315
20
46.0350118595412
30
0
41
1
10
121.142241488341
20
45.9986136712233
30
0
41
1
10
121.156104323726
20
45.9872121231934
30
0
41
1
10
121.184529508086
20
45.9664683609675
30
0
41
1
10
121.199185532591
20
45.9570365394083
30
0
41
1
10
121.24448737459
20
45.9315814743773
30
0
41
1
10
121.27691643357
20
45.9183369785416
30
0
41
1
10
121.325551864059
20
45.9051627281474
30
0
41
1
10
121.341840473206
20
45.9018210242189
30
0
41
1
10
121.374587608615
20
45.897125871324
30
0
41
1
10
121.391133551059
20
45.8957776285333
30
0
41
1
10
121.439997063687
20
45.8946303746251
30
0
41
1
10
121.471801543401
20
45.8976119655926
30
0
41
1
10
121.534331134507
20
45.910017587857
30
0
41
1
10
121.565133184785
20
45.9195268561613
30
0
41
1
10
121.594801183662
20
45.9318614274118
30
0
0
SPLINE
5
38B
100
AcDbEntity
8
1
62
256
6
ByLayer
370
18
48
1
60
0
100
AcDbSpline
70
4
71
3
72
20
73
16
40
0
40
0
40
0
40
0
40
0.249999999999958
40
0.249999999999958
40
0.374999999999965
40
0.374999999999965
40
0.499999999999972
40
0.499999999999972
40
0.624999999999979
40
0.624999999999979
40
0.749999999999986
40
0.749999999999986
40
0.874999999999993
40
0.874999999999993
40
1
40
1
40
1
40
1
41
1
10
120.968985183136
20
46.2826350559546
30
0
41
1
10
120.962142444696
20
46.3077522143503
30
0
41
1
10
120.952038874048
20
46.3315235100893
30
0
41
1
10
120.931563828804
20
46.3649510694993
30
0
41
1
10
120.923839358293
20
46.3756707055927
30
0
41
1
10
120.907044019666
20
46.3955272120224
30
0
41
1
10
120.897916280166
20
46.4047662060594
30
0
41
1
10
120.878111767635
20
46.421778336498
30
0
41
1
10
120.867310146719
20
46.4296138836073
30
0
41
1
10
120.844840251674
20
46.443109788525
30
0
41
1
10
120.833135549595
20
46.4488331107999
30
0
41
1
10
120.808759747135
20
46.4581725817202
30
0
41
1
10
120.79593495842
20
46.4618095888058
30
0
41
1
10
120.770134982758
20
46.4665887986367
30
0
41
1
10
120.757162942335
20
46.467767549306
30
0
41
1
10
120.744118751827
20
46.4677376756806
30
0
0
SPLINE
5
38C
100
AcDbEntity
8
1
62
256
6
ByLayer
370
18
48
1
60
0
100
AcDbSpline
70
4
71
3
72
18
73
14
40
0
40
0
40
0
40
0
40
0.125
40
0.125
40
0.249999999999999
40
0.249999999999999
40
0.374999999999999
40
0.374999999999999
40
0.5
40
0.5
40
0.75
40
0.75
40
1
40
1
40
1
40
1
41
1
10
121.841415387777
20
45.8526963180632
30
0
41
1
10
121.835166456075
20
45.8635149101616
30
0
41
1
10
121.827870416808
20
45.8738113680694
30
0
41
1
10
121.811884274682
20
45.8923853001274
30
0
41
1
10
121.803164659715
20
45.9007543101564
30
0
41
1
10
121.784305534423
20
45.9156877333047
30
0
41
1
10
121.774150819778
20
45.9222262724128
30
0
41
1
10
121.753236773733
20
45.9330406511182
30
0
41
1
10
121.742384915093
20
45.9373970353245
30
0
41
1
10
121.708695727387
20
45.9473868576147
30
0
41
1
10
121.685553902113
20
45.949716242729
30
0
41
1
10
121.639152933003
20
45.9464408197639
30
0
41
1
10
121.616545212835
20
45.9409015813577
30
0
41
1
10
121.59480118366
20
45.9318614274109
30
0
0
SPLINE
5
38D
100
AcDbEntity
8
1
62
256
6
ByLayer
370
18
48
1
60
0
100
AcDbSpline
70
4
71
3
72
16
73
12
40
0
40
0
40
0
40
0
40
0.25
40
0.25
40
0.5
40
0.5
40
0.75
40
0.75
40
0.875
40
0.875
40
1
40
1
40
1
40
1
41
1
10
119.636802627666
20
44.8525618248514
30
0
41
1
10
119.65969470207
20
44.868935689331
30
0
41
1
10
119.680688455309
20
44.8872508586036
30
0
41
1
10
119.718776452716
20
44.9281742717698
30
0
41
1
10
119.736007809026
20
44.9510026412942
30
0
41
1
10
119.765343107568
20
45.0009535421414
30
0
41
1
10
119.777329503666
20
45.0277610857303
30
0
41
1
10
119.790872455221
20
45.0712575827136
30
0
41
1
10
119.794652435486
20
45.0863940817388
30
0
41
1
10
119.800469112366
20
45.1172976737512
30
0
41
1
10
119.802525555963
20
45.1330942986729
30
0
41
1
10
119.803704106751
20
45.1492521865604
30
0
0
SPLINE
5
38E
100
AcDbEntity
8
1
62
256
6
ByLayer
370
18
48
1
60
0
100
AcDbSpline
70
4
71
3
72
14
73
10
40
0
40
0
40
0
40
0
40
0.25
40
0.25
40
0.5
40
0.5
40
0.75
40
0.75
40
1
40
1
40
1
40
1
41
1
10
119.804733979923
20
45.1930285970192
30
0
41
1
10
119.803916102229
20
45.2260557757476
30
0
41
1
10
119.799604500254
20
45.2589286339021
30
0
41
1
10
119.784647460239
20
45.3243442581227
30
0
41
1
10
119.773855608322
20
45.3570425665083
30
0
41
1
10
119.747355900852
20
45.4191191063317
30
0
41
1
10
119.731518257094
20
45.4490063549928
30
0
41
1
10
119.695377169632
20
45.506002431664
30
0
41
1
10
119.67532277204
20
45.5327531128025
30
0
41
1
10
119.653396225619
20
45.5578993117762
30
0
0
SPLINE
5
38F
100
AcDbEntity
8
1
62
256
6
ByLayer
370
18
48
1
60
0
100
AcDbSpline
70
4
71
3
72
18
73
14
40
0
40
0
40
0
40
0
40
0.125000000000021
40
0.125000000000021
40
0.250000000000042
40
0.250000000000042
40
0.375000000000063
40
0.375000000000063
40
0.500000000000084
40
0.500000000000084
40
0.750000000000042
40
0.750000000000042
40
1
40
1
40
1
40
1
41
1
10
119.617763682755
20
45.8476037415645
30
0
41
1
10
119.610997453997
20
45.8367432168482
30
0
41
1
10
119.605132954309
20
45.8250098272514
30
0
41
1
10
119.595758206217
20
45.8009126560169
30
0
41
1
10
119.592182026359
20
45.7884843821258
30
0
41
1
10
119.587206775395
20
45.7628813506261
30
0
41
1
10
119.585836259584
20
45.7496976691018
30
0
41
1
10
119.585320940483
20
45.7236016776297
30
0
41
1
10
119.586145181875
20
45.7105608047025
30
0
41
1
10
119.59177023551
20
45.6714567077046
30
0
41
1
10
119.599568080407
20
45.6463603675397
30
0
41
1
10
119.622053314602
20
45.5989958293108
30
0
41
1
10
119.63640880956
20
45.5773811278384
30
0
41
1
10
119.653396225619
20
45.5578993117762
30
0
0
SPLINE
5
390
100
AcDbEntity
8
1
62
256
6
ByLayer
370
18
48
1
60
0
100
AcDbSpline
70
4
71
3
72
16
73
12
40
0
40
0
40
0
40
0
40
0.396855452067124
40
0.396855452067124
40
0.595283178100685
40
0.595283178100685
40
0.793710904134247
40
0.793710904134247
40
0.992138630167809
40
0.992138630167809
40
1
40
1
40
1
40
1
41
1
10
119.636802627666
20
44.8525618248514
30
0
41
1
10
119.619013341872
20
44.8398377986386
30
0
41
1
10
119.603875802434
20
44.8246234662474
30
0
41
1
10
119.585553615148
20
44.7978554230331
30
0
41
1
10
119.580227358568
20
44.7882805356114
30
0
41
1
10
119.571542666336
20
44.7684324295058
30
0
41
1
10
119.568125777887
20
44.7580823782849
30
0
41
1
10
119.563264181974
20
44.7364976372035
30
0
41
1
10
119.561826905464
20
44.7251406802869
30
0
41
1
10
119.561501242893
20
44.7132910171882
30
0
41
1
10
119.561490540404
20
44.7128392985676
30
0
41
1
10
119.561481548008
20
44.7123874345532
30
0
0
SPLINE
5
391
100
AcDbEntity
8
1
62
256
6
ByLayer
370
18
48
1
60
0
100
AcDbSpline
70
4
71
3
72
20
73
16
40
0
40
0
40
0
40
0
40
0.25
40
0.25
40
0.375
40
0.375
40
0.5
40
0.5
40
0.625
40
0.625
40
0.75
40
0.75
40
0.875
40
0.875
40
1
40
1
40
1
40
1
41
1
10
121.807566629995
20
45.5628327631575
30
0
41
1
10
121.823315240988
20
45.5824390112055
30
0
41
1
10
121.836568547365
20
45.6040079621348
30
0
41
1
10
121.852286226104
20
45.6395597692218
30
0
41
1
10
121.856785685919
20
45.651923047399
30
0
41
1
10
121.863950161152
20
45.6768981196562
30
0
41
1
10
121.866665693443
20
45.6896135103544
30
0
41
1
10
121.870243316662
20
45.7155284783326
30
0
41
1
10
121.871093424511
20
45.7288656748148
30
0
41
1
10
121.870712800598
20
45.7550584170336
30
0
41
1
10
121.86951296468
20
45.7679822827802
30
0
41
1
10
121.865027878177
20
45.7934770401092
30
0
41
1
10
121.861684700951
20
45.8061876674419
30
0
41
1
10
121.853003762863
20
45.8303507591286
30
0
41
1
10
121.847694130449
20
45.841826115107
30
0
41
1
10
121.841415387777
20
45.8526963180632
30
0
0
SPLINE
5
392
100
AcDbEntity
8
1
62
256
6
ByLayer
370
18
48
1
60
0
100
AcDbSpline
70
4
71
3
72
16
73
12
40
0
40
0
40
0
40
0
40
0.249999999999994
40
0.249999999999994
40
0.499999999999988
40
0.499999999999988
40
0.749999999999982
40
0.749999999999982
40
0.874999999999991
40
0.874999999999991
40
1
40
1
40
1
40
1
41
1
10
121.807566629995
20
45.5628327631575
30
0
41
1
10
121.787300590155
20
45.5376025378242
30
0
41
1
10
121.768793850398
20
45.5108998594364
30
0
41
1
10
121.735327074815
20
45.4543912713418
30
0
41
1
10
121.720247887145
20
45.424304664489
30
0
41
1
10
121.694629430339
20
45.3618186309751
30
0
41
1
10
121.684190929247
20
45.3297907765314
30
0
41
1
10
121.672375628623
20
45.2804677377822
30
0
41
1
10
121.669073030952
20
45.2637212551833
30
0
41
1
10
121.663968722736
20
45.2304151837678
30
0
41
1
10
121.662149813587
20
45.2138174685557
30
0
41
1
10
121.661083818555
20
45.1972799838441
30
0
0
SPLINE
5
393
100
AcDbEntity
8
1
62
256
6
ByLayer
370
18
48
1
60
0
100
AcDbSpline
70
4
71
3
72
14
73
10
40
0
40
0
40
0
40
0
40
0.25
40
0.25
40
0.5
40
0.5
40
0.75
40
0.75
40
1
40
1
40
1
40
1
41
1
10
121.660053945383
20
45.1535035733853
30
0
41
1
10
121.660646990896
20
45.1212346462611
30
0
41
1
10
121.664239685385
20
45.090786319832
30
0
41
1
10
121.676919601272
20
45.0330503481422
30
0
41
1
10
121.686135331383
20
45.0056675461314
30
0
41
1
10
121.708943508329
20
44.9560407763373
30
0
41
1
10
121.722646937972
20
44.9333512129647
30
0
41
1
10
121.754120775841
20
44.8920955409143
30
0
41
1
10
121.771673834309
20
44.8737806824397
30
0
41
1
10
121.790973032042
20
44.8574952762327
30
0
0
SPLINE
5
394
100
AcDbEntity
8
1
62
256
6
ByLayer
370
18
48
1
60
0
100
AcDbSpline
70
4
71
3
72
14
73
10
40
0
40
0
40
0
40
0
40
0.0364861342112561
40
0.0364861342112561
40
0.229188907369005
40
0.229188907369005
40
0.614594453684503
40
0.614594453684503
40
1
40
1
40
1
40
1
41
1
10
121.846297476023
20
44.7125585704241
30
0
41
1
10
121.846516093301
20
44.7147317051751
30
0
41
1
10
121.846697362733
20
44.716894802876
30
0
41
1
10
121.847600800732
20
44.7303999180323
30
0
41
1
10
121.847349932453
20
44.7415070771907
30
0
41
1
10
121.843661578666
20
44.7740796102308
30
0
41
1
10
121.837395502222
20
44.7940100267063
30
0
41
1
10
121.818385878974
20
44.8296529885523
30
0
41
1
10
121.805924930768
20
44.844878288331
30
0
41
1
10
121.790973032042
20
44.8574952762326
30
0
0
SPLINE
5
395
100
AcDbEntity
8
1
62
256
6
ByLayer
370
18
48
1
60
0
100
AcDbSpline
70
4
71
3
72
8
73
4
40
0
40
0
40
0
40
0
40
1
40
1
40
1
40
1
41
1
10
124.600101020784
20
-5.42943675037628
30
0
41
1
10
124.733371264836
20
-4.01304345748116
30
0
41
1
10
124.866641508887
20
-2.59665016458604
30
0
41
1
10
124.999911752939
20
-1.18025687169086
30
0
0
SPLINE
5
396
100
AcDbEntity
8
1
62
256
6
ByLayer
370
18
48
1
60
0
100
AcDbSpline
70
4
71
3
72
14
73
10
40
0
40
0
40
0
40
0
40
0.0467526631623492
40
0.0467526631623492
40
0.364501775441566
40
0.364501775441566
40
0.682250887720783
40
0.682250887720783
40
1
40
1
40
1
40
1
41
1
10
124.504011336909
20
-5.51806456351744
30
0
41
1
10
124.506777188727
20
-5.51675224805064
30
0
41
1
10
124.509493112946
20
-5.51543181639192
30
0
41
1
10
124.530277717763
20
-5.50507385898607
30
0
41
1
10
124.546019657252
20
-5.49565825603804
30
0
41
1
10
124.571450247794
20
-5.47686269980017
30
0
41
1
10
124.58135813827
20
-5.46738424314412
30
0
41
1
10
124.595349896155
20
-5.44825996042988
30
0
41
1
10
124.599304721449
20
-5.43874796880874
30
0
41
1
10
124.600101020784
20
-5.42943675037651
30
0
0
SPLINE
5
397
100
AcDbEntity
8
1
62
256
6
ByLayer
370
18
48
1
60
0
100
AcDbSpline
70
4
71
3
72
18
73
14
40
0
40
0
40
0
40
0
40
0.124999999999963
40
0.124999999999963
40
0.249999999999927
40
0.249999999999927
40
0.37499999999989
40
0.37499999999989
40
0.499999999999853
40
0.499999999999853
40
0.749999999999927
40
0.749999999999927
40
1
40
1
40
1
40
1
41
1
10
119.588668710437
20
0.777074334993074
30
0
41
1
10
119.594917642139
20
0.773307706522019
30
0
41
1
10
119.602304030161
20
0.770067256669677
30
0
41
1
10
119.618643455798
20
0.764948569650983
30
0
41
1
10
119.627624439402
20
0.763032491751915
30
0
41
1
10
119.64717539125
20
0.760478615404281
30
0
41
1
10
119.657762670809
20
0.759857971597853
30
0
41
1
10
119.679678292069
20
0.759935611636195
30
0
41
1
10
119.691102241803
20
0.760617594922053
30
0
41
1
10
119.7267239899
20
0.764587982010369
30
0
41
1
10
119.751394212411
20
0.769692737847038
30
0
41
1
10
119.801263955619
20
0.784362797445624
30
0
41
1
10
119.82576265886
20
0.793712759249502
30
0
41
1
10
119.849538729358
20
0.804902779581198
30
0
0
SPLINE
5
398
100
AcDbEntity
8
1
62
256
6
ByLayer
370
18
48
1
60
0
100
AcDbSpline
70
4
71
3
72
20
73
16
40
0
40
0
40
0
40
0
40
0.250000000000095
40
0.250000000000095
40
0.375000000000079
40
0.375000000000079
40
0.500000000000064
40
0.500000000000064
40
0.625000000000048
40
0.625000000000048
40
0.750000000000032
40
0.750000000000032
40
0.875000000000016
40
0.875000000000016
40
1
40
1
40
1
40
1
41
1
10
121.560822694971
20
0.655236137117583
30
0
41
1
10
121.58235964713
20
0.640049365554262
30
0
41
1
10
121.604743873346
20
0.626663667381649
30
0
41
1
10
121.639596005596
20
0.609350621476153
30
0
41
1
10
121.651396128166
20
0.604077173222379
30
0
41
1
10
121.674578324677
20
0.594872547995749
30
0
41
1
10
121.686063897065
20
0.590887293629635
30
0
41
1
10
121.708794514761
20
0.584194671044997
30
0
41
1
10
121.720150427148
20
0.581473817388826
30
0
41
1
10
121.741736703241
20
0.577589237268626
30
0
41
1
10
121.752031797277
20
0.576392978333672
30
0
41
1
10
121.771587870048
20
0.575510922782314
30
0
41
1
10
121.780944341522
20
0.575843201176156
30
0
41
1
10
121.797907106382
20
0.578078718286633
30
0
41
1
10
121.80553848118
20
0.579958631481531
30
0
41
1
10
121.812320415458
20
0.582596684651776
30
0
0
SPLINE
5
399
100
AcDbEntity
8
1
62
256
6
ByLayer
370
18
48
1
60
0
100
AcDbSpline
70
4
71
3
72
16
73
12
40
0
40
0
40
0
40
0
40
0.25
40
0.25
40
0.5
40
0.5
40
0.75
40
0.75
40
0.875
40
0.875
40
1
40
1
40
1
40
1
41
1
10
119.636802627666
20
0.933500882503665
30
0
41
1
10
119.65969470207
20
0.952679416287765
30
0
41
1
10
119.680688455309
20
0.971737871252401
30
0
41
1
10
119.718776452716
20
1.00928081490002
30
0
41
1
10
119.736007809026
20
1.02793033116029
30
0
41
1
10
119.765343107568
20
1.06330460878632
30
0
41
1
10
119.777329503666
20
1.07984177121671
30
0
41
1
10
119.790872455221
20
1.10232031719295
30
0
41
1
10
119.794652435486
20
1.10945494409884
30
0
41
1
10
119.800469112366
20
1.12255803906129
30
0
41
1
10
119.802525555963
20
1.12854939124247
30
0
41
1
10
119.803704106751
20
1.13394837117784
30
0
0
SPLINE
5
39A
100
AcDbEntity
8
1
62
256
6
ByLayer
370
18
48
1
60
0
100
AcDbSpline
70
4
71
3
72
14
73
10
40
0
40
0
40
0
40
0
40
0.25
40
0.25
40
0.5
40
0.5
40
0.75
40
0.75
40
1
40
1
40
1
40
1
41
1
10
119.804733979923
20
1.14687023623253
30
0
41
1
10
119.803916102229
20
1.15536168867055
30
0
41
1
10
119.799604500254
20
1.16104297267549
30
0
41
1
10
119.784647460239
20
1.16764673597271
30
0
41
1
10
119.773855608322
20
1.16851701853017
30
0
41
1
10
119.747355900852
20
1.16635061359568
30
0
41
1
10
119.731518257094
20
1.16335973741644
30
0
41
1
10
119.695377169632
20
1.15446577783092
30
0
41
1
10
119.67532277204
20
1.1486313761468
30
0
41
1
10
119.653396225619
20
1.14170150307905
30
0
0
SPLINE
5
39B
100
AcDbEntity
8
1
62
256
6
ByLayer
370
18
48
1
60
0
100
AcDbSpline
70
4
71
3
72
20
73
16
40
0
40
0
40
0
40
0
40
0.25
40
0.25
40
0.375
40
0.375
40
0.5
40
0.5
40
0.625
40
0.625
40
0.75
40
0.75
40
0.875
40
0.875
40
1
40
1
40
1
40
1
41
1
10
119.636802627666
20
0.933500882503665
30
0
41
1
10
119.619013341872
20
0.918597365567109
30
0
41
1
10
119.603875802434
20
0.903692653208282
30
0
41
1
10
119.585553615148
20
0.881155490720914
30
0
41
1
10
119.580227358568
20
0.873637645935844
30
0
41
1
10
119.571542666336
20
0.859050287586626
30
0
41
1
10
119.568125777887
20
0.851913740661075
30
0
41
1
10
119.563264181974
20
0.837942199051952
30
0
41
1
10
119.561826905464
20
0.831041899477725
30
0
41
1
10
119.561200401351
20
0.818058436097829
30
0
41
1
10
119.561975334329
20
0.811932338899851
30
0
41
1
10
119.565768047109
20
0.800408495209695
30
0
41
1
10
119.568842236461
20
0.794956327411057
30
0
41
1
10
119.577168667206
20
0.785190918983915
30
0
41
1
10
119.582389967765
20
0.780858932431386
30
0
41
1
10
119.588668710437
20
0.777074334993074
30
0
0
SPLINE
5
39C
100
AcDbEntity
8
1
62
256
6
ByLayer
370
18
48
1
60
0
100
AcDbSpline
70
4
71
3
72
16
73
12
40
0
40
0
40
0
40
0
40
0.249999999999994
40
0.249999999999994
40
0.499999999999988
40
0.499999999999988
40
0.749999999999982
40
0.749999999999982
40
0.874999999999991
40
0.874999999999991
40
1
40
1
40
1
40
1
41
1
10
121.807566629995
20
0.95330059580931
30
0
41
1
10
121.787300590155
20
0.963916151634123
30
0
41
1
10
121.768793850398
20
0.973074500648465
30
0
41
1
10
121.735327074815
20
0.987962358552352
30
0
41
1
10
121.720247887145
20
0.993730611276305
30
0
41
1
10
121.694629430339
20
1.00052634818576
30
0
41
1
10
121.684190929248
20
1.00155107285116
30
0
41
1
10
121.672375628623
20
0.998673863175043
30
0
41
1
10
121.669073030952
20
0.996955455826424
30
0
41
1
10
121.663968722736
20
0.991934651976749
30
0
41
1
10
121.662149813587
20
0.988638284371575
30
0
41
1
10
121.661083818555
20
0.984516323516232
30
0
0
SPLINE
5
39D
100
AcDbEntity
8
1
62
256
6
ByLayer
370
18
48
1
60
0
100
AcDbSpline
70
4
71
3
72
14
73
10
40
0
40
0
40
0
40
0
40
0.25
40
0.25
40
0.5
40
0.5
40
0.75
40
0.75
40
1
40
1
40
1
40
1
41
1
10
121.660053945383
20
0.971594458461482
30
0
41
1
10
121.660646990896
20
0.960552137036416
30
0
41
1
10
121.664239685385
20
0.946714374689805
30
0
41
1
10
121.676919601272
20
0.914275140204495
30
0
41
1
10
121.686135331383
20
0.895522718937514
30
0
41
1
10
121.708943508329
20
0.855806281698733
30
0
41
1
10
121.722646937972
20
0.834583094787661
30
0
41
1
10
121.754120775841
20
0.79052403749597
30
0
41
1
10
121.771673834309
20
0.767979101376795
30
0
41
1
10
121.790973032042
20
0.745099975233984
30
0
0
SPLINE
5
39E
100
AcDbEntity
8
1
62
256
6
ByLayer
370
18
48
1
60
0
100
AcDbSpline
70
4
71
3
72
18
73
14
40
0
40
0
40
0
40
0
40
0.125
40
0.125
40
0.25
40
0.25
40
0.375
40
0.375
40
0.5
40
0.5
40
0.75
40
0.75
40
1
40
1
40
1
40
1
41
1
10
121.812320415458
20
0.582596684651776
30
0
41
1
10
121.819086644217
20
0.585228628651009
30
0
41
1
10
121.825041690111
20
0.588663788579822
30
0
41
1
10
121.834770606718
20
0.596816446481341
30
0
41
1
10
121.838608794727
20
0.601539027138472
30
0
41
1
10
121.844277445936
20
0.612266490176694
30
0
41
1
10
121.846081573561
20
0.61828792369073
30
0
41
1
10
121.847600800732
20
0.631147149407354
30
0
41
1
10
121.847349932453
20
0.638036205479011
30
0
41
1
10
121.843661578666
20
0.660086232250819
30
0
41
1
10
121.837395502222
20
0.676087638616252
30
0
41
1
10
121.818385878974
20
0.709969935798313
30
0
41
1
10
121.805924930768
20
0.727374555672611
30
0
41
1
10
121.790973032042
20
0.745099975233813
30
0
0
SPLINE
5
39F
100
AcDbEntity
8
1
62
256
6
ByLayer
370
18
48
1
60
0
100
AcDbSpline
70
4
71
3
72
20
73
16
40
0
40
0
40
0
40
0
40
0.25
40
0.25
40
0.375
40
0.375
40
0.5
40
0.5
40
0.625
40
0.625
40
0.75
40
0.75
40
0.875
40
0.875
40
1
40
1
40
1
40
1
41
1
10
121.807566629995
20
0.953300595809367
30
0
41
1
10
121.823315240988
20
0.94505131472215
30
0
41
1
10
121.836568547365
20
0.93857816350004
30
0
41
1
10
121.852286226104
20
0.931565463210973
30
0
41
1
10
121.856785685919
20
0.929702754808716
30
0
41
1
10
121.863950161152
20
0.927042251257717
30
0
41
1
10
121.866665693443
20
0.926221451197705
30
0
41
1
10
121.870243316662
20
0.925625477963763
30
0
41
1
10
121.871093424511
20
0.925863962822234
30
0
41
1
10
121.870712800598
20
0.927420896235617
30
0
41
1
10
121.86951296468
20
0.928726190059763
30
0
41
1
10
121.865027878177
20
0.932394598405722
30
0
41
1
10
121.861684700951
20
0.934794921817627
30
0
41
1
10
121.853003762863
20
0.940538211244245
30
0
41
1
10
121.847694130449
20
0.943868014784471
30
0
41
1
10
121.841415387777
20
0.947652612222782
30
0
0
SPLINE
5
3A0
100
AcDbEntity
8
1
62
256
6
ByLayer
370
18
48
1
60
0
100
AcDbSpline
70
4
71
3
72
18
73
14
40
0
40
0
40
0
40
0
40
0.125000000000021
40
0.125000000000021
40
0.250000000000042
40
0.250000000000042
40
0.375000000000063
40
0.375000000000063
40
0.500000000000084
40
0.500000000000084
40
0.750000000000042
40
0.750000000000042
40
1
40
1
40
1
40
1
41
1
10
119.617763682755
20
1.14213026256408
30
0
41
1
10
119.610997453997
20
1.13949831856485
30
0
41
1
10
119.605132954309
20
1.13709046491306
30
0
41
1
10
119.595758206217
20
1.13295608180391
30
0
41
1
10
119.592182026359
20
1.13120615596773
30
0
41
1
10
119.587206775395
20
1.12834577485381
30
0
41
1
10
119.585836259584
20
1.12724395259397
30
0
41
1
10
119.585320940483
20
1.12577472434134
30
0
41
1
10
119.586145181875
20
1.12539096341948
30
0
41
1
10
119.59177023551
20
1.1253140704282
30
0
41
1
10
119.599568080407
20
1.12669158480202
30
0
41
1
10
119.622053314602
20
1.13224238015971
30
0
41
1
10
119.63640880956
20
1.13633263947537
30
0
41
1
10
119.653396225619
20
1.14170150307905
30
0
0
SPLINE
5
3A1
100
AcDbEntity
8
1
62
256
6
ByLayer
370
18
48
1
60
0
100
AcDbSpline
70
4
71
3
72
8
73
4
40
0
40
0
40
0
40
0
40
1
40
1
40
1
40
1
41
1
10
119.630084926468
20
1.14680675809143
30
0
41
1
10
119.62568165859
20
1.1451712911279
30
0
41
1
10
119.621574649662
20
1.14361266167293
30
0
41
1
10
119.617763682755
20
1.14213026256408
30
0
0
SPLINE
5
3A2
100
AcDbEntity
8
1
62
256
6
ByLayer
370
18
48
1
60
0
100
AcDbSpline
70
4
71
3
72
10
73
6
40
0
40
0
40
0
40
0
40
0.812017346915622
40
0.812017346915622
40
1
40
1
40
1
40
1
41
1
10
124.999911752939
20
-35.6300182754187
30
0
41
1
10
124.999909388748
20
-35.6670131233846
30
0
41
1
10
124.995105579782
20
-35.7037507293205
30
0
41
1
10
124.983407612696
20
-35.7486833397529
30
0
41
1
10
124.980955245388
20
-35.757116317472
30
0
41
1
10
124.978245882561
20
-35.7655355264085
30
0
0
SPLINE
5
3A3
100
AcDbEntity
8
1
62
256
6
ByLayer
370
18
48
1
60
0
100
AcDbSpline
70
4
71
3
72
20
73
16
40
0
40
0
40
0
40
0
40
0.250000000000089
40
0.250000000000089
40
0.375000000000074
40
0.375000000000074
40
0.500000000000059
40
0.500000000000059
40
0.625000000000044
40
0.625000000000044
40
0.75000000000003
40
0.75000000000003
40
0.875000000000015
40
0.875000000000015
40
1
40
1
40
1
40
1
41
1
10
120.475354729882
20
31.6630635812805
30
0
41
1
10
120.480160262666
20
31.6370691446457
30
0
41
1
10
120.48838310661
20
31.6123002193037
30
0
41
1
10
120.506258965856
20
31.5771356674115
30
0
41
1
10
120.513158228346
20
31.5657971140091
30
0
41
1
10
120.528436464175
20
31.5446533960953
30
0
41
1
10
120.536864361464
20
31.5347411469805
30
0
41
1
10
120.555387808779
20
31.5163119344114
30
0
41
1
10
120.565603607008
20
31.5077242328005
30
0
41
1
10
120.587068569903
20
31.4926969939884
30
0
41
1
10
120.598349360559
20
31.4861914703324
30
0
41
1
10
120.622034476366
20
31.4752480956486
30
0
41
1
10
120.634590951794
20
31.4707796241086
30
0
41
1
10
120.660037215767
20
31.4643487725892
30
0
41
1
10
120.672921155878
20
31.4623497104756
30
0
41
1
10
120.685965346387
20
31.4615641472966
30
0
0
SPLINE
5
3A4
100
AcDbEntity
8
1
62
256
6
ByLayer
370
18
48
1
60
0
100
AcDbSpline
70
4
71
3
72
28
73
24
40
0
40
0
40
0
40
0
40
0.124999999999984
40
0.124999999999984
40
0.187499999999976
40
0.187499999999976
40
0.249999999999968
40
0.249999999999968
40
0.374999999999977
40
0.374999999999977
40
0.437499999999964
40
0.437499999999964
40
0.499999999999951
40
0.499999999999951
40
0.624999999999928
40
0.624999999999928
40
0.687499999999939
40
0.687499999999939
40
0.74999999999995
40
0.74999999999995
40
0.874999999999975
40
0.874999999999975
40
1
40
1
40
1
40
1
41
1
10
120.475354729882
20
31.6630635812805
30
0
41
1
10
120.468818805717
20
31.6984181765365
30
0
41
1
10
120.459432930364
20
31.7327827368827
30
0
41
1
10
120.440772709597
20
31.7827339001699
30
0
41
1
10
120.433783303744
20
31.7991163194704
30
0
41
1
10
120.418124462952
20
31.8312950792254
30
0
41
1
10
120.409419965074
20
31.8471285685231
30
0
41
1
10
120.381161971298
20
31.8925967025341
30
0
41
1
10
120.359351648397
20
31.9205713449825
30
0
41
1
10
120.321448324555
20
31.9584058300273
30
0
41
1
10
120.307996565908
20
31.9702385428534
30
0
41
1
10
120.280117152504
20
31.9917155651141
30
0
41
1
10
120.265599965698
20
32.0014530511666
30
0
41
1
10
120.220305310162
20
32.0276351875909
30
0
41
1
10
120.187310927845
20
32.0411038704147
30
0
41
1
10
120.137095131204
20
32.0542585291854
30
0
41
1
10
120.120160822568
20
32.057537740292
30
0
41
1
10
120.085907645452
20
32.0620165699077
30
0
41
1
10
120.068495626392
20
32.0632097447418
30
0
41
1
10
120.016803980081
20
32.063797866521
30
0
41
1
10
119.982804269604
20
32.0603208400423
30
0
41
1
10
119.91543626909
20
32.0468340042649
30
0
41
1
10
119.881979287046
20
32.0367362173213
30
0
41
1
10
119.849538729358
20
32.0238301417887
30
0
0
SPLINE
5
3A5
100
AcDbEntity
8
1
62
256
6
ByLayer
370
18
48
1
60
0
100
AcDbSpline
70
4
71
3
72
18
73
14
40
0
40
0
40
0
40
0
40
0.124999999999973
40
0.124999999999973
40
0.249999999999946
40
0.249999999999946
40
0.37499999999992
40
0.37499999999992
40
0.499999999999893
40
0.499999999999893
40
0.749999999999946
40
0.749999999999946
40
1
40
1
40
1
40
1
41
1
10
119.588668710437
20
32.0941269658845
30
0
41
1
10
119.594917642139
20
32.0838136575148
30
0
41
1
10
119.602304030161
20
32.0740261605303
30
0
41
1
10
119.618643455798
20
32.0564304618627
30
0
41
1
10
119.627624439402
20
32.04853451188
30
0
41
1
10
119.64717539125
20
32.0345193017977
30
0
41
1
10
119.657762670808
20
32.028425442935
30
0
41
1
10
119.679678292069
20
32.0184449321638
30
0
41
1
10
119.691102241803
20
32.0144824535101
30
0
41
1
10
119.7267239899
20
32.0056174283957
30
0
41
1
10
119.751394212411
20
32.0039350916323
30
0
41
1
10
119.801263955619
20
32.0083523619611
30
0
41
1
10
119.82576265886
20
32.0143711255573
30
0
41
1
10
119.849538729358
20
32.0238301417887
30
0
0
SPLINE
5
3A6
100
AcDbEntity
8
1
62
256
6
ByLayer
370
18
48
1
60
0
100
AcDbSpline
70
4
71
3
72
28
73
24
40
0
40
0
40
0
40
0
40
0.124999999999988
40
0.124999999999988
40
0.187499999999967
40
0.187499999999967
40
0.249999999999946
40
0.249999999999946
40
0.374999999999953
40
0.374999999999953
40
0.437499999999957
40
0.437499999999957
40
0.49999999999996
40
0.49999999999996
40
0.624999999999971
40
0.624999999999971
40
0.687499999999976
40
0.687499999999976
40
0.749999999999982
40
0.749999999999982
40
0.874999999999991
40
0.874999999999991
40
1
40
1
40
1
40
1
41
1
10
121.560822694971
20
31.9207711078632
30
0
41
1
10
121.531530661611
20
31.9373853319603
30
0
41
1
10
121.501426115329
20
31.9511413898932
30
0
41
1
10
121.454812063151
20
31.9671318808225
30
0
41
1
10
121.439028810205
20
31.9716820974281
30
0
41
1
10
121.406893962711
20
31.9790686849472
30
0
41
1
10
121.390495115098
20
31.9818998820713
30
0
41
1
10
121.341433276283
20
31.9873921001779
30
0
41
1
10
121.308574452389
20
31.9871928085332
30
0
41
1
10
121.258837879592
20
31.9800590535428
30
0
41
1
10
121.242276164394
20
31.976523424804
30
0
41
1
10
121.210011369927
20
31.967270964696
30
0
41
1
10
121.194188177778
20
31.9615396720744
30
0
41
1
10
121.147646235308
20
31.9410011752936
30
0
41
1
10
121.117509525925
20
31.9224936653106
30
0
41
1
10
121.076663572004
20
31.8897034695093
30
0
41
1
10
121.063682024439
20
31.8779179831898
30
0
41
1
10
121.038930707292
20
31.8527337402144
30
0
41
1
10
121.027106924754
20
31.8392549421145
30
0
41
1
10
120.994123811489
20
31.7974103456485
30
0
41
1
10
120.97520372894
20
31.7674953397622
30
0
41
1
10
120.942704923745
20
31.7042127270689
30
0
41
1
10
120.929135974918
20
31.670718971203
30
0
41
1
10
120.918433935721
20
31.636379923966
30
0
0
SPLINE
5
3A7
100
AcDbEntity
8
1
62
256
6
ByLayer
370
18
48
1
60
0
100
AcDbSpline
70
4
71
3
72
18
73
14
40
0
40
0
40
0
40
0
40
0.125
40
0.125
40
0.25
40
0.25
40
0.375
40
0.375
40
0.5
40
0.5
40
0.75
40
0.75
40
1
40
1
40
1
40
1
41
1
10
120.685965346387
20
31.4615641472966
30
0
41
1
10
120.698963333836
20
31.4607813666148
30
0
41
1
10
120.712244394304
20
31.4612354807142
30
0
41
1
10
120.738114699321
20
31.4645702953605
30
0
41
1
10
120.750794233829
20
31.4674231846187
30
0
41
1
10
120.775652536588
20
31.4754574993704
30
0
41
1
10
120.787825998967
20
31.480669857659
30
0
41
1
10
120.81076003703
20
31.492977640419
30
0
41
1
10
120.821648478745
20
31.5001078076623
30
0
41
1
10
120.852623938233
20
31.52435739727
30
0
41
1
10
120.87028885921
20
31.543740443746
30
0
41
1
10
120.899461106775
20
31.5874692794115
30
0
41
1
10
120.910590325591
20
31.6112125615743
30
0
41
1
10
120.918433935721
20
31.636379923966
30
0
0
SPLINE
5
3A8
100
AcDbEntity
8
1
62
256
6
ByLayer
370
18
48
1
60
0
100
AcDbSpline
70
4
71
3
72
20
73
16
40
0
40
0
40
0
40
0
40
0.250000000000077
40
0.250000000000077
40
0.375000000000064
40
0.375000000000064
40
0.500000000000051
40
0.500000000000051
40
0.625000000000039
40
0.625000000000039
40
0.750000000000026
40
0.750000000000026
40
0.875000000000013
40
0.875000000000013
40
1
40
1
40
1
40
1
41
1
10
121.560822694971
20
31.9207711078632
30
0
41
1
10
121.58235964713
20
31.9085555083125
30
0
41
1
10
121.604743873346
20
31.8997608899682
30
0
41
1
10
121.639596005596
20
31.8920881806382
30
0
41
1
10
121.651396128166
20
31.8904951644975
30
0
41
1
10
121.674578324677
20
31.889391659396
30
0
41
1
10
121.686063897065
20
31.8898535535808
30
0
41
1
10
121.708794514761
20
31.8929157662101
30
0
41
1
10
121.720150427148
20
31.8955657576357
30
0
41
1
10
121.741736703241
20
31.9029689423111
30
0
41
1
10
121.752031797277
20
31.9077063336964
30
0
41
1
10
121.771587870048
20
31.9193011305921
30
0
41
1
10
121.780944341522
20
31.9262570878815
30
0
41
1
10
121.797907106382
20
31.9419442706711
30
0
41
1
10
121.80553848118
20
31.9506487344662
30
0
41
1
10
121.812320415458
20
31.960211495915
30
0
0
SPLINE
5
3A9
100
AcDbEntity
8
1
62
256
6
ByLayer
370
18
48
1
60
0
100
AcDbSpline
70
4
71
3
72
16
73
12
40
0
40
0
40
0
40
0
40
0.249999999999998
40
0.249999999999998
40
0.499999999999996
40
0.499999999999996
40
0.749999999999994
40
0.749999999999994
40
0.874999999999997
40
0.874999999999997
40
1
40
1
40
1
40
1
41
1
10
119.636802627666
20
32.3756354242032
30
0
41
1
10
119.65969470207
20
32.400774766103
30
0
41
1
10
119.680688455309
20
32.4272019092386
30
0
41
1
10
119.718776452716
20
32.4826860022367
30
0
41
1
10
119.736007809026
20
32.5120152965442
30
0
41
1
10
119.765343107568
20
32.5723493088487
30
0
41
1
10
119.777329503666
20
32.6029986444035
30
0
41
1
10
119.790872455221
20
32.6496500446692
30
0
41
1
10
119.794652435486
20
32.6653981088397
30
0
41
1
10
119.800469112366
20
32.6965155356172
30
0
41
1
10
119.802525555963
20
32.711921961975
30
0
41
1
10
119.803704106751
20
32.7271649693937
30
0
0
SPLINE
5
3AA
100
AcDbEntity
8
1
62
256
6
ByLayer
370
18
48
1
60
0
100
AcDbSpline
70
4
71
3
72
14
73
10
40
0
40
0
40
0
40
0
40
0.25
40
0.25
40
0.5
40
0.5
40
0.75
40
0.75
40
1
40
1
40
1
40
1
41
1
10
119.804733979923
20
32.7672567044909
30
0
41
1
10
119.803916102229
20
32.7966148101342
30
0
41
1
10
119.799604500254
20
32.823876705498
30
0
41
1
10
119.784647460239
20
32.8748021027887
30
0
41
1
10
119.773855608322
20
32.8985386810794
30
0
41
1
10
119.747355900852
20
32.9409015437212
30
0
41
1
10
119.731518257094
20
32.9599201510924
30
0
41
1
10
119.695377169632
20
32.9939334842731
30
0
41
1
10
119.67532277204
20
33.0087235273125
30
0
41
1
10
119.653396225619
20
33.0216044148889
30
0
0
SPLINE
5
3AB
100
AcDbEntity
8
1
62
256
6
ByLayer
370
18
48
1
60
0
100
AcDbSpline
70
4
71
3
72
20
73
16
40
0
40
0
40
0
40
0
40
0.249999999999998
40
0.249999999999998
40
0.374999999999998
40
0.374999999999998
40
0.499999999999999
40
0.499999999999999
40
0.624999999999999
40
0.624999999999999
40
0.749999999999999
40
0.749999999999999
40
0.875
40
0.875
40
1
40
1
40
1
40
1
41
1
10
119.636802627666
20
32.3756354242032
30
0
41
1
10
119.619013341872
20
32.3560998010948
30
0
41
1
10
119.603875802434
20
32.3348024203093
30
0
41
1
10
119.585553615148
20
32.2999383750098
30
0
41
1
10
119.580227358568
20
32.2878519881573
30
0
41
1
10
119.571542666336
20
32.263502437728
30
0
41
1
10
119.568125777887
20
32.2511375455988
30
0
41
1
10
119.563264181974
20
32.2259954569945
30
0
41
1
10
119.561826905464
20
32.213085627124
30
0
41
1
10
119.561200401351
20
32.1877855985092
30
0
41
1
10
119.561975334329
20
32.1753285208418
30
0
41
1
10
119.565768047109
20
32.1508035438994
30
0
41
1
10
119.568842236461
20
32.1386019727152
30
0
41
1
10
119.577168667206
20
32.1154563057734
30
0
41
1
10
119.582389967765
20
32.1044894746204
30
0
41
1
10
119.588668710437
20
32.0941269658845
30
0
0
SPLINE
5
3AC
100
AcDbEntity
8
1
62
256
6
ByLayer
370
18
48
1
60
0
100
AcDbSpline
70
4
71
3
72
18
73
14
40
0
40
0
40
0
40
0
40
0.125000000000016
40
0.125000000000016
40
0.250000000000032
40
0.250000000000032
40
0.375000000000049
40
0.375000000000049
40
0.500000000000065
40
0.500000000000065
40
0.750000000000032
40
0.750000000000032
40
1
40
1
40
1
40
1
41
1
10
119.617763682755
20
33.2267595604714
30
0
41
1
10
119.610997453997
20
33.2172189443477
30
0
41
1
10
119.605132954309
20
33.2072195753523
30
0
41
1
10
119.595758206217
20
33.1872568518324
30
0
41
1
10
119.592182026359
20
33.1772313506602
30
0
41
1
10
119.587206775395
20
33.1571046785854
30
0
41
1
10
119.585836259584
20
33.147003301987
30
0
41
1
10
119.585320940483
20
33.1275117481947
30
0
41
1
10
119.586145181875
20
33.1180190985651
30
0
41
1
10
119.59177023551
20
33.0903139548501
30
0
41
1
10
119.599568080407
20
33.0735422122915
30
0
41
1
10
119.622053314602
20
33.0439754311604
30
0
41
1
10
119.63640880956
20
33.0315837792748
30
0
41
1
10
119.653396225619
20
33.0216044148889
30
0
0
SPLINE
5
3AD
100
AcDbEntity
8
1
62
256
6
ByLayer
370
18
48
1
60
0
100
AcDbSpline
70
4
71
3
72
16
73
12
40
0
40
0
40
0
40
0
40
0.249999999999982
40
0.249999999999982
40
0.499999999999965
40
0.499999999999965
40
0.749999999999947
40
0.749999999999947
40
0.874999999999974
40
0.874999999999974
40
1
40
1
40
1
40
1
41
1
10
121.807566629995
20
32.8918733327032
30
0
41
1
10
121.787300590155
20
32.8815392007889
30
0
41
1
10
121.768793850398
20
32.8691334865176
30
0
41
1
10
121.735327074815
20
32.8397031859618
30
0
41
1
10
121.720247887145
20
32.82250751285
30
0
41
1
10
121.694629430339
20
32.7831285264747
30
0
41
1
10
121.684190929248
20
32.7612060031705
30
0
41
1
10
121.672375628623
20
32.7242948535293
30
0
41
1
10
121.669073030952
20
32.7112382046335
30
0
41
1
10
121.663968722736
20
32.6841370112318
30
0
41
1
10
121.662149813587
20
32.6700697703662
30
0
41
1
10
121.661083818555
20
32.6554613363103
30
0
0
SPLINE
5
3AE
100
AcDbEntity
8
1
62
256
6
ByLayer
370
18
48
1
60
0
100
AcDbSpline
70
4
71
3
72
14
73
10
40
0
40
0
40
0
40
0
40
0.25
40
0.25
40
0.5
40
0.5
40
0.75
40
0.75
40
1
40
1
40
1
40
1
41
1
10
121.660053945383
20
32.6153696012131
30
0
41
1
10
121.660646990896
20
32.5847439236622
30
0
41
1
10
121.664239685385
20
32.5534289299767
30
0
41
1
10
121.676919601272
20
32.4896654301954
30
0
41
1
10
121.686135331383
20
32.4570429009641
30
0
41
1
10
121.708943508329
20
32.3938677134182
30
0
41
1
10
121.722646937972
20
32.3628167099121
30
0
41
1
10
121.754120775841
20
32.3024900862592
30
0
41
1
10
121.771673834309
20
32.2735978484241
30
0
41
1
10
121.790973032042
20
32.2459043420175
30
0
0
SPLINE
5
3AF
100
AcDbEntity
8
1
62
256
6
ByLayer
370
18
48
1
60
0
100
AcDbSpline
70
4
71
3
72
18
73
14
40
0
40
0
40
0
40
0
40
0.125
40
0.125
40
0.25
40
0.25
40
0.375
40
0.375
40
0.5
40
0.5
40
0.75
40
0.75
40
1
40
1
40
1
40
1
41
1
10
121.812320415458
20
31.960211495915
30
0
41
1
10
121.819086644217
20
31.9697521120386
30
0
41
1
10
121.825041690111
20
31.9802619676893
30
0
41
1
10
121.834770606718
20
32.00222144301
30
0
41
1
10
121.838608794727
20
32.0137241089292
30
0
41
1
10
121.844277445936
20
32.0377600731284
30
0
41
1
10
121.846081573561
20
32.0503060915541
30
0
41
1
10
121.847600800732
20
32.0754575364993
30
0
41
1
10
121.847349932453
20
32.0881827823242
30
0
41
1
10
121.843661578666
20
32.1268067647729
30
0
41
1
10
121.837395502222
20
32.1522144003641
30
0
41
1
10
121.818385878974
20
32.2013761824867
30
0
41
1
10
121.805924930768
20
32.2244490199428
30
0
41
1
10
121.790973032042
20
32.2459043420173
30
0
0
SPLINE
5
3B0
100
AcDbEntity
8
1
62
256
6
ByLayer
370
18
48
1
60
0
100
AcDbSpline
70
4
71
3
72
20
73
16
40
0
40
0
40
0
40
0
40
0.25
40
0.25
40
0.375
40
0.375
40
0.5
40
0.5
40
0.625
40
0.625
40
0.75
40
0.75
40
0.875
40
0.875
40
1
40
1
40
1
40
1
41
1
10
121.807566629995
20
32.8918733327032
30
0
41
1
10
121.823315240988
20
32.8999039210549
30
0
41
1
10
121.836568547365
20
32.9105782633953
30
0
41
1
10
121.852286226104
20
32.9307584593411
30
0
41
1
10
121.856785685919
20
32.9381834834353
30
0
41
1
10
121.863950161152
20
32.9539622662867
30
0
41
1
10
121.866665693443
20
32.9623730119864
30
0
41
1
10
121.870243316662
20
32.980276244863
30
0
41
1
10
121.871093424511
20
32.9898757011981
30
0
41
1
10
121.870712800598
20
33.0094976850134
30
0
41
1
10
121.86951296468
20
33.0195592202364
30
0
41
1
10
121.865027878177
20
33.0401806924461
30
0
41
1
10
121.861684700951
20
33.0508657481877
30
0
41
1
10
121.853003762863
20
33.0720127530737
30
0
41
1
10
121.847694130449
20
33.0824815817659
30
0
41
1
10
121.841415387777
20
33.0928440905018
30
0
0
SPLINE
5
3B1
100
AcDbEntity
8
1
62
256
6
ByLayer
370
18
48
1
60
0
100
AcDbSpline
70
4
71
3
72
18
73
14
40
0
40
0
40
0
40
0
40
0.125000000000015
40
0.125000000000015
40
0.25000000000003
40
0.25000000000003
40
0.375000000000046
40
0.375000000000046
40
0.500000000000061
40
0.500000000000061
40
0.750000000000031
40
0.750000000000031
40
1
40
1
40
1
40
1
41
1
10
120.744118751827
20
33.7254069090897
30
0
41
1
10
120.731120764377
20
33.7261896897716
30
0
41
1
10
120.717930025491
20
33.7262447959204
30
0
41
1
10
120.69241303321
20
33.7249019083156
30
0
41
1
10
120.679994877355
20
33.7235226347856
30
0
41
1
10
120.65582828463
20
33.7193880829854
30
0
41
1
10
120.644087431714
20
33.71661471542
30
0
41
1
10
120.622155007972
20
33.7099538919783
30
0
41
1
10
120.611838627052
20
33.7060489222641
30
0
41
1
10
120.582795346555
20
33.6926926834425
30
0
41
1
10
120.566659272531
20
33.681929059
30
0
41
1
10
120.540955112017
20
33.6577528056739
30
0
41
1
10
120.531717557172
20
33.6446744563615
30
0
41
1
10
120.525905977297
20
33.6309633920104
30
0
0
SPLINE
5
3B2
100
AcDbEntity
8
1
62
256
6
ByLayer
370
18
48
1
60
0
100
AcDbSpline
70
4
71
3
72
28
73
24
40
0
40
0
40
0
40
0
40
0.124999999999982
40
0.124999999999982
40
0.187499999999967
40
0.187499999999967
40
0.249999999999953
40
0.249999999999953
40
0.374999999999972
40
0.374999999999972
40
0.4375
40
0.4375
40
0.500000000000028
40
0.500000000000028
40
0.625000000000049
40
0.625000000000049
40
0.687500000000059
40
0.687500000000059
40
0.750000000000069
40
0.750000000000069
40
0.875000000000035
40
0.875000000000035
40
1
40
1
40
1
40
1
41
1
10
119.883517218047
20
33.3465722081132
30
0
41
1
10
119.915580021466
20
33.3455791921687
30
0
41
1
10
119.948300298461
20
33.3465702525692
30
0
41
1
10
119.998537599411
20
33.3510071237266
30
0
41
1
10
120.015477986879
20
33.3529806672504
30
0
41
1
10
120.049805473017
20
33.3579558650578
30
0
41
1
10
120.067241592636
20
33.3609726602137
30
0
41
1
10
120.119128240705
20
33.3714063155663
30
0
41
1
10
120.153516108895
20
33.3802261418318
30
0
41
1
10
120.204851933289
20
33.3963762502365
30
0
41
1
10
120.221824725483
20
33.4022294727051
30
0
41
1
10
120.254635290873
20
33.4145589117833
30
0
41
1
10
120.27059732061
20
33.4210729510049
30
0
41
1
10
120.317146449256
20
33.4416519624251
30
0
41
1
10
120.346717835264
20
33.4569722594981
30
0
41
1
10
120.385983422738
20
33.4808525736788
30
0
41
1
10
120.398319270761
20
33.4889976976629
30
0
41
1
10
120.421564546307
20
33.5056910919508
30
0
41
1
10
120.43252225228
20
33.5142870733566
30
0
41
1
10
120.462677231329
20
33.5401870506927
30
0
41
1
10
120.47940208299
20
33.5577256565553
30
0
41
1
10
120.507062479344
20
33.5937300072363
30
0
41
1
10
120.517976496538
20
33.6122556355495
30
0
41
1
10
120.525905977297
20
33.6309633920118
30
0
0
SPLINE
5
3B3
100
AcDbEntity
8
1
62
256
6
ByLayer
370
18
48
1
60
0
100
AcDbSpline
70
4
71
3
72
20
73
16
40
0
40
0
40
0
40
0
40
0.250000000000009
40
0.250000000000009
40
0.375000000000007
40
0.375000000000007
40
0.500000000000006
40
0.500000000000006
40
0.625000000000004
40
0.625000000000004
40
0.750000000000003
40
0.750000000000003
40
0.875000000000002
40
0.875000000000002
40
1
40
1
40
1
40
1
41
1
10
119.883517218047
20
33.3465722081132
30
0
41
1
10
119.859943058656
20
33.3473023225655
30
0
41
1
10
119.835678105817
20
33.3454936712703
30
0
41
1
10
119.79822678935
20
33.3385125490577
30
0
41
1
10
119.785601457922
20
33.3354531548327
30
0
41
1
10
119.760902158222
20
33.3280034475747
30
0
41
1
10
119.74871674376
20
33.3235959431547
30
0
41
1
10
119.72470506154
20
33.3133112706458
30
0
41
1
10
119.712763326665
20
33.3073584952213
30
0
41
1
10
119.690172117951
20
33.2942896431272
30
0
41
1
10
119.679453112548
20
33.2871622996426
30
0
41
1
10
119.659206353426
20
33.2716735111746
30
0
41
1
10
119.64958156881
20
33.2632048424899
30
0
41
1
10
119.632265092075
20
33.2455234823794
30
0
41
1
10
119.624545617033
20
33.2363223219201
30
0
41
1
10
119.617763682755
20
33.2267595604714
30
0
0
SPLINE
5
3B4
100
AcDbEntity
8
1
62
256
6
ByLayer
370
18
48
1
60
0
100
AcDbSpline
70
4
71
3
72
20
73
16
40
0
40
0
40
0
40
0
40
0.249999999999941
40
0.249999999999941
40
0.374999999999951
40
0.374999999999951
40
0.49999999999996
40
0.49999999999996
40
0.62499999999997
40
0.62499999999997
40
0.74999999999998
40
0.74999999999998
40
0.87499999999999
40
0.87499999999999
40
1
40
1
40
1
40
1
41
1
10
120.968985183136
20
33.6042797346959
30
0
41
1
10
120.962142444696
20
33.6187886951217
30
0
41
1
10
120.952038874048
20
33.6329543503598
30
0
41
1
10
120.931563828804
20
33.6534650606766
30
0
41
1
10
120.923839358293
20
33.6601512084275
30
0
41
1
10
120.907044019666
20
33.6727417161911
30
0
41
1
10
120.897916280166
20
33.6787083542939
30
0
41
1
10
120.878111767635
20
33.6899151030821
30
0
41
1
10
120.867310146719
20
33.695200019567
30
0
41
1
10
120.844840251674
20
33.7045615936183
30
0
41
1
10
120.833135549595
20
33.7086771648609
30
0
41
1
10
120.808759747135
20
33.7157265462736
30
0
41
1
10
120.79593495842
20
33.7186823055989
30
0
41
1
10
120.770134982758
20
33.7231189808393
30
0
41
1
10
120.757162942335
20
33.7246213459107
30
0
41
1
10
120.744118751827
20
33.7254069090897
30
0
0
SPLINE
5
3B5
100
AcDbEntity
8
1
62
256
6
ByLayer
370
18
48
1
60
0
100
AcDbSpline
70
4
71
3
72
28
73
24
40
0
40
0
40
0
40
0
40
0.125000000000062
40
0.125000000000062
40
0.187500000000082
40
0.187500000000082
40
0.250000000000103
40
0.250000000000103
40
0.375000000000143
40
0.375000000000143
40
0.437500000000138
40
0.437500000000138
40
0.500000000000134
40
0.500000000000134
40
0.625000000000156
40
0.625000000000156
40
0.687500000000144
40
0.687500000000144
40
0.750000000000133
40
0.750000000000133
40
0.875000000000066
40
0.875000000000066
40
1
40
1
40
1
40
1
41
1
10
120.968985183136
20
33.6042797346959
30
0
41
1
10
120.978291876386
20
33.5845463420994
30
0
41
1
10
120.990293482116
20
33.5649288981958
30
0
41
1
10
121.012576951895
20
33.53540509835
30
0
41
1
10
121.020723492475
20
33.5255464403295
30
0
41
1
10
121.038574972511
20
33.5057294692854
30
0
41
1
10
121.048316742234
20
33.4957439713576
30
0
41
1
10
121.079399544788
20
33.4662017081242
30
0
41
1
10
121.102738912315
20
33.4468476021602
30
0
41
1
10
121.142241488341
20
33.4180294738372
30
0
41
1
10
121.156104323726
20
33.4085143532834
30
0
41
1
10
121.184529508086
20
33.3901143101784
30
0
41
1
10
121.199185532591
20
33.3811595713591
30
0
41
1
10
121.24448737459
20
33.3550179511891
30
0
41
1
10
121.27691643357
20
33.3383620556672
30
0
41
1
10
121.325551864059
20
33.3162975169359
30
0
41
1
10
121.341840473206
20
33.3093779437965
30
0
41
1
10
121.374587608615
20
33.2964082648931
30
0
41
1
10
121.391133551059
20
33.2903322730741
30
0
41
1
10
121.439997063687
20
33.2737995351766
30
0
41
1
10
121.471801543401
20
33.2649001623299
30
0
41
1
10
121.534331134508
20
33.2511087329015
30
0
41
1
10
121.565133184785
20
33.2462383915402
30
0
41
1
10
121.594801183662
20
33.2435131741875
30
0
0
SPLINE
5
3B6
100
AcDbEntity
8
1
62
256
6
ByLayer
370
18
48
1
60
0
100
AcDbSpline
70
4
71
3
72
18
73
14
40
0
40
0
40
0
40
0
40
0.125000000000002
40
0.125000000000002
40
0.250000000000005
40
0.250000000000005
40
0.375000000000007
40
0.375000000000007
40
0.500000000000009
40
0.500000000000009
40
0.750000000000005
40
0.750000000000005
40
1
40
1
40
1
40
1
41
1
10
121.841415387777
20
33.0928440905018
30
0
41
1
10
121.835166456075
20
33.1031573988715
30
0
41
1
10
121.827870416808
20
33.1134542693094
30
0
41
1
10
121.811884274682
20
33.1330417302498
30
0
41
1
10
121.803164659715
20
33.1424112394886
30
0
41
1
10
121.784305534423
20
33.1603268694616
30
0
41
1
10
121.774150819778
20
33.1688594678837
30
0
41
1
10
121.753236773733
20
33.1844867174982
30
0
41
1
10
121.742384915093
20
33.1916745645083
30
0
41
1
10
121.708695727387
20
33.2114350906858
30
0
41
1
10
121.685553902113
20
33.2217343140487
30
0
41
1
10
121.639152933003
20
33.2368734995287
30
0
41
1
10
121.616545212835
20
33.2415158299829
30
0
41
1
10
121.59480118366
20
33.2435131741877
30
0
0
SPLINE
5
3B7
100
AcDbEntity
8
1
62
256
6
ByLayer
370
18
48
1
60
0
100
AcDbSpline
70
4
71
3
72
18
73
14
40
0
40
0
40
0
40
0
40
0.124999999999998
40
0.124999999999998
40
0.249999999999996
40
0.249999999999996
40
0.374999999999993
40
0.374999999999993
40
0.499999999999991
40
0.499999999999991
40
0.749999999999995
40
0.749999999999995
40
1
40
1
40
1
40
1
41
1
10
123.986816141769
20
-46.8722769964331
30
0
41
1
10
123.972324252848
20
-46.8765304639791
30
0
41
1
10
123.955724769512
20
-46.8823381995596
30
0
41
1
10
123.919935358631
20
-46.8947862970163
30
0
41
1
10
123.90071952002
20
-46.9014705571561
30
0
41
1
10
123.861650638975
20
-46.9143448380699
30
0
41
1
10
123.841584532815
20
-46.9206231996887
30
0
41
1
10
123.800575692727
20
-46.9324419354648
30
0
41
1
10
123.779559939861
20
-46.9380001450374
30
0
41
1
10
123.716336961839
20
-46.9529658512503
30
0
41
1
10
123.673685447682
20
-46.960749580287
30
0
41
1
10
123.587502617302
20
-46.9712492237897
30
0
41
1
10
123.54397042595
20
-46.9739747467504
30
0
41
1
10
123.500000000002
20
-46.9739747467505
30
0
0
SPLINE
5
3B8
100
AcDbEntity
8
1
62
256
6
ByLayer
370
18
48
1
60
0
100
AcDbSpline
70
4
71
3
72
28
73
24
40
0
40
0
40
0
40
0
40
0.125000000000026
40
0.125000000000026
40
0.187500000000039
40
0.187500000000039
40
0.250000000000052
40
0.250000000000052
40
0.375000000000046
40
0.375000000000046
40
0.437500000000047
40
0.437500000000047
40
0.500000000000048
40
0.500000000000048
40
0.62500000000004
40
0.62500000000004
40
0.750000000000031
40
0.750000000000031
40
0.812500000000027
40
0.812500000000027
40
0.875000000000023
40
0.875000000000023
40
1
40
1
40
1
40
1
41
1
10
124.021434397146
20
-1.42135981434694
30
0
41
1
10
124.07225189884
20
-1.42580424613601
30
0
41
1
10
124.122481423745
20
-1.42756893481135
30
0
41
1
10
124.196967558243
20
-1.42630487940949
30
0
41
1
10
124.221652230087
20
-1.42522705734967
30
0
41
1
10
124.270724997017
20
-1.42171974503918
30
0
41
1
10
124.295021334461
20
-1.41928846148272
30
0
41
1
10
124.365898688626
20
-1.41012761787948
30
0
41
1
10
124.410992819129
20
-1.40151705335285
30
0
41
1
10
124.475388358424
20
-1.38483518252889
30
0
41
1
10
124.496421012976
20
-1.37860134492843
30
0
41
1
10
124.53664361909
20
-1.36506283237026
30
0
41
1
10
124.555856994107
20
-1.35776322759438
30
0
41
1
10
124.610878070821
20
-1.3343175094102
30
0
41
1
10
124.644091320722
20
-1.31663901974292
30
0
41
1
10
124.703379148287
20
-1.27706568461969
30
0
41
1
10
124.728535227771
20
-1.25577473101822
30
0
41
1
10
124.759748763203
20
-1.22179960299673
30
0
41
1
10
124.769066850834
20
-1.21012662105625
30
0
41
1
10
124.785497720727
20
-1.18607438392894
30
0
41
1
10
124.79261598893
20
-1.173659940525
30
0
41
1
10
124.810254333793
20
-1.13601606507086
30
0
41
1
10
124.817253854668
20
-1.11019521379285
30
0
41
1
10
124.819478516454
20
-1.08364706982161
30
0
0
SPLINE
5
3B9
100
AcDbEntity
8
1
62
256
6
ByLayer
370
18
48
1
60
0
100
AcDbSpline
70
4
71
3
72
20
73
16
40
0
40
0
40
0
40
0
40
0.0284031781307697
40
0.0284031781307697
40
0.136358380560654
40
0.136358380560654
40
0.352268785420485
40
0.352268785420485
40
0.568179190280315
40
0.568179190280315
40
0.67613439271023
40
0.67613439271023
40
0.784089595140145
40
0.784089595140145
40
1
40
1
40
1
40
1
41
1
10
124.500475940909
20
41.0154666613012
30
0
41
1
10
124.50588590895
20
41.019019287538
30
0
41
1
10
124.511241001577
20
41.0226283229598
30
0
41
1
10
124.53664361909
20
41.040199678188
30
0
41
1
10
124.555856994107
20
41.0548434695475
30
0
41
1
10
124.610878070821
20
41.1009114183705
30
0
41
1
10
124.644091320722
20
41.1344520851442
30
0
41
1
10
124.703379148287
20
41.2073570251517
30
0
41
1
10
124.728535227771
20
41.2456067755859
30
0
41
1
10
124.759748763203
20
41.3053538407084
30
0
41
1
10
124.769066850834
20
41.3256782454387
30
0
41
1
10
124.785497720727
20
41.3671566980447
30
0
41
1
10
124.79261598893
20
41.3883687480741
30
0
41
1
10
124.810254333793
20
41.4521191497446
30
0
41
1
10
124.817253854668
20
41.4951103833402
30
0
41
1
10
124.819478516454
20
41.5385941799802
30
0
0
SPLINE
5
3BA
100
AcDbEntity
8
1
62
256
6
ByLayer
370
18
48
1
60
0
100
AcDbSpline
70
4
71
3
72
28
73
24
40
0
40
0
40
0
40
0
40
0.125000000000042
40
0.125000000000042
40
0.187500000000041
40
0.187500000000041
40
0.250000000000041
40
0.250000000000041
40
0.375000000000035
40
0.375000000000035
40
0.437500000000036
40
0.437500000000036
40
0.500000000000038
40
0.500000000000038
40
0.625000000000028
40
0.625000000000028
40
0.687500000000024
40
0.687500000000024
40
0.750000000000019
40
0.750000000000019
40
0.87500000000001
40
0.87500000000001
40
1
40
1
40
1
40
1
41
1
10
121.560822694971
20
0.655236137117583
30
0
41
1
10
121.531530661611
20
0.675891400497676
30
0
41
1
10
121.501426115329
20
0.694932518915948
30
0
41
1
10
121.454812063151
20
0.720648775093935
30
0
41
1
10
121.439028810205
20
0.728742164416133
30
0
41
1
10
121.406893962711
20
0.743829168265449
30
0
41
1
10
121.390495115098
20
0.750832790770289
30
0
41
1
10
121.341433276283
20
0.769486187834787
30
0
41
1
10
121.308574452389
20
0.778983336541216
30
0
41
1
10
121.258837879592
20
0.787716607100037
30
0
41
1
10
121.242276164394
20
0.789666555492374
30
0
41
1
10
121.210011369927
20
0.79147649692186
30
0
41
1
10
121.194188177778
20
0.791359826478526
30
0
41
1
10
121.147646235308
20
0.78790092292104
30
0
41
1
10
121.117509525925
20
0.781241321781351
30
0
41
1
10
121.076663572004
20
0.765815571858695
30
0
41
1
10
121.063682024439
20
0.759783416258529
30
0
41
1
10
121.038930707292
20
0.746085138294291
30
0
41
1
10
121.027106924754
20
0.738369260765637
30
0
41
1
10
120.994123811489
20
0.713494232152641
30
0
41
1
10
120.97520372894
20
0.694563240793684
30
0
41
1
10
120.942704923745
20
0.653072371110284
30
0
41
1
10
120.929135974918
20
0.630414610647108
30
0
41
1
10
120.918433935721
20
0.606724321442869
30
0
0
SPLINE
5
3BB
100
AcDbEntity
8
1
62
256
6
ByLayer
370
18
48
1
60
0
100
AcDbSpline
70
4
71
3
72
18
73
14
40
0
40
0
40
0
40
0
40
0.125
40
0.125
40
0.25
40
0.25
40
0.375
40
0.375
40
0.5
40
0.5
40
0.75
40
0.75
40
1
40
1
40
1
40
1
41
1
10
120.685965346387
20
0.497536775510468
30
0
41
1
10
120.698963333836
20
0.496399988641997
30
0
41
1
10
120.712244394304
20
0.496077728202693
30
0
41
1
10
120.738114699321
20
0.497094213874902
30
0
41
1
10
120.750794233829
20
0.498410083831345
30
0
41
1
10
120.775652536588
20
0.502640260303053
30
0
41
1
10
120.787825998967
20
0.505575870744565
30
0
41
1
10
120.81076003703
20
0.512807087067927
30
0
41
1
10
120.821648478745
20
0.517119911892166
30
0
41
1
10
120.852623938233
20
0.532135037152443
30
0
41
1
10
120.87028885921
20
0.544544206936393
30
0
41
1
10
120.899461106775
20
0.573356248743039
30
0
41
1
10
120.910590325591
20
0.589361518990813
30
0
41
1
10
120.918433935721
20
0.606724321442869
30
0
0
SPLINE
5
3BC
100
AcDbEntity
8
1
62
256
6
ByLayer
370
18
48
1
60
0
100
AcDbSpline
70
4
71
3
72
28
73
24
40
0
40
0
40
0
40
0
40
0.124999999999986
40
0.124999999999986
40
0.18749999999998
40
0.18749999999998
40
0.249999999999973
40
0.249999999999973
40
0.375000000000001
40
0.375000000000001
40
0.437499999999991
40
0.437499999999991
40
0.499999999999981
40
0.499999999999981
40
0.624999999999949
40
0.624999999999949
40
0.687499999999956
40
0.687499999999956
40
0.749999999999963
40
0.749999999999963
40
0.874999999999981
40
0.874999999999981
40
1
40
1
40
1
40
1
41
1
10
120.475354729882
20
0.64547544540352
30
0
41
1
10
120.468818805717
20
0.670657450892634
30
0
41
1
10
120.459432930364
20
0.694969117632525
30
0
41
1
10
120.440772709597
20
0.729791152761209
30
0
41
1
10
120.433783303744
20
0.741121319202421
30
0
41
1
10
120.418124462952
20
0.763122865768821
30
0
41
1
10
120.409419965074
20
0.77381713772894
30
0
41
1
10
120.381161971298
20
0.804011359481876
30
0
41
1
10
120.359351648397
20
0.821887680922657
30
0
41
1
10
120.321448324555
20
0.844389048573987
30
0
41
1
10
120.307996565908
20
0.851107849078915
30
0
41
1
10
120.280117152504
20
0.862577807885941
30
0
41
1
10
120.265599965698
20
0.867385104440245
30
0
41
1
10
120.220305310162
20
0.878981408338859
30
0
41
1
10
120.187310927845
20
0.882877940704191
30
0
41
1
10
120.137095131204
20
0.882977366624289
30
0
41
1
10
120.120160822568
20
0.882095531411892
30
0
41
1
10
120.085907645452
20
0.878655240447586
30
0
41
1
10
120.068495626392
20
0.876073538747164
30
0
41
1
10
120.016803980081
20
0.866220069941733
30
0
41
1
10
119.982804269604
20
0.856880937598817
30
0
41
1
10
119.91543626909
20
0.833895648831401
30
0
41
1
10
119.881979287046
20
0.820170672571351
30
0
41
1
10
119.849538729358
20
0.804902779581198
30
0
0
SPLINE
5
3BD
100
AcDbEntity
8
1
62
256
6
ByLayer
370
18
48
1
60
0
100
AcDbSpline
70
4
71
3
72
20
73
16
40
0
40
0
40
0
40
0
40
0.250000000000075
40
0.250000000000075
40
0.375000000000063
40
0.375000000000063
40
0.50000000000005
40
0.50000000000005
40
0.625000000000038
40
0.625000000000038
40
0.750000000000025
40
0.750000000000025
40
0.875000000000013
40
0.875000000000013
40
1
40
1
40
1
40
1
41
1
10
120.475354729882
20
0.64547544540352
30
0
41
1
10
120.480160262666
20
0.626960396898994
30
0
41
1
10
120.48838310661
20
0.609360349223039
30
0
41
1
10
120.506258965856
20
0.584291908978003
30
0
41
1
10
120.513158228346
20
0.576193376387891
30
0
41
1
10
120.528436464175
20
0.561031686749004
30
0
41
1
10
120.536864361464
20
0.553892409997275
30
0
41
1
10
120.555387808779
20
0.54052127671423
30
0
41
1
10
120.565603607007
20
0.534236279497463
30
0
41
1
10
120.587068569903
20
0.523091303120964
30
0
41
1
10
120.598349360559
20
0.518184774764165
30
0
41
1
10
120.622034476366
20
0.509718620460376
30
0
41
1
10
120.634590951794
20
0.50613136187178
30
0
41
1
10
120.660037215767
20
0.500623073608438
30
0
41
1
10
120.672921155878
20
0.498677603237695
30
0
41
1
10
120.685965346387
20
0.497536775510468
30
0
0
SPLINE
5
3BE
100
AcDbEntity
8
1
62
256
6
ByLayer
370
18
48
1
60
0
100
AcDbSpline
70
4
71
3
72
28
73
24
40
0
40
0
40
0
40
0
40
0.124999999999988
40
0.124999999999988
40
0.187499999999982
40
0.187499999999982
40
0.249999999999976
40
0.249999999999976
40
0.374999999999963
40
0.374999999999963
40
0.437499999999959
40
0.437499999999959
40
0.499999999999955
40
0.499999999999955
40
0.624999999999964
40
0.624999999999964
40
0.749999999999973
40
0.749999999999973
40
0.812499999999978
40
0.812499999999978
40
0.874999999999983
40
0.874999999999983
40
1
40
1
40
1
40
1
41
1
10
124.021434397146
20
27.8973940403708
30
0
41
1
10
124.07225189884
20
27.894333646692
30
0
41
1
10
124.122481423745
20
27.896188746798
30
0
41
1
10
124.196967558243
20
27.9061455662604
30
0
41
1
10
124.221652230087
20
27.9106686795181
30
0
41
1
10
124.270724997017
20
27.9221942916739
30
0
41
1
10
124.295021334461
20
27.929190745923
30
0
41
1
10
124.365898688626
20
27.9534410943536
30
0
41
1
10
124.410992819129
20
27.974035602746
30
0
41
1
10
124.475388358424
20
28.0115882718892
30
0
41
1
10
124.496421012976
20
28.025311617465
30
0
41
1
10
124.53664361909
20
28.0545583081819
30
0
41
1
10
124.555856994107
20
28.0700746323915
30
0
41
1
10
124.610878070821
20
28.1192282177175
30
0
41
1
10
124.644091320722
20
28.1554456305635
30
0
41
1
10
124.703379148287
20
28.2349797816446
30
0
41
1
10
124.728535227771
20
28.2770814172249
30
0
41
1
10
124.759748763203
20
28.3433530155447
30
0
41
1
10
124.769066850834
20
28.3659785846398
30
0
41
1
10
124.785497720727
20
28.412315779726
30
0
41
1
10
124.79261598893
20
28.4360933012603
30
0
41
1
10
124.810254333793
20
28.5077898821886
30
0
41
1
10
124.817253854668
20
28.5564473740304
30
0
41
1
10
124.819478516454
20
28.6059674341363
30
0
0
SPLINE
5
3BF
100
AcDbEntity
8
1
62
256
6
ByLayer
370
18
48
1
60
0
100
AcDbSpline
70
4
71
3
72
20
73
16
40
0
40
0
40
0
40
0
40
0.023486997505435
40
0.023486997505435
40
0.186239164587862
40
0.186239164587862
40
0.34899133167029
40
0.34899133167029
40
0.511743498752718
40
0.511743498752718
40
0.674495665835145
40
0.674495665835145
40
0.837247832917573
40
0.837247832917573
40
1
40
1
40
1
40
1
41
1
10
117.711801403048
20
38.519865359964
30
0
41
1
10
117.713721404115
20
38.5235162128952
30
0
41
1
10
117.715699423252
20
38.5271399303778
30
0
41
1
10
117.731835666479
20
38.5556365605896
30
0
41
1
10
117.748510740886
20
38.5789617884329
30
0
41
1
10
117.786904163552
20
38.6225209288669
30
0
41
1
10
117.808863339199
20
38.6428865042201
30
0
41
1
10
117.856240213095
20
38.6788900616162
30
0
41
1
10
117.881769157628
20
38.6947268512878
30
0
41
1
10
117.936542319265
20
38.7220301555974
30
0
41
1
10
117.9657494737
20
38.7333959904912
30
0
41
1
10
118.025486556735
20
38.7507485514438
30
0
41
1
10
118.056303543521
20
38.7568941031856
30
0
41
1
10
118.119908308121
20
38.7639265611272
30
0
41
1
10
118.152141656927
20
38.7647330114513
30
0
41
1
10
118.184473877211
20
38.7627858609759
30
0
0
SPLINE
5
3C0
100
AcDbEntity
8
1
62
256
6
ByLayer
370
18
48
1
60
0
100
AcDbSpline
70
4
71
3
72
20
73
16
40
0
40
0
40
0
40
0
40
0.147636788030416
40
0.147636788030416
40
0.295273576060832
40
0.295273576060832
40
0.442910364091248
40
0.442910364091248
40
0.590547152121664
40
0.590547152121664
40
0.73818394015208
40
0.73818394015208
40
0.885820728182496
40
0.885820728182496
40
1
40
1
40
1
40
1
41
1
10
124.10548846022
20
38.4062032861105
30
0
41
1
10
124.137824971674
20
38.4042558772071
30
0
41
1
10
124.169563339949
20
38.3996155482724
30
0
41
1
10
124.231900219952
20
38.3852031048599
30
0
41
1
10
124.262783023226
20
38.3753036641047
30
0
41
1
10
124.321909004394
20
38.3506737778931
30
0
41
1
10
124.349934961659
20
38.3360983442562
30
0
41
1
10
124.402971653475
20
38.3025130367446
30
0
41
1
10
124.42818042742
20
38.2832763938846
30
0
41
1
10
124.473612338055
20
38.2416864142815
30
0
41
1
10
124.49404036489
20
38.219263995046
30
0
41
1
10
124.530277717763
20
38.1711338224041
30
0
41
1
10
124.546019657252
20
38.1453786176788
30
0
41
1
10
124.568568701782
20
38.0986770464016
30
0
41
1
10
124.576723297543
20
38.077809286984
30
0
41
1
10
124.5831503518
20
38.0564261166202
30
0
0
SPLINE
5
3C1
100
AcDbEntity
8
1
62
256
6
ByLayer
370
18
48
1
60
0
100
AcDbSpline
70
4
71
3
72
29
73
25
40
0
40
0
40
0
40
0
40
0.125000000000002
40
0.125000000000002
40
0.187500000000003
40
0.187500000000003
40
0.250000000000004
40
0.250000000000004
40
0.375000000000006
40
0.375000000000006
40
0.437499999999998
40
0.437499999999998
40
0.499999999999989
40
0.499999999999989
40
0.624999999999982
40
0.624999999999982
40
0.687499999999985
40
0.687499999999985
40
0.749999999999988
40
0.812499999999992
40
0.812499999999992
40
0.874999999999995
40
0.874999999999995
40
1
40
1
40
1
40
1
41
1
10
124.999911752939
20
35.6300182754186
30
0
41
1
10
124.999909388748
20
35.6670131233844
30
0
41
1
10
124.995105579782
20
35.7037507293204
30
0
41
1
10
124.980857151485
20
35.7584798179904
30
0
41
1
10
124.974925831456
20
35.7766595291196
30
0
41
1
10
124.960626093791
20
35.812888381526
30
0
41
1
10
124.952263421345
20
35.8308843784122
30
0
41
1
10
124.924032257165
20
35.8835507176895
30
0
41
1
10
124.900914042044
20
35.9172795508476
30
0
41
1
10
124.859720245405
20
35.9657770975388
30
0
41
1
10
124.844815909264
20
35.9816663653048
30
0
41
1
10
124.813101024665
20
36.0123393828381
30
0
41
1
10
124.79638528987
20
36.0270476789244
30
0
41
1
10
124.743728928795
20
36.0693360323706
30
0
41
1
10
124.705302967143
20
36.0950969905276
30
0
41
1
10
124.642511338656
20
36.1299670063624
30
0
41
1
10
124.620767611163
20
36.1409138479668
30
0
41
1
10
124.576524863869
20
36.1610510506334
30
0
41
1
10
124.531299068045
20
36.1795628446846
30
0
41
1
10
124.484134601065
20
36.1948691685029
30
0
41
1
10
124.435986840167
20
36.2085496779709
30
0
41
1
10
124.4113001161
20
36.2145991393099
30
0
41
1
10
124.336804535657
20
36.2299920449661
30
0
41
1
10
124.286559043089
20
36.236655075379
30
0
41
1
10
124.235731275221
20
36.2397160873198
30
0
0
SPLINE
5
3C2
100
AcDbEntity
8
1
62
256
6
ByLayer
370
13
48
1
60
0
100
AcDbSpline
70
4
71
3
72
8
73
4
40
0
40
0
40
0
40
0
40
1
40
1
40
1
40
1
41
1
10
118.184473877211
20
38.7627858609759
30
0
41
1
10
117.888501657056
20
38.0610624093721
30
0
41
1
10
117.592529436901
20
37.3593389577684
30
0
41
1
10
117.296557216746
20
36.6576155061646
30
0
0
SPLINE
5
3C3
100
AcDbEntity
8
1
62
256
6
ByLayer
370
18
48
1
60
0
100
AcDbSpline
70
4
71
3
72
28
73
24
40
0
40
0
40
0
40
0
40
0.12499999999998
40
0.12499999999998
40
0.187499999999971
40
0.187499999999971
40
0.249999999999961
40
0.249999999999961
40
0.374999999999969
40
0.374999999999969
40
0.437499999999959
40
0.437499999999959
40
0.499999999999949
40
0.499999999999949
40
0.624999999999962
40
0.624999999999962
40
0.749999999999975
40
0.749999999999975
40
0.812499999999987
40
0.812499999999987
40
0.874999999999999
40
0.874999999999999
40
1
40
1
40
1
40
1
41
1
10
117.296557216746
20
36.6576155061645
30
0
41
1
10
117.245739715052
20
36.6606758998433
30
0
41
1
10
117.195728601391
20
36.6600521713179
30
0
41
1
10
117.121888855242
20
36.6537395975847
30
0
41
1
10
117.097473151492
20
36.650732888244
30
0
41
1
10
117.04904848785
20
36.6428611903958
30
0
41
1
10
117.02513076775
20
36.6379993269784
30
0
41
1
10
116.955529791021
20
36.6209450132846
30
0
41
1
10
116.911478924263
20
36.6062322777501
30
0
41
1
10
116.848937645564
20
36.5791336665492
30
0
41
1
10
116.828575877939
20
36.5691926862002
30
0
41
1
10
116.789770639108
20
36.5479369109604
30
0
41
1
10
116.771303493354
20
36.5366277213782
30
0
41
1
10
116.718630616325
20
36.5007129524426
30
0
41
1
10
116.68712782027
20
36.4741388354983
30
0
41
1
10
116.63155939413
20
36.4155741415079
30
0
41
1
10
116.608355403883
20
36.3844781078558
30
0
41
1
10
116.580192026498
20
36.3354028674916
30
0
41
1
10
116.571911675835
20
36.3186279120676
30
0
41
1
10
116.557598943019
20
36.2842324730568
30
0
41
1
10
116.551564038909
20
36.2665628044431
30
0
41
1
10
116.537182061025
20
36.2132251581522
30
0
41
1
10
116.532379102995
20
36.1769515757222
30
0
41
1
10
116.532376739028
20
36.1399605151636
30
0
0
SPLINE
5
3C4
100
AcDbEntity
8
1
62
256
6
ByLayer
370
13
48
1
60
0
100
AcDbSpline
70
4
71
3
72
8
73
4
40
0
40
0
40
0
40
0
40
1
40
1
40
1
40
1
41
1
10
124.235731275221
20
36.2397160873199
30
0
41
1
10
124.192317003554
20
36.9618784869168
30
0
41
1
10
124.148902731887
20
37.6840408865137
30
0
41
1
10
124.10548846022
20
38.4062032861105
30
0
0
SPLINE
5
3C5
100
AcDbEntity
8
1
62
256
6
ByLayer
370
18
48
1
60
0
100
AcDbSpline
70
4
71
3
72
29
73
25
40
0
40
0
40
0
40
0
40
0.124999999999982
40
0.124999999999982
40
0.187499999999973
40
0.187499999999973
40
0.249999999999965
40
0.249999999999965
40
0.374999999999963
40
0.374999999999963
40
0.437499999999971
40
0.437499999999971
40
0.49999999999998
40
0.49999999999998
40
0.624999999999985
40
0.624999999999985
40
0.687499999999987
40
0.687499999999987
40
0.74999999999999
40
0.812499999999992
40
0.812499999999992
40
0.874999999999995
40
0.874999999999995
40
1
40
1
40
1
40
1
41
1
10
124.999911752939
20
-49.2081982010077
30
0
41
1
10
124.999909388748
20
-49.2591815634967
30
0
41
1
10
124.995105579782
20
-49.309400921009
30
0
41
1
10
124.980857151485
20
-49.3836093218328
30
0
41
1
10
124.974925831456
20
-49.4081574006593
30
0
41
1
10
124.960626093791
20
-49.456865767807
30
0
41
1
10
124.952263421345
20
-49.4809533064382
30
0
41
1
10
124.924032257165
20
-49.5511264556537
30
0
41
1
10
124.900914042044
20
-49.5956373939401
30
0
41
1
10
124.859720245405
20
-49.6589598984419
30
0
41
1
10
124.844815909264
20
-49.6795861905089
30
0
41
1
10
124.813101024665
20
-49.7191526594399
30
0
41
1
10
124.79638528987
20
-49.7379969378387
30
0
41
1
10
124.743728928795
20
-49.791784802171
30
0
41
1
10
124.705302967143
20
-49.8240094773187
30
0
41
1
10
124.642511338656
20
-49.8667095471464
30
0
41
1
10
124.620767611164
20
-49.8799412528383
30
0
41
1
10
124.576524863869
20
-49.9039195972205
30
0
41
1
10
124.531299068045
20
-49.9255740839643
30
0
41
1
10
124.484134601065
20
-49.942645688339
30
0
41
1
10
124.435986840167
20
-49.9573928549934
30
0
41
1
10
124.4113001161
20
-49.9636243587343
30
0
41
1
10
124.336804535657
20
-49.9784843394598
30
0
41
1
10
124.286559043089
20
-49.9833816295048
30
0
41
1
10
124.235731275221
20
-49.9832652244512
30
0
0
SPLINE
5
3C6
100
AcDbEntity
8
1
62
256
6
ByLayer
370
13
48
1
60
0
100
AcDbSpline
70
4
71
3
72
8
73
4
40
0
40
0
40
0
40
0
40
1
40
1
40
1
40
1
41
1
10
124.819478516454
20
-41.5385941799802
30
0
41
1
10
124.712985977651
20
-41.1560544688714
30
0
41
1
10
124.606493438847
20
-40.7735147577626
30
0
41
1
10
124.500000900044
20
-40.3909750466538
30
0
0
SPLINE
5
3C7
100
AcDbEntity
8
1
62
256
6
ByLayer
370
18
48
1
60
0
100
AcDbSpline
70
4
71
3
72
14
73
10
40
0
40
0
40
0
40
0
40
0.0467476274748065
40
0.0467476274748065
40
0.364498418316538
40
0.364498418316538
40
0.682249209158269
40
0.682249209158269
40
1
40
1
40
1
40
1
41
1
10
124.504012274457
20
-48.5129743416242
30
0
41
1
10
124.506777802478
20
-48.5093800313044
30
0
41
1
10
124.509493414172
20
-48.5057436222097
30
0
41
1
10
124.530277717763
20
-48.4770612838163
30
0
41
1
10
124.546019657252
20
-48.4500535269402
30
0
41
1
10
124.571450247794
20
-48.3943630593546
30
0
41
1
10
124.58135813827
20
-48.3654139765027
30
0
41
1
10
124.595349896155
20
-48.3052258516193
30
0
41
1
10
124.599304721449
20
-48.2743987853659
30
0
41
1
10
124.600101020784
20
-48.2433106023852
30
0
0
SPLINE
5
3C8
100
AcDbEntity
8
1
62
256
6
ByLayer
370
18
48
1
60
0
100
AcDbSpline
70
4
71
3
72
28
73
24
40
0
40
0
40
0
40
0
40
0.125000000000051
40
0.125000000000051
40
0.187500000000077
40
0.187500000000077
40
0.250000000000103
40
0.250000000000103
40
0.375000000000123
40
0.375000000000123
40
0.437500000000123
40
0.437500000000123
40
0.500000000000124
40
0.500000000000124
40
0.625000000000101
40
0.625000000000101
40
0.750000000000078
40
0.750000000000078
40
0.812500000000058
40
0.812500000000058
40
0.875000000000039
40
0.875000000000039
40
1
40
1
40
1
40
1
41
1
10
117.296557216746
20
-49.9673732236259
30
0
41
1
10
117.245739715052
20
-49.9672568420837
30
0
41
1
10
117.195728601391
20
-49.9621320488271
30
0
41
1
10
117.121888855242
20
-49.9471350758059
30
0
41
1
10
117.097473151492
20
-49.9409091487859
30
0
41
1
10
117.04904848785
20
-49.9259310411015
30
0
41
1
10
117.02513076775
20
-49.917190948625
30
0
41
1
10
116.955529791021
20
-49.8877520088705
30
0
41
1
10
116.911478924263
20
-49.8637191097831
30
0
41
1
10
116.848937645564
20
-49.821039950879
30
0
41
1
10
116.828575877939
20
-49.8056034657401
30
0
41
1
10
116.789770639108
20
-49.7730008084733
30
0
41
1
10
116.771303493354
20
-49.7558403420747
30
0
41
1
10
116.718630616325
20
-49.7018530367992
30
0
41
1
10
116.68712782027
20
-49.6625438258166
30
0
41
1
10
116.63155939413
20
-49.5770951205343
30
0
41
1
10
116.608355403883
20
-49.5322619050777
30
0
41
1
10
116.580192026498
20
-49.4622281130818
30
0
41
1
10
116.571911675835
20
-49.4384039169986
30
0
41
1
10
116.557598943019
20
-49.389781999279
30
0
41
1
10
116.551564038909
20
-49.3649162793889
30
0
41
1
10
116.537182061025
20
-49.2901837065639
30
0
41
1
10
116.532379102995
20
-49.2397845151861
30
0
41
1
10
116.532376739028
20
-49.1888059689791
30
0
0
SPLINE
5
3C9
100
AcDbEntity
8
1
62
256
6
ByLayer
370
13
48
1
60
0
100
AcDbSpline
70
4
71
3
72
8
73
4
40
0
40
0
40
0
40
0
40
1
40
1
40
1
40
1
41
1
10
124.600101020784
20
-48.2433106023853
30
0
41
1
10
124.733371264836
20
-48.5649398019261
30
0
41
1
10
124.866641508887
20
-48.8865690014669
30
0
41
1
10
124.999911752939
20
-49.2081982010077
30
0
0
SPLINE
5
3CA
100
AcDbEntity
8
1
62
256
6
ByLayer
370
13
48
1
60
0
100
AcDbSpline
70
4
71
3
72
8
73
4
40
0
40
0
40
0
40
0
40
1
40
1
40
1
40
1
41
1
10
124.235731275221
20
-49.9832652244512
30
0
41
1
10
124.194617966307
20
-49.5795901341769
30
0
41
1
10
124.153504657392
20
-49.1759150439028
30
0
41
1
10
124.112391348478
20
-48.7722399536286
30
0
0
SPLINE
5
3CB
100
AcDbEntity
8
1
62
256
6
ByLayer
370
13
48
1
60
0
100
AcDbSpline
70
4
71
3
72
8
73
4
40
0
40
0
40
0
40
0
40
1
40
1
40
1
40
1
41
1
10
116.532376739028
20
-49.1888059689792
30
0
41
1
10
116.696419121066
20
-49.049947901229
30
0
41
1
10
116.860461503104
20
-48.9110898334787
30
0
41
1
10
117.024503885142
20
-48.7722317657285
30
0
0
SPLINE
5
3CC
100
AcDbEntity
8
1
62
256
6
ByLayer
370
13
48
1
60
0
100
AcDbSpline
70
4
71
3
72
8
73
4
40
0
40
0
40
0
40
0
40
1
40
1
40
1
40
1
41
1
10
118.127896814519
20
-48.7722382979983
30
0
41
1
10
117.850783615261
20
-49.1706166065409
30
0
41
1
10
117.573670416003
20
-49.5689949150833
30
0
41
1
10
117.296557216746
20
-49.9673732236258
30
0
0
SPLINE
5
3CD
100
AcDbEntity
8
1
62
256
6
ByLayer
370
18
48
1
60
0
100
AcDbSpline
70
4
71
3
72
22
73
18
40
0
40
0
40
0
40
0
40
0.125
40
0.125
40
0.25
40
0.25
40
0.375
40
0.375
40
0.5
40
0.5
40
0.625
40
0.625
40
0.75
40
0.75
40
0.875
40
0.875
40
1
40
1
40
1
40
1
41
1
10
117.668108916471
20
6.03569965278462
30
0
41
1
10
117.670368005821
20
6.04474315739009
30
0
41
1
10
117.6757108666
20
6.05332170058699
30
0
41
1
10
117.69226669549
20
6.06959371056547
30
0
41
1
10
117.703633128526
20
6.0773573052316
30
0
41
1
10
117.731835666479
20
6.09158081840394
30
0
41
1
10
117.748510740886
20
6.09800646555271
30
0
41
1
10
117.786904163552
20
6.10951335450187
30
0
41
1
10
117.808863339199
20
6.11462089940676
30
0
41
1
10
117.856240213095
20
6.12306901646843
30
0
41
1
10
117.881769157628
20
6.12646645436212
30
0
41
1
10
117.936542319265
20
6.13159270297012
30
0
41
1
10
117.9657494737
20
6.13329140628974
30
0
41
1
10
118.025486556735
20
6.13485582431247
30
0
41
1
10
118.056303543521
20
6.1347535032719
30
0
41
1
10
118.119908308121
20
6.13271088071093
30
0
41
1
10
118.152141656927
20
6.13078217691162
30
0
41
1
10
118.184473877211
20
6.12795444349592
30
0
0
SPLINE
5
3CE
100
AcDbEntity
8
1
62
256
6
ByLayer
370
18
48
1
60
0
100
AcDbSpline
70
4
71
3
72
28
73
24
40
0
40
0
40
0
40
0
40
0.125000000000034
40
0.125000000000034
40
0.187500000000051
40
0.187500000000051
40
0.250000000000068
40
0.250000000000068
40
0.375000000000071
40
0.375000000000071
40
0.437500000000082
40
0.437500000000082
40
0.500000000000092
40
0.500000000000092
40
0.625000000000077
40
0.625000000000077
40
0.750000000000062
40
0.750000000000062
40
0.812500000000047
40
0.812500000000047
40
0.875000000000031
40
0.875000000000031
40
1
40
1
40
1
40
1
41
1
10
117.296557216746
20
1.87432378945016
30
0
41
1
10
117.245739715052
20
1.87876822123923
30
0
41
1
10
117.195728601391
20
1.883010929156
30
0
41
1
10
117.121888855242
20
1.88908057479011
30
0
41
1
10
117.097473151492
20
1.89105437268245
30
0
41
1
10
117.04904848785
20
1.89490021851088
30
0
41
1
10
117.02513076775
20
1.89676459780424
30
0
41
1
10
116.955529791021
20
1.90208509583601
30
0
41
1
10
116.911478924263
20
1.90531104479084
30
0
41
1
10
116.848937645564
20
1.90966698021322
30
0
41
1
10
116.828575877939
20
1.91104479611931
30
0
41
1
10
116.789770639108
20
1.91358724776319
30
0
41
1
10
116.771303493355
20
1.91475410487522
30
0
41
1
10
116.718630616325
20
1.91795025683251
30
0
41
1
10
116.68712782027
20
1.91967799122426
30
0
41
1
10
116.63155939413
20
1.92230371198923
30
0
41
1
10
116.608355403883
20
1.9231604949191
30
0
41
1
10
116.580192026498
20
1.92379141641504
30
0
41
1
10
116.571911675835
20
1.92389224302946
30
0
41
1
10
116.557598943019
20
1.92387166441637
30
0
41
1
10
116.551564038909
20
1.92374869931024
30
0
41
1
10
116.537182061025
20
1.92305044936558
30
0
41
1
10
116.532379102995
20
1.92215104851493
30
0
41
1
10
116.532376739028
20
1.92081633519342
30
0
0
SPLINE
5
3CF
100
AcDbEntity
8
1
62
256
6
ByLayer
370
13
48
1
60
0
100
AcDbSpline
70
4
71
3
72
8
73
4
40
0
40
0
40
0
40
0
40
1
40
1
40
1
40
1
41
1
10
118.184473877211
20
6.12795444349592
30
0
41
1
10
117.888501657056
20
4.71007755881408
30
0
41
1
10
117.592529436901
20
3.29220067413229
30
0
41
1
10
117.296557216746
20
1.87432378945044
30
0
0
SPLINE
5
3D0
100
AcDbEntity
8
1
62
256
6
ByLayer
370
18
48
1
60
0
100
AcDbSpline
70
4
71
3
72
29
73
25
40
0
40
0
40
0
40
0
40
0.125000000000012
40
0.125000000000012
40
0.187500000000018
40
0.187500000000018
40
0.250000000000023
40
0.250000000000023
40
0.375000000000035
40
0.375000000000035
40
0.437500000000031
40
0.437500000000031
40
0.500000000000028
40
0.500000000000028
40
0.625000000000021
40
0.625000000000021
40
0.687500000000017
40
0.687500000000017
40
0.750000000000014
40
0.81250000000001
40
0.81250000000001
40
0.875000000000007
40
0.875000000000007
40
1
40
1
40
1
40
1
41
1
10
124.999911752939
20
1.18025687169057
30
0
41
1
10
124.999909388748
20
1.18159212493282
30
0
41
1
10
124.995105579782
20
1.18332758798425
30
0
41
1
10
124.980857151485
20
1.18651780661389
30
0
41
1
10
124.974925831456
20
1.18767972182639
30
0
41
1
10
124.960626093791
20
1.19020668910099
30
0
41
1
10
124.952263421345
20
1.19156933333449
30
0
41
1
10
124.924032257165
20
1.19587763540557
30
0
41
1
10
124.900914042044
20
1.19906647041438
30
0
41
1
10
124.859720245405
20
1.20432985418518
30
0
41
1
10
124.844815909264
20
1.20617438008901
30
0
41
1
10
124.813101024665
20
1.20998610855253
30
0
41
1
10
124.79638528987
20
1.21194250195833
30
0
41
1
10
124.743728928795
20
1.21795940060002
30
0
41
1
10
124.705302967143
20
1.22216622185783
30
0
41
1
10
124.642511338656
20
1.22877980134388
30
0
41
1
10
124.620767611164
20
1.23102926751403
30
0
41
1
10
124.576524863869
20
1.23552922825115
30
0
41
1
10
124.531299068045
20
1.24005437171849
30
0
41
1
10
124.484134601065
20
1.24462917807756
30
0
41
1
10
124.435986840167
20
1.24922917345304
30
0
41
1
10
124.4113001161
20
1.25155289998281
30
0
41
1
10
124.336804535657
20
1.25846177520066
30
0
41
1
10
124.286559043089
20
1.26298743313191
30
0
41
1
10
124.235731275221
20
1.26743276278705
30
0
0
SPLINE
5
3D1
100
AcDbEntity
8
1
62
256
6
ByLayer
370
13
48
1
60
0
100
AcDbSpline
70
4
71
3
72
8
73
4
40
0
40
0
40
0
40
0
40
1
40
1
40
1
40
1
41
1
10
124.235731275221
20
1.26743276278705
30
0
41
1
10
124.192317003554
20
2.71499194318915
30
0
41
1
10
124.148902731887
20
4.16255112359124
30
0
41
1
10
124.10548846022
20
5.61011030399334
30
0
0
SPLINE
5
3D2
100
AcDbEntity
8
1
62
256
6
ByLayer
370
18
48
1
60
0
100
AcDbSpline
70
4
71
3
72
22
73
18
40
0
40
0
40
0
40
0
40
0.125
40
0.125
40
0.25
40
0.25
40
0.375
40
0.375
40
0.5
40
0.5
40
0.625
40
0.625
40
0.75
40
0.75
40
0.875
40
0.875
40
1
40
1
40
1
40
1
41
1
10
124.10548846022
20
5.61011030399334
30
0
41
1
10
124.137824971674
20
5.60728219527761
30
0
41
1
10
124.169563339949
20
5.60362207811005
30
0
41
1
10
124.231900219952
20
5.59471631992147
30
0
41
1
10
124.262783023226
20
5.58941010279511
30
0
41
1
10
124.321909004394
20
5.57741151262093
30
0
41
1
10
124.349934961659
20
5.5707841302434
30
0
41
1
10
124.402971653475
20
5.55629723665822
30
0
41
1
10
124.42818042742
20
5.54835078490567
30
0
41
1
10
124.473612338055
20
5.53178664816272
30
0
41
1
10
124.49404036489
20
5.52313265591079
30
0
41
1
10
124.530277717763
20
5.50507385898595
30
0
41
1
10
124.546019657252
20
5.49565825603793
30
0
41
1
10
124.571450247794
20
5.47686269980005
30
0
41
1
10
124.58135813827
20
5.46738424314401
30
0
41
1
10
124.595349896155
20
5.44825996042977
30
0
41
1
10
124.599304721449
20
5.43874796880863
30
0
41
1
10
124.600101020784
20
5.4294367503764
30
0
0
SPLINE
5
3D3
100
AcDbEntity
8
1
62
256
6
ByLayer
370
18
48
1
60
0
100
AcDbSpline
70
4
71
3
72
8
73
4
40
0
40
0
40
0
40
0
40
1
40
1
40
1
40
1
41
1
10
124.999911752939
20
33.9608830003897
30
0
41
1
10
124.999910040364
20
33.986313495856
30
0
41
1
10
124.997388875436
20
34.0113120225778
30
0
41
1
10
124.992388663694
20
34.0358855082227
30
0
0
SPLINE
5
3D4
100
AcDbEntity
8
1
62
256
6
ByLayer
370
18
48
1
60
0
100
AcDbSpline
70
4
71
3
72
10
73
6
40
0
40
0
40
0
40
0
40
0.5
40
0.5
40
1
40
1
40
1
40
1
41
1
10
124.263340414623
20
-46.7514736894442
30
0
41
1
10
124.229258905063
20
-46.7730362079835
30
0
41
1
10
124.190508059633
20
-46.7940790319863
30
0
41
1
10
124.099877681605
20
-46.8347034642686
30
0
41
1
10
124.047743117778
20
-46.8543945163412
30
0
41
1
10
123.98681614177
20
-46.8722769964331
30
0
0
SPLINE
5
3D5
100
AcDbEntity
8
1
62
256
6
ByLayer
370
18
48
1
60
0
100
AcDbSpline
70
4
71
1
72
4
73
2
40
0
40
0
40
1
40
1
41
1
10
124.58330939662
20
-38.0560296638717
30
0
41
1
10
124.586554009322
20
-38.0372113296094
30
0
0
SPLINE
5
3D6
100
AcDbEntity
8
1
62
256
6
ByLayer
370
18
48
1
60
0
100
AcDbSpline
70
4
71
1
72
4
73
2
40
0
40
0
40
1
40
1
41
1
10
124.597262032272
20
-37.9751061806618
30
0
41
1
10
124.978081117343
20
-35.7664047134809
30
0
0
SPLINE
5
3D7
100
AcDbEntity
8
1
62
256
6
ByLayer
370
18
48
1
60
0
100
AcDbSpline
70
4
71
1
72
4
73
2
40
0
40
0
40
1
40
1
41
1
10
124.500001483481
20
40.357147804433
30
0
41
1
10
124.781966325308
20
41.3585535898159
30
0
0
SPLINE
5
3D8
100
AcDbEntity
8
1
62
256
6
ByLayer
370
18
48
1
60
0
100
AcDbSpline
70
4
71
1
72
4
73
2
40
0
40
0
40
1
40
1
41
1
10
117.711928912991
20
38.5201133737413
30
0
41
1
10
116.582583496177
20
36.339134392181
30
0
0
SPLINE
5
3D9
100
AcDbEntity
8
1
62
256
6
ByLayer
370
18
48
1
60
0
100
AcDbSpline
70
4
71
1
72
4
73
2
40
0
40
0
40
1
40
1
41
1
10
124.978081117343
20
35.7664047134808
30
0
41
1
10
124.58330939662
20
38.0560296638717
30
0
0
SPLINE
5
3DA
100
AcDbEntity
8
1
62
256
6
ByLayer
370
18
48
1
60
0
100
AcDbSpline
70
4
71
1
72
4
73
2
40
0
40
0
40
1
40
1
41
1
10
124.781966325308
20
-41.3585535898159
30
0
41
1
10
124.500001483481
20
-40.357147804433
30
0
0
SPLINE
5
3DB
100
AcDbEntity
8
1
62
256
6
ByLayer
370
18
48
1
60
0
100
AcDbSpline
70
4
71
1
72
4
73
2
40
0
40
0
40
1
40
1
41
1
10
117.668394029905
20
6.0367797619935
30
0
41
1
10
116.532432159054
20
1.92109047946968
30
0
0
SPLINE
5
3DC
100
AcDbEntity
8
1
62
256
6
ByLayer
370
18
48
1
60
0
100
AcDbSpline
70
4
71
1
72
4
73
2
40
0
40
0
40
1
40
1
41
1
10
124.999903508167
20
1.18036969646386
30
0
41
1
10
124.600067491398
20
5.42980928632005
30
0
0
LINE
5
7D
100
AcDbEntity
8
1
62
256
6
ByLayer
370
18
48
1
60
0
100
AcDbLine
10
115.475
20
44.458952
30
0
11
115.475
21
43.890729
31
0
39
0
210
0
220
0
230
1
0
LINE
5
7E
100
AcDbEntity
8
1
62
256
6
ByLayer
370
18
48
1
60
0
100
AcDbLine
10
118.267949
20
-5.977393
30
0
11
119.133975
21
-4.531947
31
0
39
0
210
0
220
0
230
1
0
LINE
5
7F
100
AcDbEntity
8
1
62
256
6
ByLayer
370
18
48
1
60
0
100
AcDbLine
10
124.875905
20
29.862
30
0
11
124.819479
21
28.605967
31
0
39
0
210
0
220
0
230
1
0
LINE
5
80
100
AcDbEntity
8
1
62
256
6
ByLayer
370
18
48
1
60
0
100
AcDbLine
10
116.351944
20
29.11591
30
0
11
116.40825
21
30.37195
31
0
39
0
210
0
220
0
230
1
0
LINE
5
81
100
AcDbEntity
8
1
62
256
6
ByLayer
370
18
48
1
60
0
100
AcDbLine
10
124.021434
20
27.897394
30
0
11
117.08226
21
28.315293
31
0
39
0
210
0
220
0
230
1
0
LINE
5
82
100
AcDbEntity
8
1
62
256
6
ByLayer
370
18
48
1
60
0
100
AcDbLine
10
124.475
20
19.709634
30
0
11
115.525
21
19.709634
31
0
39
0
210
0
220
0
230
1
0
LINE
5
83
100
AcDbEntity
8
1
62
256
6
ByLayer
370
18
48
1
60
0
100
AcDbLine
10
115.525
20
27.271596
30
0
11
124.475
21
27.271596
31
0
39
0
210
0
220
0
230
1
0
LINE
5
84
100
AcDbEntity
8
1
62
256
6
ByLayer
370
18
48
1
60
0
100
AcDbLine
10
115.525
20
27.271596
30
0
11
115.525
21
19.709634
31
0
39
0
210
0
220
0
230
1
0
LINE
5
85
100
AcDbEntity
8
1
62
256
6
ByLayer
370
18
48
1
60
0
100
AcDbLine
10
115.475
20
21.793677
30
0
11
115.475
21
20.743935
31
0
39
0
210
0
220
0
230
1
0
LINE
5
86
100
AcDbEntity
8
1
62
256
6
ByLayer
370
18
48
1
60
0
100
AcDbLine
10
115.475
20
20.743935
30
0
11
115.500101
21
20.743935
31
0
39
0
210
0
220
0
230
1
0
LINE
5
87
100
AcDbEntity
8
1
62
256
6
ByLayer
370
18
48
1
60
0
100
AcDbLine
10
115.475
20
-17.661766
30
0
11
115.475
21
-17.77494
31
0
39
0
210
0
220
0
230
1
0
LINE
5
88
100
AcDbEntity
8
1
62
256
6
ByLayer
370
18
48
1
60
0
100
AcDbLine
10
115.475
20
-17.77494
30
0
11
115.475
21
-17.904184
31
0
39
0
210
0
220
0
230
1
0
LINE
5
89
100
AcDbEntity
8
1
62
256
6
ByLayer
370
18
48
1
60
0
100
AcDbLine
10
115.475
20
-17.904184
30
0
11
115.475
21
-18.380954
31
0
39
0
210
0
220
0
230
1
0
LINE
5
8A
100
AcDbEntity
8
1
62
256
6
ByLayer
370
13
48
1
60
0
100
AcDbLine
10
115.475
20
-16.923131
30
0
11
115.500101
21
-16.923131
31
0
39
0
210
0
220
0
230
1
0
LINE
5
8B
100
AcDbEntity
8
1
62
256
6
ByLayer
370
18
48
1
60
0
100
AcDbLine
10
115.475
20
-18.400401
30
0
11
115.475
21
-18.380955
31
0
39
0
210
0
220
0
230
1
0
LINE
5
8C
100
AcDbEntity
8
1
62
256
6
ByLayer
370
13
48
1
60
0
100
AcDbLine
10
115.475
20
-17.036304
30
0
11
115.500101
21
-17.036304
31
0
39
0
210
0
220
0
230
1
0
LINE
5
8D
100
AcDbEntity
8
1
62
256
6
ByLayer
370
13
48
1
60
0
100
AcDbLine
10
115.475
20
-17.165549
30
0
11
115.500101
21
-17.165549
31
0
39
0
210
0
220
0
230
1
0
LINE
5
8E
100
AcDbEntity
8
1
62
256
6
ByLayer
370
18
48
1
60
0
100
AcDbLine
10
115.475
20
-18.513575
30
0
11
115.475
21
-18.400401
31
0
39
0
210
0
220
0
230
1
0
LINE
5
8F
100
AcDbEntity
8
1
62
256
6
ByLayer
370
18
48
1
60
0
100
AcDbLine
10
115.475
20
-18.642819
30
0
11
115.475
21
-18.513575
31
0
39
0
210
0
220
0
230
1
0
LINE
5
90
100
AcDbEntity
8
1
62
256
6
ByLayer
370
18
48
1
60
0
100
AcDbLine
10
115.475
20
-19.119589
30
0
11
115.475
21
-18.642819
31
0
39
0
210
0
220
0
230
1
0
LINE
5
91
100
AcDbEntity
8
1
62
256
6
ByLayer
370
13
48
1
60
0
100
AcDbLine
10
115.475
20
-17.661766
30
0
11
115.500101
21
-17.661766
31
0
39
0
210
0
220
0
230
1
0
LINE
5
92
100
AcDbEntity
8
1
62
256
6
ByLayer
370
18
48
1
60
0
100
AcDbLine
10
115.475
20
-19.11959
30
0
11
115.475
21
-19.139037
31
0
39
0
210
0
220
0
230
1
0
LINE
5
93
100
AcDbEntity
8
1
62
256
6
ByLayer
370
13
48
1
60
0
100
AcDbLine
10
115.475
20
-17.77494
30
0
11
115.500101
21
-17.77494
31
0
39
0
210
0
220
0
230
1
0
LINE
5
94
100
AcDbEntity
8
1
62
256
6
ByLayer
370
13
48
1
60
0
100
AcDbLine
10
115.475
20
-17.904184
30
0
11
115.500101
21
-17.904184
31
0
39
0
210
0
220
0
230
1
0
LINE
5
95
100
AcDbEntity
8
1
62
256
6
ByLayer
370
18
48
1
60
0
100
AcDbLine
10
115.475
20
-19.25221
30
0
11
115.475
21
-19.139037
31
0
39
0
210
0
220
0
230
1
0
LINE
5
96
100
AcDbEntity
8
1
62
256
6
ByLayer
370
18
48
1
60
0
100
AcDbLine
10
115.475
20
-19.25221
30
0
11
115.475
21
-19.381455
31
0
39
0
210
0
220
0
230
1
0
LINE
5
97
100
AcDbEntity
8
1
62
256
6
ByLayer
370
18
48
1
60
0
100
AcDbLine
10
115.475
20
-19.381455
30
0
11
115.475
21
-19.858224
31
0
39
0
210
0
220
0
230
1
0
LINE
5
98
100
AcDbEntity
8
1
62
256
6
ByLayer
370
13
48
1
60
0
100
AcDbLine
10
115.475
20
-18.400401
30
0
11
115.500101
21
-18.400401
31
0
39
0
210
0
220
0
230
1
0
LINE
5
99
100
AcDbEntity
8
1
62
256
6
ByLayer
370
18
48
1
60
0
100
AcDbLine
10
115.475
20
-19.877672
30
0
11
115.475
21
-19.858226
31
0
39
0
210
0
220
0
230
1
0
LINE
5
9A
100
AcDbEntity
8
1
62
256
6
ByLayer
370
13
48
1
60
0
100
AcDbLine
10
115.475
20
-18.513575
30
0
11
115.500101
21
-18.513575
31
0
39
0
210
0
220
0
230
1
0
LINE
5
9B
100
AcDbEntity
8
1
62
256
6
ByLayer
370
13
48
1
60
0
100
AcDbLine
10
115.475
20
-18.642819
30
0
11
115.500101
21
-18.642819
31
0
39
0
210
0
220
0
230
1
0
LINE
5
9C
100
AcDbEntity
8
1
62
256
6
ByLayer
370
18
48
1
60
0
100
AcDbLine
10
115.475
20
-19.877672
30
0
11
115.475
21
-19.990846
31
0
39
0
210
0
220
0
230
1
0
LINE
5
9D
100
AcDbEntity
8
1
62
256
6
ByLayer
370
18
48
1
60
0
100
AcDbLine
10
115.475
20
-20.12009
30
0
11
115.475
21
-19.990846
31
0
39
0
210
0
220
0
230
1
0
LINE
5
9E
100
AcDbEntity
8
1
62
256
6
ByLayer
370
18
48
1
60
0
100
AcDbLine
10
115.475
20
-20.59686
30
0
11
115.475
21
-20.12009
31
0
39
0
210
0
220
0
230
1
0
LINE
5
9F
100
AcDbEntity
8
1
62
256
6
ByLayer
370
13
48
1
60
0
100
AcDbLine
10
115.475
20
-19.139037
30
0
11
115.500101
21
-19.139037
31
0
39
0
210
0
220
0
230
1
0
LINE
5
A0
100
AcDbEntity
8
1
62
256
6
ByLayer
370
18
48
1
60
0
100
AcDbLine
10
115.475
20
-20.596861
30
0
11
115.475
21
-20.616308
31
0
39
0
210
0
220
0
230
1
0
LINE
5
A1
100
AcDbEntity
8
1
62
256
6
ByLayer
370
13
48
1
60
0
100
AcDbLine
10
115.475
20
-19.25221
30
0
11
115.500101
21
-19.25221
31
0
39
0
210
0
220
0
230
1
0
LINE
5
A2
100
AcDbEntity
8
1
62
256
6
ByLayer
370
13
48
1
60
0
100
AcDbLine
10
115.475
20
-19.381455
30
0
11
115.500101
21
-19.381455
31
0
39
0
210
0
220
0
230
1
0
LINE
5
A3
100
AcDbEntity
8
1
62
256
6
ByLayer
370
18
48
1
60
0
100
AcDbLine
10
115.475
20
-20.616308
30
0
11
115.475
21
-20.729481
31
0
39
0
210
0
220
0
230
1
0
LINE
5
A4
100
AcDbEntity
8
1
62
256
6
ByLayer
370
18
48
1
60
0
100
AcDbLine
10
115.475
20
-20.729481
30
0
11
115.475
21
-20.858725
31
0
39
0
210
0
220
0
230
1
0
LINE
5
A5
100
AcDbEntity
8
1
62
256
6
ByLayer
370
18
48
1
60
0
100
AcDbLine
10
115.475
20
-20.858725
30
0
11
115.475
21
-21.335495
31
0
39
0
210
0
220
0
230
1
0
LINE
5
A6
100
AcDbEntity
8
1
62
256
6
ByLayer
370
13
48
1
60
0
100
AcDbLine
10
115.475
20
-19.877672
30
0
11
115.500101
21
-19.877672
31
0
39
0
210
0
220
0
230
1
0
LINE
5
A7
100
AcDbEntity
8
1
62
256
6
ByLayer
370
18
48
1
60
0
100
AcDbLine
10
115.475
20
-21.354943
30
0
11
115.475
21
-21.335496
31
0
39
0
210
0
220
0
230
1
0
LINE
5
A8
100
AcDbEntity
8
1
62
256
6
ByLayer
370
13
48
1
60
0
100
AcDbLine
10
115.475
20
-19.990846
30
0
11
115.500101
21
-19.990846
31
0
39
0
210
0
220
0
230
1
0
LINE
5
A9
100
AcDbEntity
8
1
62
256
6
ByLayer
370
13
48
1
60
0
100
AcDbLine
10
115.475
20
-20.12009
30
0
11
115.500101
21
-20.12009
31
0
39
0
210
0
220
0
230
1
0
LINE
5
AA
100
AcDbEntity
8
1
62
256
6
ByLayer
370
18
48
1
60
0
100
AcDbLine
10
115.475
20
-21.354943
30
0
11
115.475
21
-21.468116
31
0
39
0
210
0
220
0
230
1
0
LINE
5
AB
100
AcDbEntity
8
1
62
256
6
ByLayer
370
18
48
1
60
0
100
AcDbLine
10
115.475
20
-21.597361
30
0
11
115.475
21
-21.468116
31
0
39
0
210
0
220
0
230
1
0
LINE
5
AC
100
AcDbEntity
8
1
62
256
6
ByLayer
370
18
48
1
60
0
100
AcDbLine
10
115.475
20
-22.07413
30
0
11
115.475
21
-21.597361
31
0
39
0
210
0
220
0
230
1
0
LINE
5
AD
100
AcDbEntity
8
1
62
256
6
ByLayer
370
13
48
1
60
0
100
AcDbLine
10
115.475
20
-20.616308
30
0
11
115.500101
21
-20.616308
31
0
39
0
210
0
220
0
230
1
0
LINE
5
AE
100
AcDbEntity
8
1
62
256
6
ByLayer
370
18
48
1
60
0
100
AcDbLine
10
115.475
20
-22.074132
30
0
11
115.475
21
-22.093578
31
0
39
0
210
0
220
0
230
1
0
LINE
5
AF
100
AcDbEntity
8
1
62
256
6
ByLayer
370
13
48
1
60
0
100
AcDbLine
10
115.475
20
-20.729481
30
0
11
115.500101
21
-20.729481
31
0
39
0
210
0
220
0
230
1
0
LINE
5
B0
100
AcDbEntity
8
1
62
256
6
ByLayer
370
13
48
1
60
0
100
AcDbLine
10
115.475
20
-20.858725
30
0
11
115.500101
21
-20.858725
31
0
39
0
210
0
220
0
230
1
0
LINE
5
B1
100
AcDbEntity
8
1
62
256
6
ByLayer
370
18
48
1
60
0
100
AcDbLine
10
115.475
20
-22.206752
30
0
11
115.475
21
-22.093578
31
0
39
0
210
0
220
0
230
1
0
LINE
5
B2
100
AcDbEntity
8
1
62
256
6
ByLayer
370
18
48
1
60
0
100
AcDbLine
10
115.475
20
-22.206752
30
0
11
115.475
21
-22.335996
31
0
39
0
210
0
220
0
230
1
0
LINE
5
B3
100
AcDbEntity
8
1
62
256
6
ByLayer
370
18
48
1
60
0
100
AcDbLine
10
115.475
20
-22.335996
30
0
11
115.475
21
-22.812766
31
0
39
0
210
0
220
0
230
1
0
LINE
5
B4
100
AcDbEntity
8
1
62
256
6
ByLayer
370
13
48
1
60
0
100
AcDbLine
10
115.475
20
-21.354943
30
0
11
115.500101
21
-21.354943
31
0
39
0
210
0
220
0
230
1
0
LINE
5
B5
100
AcDbEntity
8
1
62
256
6
ByLayer
370
18
48
1
60
0
100
AcDbLine
10
115.475
20
-22.832214
30
0
11
115.475
21
-22.812767
31
0
39
0
210
0
220
0
230
1
0
LINE
5
B6
100
AcDbEntity
8
1
62
256
6
ByLayer
370
13
48
1
60
0
100
AcDbLine
10
115.475
20
-21.468116
30
0
11
115.500101
21
-21.468116
31
0
39
0
210
0
220
0
230
1
0
LINE
5
B7
100
AcDbEntity
8
1
62
256
6
ByLayer
370
13
48
1
60
0
100
AcDbLine
10
115.475
20
-21.597361
30
0
11
115.500101
21
-21.597361
31
0
39
0
210
0
220
0
230
1
0
LINE
5
B8
100
AcDbEntity
8
1
62
256
6
ByLayer
370
18
48
1
60
0
100
AcDbLine
10
115.475
20
-22.832214
30
0
11
115.475
21
-22.945387
31
0
39
0
210
0
220
0
230
1
0
LINE
5
B9
100
AcDbEntity
8
1
62
256
6
ByLayer
370
18
48
1
60
0
100
AcDbLine
10
115.475
20
-23.074631
30
0
11
115.475
21
-22.945387
31
0
39
0
210
0
220
0
230
1
0
LINE
5
BA
100
AcDbEntity
8
1
62
256
6
ByLayer
370
18
48
1
60
0
100
AcDbLine
10
115.475
20
-23.551401
30
0
11
115.475
21
-23.074631
31
0
39
0
210
0
220
0
230
1
0
LINE
5
BB
100
AcDbEntity
8
1
62
256
6
ByLayer
370
13
48
1
60
0
100
AcDbLine
10
115.475
20
-22.093578
30
0
11
115.500004
21
-22.093578
31
0
39
0
210
0
220
0
230
1
0
LINE
5
BC
100
AcDbEntity
8
1
62
256
6
ByLayer
370
18
48
1
60
0
100
AcDbLine
10
115.475
20
-23.551402
30
0
11
115.475
21
-23.570849
31
0
39
0
210
0
220
0
230
1
0
LINE
5
BD
100
AcDbEntity
8
1
62
256
6
ByLayer
370
13
48
1
60
0
100
AcDbLine
10
115.475
20
-22.206752
30
0
11
115.50001
21
-22.206752
31
0
39
0
210
0
220
0
230
1
0
LINE
5
BE
100
AcDbEntity
8
1
62
256
6
ByLayer
370
13
48
1
60
0
100
AcDbLine
10
115.475
20
-22.335996
30
0
11
115.500021
21
-22.335996
31
0
39
0
210
0
220
0
230
1
0
LINE
5
BF
100
AcDbEntity
8
1
62
256
6
ByLayer
370
18
48
1
60
0
100
AcDbLine
10
115.475
20
-23.570849
30
0
11
115.475
21
-23.684022
31
0
39
0
210
0
220
0
230
1
0
LINE
5
C0
100
AcDbEntity
8
1
62
256
6
ByLayer
370
18
48
1
60
0
100
AcDbLine
10
115.475
20
-23.684022
30
0
11
115.475
21
-23.813267
31
0
39
0
210
0
220
0
230
1
0
LINE
5
C1
100
AcDbEntity
8
1
62
256
6
ByLayer
370
18
48
1
60
0
100
AcDbLine
10
115.475
20
-23.813267
30
0
11
115.475
21
-24.290036
31
0
39
0
210
0
220
0
230
1
0
LINE
5
C2
100
AcDbEntity
8
1
62
256
6
ByLayer
370
13
48
1
60
0
100
AcDbLine
10
115.475
20
-22.832214
30
0
11
115.500062
21
-22.832214
31
0
39
0
210
0
220
0
230
1
0
LINE
5
C3
100
AcDbEntity
8
1
62
256
6
ByLayer
370
18
48
1
60
0
100
AcDbLine
10
124.5
20
-29.160097
30
0
11
124.5
21
-30.530574
31
0
39
0
210
0
220
0
230
1
0
LINE
5
C4
100
AcDbEntity
8
1
62
256
6
ByLayer
370
13
48
1
60
0
100
AcDbLine
10
115.475
20
-22.945387
30
0
11
115.500007
21
-22.945387
31
0
39
0
210
0
220
0
230
1
0
LINE
5
C5
100
AcDbEntity
8
1
62
256
6
ByLayer
370
18
48
1
60
0
100
AcDbLine
10
115.475
20
-29.160097
30
0
11
115.475
21
-31.448727
31
0
39
0
210
0
220
0
230
1
0
LINE
5
C6
100
AcDbEntity
8
1
62
256
6
ByLayer
370
13
48
1
60
0
100
AcDbLine
10
115.475
20
-23.074631
30
0
11
115.50006
21
-23.074631
31
0
39
0
210
0
220
0
230
1
0
LINE
5
C7
100
AcDbEntity
8
1
62
256
6
ByLayer
370
18
48
1
60
0
100
AcDbLine
10
115.475
20
-31.448727
30
0
11
117.070093
21
-31.548139
31
0
39
0
210
0
220
0
230
1
0
LINE
5
C8
100
AcDbEntity
8
1
62
256
6
ByLayer
370
18
48
1
60
0
100
AcDbLine
10
117.070093
20
-31.548139
30
0
11
117.198874
21
-31.186009
31
0
39
0
210
0
220
0
230
1
0
LINE
5
C9
100
AcDbEntity
8
1
62
256
6
ByLayer
370
18
48
1
60
0
100
AcDbLine
10
117.324077
20
-30.17374
30
0
11
117.484593
21
-30.093346
31
0
39
0
210
0
220
0
230
1
0
LINE
5
CA
100
AcDbEntity
8
1
62
256
6
ByLayer
370
13
48
1
60
0
100
AcDbLine
10
115.475
20
-23.570849
30
0
11
115.500101
21
-23.570849
31
0
39
0
210
0
220
0
230
1
0
LINE
5
CB
100
AcDbEntity
8
1
62
256
6
ByLayer
370
18
48
1
60
0
100
AcDbLine
10
117.198874
20
-31.186009
30
0
11
117.324077
21
-30.17374
31
0
39
0
210
0
220
0
230
1
0
LINE
5
CC
100
AcDbEntity
8
1
62
256
6
ByLayer
370
13
48
1
60
0
100
AcDbLine
10
115.475
20
-23.684022
30
0
11
115.500101
21
-23.684022
31
0
39
0
210
0
220
0
230
1
0
LINE
5
CD
100
AcDbEntity
8
1
62
256
6
ByLayer
370
18
48
1
60
0
100
AcDbLine
10
124.5
20
-30.530574
30
0
11
117.484593
21
-30.093346
31
0
39
0
210
0
220
0
230
1
0
LINE
5
CE
100
AcDbEntity
8
1
62
256
6
ByLayer
370
13
48
1
60
0
100
AcDbLine
10
115.475
20
-23.813267
30
0
11
115.500101
21
-23.813267
31
0
39
0
210
0
220
0
230
1
0
LINE
5
CF
100
AcDbEntity
8
1
62
256
6
ByLayer
370
18
48
1
60
0
100
AcDbLine
10
115.475
20
-24.309484
30
0
11
115.475
21
-24.290038
31
0
39
0
210
0
220
0
230
1
0
LINE
5
D0
100
AcDbEntity
8
1
62
256
6
ByLayer
370
18
48
1
60
0
100
AcDbLine
10
124.5
20
-24.422658
30
0
11
124.5
21
-24.343452
31
0
39
0
210
0
220
0
230
1
0
LINE
5
D1
100
AcDbEntity
8
1
62
256
6
ByLayer
370
18
48
1
60
0
100
AcDbLine
10
115.475
20
-24.422658
30
0
11
115.475
21
-24.309484
31
0
39
0
210
0
220
0
230
1
0
LINE
5
D2
100
AcDbEntity
8
1
62
256
6
ByLayer
370
18
48
1
60
0
100
AcDbLine
10
124.5
20
-24.551902
30
0
11
124.5
21
-24.422658
31
0
39
0
210
0
220
0
230
1
0
LINE
5
D3
100
AcDbEntity
8
1
62
256
6
ByLayer
370
18
48
1
60
0
100
AcDbLine
10
115.475
20
-24.551902
30
0
11
115.475
21
-24.422658
31
0
39
0
210
0
220
0
230
1
0
LINE
5
D4
100
AcDbEntity
8
1
62
256
6
ByLayer
370
18
48
1
60
0
100
AcDbLine
10
115.475
20
-25.028672
30
0
11
115.475
21
-24.551902
31
0
39
0
210
0
220
0
230
1
0
LINE
5
D5
100
AcDbEntity
8
1
62
256
6
ByLayer
370
18
48
1
60
0
100
AcDbLine
10
124.5
20
-25.028672
30
0
11
124.5
21
-24.551902
31
0
39
0
210
0
220
0
230
1
0
LINE
5
D6
100
AcDbEntity
8
1
62
256
6
ByLayer
370
18
48
1
60
0
100
AcDbLine
10
115.475
20
-25.028673
30
0
11
115.475
21
-25.04812
31
0
39
0
210
0
220
0
230
1
0
LINE
5
D7
100
AcDbEntity
8
1
62
256
6
ByLayer
370
18
48
1
60
0
100
AcDbLine
10
124.5
20
-25.028673
30
0
11
124.5
21
-25.04812
31
0
39
0
210
0
220
0
230
1
0
LINE
5
D8
100
AcDbEntity
8
1
62
256
6
ByLayer
370
18
48
1
60
0
100
AcDbLine
10
124.5
20
-25.161293
30
0
11
124.5
21
-25.04812
31
0
39
0
210
0
220
0
230
1
0
LINE
5
D9
100
AcDbEntity
8
1
62
256
6
ByLayer
370
13
48
1
60
0
100
AcDbLine
10
115.475
20
-24.309484
30
0
11
115.500101
21
-24.309484
31
0
39
0
210
0
220
0
230
1
0
LINE
5
DA
100
AcDbEntity
8
1
62
256
6
ByLayer
370
18
48
1
60
0
100
AcDbLine
10
124.5
20
-25.161293
30
0
11
124.5
21
-25.290537
31
0
39
0
210
0
220
0
230
1
0
LINE
5
DB
100
AcDbEntity
8
1
62
256
6
ByLayer
370
13
48
1
60
0
100
AcDbLine
10
115.475
20
-24.422658
30
0
11
115.508985
21
-24.422658
31
0
39
0
210
0
220
0
230
1
0
LINE
5
DC
100
AcDbEntity
8
1
62
256
6
ByLayer
370
18
48
1
60
0
100
AcDbLine
10
118.428069
20
-5.710165
30
0
11
119.133975
21
-6.888362
31
0
39
0
210
0
220
0
230
1
0
LINE
5
DD
100
AcDbEntity
8
1
62
256
6
ByLayer
370
18
48
1
60
0
100
AcDbLine
10
115.475
20
-25.161293
30
0
11
115.475
21
-25.04812
31
0
39
0
210
0
220
0
230
1
0
LINE
5
DE
100
AcDbEntity
8
1
62
256
6
ByLayer
370
18
48
1
60
0
100
AcDbLine
10
115.475
20
-25.161293
30
0
11
115.475
21
-25.290537
31
0
39
0
210
0
220
0
230
1
0
LINE
5
DF
100
AcDbEntity
8
1
62
256
6
ByLayer
370
13
48
1
60
0
100
AcDbLine
10
115.475
20
-24.551902
30
0
11
115.536624
21
-24.551902
31
0
39
0
210
0
220
0
230
1
0
LINE
5
E0
100
AcDbEntity
8
1
62
256
6
ByLayer
370
13
48
1
60
0
100
AcDbLine
10
124.463336
20
-24.551902
30
0
11
124.5
21
-24.551902
31
0
39
0
210
0
220
0
230
1
0
LINE
5
E1
100
AcDbEntity
8
1
62
256
6
ByLayer
370
18
48
1
60
0
100
AcDbLine
10
115.475
20
22.144542
30
0
11
115.475
21
21.793677
31
0
39
0
210
0
220
0
230
1
0
LINE
5
E2
100
AcDbEntity
8
1
62
256
6
ByLayer
370
18
48
1
60
0
100
AcDbLine
10
115.475
20
-25.290537
30
0
11
115.475
21
-26.000873
31
0
39
0
210
0
220
0
230
1
0
LINE
5
E3
100
AcDbEntity
8
1
62
256
6
ByLayer
370
18
48
1
60
0
100
AcDbLine
10
124.5
20
-25.290537
30
0
11
124.5
21
-26.000873
31
0
39
0
210
0
220
0
230
1
0
LINE
5
E4
100
AcDbEntity
8
1
62
256
6
ByLayer
370
18
48
1
60
0
100
AcDbLine
10
115.475
20
-26.000873
30
0
11
115.475
21
-29.160097
31
0
39
0
210
0
220
0
230
1
0
LINE
5
E5
100
AcDbEntity
8
1
62
256
6
ByLayer
370
18
48
1
60
0
100
AcDbLine
10
124.5
20
-26.000873
30
0
11
124.5
21
-29.160097
31
0
39
0
210
0
220
0
230
1
0
LINE
5
E6
100
AcDbEntity
8
1
62
256
6
ByLayer
370
18
48
1
60
0
100
AcDbLine
10
115.475
20
-29.160097
30
0
11
124.5
21
-29.160097
31
0
39
0
210
0
220
0
230
1
0
LINE
5
E7
100
AcDbEntity
8
1
62
256
6
ByLayer
370
13
48
1
60
0
100
AcDbLine
10
115.475
20
-25.04812
30
0
11
124.5
21
-25.04812
31
0
39
0
210
0
220
0
230
1
0
LINE
5
E8
100
AcDbEntity
8
1
62
256
6
ByLayer
370
18
48
1
60
0
100
AcDbLine
10
124.5
20
-26.000873
30
0
11
115.475
21
-26.000873
31
0
39
0
210
0
220
0
230
1
0
LINE
5
E9
100
AcDbEntity
8
1
62
256
6
ByLayer
370
18
48
1
60
0
100
AcDbLine
10
120.866025
20
-7.422838
30
0
11
120.866025
21
-6.888362
31
0
39
0
210
0
220
0
230
1
0
LINE
5
EA
100
AcDbEntity
8
1
62
256
6
ByLayer
370
13
48
1
60
0
100
AcDbLine
10
115.475
20
-25.161293
30
0
11
124.5
21
-25.161293
31
0
39
0
210
0
220
0
230
1
0
LINE
5
EB
100
AcDbEntity
8
1
62
256
6
ByLayer
370
18
48
1
60
0
100
AcDbLine
10
120.866025
20
-6.888362
30
0
11
119.133975
21
-6.888362
31
0
39
0
210
0
220
0
230
1
0
LINE
5
EC
100
AcDbEntity
8
1
62
256
6
ByLayer
370
18
48
1
60
0
100
AcDbLine
10
121.571931
20
-5.710165
30
0
11
120.866025
21
-6.888362
31
0
39
0
210
0
220
0
230
1
0
LINE
5
ED
100
AcDbEntity
8
1
62
256
6
ByLayer
370
13
48
1
60
0
100
AcDbLine
10
115.475
20
-25.290537
30
0
11
124.5
21
-25.290537
31
0
39
0
210
0
220
0
230
1
0
LINE
5
EE
100
AcDbEntity
8
1
62
256
6
ByLayer
370
18
48
1
60
0
100
AcDbLine
10
119.133975
20
-7.422838
30
0
11
119.133975
21
-6.888362
31
0
39
0
210
0
220
0
230
1
0
LINE
5
EF
100
AcDbEntity
8
1
62
256
6
ByLayer
370
18
48
1
60
0
100
AcDbLine
10
124.5
20
41.601664
30
0
11
124.5
21
39.814261
31
0
39
0
210
0
220
0
230
1
0
LINE
5
F0
100
AcDbEntity
8
1
62
256
6
ByLayer
370
18
48
1
60
0
100
AcDbLine
10
124.5
20
41.601664
30
0
11
115.475
21
41.601664
31
0
39
0
210
0
220
0
230
1
0
LINE
5
F1
100
AcDbEntity
8
1
62
256
6
ByLayer
370
13
48
1
60
0
100
AcDbLine
10
116.421356
20
30.881518
30
0
11
115.475
21
30.93851
31
0
39
0
210
0
220
0
230
1
0
LINE
5
F2
100
AcDbEntity
8
1
62
256
6
ByLayer
370
18
48
1
60
0
100
AcDbLine
10
115.475
20
41.601664
30
0
11
115.475
21
39.814261
31
0
39
0
210
0
220
0
230
1
0
LINE
5
F3
100
AcDbEntity
8
1
62
256
6
ByLayer
370
18
48
1
60
0
100
AcDbLine
10
115.475
20
27.322935
30
0
11
115.475
21
22.144435
31
0
39
0
210
0
220
0
230
1
0
LINE
5
F4
100
AcDbEntity
8
1
62
256
6
ByLayer
370
18
48
1
60
0
100
AcDbLine
10
124.5
20
27.322935
30
0
11
124.5
21
22.144435
31
0
39
0
210
0
220
0
230
1
0
LINE
5
F5
100
AcDbEntity
8
1
62
256
6
ByLayer
370
13
48
1
60
0
100
AcDbLine
10
116.414446
20
30.610095
30
0
11
115.475
21
30.666671
31
0
39
0
210
0
220
0
230
1
0
LINE
5
F6
100
AcDbEntity
8
1
62
256
6
ByLayer
370
18
48
1
60
0
100
AcDbLine
10
115.475
20
22.144435
30
0
11
115.525061
21
22.144435
31
0
39
0
210
0
220
0
230
1
0
LINE
5
F7
100
AcDbEntity
8
1
62
256
6
ByLayer
370
18
48
1
60
0
100
AcDbLine
10
124.474899
20
22.144435
30
0
11
124.5
21
22.144435
31
0
39
0
210
0
220
0
230
1
0
LINE
5
F8
100
AcDbEntity
8
1
62
256
6
ByLayer
370
18
48
1
60
0
100
AcDbLine
10
124.5
20
27.680257
30
0
11
124.5
21
28.029624
31
0
39
0
210
0
220
0
230
1
0
LINE
5
F9
100
AcDbEntity
8
1
62
256
6
ByLayer
370
18
48
1
60
0
100
AcDbLine
10
115.475
20
27.322935
30
0
11
115.525061
21
27.322935
31
0
39
0
210
0
220
0
230
1
0
LINE
5
FA
100
AcDbEntity
8
1
62
256
6
ByLayer
370
18
48
1
60
0
100
AcDbLine
10
124.474899
20
27.322935
30
0
11
124.5
21
27.322935
31
0
39
0
210
0
220
0
230
1
0
LINE
5
FB
100
AcDbEntity
8
1
62
256
6
ByLayer
370
18
48
1
60
0
100
AcDbLine
10
115.475
20
27.857515
30
0
11
124.5
21
27.680257
31
0
39
0
210
0
220
0
230
1
0
LINE
5
FC
100
AcDbEntity
8
1
62
256
6
ByLayer
370
18
48
1
60
0
100
AcDbLine
10
124.5
20
27.680257
30
0
11
124.5
21
27.322935
31
0
39
0
210
0
220
0
230
1
0
LINE
5
FD
100
AcDbEntity
8
1
62
256
6
ByLayer
370
18
48
1
60
0
100
AcDbLine
10
124.5
20
38.20213
30
0
11
124.5
21
38.443784
31
0
39
0
210
0
220
0
230
1
0
LINE
5
FE
100
AcDbEntity
8
1
62
256
6
ByLayer
370
18
48
1
60
0
100
AcDbLine
10
115.475
20
31.626129
30
0
11
115.475
21
33.569065
31
0
39
0
210
0
220
0
230
1
0
LINE
5
FF
100
AcDbEntity
8
1
62
256
6
ByLayer
370
18
48
1
60
0
100
AcDbLine
10
116.438983
20
31.568074
30
0
11
115.475
21
31.626129
31
0
39
0
210
0
220
0
230
1
0
LINE
5
100
100
AcDbEntity
8
1
62
256
6
ByLayer
370
18
48
1
60
0
100
AcDbLine
10
117.484593
20
38.881012
30
0
11
117.462972
21
38.039326
31
0
39
0
210
0
220
0
230
1
0
LINE
5
101
100
AcDbEntity
8
1
62
256
6
ByLayer
370
18
48
1
60
0
100
AcDbLine
10
115.475
20
27.857515
30
0
11
115.475
21
27.322935
31
0
39
0
210
0
220
0
230
1
0
LINE
5
102
100
AcDbEntity
8
1
62
256
6
ByLayer
370
18
48
1
60
0
100
AcDbLine
10
117.198874
20
37.788349
30
0
11
117.191872
21
37.515768
31
0
39
0
210
0
220
0
230
1
0
LINE
5
103
100
AcDbEntity
8
1
62
256
6
ByLayer
370
18
48
1
60
0
100
AcDbLine
10
117.324077
20
38.800618
30
0
11
117.296249
21
37.717316
31
0
39
0
210
0
220
0
230
1
0
LINE
5
104
100
AcDbEntity
8
1
62
256
6
ByLayer
370
18
48
1
60
0
100
AcDbLine
10
115.475
20
39.814261
30
0
11
115.475
21
37.525631
31
0
39
0
210
0
220
0
230
1
0
LINE
5
105
100
AcDbEntity
8
1
62
256
6
ByLayer
370
18
48
1
60
0
100
AcDbLine
10
117.070093
20
37.426219
30
0
11
117.198874
21
37.788349
31
0
39
0
210
0
220
0
230
1
0
LINE
5
106
100
AcDbEntity
8
1
62
256
6
ByLayer
370
18
48
1
60
0
100
AcDbLine
10
117.198874
20
37.788349
30
0
11
117.324077
21
38.800618
31
0
39
0
210
0
220
0
230
1
0
LINE
5
107
100
AcDbEntity
8
1
62
256
6
ByLayer
370
18
48
1
60
0
100
AcDbLine
10
115.475
20
20.743878
30
0
11
115.475
21
19.999965
31
0
39
0
210
0
220
0
230
1
0
LINE
5
108
100
AcDbEntity
8
1
62
256
6
ByLayer
370
18
48
1
60
0
100
AcDbLine
10
115.525
20
19.50205
30
0
11
115.525
21
19.709634
31
0
39
0
210
0
220
0
230
1
0
LINE
5
109
100
AcDbEntity
8
1
62
256
6
ByLayer
370
18
48
1
60
0
100
AcDbLine
10
124.475
20
27.271596
30
0
11
124.475
21
19.709634
31
0
39
0
210
0
220
0
230
1
0
LINE
5
10A
100
AcDbEntity
8
1
62
256
6
ByLayer
370
18
48
1
60
0
100
AcDbLine
10
115.525
20
27.271596
30
0
11
115.525
21
27.351048
31
0
39
0
210
0
220
0
230
1
0
LINE
5
10B
100
AcDbEntity
8
1
62
256
6
ByLayer
370
18
48
1
60
0
100
AcDbLine
10
124.475
20
27.271596
30
0
11
124.475
21
27.351048
31
0
39
0
210
0
220
0
230
1
0
LINE
5
10C
100
AcDbEntity
8
1
62
256
6
ByLayer
370
18
48
1
60
0
100
AcDbLine
10
124.475
20
19.50205
30
0
11
124.475
21
19.709634
31
0
39
0
210
0
220
0
230
1
0
LINE
5
10D
100
AcDbEntity
8
1
62
256
6
ByLayer
370
18
48
1
60
0
100
AcDbLine
10
117.324077
20
38.800618
30
0
11
117.484593
21
38.881012
31
0
39
0
210
0
220
0
230
1
0
LINE
5
10E
100
AcDbEntity
8
1
62
256
6
ByLayer
370
18
48
1
60
0
100
AcDbLine
10
124.5
20
38.443784
30
0
11
117.484593
21
38.881012
31
0
39
0
210
0
220
0
230
1
0
LINE
5
10F
100
AcDbEntity
8
1
62
256
6
ByLayer
370
18
48
1
60
0
100
AcDbLine
10
124.5
20
39.814261
30
0
11
124.5
21
38.443784
31
0
39
0
210
0
220
0
230
1
0
LINE
5
110
100
AcDbEntity
8
1
62
256
6
ByLayer
370
18
48
1
60
0
100
AcDbLine
10
115.475
20
39.814261
30
0
11
124.5
21
39.814261
31
0
39
0
210
0
220
0
230
1
0
LINE
5
111
100
AcDbEntity
8
1
62
256
6
ByLayer
370
18
48
1
60
0
100
AcDbLine
10
115.475
20
37.525631
30
0
11
115.475
21
33.569074
31
0
39
0
210
0
220
0
230
1
0
LINE
5
112
100
AcDbEntity
8
1
62
256
6
ByLayer
370
18
48
1
60
0
100
AcDbLine
10
116.488802
20
33.508019
30
0
11
115.475
21
33.569074
31
0
39
0
210
0
220
0
230
1
0
LINE
5
113
100
AcDbEntity
8
1
62
256
6
ByLayer
370
18
48
1
60
0
100
AcDbLine
10
117.070093
20
37.426219
30
0
11
117.066156
21
37.27296
31
0
39
0
210
0
220
0
230
1
0
LINE
5
114
100
AcDbEntity
8
1
62
256
6
ByLayer
370
18
48
1
60
0
100
AcDbLine
10
115.475
20
37.525631
30
0
11
117.070093
21
37.426219
31
0
39
0
210
0
220
0
230
1
0
LINE
5
115
100
AcDbEntity
8
1
62
256
6
ByLayer
370
18
48
1
60
0
100
AcDbLine
10
117.296557
20
-34.006921
30
0
11
124.235731
21
-34.447295
31
0
39
0
210
0
220
0
230
1
0
LINE
5
116
100
AcDbEntity
8
1
62
256
6
ByLayer
370
18
48
1
60
0
100
AcDbLine
10
124.637375
20
-29.553181
30
0
11
124.600101
21
-30.273981
31
0
39
0
210
0
220
0
230
1
0
LINE
5
117
100
AcDbEntity
8
1
62
256
6
ByLayer
370
18
48
1
60
0
100
AcDbLine
10
124.513309
20
-26.924878
30
0
11
124.637375
21
-29.553181
31
0
39
0
210
0
220
0
230
1
0
LINE
5
118
100
AcDbEntity
8
1
62
256
6
ByLayer
370
18
48
1
60
0
100
AcDbLine
10
117.296557
20
49.967373
30
0
11
124.235731
21
49.983265
31
0
39
0
210
0
220
0
230
1
0
LINE
5
119
100
AcDbEntity
8
1
62
256
6
ByLayer
370
18
48
1
60
0
100
AcDbLine
10
116.532317
20
47.89578
30
0
11
116.532377
21
49.188806
31
0
39
0
210
0
220
0
230
1
0
LINE
5
11A
100
AcDbEntity
8
1
62
256
6
ByLayer
370
18
48
1
60
0
100
AcDbLine
10
124.499999
20
-26.833016
30
0
11
124.513309
21
-26.924878
31
0
39
0
210
0
220
0
230
1
0
LINE
5
11B
100
AcDbEntity
8
1
62
256
6
ByLayer
370
18
48
1
60
0
100
AcDbLine
10
115.475
20
43.890729
30
0
11
115.500196
21
43.890786
31
0
39
0
210
0
220
0
230
1
0
LINE
5
11C
100
AcDbEntity
8
1
62
256
6
ByLayer
370
18
48
1
60
0
100
AcDbLine
10
119.133975
20
23.798703
30
0
11
118.594603
21
22.985601
31
0
39
0
210
0
220
0
230
1
0
LINE
5
11D
100
AcDbEntity
8
1
62
256
6
ByLayer
370
18
48
1
60
0
100
AcDbLine
10
119.133975
20
24.78355
30
0
11
119.133975
21
23.798703
31
0
39
0
210
0
220
0
230
1
0
LINE
5
11E
100
AcDbEntity
8
1
62
256
6
ByLayer
370
18
48
1
60
0
100
AcDbLine
10
115.78562
20
44.459664
30
0
11
115.475
21
44.458952
31
0
39
0
210
0
220
0
230
1
0
LINE
5
11F
100
AcDbEntity
8
1
62
256
6
ByLayer
370
18
48
1
60
0
100
AcDbLine
10
120.866025
20
24.78355
30
0
11
120.866025
21
23.798703
31
0
39
0
210
0
220
0
230
1
0
LINE
5
120
100
AcDbEntity
8
1
62
256
6
ByLayer
370
18
48
1
60
0
100
AcDbLine
10
119.133975
20
23.798703
30
0
11
120.866025
21
23.798703
31
0
39
0
210
0
220
0
230
1
0
LINE
5
121
100
AcDbEntity
8
1
62
256
6
ByLayer
370
18
48
1
60
0
100
AcDbLine
10
121.405397
20
22.985601
30
0
11
120.866025
21
23.798703
31
0
39
0
210
0
220
0
230
1
0
LINE
5
122
100
AcDbEntity
8
1
62
256
6
ByLayer
370
18
48
1
60
0
100
AcDbLine
10
120.866025
20
22.172483
30
0
11
121.732051
21
23.478017
31
0
39
0
210
0
220
0
230
1
0
LINE
5
123
100
AcDbEntity
8
1
62
256
6
ByLayer
370
18
48
1
60
0
100
AcDbLine
10
120.866025
20
24.78355
30
0
11
119.133975
21
24.78355
31
0
39
0
210
0
220
0
230
1
0
LINE
5
124
100
AcDbEntity
8
1
62
256
6
ByLayer
370
18
48
1
60
0
100
AcDbLine
10
120.866025
20
24.78355
30
0
11
121.732051
21
23.478017
31
0
39
0
210
0
220
0
230
1
0
LINE
5
125
100
AcDbEntity
8
1
62
256
6
ByLayer
370
18
48
1
60
0
100
AcDbLine
10
119.133975
20
22.172483
30
0
11
120.866025
21
22.172483
31
0
39
0
210
0
220
0
230
1
0
LINE
5
126
100
AcDbEntity
8
1
62
256
6
ByLayer
370
18
48
1
60
0
100
AcDbLine
10
119.133975
20
22.172483
30
0
11
118.267949
21
23.478017
31
0
39
0
210
0
220
0
230
1
0
LINE
5
127
100
AcDbEntity
8
1
62
256
6
ByLayer
370
18
48
1
60
0
100
AcDbLine
10
118.267949
20
23.478017
30
0
11
119.133975
21
24.78355
31
0
39
0
210
0
220
0
230
1
0
LINE
5
128
100
AcDbEntity
8
1
62
256
6
ByLayer
370
18
48
1
60
0
100
AcDbLine
10
116.436586
20
0.685763
30
0
11
115.475
21
0.769862
31
0
39
0
210
0
220
0
230
1
0
LINE
5
129
100
AcDbEntity
8
1
62
256
6
ByLayer
370
18
48
1
60
0
100
AcDbLine
10
115.475
20
-1.564689
30
0
11
115.475
21
-1.728829
31
0
39
0
210
0
220
0
230
1
0
LINE
5
12A
100
AcDbEntity
8
1
62
256
6
ByLayer
370
18
48
1
60
0
100
AcDbLine
10
124.875905
20
-29.862
30
0
11
124.819479
21
-28.605967
31
0
39
0
210
0
220
0
230
1
0
LINE
5
12B
100
AcDbEntity
8
1
62
256
6
ByLayer
370
18
48
1
60
0
100
AcDbLine
10
124.637375
20
-36.615176
30
0
11
124.600101
21
-37.952364
31
0
39
0
210
0
220
0
230
1
0
LINE
5
12C
100
AcDbEntity
8
1
62
256
6
ByLayer
370
18
48
1
60
0
100
AcDbLine
10
124.580611
20
-34.405407
30
0
11
124.637375
21
-36.615176
31
0
39
0
210
0
220
0
230
1
0
LINE
5
12D
100
AcDbEntity
8
1
62
256
6
ByLayer
370
18
48
1
60
0
100
AcDbLine
10
115.525
20
-11.297148
30
0
11
115.525
21
-11.198657
31
0
39
0
210
0
220
0
230
1
0
LINE
5
12E
100
AcDbEntity
8
1
62
256
6
ByLayer
370
18
48
1
60
0
100
AcDbLine
10
124.475
20
-11.297148
30
0
11
124.475
21
-11.198657
31
0
39
0
210
0
220
0
230
1
0
LINE
5
12F
100
AcDbEntity
8
1
62
256
6
ByLayer
370
18
48
1
60
0
100
AcDbLine
10
116.532317
20
-32.533147
30
0
11
116.832654
21
-31.533337
31
0
39
0
210
0
220
0
230
1
0
LINE
5
130
100
AcDbEntity
8
1
62
256
6
ByLayer
370
18
48
1
60
0
100
AcDbLine
10
115.525
20
-2.016004
30
0
11
115.525
21
-1.70588
31
0
39
0
210
0
220
0
230
1
0
LINE
5
131
100
AcDbEntity
8
1
62
256
6
ByLayer
370
18
48
1
60
0
100
AcDbLine
10
124.475
20
-2.016004
30
0
11
124.475
21
-1.70588
31
0
39
0
210
0
220
0
230
1
0
LINE
5
132
100
AcDbEntity
8
1
62
256
6
ByLayer
370
18
48
1
60
0
100
AcDbLine
10
124.475
20
-2.016004
30
0
11
124.475
21
-11.198657
31
0
39
0
210
0
220
0
230
1
0
LINE
5
133
100
AcDbEntity
8
1
62
256
6
ByLayer
370
18
48
1
60
0
100
AcDbLine
10
115.525
20
-2.016004
30
0
11
115.525
21
-11.198657
31
0
39
0
210
0
220
0
230
1
0
LINE
5
134
100
AcDbEntity
8
1
62
256
6
ByLayer
370
18
48
1
60
0
100
AcDbLine
10
115.475
20
-32.190009
30
0
11
115.475
21
-31.906269
31
0
39
0
210
0
220
0
230
1
0
LINE
5
135
100
AcDbEntity
8
1
62
256
6
ByLayer
370
18
48
1
60
0
100
AcDbLine
10
115.475
20
-33.351715
30
0
11
115.475
21
-33.635455
31
0
39
0
210
0
220
0
230
1
0
LINE
5
136
100
AcDbEntity
8
1
62
256
6
ByLayer
370
18
48
1
60
0
100
AcDbLine
10
115.475
20
-32.36926
30
0
11
115.475
21
-32.190009
31
0
39
0
210
0
220
0
230
1
0
LINE
5
137
100
AcDbEntity
8
1
62
256
6
ByLayer
370
18
48
1
60
0
100
AcDbLine
10
115.475
20
-31.906269
30
0
11
115.475
21
-31.448732
31
0
39
0
210
0
220
0
230
1
0
LINE
5
138
100
AcDbEntity
8
1
62
256
6
ByLayer
370
18
48
1
60
0
100
AcDbLine
10
124.475
20
-11.198657
30
0
11
115.525
21
-11.198657
31
0
39
0
210
0
220
0
230
1
0
LINE
5
139
100
AcDbEntity
8
1
62
256
6
ByLayer
370
18
48
1
60
0
100
AcDbLine
10
115.525
20
-2.016004
30
0
11
124.475
21
-2.016004
31
0
39
0
210
0
220
0
230
1
0
LINE
5
13A
100
AcDbEntity
8
1
62
256
6
ByLayer
370
18
48
1
60
0
100
AcDbLine
10
124.637375
20
-4.993585
30
0
11
124.600101
21
-5.429437
31
0
39
0
210
0
220
0
230
1
0
LINE
5
13B
100
AcDbEntity
8
1
62
256
6
ByLayer
370
18
48
1
60
0
100
AcDbLine
10
124.513309
20
-3.436915
30
0
11
124.637375
21
-4.993585
31
0
39
0
210
0
220
0
230
1
0
LINE
5
13C
100
AcDbEntity
8
1
62
256
6
ByLayer
370
18
48
1
60
0
100
AcDbLine
10
124.499999
20
-3.383634
30
0
11
124.513309
21
-3.436915
31
0
39
0
210
0
220
0
230
1
0
LINE
5
13D
100
AcDbEntity
8
1
62
256
6
ByLayer
370
18
48
1
60
0
100
AcDbLine
10
115.525
20
-31.451883
30
0
11
115.525
21
-35.546926
31
0
39
0
210
0
220
0
230
1
0
LINE
5
13E
100
AcDbEntity
8
1
62
256
6
ByLayer
370
18
48
1
60
0
100
AcDbLine
10
124.475
20
-34.422041
30
0
11
124.475
21
-35.546926
31
0
39
0
210
0
220
0
230
1
0
LINE
5
13F
100
AcDbEntity
8
1
62
256
6
ByLayer
370
18
48
1
60
0
100
AcDbLine
10
124.475
20
-35.546926
30
0
11
115.525
21
-35.546926
31
0
39
0
210
0
220
0
230
1
0
LINE
5
140
100
AcDbEntity
8
1
62
256
6
ByLayer
370
18
48
1
60
0
100
AcDbLine
10
115.5
20
-45.980668
30
0
11
115.5
21
-43.714573
31
0
39
0
210
0
220
0
230
1
0
LINE
5
141
100
AcDbEntity
8
1
62
256
6
ByLayer
370
13
48
1
60
0
100
AcDbLine
10
123.5
20
-46.973975
30
0
11
123.5
21
-44.738006
31
0
39
0
210
0
220
0
230
1
0
LINE
5
142
100
AcDbEntity
8
1
62
256
6
ByLayer
370
13
48
1
60
0
100
AcDbLine
10
116.5
20
-44.738006
30
0
11
116.5
21
-46.973975
31
0
39
0
210
0
220
0
230
1
0
LINE
5
143
100
AcDbEntity
8
1
62
256
6
ByLayer
370
18
48
1
60
0
100
AcDbLine
10
115.5
20
-35.200243
30
0
11
115.5
21
-36.18381
31
0
39
0
210
0
220
0
230
1
0
LINE
5
144
100
AcDbEntity
8
1
62
256
6
ByLayer
370
18
48
1
60
0
100
AcDbLine
10
120.1
20
-36.18381
30
0
11
122.9
21
-36.18381
31
0
39
0
210
0
220
0
230
1
0
LINE
5
145
100
AcDbEntity
8
1
62
256
6
ByLayer
370
18
48
1
60
0
100
AcDbLine
10
115.5
20
-35.200243
30
0
11
115.525031
21
-35.200243
31
0
39
0
210
0
220
0
230
1
0
LINE
5
146
100
AcDbEntity
8
1
62
256
6
ByLayer
370
18
48
1
60
0
100
AcDbLine
10
124.474969
20
-35.200243
30
0
11
124.5
21
-35.200243
31
0
39
0
210
0
220
0
230
1
0
LINE
5
147
100
AcDbEntity
8
1
62
256
6
ByLayer
370
18
48
1
60
0
100
AcDbLine
10
124.5
20
-43.714573
30
0
11
124.5
21
-36.18381
31
0
39
0
210
0
220
0
230
1
0
LINE
5
148
100
AcDbEntity
8
1
62
256
6
ByLayer
370
18
48
1
60
0
100
AcDbLine
10
115.5
20
-36.18381
30
0
11
115.5
21
-43.714573
31
0
39
0
210
0
220
0
230
1
0
LINE
5
149
100
AcDbEntity
8
1
62
256
6
ByLayer
370
18
48
1
60
0
100
AcDbLine
10
122.9
20
-36.18381
30
0
11
124.5
21
-36.18381
31
0
39
0
210
0
220
0
230
1
0
LINE
5
14A
100
AcDbEntity
8
1
62
256
6
ByLayer
370
18
48
1
60
0
100
AcDbLine
10
123
20
-40.449897
30
0
11
123
21
-36.320038
31
0
39
0
210
0
220
0
230
1
0
LINE
5
14B
100
AcDbEntity
8
1
62
256
6
ByLayer
370
18
48
1
60
0
100
AcDbLine
10
120
20
-36.320038
30
0
11
120
21
-40.449897
31
0
39
0
210
0
220
0
230
1
0
LINE
5
14C
100
AcDbEntity
8
1
62
256
6
ByLayer
370
18
48
1
60
0
100
AcDbLine
10
115.5
20
-36.18381
30
0
11
120.1
21
-36.18381
31
0
39
0
210
0
220
0
230
1
0
LINE
5
14D
100
AcDbEntity
8
1
62
256
6
ByLayer
370
18
48
1
60
0
100
AcDbLine
10
71
20
19.996
30
0
11
71
21
-19.996
31
0
39
0
210
0
220
0
230
1
0
LINE
5
14E
100
AcDbEntity
8
1
62
256
6
ByLayer
370
18
48
1
60
0
100
AcDbLine
10
116.5
20
-44.738006
30
0
11
123.5
21
-44.738006
31
0
39
0
210
0
220
0
230
1
0
LINE
5
14F
100
AcDbEntity
8
1
62
256
6
ByLayer
370
18
48
1
60
0
100
AcDbLine
10
74
20
20
30
0
11
74
21
-20
31
0
39
0
210
0
220
0
230
1
0
LINE
5
150
100
AcDbEntity
8
1
62
256
6
ByLayer
370
13
48
1
60
0
100
AcDbLine
10
122.9
20
-37.34128
30
0
11
122.9
21
-36.18381
31
0
39
0
210
0
220
0
230
1
0
LINE
5
151
100
AcDbEntity
8
SK1
62
256
6
ByLayer
370
18
48
1
60
0
100
AcDbLine
10
0
20
18.996
30
0
11
0
21
-18.996
31
0
39
0
210
0
220
0
230
1
0
LINE
5
153
100
AcDbEntity
8
1
62
256
6
ByLayer
370
13
48
1
60
0
100
AcDbLine
10
120.1
20
-36.18381
30
0
11
120.1
21
-37.34128
31
0
39
0
210
0
220
0
230
1
0
LINE
5
154
100
AcDbEntity
8
1
62
256
6
ByLayer
370
13
48
1
60
0
100
AcDbLine
10
72.158095
20
-19.5
30
0
11
72.158095
21
19.5
31
0
39
0
210
0
220
0
230
1
0
LINE
5
155
100
AcDbEntity
8
1
62
256
6
ByLayer
370
18
48
1
60
0
100
AcDbLine
10
124.875905
20
-42.641522
30
0
11
124.819479
21
-41.538594
31
0
39
0
210
0
220
0
230
1
0
LINE
5
156
100
AcDbEntity
8
SK1
62
256
6
ByLayer
370
18
48
1
60
0
100
AcDbLine
10
71
20
19.996
30
0
11
71
21
-19.996
31
0
39
0
210
0
220
0
230
1
0
LINE
5
157
100
AcDbEntity
8
SK1
62
256
6
ByLayer
370
18
48
1
60
0
100
AcDbLine
10
1
20
19.996
30
0
11
1
21
-19.996
31
0
39
0
210
0
220
0
230
1
0
LINE
5
158
100
AcDbEntity
8
1
62
256
6
ByLayer
370
18
48
1
60
0
100
AcDbLine
10
115.5
20
22.144322
30
0
11
115.5
21
19.502071
31
0
39
0
210
0
220
0
230
1
0
LINE
5
159
100
AcDbEntity
8
1
62
256
6
ByLayer
370
18
48
1
60
0
100
AcDbLine
10
124.5
20
43.88679
30
0
11
124.5
21
41.601697
31
0
39
0
210
0
220
0
230
1
0
LINE
5
15A
100
AcDbEntity
8
1
62
256
6
ByLayer
370
13
48
1
60
0
100
AcDbLine
10
72.838105
20
19.5
30
0
11
72.838105
21
-19.5
31
0
39
0
210
0
220
0
230
1
0
LINE
5
15B
100
AcDbEntity
8
1
62
256
6
ByLayer
370
18
48
1
60
0
100
AcDbLine
10
116.5
20
44.712081
30
0
11
123.5
21
44.712081
31
0
39
0
210
0
220
0
230
1
0
LINE
5
15C
100
AcDbEntity
8
1
62
256
6
ByLayer
370
18
48
1
60
0
100
AcDbLine
10
124.5
20
19.502071
30
0
11
124.5
21
22.144322
31
0
39
0
210
0
220
0
230
1
0
LINE
5
15D
100
AcDbEntity
8
1
62
256
6
ByLayer
370
18
48
1
60
0
100
AcDbLine
10
115.5
20
41.601697
30
0
11
115.5
21
43.88679
31
0
39
0
210
0
220
0
230
1
0
LINE
5
15E
100
AcDbEntity
8
1
62
256
6
ByLayer
370
18
48
1
60
0
100
AcDbLine
10
124.5
20
-6.936823
30
0
11
124.5
21
-6.754044
31
0
39
0
210
0
220
0
230
1
0
LINE
5
15F
100
AcDbEntity
8
1
62
256
6
ByLayer
370
18
48
1
60
0
100
AcDbLine
10
115.475
20
0.769862
30
0
11
115.475
21
3.014864
31
0
39
0
210
0
220
0
230
1
0
LINE
5
160
100
AcDbEntity
8
1
62
256
6
ByLayer
370
18
48
1
60
0
100
AcDbLine
10
115.5
20
-6.754044
30
0
11
115.5
21
-6.936823
31
0
39
0
210
0
220
0
230
1
0
LINE
5
161
100
AcDbEntity
8
1
62
256
6
ByLayer
370
18
48
1
60
0
100
AcDbLine
10
124.5
20
-7.251401
30
0
11
124.5
21
-6.936823
31
0
39
0
210
0
220
0
230
1
0
LINE
5
162
100
AcDbEntity
8
1
62
256
6
ByLayer
370
18
48
1
60
0
100
AcDbLine
10
115.5
20
-6.936823
30
0
11
115.5
21
-7.251401
31
0
39
0
210
0
220
0
230
1
0
LINE
5
163
100
AcDbEntity
8
1
62
256
6
ByLayer
370
18
48
1
60
0
100
AcDbLine
10
124.5
20
-6.936823
30
0
11
124.474969
21
-6.936823
31
0
39
0
210
0
220
0
230
1
0
LINE
5
164
100
AcDbEntity
8
1
62
256
6
ByLayer
370
18
48
1
60
0
100
AcDbLine
10
115.525031
20
-6.936823
30
0
11
115.5
21
-6.936823
31
0
39
0
210
0
220
0
230
1
0
LINE
5
165
100
AcDbEntity
8
1
62
256
6
ByLayer
370
13
48
1
60
0
100
AcDbLine
10
123.5
20
41.601688
30
0
11
123.5
21
44.712081
31
0
39
0
210
0
220
0
230
1
0
LINE
5
166
100
AcDbEntity
8
1
62
256
6
ByLayer
370
18
48
1
60
0
100
AcDbLine
10
124.5
20
-6.754044
30
0
11
124.5
21
-1.728861
31
0
39
0
210
0
220
0
230
1
0
LINE
5
167
100
AcDbEntity
8
1
62
256
6
ByLayer
370
18
48
1
60
0
100
AcDbLine
10
115.5
20
-1.728861
30
0
11
115.5
21
-6.754044
31
0
39
0
210
0
220
0
230
1
0
LINE
5
168
100
AcDbEntity
8
1
62
256
6
ByLayer
370
13
48
1
60
0
100
AcDbLine
10
116.5
20
44.712081
30
0
11
116.5
21
41.601688
31
0
39
0
210
0
220
0
230
1
0
LINE
5
169
100
AcDbEntity
8
1
62
256
6
ByLayer
370
18
48
1
60
0
100
AcDbLine
10
115.5
20
-6.754044
30
0
11
115.525031
21
-6.754044
31
0
39
0
210
0
220
0
230
1
0
LINE
5
16A
100
AcDbEntity
8
1
62
256
6
ByLayer
370
18
48
1
60
0
100
AcDbLine
10
124.474969
20
-6.754044
30
0
11
124.5
21
-6.754044
31
0
39
0
210
0
220
0
230
1
0
LINE
5
16B
100
AcDbEntity
8
1
62
256
6
ByLayer
370
18
48
1
60
0
100
AcDbLine
10
120.1
20
19.502047
30
0
11
122.9
21
19.502047
31
0
39
0
210
0
220
0
230
1
0
LINE
5
16C
100
AcDbEntity
8
1
62
256
6
ByLayer
370
18
48
1
60
0
100
AcDbLine
10
124.5
20
-11.100301
30
0
11
124.5
21
-7.251401
31
0
39
0
210
0
220
0
230
1
0
LINE
5
16D
100
AcDbEntity
8
1
62
256
6
ByLayer
370
18
48
1
60
0
100
AcDbLine
10
115.5
20
-7.251401
30
0
11
115.5
21
-11.100301
31
0
39
0
210
0
220
0
230
1
0
LINE
5
16E
100
AcDbEntity
8
1
62
256
6
ByLayer
370
18
48
1
60
0
100
AcDbLine
10
116.371436
20
28.945725
30
0
11
115.475
21
28.999711
31
0
39
0
210
0
220
0
230
1
0
LINE
5
16F
100
AcDbEntity
8
1
62
256
6
ByLayer
370
18
48
1
60
0
100
AcDbLine
10
115.5
20
-7.251401
30
0
11
115.525031
21
-7.251401
31
0
39
0
210
0
220
0
230
1
0
LINE
5
170
100
AcDbEntity
8
1
62
256
6
ByLayer
370
18
48
1
60
0
100
AcDbLine
10
124.474969
20
-7.251401
30
0
11
124.5
21
-7.251401
31
0
39
0
210
0
220
0
230
1
0
LINE
5
171
100
AcDbEntity
8
1
62
256
6
ByLayer
370
18
48
1
60
0
100
AcDbLine
10
124.5
20
-11.795788
30
0
11
124.5
21
-11.100301
31
0
39
0
210
0
220
0
230
1
0
LINE
5
172
100
AcDbEntity
8
1
62
256
6
ByLayer
370
18
48
1
60
0
100
AcDbLine
10
115.5
20
-11.100301
30
0
11
115.5
21
-11.795788
31
0
39
0
210
0
220
0
230
1
0
LINE
5
173
100
AcDbEntity
8
1
62
256
6
ByLayer
370
18
48
1
60
0
100
AcDbLine
10
115.5
20
-11.100301
30
0
11
115.525031
21
-11.100301
31
0
39
0
210
0
220
0
230
1
0
LINE
5
174
100
AcDbEntity
8
1
62
256
6
ByLayer
370
18
48
1
60
0
100
AcDbLine
10
124.474969
20
-11.100301
30
0
11
124.5
21
-11.100301
31
0
39
0
210
0
220
0
230
1
0
LINE
5
175
100
AcDbEntity
8
1
62
256
6
ByLayer
370
18
48
1
60
0
100
AcDbLine
10
123.5
20
-24.939789
30
0
11
116.5
21
-24.939789
31
0
39
0
210
0
220
0
230
1
0
LINE
5
176
100
AcDbEntity
8
1
62
256
6
ByLayer
370
13
48
1
60
0
100
AcDbLine
10
120.1
20
19.502047
30
0
11
120.1
21
18.494412
31
0
39
0
210
0
220
0
230
1
0
LINE
5
177
100
AcDbEntity
8
1
62
256
6
ByLayer
370
13
48
1
60
0
100
AcDbLine
10
122.9
20
18.494412
30
0
11
122.9
21
19.502047
31
0
39
0
210
0
220
0
230
1
0
LINE
5
178
100
AcDbEntity
8
1
62
256
6
ByLayer
370
18
48
1
60
0
100
AcDbLine
10
120.1
20
-11.795788
30
0
11
122.9
21
-11.795788
31
0
39
0
210
0
220
0
230
1
0
LINE
5
179
100
AcDbEntity
8
1
62
256
6
ByLayer
370
18
48
1
60
0
100
AcDbLine
10
124.5
20
-17.934952
30
0
11
124.5
21
-24.343451
31
0
39
0
210
0
220
0
230
1
0
LINE
5
17A
100
AcDbEntity
8
1
62
256
6
ByLayer
370
18
48
1
60
0
100
AcDbLine
10
115.475
20
27.857515
30
0
11
115.475
21
28.999711
31
0
39
0
210
0
220
0
230
1
0
LINE
5
17B
100
AcDbEntity
8
1
62
256
6
ByLayer
370
18
48
1
60
0
100
AcDbLine
10
124.5
20
-17.934952
30
0
11
124.5
21
-11.795788
31
0
39
0
210
0
220
0
230
1
0
LINE
5
17C
100
AcDbEntity
8
1
62
256
6
ByLayer
370
13
48
1
60
0
100
AcDbLine
10
122.9
20
-14.417055
30
0
11
122.9
21
-11.795788
31
0
39
0
210
0
220
0
230
1
0
LINE
5
17D
100
AcDbEntity
8
1
62
256
6
ByLayer
370
13
48
1
60
0
100
AcDbLine
10
120.1
20
-11.795788
30
0
11
120.1
21
-14.417055
31
0
39
0
210
0
220
0
230
1
0
LINE
5
17E
100
AcDbEntity
8
1
62
256
6
ByLayer
370
13
48
1
60
0
100
AcDbLine
10
123.986816
20
-24.949461
30
0
11
116.013184
21
-24.949461
31
0
39
0
210
0
220
0
230
1
0
LINE
5
17F
100
AcDbEntity
8
1
62
256
6
ByLayer
370
18
48
1
60
0
100
AcDbLine
10
115.5
20
-11.795788
30
0
11
115.5
21
-17.934952
31
0
39
0
210
0
220
0
230
1
0
LINE
5
180
100
AcDbEntity
8
1
62
256
6
ByLayer
370
18
48
1
60
0
100
AcDbLine
10
122.9
20
-11.795788
30
0
11
124.5
21
-11.795788
31
0
39
0
210
0
220
0
230
1
0
LINE
5
181
100
AcDbEntity
8
1
62
256
6
ByLayer
370
13
48
1
60
0
100
AcDbLine
10
123.5
20
-24.939789
30
0
11
123.5
21
-18.557015
31
0
39
0
210
0
220
0
230
1
0
LINE
5
182
100
AcDbEntity
8
1
62
256
6
ByLayer
370
18
48
1
60
0
100
AcDbLine
10
123
20
-15.617258
30
0
11
123
21
-11.933243
31
0
39
0
210
0
220
0
230
1
0
LINE
5
183
100
AcDbEntity
8
1
62
256
6
ByLayer
370
18
48
1
60
0
100
AcDbLine
10
120
20
-11.933243
30
0
11
120
21
-15.617258
31
0
39
0
210
0
220
0
230
1
0
LINE
5
184
100
AcDbEntity
8
1
62
256
6
ByLayer
370
18
48
1
60
0
100
AcDbLine
10
115.5
20
-11.795788
30
0
11
120.1
21
-11.795788
31
0
39
0
210
0
220
0
230
1
0
LINE
5
185
100
AcDbEntity
8
1
62
256
6
ByLayer
370
18
48
1
60
0
100
AcDbLine
10
116.5
20
-18.557015
30
0
11
123.5
21
-18.557015
31
0
39
0
210
0
220
0
230
1
0
LINE
5
186
100
AcDbEntity
8
1
62
256
6
ByLayer
370
18
48
1
60
0
100
AcDbLine
10
115.5
20
-24.343451
30
0
11
115.5
21
-17.934952
31
0
39
0
210
0
220
0
230
1
0
LINE
5
187
100
AcDbEntity
8
1
62
256
6
ByLayer
370
18
48
1
60
0
100
AcDbLine
10
124.5
20
18.35073
30
0
11
124.5
21
19.502047
31
0
39
0
210
0
220
0
230
1
0
LINE
5
188
100
AcDbEntity
8
1
62
256
6
ByLayer
370
18
48
1
60
0
100
AcDbLine
10
115.5
20
18.35073
30
0
11
115.5
21
19.502047
31
0
39
0
210
0
220
0
230
1
0
LINE
5
189
100
AcDbEntity
8
1
62
256
6
ByLayer
370
18
48
1
60
0
100
AcDbLine
10
122.9
20
19.502047
30
0
11
124.5
21
19.502047
31
0
39
0
210
0
220
0
230
1
0
LINE
5
18A
100
AcDbEntity
8
1
62
256
6
ByLayer
370
18
48
1
60
0
100
AcDbLine
10
123
20
18.494429
30
0
11
123
21
19.443884
31
0
39
0
210
0
220
0
230
1
0
LINE
5
18B
100
AcDbEntity
8
1
62
256
6
ByLayer
370
18
48
1
60
0
100
AcDbLine
10
120
20
19.443884
30
0
11
120
21
18.494429
31
0
39
0
210
0
220
0
230
1
0
LINE
5
18C
100
AcDbEntity
8
1
62
256
6
ByLayer
370
13
48
1
60
0
100
AcDbLine
10
116.5
20
-18.557015
30
0
11
116.5
21
-24.939789
31
0
39
0
210
0
220
0
230
1
0
LINE
5
18D
100
AcDbEntity
8
1
62
256
6
ByLayer
370
18
48
1
60
0
100
AcDbLine
10
115.5
20
19.502047
30
0
11
120.1
21
19.502047
31
0
39
0
210
0
220
0
230
1
0
LINE
5
18E
100
AcDbEntity
8
1
62
256
6
ByLayer
370
18
48
1
60
0
100
AcDbLine
10
116.5
20
18.494425
30
0
11
123.5
21
18.494425
31
0
39
0
210
0
220
0
230
1
0
LINE
5
18F
100
AcDbEntity
8
1
62
256
6
ByLayer
370
18
48
1
60
0
100
AcDbLine
10
124.5
20
18.350721
30
0
11
124.5
21
11.55383
31
0
39
0
210
0
220
0
230
1
0
LINE
5
190
100
AcDbEntity
8
1
62
256
6
ByLayer
370
18
48
1
60
0
100
AcDbLine
10
115.5
20
11.55383
30
0
11
115.5
21
18.350721
31
0
39
0
210
0
220
0
230
1
0
LINE
5
191
100
AcDbEntity
8
1
62
256
6
ByLayer
370
18
48
1
60
0
100
AcDbLine
10
124.875905
20
-0.410277
30
0
11
124.819479
21
-1.083647
31
0
39
0
210
0
220
0
230
1
0
LINE
5
192
100
AcDbEntity
8
1
62
256
6
ByLayer
370
18
48
1
60
0
100
AcDbLine
10
116.351944
20
-0.343088
30
0
11
116.40825
21
0.330293
31
0
39
0
210
0
220
0
230
1
0
LINE
5
193
100
AcDbEntity
8
1
62
256
6
ByLayer
370
18
48
1
60
0
100
AcDbLine
10
123.5
20
11.703787
30
0
11
116.5
21
11.703787
31
0
39
0
210
0
220
0
230
1
0
LINE
5
194
100
AcDbEntity
8
1
62
256
6
ByLayer
370
13
48
1
60
0
100
AcDbLine
10
123.5
20
11.703787
30
0
11
123.5
21
18.494425
31
0
39
0
210
0
220
0
230
1
0
LINE
5
195
100
AcDbEntity
8
1
62
256
6
ByLayer
370
18
48
1
60
0
100
AcDbLine
10
124.875905
20
-42.641522
30
0
11
124.999972
21
-47.915173
31
0
39
0
210
0
220
0
230
1
0
LINE
5
196
100
AcDbEntity
8
1
62
256
6
ByLayer
370
13
48
1
60
0
100
AcDbLine
10
123.986816
20
11.588411
30
0
11
116.013184
21
11.588411
31
0
39
0
210
0
220
0
230
1
0
LINE
5
197
100
AcDbEntity
8
1
62
256
6
ByLayer
370
13
48
1
60
0
100
AcDbLine
10
116.5
20
18.494425
30
0
11
116.5
21
11.703787
31
0
39
0
210
0
220
0
230
1
0
LINE
5
198
100
AcDbEntity
8
1
62
256
6
ByLayer
370
18
48
1
60
0
100
AcDbLine
10
124.5
20
-36.18381
30
0
11
124.5
21
-35.200243
31
0
39
0
210
0
220
0
230
1
0
LINE
5
199
100
AcDbEntity
8
1
62
256
6
ByLayer
370
18
48
1
60
0
100
AcDbLine
10
119.888405
20
44.910845
30
0
11
119.804734
21
45.193029
31
0
39
0
210
0
220
0
230
1
0
LINE
5
19A
100
AcDbEntity
8
1
62
256
6
ByLayer
370
13
48
1
60
0
100
AcDbLine
10
120.619801
20
45.964956
30
0
11
120.525906
21
46.28162
31
0
39
0
210
0
220
0
230
1
0
LINE
5
19B
100
AcDbEntity
8
1
62
256
6
ByLayer
370
13
48
1
60
0
100
AcDbLine
10
119.977412
20
45.611278
30
0
11
119.883517
21
45.927942
31
0
39
0
210
0
220
0
230
1
0
LINE
5
19C
100
AcDbEntity
8
1
62
256
6
ByLayer
370
18
48
1
60
0
100
AcDbLine
10
119.803704
20
45.149252
30
0
11
119.887375
21
44.867069
31
0
39
0
210
0
220
0
230
1
0
LINE
5
19D
100
AcDbEntity
8
1
62
256
6
ByLayer
370
13
48
1
60
0
100
AcDbLine
10
121.688696
20
45.615198
30
0
11
121.594801
21
45.931861
31
0
39
0
210
0
220
0
230
1
0
LINE
5
19E
100
AcDbEntity
8
1
62
256
6
ByLayer
370
13
48
1
60
0
100
AcDbLine
10
119.678458
20
44.712079
30
0
11
119.636803
21
44.852562
31
0
39
0
210
0
220
0
230
1
0
LINE
5
19F
100
AcDbEntity
8
1
62
256
6
ByLayer
370
18
48
1
60
0
100
AcDbLine
10
120.866025
20
-7.422838
30
0
11
121.732051
21
-5.977393
31
0
39
0
210
0
220
0
230
1
0
LINE
5
1A0
100
AcDbEntity
8
1
62
256
6
ByLayer
370
18
48
1
60
0
100
AcDbLine
10
122.812585
20
45.544855
30
0
11
122.81253
21
45.54504
31
0
39
0
210
0
220
0
230
1
0
LINE
5
1A1
100
AcDbEntity
8
1
62
256
6
ByLayer
370
13
48
1
60
0
100
AcDbLine
10
121.834091
20
44.71208
30
0
11
121.790973
21
44.857495
31
0
39
0
210
0
220
0
230
1
0
LINE
5
1A2
100
AcDbEntity
8
1
62
256
6
ByLayer
370
18
48
1
60
0
100
AcDbLine
10
124.719314
20
-1.251169
30
0
11
124.513309
21
-3.436915
31
0
39
0
210
0
220
0
230
1
0
LINE
5
1A3
100
AcDbEntity
8
1
62
256
6
ByLayer
370
18
48
1
60
0
100
AcDbLine
10
124.999912
20
-1.180257
30
0
11
124.999972
21
-1.146393
31
0
39
0
210
0
220
0
230
1
0
LINE
5
1A4
100
AcDbEntity
8
1
62
256
6
ByLayer
370
18
48
1
60
0
100
AcDbLine
10
124.908604
20
-3E-06
30
0
11
124.999972
21
-1.146393
31
0
39
0
210
0
220
0
230
1
0
LINE
5
1A5
100
AcDbEntity
8
1
62
256
6
ByLayer
370
18
48
1
60
0
100
AcDbLine
10
124.999972
20
-1.146393
30
0
11
124.637375
21
-4.993585
31
0
39
0
210
0
220
0
230
1
0
LINE
5
1A6
100
AcDbEntity
8
1
62
256
6
ByLayer
370
18
48
1
60
0
100
AcDbLine
10
120.866025
20
-4.531947
30
0
11
121.732051
21
-5.977393
31
0
39
0
210
0
220
0
230
1
0
LINE
5
1A7
100
AcDbEntity
8
1
62
256
6
ByLayer
370
13
48
1
60
0
100
AcDbLine
10
120.527832
20
1.240864
30
0
11
120.475355
21
0.645475
31
0
39
0
210
0
220
0
230
1
0
LINE
5
1A8
100
AcDbEntity
8
1
62
256
6
ByLayer
370
13
48
1
60
0
100
AcDbLine
10
120.970861
20
1.201547
30
0
11
120.918434
21
0.606724
31
0
39
0
210
0
220
0
230
1
0
LINE
5
1A9
100
AcDbEntity
8
1
62
256
6
ByLayer
370
13
48
1
60
0
100
AcDbLine
10
119.885237
20
1.209918
30
0
11
119.849539
21
0.804903
31
0
39
0
210
0
220
0
230
1
0
LINE
5
1AA
100
AcDbEntity
8
1
62
256
6
ByLayer
370
13
48
1
60
0
100
AcDbLine
10
121.596339
20
1.058187
30
0
11
121.560823
21
0.655236
31
0
39
0
210
0
220
0
230
1
0
LINE
5
1AB
100
AcDbEntity
8
1
62
256
6
ByLayer
370
18
48
1
60
0
100
AcDbLine
10
124.875905
20
-29.862
30
0
11
124.837232
21
-30.067144
31
0
39
0
210
0
220
0
230
1
0
LINE
5
1AC
100
AcDbEntity
8
1
62
256
6
ByLayer
370
18
48
1
60
0
100
AcDbLine
10
115.475
20
-17.642319
30
0
11
115.475
21
-17.661766
31
0
39
0
210
0
220
0
230
1
0
LINE
5
1AD
100
AcDbEntity
8
1
62
256
6
ByLayer
370
18
48
1
60
0
100
AcDbLine
10
120.866025
20
-4.531947
30
0
11
119.133975
21
-4.531947
31
0
39
0
210
0
220
0
230
1
0
LINE
5
1AE
100
AcDbEntity
8
1
62
256
6
ByLayer
370
13
48
1
60
0
100
AcDbLine
10
121.80872
20
0.966382
30
0
11
121.807567
21
0.953301
31
0
39
0
210
0
220
0
230
1
0
LINE
5
1AF
100
AcDbEntity
8
1
62
256
6
ByLayer
370
18
48
1
60
0
100
AcDbLine
10
124.999972
20
-33.070522
30
0
11
124.637375
21
-29.553181
31
0
39
0
210
0
220
0
230
1
0
LINE
5
1B0
100
AcDbEntity
8
1
62
256
6
ByLayer
370
13
48
1
60
0
100
AcDbLine
10
119.654611
20
1.155482
30
0
11
119.653396
21
1.141702
31
0
39
0
210
0
220
0
230
1
0
LINE
5
1B1
100
AcDbEntity
8
1
62
256
6
ByLayer
370
18
48
1
60
0
100
AcDbLine
10
115.475
20
-16.923131
30
0
11
115.475
21
-16.903684
31
0
39
0
210
0
220
0
230
1
0
LINE
5
1B2
100
AcDbEntity
8
1
62
256
6
ByLayer
370
18
48
1
60
0
100
AcDbLine
10
115.475
20
-17.642318
30
0
11
115.475
21
-17.165549
31
0
39
0
210
0
220
0
230
1
0
LINE
5
1B3
100
AcDbEntity
8
1
62
256
6
ByLayer
370
18
48
1
60
0
100
AcDbLine
10
115.475
20
-17.165549
30
0
11
115.475
21
-17.036304
31
0
39
0
210
0
220
0
230
1
0
LINE
5
1B4
100
AcDbEntity
8
1
62
256
6
ByLayer
370
18
48
1
60
0
100
AcDbLine
10
115.475
20
-32.474396
30
0
11
115.475
21
-32.36926
31
0
39
0
210
0
220
0
230
1
0
LINE
5
1B5
100
AcDbEntity
8
1
62
256
6
ByLayer
370
18
48
1
60
0
100
AcDbLine
10
116.532317
20
-32.533147
30
0
11
116.532377
21
-33.423516
31
0
39
0
210
0
220
0
230
1
0
LINE
5
1B6
100
AcDbEntity
8
1
62
256
6
ByLayer
370
18
48
1
60
0
100
AcDbLine
10
115.475
20
-35.0809
30
0
11
115.475
21
-34.797161
31
0
39
0
210
0
220
0
230
1
0
LINE
5
1B7
100
AcDbEntity
8
1
62
256
6
ByLayer
370
18
48
1
60
0
100
AcDbLine
10
115.475
20
-16.923131
30
0
11
115.475
21
-17.036304
31
0
39
0
210
0
220
0
230
1
0
LINE
5
1B8
100
AcDbEntity
8
1
62
256
6
ByLayer
370
18
48
1
60
0
100
AcDbLine
10
115.475
20
-32.841089
30
0
11
115.475
21
-33.351715
31
0
39
0
210
0
220
0
230
1
0
LINE
5
1B9
100
AcDbEntity
8
1
62
256
6
ByLayer
370
18
48
1
60
0
100
AcDbLine
10
115.475
20
-32.474396
30
0
11
115.475
21
-32.695867
31
0
39
0
210
0
220
0
230
1
0
LINE
5
1BA
100
AcDbEntity
8
1
62
256
6
ByLayer
370
18
48
1
60
0
100
AcDbLine
10
115.475
20
-32.695867
30
0
11
115.475
21
-32.841089
31
0
39
0
210
0
220
0
230
1
0
LINE
5
1BB
100
AcDbEntity
8
1
62
256
6
ByLayer
370
18
48
1
60
0
100
AcDbLine
10
115.475
20
-33.635455
30
0
11
115.475
21
-33.814705
31
0
39
0
210
0
220
0
230
1
0
LINE
5
1BC
100
AcDbEntity
8
1
62
256
6
ByLayer
370
13
48
1
60
0
100
AcDbLine
10
115.475
20
-31.906269
30
0
11
115.500101
21
-31.906269
31
0
39
0
210
0
220
0
230
1
0
LINE
5
1BD
100
AcDbEntity
8
1
62
256
6
ByLayer
370
18
48
1
60
0
100
AcDbLine
10
115.475
20
-33.814705
30
0
11
115.475
21
-33.919842
31
0
39
0
210
0
220
0
230
1
0
LINE
5
1BE
100
AcDbEntity
8
1
62
256
6
ByLayer
370
13
48
1
60
0
100
AcDbLine
10
115.475
20
-32.190009
30
0
11
115.500101
21
-32.190009
31
0
39
0
210
0
220
0
230
1
0
LINE
5
1BF
100
AcDbEntity
8
1
62
256
6
ByLayer
370
18
48
1
60
0
100
AcDbLine
10
115.475
20
-36.242606
30
0
11
115.475
21
-36.526346
31
0
39
0
210
0
220
0
230
1
0
LINE
5
1C0
100
AcDbEntity
8
1
62
256
6
ByLayer
370
13
48
1
60
0
100
AcDbLine
10
115.475
20
-32.36926
30
0
11
115.500101
21
-32.36926
31
0
39
0
210
0
220
0
230
1
0
LINE
5
1C1
100
AcDbEntity
8
1
62
256
6
ByLayer
370
18
48
1
60
0
100
AcDbLine
10
115.475
20
-34.797161
30
0
11
115.475
21
-34.286534
31
0
39
0
210
0
220
0
230
1
0
LINE
5
1C2
100
AcDbEntity
8
1
62
256
6
ByLayer
370
18
48
1
60
0
100
AcDbLine
10
115.475
20
-34.141312
30
0
11
115.475
21
-33.919842
31
0
39
0
210
0
220
0
230
1
0
LINE
5
1C3
100
AcDbEntity
8
1
62
256
6
ByLayer
370
13
48
1
60
0
100
AcDbLine
10
115.475
20
-33.351715
30
0
11
115.500101
21
-33.351715
31
0
39
0
210
0
220
0
230
1
0
LINE
5
1C4
100
AcDbEntity
8
1
62
256
6
ByLayer
370
18
48
1
60
0
100
AcDbLine
10
115.475
20
-34.286534
30
0
11
115.475
21
-34.141312
31
0
39
0
210
0
220
0
230
1
0
LINE
5
1C5
100
AcDbEntity
8
1
62
256
6
ByLayer
370
13
48
1
60
0
100
AcDbLine
10
115.475
20
-32.474396
30
0
11
115.500101
21
-32.474396
31
0
39
0
210
0
220
0
230
1
0
LINE
5
1C6
100
AcDbEntity
8
1
62
256
6
ByLayer
370
18
48
1
60
0
100
AcDbLine
10
115.475
20
-35.260151
30
0
11
115.475
21
-35.0809
31
0
39
0
210
0
220
0
230
1
0
LINE
5
1C7
100
AcDbEntity
8
1
62
256
6
ByLayer
370
13
48
1
60
0
100
AcDbLine
10
115.475
20
-32.695867
30
0
11
115.500101
21
-32.695867
31
0
39
0
210
0
220
0
230
1
0
LINE
5
1C8
100
AcDbEntity
8
1
62
256
6
ByLayer
370
13
48
1
60
0
100
AcDbLine
10
115.475
20
-32.841089
30
0
11
115.500101
21
-32.841089
31
0
39
0
210
0
220
0
230
1
0
LINE
5
1C9
100
AcDbEntity
8
1
62
256
6
ByLayer
370
18
48
1
60
0
100
AcDbLine
10
115.475
20
-35.365287
30
0
11
115.475
21
-35.260151
31
0
39
0
210
0
220
0
230
1
0
LINE
5
1CA
100
AcDbEntity
8
1
62
256
6
ByLayer
370
13
48
1
60
0
100
AcDbLine
10
115.475
20
-33.635455
30
0
11
115.500101
21
-33.635455
31
0
39
0
210
0
220
0
230
1
0
LINE
5
1CB
100
AcDbEntity
8
1
62
256
6
ByLayer
370
18
48
1
60
0
100
AcDbLine
10
115.475
20
-37.971792
30
0
11
115.475
21
-37.688052
31
0
39
0
210
0
220
0
230
1
0
LINE
5
1CC
100
AcDbEntity
8
1
62
256
6
ByLayer
370
13
48
1
60
0
100
AcDbLine
10
115.475
20
-33.814705
30
0
11
115.500101
21
-33.814705
31
0
39
0
210
0
220
0
230
1
0
LINE
5
1CD
100
AcDbEntity
8
1
62
256
6
ByLayer
370
18
48
1
60
0
100
AcDbLine
10
115.475
20
-35.73198
30
0
11
115.475
21
-36.242606
31
0
39
0
210
0
220
0
230
1
0
LINE
5
1CE
100
AcDbEntity
8
1
62
256
6
ByLayer
370
18
48
1
60
0
100
AcDbLine
10
115.475
20
-35.586758
30
0
11
115.475
21
-35.365287
31
0
39
0
210
0
220
0
230
1
0
LINE
5
1CF
100
AcDbEntity
8
1
62
256
6
ByLayer
370
13
48
1
60
0
100
AcDbLine
10
115.475
20
-34.797161
30
0
11
115.500101
21
-34.797161
31
0
39
0
210
0
220
0
230
1
0
LINE
5
1D0
100
AcDbEntity
8
1
62
256
6
ByLayer
370
18
48
1
60
0
100
AcDbLine
10
115.475
20
-35.586758
30
0
11
115.475
21
-35.73198
31
0
39
0
210
0
220
0
230
1
0
LINE
5
1D1
100
AcDbEntity
8
1
62
256
6
ByLayer
370
13
48
1
60
0
100
AcDbLine
10
115.475
20
-33.919842
30
0
11
115.500101
21
-33.919842
31
0
39
0
210
0
220
0
230
1
0
LINE
5
1D2
100
AcDbEntity
8
1
62
256
6
ByLayer
370
18
48
1
60
0
100
AcDbLine
10
115.475
20
-36.526346
30
0
11
115.475
21
-36.705597
31
0
39
0
210
0
220
0
230
1
0
LINE
5
1D3
100
AcDbEntity
8
1
62
256
6
ByLayer
370
13
48
1
60
0
100
AcDbLine
10
115.475
20
-34.141312
30
0
11
115.500101
21
-34.141312
31
0
39
0
210
0
220
0
230
1
0
LINE
5
1D4
100
AcDbEntity
8
1
62
256
6
ByLayer
370
13
48
1
60
0
100
AcDbLine
10
115.475
20
-34.286534
30
0
11
115.500101
21
-34.286534
31
0
39
0
210
0
220
0
230
1
0
LINE
5
1D5
100
AcDbEntity
8
1
62
256
6
ByLayer
370
18
48
1
60
0
100
AcDbLine
10
115.475
20
-36.705597
30
0
11
115.475
21
-36.810733
31
0
39
0
210
0
220
0
230
1
0
LINE
5
1D6
100
AcDbEntity
8
1
62
256
6
ByLayer
370
13
48
1
60
0
100
AcDbLine
10
115.475
20
-35.0809
30
0
11
115.500101
21
-35.0809
31
0
39
0
210
0
220
0
230
1
0
LINE
5
1D7
100
AcDbEntity
8
1
62
256
6
ByLayer
370
18
48
1
60
0
100
AcDbLine
10
115.475
20
-39.133498
30
0
11
115.475
21
-39.417237
31
0
39
0
210
0
220
0
230
1
0
LINE
5
1D8
100
AcDbEntity
8
1
62
256
6
ByLayer
370
13
48
1
60
0
100
AcDbLine
10
115.475
20
-35.260151
30
0
11
115.500101
21
-35.260151
31
0
39
0
210
0
220
0
230
1
0
LINE
5
1D9
100
AcDbEntity
8
1
62
256
6
ByLayer
370
18
48
1
60
0
100
AcDbLine
10
115.475
20
-37.688052
30
0
11
115.475
21
-37.177426
31
0
39
0
210
0
220
0
230
1
0
LINE
5
1DA
100
AcDbEntity
8
1
62
256
6
ByLayer
370
18
48
1
60
0
100
AcDbLine
10
115.475
20
-36.810733
30
0
11
115.475
21
-37.032204
31
0
39
0
210
0
220
0
230
1
0
LINE
5
1DB
100
AcDbEntity
8
1
62
256
6
ByLayer
370
13
48
1
60
0
100
AcDbLine
10
115.475
20
-36.242606
30
0
11
115.500101
21
-36.242606
31
0
39
0
210
0
220
0
230
1
0
LINE
5
1DC
100
AcDbEntity
8
1
62
256
6
ByLayer
370
18
48
1
60
0
100
AcDbLine
10
115.475
20
-37.177426
30
0
11
115.475
21
-37.032204
31
0
39
0
210
0
220
0
230
1
0
LINE
5
1DD
100
AcDbEntity
8
1
62
256
6
ByLayer
370
13
48
1
60
0
100
AcDbLine
10
115.475
20
-35.365287
30
0
11
115.500101
21
-35.365287
31
0
39
0
210
0
220
0
230
1
0
LINE
5
1DE
100
AcDbEntity
8
1
62
256
6
ByLayer
370
18
48
1
60
0
100
AcDbLine
10
115.475
20
-38.151042
30
0
11
115.475
21
-37.971792
31
0
39
0
210
0
220
0
230
1
0
LINE
5
1DF
100
AcDbEntity
8
1
62
256
6
ByLayer
370
13
48
1
60
0
100
AcDbLine
10
115.475
20
-35.586758
30
0
11
115.500101
21
-35.586758
31
0
39
0
210
0
220
0
230
1
0
LINE
5
1E0
100
AcDbEntity
8
1
62
256
6
ByLayer
370
13
48
1
60
0
100
AcDbLine
10
115.475
20
-35.73198
30
0
11
115.500101
21
-35.73198
31
0
39
0
210
0
220
0
230
1
0
LINE
5
1E1
100
AcDbEntity
8
1
62
256
6
ByLayer
370
18
48
1
60
0
100
AcDbLine
10
115.475
20
-38.256179
30
0
11
115.475
21
-38.151042
31
0
39
0
210
0
220
0
230
1
0
LINE
5
1E2
100
AcDbEntity
8
1
62
256
6
ByLayer
370
13
48
1
60
0
100
AcDbLine
10
115.475
20
-36.526346
30
0
11
115.500101
21
-36.526346
31
0
39
0
210
0
220
0
230
1
0
LINE
5
1E3
100
AcDbEntity
8
1
62
256
6
ByLayer
370
18
48
1
60
0
100
AcDbLine
10
115.475
20
-38.622872
30
0
11
115.475
21
-39.133498
31
0
39
0
210
0
220
0
230
1
0
LINE
5
1E4
100
AcDbEntity
8
1
62
256
6
ByLayer
370
13
48
1
60
0
100
AcDbLine
10
115.475
20
-36.705597
30
0
11
115.500101
21
-36.705597
31
0
39
0
210
0
220
0
230
1
0
LINE
5
1E5
100
AcDbEntity
8
1
62
256
6
ByLayer
370
18
48
1
60
0
100
AcDbLine
10
115.475
20
-38.256179
30
0
11
115.475
21
-38.477649
31
0
39
0
210
0
220
0
230
1
0
LINE
5
1E6
100
AcDbEntity
8
1
62
256
6
ByLayer
370
18
48
1
60
0
100
AcDbLine
10
115.475
20
-38.477649
30
0
11
115.475
21
-38.622872
31
0
39
0
210
0
220
0
230
1
0
LINE
5
1E7
100
AcDbEntity
8
1
62
256
6
ByLayer
370
13
48
1
60
0
100
AcDbLine
10
115.475
20
-37.688052
30
0
11
115.500101
21
-37.688052
31
0
39
0
210
0
220
0
230
1
0
LINE
5
1E8
100
AcDbEntity
8
1
62
256
6
ByLayer
370
18
48
1
60
0
100
AcDbLine
10
115.475
20
-40.862683
30
0
11
115.475
21
-40.578943
31
0
39
0
210
0
220
0
230
1
0
LINE
5
1E9
100
AcDbEntity
8
1
62
256
6
ByLayer
370
13
48
1
60
0
100
AcDbLine
10
115.475
20
-36.810733
30
0
11
115.500101
21
-36.810733
31
0
39
0
210
0
220
0
230
1
0
LINE
5
1EA
100
AcDbEntity
8
1
62
256
6
ByLayer
370
18
48
1
60
0
100
AcDbLine
10
115.475
20
-39.417237
30
0
11
115.475
21
-39.596488
31
0
39
0
210
0
220
0
230
1
0
LINE
5
1EB
100
AcDbEntity
8
1
62
256
6
ByLayer
370
13
48
1
60
0
100
AcDbLine
10
115.475
20
-37.032204
30
0
11
115.500101
21
-37.032204
31
0
39
0
210
0
220
0
230
1
0
LINE
5
1EC
100
AcDbEntity
8
1
62
256
6
ByLayer
370
13
48
1
60
0
100
AcDbLine
10
115.475
20
-37.177426
30
0
11
115.500101
21
-37.177426
31
0
39
0
210
0
220
0
230
1
0
LINE
5
1ED
100
AcDbEntity
8
1
62
256
6
ByLayer
370
18
48
1
60
0
100
AcDbLine
10
115.475
20
-39.596488
30
0
11
115.475
21
-39.701624
31
0
39
0
210
0
220
0
230
1
0
LINE
5
1EE
100
AcDbEntity
8
1
62
256
6
ByLayer
370
13
48
1
60
0
100
AcDbLine
10
115.475
20
-37.971792
30
0
11
115.500101
21
-37.971792
31
0
39
0
210
0
220
0
230
1
0
LINE
5
1EF
100
AcDbEntity
8
1
62
256
6
ByLayer
370
18
48
1
60
0
100
AcDbLine
10
115.475
20
-42.024389
30
0
11
115.475
21
-42.308129
31
0
39
0
210
0
220
0
230
1
0
LINE
5
1F0
100
AcDbEntity
8
1
62
256
6
ByLayer
370
13
48
1
60
0
100
AcDbLine
10
115.475
20
-38.151042
30
0
11
115.500101
21
-38.151042
31
0
39
0
210
0
220
0
230
1
0
LINE
5
1F1
100
AcDbEntity
8
1
62
256
6
ByLayer
370
18
48
1
60
0
100
AcDbLine
10
115.475
20
-40.578943
30
0
11
115.475
21
-40.068317
31
0
39
0
210
0
220
0
230
1
0
LINE
5
1F2
100
AcDbEntity
8
1
62
256
6
ByLayer
370
13
48
1
60
0
100
AcDbLine
10
115.475
20
-39.133498
30
0
11
115.500101
21
-39.133498
31
0
39
0
210
0
220
0
230
1
0
LINE
5
1F3
100
AcDbEntity
8
1
62
256
6
ByLayer
370
18
48
1
60
0
100
AcDbLine
10
115.475
20
-39.701624
30
0
11
115.475
21
-39.923095
31
0
39
0
210
0
220
0
230
1
0
LINE
5
1F4
100
AcDbEntity
8
1
62
256
6
ByLayer
370
13
48
1
60
0
100
AcDbLine
10
115.475
20
-38.256179
30
0
11
115.500101
21
-38.256179
31
0
39
0
210
0
220
0
230
1
0
LINE
5
1F5
100
AcDbEntity
8
1
62
256
6
ByLayer
370
18
48
1
60
0
100
AcDbLine
10
115.475
20
-40.068317
30
0
11
115.475
21
-39.923095
31
0
39
0
210
0
220
0
230
1
0
LINE
5
1F6
100
AcDbEntity
8
1
62
256
6
ByLayer
370
13
48
1
60
0
100
AcDbLine
10
115.475
20
-38.477649
30
0
11
115.500101
21
-38.477649
31
0
39
0
210
0
220
0
230
1
0
LINE
5
1F7
100
AcDbEntity
8
1
62
256
6
ByLayer
370
13
48
1
60
0
100
AcDbLine
10
115.475
20
-38.622872
30
0
11
115.500101
21
-38.622872
31
0
39
0
210
0
220
0
230
1
0
LINE
5
1F8
100
AcDbEntity
8
1
62
256
6
ByLayer
370
18
48
1
60
0
100
AcDbLine
10
115.475
20
-41.041934
30
0
11
115.475
21
-40.862683
31
0
39
0
210
0
220
0
230
1
0
LINE
5
1F9
100
AcDbEntity
8
1
62
256
6
ByLayer
370
18
48
1
60
0
100
AcDbLine
10
115.475
20
-41.14707
30
0
11
115.475
21
-41.041934
31
0
39
0
210
0
220
0
230
1
0
LINE
5
1FA
100
AcDbEntity
8
1
62
256
6
ByLayer
370
13
48
1
60
0
100
AcDbLine
10
115.475
20
-39.417237
30
0
11
115.500101
21
-39.417237
31
0
39
0
210
0
220
0
230
1
0
LINE
5
1FB
100
AcDbEntity
8
1
62
256
6
ByLayer
370
18
48
1
60
0
100
AcDbLine
10
115.475
20
-43.753574
30
0
11
115.475
21
-43.469835
31
0
39
0
210
0
220
0
230
1
0
LINE
5
1FC
100
AcDbEntity
8
1
62
256
6
ByLayer
370
13
48
1
60
0
100
AcDbLine
10
115.475
20
-39.596488
30
0
11
115.500101
21
-39.596488
31
0
39
0
210
0
220
0
230
1
0
LINE
5
1FD
100
AcDbEntity
8
1
62
256
6
ByLayer
370
18
48
1
60
0
100
AcDbLine
10
115.475
20
-41.513763
30
0
11
115.475
21
-42.024389
31
0
39
0
210
0
220
0
230
1
0
LINE
5
1FE
100
AcDbEntity
8
1
62
256
6
ByLayer
370
18
48
1
60
0
100
AcDbLine
10
115.475
20
-41.368541
30
0
11
115.475
21
-41.14707
31
0
39
0
210
0
220
0
230
1
0
LINE
5
1FF
100
AcDbEntity
8
1
62
256
6
ByLayer
370
13
48
1
60
0
100
AcDbLine
10
115.475
20
-40.578943
30
0
11
115.500101
21
-40.578943
31
0
39
0
210
0
220
0
230
1
0
LINE
5
200
100
AcDbEntity
8
1
62
256
6
ByLayer
370
18
48
1
60
0
100
AcDbLine
10
115.475
20
-41.368541
30
0
11
115.475
21
-41.513763
31
0
39
0
210
0
220
0
230
1
0
LINE
5
201
100
AcDbEntity
8
1
62
256
6
ByLayer
370
13
48
1
60
0
100
AcDbLine
10
115.475
20
-39.701624
30
0
11
115.500101
21
-39.701624
31
0
39
0
210
0
220
0
230
1
0
LINE
5
202
100
AcDbEntity
8
1
62
256
6
ByLayer
370
18
48
1
60
0
100
AcDbLine
10
115.475
20
-42.308129
30
0
11
115.475
21
-42.487379
31
0
39
0
210
0
220
0
230
1
0
LINE
5
203
100
AcDbEntity
8
1
62
256
6
ByLayer
370
13
48
1
60
0
100
AcDbLine
10
115.475
20
-39.923095
30
0
11
115.500101
21
-39.923095
31
0
39
0
210
0
220
0
230
1
0
LINE
5
204
100
AcDbEntity
8
1
62
256
6
ByLayer
370
13
48
1
60
0
100
AcDbLine
10
115.475
20
-40.068317
30
0
11
115.500101
21
-40.068317
31
0
39
0
210
0
220
0
230
1
0
LINE
5
205
100
AcDbEntity
8
1
62
256
6
ByLayer
370
18
48
1
60
0
100
AcDbLine
10
115.475
20
-42.487379
30
0
11
115.475
21
-42.592516
31
0
39
0
210
0
220
0
230
1
0
LINE
5
206
100
AcDbEntity
8
1
62
256
6
ByLayer
370
13
48
1
60
0
100
AcDbLine
10
115.475
20
-40.862683
30
0
11
115.50007
21
-40.862683
31
0
39
0
210
0
220
0
230
1
0
LINE
5
207
100
AcDbEntity
8
1
62
256
6
ByLayer
370
18
48
1
60
0
100
AcDbLine
10
115.475
20
-44.91528
30
0
11
115.475
21
-45.19902
31
0
39
0
210
0
220
0
230
1
0
LINE
5
208
100
AcDbEntity
8
1
62
256
6
ByLayer
370
13
48
1
60
0
100
AcDbLine
10
115.475
20
-41.041934
30
0
11
115.500001
21
-41.041934
31
0
39
0
210
0
220
0
230
1
0
LINE
5
209
100
AcDbEntity
8
1
62
256
6
ByLayer
370
18
48
1
60
0
100
AcDbLine
10
115.475
20
-43.469835
30
0
11
115.475
21
-42.959209
31
0
39
0
210
0
220
0
230
1
0
LINE
5
20A
100
AcDbEntity
8
1
62
256
6
ByLayer
370
18
48
1
60
0
100
AcDbLine
10
115.475
20
-42.592516
30
0
11
115.475
21
-42.813986
31
0
39
0
210
0
220
0
230
1
0
LINE
5
20B
100
AcDbEntity
8
1
62
256
6
ByLayer
370
13
48
1
60
0
100
AcDbLine
10
115.475
20
-42.024389
30
0
11
115.500013
21
-42.024389
31
0
39
0
210
0
220
0
230
1
0
LINE
5
20C
100
AcDbEntity
8
1
62
256
6
ByLayer
370
18
48
1
60
0
100
AcDbLine
10
115.475
20
-42.959209
30
0
11
115.475
21
-42.813986
31
0
39
0
210
0
220
0
230
1
0
LINE
5
20D
100
AcDbEntity
8
1
62
256
6
ByLayer
370
13
48
1
60
0
100
AcDbLine
10
115.475
20
-41.14707
30
0
11
115.500004
21
-41.14707
31
0
39
0
210
0
220
0
230
1
0
LINE
5
20E
100
AcDbEntity
8
1
62
256
6
ByLayer
370
18
48
1
60
0
100
AcDbLine
10
115.475
20
-43.932825
30
0
11
115.475
21
-43.753574
31
0
39
0
210
0
220
0
230
1
0
LINE
5
20F
100
AcDbEntity
8
1
62
256
6
ByLayer
370
13
48
1
60
0
100
AcDbLine
10
115.475
20
-41.368541
30
0
11
115.50001
21
-41.368541
31
0
39
0
210
0
220
0
230
1
0
LINE
5
210
100
AcDbEntity
8
1
62
256
6
ByLayer
370
13
48
1
60
0
100
AcDbLine
10
115.475
20
-41.513763
30
0
11
115.500021
21
-41.513763
31
0
39
0
210
0
220
0
230
1
0
LINE
5
211
100
AcDbEntity
8
1
62
256
6
ByLayer
370
18
48
1
60
0
100
AcDbLine
10
115.475
20
-44.037961
30
0
11
115.475
21
-43.932825
31
0
39
0
210
0
220
0
230
1
0
LINE
5
212
100
AcDbEntity
8
1
62
256
6
ByLayer
370
13
48
1
60
0
100
AcDbLine
10
115.475
20
-42.308129
30
0
11
115.500018
21
-42.308129
31
0
39
0
210
0
220
0
230
1
0
LINE
5
213
100
AcDbEntity
8
1
62
256
6
ByLayer
370
18
48
1
60
0
100
AcDbLine
10
115.475
20
-46.644466
30
0
11
115.475
21
-46.360726
31
0
39
0
210
0
220
0
230
1
0
LINE
5
214
100
AcDbEntity
8
1
62
256
6
ByLayer
370
13
48
1
60
0
100
AcDbLine
10
115.475
20
-42.487379
30
0
11
115.500047
21
-42.487379
31
0
39
0
210
0
220
0
230
1
0
LINE
5
215
100
AcDbEntity
8
1
62
256
6
ByLayer
370
18
48
1
60
0
100
AcDbLine
10
124.5
20
-46.644466
30
0
11
124.5
21
-46.360726
31
0
39
0
210
0
220
0
230
1
0
LINE
5
216
100
AcDbEntity
8
1
62
256
6
ByLayer
370
18
48
1
60
0
100
AcDbLine
10
115.475
20
-44.404654
30
0
11
115.475
21
-44.91528
31
0
39
0
210
0
220
0
230
1
0
LINE
5
217
100
AcDbEntity
8
1
62
256
6
ByLayer
370
13
48
1
60
0
100
AcDbLine
10
115.475
20
-43.469835
30
0
11
115.50002
21
-43.469835
31
0
39
0
210
0
220
0
230
1
0
LINE
5
218
100
AcDbEntity
8
1
62
256
6
ByLayer
370
18
48
1
60
0
100
AcDbLine
10
115.475
20
-44.037961
30
0
11
115.475
21
-44.259432
31
0
39
0
210
0
220
0
230
1
0
LINE
5
219
100
AcDbEntity
8
1
62
256
6
ByLayer
370
13
48
1
60
0
100
AcDbLine
10
115.475
20
-42.592516
30
0
11
115.500062
21
-42.592516
31
0
39
0
210
0
220
0
230
1
0
LINE
5
21A
100
AcDbEntity
8
1
62
256
6
ByLayer
370
18
48
1
60
0
100
AcDbLine
10
115.475
20
-44.259432
30
0
11
115.475
21
-44.404654
31
0
39
0
210
0
220
0
230
1
0
LINE
5
21B
100
AcDbEntity
8
1
62
256
6
ByLayer
370
13
48
1
60
0
100
AcDbLine
10
115.475
20
-42.959209
30
0
11
115.50006
21
-42.959209
31
0
39
0
210
0
220
0
230
1
0
LINE
5
21C
100
AcDbEntity
8
1
62
256
6
ByLayer
370
13
48
1
60
0
100
AcDbLine
10
115.475
20
-42.813986
30
0
11
115.500007
21
-42.813986
31
0
39
0
210
0
220
0
230
1
0
LINE
5
21D
100
AcDbEntity
8
1
62
256
6
ByLayer
370
18
48
1
60
0
100
AcDbLine
10
115.475
20
-45.19902
30
0
11
115.475
21
-45.378271
31
0
39
0
210
0
220
0
230
1
0
LINE
5
21E
100
AcDbEntity
8
1
62
256
6
ByLayer
370
13
48
1
60
0
100
AcDbLine
10
115.475
20
-43.753574
30
0
11
115.500039
21
-43.753574
31
0
39
0
210
0
220
0
230
1
0
LINE
5
21F
100
AcDbEntity
8
1
62
256
6
ByLayer
370
18
48
1
60
0
100
AcDbLine
10
115.475
20
-47.802212
30
0
11
115.475
21
-48.772236
31
0
39
0
210
0
220
0
230
1
0
LINE
5
220
100
AcDbEntity
8
1
62
256
6
ByLayer
370
13
48
1
60
0
100
AcDbLine
10
115.475
20
-43.932825
30
0
11
115.500101
21
-43.932825
31
0
39
0
210
0
220
0
230
1
0
LINE
5
221
100
AcDbEntity
8
1
62
256
6
ByLayer
370
18
48
1
60
0
100
AcDbLine
10
124.5
20
-47.802212
30
0
11
124.5
21
-48.772236
31
0
39
0
210
0
220
0
230
1
0
LINE
5
222
100
AcDbEntity
8
1
62
256
6
ByLayer
370
18
48
1
60
0
100
AcDbLine
10
115.475
20
-48.772236
30
0
11
124.5
21
-48.772236
31
0
39
0
210
0
220
0
230
1
0
LINE
5
223
100
AcDbEntity
8
1
62
256
6
ByLayer
370
18
48
1
60
0
100
AcDbLine
10
115.475
20
-45.378271
30
0
11
115.475
21
-45.483407
31
0
39
0
210
0
220
0
230
1
0
LINE
5
224
100
AcDbEntity
8
1
62
256
6
ByLayer
370
13
48
1
60
0
100
AcDbLine
10
115.475
20
-44.91528
30
0
11
115.500101
21
-44.91528
31
0
39
0
210
0
220
0
230
1
0
LINE
5
225
100
AcDbEntity
8
1
62
256
6
ByLayer
370
18
48
1
60
0
100
AcDbLine
10
115.475
20
-46.360726
30
0
11
115.475
21
-45.8501
31
0
39
0
210
0
220
0
230
1
0
LINE
5
226
100
AcDbEntity
8
1
62
256
6
ByLayer
370
13
48
1
60
0
100
AcDbLine
10
115.475
20
-44.037961
30
0
11
115.500101
21
-44.037961
31
0
39
0
210
0
220
0
230
1
0
LINE
5
227
100
AcDbEntity
8
1
62
256
6
ByLayer
370
18
48
1
60
0
100
AcDbLine
10
124.5
20
-46.360726
30
0
11
124.5
21
-45.980669
31
0
39
0
210
0
220
0
230
1
0
LINE
5
228
100
AcDbEntity
8
1
62
256
6
ByLayer
370
13
48
1
60
0
100
AcDbLine
10
115.475
20
-44.259432
30
0
11
115.500101
21
-44.259432
31
0
39
0
210
0
220
0
230
1
0
LINE
5
229
100
AcDbEntity
8
1
62
256
6
ByLayer
370
13
48
1
60
0
100
AcDbLine
10
115.475
20
-44.404654
30
0
11
115.500101
21
-44.404654
31
0
39
0
210
0
220
0
230
1
0
LINE
5
22A
100
AcDbEntity
8
1
62
256
6
ByLayer
370
18
48
1
60
0
100
AcDbLine
10
115.475
20
-45.704878
30
0
11
115.475
21
-45.483407
31
0
39
0
210
0
220
0
230
1
0
LINE
5
22B
100
AcDbEntity
8
1
62
256
6
ByLayer
370
13
48
1
60
0
100
AcDbLine
10
115.475
20
-45.19902
30
0
11
115.500101
21
-45.19902
31
0
39
0
210
0
220
0
230
1
0
LINE
5
22C
100
AcDbEntity
8
1
62
256
6
ByLayer
370
18
48
1
60
0
100
AcDbLine
10
115.475
20
-45.8501
30
0
11
115.475
21
-45.704878
31
0
39
0
210
0
220
0
230
1
0
LINE
5
22D
100
AcDbEntity
8
1
62
256
6
ByLayer
370
18
48
1
60
0
100
AcDbLine
10
115.475
20
-46.823716
30
0
11
115.475
21
-46.644466
31
0
39
0
210
0
220
0
230
1
0
LINE
5
22E
100
AcDbEntity
8
1
62
256
6
ByLayer
370
18
48
1
60
0
100
AcDbLine
10
124.5
20
-46.823716
30
0
11
124.5
21
-46.644466
31
0
39
0
210
0
220
0
230
1
0
LINE
5
22F
100
AcDbEntity
8
1
62
256
6
ByLayer
370
18
48
1
60
0
100
AcDbLine
10
115.475
20
-46.928853
30
0
11
115.475
21
-46.823716
31
0
39
0
210
0
220
0
230
1
0
LINE
5
230
100
AcDbEntity
8
1
62
256
6
ByLayer
370
13
48
1
60
0
100
AcDbLine
10
115.475
20
-45.378271
30
0
11
115.500101
21
-45.378271
31
0
39
0
210
0
220
0
230
1
0
LINE
5
231
100
AcDbEntity
8
1
62
256
6
ByLayer
370
18
48
1
60
0
100
AcDbLine
10
124.5
20
-46.928853
30
0
11
124.5
21
-46.823716
31
0
39
0
210
0
220
0
230
1
0
LINE
5
232
100
AcDbEntity
8
1
62
256
6
ByLayer
370
18
48
1
60
0
100
AcDbLine
10
115.475
20
-47.295546
30
0
11
115.475
21
-47.802212
31
0
39
0
210
0
220
0
230
1
0
LINE
5
233
100
AcDbEntity
8
1
62
256
6
ByLayer
370
13
48
1
60
0
100
AcDbLine
10
115.475
20
-46.360726
30
0
11
115.567647
21
-46.360726
31
0
39
0
210
0
220
0
230
1
0
LINE
5
234
100
AcDbEntity
8
1
62
256
6
ByLayer
370
13
48
1
60
0
100
AcDbLine
10
124.432736
20
-46.360726
30
0
11
124.5
21
-46.360726
31
0
39
0
210
0
220
0
230
1
0
LINE
5
235
100
AcDbEntity
8
1
62
256
6
ByLayer
370
18
48
1
60
0
100
AcDbLine
10
124.5
20
-47.295546
30
0
11
124.5
21
-47.802212
31
0
39
0
210
0
220
0
230
1
0
LINE
5
236
100
AcDbEntity
8
1
62
256
6
ByLayer
370
13
48
1
60
0
100
AcDbLine
10
115.475
20
-45.483407
30
0
11
115.500101
21
-45.483407
31
0
39
0
210
0
220
0
230
1
0
LINE
5
237
100
AcDbEntity
8
1
62
256
6
ByLayer
370
18
48
1
60
0
100
AcDbLine
10
124.5
20
-47.802212
30
0
11
115.475
21
-47.802212
31
0
39
0
210
0
220
0
230
1
0
LINE
5
238
100
AcDbEntity
8
1
62
256
6
ByLayer
370
13
48
1
60
0
100
AcDbLine
10
115.475
20
-45.704878
30
0
11
115.500101
21
-45.704878
31
0
39
0
210
0
220
0
230
1
0
LINE
5
239
100
AcDbEntity
8
1
62
256
6
ByLayer
370
13
48
1
60
0
100
AcDbLine
10
115.475
20
-45.8501
30
0
11
115.500101
21
-45.8501
31
0
39
0
210
0
220
0
230
1
0
LINE
5
23A
100
AcDbEntity
8
1
62
256
6
ByLayer
370
18
48
1
60
0
100
AcDbLine
10
115.475
20
-47.150323
30
0
11
115.475
21
-46.928853
31
0
39
0
210
0
220
0
230
1
0
LINE
5
23B
100
AcDbEntity
8
1
62
256
6
ByLayer
370
18
48
1
60
0
100
AcDbLine
10
124.5
20
-47.150323
30
0
11
124.5
21
-46.928853
31
0
39
0
210
0
220
0
230
1
0
LINE
5
23C
100
AcDbEntity
8
1
62
256
6
ByLayer
370
13
48
1
60
0
100
AcDbLine
10
115.475
20
-46.644466
30
0
11
115.686382
21
-46.644466
31
0
39
0
210
0
220
0
230
1
0
LINE
5
23D
100
AcDbEntity
8
1
62
256
6
ByLayer
370
13
48
1
60
0
100
AcDbLine
10
124.320064
20
-46.644466
30
0
11
124.5
21
-46.644466
31
0
39
0
210
0
220
0
230
1
0
LINE
5
23E
100
AcDbEntity
8
1
62
256
6
ByLayer
370
18
48
1
60
0
100
AcDbLine
10
115.475
20
-47.150323
30
0
11
115.475
21
-47.295546
31
0
39
0
210
0
220
0
230
1
0
LINE
5
23F
100
AcDbEntity
8
1
62
256
6
ByLayer
370
18
48
1
60
0
100
AcDbLine
10
124.5
20
-47.150323
30
0
11
124.5
21
-47.295546
31
0
39
0
210
0
220
0
230
1
0
LINE
5
240
100
AcDbEntity
8
1
62
256
6
ByLayer
370
13
48
1
60
0
100
AcDbLine
10
115.475
20
-46.823716
30
0
11
115.8776
21
-46.823716
31
0
39
0
210
0
220
0
230
1
0
LINE
5
241
100
AcDbEntity
8
1
62
256
6
ByLayer
370
13
48
1
60
0
100
AcDbLine
10
124.115873
20
-46.823716
30
0
11
124.5
21
-46.823716
31
0
39
0
210
0
220
0
230
1
0
LINE
5
242
100
AcDbEntity
8
1
62
256
6
ByLayer
370
18
48
1
60
0
100
AcDbLine
10
124.875905
20
-30.442219
30
0
11
124.999972
21
-33.070522
31
0
39
0
210
0
220
0
230
1
0
LINE
5
243
100
AcDbEntity
8
1
62
256
6
ByLayer
370
18
48
1
60
0
100
AcDbLine
10
124.875905
20
-30.442219
30
0
11
124.513309
21
-26.924878
31
0
39
0
210
0
220
0
230
1
0
LINE
5
244
100
AcDbEntity
8
1
62
256
6
ByLayer
370
18
48
1
60
0
100
AcDbLine
10
116.484096
20
-31.5116
30
0
11
116.532317
21
-32.533147
31
0
39
0
210
0
220
0
230
1
0
LINE
5
245
100
AcDbEntity
8
1
62
256
6
ByLayer
370
18
48
1
60
0
100
AcDbLine
10
124.999912
20
-33.960883
30
0
11
124.999972
21
-33.070522
31
0
39
0
210
0
220
0
230
1
0
LINE
5
246
100
AcDbEntity
8
1
62
256
6
ByLayer
370
18
48
1
60
0
100
AcDbLine
10
115.475
20
-1.728829
30
0
11
115.525061
21
-1.728829
31
0
39
0
210
0
220
0
230
1
0
LINE
5
247
100
AcDbEntity
8
1
62
256
6
ByLayer
370
18
48
1
60
0
100
AcDbLine
10
124.474899
20
-1.728829
30
0
11
124.5
21
-1.728829
31
0
39
0
210
0
220
0
230
1
0
LINE
5
248
100
AcDbEntity
8
1
62
256
6
ByLayer
370
13
48
1
60
0
100
AcDbLine
10
115.475
20
-46.928853
30
0
11
116.196154
21
-46.928853
31
0
39
0
210
0
220
0
230
1
0
LINE
5
249
100
AcDbEntity
8
1
62
256
6
ByLayer
370
13
48
1
60
0
100
AcDbLine
10
123.80987
20
-46.928853
30
0
11
124.5
21
-46.928853
31
0
39
0
210
0
220
0
230
1
0
LINE
5
24A
100
AcDbEntity
8
1
62
256
6
ByLayer
370
13
48
1
60
0
100
AcDbLine
10
115.475
20
-47.150323
30
0
11
124.5
21
-47.150323
31
0
39
0
210
0
220
0
230
1
0
LINE
5
24B
100
AcDbEntity
8
1
62
256
6
ByLayer
370
18
48
1
60
0
100
AcDbLine
10
124.5
20
-1.619115
30
0
11
124.5
21
-1.728829
31
0
39
0
210
0
220
0
230
1
0
LINE
5
24C
100
AcDbEntity
8
1
62
256
6
ByLayer
370
13
48
1
60
0
100
AcDbLine
10
115.475
20
-47.295546
30
0
11
124.5
21
-47.295546
31
0
39
0
210
0
220
0
230
1
0
LINE
5
24D
100
AcDbEntity
8
1
62
256
6
ByLayer
370
18
48
1
60
0
100
AcDbLine
10
115.475
20
-1.564689
30
0
11
124.5
21
-1.619115
31
0
39
0
210
0
220
0
230
1
0
LINE
5
24E
100
AcDbEntity
8
1
62
256
6
ByLayer
370
18
48
1
60
0
100
AcDbLine
10
124.5
20
11.572337
30
0
11
124.5
21
11.529325
31
0
39
0
210
0
220
0
230
1
0
LINE
5
24F
100
AcDbEntity
8
1
62
256
6
ByLayer
370
18
48
1
60
0
100
AcDbLine
10
115.475
20
11.572337
30
0
11
115.475
21
11.529325
31
0
39
0
210
0
220
0
230
1
0
LINE
5
250
100
AcDbEntity
8
1
62
256
6
ByLayer
370
18
48
1
60
0
100
AcDbLine
10
124.5
20
-1.619115
30
0
11
124.5
21
-1.376455
31
0
39
0
210
0
220
0
230
1
0
LINE
5
251
100
AcDbEntity
8
1
62
256
6
ByLayer
370
18
48
1
60
0
100
AcDbLine
10
115.475
20
-1.564689
30
0
11
115.475
21
0.727112
31
0
39
0
210
0
220
0
230
1
0
LINE
5
252
100
AcDbEntity
8
1
62
256
6
ByLayer
370
18
48
1
60
0
100
AcDbLine
10
116.433201
20
0.643309
30
0
11
115.475
21
0.727112
31
0
39
0
210
0
220
0
230
1
0
LINE
5
253
100
AcDbEntity
8
1
62
256
6
ByLayer
370
18
48
1
60
0
100
AcDbLine
10
124.5
20
11.529325
30
0
11
124.5
21
11.031425
31
0
39
0
210
0
220
0
230
1
0
LINE
5
254
100
AcDbEntity
8
1
62
256
6
ByLayer
370
18
48
1
60
0
100
AcDbLine
10
115.475
20
11.529325
30
0
11
115.475
21
11.031425
31
0
39
0
210
0
220
0
230
1
0
LINE
5
255
100
AcDbEntity
8
1
62
256
6
ByLayer
370
18
48
1
60
0
100
AcDbLine
10
115.475
20
4.29702
30
0
11
115.475
21
3.014887
31
0
39
0
210
0
220
0
230
1
0
LINE
5
256
100
AcDbEntity
8
1
62
256
6
ByLayer
370
18
48
1
60
0
100
AcDbLine
10
116.802269
20
2.898806
30
0
11
115.475
21
3.014887
31
0
39
0
210
0
220
0
230
1
0
LINE
5
257
100
AcDbEntity
8
1
62
256
6
ByLayer
370
18
48
1
60
0
100
AcDbLine
10
117.070093
20
4.15643
30
0
11
117.037893
21
3.752413
31
0
39
0
210
0
220
0
230
1
0
LINE
5
258
100
AcDbEntity
8
1
62
256
6
ByLayer
370
18
48
1
60
0
100
AcDbLine
10
117.309018
20
4.734733
30
0
11
117.210145
21
4.67062
31
0
39
0
210
0
220
0
230
1
0
LINE
5
259
100
AcDbEntity
8
1
62
256
6
ByLayer
370
18
48
1
60
0
100
AcDbLine
10
117.198874
20
4.66856
30
0
11
117.16157
21
4.200499
31
0
39
0
210
0
220
0
230
1
0
LINE
5
25A
100
AcDbEntity
8
1
62
256
6
ByLayer
370
18
48
1
60
0
100
AcDbLine
10
117.484593
20
6.213818
30
0
11
117.390133
21
5.028615
31
0
39
0
210
0
220
0
230
1
0
LINE
5
25B
100
AcDbEntity
8
1
62
256
6
ByLayer
370
18
48
1
60
0
100
AcDbLine
10
115.475
20
11.031425
30
0
11
115.475
21
7.533632
31
0
39
0
210
0
220
0
230
1
0
LINE
5
25C
100
AcDbEntity
8
1
62
256
6
ByLayer
370
13
48
1
60
0
100
AcDbLine
10
115.475
20
11.529325
30
0
11
124.5
21
11.529325
31
0
39
0
210
0
220
0
230
1
0
LINE
5
25D
100
AcDbEntity
8
1
62
256
6
ByLayer
370
18
48
1
60
0
100
AcDbLine
10
124.999972
20
-34.691765
30
0
11
124.637375
21
-36.615176
31
0
39
0
210
0
220
0
230
1
0
LINE
5
25E
100
AcDbEntity
8
1
62
256
6
ByLayer
370
18
48
1
60
0
100
AcDbLine
10
115.475
20
7.533632
30
0
11
115.475
21
4.29702
31
0
39
0
210
0
220
0
230
1
0
LINE
5
25F
100
AcDbEntity
8
1
62
256
6
ByLayer
370
18
48
1
60
0
100
AcDbLine
10
124.5
20
5.517175
30
0
11
124.5
21
5.595484
31
0
39
0
210
0
220
0
230
1
0
LINE
5
260
100
AcDbEntity
8
1
62
256
6
ByLayer
370
18
48
1
60
0
100
AcDbLine
10
117.324077
20
6.100124
30
0
11
117.210145
21
4.67062
31
0
39
0
210
0
220
0
230
1
0
LINE
5
261
100
AcDbEntity
8
1
62
256
6
ByLayer
370
18
48
1
60
0
100
AcDbLine
10
124.5
20
11.031425
30
0
11
115.475
21
11.031425
31
0
39
0
210
0
220
0
230
1
0
LINE
5
262
100
AcDbEntity
8
1
62
256
6
ByLayer
370
18
48
1
60
0
100
AcDbLine
10
124.5
20
11.031425
30
0
11
124.5
21
7.533632
31
0
39
0
210
0
220
0
230
1
0
LINE
5
263
100
AcDbEntity
8
1
62
256
6
ByLayer
370
18
48
1
60
0
100
AcDbLine
10
117.210145
20
4.67062
30
0
11
117.172059
21
4.238511
31
0
39
0
210
0
220
0
230
1
0
LINE
5
264
100
AcDbEntity
8
1
62
256
6
ByLayer
370
18
48
1
60
0
100
AcDbLine
10
115.475
20
4.29702
30
0
11
117.070093
21
4.15643
31
0
39
0
210
0
220
0
230
1
0
LINE
5
265
100
AcDbEntity
8
1
62
256
6
ByLayer
370
18
48
1
60
0
100
AcDbLine
10
117.070093
20
4.15643
30
0
11
117.198874
21
4.66856
31
0
39
0
210
0
220
0
230
1
0
LINE
5
266
100
AcDbEntity
8
1
62
256
6
ByLayer
370
18
48
1
60
0
100
AcDbLine
10
117.198874
20
4.66856
30
0
11
117.324077
21
6.100124
31
0
39
0
210
0
220
0
230
1
0
LINE
5
267
100
AcDbEntity
8
1
62
256
6
ByLayer
370
18
48
1
60
0
100
AcDbLine
10
117.324077
20
6.100124
30
0
11
117.484593
21
6.213818
31
0
39
0
210
0
220
0
230
1
0
LINE
5
268
100
AcDbEntity
8
1
62
256
6
ByLayer
370
18
48
1
60
0
100
AcDbLine
10
124.5
20
5.595484
30
0
11
117.484593
21
6.213818
31
0
39
0
210
0
220
0
230
1
0
LINE
5
269
100
AcDbEntity
8
1
62
256
6
ByLayer
370
18
48
1
60
0
100
AcDbLine
10
124.5
20
7.533632
30
0
11
124.5
21
5.595484
31
0
39
0
210
0
220
0
230
1
0
LINE
5
26A
100
AcDbEntity
8
1
62
256
6
ByLayer
370
18
48
1
60
0
100
AcDbLine
10
115.475
20
7.533632
30
0
11
124.5
21
7.533632
31
0
39
0
210
0
220
0
230
1
0
LINE
5
26B
100
AcDbEntity
8
1
62
256
6
ByLayer
370
18
48
1
60
0
100
AcDbLine
10
124.999912
20
-35.630018
30
0
11
124.999972
21
-34.691765
31
0
39
0
210
0
220
0
230
1
0
LINE
5
26C
100
AcDbEntity
8
1
62
256
6
ByLayer
370
18
48
1
60
0
100
AcDbLine
10
124.875905
20
-29.862
30
0
11
124.908604
21
-31.134945
31
0
39
0
210
0
220
0
230
1
0
LINE
5
26D
100
AcDbEntity
8
1
62
256
6
ByLayer
370
18
48
1
60
0
100
AcDbLine
10
124.983079
20
-34.034163
30
0
11
124.999972
21
-34.691765
31
0
39
0
210
0
220
0
230
1
0
LINE
5
26E
100
AcDbEntity
8
1
62
256
6
ByLayer
370
13
48
1
60
0
100
AcDbLine
10
120.56925
20
32.192432
30
0
11
120.475355
21
31.663064
31
0
39
0
210
0
220
0
230
1
0
LINE
5
26F
100
AcDbEntity
8
1
62
256
6
ByLayer
370
18
48
1
60
0
100
AcDbLine
10
119.803704
20
32.727165
30
0
11
119.887375
21
33.198892
31
0
39
0
210
0
220
0
230
1
0
LINE
5
270
100
AcDbEntity
8
1
62
256
6
ByLayer
370
13
48
1
60
0
100
AcDbLine
10
121.012329
20
32.165748
30
0
11
120.918434
21
31.63638
31
0
39
0
210
0
220
0
230
1
0
LINE
5
271
100
AcDbEntity
8
1
62
256
6
ByLayer
370
13
48
1
60
0
100
AcDbLine
10
119.943434
20
32.553198
30
0
11
119.849539
21
32.02383
31
0
39
0
210
0
220
0
230
1
0
LINE
5
272
100
AcDbEntity
8
1
62
256
6
ByLayer
370
18
48
1
60
0
100
AcDbLine
10
124.5
20
-35.200243
30
0
11
124.5
21
-34.423965
31
0
39
0
210
0
220
0
230
1
0
LINE
5
273
100
AcDbEntity
8
1
62
256
6
ByLayer
370
18
48
1
60
0
100
AcDbLine
10
119.888405
20
33.238983
30
0
11
119.804734
21
32.767257
31
0
39
0
210
0
220
0
230
1
0
LINE
5
274
100
AcDbEntity
8
1
62
256
6
ByLayer
370
18
48
1
60
0
100
AcDbLine
10
115.475
20
0.727112
30
0
11
115.475
21
0.769862
31
0
39
0
210
0
220
0
230
1
0
LINE
5
275
100
AcDbEntity
8
1
62
256
6
ByLayer
370
13
48
1
60
0
100
AcDbLine
10
121.654718
20
32.450139
30
0
11
121.560823
21
31.920771
31
0
39
0
210
0
220
0
230
1
0
LINE
5
276
100
AcDbEntity
8
1
62
256
6
ByLayer
370
13
48
1
60
0
100
AcDbLine
10
119.702694
20
33.299537
30
0
11
119.653396
21
33.021604
31
0
39
0
210
0
220
0
230
1
0
LINE
5
277
100
AcDbEntity
8
1
62
256
6
ByLayer
370
13
48
1
60
0
100
AcDbLine
10
121.842723
20
33.090082
30
0
11
121.807567
21
32.891873
31
0
39
0
210
0
220
0
230
1
0
LINE
5
278
100
AcDbEntity
8
1
62
256
6
ByLayer
370
18
48
1
60
0
100
AcDbLine
10
115.5
20
-31.450199
30
0
11
115.5
21
-35.200243
31
0
39
0
210
0
220
0
230
1
0
LINE
5
279
100
AcDbEntity
8
1
62
256
6
ByLayer
370
18
48
1
60
0
100
AcDbLine
10
124.5
20
-43.714573
30
0
11
124.5
21
-45.980668
31
0
39
0
210
0
220
0
230
1
0
LINE
5
27A
100
AcDbEntity
8
1
62
256
6
ByLayer
370
18
48
1
60
0
100
AcDbLine
10
124.875905
20
42.641522
30
0
11
124.999972
21
47.915173
31
0
39
0
210
0
220
0
230
1
0
LINE
5
27B
100
AcDbEntity
8
1
62
256
6
ByLayer
370
18
48
1
60
0
100
AcDbLine
10
123.5
20
-46.973975
30
0
11
116.5
21
-46.973975
31
0
39
0
210
0
220
0
230
1
0
LINE
5
27C
100
AcDbEntity
8
1
62
256
6
ByLayer
370
18
48
1
60
0
100
AcDbLine
10
119.803704
20
1.133948
30
0
11
119.809183
21
1.196113
31
0
39
0
210
0
220
0
230
1
0
LINE
5
27D
100
AcDbEntity
8
1
62
256
6
ByLayer
370
18
48
1
60
0
100
AcDbLine
10
124.999972
20
47.915173
30
0
11
116.532317
21
47.89578
31
0
39
0
210
0
220
0
230
1
0
LINE
5
27E
100
AcDbEntity
8
1
62
256
6
ByLayer
370
18
48
1
60
0
100
AcDbLine
10
116.457373
20
44.710166
30
0
11
116.532317
21
47.89578
31
0
39
0
210
0
220
0
230
1
0
LINE
5
27F
100
AcDbEntity
8
1
62
256
6
ByLayer
370
18
48
1
60
0
100
AcDbLine
10
124.999912
20
49.208198
30
0
11
124.999972
21
47.915173
31
0
39
0
210
0
220
0
230
1
0
LINE
5
280
100
AcDbEntity
8
1
62
256
6
ByLayer
370
18
48
1
60
0
100
AcDbLine
10
121.661084
20
0.984516
30
0
11
121.665314
21
1.032516
31
0
39
0
210
0
220
0
230
1
0
LINE
5
281
100
AcDbEntity
8
1
62
256
6
ByLayer
370
18
48
1
60
0
100
AcDbLine
10
124.875905
20
42.641522
30
0
11
124.819479
21
41.538594
31
0
39
0
210
0
220
0
230
1
0
LINE
5
282
100
AcDbEntity
8
1
62
256
6
ByLayer
370
18
48
1
60
0
100
AcDbLine
10
124.875905
20
42.641522
30
0
11
124.499888
21
42.640661
31
0
39
0
210
0
220
0
230
1
0
LINE
5
283
100
AcDbEntity
8
1
62
256
6
ByLayer
370
18
48
1
60
0
100
AcDbLine
10
119.809072
20
1.196086
30
0
11
119.804734
21
1.14687
31
0
39
0
210
0
220
0
230
1
0
LINE
5
284
100
AcDbEntity
8
1
62
256
6
ByLayer
370
18
48
1
60
0
100
AcDbLine
10
119.133975
20
-7.422838
30
0
11
120.866025
21
-7.422838
31
0
39
0
210
0
220
0
230
1
0
LINE
5
285
100
AcDbEntity
8
1
62
256
6
ByLayer
370
18
48
1
60
0
100
AcDbLine
10
121.661082
20
0.983253
30
0
11
121.660054
21
0.971594
31
0
39
0
210
0
220
0
230
1
0
LINE
5
286
100
AcDbEntity
8
1
62
256
6
ByLayer
370
18
48
1
60
0
100
AcDbLine
10
115.475
20
21.793677
30
0
11
115.500101
21
21.793677
31
0
39
0
210
0
220
0
230
1
0
LINE
5
287
100
AcDbEntity
8
1
62
256
6
ByLayer
370
18
48
1
60
0
100
AcDbLine
10
119.133975
20
-7.422838
30
0
11
118.267949
21
-5.977393
31
0
39
0
210
0
220
0
230
1
0
LINE
5
288
100
AcDbEntity
8
1
62
256
6
ByLayer
370
18
48
1
60
0
100
AcDbLine
10
116.40825
20
30.37195
30
0
11
116.532317
21
35.201715
31
0
39
0
210
0
220
0
230
1
0
LINE
5
289
100
AcDbEntity
8
1
62
256
6
ByLayer
370
18
48
1
60
0
100
AcDbLine
10
124.875905
20
29.862
30
0
11
116.40825
21
30.37195
31
0
39
0
210
0
220
0
230
1
0
LINE
5
28A
100
AcDbEntity
8
1
62
256
6
ByLayer
370
18
48
1
60
0
100
AcDbLine
10
124.875905
20
29.862
30
0
11
124.999972
21
34.691765
31
0
39
0
210
0
220
0
230
1
0
LINE
5
28B
100
AcDbEntity
8
1
62
256
6
ByLayer
370
18
48
1
60
0
100
AcDbLine
10
118.184474
20
38.762786
30
0
11
124.105488
21
38.406203
31
0
39
0
210
0
220
0
230
1
0
LINE
5
28C
100
AcDbEntity
8
1
62
256
6
ByLayer
370
18
48
1
60
0
100
AcDbLine
10
115.475
20
48.772236
30
0
11
116.532347
21
48.772236
31
0
39
0
210
0
220
0
230
1
0
LINE
5
28D
100
AcDbEntity
8
1
62
256
6
ByLayer
370
18
48
1
60
0
100
AcDbLine
10
115.475
20
41.601709
30
0
11
115.475
21
43.890729
31
0
39
0
210
0
220
0
230
1
0
LINE
5
28E
100
AcDbEntity
8
1
62
256
6
ByLayer
370
18
48
1
60
0
100
AcDbLine
10
117.296557
20
36.657616
30
0
11
124.235731
21
36.239716
31
0
39
0
210
0
220
0
230
1
0
LINE
5
28F
100
AcDbEntity
8
1
62
256
6
ByLayer
370
18
48
1
60
0
100
AcDbLine
10
124.999972
20
34.691765
30
0
11
116.532317
21
35.201715
31
0
39
0
210
0
220
0
230
1
0
LINE
5
290
100
AcDbEntity
8
1
62
256
6
ByLayer
370
18
48
1
60
0
100
AcDbLine
10
124.999912
20
35.630018
30
0
11
124.999972
21
34.691765
31
0
39
0
210
0
220
0
230
1
0
LINE
5
291
100
AcDbEntity
8
1
62
256
6
ByLayer
370
18
48
1
60
0
100
AcDbLine
10
116.532317
20
35.201715
30
0
11
116.532377
21
36.139961
31
0
39
0
210
0
220
0
230
1
0
LINE
5
292
100
AcDbEntity
8
1
62
256
6
ByLayer
370
18
48
1
60
0
100
AcDbLine
10
124.875905
20
-42.641522
30
0
11
124.513309
21
-41.514443
31
0
39
0
210
0
220
0
230
1
0
LINE
5
293
100
AcDbEntity
8
1
62
256
6
ByLayer
370
18
48
1
60
0
100
AcDbLine
10
115.475
20
29.131636
30
0
11
115.475
21
30.666671
31
0
39
0
210
0
220
0
230
1
0
LINE
5
294
100
AcDbEntity
8
1
62
256
6
ByLayer
370
18
48
1
60
0
100
AcDbLine
10
124.999912
20
-49.208198
30
0
11
124.999972
21
-47.915173
31
0
39
0
210
0
220
0
230
1
0
LINE
5
295
100
AcDbEntity
8
1
62
256
6
ByLayer
370
18
48
1
60
0
100
AcDbLine
10
124.999972
20
-47.915173
30
0
11
124.637375
21
-46.788094
31
0
39
0
210
0
220
0
230
1
0
LINE
5
296
100
AcDbEntity
8
1
62
256
6
ByLayer
370
18
48
1
60
0
100
AcDbLine
10
115.475
20
28.999711
30
0
11
115.475
21
29.131636
31
0
39
0
210
0
220
0
230
1
0
LINE
5
297
100
AcDbEntity
8
1
62
256
6
ByLayer
370
18
48
1
60
0
100
AcDbLine
10
116.356348
20
29.078558
30
0
11
115.475
21
29.131636
31
0
39
0
210
0
220
0
230
1
0
LINE
5
298
100
AcDbEntity
8
1
62
256
6
ByLayer
370
18
48
1
60
0
100
AcDbLine
10
116.532357
20
-48.772229
30
0
11
116.532377
21
-49.188806
31
0
39
0
210
0
220
0
230
1
0
LINE
5
299
100
AcDbEntity
8
1
62
256
6
ByLayer
370
18
48
1
60
0
100
AcDbLine
10
117.296557
20
-49.967373
30
0
11
124.235731
21
-49.983265
31
0
39
0
210
0
220
0
230
1
0
LINE
5
29A
100
AcDbEntity
8
1
62
256
6
ByLayer
370
18
48
1
60
0
100
AcDbLine
10
124.637375
20
-46.788094
30
0
11
124.600101
21
-48.243311
31
0
39
0
210
0
220
0
230
1
0
LINE
5
29B
100
AcDbEntity
8
1
62
256
6
ByLayer
370
18
48
1
60
0
100
AcDbLine
10
124.513309
20
-41.514443
30
0
11
124.637375
21
-46.788094
31
0
39
0
210
0
220
0
230
1
0
LINE
5
29C
100
AcDbEntity
8
1
62
256
6
ByLayer
370
18
48
1
60
0
100
AcDbLine
10
124.499999
20
-41.331249
30
0
11
124.513309
21
-41.514443
31
0
39
0
210
0
220
0
230
1
0
LINE
5
29D
100
AcDbEntity
8
1
62
256
6
ByLayer
370
18
48
1
60
0
100
AcDbLine
10
115.475
20
30.666671
30
0
11
115.475
21
30.93851
31
0
39
0
210
0
220
0
230
1
0
LINE
5
29E
100
AcDbEntity
8
1
62
256
6
ByLayer
370
18
48
1
60
0
100
AcDbLine
10
115.475
20
30.93851
30
0
11
115.475
21
31.466209
31
0
39
0
210
0
220
0
230
1
0
LINE
5
29F
100
AcDbEntity
8
1
62
256
6
ByLayer
370
18
48
1
60
0
100
AcDbLine
10
124.641113
20
28.164631
30
0
11
124.513309
21
26.924878
31
0
39
0
210
0
220
0
230
1
0
LINE
5
2A0
100
AcDbEntity
8
1
62
256
6
ByLayer
370
18
48
1
60
0
100
AcDbLine
10
115.475
20
31.466209
30
0
11
115.475
21
31.626129
31
0
39
0
210
0
220
0
230
1
0
LINE
5
2A1
100
AcDbEntity
8
1
62
256
6
ByLayer
370
18
48
1
60
0
100
AcDbLine
10
116.434893
20
31.408401
30
0
11
115.475
21
31.466209
31
0
39
0
210
0
220
0
230
1
0
LINE
5
2A2
100
AcDbEntity
8
1
62
256
6
ByLayer
370
18
48
1
60
0
100
AcDbLine
10
116.40825
20
0.330293
30
0
11
116.532317
21
1.886963
31
0
39
0
210
0
220
0
230
1
0
LINE
5
2A3
100
AcDbEntity
8
1
62
256
6
ByLayer
370
18
48
1
60
0
100
AcDbLine
10
115.475
20
48.772236
30
0
11
115.475
21
44.458952
31
0
39
0
210
0
220
0
230
1
0
LINE
5
2A4
100
AcDbEntity
8
1
62
256
6
ByLayer
370
18
48
1
60
0
100
AcDbLine
10
124.875905
20
-0.410277
30
0
11
116.40825
21
0.330293
31
0
39
0
210
0
220
0
230
1
0
LINE
5
2A5
100
AcDbEntity
8
1
62
256
6
ByLayer
370
18
48
1
60
0
100
AcDbLine
10
124.875905
20
-0.410277
30
0
11
124.999972
21
1.146393
31
0
39
0
210
0
220
0
230
1
0
LINE
5
2A6
100
AcDbEntity
8
1
62
256
6
ByLayer
370
18
48
1
60
0
100
AcDbLine
10
124.021434
20
-1.42136
30
0
11
117.08226
21
-0.814469
31
0
39
0
210
0
220
0
230
1
0
LINE
5
2A7
100
AcDbEntity
8
1
62
256
6
ByLayer
370
18
48
1
60
0
100
AcDbLine
10
118.184474
20
6.127954
30
0
11
124.105488
21
5.61011
31
0
39
0
210
0
220
0
230
1
0
LINE
5
2A8
100
AcDbEntity
8
1
62
256
6
ByLayer
370
18
48
1
60
0
100
AcDbLine
10
117.296557
20
1.874324
30
0
11
124.235731
21
1.267433
31
0
39
0
210
0
220
0
230
1
0
LINE
5
2A9
100
AcDbEntity
8
1
62
256
6
ByLayer
370
18
48
1
60
0
100
AcDbLine
10
116.532317
20
1.886963
30
0
11
116.532377
21
1.920816
31
0
39
0
210
0
220
0
230
1
0
LINE
5
2AA
100
AcDbEntity
8
1
62
256
6
ByLayer
370
18
48
1
60
0
100
AcDbLine
10
124.999972
20
1.146393
30
0
11
116.532317
21
1.886963
31
0
39
0
210
0
220
0
230
1
0
LINE
5
2AB
100
AcDbEntity
8
1
62
256
6
ByLayer
370
18
48
1
60
0
100
AcDbLine
10
124.999972
20
33.070522
30
0
11
124.958163
21
33.067868
31
0
39
0
210
0
220
0
230
1
0
LINE
5
2AC
100
AcDbEntity
8
1
62
256
6
ByLayer
370
18
48
1
60
0
100
AcDbLine
10
124.908604
20
31.134941
30
0
11
124.999972
21
33.070522
31
0
39
0
210
0
220
0
230
1
0
LINE
5
2AD
100
AcDbEntity
8
1
62
256
6
ByLayer
370
18
48
1
60
0
100
AcDbLine
10
124.999912
20
1.180257
30
0
11
124.999972
21
1.146393
31
0
39
0
210
0
220
0
230
1
0
LINE
5
2AE
100
AcDbEntity
8
1
62
256
6
ByLayer
370
18
48
1
60
0
100
AcDbLine
10
124.999912
20
33.960883
30
0
11
124.999972
21
33.070522
31
0
39
0
210
0
220
0
230
1
0
LINE
5
2AF
100
AcDbEntity
8
1
62
256
6
ByLayer
370
18
48
1
60
0
100
AcDbLine
10
124.499999
20
26.833016
30
0
11
124.513309
21
26.924878
31
0
39
0
210
0
220
0
230
1
0
LINE
5
2B0
100
AcDbEntity
8
80
62
256
6
ByLayer
370
18
48
1
60
0
100
AcDbLine
10
0
20
0
30
0
11
-5
21
0
31
0
39
0
210
0
220
0
230
1
0
LINE
5
2B1
100
AcDbEntity
8
4
62
256
6
ByLayer
370
18
48
0.05
60
0
100
AcDbLine
10
0
20
0
30
0
11
128
21
0
31
0
39
0
210
0
220
0
230
1
0
LINE
5
2B3
100
AcDbEntity
8
SK4
62
256
6
ByLayer
370
18
48
0.05
60
0
100
AcDbLine
10
-3
20
0
30
0
11
128
21
0
31
0
39
0
210
0
220
0
230
1
0
LINE
5
2B5
100
AcDbEntity
8
1
62
256
6
ByLayer
370
18
48
1
60
0
100
AcDbLine
10
115.500101
20
-16.903684
30
0
11
115.475
21
-16.903684
31
0
39
0
210
0
220
0
230
1
0
LINE
5
2B6
100
AcDbEntity
8
1
62
256
6
ByLayer
370
18
48
1
60
0
100
AcDbLine
10
115.500101
20
-17.642319
30
0
11
115.475
21
-17.642319
31
0
39
0
210
0
220
0
230
1
0
LINE
5
2B7
100
AcDbEntity
8
1
62
256
6
ByLayer
370
18
48
1
60
0
100
AcDbLine
10
115.500101
20
-18.380955
30
0
11
115.475
21
-18.380955
31
0
39
0
210
0
220
0
230
1
0
LINE
5
2B8
100
AcDbEntity
8
1
62
256
6
ByLayer
370
18
48
1
60
0
100
AcDbLine
10
115.500101
20
-19.11959
30
0
11
115.475
21
-19.11959
31
0
39
0
210
0
220
0
230
1
0
LINE
5
2B9
100
AcDbEntity
8
1
62
256
6
ByLayer
370
18
48
1
60
0
100
AcDbLine
10
115.500101
20
-19.858226
30
0
11
115.475
21
-19.858226
31
0
39
0
210
0
220
0
230
1
0
LINE
5
2BA
100
AcDbEntity
8
1
62
256
6
ByLayer
370
18
48
1
60
0
100
AcDbLine
10
115.500101
20
-20.596861
30
0
11
115.475
21
-20.596861
31
0
39
0
210
0
220
0
230
1
0
LINE
5
2BB
100
AcDbEntity
8
1
62
256
6
ByLayer
370
18
48
1
60
0
100
AcDbLine
10
115.500101
20
-21.335496
30
0
11
115.475
21
-21.335496
31
0
39
0
210
0
220
0
230
1
0
LINE
5
2BC
100
AcDbEntity
8
1
62
256
6
ByLayer
370
18
48
1
60
0
100
AcDbLine
10
115.500064
20
-22.074132
30
0
11
115.475
21
-22.074132
31
0
39
0
210
0
220
0
230
1
0
LINE
5
2BD
100
AcDbEntity
8
1
62
256
6
ByLayer
370
18
48
1
60
0
100
AcDbLine
10
115.500038
20
-22.812767
30
0
11
115.475
21
-22.812767
31
0
39
0
210
0
220
0
230
1
0
LINE
5
2BE
100
AcDbEntity
8
1
62
256
6
ByLayer
370
18
48
1
60
0
100
AcDbLine
10
115.500101
20
-23.551402
30
0
11
115.475
21
-23.551402
31
0
39
0
210
0
220
0
230
1
0
LINE
5
2BF
100
AcDbEntity
8
1
62
256
6
ByLayer
370
18
48
1
60
0
100
AcDbLine
10
115.500101
20
-24.290038
30
0
11
115.475
21
-24.290038
31
0
39
0
210
0
220
0
230
1
0
LINE
5
2C0
100
AcDbEntity
8
1
62
256
6
ByLayer
370
18
48
1
60
0
100
AcDbLine
10
124.5
20
-25.028673
30
0
11
115.475
21
-25.028673
31
0
39
0
210
0
220
0
230
1
0
LINE
5
2C1
100
AcDbEntity
8
1
62
256
6
ByLayer
370
18
48
1
60
0
100
AcDbLine
10
72.158095
20
-19.5
30
0
11
72.838105
21
-19.5
31
0
39
0
210
0
220
0
230
1
0
LINE
5
2C2
100
AcDbEntity
8
1
62
256
6
ByLayer
370
18
48
1
60
0
100
AcDbLine
10
72.838105
20
19.5
30
0
11
72.158095
21
19.5
31
0
39
0
210
0
220
0
230
1
0
LINE
5
2C3
100
AcDbEntity
8
SK1
62
256
6
ByLayer
370
18
48
1
60
0
100
AcDbLine
10
1
20
-19.996
30
0
11
71
21
-19.996
31
0
39
0
210
0
220
0
230
1
0
LINE
5
2C4
100
AcDbEntity
8
SK1
62
256
6
ByLayer
370
18
48
1
60
0
100
AcDbLine
10
71
20
19.996
30
0
11
1
21
19.996
31
0
39
0
210
0
220
0
230
1
0
LINE
5
2C5
100
AcDbEntity
8
SK1
62
256
6
ByLayer
370
18
48
1
60
0
100
AcDbLine
10
0
20
-18.996
30
0
11
1
21
-19.996
31
0
39
0
210
0
220
0
230
1
0
LINE
5
2C6
100
AcDbEntity
8
SK1
62
256
6
ByLayer
370
18
48
1
60
0
100
AcDbLine
10
1
20
19.996
30
0
11
0
21
18.996
31
0
39
0
210
0
220
0
230
1
0
LINE
5
2C7
100
AcDbEntity
8
1
62
256
6
ByLayer
370
18
48
1
60
0
100
AcDbLine
10
74
20
-20
30
0
11
115.474711
21
-20
31
0
39
0
210
0
220
0
230
1
0
LINE
5
2C8
100
AcDbEntity
8
1
62
256
6
ByLayer
370
18
48
1
60
0
100
AcDbLine
10
115.5
20
20
30
0
11
74
21
20
31
0
39
0
210
0
220
0
230
1
0
LINE
5
2C9
100
AcDbEntity
8
1
62
256
6
ByLayer
370
18
48
1
60
0
100
AcDbLine
10
119.868683
20
45.03729
30
0
11
119.783237
21
45.32546
31
0
39
0
210
0
220
0
230
1
0
LINE
5
2CA
100
AcDbEntity
8
1
62
256
6
ByLayer
370
18
48
1
60
0
100
AcDbLine
10
120.972843
20
46.269063
30
0
11
121.066251
21
45.954042
31
0
39
0
210
0
220
0
230
1
0
LINE
5
2CB
100
AcDbEntity
8
1
62
256
6
ByLayer
370
18
48
1
60
0
100
AcDbLine
10
121.678
20
45.033047
30
0
11
121.763447
21
44.744876
31
0
39
0
210
0
220
0
230
1
0
LINE
5
2CC
100
AcDbEntity
8
1
62
256
6
ByLayer
370
18
48
1
60
0
100
AcDbLine
10
122.812585
20
45.544855
30
0
11
122.750487
21
45.75428
31
0
39
0
210
0
220
0
230
1
0
LINE
5
2CD
100
AcDbEntity
8
1
62
256
6
ByLayer
370
18
48
1
60
0
100
AcDbLine
10
124.5
20
11.572337
30
0
11
115.475
21
11.572337
31
0
39
0
210
0
220
0
230
1
0
LINE
5
2CE
100
AcDbEntity
8
1
62
256
6
ByLayer
370
18
48
1
60
0
100
AcDbLine
10
119.79824
20
32.684671
30
0
11
119.882302
21
33.158601
31
0
39
0
210
0
220
0
230
1
0
LINE
5
2CF
100
AcDbEntity
8
1
62
256
6
ByLayer
370
18
48
1
60
0
100
AcDbLine
10
121.749829
20
33.167479
30
0
11
121.665767
21
32.693549
31
0
39
0
210
0
220
0
230
1
0
LINE
5
2D0
100
AcDbEntity
8
1
62
256
6
ByLayer
370
18
48
1
60
0
100
AcDbLine
10
122.804856
20
32.351261
30
0
11
122.866954
21
32.701357
31
0
39
0
210
0
220
0
230
1
0
LINE
5
2D1
100
AcDbEntity
8
1
62
256
6
ByLayer
370
18
48
1
60
0
100
AcDbLine
10
118.731502
20
33.434871
30
0
11
118.669405
21
33.084776
31
0
39
0
210
0
220
0
230
1
0
LINE
5
2D2
100
AcDbEntity
8
81
62
256
6
ByLayer
370
18
48
1
60
0
100
AcDbLine
10
125
20
50
30
0
11
130
21
50
31
0
39
0
210
0
220
0
230
1
0
LINE
5
2D3
100
AcDbEntity
8
SK2
62
256
6
ByLayer
370
13
48
1
60
0
100
AcDbLine
10
125.565685
20
-50.565685
30
0
11
131.576093
21
-56.576093
31
0
39
0
210
0
220
0
230
1
0
LINE
5
2D5
100
AcDbEntity
8
1
62
256
6
ByLayer
370
18
48
1
60
1
100
AcDbLine
10
125.565685
20
-50.565685
30
0
11
128.366381
21
-52.714735
31
0
39
0
210
0
220
0
230
1
0
LINE
5
2D6
100
AcDbEntity
8
1
62
256
6
ByLayer
370
18
48
1
60
1
100
AcDbLine
10
128.366381
20
-52.714735
30
0
11
127.714737
21
-53.366384
31
0
39
0
210
0
220
0
230
1
0
LINE
5
2D7
100
AcDbEntity
8
1
62
256
6
ByLayer
370
18
48
1
60
1
100
AcDbLine
10
127.714737
20
-53.366384
30
0
11
125.565685
21
-50.565685
31
0
39
0
210
0
220
0
230
1
0
LINE
5
2D8
100
AcDbEntity
8
2
62
256
6
ByLayer
370
13
48
1
60
0
100
AcDbLine
10
143.35
20
50
30
0
11
143.35
21
-50
31
0
39
0
210
0
220
0
230
1
0
LINE
5
2DA
100
AcDbEntity
8
2
62
256
6
ByLayer
370
13
48
1
60
0
100
AcDbLine
10
126.5875
20
-50
30
0
11
145.35
21
-50
31
0
39
0
210
0
220
0
230
1
0
LINE
5
2DB
100
AcDbEntity
8
2
62
256
6
ByLayer
370
13
48
1
60
0
100
AcDbLine
10
126.5875
20
50
30
0
11
145.35
21
50
31
0
39
0
210
0
220
0
230
1
0
LINE
5
2DC
100
AcDbEntity
8
1
62
256
6
ByLayer
370
18
48
1
60
1
100
AcDbLine
10
143.35
20
-50
30
0
11
142.889216
21
-46.500002
31
0
39
0
210
0
220
0
230
1
0
LINE
5
2DD
100
AcDbEntity
8
1
62
256
6
ByLayer
370
18
48
1
60
1
100
AcDbLine
10
142.889216
20
-46.500002
30
0
11
143.810784
21
-46.499998
31
0
39
0
210
0
220
0
230
1
0
LINE
5
2DE
100
AcDbEntity
8
1
62
256
6
ByLayer
370
18
48
1
60
1
100
AcDbLine
10
143.810784
20
-46.499998
30
0
11
143.35
21
-50
31
0
39
0
210
0
220
0
230
1
0
LINE
5
2DF
100
AcDbEntity
8
1
62
256
6
ByLayer
370
18
48
1
60
1
100
AcDbLine
10
143.35
20
50
30
0
11
143.810784
21
46.500002
31
0
39
0
210
0
220
0
230
1
0
LINE
5
2E0
100
AcDbEntity
8
1
62
256
6
ByLayer
370
18
48
1
60
1
100
AcDbLine
10
143.810784
20
46.500002
30
0
11
142.889216
21
46.499998
31
0
39
0
210
0
220
0
230
1
0
LINE
5
2E1
100
AcDbEntity
8
1
62
256
6
ByLayer
370
18
48
1
60
1
100
AcDbLine
10
142.889216
20
46.499998
30
0
11
143.35
21
50
31
0
39
0
210
0
220
0
230
1
0
LINE
5
2E2
100
AcDbEntity
8
SK2
62
256
6
ByLayer
370
13
48
1
60
0
100
AcDbLine
10
-14.35
20
20
30
0
11
-14.35
21
-20
31
0
39
0
210
0
220
0
230
1
0
LINE
5
2E3
100
AcDbEntity
8
SK2
62
256
6
ByLayer
370
13
48
1
60
0
100
AcDbLine
10
-1.5875
20
-20
30
0
11
-16.35
21
-20
31
0
39
0
210
0
220
0
230
1
0
LINE
5
2E4
100
AcDbEntity
8
SK2
62
256
6
ByLayer
370
13
48
1
60
0
100
AcDbLine
10
-1.5875
20
20
30
0
11
-16.35
21
20
31
0
39
0
210
0
220
0
230
1
0
LINE
5
2E5
100
AcDbEntity
8
1
62
256
6
ByLayer
370
18
48
1
60
1
100
AcDbLine
10
-14.35
20
-20
30
0
11
-14.810784
21
-16.500002
31
0
39
0
210
0
220
0
230
1
0
LINE
5
2E6
100
AcDbEntity
8
1
62
256
6
ByLayer
370
18
48
1
60
1
100
AcDbLine
10
-14.810784
20
-16.500002
30
0
11
-13.889216
21
-16.499998
31
0
39
0
210
0
220
0
230
1
0
LINE
5
2E7
100
AcDbEntity
8
1
62
256
6
ByLayer
370
18
48
1
60
1
100
AcDbLine
10
-13.889216
20
-16.499998
30
0
11
-14.35
21
-20
31
0
39
0
210
0
220
0
230
1
0
LINE
5
2E8
100
AcDbEntity
8
1
62
256
6
ByLayer
370
18
48
1
60
1
100
AcDbLine
10
-14.35
20
20
30
0
11
-13.889216
21
16.500002
31
0
39
0
210
0
220
0
230
1
0
LINE
5
2E9
100
AcDbEntity
8
1
62
256
6
ByLayer
370
18
48
1
60
1
100
AcDbLine
10
-13.889216
20
16.500002
30
0
11
-14.810784
21
16.499998
31
0
39
0
210
0
220
0
230
1
0
LINE
5
2EA
100
AcDbEntity
8
1
62
256
6
ByLayer
370
18
48
1
60
1
100
AcDbLine
10
-14.810784
20
16.499998
30
0
11
-14.35
21
20
31
0
39
0
210
0
220
0
230
1
0
LINE
5
3E1
100
AcDbEntity
8
1
62
256
6
ByLayer
370
18
48
1
60
1
100
AcDbLine
10
125.565685
20
-50.565685
30
0
11
128.366381
21
-52.714735
31
0
39
0
210
0
220
0
230
1
0
LINE
5
3E2
100
AcDbEntity
8
1
62
256
6
ByLayer
370
18
48
1
60
1
100
AcDbLine
10
128.366381
20
-52.714735
30
0
11
127.714737
21
-53.366384
31
0
39
0
210
0
220
0
230
1
0
LINE
5
3E3
100
AcDbEntity
8
1
62
256
6
ByLayer
370
18
48
1
60
1
100
AcDbLine
10
127.714737
20
-53.366384
30
0
11
125.565685
21
-50.565685
31
0
39
0
210
0
220
0
230
1
0
LINE
5
3E7
100
AcDbEntity
8
1
62
256
6
ByLayer
370
18
48
1
60
1
100
AcDbLine
10
143.35
20
-50
30
0
11
142.889216
21
-46.500002
31
0
39
0
210
0
220
0
230
1
0
LINE
5
3E8
100
AcDbEntity
8
1
62
256
6
ByLayer
370
18
48
1
60
1
100
AcDbLine
10
142.889216
20
-46.500002
30
0
11
143.810784
21
-46.499998
31
0
39
0
210
0
220
0
230
1
0
LINE
5
3E9
100
AcDbEntity
8
1
62
256
6
ByLayer
370
18
48
1
60
1
100
AcDbLine
10
143.810784
20
-46.499998
30
0
11
143.35
21
-50
31
0
39
0
210
0
220
0
230
1
0
LINE
5
3EB
100
AcDbEntity
8
1
62
256
6
ByLayer
370
18
48
1
60
1
100
AcDbLine
10
143.35
20
50
30
0
11
143.810784
21
46.500002
31
0
39
0
210
0
220
0
230
1
0
LINE
5
3EC
100
AcDbEntity
8
1
62
256
6
ByLayer
370
18
48
1
60
1
100
AcDbLine
10
143.810784
20
46.500002
30
0
11
142.889216
21
46.499998
31
0
39
0
210
0
220
0
230
1
0
LINE
5
3ED
100
AcDbEntity
8
1
62
256
6
ByLayer
370
18
48
1
60
1
100
AcDbLine
10
142.889216
20
46.499998
30
0
11
143.35
21
50
31
0
39
0
210
0
220
0
230
1
0
LINE
5
3F1
100
AcDbEntity
8
1
62
256
6
ByLayer
370
18
48
1
60
1
100
AcDbLine
10
-14.35
20
-20
30
0
11
-14.810784
21
-16.500002
31
0
39
0
210
0
220
0
230
1
0
LINE
5
3F2
100
AcDbEntity
8
1
62
256
6
ByLayer
370
18
48
1
60
1
100
AcDbLine
10
-14.810784
20
-16.500002
30
0
11
-13.889216
21
-16.499998
31
0
39
0
210
0
220
0
230
1
0
LINE
5
3F3
100
AcDbEntity
8
1
62
256
6
ByLayer
370
18
48
1
60
1
100
AcDbLine
10
-13.889216
20
-16.499998
30
0
11
-14.35
21
-20
31
0
39
0
210
0
220
0
230
1
0
LINE
5
3F5
100
AcDbEntity
8
1
62
256
6
ByLayer
370
18
48
1
60
1
100
AcDbLine
10
-14.35
20
20
30
0
11
-13.889216
21
16.500002
31
0
39
0
210
0
220
0
230
1
0
LINE
5
3F6
100
AcDbEntity
8
1
62
256
6
ByLayer
370
18
48
1
60
1
100
AcDbLine
10
-13.889216
20
16.500002
30
0
11
-14.810784
21
16.499998
31
0
39
0
210
0
220
0
230
1
0
LINE
5
3F7
100
AcDbEntity
8
1
62
256
6
ByLayer
370
18
48
1
60
1
100
AcDbLine
10
-14.810784
20
16.499998
30
0
11
-14.35
21
20
31
0
39
0
210
0
220
0
230
1
0
MTEXT
5
3DD
100
AcDbEntity
8
SK2
62
256
6
ByLayer
370
13
48
1
60
0
100
AcDbMText
10
130.966192
20
-59.335314
30
0
210
0
220
0
230
1
1
\W0.6380;R
40
3.5
41
0
44
1.084337
50
315
71
7
72
5
7
iso_b_vert
0
MTEXT
5
3E0
100
AcDbEntity
8
SK2
62
256
6
ByLayer
370
13
48
1
60
0
100
AcDbMText
10
133.571174
20
-61.940295
30
0
210
0
220
0
230
1
1
\W0.7121;0.8
40
3.5
41
0
44
1.084337
50
315
71
7
72
5
7
iso_b_vert
0
MTEXT
5
3E5
100
AcDbEntity
8
2
62
256
6
ByLayer
370
18
48
1
60
0
100
AcDbMText
10
141.561847
20
-6.172483
30
0
210
0
220
0
230
1
1
%%c
40
4
41
0
44
1.084337
50
90
71
7
72
5
7
iso_b_vert
0
MTEXT
5
3E6
100
AcDbEntity
8
2
62
256
6
ByLayer
370
18
48
1
60
0
100
AcDbMText
10
141.561847
20
1.796267
30
0
210
0
220
0
230
1
1
\W0.6217;100
40
4
41
0
44
1.084337
50
90
71
7
72
5
7
iso_b_vert
0
MTEXT
5
3EF
100
AcDbEntity
8
SK2
62
256
6
ByLayer
370
18
48
1
60
0
100
AcDbMText
10
-16.138153
20
-7.693282
30
0
210
0
220
0
230
1
1
%%c
40
4
41
0
44
1.084337
50
90
71
7
72
5
7
iso_b_vert
0
MTEXT
5
3F0
100
AcDbEntity
8
SK2
62
256
6
ByLayer
370
18
48
1
60
0
100
AcDbMText
10
-16.138153
20
0.275468
30
0
210
0
220
0
230
1
1
\W0.7640;40.0
40
4
41
0
44
1.084337
50
90
71
7
72
5
7
iso_b_vert
0
MTEXT
5
3F9
100
AcDbEntity
8
SK6
62
256
6
ByLayer
370
13
48
1
60
0
100
AcDbMText
10
62.6855
20
-84.217366
30
0
210
0
220
0
230
1
1
\W0.7684;R331.52C-100A40EMR
40
3.5
41
0
44
1.084337
50
0
71
7
72
5
7
iso_b_vert
0
HATCH
5
3E4
100
AcDbEntity
8
SK2
62
256
6
ByLayer
370
13
48
1
60
0
100
AcDbHatch
10
0
20
0
30
0
210
0
220
0
230
1
2
ANSI31
70
0
71
0
91
1
92
5
93
3
72
1
10
125.565685424949
20
-50.5656854249493
11
128.366381270599
21
-52.7147346539739
72
1
10
128.366381270599
20
-52.7147346539739
11
127.714737047606
21
-53.3663836642305
72
1
10
127.714737047606
20
-53.3663836642305
11
125.565685424949
21
-50.5656854249493
97
0
75
0
76
1
52
0
41
0.0062
77
0
78
1
53
44.9999999999999
43
0
44
0
45
-0.0139193969876572
46
0.0139193969876572
79
0
47
0
98
1
10
0
20
0
0
HATCH
5
3EA
100
AcDbEntity
8
2
62
256
6
ByLayer
370
13
48
1
60
0
100
AcDbHatch
10
0
20
0
30
0
210
0
220
0
230
1
2
ANSI31
70
0
71
0
91
1
92
5
93
3
72
1
10
143.35
20
-50
11
142.889216258447
21
-46.5000016925532
72
1
10
142.889216258447
20
-46.5000016925532
11
143.810783741553
21
-46.4999983074468
72
1
10
143.810783741553
20
-46.4999983074468
11
143.35
21
-50
97
0
75
0
76
1
52
0
41
0.0062
77
0
78
1
53
44.9999999999999
43
0
44
0
45
-0.0139193969876572
46
0.0139193969876572
79
0
47
0
98
1
10
0
20
0
0
HATCH
5
3EE
100
AcDbEntity
8
2
62
256
6
ByLayer
370
13
48
1
60
0
100
AcDbHatch
10
0
20
0
30
0
210
0
220
0
230
1
2
ANSI31
70
0
71
0
91
1
92
5
93
3
72
1
10
143.35
20
50
11
143.810783741553
21
46.5000016925532
72
1
10
143.810783741553
20
46.5000016925532
11
142.889216258447
21
46.4999983074468
72
1
10
142.889216258447
20
46.4999983074468
11
143.35
21
50
97
0
75
0
76
1
52
0
41
0.0062
77
0
78
1
53
44.9999999999999
43
0
44
0
45
-0.0139193969876572
46
0.0139193969876572
79
0
47
0
98
1
10
0
20
0
0
HATCH
5
3F4
100
AcDbEntity
8
SK2
62
256
6
ByLayer
370
13
48
1
60
0
100
AcDbHatch
10
0
20
0
30
0
210
0
220
0
230
1
2
ANSI31
70
0
71
0
91
1
92
5
93
3
72
1
10
-14.35
20
-20
11
-14.8107837415527
21
-16.5000016925532
72
1
10
-14.8107837415527
20
-16.5000016925532
11
-13.8892162584473
21
-16.4999983074468
72
1
10
-13.8892162584473
20
-16.4999983074468
11
-14.35
21
-20
97
0
75
0
76
1
52
0
41
0.0062
77
0
78
1
53
44.9999999999999
43
0
44
0
45
-0.0139193969876572
46
0.0139193969876572
79
0
47
0
98
1
10
0
20
0
0
HATCH
5
3F8
100
AcDbEntity
8
SK2
62
256
6
ByLayer
370
13
48
1
60
0
100
AcDbHatch
10
0
20
0
30
0
210
0
220
0
230
1
2
ANSI31
70
0
71
0
91
1
92
5
93
3
72
1
10
-14.35
20
20
11
-13.8892162584473
21
16.5000016925532
72
1
10
-13.8892162584473
20
16.5000016925532
11
-14.8107837415527
21
16.4999983074468
72
1
10
-14.8107837415527
20
16.4999983074468
11
-14.35
21
20
97
0
75
0
76
1
52
0
41
0.0062
77
0
78
1
53
44.9999999999999
43
0
44
0
45
-0.0139193969876572
46
0.0139193969876572
79
0
47
0
98
1
10
0
20
0
0
DIMENSION
5
3FC
100
AcDbEntity
8
SK2
62
256
6
ByLayer
370
13
48
1
60
0
100
AcDbDimension
2
_U0
10
74
20
-63.379236
30
0
11
99.5
21
-63.379236
31
0
70
32
71
1
72
1
41
1
210
0
220
0
230
1
3
Standard
100
AcDbAlignedDimension
13
125
23
-50
33
0
14
74
24
-20
34
0
50
0
100
AcDbRotatedDimension
1001
ACAD
1000
DSTYLE
1002
{
1070
   371
1070
    13
1070
   372
1070
    13
1070
   170
1070
     0
1070
   144
1040
1.0
1070
   277
1070
     2
1070
   284
1070
     8
1070
   278
1070
    46
1070
   146
1040
0.875
1070
   345
1005
16
1070
   347
1005
16
1070
   346
1005
16
1070
   344
1005
0
1070
   343
1005
0
1070
   172
1070
     1
1070
    76
1070
     0
1070
    75
1070
     0
1070
   282
1070
     0
1070
   281
1070
     0
1070
    71
1070
     0
1070
    74
1070
     0
1070
   279
1070
     0
1070
   173
1070
     1
1070
   340
1005
3DE
1070
   271
1070
     2
1070
   272
1070
     2
1070
    77
1070
     1
1070
    73
1070
     1
1070
   171
1070
     3
1070
   274
1070
     4
1070
   177
1070
     2
1070
   176
1070
     2
1070
   178
1070
     2
1070
    78
1070
     8
1070
    48
1040
-0.1
1070
    41
1040
3.5
1070
   147
1040
2.0
1070
    42
1040
1.5875
1070
    44
1040
2.0
1070
   140
1040
4.0
1002
}
1001
ACAD_DSTYLE_DIM_LINETYPE
1070
   380
1005
16
1001
ACAD_DSTYLE_DIM_EXT1_LINETYPE
1070
   381
1005
16
1001
ACAD_DSTYLE_DIM_EXT2_LINETYPE
1070
   382
1005
16
0
DIMENSION
5
415
100
AcDbEntity
8
SK2
62
256
6
ByLayer
370
13
48
1
60
0
100
AcDbDimension
2
_U1
10
0
20
-73.379236
30
0
11
62.5
21
-73.379236
31
0
70
32
71
1
72
1
41
1
210
0
220
0
230
1
3
Standard
100
AcDbAlignedDimension
13
125
23
-50
33
0
14
0
24
-20
34
0
50
0
100
AcDbRotatedDimension
1001
ACAD
1000
DSTYLE
1002
{
1070
   371
1070
    13
1070
   372
1070
    13
1070
   170
1070
     0
1070
   144
1040
1.0
1070
   277
1070
     2
1070
   284
1070
     8
1070
   278
1070
    46
1070
   146
1040
0.875
1070
   345
1005
16
1070
   347
1005
16
1070
   346
1005
16
1070
   344
1005
0
1070
   343
1005
0
1070
   172
1070
     1
1070
    76
1070
     0
1070
    75
1070
     0
1070
   282
1070
     0
1070
   281
1070
     0
1070
    71
1070
     0
1070
    74
1070
     0
1070
   279
1070
     0
1070
   173
1070
     1
1070
   340
1005
3DE
1070
   271
1070
     2
1070
   272
1070
     2
1070
    77
1070
     1
1070
    73
1070
     1
1070
   171
1070
     3
1070
   274
1070
     4
1070
   177
1070
     2
1070
   176
1070
     2
1070
   178
1070
     2
1070
    78
1070
     8
1070
    48
1040
-0.1
1070
    41
1040
3.5
1070
   147
1040
2.0
1070
    42
1040
1.5875
1070
    44
1040
2.0
1070
   140
1040
4.0
1002
}
1001
ACAD_DSTYLE_DIM_LINETYPE
1070
   380
1005
16
1001
ACAD_DSTYLE_DIM_EXT1_LINETYPE
1070
   381
1005
16
1001
ACAD_DSTYLE_DIM_EXT2_LINETYPE
1070
   382
1005
16
0
DIMENSION
5
42D
100
AcDbEntity
8
SK2
62
256
6
ByLayer
370
13
48
1
60
0
100
AcDbDimension
2
_U2
10
117.4
20
59.379236
30
0
11
145.15061
21
59.379236
31
0
70
32
71
1
72
1
41
1
210
0
220
0
230
1
3
Standard
100
AcDbAlignedDimension
13
125
23
50
33
0
14
117.4
24
50
34
0
50
0
100
AcDbRotatedDimension
1001
ACAD
1000
DSTYLE
1002
{
1070
   371
1070
    13
1070
   372
1070
    13
1070
     3
1000

1070
   170
1070
     0
1070
   144
1040
1.0
1070
   277
1070
     2
1070
   284
1070
     8
1070
   278
1070
    46
1070
   146
1040
0.875
1070
   345
1005
16
1070
   347
1005
16
1070
   346
1005
16
1070
   344
1005
0
1070
   343
1005
0
1070
   172
1070
     1
1070
    76
1070
     0
1070
    75
1070
     0
1070
   282
1070
     0
1070
   281
1070
     0
1070
    71
1070
     0
1070
    74
1070
     0
1070
   279
1070
     0
1070
   173
1070
     1
1070
   340
1005
3DE
1070
   271
1070
     2
1070
   272
1070
     2
1070
    77
1070
     1
1070
    73
1070
     1
1070
   171
1070
     3
1070
   274
1070
     4
1070
   177
1070
     2
1070
   176
1070
     2
1070
   178
1070
     2
1070
    78
1070
     8
1070
    48
1040
-0.1
1070
    41
1040
3.5
1070
   147
1040
2.0
1070
    42
1040
1.5875
1070
    44
1040
2.0
1070
   140
1040
4.0
1002
}
1001
ACAD_DSTYLE_DIM_LINETYPE
1070
   380
1005
16
1001
ACAD_DSTYLE_DIM_EXT1_LINETYPE
1070
   381
1005
16
1001
ACAD_DSTYLE_DIM_EXT2_LINETYPE
1070
   382
1005
16
0
DIMENSION
5
447
100
AcDbEntity
8
SK2
62
256
6
ByLayer
370
13
48
1
60
0
100
AcDbDimension
2
_U3
10
115.5
20
66.379236
30
0
11
120.25
21
66.379236
31
0
70
32
71
1
72
1
41
1
210
0
220
0
230
1
3
Standard
100
AcDbAlignedDimension
13
125
23
50
33
0
14
115.5
24
50
34
0
50
0
100
AcDbRotatedDimension
1001
ACAD
1000
DSTYLE
1002
{
1070
   371
1070
    13
1070
   372
1070
    13
1070
   170
1070
     0
1070
   144
1040
1.0
1070
   277
1070
     2
1070
   284
1070
     8
1070
   278
1070
    46
1070
   146
1040
0.875
1070
   345
1005
16
1070
   347
1005
16
1070
   346
1005
16
1070
   344
1005
0
1070
   343
1005
0
1070
   172
1070
     1
1070
    76
1070
     0
1070
    75
1070
     0
1070
   282
1070
     0
1070
   281
1070
     0
1070
    71
1070
     0
1070
    74
1070
     0
1070
   279
1070
     0
1070
   173
1070
     1
1070
   340
1005
3DE
1070
   271
1070
     2
1070
   272
1070
     2
1070
    77
1070
     1
1070
    73
1070
     1
1070
   171
1070
     3
1070
   274
1070
     4
1070
   177
1070
     2
1070
   176
1070
     2
1070
   178
1070
     2
1070
    78
1070
     8
1070
    48
1040
-0.1
1070
    41
1040
3.5
1070
   147
1040
2.0
1070
    42
1040
1.5875
1070
    44
1040
2.0
1070
   140
1040
4.0
1002
}
1001
ACAD_DSTYLE_DIM_LINETYPE
1070
   380
1005
16
1001
ACAD_DSTYLE_DIM_EXT1_LINETYPE
1070
   381
1005
16
1001
ACAD_DSTYLE_DIM_EXT2_LINETYPE
1070
   382
1005
16
0
ENDSEC
0
SECTION
2
OBJECTS
0
DICTIONARY
5
4d0
330
0
100
AcDbDictionary
280
0
281
1
3
ACAD_GROUP
350
4d1
3
ACAD_MLINESTYLE
350
4d2
0
DICTIONARY
5
4d1
330
0
100
AcDbDictionary
280
0
281
1
0
DICTIONARY
5
4d2
330
0
100
AcDbDictionary
280
0
281
1
3
Standard
350
18
0
MLINESTYLE
5
18
330
4d2
100
AcDbMlineStyle
2
Standard
70
0
3

62
256
51
90
52
90
71
2
49
-0.5
62
256
6
ByLayer
49
0.5
62
256
6
ByLayer
0
RASTERVARIABLES
5
4be
330

100
AcDbRasterVariables
90
0
70
1
71
1
72
1
0
ENDSEC
0
EOF
