0
SECTION
2
HEADER
9
$ACADVER
1
AC1015
9
$DWGCODEPAGE
3
ANSI_1252
9
$HANDSEED
5
217
9
$ANGBASE
50
0
9
$ANGDIR
70
0
9
$ATTMODE
70
1
9
$AUNITS
70
0
9
$AUPREC
70
0
9
$CECOLOR
62
256
9
$CELTSCALE
40
1
9
$CELTYPE
6
ByLayer
9
$CELWEIGHT
370
18
9
$CLAYER
8
0
9
$CMLJUST
70
0
9
$CMLSCALE
40
1
9
$CMLSTYLE
2
Standard
9
$DIMSTYLE
2
Standard
9
$TEXTSIZE
40
0.2
9
$TEXTSTYLE
7
Standard
9
$LUNITS
70
2
9
$LUPREC
70
4
9
$EXTNAMES
290
1
9
$INSUNITS
70
4
9
$LTSCALE
40
1
9
$LWDISPLAY
290
1
9
$PDMODE
70
0
9
$PDSIZE
40
0
9
$PLINEGEN
70
0
0
ENDSEC
0
SECTION
2
CLASSES
0
CLASS
1
RASTERVARIABLES
2
AcDbRasterVariables
3
ISM
90
0
280
0
281
0
0
ENDSEC
0
SECTION
2
TABLES
0
TABLE
2
VPORT
5
20d
100
AcDbSymbolTable
0
VPORT
5
1
100
AcDbSymbolTableRecord
100
AcDbViewportTableRecord
2
*Active
70
0
10
0
20
0
11
1
21
1
12
-1
22
1
13
0
23
0
14
0.5
24
0.5
15
10
25
10
16
0
26
0
36
1
17
0
27
0
37
0
0
ENDTAB
0
TABLE
2
LTYPE
5
20e
100
AcDbSymbolTable
0
LTYPE
5
14
100
AcDbSymbolTableRecord
100
AcDbLinetypeTableRecord
70
0
2
ByBlock
3

72
65
73
0
40
0
0
LTYPE
5
15
100
AcDbSymbolTableRecord
100
AcDbLinetypeTableRecord
70
0
2
ByLayer
3

72
65
73
0
40
0
0
LTYPE
5
16
100
AcDbSymbolTableRecord
100
AcDbLinetypeTableRecord
70
0
2
Continuous
3
Solid line
72
65
73
0
40
0
0
LTYPE
5
6E
100
AcDbSymbolTableRecord
100
AcDbLinetypeTableRecord
70
0
2
CENTER
3
____ _ ____ _ ____ _ ____
72
65
73
4
40
47.5
49
22
74
0
49
-8.5
74
0
49
8.5
74
0
49
-8.5
74
0
0
LTYPE
5
6F
100
AcDbSymbolTableRecord
100
AcDbLinetypeTableRecord
70
0
2
DASHED
3
__ __ __ __ __ __ __ __ __
72
65
73
2
40
25.72
49
12.86
74
0
49
-12.86
74
0
0
ENDTAB
0
TABLE
2
LAYER
5
20f
100
AcDbSymbolTable
0
LAYER
5
10
100
AcDbSymbolTableRecord
100
AcDbLayerTableRecord
2
0
70
0
62
7
6
Continuous
290
1
370
-3
390
0
0
LAYER
5
71
100
AcDbSymbolTableRecord
100
AcDbLayerTableRecord
2
80
70
0
62
-6
6
Continuous
290
1
370
-3
390
0
0
LAYER
5
73
100
AcDbSymbolTableRecord
100
AcDbLayerTableRecord
2
81
70
0
62
-3
6
Continuous
290
1
370
-3
390
0
0
LAYER
5
75
100
AcDbSymbolTableRecord
100
AcDbLayerTableRecord
2
1
70
0
62
4
6
Continuous
290
1
370
-3
390
0
0
LAYER
5
95
100
AcDbSymbolTableRecord
100
AcDbLayerTableRecord
2
4
70
0
62
-2
6
CENTER
290
1
370
-3
390
0
0
LAYER
5
B0
100
AcDbSymbolTableRecord
100
AcDbLayerTableRecord
2
2
70
0
62
7
6
Continuous
290
1
370
-3
390
0
0
LAYER
5
122
100
AcDbSymbolTableRecord
100
AcDbLayerTableRecord
2
Defpoints
70
0
62
7
6
Continuous
290
0
370
-3
390
0
0
LAYER
5
1f9
100
AcDbSymbolTableRecord
100
AcDbLayerTableRecord
2
SK1
70
0
62
4
6
Continuous
290
1
370
-3
390
0
0
LAYER
5
1fa
100
AcDbSymbolTableRecord
100
AcDbLayerTableRecord
2
SK4
70
0
62
2
6
CENTER
290
1
370
-3
390
0
0
LAYER
5
1fb
100
AcDbSymbolTableRecord
100
AcDbLayerTableRecord
2
SK2
70
0
62
7
6
Continuous
290
1
370
-3
390
0
0
LAYER
5
1fc
100
AcDbSymbolTableRecord
100
AcDbLayerTableRecord
2
SK6
70
0
62
5
6
Continuous
290
1
370
-3
390
0
0
ENDTAB
0
TABLE
2
STYLE
5
210
100
AcDbSymbolTable
0
STYLE
5
11
100
AcDbSymbolTableRecord
100
AcDbTextStyleTableRecord
2
Standard
3
txt
70
0
71
0
40
0
41
1
42
0
50
0
0
STYLE
5
107
100
AcDbSymbolTableRecord
100
AcDbTextStyleTableRecord
2
iso_b_vert
3
simplex.shx
70
0
71
0
40
0
41
1
42
0
50
0
0
STYLE
5
108
100
AcDbSymbolTableRecord
100
AcDbTextStyleTableRecord
2
DWGDirectTextStyle
3
simplex
70
0
71
0
40
0
41
1
42
0
50
0
0
ENDTAB
0
TABLE
2
DIMSTYLE
5
211
100
AcDbSymbolTable
100
AcDbDimStyleTable
0
DIMSTYLE
105
27
100
AcDbSymbolTableRecord
100
AcDbDimStyleTableRecord
2
Standard
70
0
3
<>
41
0.18
42
0.0625
44
0.18
140
0.18
147
0.09
73
0
74
0
77
1
271
2
275
0
278
52
280
0
340
11
0
ENDTAB
0
TABLE
2
VIEW
5
212
100
AcDbSymbolTable
0
ENDTAB
0
TABLE
2
UCS
5
213
100
AcDbSymbolTable
0
ENDTAB
0
TABLE
2
APPID
5
214
100
AcDbSymbolTable
0
APPID
5
12
100
AcDbSymbolTableRecord
100
AcDbRegAppTableRecord
2
ACAD
70
0
0
APPID
5
11E
100
AcDbSymbolTableRecord
100
AcDbRegAppTableRecord
2
ACAD_DSTYLE_DIMBREAK
70
0
0
APPID
5
1B8
100
AcDbSymbolTableRecord
100
AcDbRegAppTableRecord
2
ACAD_DSTYLE_DIM_LINETYPE
70
0
0
APPID
5
1B9
100
AcDbSymbolTableRecord
100
AcDbRegAppTableRecord
2
ACAD_DSTYLE_DIM_EXT1_LINETYPE
70
0
0
APPID
5
1BA
100
AcDbSymbolTableRecord
100
AcDbRegAppTableRecord
2
ACAD_DSTYLE_DIM_EXT2_LINETYPE
70
0
0
APPID
5
1F5
100
AcDbSymbolTableRecord
100
AcDbRegAppTableRecord
2
ACAD_MLEADERVER
70
0
0
ENDTAB
0
TABLE
2
BLOCK_RECORD
5
215
100
AcDbSymbolTable
0
BLOCK_RECORD
5
1F
100
AcDbSymbolTableRecord
100
AcDbBlockTableRecord
2
*Model_Space
340
0
70
0
0
BLOCK_RECORD
5
1B
100
AcDbSymbolTableRecord
100
AcDbBlockTableRecord
2
*Paper_Space
340
0
70
0
0
BLOCK_RECORD
5
23
100
AcDbSymbolTableRecord
100
AcDbBlockTableRecord
2
*Paper_Space0
340
0
70
0
0
BLOCK_RECORD
5
123
100
AcDbSymbolTableRecord
100
AcDbBlockTableRecord
2
*D1
340
0
70
0
0
BLOCK_RECORD
5
12F
100
AcDbSymbolTableRecord
100
AcDbBlockTableRecord
2
_U0
340
0
70
0
0
BLOCK_RECORD
5
13B
100
AcDbSymbolTableRecord
100
AcDbBlockTableRecord
2
*D3
340
0
70
0
0
BLOCK_RECORD
5
147
100
AcDbSymbolTableRecord
100
AcDbBlockTableRecord
2
_U1
340
0
70
0
0
BLOCK_RECORD
5
153
100
AcDbSymbolTableRecord
100
AcDbBlockTableRecord
2
*D5
340
0
70
0
0
BLOCK_RECORD
5
15F
100
AcDbSymbolTableRecord
100
AcDbBlockTableRecord
2
_U2
340
0
70
0
0
BLOCK_RECORD
5
16B
100
AcDbSymbolTableRecord
100
AcDbBlockTableRecord
2
*D7
340
0
70
0
0
BLOCK_RECORD
5
179
100
AcDbSymbolTableRecord
100
AcDbBlockTableRecord
2
_U3
340
0
70
0
0
BLOCK_RECORD
5
185
100
AcDbSymbolTableRecord
100
AcDbBlockTableRecord
2
*D9
340
0
70
0
0
BLOCK_RECORD
5
191
100
AcDbSymbolTableRecord
100
AcDbBlockTableRecord
2
_U4
340
0
70
0
0
ENDTAB
0
ENDSEC
0
SECTION
2
BLOCKS
0
BLOCK
5
20
100
AcDbEntity
8
0
100
AcDbBlockBegin
2
*Model_Space
70
0
10
0
20
0
30
0
3
*Model_Space
0
ENDBLK
5
21
100
AcDbEntity
8
0
100
AcDbBlockEnd
0
BLOCK
5
1C
100
AcDbEntity
8
0
100
AcDbBlockBegin
2
*Paper_Space
70
0
10
0
20
0
30
0
3
*Paper_Space
0
ENDBLK
5
1D
100
AcDbEntity
8
0
100
AcDbBlockEnd
0
BLOCK
5
24
100
AcDbEntity
8
0
100
AcDbBlockBegin
2
*Paper_Space0
70
0
10
0
20
0
30
0
3
*Paper_Space0
0
ENDBLK
5
25
100
AcDbEntity
8
0
100
AcDbBlockEnd
0
BLOCK
5
124
100
AcDbEntity
8
0
100
AcDbBlockBegin
2
*D1
70
1
10
0
20
0
30
0
3
*D1
0
LINE
5
126
100
AcDbEntity
8
0
62
256
6
ByLayer
370
-2
48
1
60
0
100
AcDbLine
10
0
20
-1.5875
30
0
11
0
21
-18.213398
31
0
39
0
210
0
220
0
230
1
0
LINE
5
127
100
AcDbEntity
8
0
62
256
6
ByLayer
370
-2
48
1
60
0
100
AcDbLine
10
70.8
20
-7.5875
30
0
11
70.8
21
-18.213398
31
0
39
0
210
0
220
0
230
1
0
LINE
5
128
100
AcDbEntity
8
0
62
256
6
ByLayer
370
-2
48
1
60
0
100
AcDbLine
10
3.5
20
-16.213398
30
0
11
67.3
21
-16.213398
31
0
39
0
210
0
220
0
230
1
0
SOLID
5
129
100
AcDbEntity
8
0
62
256
6
ByLayer
370
-1
48
1
60
0
100
AcDbTrace
10
3.5
20
-15.630065
30
0
11
3.5
21
-16.796732
31
0
12
0
22
-16.213398
32
0
13
0
23
-16.213398
33
0
39
0
210
0
220
0
230
1
0
SOLID
5
12A
100
AcDbEntity
8
0
62
256
6
ByLayer
370
-1
48
1
60
0
100
AcDbTrace
10
67.3
20
-16.796732
30
0
11
67.3
21
-15.630065
31
0
12
70.8
22
-16.213398
32
0
13
70.8
23
-16.213398
33
0
39
0
210
0
220
0
230
1
0
MTEXT
5
12B
100
AcDbEntity
8
0
62
256
6
ByLayer
370
18
48
1
60
0
100
AcDbMText
10
35.4
20
-9.213398
30
0
210
0
220
0
230
1
1
\A1;70.80
40
3.5
41
0
44
1
50
0
71
5
72
5
7
iso_b_vert
0
POINT
5
12C
100
AcDbEntity
8
Defpoints
62
0
6
ByLayer
370
-1
48
1
60
0
100
AcDbPoint
10
0
20
0
30
0
39
0
210
0
220
0
230
1
50
360
0
POINT
5
12D
100
AcDbEntity
8
Defpoints
62
0
6
ByLayer
370
-1
48
1
60
0
100
AcDbPoint
10
70.8
20
-6
30
0
39
0
210
0
220
0
230
1
50
360
0
POINT
5
12E
100
AcDbEntity
8
Defpoints
62
0
6
ByLayer
370
-1
48
1
60
0
100
AcDbPoint
10
70.8
20
-16.213398
30
0
39
0
210
0
220
0
230
1
50
360
0
ENDBLK
5
125
100
AcDbEntity
8
0
100
AcDbBlockEnd
0
BLOCK
5
136
100
AcDbEntity
8
0
100
AcDbBlockBegin
2
_U0
70
0
10
0
20
0
30
0
3
_U0
0
MTEXT
5
130
100
AcDbEntity
8
SK2
62
256
6
ByLayer
370
13
48
1
60
0
100
AcDbMText
10
30.262701
20
-15.180765
30
0
210
0
220
0
230
1
1
\W0.7317;70,80
40
3.5
41
0
44
1.084337
50
0
71
7
72
5
7
iso_b_vert
0
LINE
5
131
100
AcDbEntity
8
SK2
62
256
6
ByLayer
370
13
48
1
60
0
100
AcDbLine
10
0
20
-1.5875
30
0
11
0
21
-18.213398
31
0
39
0
210
0
220
0
230
1
0
LINE
5
132
100
AcDbEntity
8
SK2
62
256
6
ByLayer
370
13
48
1
60
0
100
AcDbLine
10
70.8
20
-7.5875
30
0
11
70.8
21
-18.213398
31
0
39
0
210
0
220
0
230
1
0
LINE
5
133
100
AcDbEntity
8
SK2
62
256
6
ByLayer
370
13
48
1
60
0
100
AcDbLine
10
0
20
-16.213398
30
0
11
70.8
21
-16.213398
31
0
39
0
210
0
220
0
230
1
0
SOLID
5
134
100
AcDbEntity
8
SK2
62
256
6
ByLayer
370
18
48
1
60
0
100
AcDbTrace
10
0
20
-16.213398
30
0
11
3.499998
21
-15.752615
31
0
12
3.500002
22
-16.674182
32
0
13
3.500002
23
-16.674182
33
0
39
0
210
0
220
0
230
1
0
SOLID
5
135
100
AcDbEntity
8
SK2
62
256
6
ByLayer
370
18
48
1
60
0
100
AcDbTrace
10
70.8
20
-16.213398
30
0
11
67.300002
21
-16.674182
31
0
12
67.299998
22
-15.752615
32
0
13
67.299998
23
-15.752615
33
0
39
0
210
0
220
0
230
1
0
ENDBLK
5
137
100
AcDbEntity
8
0
100
AcDbBlockEnd
0
BLOCK
5
13C
100
AcDbEntity
8
0
100
AcDbBlockBegin
2
*D3
70
1
10
0
20
0
30
0
3
*D3
0
LINE
5
13E
100
AcDbEntity
8
0
62
256
6
ByLayer
370
-2
48
1
60
0
100
AcDbLine
10
-45
20
-7.5875
30
0
11
-45
21
-36.692985
31
0
39
0
210
0
220
0
230
1
0
LINE
5
13F
100
AcDbEntity
8
0
62
256
6
ByLayer
370
-2
48
1
60
0
100
AcDbLine
10
73
20
-1.5875
30
0
11
73
21
-36.692985
31
0
39
0
210
0
220
0
230
1
0
LINE
5
140
100
AcDbEntity
8
0
62
256
6
ByLayer
370
-2
48
1
60
0
100
AcDbLine
10
-41.5
20
-34.692985
30
0
11
69.5
21
-34.692985
31
0
39
0
210
0
220
0
230
1
0
SOLID
5
141
100
AcDbEntity
8
0
62
256
6
ByLayer
370
-1
48
1
60
0
100
AcDbTrace
10
-41.5
20
-34.109652
30
0
11
-41.5
21
-35.276319
31
0
12
-45
22
-34.692985
32
0
13
-45
23
-34.692985
33
0
39
0
210
0
220
0
230
1
0
SOLID
5
142
100
AcDbEntity
8
0
62
256
6
ByLayer
370
-1
48
1
60
0
100
AcDbTrace
10
69.5
20
-35.276319
30
0
11
69.5
21
-34.109652
31
0
12
73
22
-34.692985
32
0
13
73
23
-34.692985
33
0
39
0
210
0
220
0
230
1
0
MTEXT
5
143
100
AcDbEntity
8
0
62
256
6
ByLayer
370
18
48
1
60
0
100
AcDbMText
10
14
20
-27.692985
30
0
210
0
220
0
230
1
1
\A1;118.00
40
3.5
41
0
44
1
50
0
71
5
72
5
7
iso_b_vert
0
POINT
5
144
100
AcDbEntity
8
Defpoints
62
0
6
ByLayer
370
-1
48
1
60
0
100
AcDbPoint
10
-45
20
-6
30
0
39
0
210
0
220
0
230
1
50
360
0
POINT
5
145
100
AcDbEntity
8
Defpoints
62
0
6
ByLayer
370
-1
48
1
60
0
100
AcDbPoint
10
73
20
0
30
0
39
0
210
0
220
0
230
1
50
360
0
POINT
5
146
100
AcDbEntity
8
Defpoints
62
0
6
ByLayer
370
-1
48
1
60
0
100
AcDbPoint
10
73
20
-34.692985
30
0
39
0
210
0
220
0
230
1
50
360
0
ENDBLK
5
13D
100
AcDbEntity
8
0
100
AcDbBlockEnd
0
BLOCK
5
14E
100
AcDbEntity
8
0
100
AcDbBlockBegin
2
_U1
70
0
10
0
20
0
30
0
3
_U1
0
MTEXT
5
148
100
AcDbEntity
8
SK2
62
256
6
ByLayer
370
13
48
1
60
0
100
AcDbMText
10
8.429835
20
-33.660352
30
0
210
0
220
0
230
1
1
\W0.6440;118,00
40
3.5
41
0
44
1.084337
50
0
71
7
72
5
7
iso_b_vert
0
LINE
5
149
100
AcDbEntity
8
SK2
62
256
6
ByLayer
370
13
48
1
60
0
100
AcDbLine
10
-45
20
-7.5875
30
0
11
-45
21
-36.692985
31
0
39
0
210
0
220
0
230
1
0
LINE
5
14A
100
AcDbEntity
8
SK2
62
256
6
ByLayer
370
13
48
1
60
0
100
AcDbLine
10
73
20
-1.5875
30
0
11
73
21
-36.692985
31
0
39
0
210
0
220
0
230
1
0
LINE
5
14B
100
AcDbEntity
8
SK2
62
256
6
ByLayer
370
13
48
1
60
0
100
AcDbLine
10
-45
20
-34.692985
30
0
11
73
21
-34.692985
31
0
39
0
210
0
220
0
230
1
0
SOLID
5
14C
100
AcDbEntity
8
SK2
62
256
6
ByLayer
370
18
48
1
60
0
100
AcDbTrace
10
-45
20
-34.692985
30
0
11
-41.500002
21
-34.232202
31
0
12
-41.499998
22
-35.153769
32
0
13
-41.499998
23
-35.153769
33
0
39
0
210
0
220
0
230
1
0
SOLID
5
14D
100
AcDbEntity
8
SK2
62
256
6
ByLayer
370
18
48
1
60
0
100
AcDbTrace
10
73
20
-34.692985
30
0
11
69.500002
21
-35.153769
31
0
12
69.499998
22
-34.232202
32
0
13
69.499998
23
-34.232202
33
0
39
0
210
0
220
0
230
1
0
ENDBLK
5
14F
100
AcDbEntity
8
0
100
AcDbBlockEnd
0
BLOCK
5
154
100
AcDbEntity
8
0
100
AcDbBlockBegin
2
*D5
70
1
10
0
20
0
30
0
3
*D5
0
LINE
5
156
100
AcDbEntity
8
0
62
256
6
ByLayer
370
-2
48
1
60
0
100
AcDbLine
10
18.6795
20
7.5875
30
0
11
18.6795
21
19.609119
31
0
39
0
210
0
220
0
230
1
0
LINE
5
157
100
AcDbEntity
8
0
62
256
6
ByLayer
370
-2
48
1
60
0
100
AcDbLine
10
73
20
1.5875
30
0
11
73
21
19.609119
31
0
39
0
210
0
220
0
230
1
0
LINE
5
158
100
AcDbEntity
8
0
62
256
6
ByLayer
370
-2
48
1
60
0
100
AcDbLine
10
22.1795
20
17.609119
30
0
11
69.5
21
17.609119
31
0
39
0
210
0
220
0
230
1
0
SOLID
5
159
100
AcDbEntity
8
0
62
256
6
ByLayer
370
-1
48
1
60
0
100
AcDbTrace
10
22.1795
20
18.192453
30
0
11
22.1795
21
17.025786
31
0
12
18.6795
22
17.609119
32
0
13
18.6795
23
17.609119
33
0
39
0
210
0
220
0
230
1
0
SOLID
5
15A
100
AcDbEntity
8
0
62
256
6
ByLayer
370
-1
48
1
60
0
100
AcDbTrace
10
69.5
20
17.025786
30
0
11
69.5
21
18.192453
31
0
12
73
22
17.609119
32
0
13
73
23
17.609119
33
0
39
0
210
0
220
0
230
1
0
MTEXT
5
15B
100
AcDbEntity
8
0
62
256
6
ByLayer
370
18
48
1
60
0
100
AcDbMText
10
45.83975
20
24.609119
30
0
210
0
220
0
230
1
1
\A1;54.32
40
3.5
41
0
44
1
50
0
71
5
72
5
7
iso_b_vert
0
POINT
5
15C
100
AcDbEntity
8
Defpoints
62
0
6
ByLayer
370
-1
48
1
60
0
100
AcDbPoint
10
18.6795
20
6
30
0
39
0
210
0
220
0
230
1
50
360
0
POINT
5
15D
100
AcDbEntity
8
Defpoints
62
0
6
ByLayer
370
-1
48
1
60
0
100
AcDbPoint
10
73
20
0
30
0
39
0
210
0
220
0
230
1
50
360
0
POINT
5
15E
100
AcDbEntity
8
Defpoints
62
0
6
ByLayer
370
-1
48
1
60
0
100
AcDbPoint
10
73
20
17.609119
30
0
39
0
210
0
220
0
230
1
50
360
0
ENDBLK
5
155
100
AcDbEntity
8
0
100
AcDbBlockEnd
0
BLOCK
5
166
100
AcDbEntity
8
0
100
AcDbBlockBegin
2
_U2
70
0
10
0
20
0
30
0
3
_U2
0
MTEXT
5
160
100
AcDbEntity
8
SK2
62
256
6
ByLayer
370
13
48
1
60
0
100
AcDbMText
10
40.518185
20
18.641753
30
0
210
0
220
0
230
1
1
\W0.7581;54,32
40
3.5
41
0
44
1.084337
50
0
71
7
72
5
7
iso_b_vert
0
LINE
5
161
100
AcDbEntity
8
SK2
62
256
6
ByLayer
370
13
48
1
60
0
100
AcDbLine
10
18.6795
20
7.5875
30
0
11
18.6795
21
19.609119
31
0
39
0
210
0
220
0
230
1
0
LINE
5
162
100
AcDbEntity
8
SK2
62
256
6
ByLayer
370
13
48
1
60
0
100
AcDbLine
10
73
20
1.5875
30
0
11
73
21
19.609119
31
0
39
0
210
0
220
0
230
1
0
LINE
5
163
100
AcDbEntity
8
SK2
62
256
6
ByLayer
370
13
48
1
60
0
100
AcDbLine
10
18.6795
20
17.609119
30
0
11
73
21
17.609119
31
0
39
0
210
0
220
0
230
1
0
SOLID
5
164
100
AcDbEntity
8
SK2
62
256
6
ByLayer
370
18
48
1
60
0
100
AcDbTrace
10
18.6795
20
17.609119
30
0
11
22.179498
21
18.069903
31
0
12
22.179502
22
17.148335
32
0
13
22.179502
23
17.148335
33
0
39
0
210
0
220
0
230
1
0
SOLID
5
165
100
AcDbEntity
8
SK2
62
256
6
ByLayer
370
18
48
1
60
0
100
AcDbTrace
10
73
20
17.609119
30
0
11
69.500002
21
17.148335
31
0
12
69.499998
22
18.069903
32
0
13
69.499998
23
18.069903
33
0
39
0
210
0
220
0
230
1
0
ENDBLK
5
167
100
AcDbEntity
8
0
100
AcDbBlockEnd
0
BLOCK
5
16C
100
AcDbEntity
8
0
100
AcDbBlockBegin
2
*D7
70
1
10
0
20
0
30
0
3
*D7
0
LINE
5
16E
100
AcDbEntity
8
0
62
256
6
ByLayer
370
-2
48
1
60
0
100
AcDbLine
10
73
20
-1.5875
30
0
11
73
21
-20.802503
31
0
39
0
210
0
220
0
230
1
0
LINE
5
16F
100
AcDbEntity
8
0
62
256
6
ByLayer
370
-2
48
1
60
0
100
AcDbLine
10
70.8
20
-7.5875
30
0
11
70.8
21
-20.802503
31
0
39
0
210
0
220
0
230
1
0
LINE
5
170
100
AcDbEntity
8
0
62
256
6
ByLayer
370
-2
48
1
60
0
100
AcDbLine
10
73
20
-18.802503
30
0
11
101.166667
21
-18.802503
31
0
39
0
210
0
220
0
230
1
0
LINE
5
171
100
AcDbEntity
8
0
62
256
6
ByLayer
370
-2
48
1
60
0
100
AcDbLine
10
76.5
20
-18.802503
30
0
11
80
21
-18.802503
31
0
39
0
210
0
220
0
230
1
0
LINE
5
172
100
AcDbEntity
8
0
62
256
6
ByLayer
370
-2
48
1
60
0
100
AcDbLine
10
67.3
20
-18.802503
30
0
11
63.8
21
-18.802503
31
0
39
0
210
0
220
0
230
1
0
SOLID
5
173
100
AcDbEntity
8
0
62
256
6
ByLayer
370
-1
48
1
60
0
100
AcDbTrace
10
76.5
20
-18.21917
30
0
11
76.5
21
-19.385837
31
0
12
73
22
-18.802503
32
0
13
73
23
-18.802503
33
0
39
0
210
0
220
0
230
1
0
SOLID
5
174
100
AcDbEntity
8
0
62
256
6
ByLayer
370
-1
48
1
60
0
100
AcDbTrace
10
67.3
20
-19.385837
30
0
11
67.3
21
-18.21917
31
0
12
70.8
22
-18.802503
32
0
13
70.8
23
-18.802503
33
0
39
0
210
0
220
0
230
1
0
MTEXT
5
175
100
AcDbEntity
8
0
62
256
6
ByLayer
370
18
48
1
60
0
100
AcDbMText
10
90.583333
20
-11.802503
30
0
210
0
220
0
230
1
1
\A1;2.20
40
3.5
41
0
44
1
50
0
71
5
72
5
7
iso_b_vert
0
POINT
5
176
100
AcDbEntity
8
Defpoints
62
0
6
ByLayer
370
-1
48
1
60
0
100
AcDbPoint
10
73
20
0
30
0
39
0
210
0
220
0
230
1
50
360
0
POINT
5
177
100
AcDbEntity
8
Defpoints
62
0
6
ByLayer
370
-1
48
1
60
0
100
AcDbPoint
10
70.8
20
-6
30
0
39
0
210
0
220
0
230
1
50
360
0
POINT
5
178
100
AcDbEntity
8
Defpoints
62
0
6
ByLayer
370
-1
48
1
60
0
100
AcDbPoint
10
70.8
20
-18.802503
30
0
39
0
210
0
220
0
230
1
50
360
0
ENDBLK
5
16D
100
AcDbEntity
8
0
100
AcDbBlockEnd
0
BLOCK
5
180
100
AcDbEntity
8
0
100
AcDbBlockBegin
2
_U3
70
0
10
0
20
0
30
0
3
_U3
0
MTEXT
5
17A
100
AcDbEntity
8
SK2
62
256
6
ByLayer
370
13
48
1
60
0
100
AcDbMText
10
79.15186
20
-17.76987
30
0
210
0
220
0
230
1
1
\W0.7150;2,20
40
3.5
41
0
44
1.084337
50
0
71
7
72
5
7
iso_b_vert
0
LINE
5
17B
100
AcDbEntity
8
SK2
62
256
6
ByLayer
370
13
48
1
60
0
100
AcDbLine
10
73
20
-1.5875
30
0
11
73
21
-20.802503
31
0
39
0
210
0
220
0
230
1
0
LINE
5
17C
100
AcDbEntity
8
SK2
62
256
6
ByLayer
370
13
48
1
60
0
100
AcDbLine
10
70.8
20
-7.5875
30
0
11
70.8
21
-20.802503
31
0
39
0
210
0
220
0
230
1
0
LINE
5
17D
100
AcDbEntity
8
SK2
62
256
6
ByLayer
370
13
48
1
60
0
100
AcDbLine
10
62.05
20
-18.802503
30
0
11
86.996491
21
-18.802503
31
0
39
0
210
0
220
0
230
1
0
SOLID
5
17E
100
AcDbEntity
8
SK2
62
256
6
ByLayer
370
18
48
1
60
0
100
AcDbTrace
10
73
20
-18.802503
30
0
11
76.499998
21
-18.341719
31
0
12
76.500002
22
-19.263287
32
0
13
76.500002
23
-19.263287
33
0
39
0
210
0
220
0
230
1
0
SOLID
5
17F
100
AcDbEntity
8
SK2
62
256
6
ByLayer
370
18
48
1
60
0
100
AcDbTrace
10
70.8
20
-18.802503
30
0
11
67.300002
21
-19.263287
31
0
12
67.299998
22
-18.341719
32
0
13
67.299998
23
-18.341719
33
0
39
0
210
0
220
0
230
1
0
ENDBLK
5
181
100
AcDbEntity
8
0
100
AcDbBlockEnd
0
BLOCK
5
186
100
AcDbEntity
8
0
100
AcDbBlockBegin
2
*D9
70
1
10
0
20
0
30
0
3
*D9
0
LINE
5
188
100
AcDbEntity
8
0
62
256
6
ByLayer
370
-2
48
1
60
0
100
AcDbLine
10
-45
20
-7.5875
30
0
11
-45
21
-26.343428
31
0
39
0
210
0
220
0
230
1
0
LINE
5
189
100
AcDbEntity
8
0
62
256
6
ByLayer
370
-2
48
1
60
0
100
AcDbLine
10
70.8
20
-7.5875
30
0
11
70.8
21
-26.343428
31
0
39
0
210
0
220
0
230
1
0
LINE
5
18A
100
AcDbEntity
8
0
62
256
6
ByLayer
370
-2
48
1
60
0
100
AcDbLine
10
-41.5
20
-24.343428
30
0
11
67.3
21
-24.343428
31
0
39
0
210
0
220
0
230
1
0
SOLID
5
18B
100
AcDbEntity
8
0
62
256
6
ByLayer
370
-1
48
1
60
0
100
AcDbTrace
10
-41.5
20
-23.760095
30
0
11
-41.5
21
-24.926762
31
0
12
-45
22
-24.343428
32
0
13
-45
23
-24.343428
33
0
39
0
210
0
220
0
230
1
0
SOLID
5
18C
100
AcDbEntity
8
0
62
256
6
ByLayer
370
-1
48
1
60
0
100
AcDbTrace
10
67.3
20
-24.926762
30
0
11
67.3
21
-23.760095
31
0
12
70.8
22
-24.343428
32
0
13
70.8
23
-24.343428
33
0
39
0
210
0
220
0
230
1
0
MTEXT
5
18D
100
AcDbEntity
8
0
62
256
6
ByLayer
370
18
48
1
60
0
100
AcDbMText
10
12.9
20
-17.343428
30
0
210
0
220
0
230
1
1
\A1;115.80
40
3.5
41
0
44
1
50
0
71
5
72
5
7
iso_b_vert
0
POINT
5
18E
100
AcDbEntity
8
Defpoints
62
0
6
ByLayer
370
-1
48
1
60
0
100
AcDbPoint
10
-45
20
-6
30
0
39
0
210
0
220
0
230
1
50
360
0
POINT
5
18F
100
AcDbEntity
8
Defpoints
62
0
6
ByLayer
370
-1
48
1
60
0
100
AcDbPoint
10
70.8
20
-6
30
0
39
0
210
0
220
0
230
1
50
360
0
POINT
5
190
100
AcDbEntity
8
Defpoints
62
0
6
ByLayer
370
-1
48
1
60
0
100
AcDbPoint
10
70.8
20
-24.343428
30
0
39
0
210
0
220
0
230
1
50
360
0
ENDBLK
5
187
100
AcDbEntity
8
0
100
AcDbBlockEnd
0
BLOCK
5
198
100
AcDbEntity
8
0
100
AcDbBlockBegin
2
_U4
70
0
10
0
20
0
30
0
3
_U4
0
MTEXT
5
192
100
AcDbEntity
8
SK2
62
256
6
ByLayer
370
13
48
1
60
0
100
AcDbMText
10
7.329835
20
-23.310795
30
0
210
0
220
0
230
1
1
\W0.6440;115,80
40
3.5
41
0
44
1.084337
50
0
71
7
72
5
7
iso_b_vert
0
LINE
5
193
100
AcDbEntity
8
SK2
62
256
6
ByLayer
370
13
48
1
60
0
100
AcDbLine
10
-45
20
-7.5875
30
0
11
-45
21
-26.343428
31
0
39
0
210
0
220
0
230
1
0
LINE
5
194
100
AcDbEntity
8
SK2
62
256
6
ByLayer
370
13
48
1
60
0
100
AcDbLine
10
70.8
20
-7.5875
30
0
11
70.8
21
-26.343428
31
0
39
0
210
0
220
0
230
1
0
LINE
5
195
100
AcDbEntity
8
SK2
62
256
6
ByLayer
370
13
48
1
60
0
100
AcDbLine
10
-45
20
-24.343428
30
0
11
70.8
21
-24.343428
31
0
39
0
210
0
220
0
230
1
0
SOLID
5
196
100
AcDbEntity
8
SK2
62
256
6
ByLayer
370
18
48
1
60
0
100
AcDbTrace
10
-45
20
-24.343428
30
0
11
-41.500002
21
-23.882645
31
0
12
-41.499998
22
-24.804212
32
0
13
-41.499998
23
-24.804212
33
0
39
0
210
0
220
0
230
1
0
SOLID
5
197
100
AcDbEntity
8
SK2
62
256
6
ByLayer
370
18
48
1
60
0
100
AcDbTrace
10
70.8
20
-24.343428
30
0
11
67.300002
21
-24.804212
31
0
12
67.299998
22
-23.882645
32
0
13
67.299998
23
-23.882645
33
0
39
0
210
0
220
0
230
1
0
ENDBLK
5
199
100
AcDbEntity
8
0
100
AcDbBlockEnd
0
ENDSEC
0
SECTION
2
ENTITIES
0
ELLIPSE
5
B9
100
AcDbEntity
8
1
62
256
6
ByLayer
370
18
48
1
60
0
100
AcDbEllipse
10
73.001005
20
0.002621
30
0
11
2.1974918854741
21
6.00019008969245
31
0
210
0
220
0
230
1
40
0.073902
41
-2.92819986444569
42
-2.86199246644276
0
ELLIPSE
5
BA
100
AcDbEntity
8
1
62
256
6
ByLayer
370
18
48
1
60
0
100
AcDbEllipse
10
72.315477
20
-2.167351
30
0
11
0.292882377457235
21
0.799707144666649
31
0
210
0
220
0
230
1
40
0.073902
41
-1.3664163003834
42
-0.722612134927597
0
ELLIPSE
5
BB
100
AcDbEntity
8
1
62
256
6
ByLayer
370
18
48
1
60
0
100
AcDbEllipse
10
73.073805
20
0.148947
30
0
11
0.107158252056856
21
0.326150768858705
31
0
210
0
220
0
230
1
40
0.050974
41
2.17396022673869
42
2.34746929572117
0
ELLIPSE
5
BC
100
AcDbEntity
8
1
62
256
6
ByLayer
370
18
48
1
60
0
100
AcDbEllipse
10
72.888496
20
-0.012921
30
0
11
0.0325509180071798
21
0.216402729784227
31
0
210
0
220
0
230
1
40
0.489654
41
-1.31359403620572
42
-1.29080312449634
0
ELLIPSE
5
BD
100
AcDbEntity
8
1
62
256
6
ByLayer
370
18
48
1
60
0
100
AcDbEllipse
10
72.315477
20
2.167351
30
0
11
0.292882377415169
21
-0.799707144568781
31
0
210
0
220
0
230
1
40
0.073902
41
0.722612134936746
42
1.36641630045941
0
ELLIPSE
5
BE
100
AcDbEntity
8
1
62
256
6
ByLayer
370
18
48
1
60
0
100
AcDbEllipse
10
63.431471
20
2.167351
30
0
11
9.1439757160304
21
-0.596547346698858
31
0
210
0
220
0
230
1
40
0.058294
41
0.0204357880384449
42
0.288792718416242
0
ELLIPSE
5
BF
100
AcDbEntity
8
1
62
256
6
ByLayer
370
18
48
1
60
0
100
AcDbEllipse
10
73.001005
20
-0.002621
30
0
11
2.19749191883595
21
-6.00019018602478
31
0
210
0
220
0
230
1
40
0.073902
41
2.86199246868539
42
2.92819986614518
0
ELLIPSE
5
C0
100
AcDbEntity
8
1
62
256
6
ByLayer
370
13
48
1
60
0
100
AcDbEllipse
10
4.250274
20
-5.777024
30
0
11
-0.0016254460585171
21
0.099986788752869
31
0
210
0
220
0
230
1
40
0.485918
41
-0.0371998516790876
42
1.52120994460958
0
ELLIPSE
5
C1
100
AcDbEntity
8
1
62
256
6
ByLayer
370
18
48
1
60
0
100
AcDbEllipse
10
73.073805
20
-0.148947
30
0
11
0.107158243935859
21
-0.326150746840052
31
0
210
0
220
0
230
1
40
0.050974
41
-2.34746927587172
42
-2.17396019844293
0
ELLIPSE
5
C2
100
AcDbEntity
8
1
62
256
6
ByLayer
370
18
48
1
60
0
100
AcDbEllipse
10
72.9518
20
-0.059378
30
0
11
0.0685673025861221
21
0.197677258978167
31
0
210
0
220
0
230
1
40
0.089621
41
-2.14968638261782
42
-1.08935094113644
0
ELLIPSE
5
C3
100
AcDbEntity
8
1
62
256
6
ByLayer
370
13
48
1
60
0
100
AcDbEllipse
10
4.176898
20
-5.797212
30
0
11
-0.0496475233801371
21
0.0868050886885022
31
0
210
0
220
0
230
1
40
0.421442
41
0.175173872145977
42
1.29462898460132
0
ELLIPSE
5
C4
100
AcDbEntity
8
1
62
256
6
ByLayer
370
18
48
1
60
0
100
AcDbEllipse
10
4.25
20
-5.929904
30
0
11
0.25
21
0
31
0
210
0
220
0
230
1
40
0.999971
41
1.57337493546859
42
2.97740765051841
0
POINT
5
70
100
AcDbEntity
8
80
62
256
6
ByLayer
370
18
48
1
60
0
100
AcDbPoint
10
0
20
0
30
0
39
0
210
0
220
0
230
1
50
360
0
POINT
5
72
100
AcDbEntity
8
81
62
256
6
ByLayer
370
18
48
1
60
0
100
AcDbPoint
10
73
20
0
30
0
39
0
210
0
220
0
230
1
50
360
0
POINT
5
74
100
AcDbEntity
8
1
62
256
6
ByLayer
370
18
48
1
60
1
100
AcDbPoint
10
70.8
20
-6
30
0
39
0
210
0
220
0
230
1
50
360
0
POINT
5
76
100
AcDbEntity
8
1
62
256
6
ByLayer
370
18
48
1
60
1
100
AcDbPoint
10
-45
20
-6
30
0
39
0
210
0
220
0
230
1
50
360
0
POINT
5
77
100
AcDbEntity
8
1
62
256
6
ByLayer
370
18
48
1
60
1
100
AcDbPoint
10
18.6795
20
6
30
0
39
0
210
0
220
0
230
1
50
360
0
POINT
5
78
100
AcDbEntity
8
1
62
256
6
ByLayer
370
18
48
1
60
1
100
AcDbPoint
10
70.8
20
-6
30
0
39
0
210
0
220
0
230
1
50
360
0
POINT
5
79
100
AcDbEntity
8
1
62
256
6
ByLayer
370
18
48
1
60
1
100
AcDbPoint
10
-45
20
-6
30
0
39
0
210
0
220
0
230
1
50
360
0
POINT
5
7A
100
AcDbEntity
8
1
62
256
6
ByLayer
370
18
48
1
60
1
100
AcDbPoint
10
70.8
20
-6
30
0
39
0
210
0
220
0
230
1
50
360
0
SPLINE
5
C5
100
AcDbEntity
8
1
62
256
6
ByLayer
370
18
48
1
60
0
100
AcDbSpline
70
4
71
3
72
12
73
8
40
0
40
0
40
0
40
0
40
0.249999999999989
40
0.249999999999989
40
0.499999999999977
40
0.499999999999977
40
1
40
1
40
1
40
1
41
1
10
4.12620800993469
20
-5.91496106790885
30
0
41
1
10
4.10821326038936
20
-5.91535143107359
30
0
41
1
10
4.09184874182839
20
-5.91579783104058
30
0
41
1
10
4.06227155330549
20
-5.91672502843994
30
0
41
1
10
4.04908385732264
20
-5.91720705424746
30
0
41
1
10
4.01652806527304
20
-5.91851345152756
30
0
41
1
10
4.00340072853248
20
-5.91920896124719
30
0
41
1
10
4.00058411861042
20
-5.91946745809963
30
0
0
SPLINE
5
C6
100
AcDbEntity
8
1
62
256
6
ByLayer
370
13
48
1
60
0
100
AcDbSpline
70
4
71
3
72
30
73
26
40
0
40
0
40
0
40
0
40
0.0634705204597056
40
0.0634705204597056
40
0.130365483284012
40
0.130365483284012
40
0.197260446108319
40
0.197260446108319
40
0.331050371756933
40
0.331050371756933
40
0.397945334581239
40
0.397945334581239
40
0.464840297405546
40
0.464840297405546
40
0.598630223054159
40
0.598630223054159
40
0.665525185878466
40
0.665525185878466
40
0.732420148702773
40
0.732420148702773
40
0.79931511152708
40
0.79931511152708
40
0.866210074351386
40
0.866210074351386
40
1
40
1
40
1
40
1
41
1
10
4.2505353867202
20
-5.67320050249623
30
0
41
1
10
4.25055803050606
20
-5.66632341315935
30
0
41
1
10
4.25057974414696
20
-5.65430623436066
30
0
41
1
10
4.25062273628976
20
-5.61914618927679
30
0
41
1
10
4.25064397019875
20
-5.59534464797039
30
0
41
1
10
4.25068481187242
20
-5.53643660101284
30
0
41
1
10
4.25070430169245
20
-5.50153543578745
30
0
41
1
10
4.25076057203958
20
-5.38094429837159
30
0
41
1
10
4.25079516929117
20
-5.27945822128913
30
0
41
1
10
4.25084468050434
20
-5.09565705130194
30
0
41
1
10
4.25086078229856
20
-5.02910504544005
30
0
41
1
10
4.25089247066649
20
-4.88515271879419
30
0
41
1
10
4.25090800914799
20
-4.80791449152596
30
0
41
1
10
4.25095347538479
20
-4.56394277729623
30
0
41
1
10
4.25098253900305
20
-4.38388251630738
30
0
41
1
10
4.25102558200948
20
-4.08806284525579
30
0
41
1
10
4.25103983110799
20
-3.98514900560886
30
0
41
1
10
4.2510682804307
20
-3.77053818904599
30
0
41
1
10
4.25108252557018
20
-3.65846140468662
30
0
41
1
10
4.25111075556606
20
-3.42781527903938
30
0
41
1
10
4.25112475804269
20
-3.30914459914479
30
0
41
1
10
4.25115258758075
20
-3.06512826947278
30
0
41
1
10
4.25116645442392
20
-2.93940454340716
30
0
41
1
10
4.25120746004285
20
-2.55508633204886
30
0
41
1
10
4.25123396509562
20
-2.29014069478362
30
0
41
1
10
4.25125931694032
20
-2.01666666328103
30
0
0
SPLINE
5
C7
100
AcDbEntity
8
1
62
256
6
ByLayer
370
18
48
1
60
0
100
AcDbSpline
70
4
71
3
72
10
73
6
40
0
40
0
40
0
40
0
40
0.5
40
0.5
40
1
40
1
40
1
40
1
41
1
10
4.12816370983933
20
-5.70991917550262
30
0
41
1
10
4.14702674328564
20
-5.69923875001689
30
0
41
1
10
4.16721148936531
20
-5.69105221382085
30
0
41
1
10
4.20820962196399
20
-5.68012260028001
30
0
41
1
10
4.22912453102472
20
-5.67726570754527
30
0
41
1
10
4.25045649883336
20
-5.67707721623023
30
0
0
SPLINE
5
C8
100
AcDbEntity
8
1
62
256
6
ByLayer
370
18
48
1
60
0
100
AcDbSpline
70
4
71
3
72
30
73
26
40
0
40
0
40
0
40
0
40
0.0624999999999998
40
0.0624999999999998
40
0.125
40
0.125
40
0.1875
40
0.1875
40
0.249999999999999
40
0.249999999999999
40
0.312499999999999
40
0.312499999999999
40
0.374999999999999
40
0.374999999999999
40
0.499999999999999
40
0.499999999999999
40
0.624999999999999
40
0.624999999999999
40
0.75
40
0.75
40
0.8125
40
0.8125
40
0.875
40
0.875
40
1
40
1
40
1
40
1
41
1
10
72.1516315841429
20
-2.30210951635533
30
0
41
1
10
72.152326173012
20
-2.3109527786149
30
0
41
1
10
72.1515286168622
20
-2.32357253415802
30
0
41
1
10
72.1469100161433
20
-2.3564642396029
30
0
41
1
10
72.1430321741438
20
-2.37698418172749
30
0
41
1
10
72.1322290862013
20
-2.42521649743514
30
0
41
1
10
72.1253857036703
20
-2.45263305733403
30
0
41
1
10
72.1088468699427
20
-2.51399462873545
30
0
41
1
10
72.099023824214
20
-2.54834668471679
30
0
41
1
10
72.0772362098858
20
-2.62104956842435
30
0
41
1
10
72.0652471844729
20
-2.65953214853653
30
0
41
1
10
72.0391497249646
20
-2.74062137529481
30
0
41
1
10
72.0250562503175
20
-2.7831528593932
30
0
41
1
10
71.9812954550534
20
-2.9119509670054
30
0
41
1
10
71.9492038527936
20
-3.00218855690255
30
0
41
1
10
71.8842224194782
20
-3.17814599601311
30
0
41
1
10
71.8506379047368
20
-3.26576441613003
30
0
41
1
10
71.7855900019273
20
-3.42966753985371
30
0
41
1
10
71.7533479439442
20
-3.50792319891113
30
0
41
1
10
71.7081463347024
20
-3.61334122414635
30
0
41
1
10
71.6935589248237
20
-3.64661328863855
30
0
41
1
10
71.665344130607
20
-3.70942115406899
30
0
41
1
10
71.6516273192279
20
-3.73914037970584
30
0
41
1
10
71.6128772454817
20
-3.82052627028915
30
0
41
1
10
71.590080392981
20
-3.86490008440083
30
0
41
1
10
71.5705973395512
20
-3.89848798330152
30
0
0
SPLINE
5
C9
100
AcDbEntity
8
1
62
256
6
ByLayer
370
18
48
1
60
0
100
AcDbSpline
70
4
71
3
72
104
73
100
40
0
40
0
40
0
40
0
40
0.0030046366396052
40
0.0030046366396052
40
0.0235841364768616
40
0.0235841364768616
40
0.0441636363141179
40
0.0441636363141179
40
0.0647431361513742
40
0.0647431361513742
40
0.0853226359886306
40
0.0853226359886306
40
0.105902135825887
40
0.105902135825887
40
0.126481635663143
40
0.126481635663143
40
0.1470611355004
40
0.1470611355004
40
0.167640635337656
40
0.167640635337656
40
0.188220135174912
40
0.188220135174912
40
0.208799635012169
40
0.208799635012169
40
0.229379134849425
40
0.229379134849425
40
0.249958634686681
40
0.249958634686681
40
0.270538134523938
40
0.270538134523938
40
0.291117634361194
40
0.291117634361194
40
0.31169713419845
40
0.31169713419845
40
0.332276634035707
40
0.332276634035707
40
0.352856133872963
40
0.352856133872963
40
0.373435633710219
40
0.373435633710219
40
0.414594633384731
40
0.414594633384731
40
0.435174133221988
40
0.435174133221988
40
0.455753633059244
40
0.455753633059244
40
0.4763331328965
40
0.4763331328965
40
0.496912632733757
40
0.496912632733757
40
0.517492132571013
40
0.517492132571013
40
0.538071632408269
40
0.538071632408269
40
0.558651132245525
40
0.558651132245525
40
0.579230632082782
40
0.579230632082782
40
0.599810131920038
40
0.599810131920038
40
0.620389631757295
40
0.620389631757295
40
0.640969131594551
40
0.640969131594551
40
0.661548631431807
40
0.661548631431807
40
0.682128131269064
40
0.682128131269064
40
0.70270763110632
40
0.70270763110632
40
0.723287130943576
40
0.723287130943576
40
0.743866630780833
40
0.743866630780833
40
0.764446130618089
40
0.764446130618089
40
0.785025630455345
40
0.785025630455345
40
0.805605130292602
40
0.805605130292602
40
0.826184630129858
40
0.826184630129858
40
0.846764129967114
40
0.846764129967114
40
0.867343629804371
40
0.867343629804371
40
0.887923129641627
40
0.887923129641627
40
0.908502629478883
40
0.908502629478883
40
0.92908212931614
40
0.92908212931614
40
0.949661629153396
40
0.949661629153396
40
0.970241128990653
40
0.970241128990653
40
0.990820628827909
40
0.990820628827909
40
1
40
1
40
1
40
1
41
1
10
58.147375725078
20
-3.33877391520141
30
0
41
1
10
58.1050320451361
20
-3.35785672656468
30
0
41
1
10
58.0626919685413
20
-3.37684425495976
30
0
41
1
10
57.7303639940284
20
-3.5251009896084
30
0
41
1
10
57.4405572952989
20
-3.65005392169852
30
0
41
1
10
56.8611589877842
20
-3.89006354509493
30
0
41
1
10
56.5715741315697
20
-4.00520055832914
30
0
41
1
10
55.9924743673352
20
-4.22816801885503
30
0
41
1
10
55.7026594684205
20
-4.33510959455973
30
0
41
1
10
55.1219512744001
20
-4.53812607513609
30
0
41
1
10
54.8310705733957
20
-4.63396526895474
30
0
41
1
10
54.2483257823931
20
-4.81603231958914
30
0
41
1
10
53.9566707662724
20
-4.90241474052991
30
0
41
1
10
53.3712512631511
20
-5.06302354789276
30
0
41
1
10
53.0772141383716
20
-5.13719945403483
30
0
41
1
10
52.490788397195
20
-5.27193807948424
30
0
41
1
10
52.1978710615499
20
-5.33310525644623
30
0
41
1
10
51.6127777680253
20
-5.44372462469008
30
0
41
1
10
51.3204494855993
20
-5.4928838369708
30
0
41
1
10
50.7350461192259
20
-5.57680003470151
30
0
41
1
10
50.4420703400119
20
-5.61167833819241
30
0
41
1
10
49.8555380674636
20
-5.66930642488984
30
0
41
1
10
49.5618272096011
20
-5.69195565768067
30
0
41
1
10
48.9756703447128
20
-5.72294016043736
30
0
41
1
10
48.6828234198146
20
-5.73089942327744
30
0
41
1
10
48.0972361637011
20
-5.73341225209617
30
0
41
1
10
47.8044942690444
20
-5.7282875100174
30
0
41
1
10
47.2192117709164
20
-5.70462218916069
30
0
41
1
10
46.926763952454
20
-5.68574152327656
30
0
41
1
10
46.3405373444892
20
-5.63340962459841
30
0
41
1
10
46.0464424400262
20
-5.60108724130961
30
0
41
1
10
45.4602589803134
20
-5.52389437192178
30
0
41
1
10
45.1681431441991
20
-5.47871225766698
30
0
41
1
10
44.5857419424884
20
-5.37444381374002
30
0
41
1
10
44.2951093428878
20
-5.31553153445225
30
0
41
1
10
43.7141797175574
20
-5.18778930905992
30
0
41
1
10
43.4240223386532
20
-5.11817938639155
30
0
41
1
10
42.8443290141919
20
-4.96637773312432
30
0
41
1
10
42.5549832039797
20
-4.88376054844855
30
0
41
1
10
41.6861533859488
20
-4.62049077618053
30
0
41
1
10
41.1058871436
20
-4.42550117180448
30
0
41
1
10
40.2334789322103
20
-4.09757330536527
30
0
41
1
10
39.9422648575544
20
-3.98329514478951
30
0
41
1
10
39.3578974968363
20
-3.74618137132813
30
0
41
1
10
39.0644711366959
20
-3.62261766390702
30
0
41
1
10
38.4771168863243
20
-3.36608719336223
30
0
41
1
10
38.1841139653403
20
-3.23329445646971
30
0
41
1
10
37.5985294075226
20
-2.96160130803645
30
0
41
1
10
37.3057550168502
20
-2.82270385510262
30
0
41
1
10
36.720068624304
20
-2.53800007407366
30
0
41
1
10
36.4271267275823
20
-2.39224819998114
30
0
41
1
10
35.8410463595689
20
-2.0950436206318
30
0
41
1
10
35.547981753648
20
-1.94354874609712
30
0
41
1
10
34.9605794231653
20
-1.63656908465981
30
0
41
1
10
34.6672725640776
20
-1.48127366079598
30
0
41
1
10
34.0811795413227
20
-1.16762496152975
30
0
41
1
10
33.7883729750025
20
-1.00949519084296
30
0
41
1
10
33.2032383385892
20
-0.690446115310948
30
0
41
1
10
32.9105850481783
20
-0.530090220631621
30
0
41
1
10
32.3244491811201
20
-0.20863988783961
30
0
41
1
10
32.0310158801302
20
-0.0475842223439145
30
0
41
1
10
31.4434770099196
20
0.275102343465704
30
0
41
1
10
31.1506995387616
20
0.436540891928132
30
0
41
1
10
30.5667800599617
20
0.756114682830656
30
0
41
1
10
30.2755058217671
20
0.914183325773678
30
0
41
1
10
29.6935805204705
20
1.22762980676151
30
0
41
1
10
29.4030258886936
20
1.38292117845145
30
0
41
1
10
28.823054570335
20
1.69049671244426
30
0
41
1
10
28.5335034395926
20
1.84219992246224
30
0
41
1
10
27.9539128187474
20
2.1398757116317
30
0
41
1
10
27.663989106286
20
2.28637912994844
30
0
41
1
10
27.0839211367686
20
2.57434305870382
30
0
41
1
10
26.7939100056217
20
2.71606279636245
30
0
41
1
10
26.2130540437215
20
2.99229899533472
30
0
41
1
10
25.9219644664634
20
3.12678771125618
30
0
41
1
10
25.3384284845077
20
3.38920703416389
30
0
41
1
10
25.045977086978
20
3.5169975060758
30
0
41
1
10
24.4595134461
20
3.7646703765663
30
0
41
1
10
24.1657104427816
20
3.88417983498349
30
0
41
1
10
23.5791101256222
20
4.11318536322406
30
0
41
1
10
23.2859268630493
20
4.2229800784566
30
0
41
1
10
22.6997992793143
20
4.43250080593444
30
0
41
1
10
22.4069020561369
20
4.53178209268819
30
0
41
1
10
21.8212049091419
20
4.71852483608063
30
0
41
1
10
21.5280760889745
20
4.80686570665569
30
0
41
1
10
20.9407708642479
20
4.97247659577664
30
0
41
1
10
20.6464397721161
20
5.0499060797481
30
0
41
1
10
20.0609312607661
20
5.18987814262408
30
0
41
1
10
19.7693591452995
20
5.25326324853006
30
0
41
1
10
19.1868166771716
20
5.36882271140777
30
0
41
1
10
18.895918221054
20
5.4205493862481
30
0
41
1
10
18.3148637683511
20
5.51046226476288
30
0
41
1
10
18.0247096991427
20
5.54802841344016
30
0
41
1
10
17.4450743602311
20
5.61120446860838
30
0
41
1
10
17.1554710920968
20
5.63672354551406
30
0
41
1
10
16.5755693716829
20
5.6739565912286
30
0
41
1
10
16.2853739973963
20
5.68564197475354
30
0
41
1
10
15.8653245977669
20
5.69324271077903
30
0
41
1
10
15.7357305452876
20
5.69431742876222
30
0
41
1
10
15.6060703451774
20
5.69409223199759
30
0
0
SPLINE
5
CA
100
AcDbEntity
8
1
62
256
6
ByLayer
370
18
48
1
60
0
100
AcDbSpline
70
4
71
3
72
14
73
10
40
0
40
0
40
0
40
0
40
0.0457208749452557
40
0.0457208749452557
40
0.213197014887683
40
0.213197014887683
40
0.380673154830109
40
0.380673154830109
40
1
40
1
40
1
40
1
41
1
10
69.2074124273091
20
-5.75792513517655
30
0
41
1
10
69.1119268839444
20
-5.75777606546816
30
0
41
1
10
69.016416754819
20
-5.75689748329748
30
0
41
1
10
68.5709019609164
20
-5.74939803575717
30
0
41
1
10
68.2215595343978
20
-5.73371413602348
30
0
41
1
10
67.5256883123702
20
-5.6833448546723
30
0
41
1
10
67.1787758493586
20
-5.64865044245494
30
0
41
1
10
65.5521678751909
20
-5.44233093420948
30
0
41
1
10
64.2803360768896
20
-5.1533934345521
30
0
41
1
10
62.9970921191467
20
-4.75231908690671
30
0
0
SPLINE
5
CB
100
AcDbEntity
8
1
62
256
6
ByLayer
370
13
48
1
60
0
100
AcDbSpline
70
4
71
3
72
24
73
20
40
0
40
0
40
0
40
0
40
0.0215007508803145
40
0.0215007508803145
40
0.0926954023525191
40
0.0926954023525191
40
0.163890053824723
40
0.163890053824723
40
0.306279356769133
40
0.306279356769133
40
0.591057962657953
40
0.591057962657953
40
0.662252614130158
40
0.662252614130158
40
0.733447265602364
40
0.733447265602364
40
0.875836568546774
40
0.875836568546774
40
1
40
1
40
1
40
1
41
1
10
62.9970921191559
20
-4.75231908690958
30
0
41
1
10
62.8922951978458
20
-4.71956509917712
30
0
41
1
10
62.7874221657118
20
-4.68606324002451
30
0
41
1
10
62.3349119018371
20
-4.53843743439344
30
0
41
1
10
61.9864154569145
20
-4.41691367838962
30
0
41
1
10
61.2866025512341
20
-4.15837525628785
30
0
41
1
10
60.9370374413699
20
-4.02203160947747
30
0
41
1
10
59.8929760480645
20
-3.59523037230025
30
0
41
1
10
59.2011201683026
20
-3.28628864373647
30
0
41
1
10
57.1280220356238
20
-2.30276794467955
30
0
41
1
10
55.7496713517037
20
-1.57052431016086
30
0
41
1
10
53.9992770322018
20
-0.612797725227239
30
0
41
1
10
53.6497877290413
20
-0.420240427321943
30
0
41
1
10
52.9535601352121
20
-0.036129842183044
30
0
41
1
10
52.6064275431369
20
0.155629003170731
30
0
41
1
10
51.5671042929099
20
0.72857373251702
30
0
41
1
10
50.8764118188342
20
1.10625845904127
30
0
41
1
10
49.5825080616075
20
1.79627875413888
30
0
41
1
10
48.9790867477782
20
2.11017398478728
30
0
41
1
10
48.3730562475153
20
2.4131462516103
30
0
0
SPLINE
5
CC
100
AcDbEntity
8
1
62
256
6
ByLayer
370
18
48
1
60
0
100
AcDbSpline
70
4
71
3
72
8
73
4
40
0
40
0
40
0
40
0
40
1
40
1
40
1
40
1
41
1
10
4.30204274897949
20
-5.67618393032836
30
0
41
1
10
4.28484815321809
20
-5.67650530348871
30
0
41
1
10
4.26765275108986
20
-5.6768030715607
30
0
41
1
10
4.25045649883336
20
-5.67707721623023
30
0
0
SPLINE
5
CD
100
AcDbEntity
8
1
62
256
6
ByLayer
370
18
48
1
60
0
100
AcDbSpline
70
4
71
3
72
52
73
48
40
0
40
0
40
0
40
0
40
0.0624999999999946
40
0.0624999999999946
40
0.0937499999999927
40
0.0937499999999927
40
0.124999999999991
40
0.124999999999991
40
0.156249999999989
40
0.156249999999989
40
0.187499999999987
40
0.187499999999987
40
0.218749999999986
40
0.218749999999986
40
0.234374999999985
40
0.234374999999985
40
0.249999999999984
40
0.249999999999984
40
0.265624999999983
40
0.265624999999983
40
0.281249999999982
40
0.281249999999982
40
0.31249999999998
40
0.31249999999998
40
0.343749999999978
40
0.343749999999978
40
0.374999999999977
40
0.374999999999977
40
0.390624999999976
40
0.390624999999976
40
0.406249999999975
40
0.406249999999975
40
0.437499999999976
40
0.437499999999976
40
0.49999999999998
40
0.49999999999998
40
0.562499999999983
40
0.562499999999983
40
0.624999999999986
40
0.624999999999986
40
0.749999999999992
40
0.749999999999992
40
0.812499999999995
40
0.812499999999995
40
0.874999999999998
40
0.874999999999998
40
1
40
1
40
1
40
1
41
1
10
70.7134078777389
20
1.45398686123866
30
0
41
1
10
70.7682287262025
20
1.28477584939759
30
0
41
1
10
70.8282366138073
20
1.11675330537008
30
0
41
1
10
70.9267535163233
20
0.868416511403183
30
0
41
1
10
70.960903589641
20
0.786324654117749
30
0
41
1
10
71.0315086398813
20
0.623348805006543
30
0
41
1
10
71.0691107362108
20
0.543111805358564
30
0
41
1
10
71.1364122449046
20
0.37834643795307
30
0
41
1
10
71.1667303081773
20
0.294552366198815
30
0
41
1
10
71.2183703490643
20
0.124222868009951
30
0
41
1
10
71.2398375083279
20
0.0368904535323225
30
0
41
1
10
71.270716546563
20
-0.137889413431282
30
0
41
1
10
71.280155120167
20
-0.225085410454568
30
0
41
1
10
71.2833277550318
20
-0.35552438931208
30
0
41
1
10
71.2825137950445
20
-0.399225539099689
30
0
41
1
10
71.2767674965287
20
-0.484659245522352
30
0
41
1
10
71.2718731885913
20
-0.52645435478135
30
0
41
1
10
71.257740059064
20
-0.608063269591753
30
0
41
1
10
71.2484532844642
20
-0.647855206302637
30
0
41
1
10
71.2251399505002
20
-0.725277513694806
30
0
41
1
10
71.2111610263535
20
-0.762655317954511
30
0
41
1
10
71.1639921654249
20
-0.868775970640655
30
0
41
1
10
71.1251792367191
20
-0.933037789516987
30
0
41
1
10
71.0366187227133
20
-1.04895351307991
30
0
41
1
10
70.9878357012136
20
-1.09949078397619
30
0
41
1
10
70.8831909435344
20
-1.18889954896193
30
0
41
1
10
70.8271457961548
20
-1.2278609711091
30
0
41
1
10
70.738901135991
20
-1.2780424832186
30
0
41
1
10
70.7086898947734
20
-1.29289843747728
30
0
41
1
10
70.6480175208459
20
-1.32188386759364
30
0
41
1
10
70.6175082373921
20
-1.33591483049366
30
0
41
1
10
70.5254805166581
20
-1.37662947190657
30
0
41
1
10
70.4634154921829
20
-1.40194483583099
30
0
41
1
10
70.2757556397924
20
-1.47230462291827
30
0
41
1
10
70.1485843936743
20
-1.51186214992299
30
0
41
1
10
69.8903102567056
20
-1.57698293937099
30
0
41
1
10
69.7587951962068
20
-1.60261739800779
30
0
41
1
10
69.4942830656927
20
-1.64033255100307
30
0
41
1
10
69.3614588618311
20
-1.65244858411313
30
0
41
1
10
68.9614383394232
20
-1.67042914444949
30
0
41
1
10
68.6927058489154
20
-1.65806542623665
30
0
41
1
10
68.2870007357432
20
-1.60859252545262
30
0
41
1
10
68.1513293870533
20
-1.58692428438209
30
0
41
1
10
67.8791813510543
20
-1.53403163901223
30
0
41
1
10
67.7424953580519
20
-1.50274886321247
30
0
41
1
10
67.3328441084405
20
-1.39609630954953
30
0
41
1
10
67.0612561148832
20
-1.30807707553805
30
0
41
1
10
66.7907388950746
20
-1.20808376992255
30
0
0
SPLINE
5
CE
100
AcDbEntity
8
1
62
256
6
ByLayer
370
18
48
1
60
0
100
AcDbSpline
70
4
71
3
72
18
73
14
40
0
40
0
40
0
40
0
40
0.110764861079751
40
0.110764861079751
40
0.360234641737525
40
0.360234641737525
40
0.609704422395297
40
0.609704422395297
40
0.859174203053071
40
0.859174203053071
40
0.983909093381955
40
0.983909093381955
40
1
40
1
40
1
40
1
41
1
10
19.9889157152202
20
0.0249274234403174
30
0
41
1
10
20.2987307297262
20
-0.147878186574587
30
0
41
1
10
20.6093803577976
20
-0.321190531058306
30
0
41
1
10
21.6233546644709
20
-0.884805236346409
30
0
41
1
10
22.3200844831275
20
-1.26907416174697
30
0
41
1
10
23.7083545477396
20
-2.01289436720739
30
0
41
1
10
24.4000550864407
20
-2.37269408054615
30
0
41
1
10
25.7851744328651
20
-3.05711588599104
30
0
41
1
10
26.4785175042318
20
-3.38179510143723
30
0
41
1
10
27.5246522823544
20
-3.83447681888507
30
0
41
1
10
27.8747671731022
20
-3.97976546751767
30
0
41
1
10
28.2708351361749
20
-4.13612915372093
30
0
41
1
10
28.3160663913168
20
-4.15386988272775
30
0
41
1
10
28.3612746810034
20
-4.17148427817239
30
0
0
SPLINE
5
CF
100
AcDbEntity
8
1
62
256
6
ByLayer
370
13
48
1
60
0
100
AcDbSpline
70
4
71
3
72
18
73
14
40
0
40
0
40
0
40
0
40
0.093928591980418
40
0.093928591980418
40
0.52528835252582
40
0.52528835252582
40
0.633128292662169
40
0.633128292662169
40
0.740968232798518
40
0.740968232798518
40
0.956648113071214
40
0.956648113071214
40
1
40
1
40
1
40
1
41
1
10
28.3612737493577
20
-4.17148391517753
30
0
41
1
10
28.6665153268633
20
-4.29041445605571
30
0
41
1
10
28.9707099532646
20
-4.40358569374669
30
0
41
1
10
30.6676401604322
20
-5.00293581615526
30
0
41
1
10
32.0456455578069
20
-5.36802666273087
30
0
41
1
10
33.7809496429137
20
-5.63972059306082
30
0
41
1
10
34.128654859443
20
-5.68483414687324
30
0
41
1
10
34.826229694254
20
-5.75601987976069
30
0
41
1
10
35.1765555133054
20
-5.78209282265374
30
0
41
1
10
36.2287689502204
20
-5.83046677721333
30
0
41
1
10
36.9289842447959
20
-5.82298561660997
30
0
41
1
10
37.771504211643
20
-5.76643630338455
30
0
41
1
10
37.9124419062459
20
-5.7553812634396
30
0
41
1
10
38.0533395926669
20
-5.74274572689205
30
0
0
SPLINE
5
D0
100
AcDbEntity
8
1
62
256
6
ByLayer
370
18
48
1
60
0
100
AcDbSpline
70
4
71
3
72
8
73
4
40
0
40
0
40
0
40
0
40
1
40
1
40
1
40
1
41
1
10
4.00058411861028
20
5.91946745810108
30
0
41
1
10
4.00034164623182
20
5.91948971121684
30
0
41
1
10
4.00021989708785
20
5.9195089874606
30
0
41
1
10
4.00021992489516
20
5.91952519788512
30
0
0
SPLINE
5
D1
100
AcDbEntity
8
1
62
256
6
ByLayer
370
18
48
1
60
0
100
AcDbSpline
70
4
71
3
72
14
73
10
40
0
40
0
40
0
40
0
40
0.25
40
0.25
40
0.5
40
0.5
40
0.75
40
0.75
40
1
40
1
40
1
40
1
41
1
10
70.8274916484757
20
1.66103797054885
30
0
41
1
10
70.803926932433
20
1.66002074688754
30
0
41
1
10
70.7804459446969
20
1.65480448592007
30
0
41
1
10
70.7398389427162
20
1.63241958551734
30
0
41
1
10
70.7229137697224
20
1.61464276994229
30
0
41
1
10
70.7028226774817
20
1.5716979320525
30
0
41
1
10
70.6994230952907
20
1.54759572642254
30
0
41
1
10
70.7010868163365
20
1.50034439123704
30
0
41
1
10
70.7060394811232
20
1.47673028608389
30
0
41
1
10
70.7134078777389
20
1.45398686123866
30
0
0
SPLINE
5
D2
100
AcDbEntity
8
1
62
256
6
ByLayer
370
18
48
1
60
0
100
AcDbSpline
70
4
71
3
72
14
73
10
40
0
40
0
40
0
40
0
40
0.191066492249586
40
0.191066492249586
40
0.339304085530962
40
0.339304085530962
40
0.487541678812338
40
0.487541678812338
40
1
40
1
40
1
40
1
41
1
10
36.9164050732826
20
-5.71585361940038
30
0
41
1
10
36.4649855452791
20
-5.72372965436927
30
0
41
1
10
36.013728950058
20
-5.71542881813505
30
0
41
1
10
35.2114372505229
20
-5.67195203295861
30
0
41
1
10
34.861396881468
20
-5.64320929767791
30
0
41
1
10
34.1642218080981
20
-5.56712401095038
30
0
41
1
10
33.8166846684224
20
-5.51977500558263
30
0
41
1
10
32.2705091076719
20
-5.26853853619562
30
0
41
1
10
31.0785798082722
20
-4.96585550338793
30
0
41
1
10
29.8779137738903
20
-4.56892519965044
30
0
0
SPLINE
5
D3
100
AcDbEntity
8
1
62
256
6
ByLayer
370
13
48
1
60
0
100
AcDbSpline
70
4
71
3
72
22
73
18
40
0
40
0
40
0
40
0
40
0.0391093150081636
40
0.0391093150081636
40
0.111134696296001
40
0.111134696296001
40
0.183160077583838
40
0.183160077583838
40
0.327210840159511
40
0.327210840159511
40
0.471261602735185
40
0.471261602735185
40
0.615312365310859
40
0.615312365310859
40
0.903413890462208
40
0.903413890462208
40
1
40
1
40
1
40
1
41
1
10
29.8779137739128
20
-4.56892519965783
30
0
41
1
10
29.6893246364015
20
-4.50657918378815
30
0
41
1
10
29.5005199538367
20
-4.44190798201188
30
0
41
1
10
28.9632150176953
20
-4.25167759962702
30
0
41
1
10
28.6140009202691
20
-4.12073232296052
30
0
41
1
10
27.9127674053801
20
-3.84427050227924
30
0
41
1
10
27.5629393652953
20
-3.69951760694053
30
0
41
1
10
26.5174013911833
20
-3.24900809675842
30
0
41
1
10
25.8242996655721
20
-2.92668302035648
30
0
41
1
10
24.4396487253564
20
-2.24855956778381
30
0
41
1
10
23.7481141605855
20
-1.89279911696809
30
0
41
1
10
22.3603412382915
20
-1.15857462617993
30
0
41
1
10
21.6638055113876
20
-0.779947560970385
30
0
41
1
10
19.5587827763736
20
0.371576604894415
30
0
41
1
10
18.1775731113408
20
1.13729566650295
30
0
41
1
10
16.3283033558497
20
2.09482820510888
30
0
41
1
10
15.863593723244
20
2.32981873280639
30
0
41
1
10
15.3975253856919
20
2.55768848867609
30
0
0
SPLINE
5
D4
100
AcDbEntity
8
1
62
256
6
ByLayer
370
18
48
1
60
0
100
AcDbSpline
70
4
71
3
72
28
73
24
40
0
40
0
40
0
40
0
40
0.0625000000000001
40
0.0625000000000001
40
0.125
40
0.125
40
0.25
40
0.25
40
0.3125
40
0.3125
40
0.375
40
0.375
40
0.5
40
0.5
40
0.5625
40
0.5625
40
0.625
40
0.625
40
0.75
40
0.75
40
0.875
40
0.875
40
1
40
1
40
1
40
1
41
1
10
4.00021992489522
20
-5.91952519788512
30
0
41
1
10
4.00022110338179
20
-5.92021220322866
30
0
41
1
10
4.00022224189343
20
-5.91512548420062
30
0
41
1
10
4.00022442459706
20
-5.89366149588761
30
0
41
1
10
4.00022547050224
20
-5.87731584520611
30
0
41
1
10
4.00022849325345
20
-5.81181317844897
30
0
41
1
10
4.00023035534412
20
-5.7462821183284
30
0
41
1
10
4.00023299761909
20
-5.61497970996103
30
0
41
1
10
4.00023385316297
20
-5.56568852401023
30
0
41
1
10
4.00023552646795
20
-5.45573137963382
30
0
41
1
10
4.00023633518211
20
-5.39565044092387
30
0
41
1
10
4.00023869244171
20
-5.20107493771474
30
0
41
1
10
4.00024017634772
20
-5.05210037797616
30
0
41
1
10
4.00024234517696
20
-4.80002103009602
30
0
41
1
10
4.00024305841023
20
-4.71120490832791
30
0
41
1
10
4.00024447564266
20
-4.5237895704457
30
0
41
1
10
4.00024518192785
20
-4.42482208588746
30
0
41
1
10
4.00024726651282
20
-4.11783956549417
30
0
41
1
10
4.00024862108825
20
-3.8987129979254
30
0
41
1
10
4.00025130817596
20
-3.43223730544972
30
0
41
1
10
4.00025264183668
20
-3.18466811923128
30
0
41
1
10
4.00025529302394
20
-2.66095904127943
30
0
41
1
10
4.00025657858308
20
-2.39115745349312
30
0
41
1
10
4.00025781216553
20
-2.11373004709497
30
0
0
SPLINE
5
D5
100
AcDbEntity
8
1
62
256
6
ByLayer
370
18
48
1
60
0
100
AcDbSpline
70
4
71
3
72
20
73
16
40
0
40
0
40
0
40
0
40
0.249999999999998
40
0.249999999999998
40
0.374999999999999
40
0.374999999999999
40
0.499999999999999
40
0.499999999999999
40
0.624999999999999
40
0.624999999999999
40
0.749999999999999
40
0.749999999999999
40
0.875
40
0.875
40
1
40
1
40
1
40
1
41
1
10
10.724861798431
20
-5.06989697848016
30
0
41
1
10
10.1631393824796
20
-4.93085808238371
30
0
41
1
10
9.60738966771612
20
-4.76550006206443
30
0
41
1
10
8.77976527095296
20
-4.47864690112886
30
0
41
1
10
8.50492837920655
20
-4.37620266825721
30
0
41
1
10
7.95710215585552
20
-4.15624715466549
30
0
41
1
10
7.6840674446307
20
-4.03951559174109
30
0
41
1
10
7.1396424615892
20
-3.7921208177188
30
0
41
1
10
6.86827360388219
20
-3.66102044378027
30
0
41
1
10
6.32739128262065
20
-3.38186947204386
30
0
41
1
10
6.05705449162195
20
-3.23336484246022
30
0
41
1
10
5.52503743351363
20
-2.91972671382973
30
0
41
1
10
5.26292689103906
20
-2.75444735226188
30
0
41
1
10
4.74868004818836
20
-2.40293045414282
30
0
41
1
10
4.49648754307717
20
-2.21679778094804
30
0
41
1
10
4.25125931947179
20
-2.01666666529937
30
0
0
SPLINE
5
D6
100
AcDbEntity
8
1
62
256
6
ByLayer
370
18
48
1
60
0
100
AcDbSpline
70
4
71
3
72
30
73
26
40
0
40
0
40
0
40
0
40
0.113713448483621
40
0.113713448483621
40
0.170570172725431
40
0.170570172725431
40
0.22742689696724
40
0.22742689696724
40
0.341140345450862
40
0.341140345450862
40
0.454853793934483
40
0.454853793934483
40
0.511710518176293
40
0.511710518176293
40
0.568567242418104
40
0.568567242418104
40
0.682280690901725
40
0.682280690901725
40
0.795994139385346
40
0.795994139385346
40
0.852850863627158
40
0.852850863627158
40
0.90970758786897
40
0.90970758786897
40
1
40
1
40
1
40
1
41
1
10
22.2972084891393
20
-1.65811413338352
30
0
41
1
10
22.8091765344373
20
-1.94164175791843
30
0
41
1
10
23.3201989935966
20
-2.21349449399315
30
0
41
1
10
24.0829552314957
20
-2.60891392946769
30
0
41
1
10
24.3364790233435
20
-2.73878244075269
30
0
41
1
10
24.8424146075391
20
-2.99400559448691
30
0
41
1
10
25.0954549910296
20
-3.11837453437727
30
0
41
1
10
25.8550036043048
20
-3.48167601181729
30
0
41
1
10
26.3613351626669
20
-3.7117991836827
30
0
41
1
10
27.3724814365794
20
-4.14930881729157
30
0
41
1
10
27.8806048885914
20
-4.35225382143361
30
0
41
1
10
28.6453020708486
20
-4.63467397630936
30
0
41
1
10
28.9004938895801
20
-4.72527079713029
30
0
41
1
10
29.4117043045991
20
-4.89885824718519
30
0
41
1
10
29.6682018414721
20
-4.9810857855197
30
0
41
1
10
30.4349894413034
20
-5.21220467390123
30
0
41
1
10
30.9439807667469
20
-5.34707275173145
30
0
41
1
10
31.9560810892523
20
-5.57963738916206
30
0
41
1
10
32.4624922756193
20
-5.67498688671625
30
0
41
1
10
33.2213899831416
20
-5.78822769902385
30
0
41
1
10
33.4741158971123
20
-5.82102542955531
30
0
41
1
10
33.9792140566066
20
-5.8764271004828
30
0
41
1
10
34.2322043322146
20
-5.89881773755602
30
0
41
1
10
34.8886118039459
20
-5.94308823385558
30
0
41
1
10
35.2925422461219
20
-5.95714609097405
30
0
41
1
10
35.6972113077712
20
-5.9576393885817
30
0
0
SPLINE
5
D7
100
AcDbEntity
8
1
62
256
6
ByLayer
370
18
48
1
60
0
100
AcDbSpline
70
4
71
3
72
36
73
32
40
0
40
0
40
0
40
0
40
0.0520765536420058
40
0.0520765536420058
40
0.11132176903938
40
0.11132176903938
40
0.170566984436754
40
0.170566984436754
40
0.229812199834128
40
0.229812199834128
40
0.289057415231502
40
0.289057415231502
40
0.407547846026249
40
0.407547846026249
40
0.466793061423624
40
0.466793061423624
40
0.526038276820999
40
0.526038276820999
40
0.585283492218374
40
0.585283492218374
40
0.64452870761575
40
0.64452870761575
40
0.7630191384105
40
0.7630191384105
40
0.822264353807874
40
0.822264353807874
40
0.88150956920525
40
0.88150956920525
40
0.940754784602625
40
0.940754784602625
40
1
40
1
40
1
40
1
41
1
10
58.1911147743767
20
3.33475259017601
30
0
41
1
10
58.4158222151311
20
3.44194026095923
30
0
41
1
10
58.6398379312347
20
3.54676840922926
30
0
41
1
10
59.1170385584818
20
3.76605272937763
30
0
41
1
10
59.370478565801
20
3.87912178244176
30
0
41
1
10
59.8774674259616
20
4.09663312656608
30
0
41
1
10
60.1307688073534
20
4.20143250994138
30
0
41
1
10
60.6366573513719
20
4.40362578521135
30
0
41
1
10
60.8892378180391
20
4.50102730047314
30
0
41
1
10
61.3933670307217
20
4.68865199203157
30
0
41
1
10
61.645365427856
20
4.77833773984588
30
0
41
1
10
62.4030836666678
20
5.03314181045596
30
0
41
1
10
62.9094523830551
20
5.18536271306044
30
0
41
1
10
63.6688660013126
20
5.38829482460946
30
0
41
1
10
63.9223854721203
20
5.45130393475981
30
0
41
1
10
64.4316217521554
20
5.56697899031121
30
0
41
1
10
64.6870518384647
20
5.61988393148678
30
0
41
1
10
65.1992205117463
20
5.71592925385468
30
0
41
1
10
65.45484058771
20
5.7588505818791
30
0
41
1
10
65.963343459581
20
5.83435424906077
30
0
41
1
10
66.2168552391743
20
5.8667549488365
30
0
41
1
10
66.9773430804251
20
5.94754820243367
30
0
41
1
10
67.4831652074049
20
5.98023194639299
30
0
41
1
10
68.2381215589722
20
5.99786350328324
30
0
41
1
10
68.4894872134624
20
5.99840058491586
30
0
41
1
10
68.9932433306552
20
5.98898079204076
30
0
41
1
10
69.2453294494494
20
5.97904611875421
30
0
41
1
10
69.7495845591126
20
5.94871593870539
30
0
41
1
10
70.001762038223
20
5.92832344186516
30
0
41
1
10
70.5058440187034
20
5.8767192594301
30
0
41
1
10
70.7580159386473
20
5.84554488929484
30
0
41
1
10
71.0112226024009
20
5.80937383114522
30
0
0
SPLINE
5
D8
100
AcDbEntity
8
1
62
256
6
ByLayer
370
18
48
1
60
0
100
AcDbSpline
70
4
71
3
72
16
73
12
40
0
40
0
40
0
40
0
40
0.125
40
0.125
40
0.250000000000001
40
0.250000000000001
40
0.500000000000001
40
0.500000000000001
40
0.750000000000001
40
0.750000000000001
40
1
40
1
40
1
40
1
41
1
10
72.4327900818568
20
2.02623646004872
30
0
41
1
10
72.4342412280776
20
2.0100644390694
30
0
41
1
10
72.4336254990913
20
1.99347453496225
30
0
41
1
10
72.4282513487819
20
1.96186276345162
30
0
41
1
10
72.4235625301009
20
1.94663557621726
30
0
41
1
10
72.4040880484762
20
1.90249678752906
30
0
41
1
10
72.3849113478303
20
1.87704601240856
30
0
41
1
10
72.3403378672676
20
1.83169344583007
30
0
41
1
10
72.3154973996588
20
1.81231168129369
30
0
41
1
10
72.2629275460658
20
1.77721527143547
30
0
41
1
10
72.2350236642682
20
1.76151135690418
30
0
41
1
10
72.2066836472833
20
1.74731487908377
30
0
0
SPLINE
5
D9
100
AcDbEntity
8
1
62
256
6
ByLayer
370
18
48
1
60
0
100
AcDbSpline
70
4
71
3
72
8
73
4
40
0
40
0
40
0
40
0
40
1
40
1
40
1
40
1
41
1
10
4.00021992489522
20
-5.91952519788518
30
0
41
1
10
4.00116973027221
20
-5.89683799645809
30
0
41
1
10
4.00522924629095
20
-5.87421578464134
30
0
41
1
10
4.01226757382236
20
-5.85241386262149
30
0
0
SPLINE
5
DA
100
AcDbEntity
8
1
62
256
6
ByLayer
370
18
48
1
60
0
100
AcDbSpline
70
4
71
3
72
10
73
6
40
0
40
0
40
0
40
0
40
0.137633415276855
40
0.137633415276855
40
1
40
1
40
1
40
1
41
1
10
4.06770022655425
20
-5.75777226677889
30
0
41
1
10
4.07007009509732
20
-5.75521467792405
30
0
41
1
10
4.07249768698688
20
-5.75270122642115
30
0
41
1
10
4.0905415543825
20
-5.73479433902983
30
0
41
1
10
4.10815723393873
20
-5.72124702877164
30
0
41
1
10
4.12816370983933
20
-5.70991917550262
30
0
0
SPLINE
5
DB
100
AcDbEntity
8
1
62
256
6
ByLayer
370
18
48
1
60
0
100
AcDbSpline
70
4
71
3
72
40
73
36
40
0
40
0
40
0
40
0
40
0.0593154965347566
40
0.0593154965347566
40
0.118630993069513
40
0.118630993069513
40
0.17794648960427
40
0.17794648960427
40
0.237261986139026
40
0.237261986139026
40
0.296577482673783
40
0.296577482673783
40
0.35589297920854
40
0.35589297920854
40
0.415208475743296
40
0.415208475743296
40
0.474523972278053
40
0.474523972278053
40
0.533839468812809
40
0.533839468812809
40
0.593154965347566
40
0.593154965347566
40
0.652470461882322
40
0.652470461882322
40
0.711785958417079
40
0.711785958417079
40
0.771101454951836
40
0.771101454951836
40
0.830416951486592
40
0.830416951486592
40
0.889732448021349
40
0.889732448021349
40
0.949047944556105
40
0.949047944556105
40
1
40
1
40
1
40
1
41
1
10
10.7249991810328
20
-5.06993422404923
30
0
41
1
10
11.019049806405
20
-5.14308552999932
30
0
41
1
10
11.312823924468
20
-5.20959206945787
30
0
41
1
10
11.8998374309299
20
-5.33090783322339
30
0
41
1
10
12.1930352794068
20
-5.3857169099611
30
0
41
1
10
12.7791628714382
20
-5.48208514290312
30
0
41
1
10
13.0719738788405
20
-5.52352464122305
30
0
41
1
10
13.6586229599021
20
-5.59302819586969
30
0
41
1
10
13.9523309960454
20
-5.62137096481717
30
0
41
1
10
14.5404943022288
20
-5.66483339488454
30
0
41
1
10
14.8341153570109
20
-5.67964693229771
30
0
41
1
10
15.418781602066
20
-5.69520272785564
30
0
41
1
10
15.7104205088118
20
-5.69614554175172
30
0
41
1
10
16.2929908199527
20
-5.6854019233063
30
0
41
1
10
16.5837886604823
20
-5.67356291860793
30
0
41
1
10
17.1644678809051
20
-5.63600781149248
30
0
41
1
10
17.4542462903052
20
-5.61032849924229
30
0
41
1
10
18.0338764192109
20
-5.54690162441455
30
0
41
1
10
18.3238375156595
20
-5.50920502930137
30
0
41
1
10
18.9040371420736
20
-5.41915775779984
30
0
41
1
10
19.1942924892803
20
-5.36742979347218
30
0
41
1
10
19.7751610494981
20
-5.25202017133293
30
0
41
1
10
20.065723126656
20
-5.18878803261134
30
0
41
1
10
20.6487607304694
20
-5.04929511291328
30
0
41
1
10
20.9411432259453
20
-4.97236944433752
30
0
41
1
10
21.5273719143515
20
-4.8070664229337
30
0
41
1
10
21.8216821941396
20
-4.71838018644982
30
0
41
1
10
22.4076588723738
20
-4.53153324758267
30
0
41
1
10
22.6998675618475
20
-4.43246050820972
30
0
41
1
10
23.2830542870448
20
-4.22402273974612
30
0
41
1
10
23.5740556222608
20
-4.11507462249273
30
0
41
1
10
24.154973914263
20
-3.88845305522932
30
0
41
1
10
24.4447548860628
20
-3.7707206032546
30
0
41
1
10
24.9835969990523
20
-3.54348812373581
30
0
41
1
10
25.2325905171328
20
-3.43538361339347
30
0
41
1
10
25.481580547325
20
-3.32450511872094
30
0
0
SPLINE
5
DC
100
AcDbEntity
8
1
62
256
6
ByLayer
370
18
48
1
60
0
100
AcDbSpline
70
4
71
3
72
46
73
42
40
0
40
0
40
0
40
0
40
0.0443424949433725
40
0.0443424949433725
40
0.0921253701962038
40
0.0921253701962038
40
0.139908245449035
40
0.139908245449035
40
0.187691120701866
40
0.187691120701866
40
0.235473995954698
40
0.235473995954698
40
0.283256871207529
40
0.283256871207529
40
0.33103974646036
40
0.33103974646036
40
0.378822621713192
40
0.378822621713192
40
0.426605496966023
40
0.426605496966023
40
0.474388372218854
40
0.474388372218854
40
0.522171247471685
40
0.522171247471685
40
0.569954122724517
40
0.569954122724517
40
0.617736997977348
40
0.617736997977348
40
0.665519873230179
40
0.665519873230179
40
0.71330274848301
40
0.71330274848301
40
0.761085623735842
40
0.761085623735842
40
0.808868498988673
40
0.808868498988673
40
0.904434249494336
40
0.904434249494336
40
0.952217124747168
40
0.952217124747168
40
1
40
1
40
1
40
1
41
1
10
48.4545221269135
20
5.73177053839126
30
0
41
1
10
48.7246693696317
20
5.72969979340721
30
0
41
1
10
48.994223978929
20
5.72187628066158
30
0
41
1
10
49.5531589606331
20
5.69250169597026
30
0
41
1
10
49.842708511751
20
5.67032580053237
30
0
41
1
10
50.421947222803
20
5.61388329616551
30
0
41
1
10
50.711477933627
20
5.5797259325299
30
0
41
1
10
51.2904468594849
20
5.49759718715251
30
0
41
1
10
51.5798030154506
20
5.44944275140244
30
0
41
1
10
52.159243753788
20
5.34086445379393
30
0
41
1
10
52.4495184317809
20
5.2807552747995
30
0
41
1
10
53.0310493419098
20
5.14837833030029
30
0
41
1
10
53.3223660390241
20
5.07565955417547
30
0
41
1
10
53.9063592841797
20
4.91687184899357
30
0
41
1
10
54.1993113326682
20
4.83076734761744
30
0
41
1
10
54.7863489083563
20
4.64843075092895
30
0
41
1
10
55.0795534579248
20
4.55240019388194
30
0
41
1
10
55.6652989892649
20
4.34864926835229
30
0
41
1
10
55.9578306667962
20
4.24116209419523
30
0
41
1
10
56.5426450227725
20
4.01664815604414
30
0
41
1
10
56.8352223315043
20
3.90053910631303
30
0
41
1
10
57.4210687589332
20
3.65837522729919
30
0
41
1
10
57.7144134211524
20
3.53208785833238
30
0
41
1
10
58.301520199941
20
3.27042283174313
30
0
41
1
10
58.5942943692196
20
3.13517603923952
30
0
41
1
10
59.17992397748
20
2.85869677973497
30
0
41
1
10
59.4727135956189
20
2.71739045743914
30
0
41
1
10
60.0581565206672
20
2.42877281377454
30
0
41
1
10
60.3508074978288
20
2.28150260926822
30
0
41
1
10
60.9360893069735
20
1.9809593025993
30
0
41
1
10
61.228951627136
20
1.82793961143568
30
0
41
1
10
61.816200987948
20
1.51775217549977
30
0
41
1
10
62.1095700715925
20
1.36085313368105
30
0
41
1
10
62.6953534599978
20
1.04421675648848
30
0
41
1
10
62.9877391150469
20
0.884193681705796
30
0
41
1
10
63.8650316439778
20
0.401907858993042
30
0
41
1
10
64.4507679511869
20
0.0787171152040287
30
0
41
1
10
65.330698880103
20
-0.408425738747752
30
0
41
1
10
65.6235797777647
20
-0.570774925575591
30
0
41
1
10
66.207972726701
20
-0.891495843634033
30
0
41
1
10
66.4996223550577
20
-1.05046313700254
30
0
41
1
10
66.7907388950747
20
-1.20808376992258
30
0
0
SPLINE
5
DD
100
AcDbEntity
8
1
62
256
6
ByLayer
370
18
48
1
60
0
100
AcDbSpline
70
4
71
3
72
8
73
4
40
0
40
0
40
0
40
0
40
1
40
1
40
1
40
1
41
1
10
70.9997985671077
20
-5.75223509385992
30
0
41
1
10
70.9823031697175
20
-5.80012468066445
30
0
41
1
10
70.9647913166934
20
-5.84800128008891
30
0
41
1
10
70.9472630103423
20
-5.89586489395384
30
0
0
SPLINE
5
DE
100
AcDbEntity
8
1
62
256
6
ByLayer
370
18
48
1
60
0
100
AcDbSpline
70
4
71
3
72
8
73
4
40
0
40
0
40
0
40
0
40
1
40
1
40
1
40
1
41
1
10
70.8936289385555
20
-5.75844337872198
30
0
41
1
10
70.9222801832138
20
-5.76672783138702
30
0
41
1
10
70.9640269177895
20
-5.73799380469887
30
0
41
1
10
71.018506482935
20
-5.67326646820828
30
0
0
SPLINE
5
DF
100
AcDbEntity
8
1
62
256
6
ByLayer
370
18
48
1
60
0
100
AcDbSpline
70
4
71
3
72
24
73
20
40
0
40
0
40
0
40
0
40
0.124999999999999
40
0.124999999999999
40
0.249999999999997
40
0.249999999999997
40
0.374999999999996
40
0.374999999999996
40
0.499999999999994
40
0.499999999999994
40
0.624999999999993
40
0.624999999999993
40
0.687499999999994
40
0.687499999999994
40
0.749999999999995
40
0.749999999999995
40
0.874999999999998
40
0.874999999999998
40
1
40
1
40
1
40
1
41
1
10
71.0112226024118
20
-5.80937383114366
30
0
41
1
10
71.0706078758594
20
-5.66140145210611
30
0
41
1
10
71.1300952153688
20
-5.51152567086285
30
0
41
1
10
71.2492021844755
20
-5.20930706654224
30
0
41
1
10
71.3088060928437
20
-5.0572574243854
30
0
41
1
10
71.4282364106473
20
-4.7490087782374
30
0
41
1
10
71.4880459864474
20
-4.5931237001262
30
0
41
1
10
71.6077941585025
20
-4.27894747656657
30
0
41
1
10
71.6677140573018
20
-4.12100501487899
30
0
41
1
10
71.7877569742709
20
-3.80133217364988
30
0
41
1
10
71.8480570938485
20
-3.63925504818525
30
0
41
1
10
71.9377201192259
20
-3.39660219539067
30
0
41
1
10
71.9674897477491
20
-3.31576022396709
30
0
41
1
10
72.0268743619352
20
-3.15413171159111
30
0
41
1
10
72.0564772097806
20
-3.07334952134036
30
0
41
1
10
72.1447749872478
20
-2.83118603051696
30
0
41
1
10
72.2030209968577
20
-2.66996564165885
30
0
41
1
10
72.3185293720385
20
-2.3478774431205
30
0
41
1
10
72.3758492448007
20
-2.18698902045693
30
0
41
1
10
72.4327900818566
20
-2.02623646004884
30
0
0
SPLINE
5
E0
100
AcDbEntity
8
1
62
256
6
ByLayer
370
18
48
1
60
0
100
AcDbSpline
70
4
71
3
72
50
73
46
40
0
40
0
40
0
40
0
40
0.030161359768803
40
0.030161359768803
40
0.060322719537606
40
0.060322719537606
40
0.120645439075213
40
0.120645439075213
40
0.241290878150428
40
0.241290878150428
40
0.271452237919231
40
0.271452237919231
40
0.301613597688034
40
0.301613597688034
40
0.331774957456837
40
0.331774957456837
40
0.36193631722564
40
0.36193631722564
40
0.482581756300851
40
0.482581756300851
40
0.542904475838457
40
0.542904475838457
40
0.57306583560726
40
0.57306583560726
40
0.603227195376062
40
0.603227195376062
40
0.633388555144865
40
0.633388555144865
40
0.663549914913668
40
0.663549914913668
40
0.723872634451273
40
0.723872634451273
40
0.754033994220076
40
0.754033994220076
40
0.784195353988879
40
0.784195353988879
40
0.844518073526485
40
0.844518073526485
40
0.874679433295288
40
0.874679433295288
40
0.90484079306409
40
0.90484079306409
40
0.965163512601697
40
0.965163512601697
40
1
40
1
40
1
40
1
41
1
10
70.9472630103423
20
-5.89586489395384
30
0
41
1
10
70.5978196638524
20
-5.93292122693899
30
0
41
1
10
70.2485218825024
20
-5.95988613086323
30
0
41
1
10
69.5494431437393
20
-5.99354006821039
30
0
41
1
10
69.1990541811159
20
-6.00020411828146
30
0
41
1
10
68.1525007715631
20
-5.98970262170178
30
0
41
1
10
67.4598404807558
20
-5.94226120308218
30
0
41
1
10
65.3870309623078
20
-5.68403047998046
30
0
41
1
10
64.0115176200744
20
-5.35748758317447
30
0
41
1
10
62.2663051058287
20
-4.77520908739115
30
0
41
1
10
61.9158474842089
20
-4.64995019558177
30
0
41
1
10
61.2172218642711
20
-4.38501446459404
30
0
41
1
10
60.8683083790611
20
-4.24513438276134
30
0
41
1
10
60.1705328294038
20
-3.95152024263214
30
0
41
1
10
59.8216551221921
20
-3.79780266966665
30
0
41
1
10
59.1230035777493
20
-3.47772095534856
30
0
41
1
10
58.7724944766525
20
-3.31099795004946
30
0
41
1
10
57.0262485682447
20
-2.45397194739041
30
0
41
1
10
55.6500936198748
20
-1.69426865042925
30
0
41
1
10
53.5760334205397
20
-0.514160979162654
30
0
41
1
10
52.8829278688135
20
-0.114248597122526
30
0
41
1
10
51.8359671868617
20
0.487431145165658
30
0
41
1
10
51.4852700047482
20
0.68836405487562
30
0
41
1
10
50.7860675658214
20
1.08571214554181
30
0
41
1
10
50.436932778922
20
1.28254433871862
30
0
41
1
10
49.7389204870991
20
1.67138163365792
30
0
41
1
10
49.3899567732026
20
1.86323816311395
30
0
41
1
10
48.691107684493
20
2.24014042861251
30
0
41
1
10
48.3408047258249
20
2.42543322794361
30
0
41
1
10
47.2908305150667
20
2.96790045563424
30
0
41
1
10
46.5932534626979
20
3.3102144736614
30
0
41
1
10
45.5454483251459
20
3.78743499580884
30
0
41
1
10
45.1959406501076
20
3.9404639769088
30
0
41
1
10
44.4954831709175
20
4.23305672946043
30
0
41
1
10
44.1454707675363
20
4.37222868495809
30
0
41
1
10
43.0972149249848
20
4.76618089092833
30
0
41
1
10
42.3996337184124
20
4.99763867302076
30
0
41
1
10
41.3499864458913
20
5.29270990553982
30
0
41
1
10
40.9992427863643
20
5.38240410393394
30
0
41
1
10
40.3014610021397
20
5.54228629655688
30
0
41
1
10
39.9537472512006
20
5.61270159873618
30
0
41
1
10
38.9129348189999
20
5.7951068671324
30
0
41
1
10
38.2220379119888
20
5.87818196013123
30
0
41
1
10
37.1315982060846
20
5.94725401309887
30
0
41
1
10
36.7322747226201
20
5.95943357986803
30
0
41
1
10
36.3321746699067
20
5.95836588865504
30
0
0
SPLINE
5
E1
100
AcDbEntity
8
1
62
256
6
ByLayer
370
18
48
1
60
0
100
AcDbSpline
70
4
71
3
72
10
73
6
40
0
40
0
40
0
40
0
40
0.171497013114977
40
0.171497013114977
40
1
40
1
40
1
40
1
41
1
10
6.65426174029369
20
-5.6864876935594
30
0
41
1
10
6.51011790802781
20
-5.70929847655952
30
0
41
1
10
6.36596993212592
20
-5.73046583843893
30
0
41
1
10
5.52523268679462
20
-5.84421610918471
30
0
41
1
10
4.82771009101683
20
-5.899743263863
30
0
41
1
10
4.12620800993477
20
-5.91496106790885
30
0
0
SPLINE
5
E2
100
AcDbEntity
8
1
62
256
6
ByLayer
370
18
48
1
60
0
100
AcDbSpline
70
4
71
3
72
90
73
86
40
0
40
0
40
0
40
0
40
0.0406358505115437
40
0.0406358505115437
40
0.11028307261109
40
0.11028307261109
40
0.145106683660864
40
0.145106683660864
40
0.179930294710637
40
0.179930294710637
40
0.249577516810184
40
0.249577516810184
40
0.319224738909731
40
0.319224738909731
40
0.354048349959504
40
0.354048349959504
40
0.388871961009278
40
0.388871961009278
40
0.458519183108825
40
0.458519183108825
40
0.493342794158598
40
0.493342794158598
40
0.510754599683485
40
0.510754599683485
40
0.51184283752879
40
0.512386956451443
40
0.512522986182106
40
0.512522986182106
40
0.512659015912769
40
0.512659015912769
40
0.512931075374095
40
0.512931075374095
40
0.514019313219401
40
0.514019313219401
40
0.515107551064706
40
0.515107551064706
40
0.519460502445928
40
0.519460502445928
40
0.528166405208371
40
0.528166405208371
40
0.562990016258142
40
0.562990016258142
40
0.597813627307914
40
0.597813627307914
40
0.667460849407457
40
0.667460849407457
40
0.702284460457229
40
0.702284460457229
40
0.710990363219672
40
0.710990363219672
40
0.719696265982115
40
0.719696265982115
40
0.721872741672726
40
0.721872741672726
40
0.722416860595378
40
0.722416860595378
40
0.722960979518031
40
0.722960979518031
40
0.723097009248694
40
0.723097009248694
40
0.723233038979357
40
0.723233038979357
40
0.723505098440684
40
0.724049217363336
40
0.728402168744557
40
0.728402168744557
40
0.737108071506999
40
0.737108071506999
40
0.771931682556765
40
0.771931682556765
40
0.806755293606531
40
0.806755293606531
40
0.824167099131415
40
0.824167099131415
40
0.841578904656298
40
0.841578904656298
40
0.876402515706064
40
0.876402515706064
40
0.946049737805597
40
0.946049737805597
40
0.96346154333048
40
0.96346154333048
40
0.980873348855363
40
0.980873348855363
40
1
40
1
40
1
40
1
41
1
10
22.2972906712766
20
-1.6581521606729
30
0
41
1
10
22.0300682307257
20
-1.53450257985972
30
0
41
1
10
21.762513833697
20
-1.41565487013275
30
0
41
1
10
21.0348643761242
20
-1.10787521623709
30
0
41
1
10
20.5736796501045
20
-0.929501173695456
30
0
41
1
10
19.876877477432
20
-0.691077826824966
30
0
41
1
10
19.6437642081967
20
-0.616461366499607
30
0
41
1
10
19.1753284202923
20
-0.477800709593879
30
0
41
1
10
18.940950685574
20
-0.414052422761699
30
0
41
1
10
18.2390439848365
20
-0.240879636151533
30
0
41
1
10
17.7717320284581
20
-0.149262159176203
30
0
41
1
10
16.8342042266136
20
-0.015889991125448
30
0
41
1
10
16.3639809841662
20
0.0258762890314586
30
0
41
1
10
15.6532076486441
20
0.0503164802900073
30
0
41
1
10
15.4150176464464
20
0.0520928582850217
30
0
41
1
10
14.9380081988994
20
0.0429044022875757
30
0
41
1
10
14.6996188765108
20
0.0319705105526964
30
0
41
1
10
13.9840209623591
20
-0.0192815517973202
30
0
41
1
10
13.5063764303812
20
-0.0780533930444562
30
0
41
1
10
12.7860883586786
20
-0.20073700531475
30
0
41
1
10
12.5455297922282
20
-0.24736455117511
30
0
41
1
10
12.184579923491
20
-0.325318862863497
30
0
41
1
10
12.0642248283833
20
-0.352641338228636
30
0
41
1
10
11.9363114144051
20
-0.383043758888647
30
0
41
1
10
11.9250247730986
20
-0.385733883466543
30
0
41
1
10
11.9127972954292
20
-0.388660443171176
30
0
41
1
10
11.9080943774015
20
-0.389788004460939
30
0
41
1
10
11.9062132068904
20
-0.390239185829472
30
0
41
1
10
11.904971060676
20
-0.390328454003395
30
0
41
1
10
11.9039945452101
20
-0.392390793082541
30
0
41
1
10
11.9058008571776
20
-0.393856824661299
30
0
41
1
10
11.9120135748243
20
-0.400022242389809
30
0
41
1
10
11.9183187310617
20
-0.404166489563636
30
0
41
1
10
11.9306362314207
20
-0.41252119690742
30
0
41
1
10
11.9369394141409
20
-0.416573454040332
30
0
41
1
10
11.9687316245928
20
-0.436597890620448
30
0
41
1
10
11.9949799587228
20
-0.451928486029431
30
0
41
1
10
12.0740054855484
20
-0.497623756378857
30
0
41
1
10
12.1273876753337
20
-0.527451301196891
30
0
41
1
10
12.3951693533904
20
-0.675984002224311
30
0
41
1
10
12.6122264070736
20
-0.792732409747089
30
0
41
1
10
13.0468462621034
20
-1.0271329178255
30
0
41
1
10
13.2648232983511
20
-1.14441719784804
30
0
41
1
10
13.9196952935158
20
-1.49752228157547
30
0
41
1
10
14.3570133948439
20
-1.73526952471019
30
0
41
1
10
15.0099395521836
20
-2.10126202448817
30
0
41
1
10
15.227304514144
20
-2.22447226625474
30
0
41
1
10
15.4969953577805
20
-2.38299650590022
30
0
41
1
10
15.5508220631736
20
-2.41494612192975
30
0
41
1
10
15.6579538598642
20
-2.47987090172162
30
0
41
1
10
15.7115208400609
20
-2.51249911670135
30
0
41
1
10
15.7766145509855
20
-2.55624737580379
30
0
41
1
10
15.7895741908368
20
-2.56510365799807
30
0
41
1
10
15.8050904384068
20
-2.57711999863162
30
0
41
1
10
15.8081607303833
20
-2.57957813607368
30
0
41
1
10
15.8140743675401
20
-2.58475791871157
30
0
41
1
10
15.8172507455784
20
-2.58728883610473
30
0
41
1
10
15.8196202942389
20
-2.59166205690568
30
0
41
1
10
15.8200240026698
20
-2.59290159396016
30
0
41
1
10
15.8185335124369
20
-2.59431287618315
30
0
41
1
10
15.8176449277416
20
-2.59486785927473
30
0
41
1
10
15.8151855377897
20
-2.5967489503295
30
0
41
1
10
15.8102667915264
20
-2.60051077163862
30
0
41
1
10
15.7791153847987
20
-2.62432872092802
30
0
41
1
10
15.7496078607728
20
-2.64685270110965
30
0
41
1
10
15.6709287206771
20
-2.70681150000598
30
0
41
1
10
15.6184916702388
20
-2.74663962884748
30
0
41
1
10
15.3563883164708
20
-2.9448997701933
30
0
41
1
10
15.1467779828172
20
-3.10084154428893
30
0
41
1
10
14.7289584113138
20
-3.40223450375183
30
0
41
1
10
14.5203712188134
20
-3.54798307430093
30
0
41
1
10
14.2061770806887
20
-3.75692539724034
30
0
41
1
10
14.1012241993236
20
-3.82495565704229
30
0
41
1
10
13.8905402990501
20
-3.95735765122421
30
0
41
1
10
13.7845929408302
20
-4.02185111475276
30
0
41
1
10
13.4673639424224
20
-4.20782652666475
30
0
41
1
10
13.2563415655266
20
-4.32205544609536
30
0
41
1
10
12.6208477795566
20
-4.63183676570674
30
0
41
1
10
12.1937955277736
20
-4.79409876433738
30
0
41
1
10
11.6441353469247
20
-4.93293314408737
30
0
41
1
10
11.5331786142138
20
-4.95756408706512
30
0
41
1
10
11.3117417530987
20
-5.00002818698721
30
0
41
1
10
11.2010489011308
20
-5.01793051626962
30
0
41
1
10
10.9686194660318
20
-5.04883810929781
30
0
41
1
10
10.8468634535582
20
-5.06118312255032
30
0
41
1
10
10.724934854091
20
-5.06993884371607
30
0
0
SPLINE
5
E3
100
AcDbEntity
8
1
62
256
6
ByLayer
370
18
48
1
60
0
100
AcDbSpline
70
4
71
3
72
18
73
14
40
0
40
0
40
0
40
0
40
0.249999999999997
40
0.249999999999997
40
0.374999999999997
40
0.374999999999997
40
0.499999999999998
40
0.499999999999998
40
0.749999999999998
40
0.749999999999998
40
0.874999999999999
40
0.874999999999999
40
1
40
1
40
1
40
1
41
1
10
70.8936289385575
20
-5.75844337872218
30
0
41
1
10
70.7695137313664
20
-5.75148274999711
30
0
41
1
10
70.6537951089269
20
-5.71957805962299
30
0
41
1
10
70.4939236169698
20
-5.6310027633738
30
0
41
1
10
70.4427529638616
20
-5.59442717227341
30
0
41
1
10
70.3471621381534
20
-5.50845393439795
30
0
41
1
10
70.3025212325218
20
-5.45900003577654
30
0
41
1
10
70.1780991443472
20
-5.29116042505046
30
0
41
1
10
70.1077398310431
20
-5.1534582685012
30
0
41
1
10
70.0225223211775
20
-4.9052425625764
30
0
41
1
10
69.997437166991
20
-4.81504022903553
30
0
41
1
10
69.9551920413109
20
-4.62274850561082
30
0
41
1
10
69.9379582372187
20
-4.52063195576363
30
0
41
1
10
69.9246545044446
20
-4.4124812876513
30
0
0
SPLINE
5
E4
100
AcDbEntity
8
1
62
256
6
ByLayer
370
18
48
1
60
0
100
AcDbSpline
70
4
71
3
72
98
73
94
40
0
40
0
40
0
40
0
40
0.0319128644647754
40
0.0319128644647754
40
0.0674110525044677
40
0.0674110525044677
40
0.0851601465243138
40
0.0851601465243138
40
0.10290924054416
40
0.10290924054416
40
0.138407428583853
40
0.138407428583853
40
0.173905616623546
40
0.173905616623546
40
0.191654710643392
40
0.191654710643392
40
0.209403804663238
40
0.209403804663238
40
0.244901992702931
40
0.244901992702931
40
0.262651086722778
40
0.262651086722778
40
0.280400180742624
40
0.280400180742624
40
0.298149274762471
40
0.298149274762471
40
0.315898368782317
40
0.315898368782317
40
0.351396556822011
40
0.351396556822011
40
0.369145650841858
40
0.369145650841858
40
0.386894744861705
40
0.386894744861705
40
0.404643838881552
40
0.404643838881552
40
0.422392932901399
40
0.422392932901399
40
0.457891120941092
40
0.457891120941092
40
0.475640214960938
40
0.475640214960938
40
0.493389308980784
40
0.493389308980784
40
0.51113840300063
40
0.51113840300063
40
0.528887497020476
40
0.528887497020476
40
0.564385685060168
40
0.564385685060168
40
0.582134779080014
40
0.582134779080014
40
0.59988387309986
40
0.59988387309986
40
0.617632967119706
40
0.617632967119706
40
0.635382061139551
40
0.635382061139551
40
0.670880249179242
40
0.670880249179242
40
0.688629343199087
40
0.688629343199087
40
0.706378437218932
40
0.706378437218932
40
0.724127531238777
40
0.724127531238777
40
0.741876625258622
40
0.741876625258622
40
0.759625719278467
40
0.759625719278467
40
0.777374813298312
40
0.777374813298312
40
0.795123907318157
40
0.795123907318157
40
0.812873001338002
40
0.812873001338002
40
0.830622095357847
40
0.830622095357847
40
0.848371189377692
40
0.848371189377692
40
0.883869377417383
40
0.883869377417383
40
0.901618471437229
40
0.901618471437229
40
0.919367565457074
40
0.919367565457074
40
0.937116659476919
40
0.937116659476919
40
0.954865753496765
40
0.954865753496765
40
0.990363941536455
40
0.990363941536455
40
1
40
1
40
1
40
1
41
1
10
25.5020651713913
20
3.31249317233178
30
0
41
1
10
25.9572750302004
20
3.52804500886791
30
0
41
1
10
26.4123981432544
20
3.73389346074649
30
0
41
1
10
27.3724814365791
20
4.14930881729146
30
0
41
1
10
27.8806048885911
20
4.35225382143349
30
0
41
1
10
28.6453020708482
20
4.63467397630922
30
0
41
1
10
28.9004938895797
20
4.72527079713018
30
0
41
1
10
29.4117043045987
20
4.89885824718507
30
0
41
1
10
29.6682018414717
20
4.98108578551958
30
0
41
1
10
30.434989441303
20
5.21220467390108
30
0
41
1
10
30.9439807667464
20
5.34707275173139
30
0
41
1
10
31.9560810892519
20
5.57963738916192
30
0
41
1
10
32.4624922756188
20
5.67498688671614
30
0
41
1
10
33.221389983141
20
5.78822769902376
30
0
41
1
10
33.4741158971117
20
5.82102542955522
30
0
41
1
10
33.9792140566059
20
5.87642710048274
30
0
41
1
10
34.2322043322141
20
5.89881773755596
30
0
41
1
10
34.9930890957357
20
5.95013456065524
30
0
41
1
10
35.5021715230616
20
5.96355716410844
30
0
41
1
10
36.2672977867643
20
5.95113729899177
30
0
41
1
10
36.5237866255123
20
5.94151784866216
30
0
41
1
10
37.0357057375334
20
5.91172775354187
30
0
41
1
10
37.2911100026522
20
5.89156872795698
30
0
41
1
10
37.8004953378834
20
5.84078987650261
30
0
41
1
10
38.0544069341624
20
5.81013825217971
30
0
41
1
10
38.5607539854984
20
5.73823300780919
30
0
41
1
10
38.8138023381355
20
5.69724793047098
30
0
41
1
10
39.5732511657127
20
5.55995577909337
30
0
41
1
10
40.0792423252844
20
5.44909359417738
30
0
41
1
10
40.8362913217518
20
5.25220994841266
30
0
41
1
10
41.0889741604926
20
5.18196315929649
30
0
41
1
10
41.5955813177591
20
5.03288718035884
30
0
41
1
10
41.849334338579
20
4.95391747130952
30
0
41
1
10
42.3574133513929
20
4.78671575095748
30
0
41
1
10
42.6116918733113
20
4.69842879900605
30
0
41
1
10
43.1207070148128
20
4.51211027761363
30
0
41
1
10
43.3760868801595
20
4.41472559071116
30
0
41
1
10
44.1452673440814
20
4.11137226872236
30
0
41
1
10
44.6555313351402
20
3.89558739729728
30
0
41
1
10
45.415652218866
20
3.54965179803065
30
0
41
1
10
45.6687813128414
20
3.43151063927252
30
0
41
1
10
46.1752076432422
20
3.19067055994012
30
0
41
1
10
46.428325149271
20
3.06771332004021
30
0
41
1
10
46.934038632873
20
2.81624845523191
30
0
41
1
10
47.1865959621754
20
2.68767881116355
30
0
41
1
10
47.6910039608581
20
2.42459291861118
30
0
41
1
10
47.9434195183165
20
2.29097580461897
30
0
41
1
10
48.7024699489196
20
1.88593441063617
30
0
41
1
10
49.2100409811966
20
1.60899139969143
30
0
41
1
10
49.9720338160648
20
1.17975020685594
30
0
41
1
10
50.2267123408522
20
1.03536097675323
30
0
41
1
10
50.7383129914559
20
0.745592022875741
30
0
41
1
10
50.9950614302572
20
0.599801560205549
30
0
41
1
10
51.5058858510242
20
0.308207973681391
30
0
41
1
10
51.7604537326085
20
0.16205327797914
30
0
41
1
10
52.2677435338228
20
-0.131240365219639
30
0
41
1
10
52.5210100151861
20
-0.277384530163431
30
0
41
1
10
53.2810059169041
20
-0.712010683353981
30
0
41
1
10
53.7870491820673
20
-0.998322240531934
30
0
41
1
10
54.5433575037246
20
-1.42576135933106
30
0
41
1
10
54.795538860678
20
-1.56695575092752
30
0
41
1
10
55.3010788940195
20
-1.8450588898306
30
0
41
1
10
55.5542037205444
20
-1.98237267527125
30
0
41
1
10
56.0608316710398
20
-2.2540773912759
30
0
41
1
10
56.3143222691838
20
-2.38848914484646
30
0
41
1
10
56.8214105230729
20
-2.65476766877856
30
0
41
1
10
57.0754913713977
20
-2.78583097270698
30
0
41
1
10
57.5858665626566
20
-3.04195451521727
30
0
41
1
10
57.8424239833257
20
-3.16766882590113
30
0
41
1
10
58.3541331141071
20
-3.41303719747901
30
0
41
1
10
58.6091081834423
20
-3.53264740546635
30
0
41
1
10
59.1170385584799
20
-3.76605272937678
30
0
41
1
10
59.3704785657991
20
-3.87912178244088
30
0
41
1
10
59.8774674259596
20
-4.09663312656525
30
0
41
1
10
60.1307688073514
20
-4.20143250994059
30
0
41
1
10
60.6366573513699
20
-4.40362578521055
30
0
41
1
10
60.8892378180372
20
-4.50102730047237
30
0
41
1
10
61.3933670307196
20
-4.6886519920308
30
0
41
1
10
61.645365427854
20
-4.77833773984517
30
0
41
1
10
62.4030836666656
20
-5.03314181045528
30
0
41
1
10
62.9094523830529
20
-5.18536271305985
30
0
41
1
10
63.6688660013104
20
-5.38829482460889
30
0
41
1
10
63.9223854721181
20
-5.45130393475927
30
0
41
1
10
64.4316217521531
20
-5.56697899031073
30
0
41
1
10
64.6870518384624
20
-5.61988393148633
30
0
41
1
10
65.199220511744
20
-5.71592925385428
30
0
41
1
10
65.4548405877077
20
-5.75885058187873
30
0
41
1
10
65.9633434595788
20
-5.83435424906045
30
0
41
1
10
66.216855239172
20
-5.86675494883622
30
0
41
1
10
66.9773430804228
20
-5.9475482024335
30
0
41
1
10
67.4831652074026
20
-5.98023194639288
30
0
41
1
10
68.1230924441152
20
-5.99517706667217
30
0
41
1
10
68.2596310129965
20
-5.99679384664384
30
0
41
1
10
68.3962129817492
20
-5.99685155942262
30
0
0
SPLINE
5
E5
100
AcDbEntity
8
1
62
256
6
ByLayer
370
18
48
1
60
0
100
AcDbSpline
70
4
71
3
72
48
73
44
40
0
40
0
40
0
40
0
40
0.0625000000000015
40
0.0625000000000015
40
0.125000000000003
40
0.125000000000003
40
0.187500000000005
40
0.187500000000005
40
0.250000000000006
40
0.250000000000006
40
0.312500000000008
40
0.312500000000008
40
0.375000000000009
40
0.375000000000009
40
0.437500000000011
40
0.437500000000011
40
0.500000000000012
40
0.500000000000012
40
0.531250000000011
40
0.531250000000011
40
0.56250000000001
40
0.56250000000001
40
0.593750000000008
40
0.593750000000008
40
0.625000000000007
40
0.625000000000007
40
0.656250000000006
40
0.656250000000006
40
0.687500000000004
40
0.687500000000004
40
0.718750000000003
40
0.718750000000003
40
0.750000000000002
40
0.750000000000002
40
0.78125
40
0.78125
40
0.812499999999999
40
0.812499999999999
40
0.874999999999999
40
0.874999999999999
40
0.9375
40
0.9375
40
1
40
1
40
1
40
1
41
1
10
72.151631584143
20
-2.30210951635593
30
0
41
1
10
72.1269069688107
20
-2.28918636883537
30
0
41
1
10
72.099686049563
20
-2.28410248117197
30
0
41
1
10
72.0411381977925
20
-2.2868290112385
30
0
41
1
10
72.0095132625182
20
-2.29482443752434
30
0
41
1
10
71.9438851613538
20
-2.32251521994974
30
0
41
1
10
71.9099607596875
20
-2.34206737988242
30
0
41
1
10
71.8400037863493
20
-2.39200686604374
30
0
41
1
10
71.8037498344513
20
-2.42267006493725
30
0
41
1
10
71.7313218701569
20
-2.49319755954258
30
0
41
1
10
71.694917154538
20
-2.53317122013814
30
0
41
1
10
71.6216999893152
20
-2.62318699810007
30
0
41
1
10
71.5845150907061
20
-2.6738197258579
30
0
41
1
10
71.5122955453932
20
-2.78327321771832
30
0
41
1
10
71.477109781105
20
-2.84214025543469
30
0
41
1
10
71.408985163699
20
-2.9699422785076
30
0
41
1
10
71.3767039881764
20
-3.03777181314899
30
0
41
1
10
71.3330170633747
20
-3.14346656913023
30
0
41
1
10
71.3190705958693
20
-3.17982263847361
30
0
41
1
10
71.2935152181727
20
-3.2525456611632
30
0
41
1
10
71.2818988919612
20
-3.28886648672378
30
0
41
1
10
71.2611424979669
20
-3.36142138758038
30
0
41
1
10
71.2519276678188
20
-3.39803246748031
30
0
41
1
10
71.2367263676344
20
-3.46899319898594
30
0
41
1
10
71.2307145935626
20
-3.50329920201804
30
0
41
1
10
71.2218445683009
20
-3.56958039078529
30
0
41
1
10
71.218982080532
20
-3.60185698342002
30
0
41
1
10
71.2166030706185
20
-3.66228291053287
30
0
41
1
10
71.2170475509591
20
-3.69039293225038
30
0
41
1
10
71.22096720003
20
-3.74271247460632
30
0
41
1
10
71.224491533984
20
-3.76706443320012
30
0
41
1
10
71.2342013952592
20
-3.81080776408851
30
0
41
1
10
71.240372962048
20
-3.83033646993277
30
0
41
1
10
71.2550926551272
20
-3.86516478393645
30
0
41
1
10
71.2637074009694
20
-3.88052404669512
30
0
41
1
10
71.2827217943577
20
-3.90666501026868
30
0
41
1
10
71.2931376320218
20
-3.91753981784723
30
0
41
1
10
71.3268136044222
20
-3.9442960199512
30
0
41
1
10
71.3527771967254
20
-3.95437829580268
30
0
41
1
10
71.4089412539475
20
-3.96040863286848
30
0
41
1
10
71.4389622540125
20
-3.95651281671201
30
0
41
1
10
71.5024179073686
20
-3.936554060905
30
0
41
1
10
71.5361555025162
20
-3.92024377104374
30
0
41
1
10
71.570597339552
20
-3.89848798330002
30
0
0
SPLINE
5
E6
100
AcDbEntity
8
1
62
256
6
ByLayer
370
18
48
1
60
0
100
AcDbSpline
70
4
71
3
72
77
73
73
40
0
40
0
40
0
40
0
40
0.0624999999999965
40
0.0624999999999965
40
0.124999999999993
40
0.124999999999993
40
0.156249999999991
40
0.156249999999991
40
0.18749999999999
40
0.18749999999999
40
0.249999999999986
40
0.249999999999986
40
0.374999999999979
40
0.374999999999979
40
0.499999999999972
40
0.499999999999972
40
0.562499999999969
40
0.562499999999969
40
0.624999999999965
40
0.624999999999965
40
0.687499999999962
40
0.687499999999962
40
0.71874999999996
40
0.71874999999996
40
0.72070312499996
40
0.72070312499996
40
0.72265624999996
40
0.72265624999996
40
0.72656249999996
40
0.72656249999996
40
0.72851562499996
40
0.72851562499996
40
0.730468749999959
40
0.73437499999996
40
0.73437499999996
40
0.749999999999962
40
0.749999999999962
40
0.781249999999968
40
0.781249999999968
40
0.79687499999997
40
0.79687499999997
40
0.804687499999971
40
0.804687499999971
40
0.812499999999973
40
0.812499999999973
40
0.820312499999974
40
0.820312499999974
40
0.828124999999975
40
0.828124999999975
40
0.843749999999978
40
0.843749999999978
40
0.851562499999979
40
0.851562499999979
40
0.85937499999998
40
0.85937499999998
40
0.874999999999983
40
0.874999999999983
40
0.882812499999984
40
0.882812499999984
40
0.890624999999985
40
0.890624999999985
40
0.906249999999987
40
0.906249999999987
40
0.92187499999999
40
0.92187499999999
40
0.937499999999992
40
0.937499999999992
40
0.968749999999996
40
0.968749999999996
40
0.984374999999998
40
0.984374999999998
40
1
40
1
40
1
40
1
41
1
10
22.2973780777606
20
-1.65822195008465
30
0
41
1
10
21.8149004013729
20
-1.39161009692981
30
0
41
1
10
21.3271486022693
20
-1.13168222661403
30
0
41
1
10
20.3412474735859
20
-0.626341797136973
30
0
41
1
10
19.8430755352665
20
-0.380959974624744
30
0
41
1
10
19.0874578746019
20
-0.0256653206814406
30
0
41
1
10
18.8339110077019
20
0.0907484506461174
30
0
41
1
10
18.3261356818435
20
0.317947423576015
30
0
41
1
10
18.0717269481828
20
0.428823083867115
30
0
41
1
10
17.3067246245833
20
0.752910270552661
30
0
41
1
10
16.7943513471303
20
0.957571091600556
30
0
41
1
10
15.2484924307888
20
1.5345856538413
30
0
41
1
10
14.2061657154333
20
1.8696500735733
30
0
41
1
10
12.0912039719484
20
2.43154263297345
30
0
41
1
10
11.0185891307712
20
2.65850957611389
30
0
41
1
10
9.38405410844805
20
2.91723833084029
30
0
41
1
10
8.83432771611365
20
2.98997759198608
30
0
41
1
10
7.72888219500061
20
3.10802098767636
30
0
41
1
10
7.17474232583271
20
3.15320796248827
30
0
41
1
10
6.06352233049853
20
3.21630662274896
30
0
41
1
10
5.50651956485956
20
3.2342092033179
30
0
41
1
10
4.67087528603395
20
3.24024519506253
30
0
41
1
10
4.39225111042862
20
3.23878221184248
30
0
41
1
10
4.09636998933865
20
3.23345714632615
30
0
41
1
10
4.07896555525673
20
3.233130030067
30
0
41
1
10
4.04415736355338
20
3.23244799422974
30
0
41
1
10
4.02674636837617
20
3.23239018024441
30
0
41
1
10
3.97456884004353
20
3.22994013932654
30
0
41
1
10
3.9387556367447
20
3.22418677251284
30
0
41
1
10
3.89212259017066
20
3.20694595018799
30
0
41
1
10
3.8779359177295
20
3.19932494671647
30
0
41
1
10
3.84894157244452
20
3.18491566929242
30
0
41
1
10
3.80553819965263
20
3.16315149021133
30
0
41
1
10
3.7624043607257
20
3.14092659664669
30
0
41
1
10
3.61924840702662
20
3.06577208941124
30
0
41
1
10
3.50670798552966
20
3.00224045205041
30
0
41
1
10
3.17621973918887
20
2.7991344093202
30
0
41
1
10
2.968402881418
20
2.64937807297602
30
0
41
1
10
2.68440359953399
20
2.39225833906357
30
0
41
1
10
2.59439759873129
20
2.30106629109233
30
0
41
1
10
2.46843311943462
20
2.15345806454258
30
0
41
1
10
2.42799077559172
20
2.10243001451829
30
0
41
1
10
2.35182123771199
20
1.99792448123924
30
0
41
1
10
2.31592947156679
20
1.94426373261288
30
0
41
1
10
2.24895243725817
20
1.83383261799222
30
0
41
1
10
2.21786627852794
20
1.7770628713489
30
0
41
1
10
2.16101467535131
20
1.66005555489434
30
0
41
1
10
2.13513288899512
20
1.59948757538251
30
0
41
1
10
2.06729773426403
20
1.41438307265145
30
0
41
1
10
2.03545002156434
20
1.28772520496008
30
0
41
1
10
2.00841499831699
20
1.09258335971825
30
0
41
1
10
2.00286330778317
20
1.02667591413981
30
0
41
1
10
1.99884299903863
20
0.893081845090279
30
0
41
1
10
2.00043347935426
20
0.825521996777013
30
0
41
1
10
2.01532573420835
20
0.625328186075933
30
0
41
1
10
2.03860990038598
20
0.493439499769892
30
0
41
1
10
2.09071379571105
20
0.297587747174106
30
0
41
1
10
2.11100896909045
20
0.23256516474089
30
0
41
1
10
2.15605300281169
20
0.105417782164636
30
0
41
1
10
2.18087472563343
20
0.0429788293132845
30
0
41
1
10
2.26136965345424
20
-0.141360889066789
30
0
41
1
10
2.3230328469169
20
-0.260304055798571
30
0
41
1
10
2.45904862342971
20
-0.491916700731792
30
0
41
1
10
2.53375487033367
20
-0.604965421986037
30
0
41
1
10
2.69056406257172
20
-0.821862779759755
30
0
41
1
10
2.77293745433485
20
-0.926239417379861
30
0
41
1
10
3.02942002200942
20
-1.22968223073886
30
0
41
1
10
3.21275979355906
20
-1.4191926287607
30
0
41
1
10
3.50048548919477
20
-1.69005556992985
30
0
41
1
10
3.59878096870557
20
-1.77825491197868
30
0
41
1
10
3.79782502930596
20
-1.94960831394394
30
0
41
1
10
3.89854010260751
20
-2.03275491156199
30
0
41
1
10
4.0002578121582
20
-2.11373004710407
30
0
0
SPLINE
5
E7
100
AcDbEntity
8
1
62
256
6
ByLayer
370
18
48
1
60
0
100
AcDbSpline
70
4
71
3
72
8
73
4
40
0
40
0
40
0
40
0
40
1
40
1
40
1
40
1
41
1
10
4.00058411861028
20
-5.91946745810137
30
0
41
1
10
4.00034164623165
20
-5.91948971121715
30
0
41
1
10
4.00021989708767
20
-5.91950898746063
30
0
41
1
10
4.00021992489516
20
-5.91952519788515
30
0
0
SPLINE
5
E8
100
AcDbEntity
8
1
62
256
6
ByLayer
370
13
48
1
60
0
100
AcDbSpline
70
4
71
3
72
8
73
4
40
0
40
0
40
0
40
0
40
1
40
1
40
1
40
1
41
1
10
4.20166769018473
20
-5.77285711583639
30
0
41
1
10
4.57255352081546
20
-5.76367190925333
30
0
41
1
10
4.94302904288045
20
-5.74333785181099
30
0
41
1
10
5.31354092825188
20
-5.71205047053721
30
0
0
SPLINE
5
E9
100
AcDbEntity
8
1
62
256
6
ByLayer
370
18
48
1
60
0
100
AcDbSpline
70
4
71
3
72
18
73
14
40
0
40
0
40
0
40
0
40
0.0711023506730905
40
0.0711023506730905
40
0.188239648304287
40
0.188239648304287
40
0.656788838829066
40
0.656788838829066
40
0.891063434091457
40
0.891063434091457
40
0.949632082907054
40
0.949632082907054
40
1
40
1
40
1
40
1
41
1
10
52.6418626086283
20
0.0235921260221232
30
0
41
1
10
52.8526142671333
20
-0.0947616664749376
30
0
41
1
10
53.0636747485574
20
-0.213280503478558
30
0
41
1
10
53.6234429254851
20
-0.527188159066696
30
0
41
1
10
53.9732921399889
20
-0.722938052893198
30
0
41
1
10
55.7244992214255
20
-1.69516765248358
30
0
41
1
10
57.1030035655434
20
-2.43551778286809
30
0
41
1
10
59.1768029935874
20
-3.42580125810994
30
0
41
1
10
59.8689520546485
20
-3.73612589940095
30
0
41
1
10
60.7395421819168
20
-4.09238186221259
30
0
41
1
10
60.9139345311429
20
-4.16204868024928
30
0
41
1
10
61.2388979362031
20
-4.28854113004456
30
0
41
1
10
61.389550322953
20
-4.34586501494908
30
0
41
1
10
61.5401136102009
20
-4.40178493972721
30
0
0
SPLINE
5
EA
100
AcDbEntity
8
1
62
256
6
ByLayer
370
13
48
1
60
0
100
AcDbSpline
70
4
71
3
72
22
73
18
40
0
40
0
40
0
40
0
40
0.0077187976898172
40
0.0077187976898172
40
0.117972264613171
40
0.117972264613171
40
0.558986132306583
40
0.558986132306583
40
0.669239599229938
40
0.669239599229938
40
0.779493066153292
40
0.779493066153292
40
0.889746533076646
40
0.889746533076646
40
0.944873266538323
40
0.944873266538323
40
1
40
1
40
1
40
1
41
1
10
61.5401136103134
20
-4.40178493976902
30
0
41
1
10
61.5646278089418
20
-4.41088963035017
30
0
41
1
10
61.5891396456103
20
-4.41995710301984
30
0
41
1
10
61.9637042015285
20
-4.55795734896435
30
0
41
1
10
62.3123299342776
20
-4.67892431343941
30
0
41
1
10
64.050640390615
20
-5.2418741829394
30
0
41
1
10
65.4257747401275
20
-5.55860069485328
30
0
41
1
10
67.157723809739
20
-5.76534782384329
30
0
41
1
10
67.5048318638609
20
-5.79725369339951
30
0
41
1
10
68.2011719121938
20
-5.8416462029673
30
0
41
1
10
68.5508669076139
20
-5.85413848812272
30
0
41
1
10
69.2512163951682
20
-5.85913781314565
30
0
41
1
10
69.6009479584393
20
-5.85166466718772
30
0
41
1
10
70.1254477869134
20
-5.8255328706077
30
0
41
1
10
70.3002646722615
20
-5.81433598132875
30
0
41
1
10
70.6499618173402
20
-5.78698312559564
30
0
41
1
10
70.8248558845995
20
-5.77051343414976
30
0
41
1
10
70.9997985670935
20
-5.75223509385441
30
0
0
SPLINE
5
EB
100
AcDbEntity
8
1
62
256
6
ByLayer
370
18
48
1
60
0
100
AcDbSpline
70
4
71
3
72
10
73
6
40
0
40
0
40
0
40
0
40
0.5
40
0.5
40
1
40
1
40
1
40
1
41
1
10
72.2066836472833
20
1.74731487908377
30
0
41
1
10
71.9785389576032
20
1.72815231560833
30
0
41
1
10
71.7487702661194
20
1.71168261842726
30
0
41
1
10
71.2886741959123
20
1.68308498711883
30
0
41
1
10
71.0582590505529
20
1.6709995614809
30
0
41
1
10
70.8274916484757
20
1.66103797054885
30
0
0
SPLINE
5
EC
100
AcDbEntity
8
1
62
256
6
ByLayer
370
18
48
1
60
0
100
AcDbSpline
70
4
71
3
72
20
73
16
40
0
40
0
40
0
40
0
40
0.249999999999999
40
0.249999999999999
40
0.499999999999998
40
0.499999999999998
40
0.624999999999997
40
0.624999999999997
40
0.749999999999996
40
0.749999999999996
40
0.874999999999996
40
0.874999999999996
40
0.937499999999998
40
0.937499999999998
40
1
40
1
40
1
40
1
41
1
10
69.9246545044446
20
-4.4124812876513
30
0
41
1
10
69.6233553316281
20
-4.23065136071997
30
0
41
1
10
69.329001473906
20
-4.03106254335677
30
0
41
1
10
68.756015353905
20
-3.59168542349462
30
0
41
1
10
68.4773518719647
20
-3.35197694840986
30
0
41
1
10
68.073814634005
20
-2.95544575168745
30
0
41
1
10
67.9413892121802
20
-2.8166819839866
30
0
41
1
10
67.6836564505041
20
-2.52650113110104
30
0
41
1
10
67.5593033928688
20
-2.37622991796766
30
0
41
1
10
67.3206605462878
20
-2.06413599269467
30
0
41
1
10
67.2063743030424
20
-1.90230921049041
30
0
41
1
10
67.0436067201131
20
-1.64962628711513
30
0
41
1
10
66.9907940169658
20
-1.56374206334857
30
0
41
1
10
66.8882613775419
20
-1.3884234677931
30
0
41
1
10
66.8383980612832
20
-1.2987011274943
30
0
41
1
10
66.7907388950746
20
-1.20808376992258
30
0
0
SPLINE
5
ED
100
AcDbEntity
8
1
62
256
6
ByLayer
370
13
48
1
60
0
100
AcDbSpline
70
4
71
3
72
8
73
4
40
0
40
0
40
0
40
0
40
1
40
1
40
1
40
1
41
1
10
4.12620800993471
20
-5.91496106790862
30
0
41
1
10
4.12685497980783
20
-5.87453157882058
30
0
41
1
10
4.12750687301286
20
-5.83410231915963
30
0
41
1
10
4.12816370983933
20
-5.79367329797478
30
0
0
SPLINE
5
EE
100
AcDbEntity
8
1
62
256
6
ByLayer
370
18
48
1
60
0
100
AcDbSpline
70
4
71
3
72
14
73
10
40
0
40
0
40
0
40
0
40
0.25
40
0.25
40
0.5
40
0.5
40
0.75
40
0.75
40
1
40
1
40
1
40
1
41
1
10
71.0185064829087
20
-5.67326646821078
30
0
41
1
10
71.0205376871398
20
-5.67085318830664
30
0
41
1
10
71.0219104451331
20
-5.67025965156162
30
0
41
1
10
71.0229882799708
20
-5.67368153621712
30
0
41
1
10
71.0226434572525
20
-5.67781137901648
30
0
41
1
10
71.0195388341182
20
-5.69193950669663
30
0
41
1
10
71.0167664490937
20
-5.7018964601715
30
0
41
1
10
71.0093153859764
20
-5.72542623819265
30
0
41
1
10
71.0046755594454
20
-5.73888546008519
30
0
41
1
10
70.9997985671121
20
-5.75223509384787
30
0
0
SPLINE
5
EF
100
AcDbEntity
8
1
62
256
6
ByLayer
370
18
48
1
60
0
100
AcDbSpline
70
4
71
3
72
10
73
6
40
0
40
0
40
0
40
0
40
0.537625929723083
40
0.537625929723083
40
1
40
1
40
1
40
1
41
1
10
70.9472630103424
20
5.89586489395384
30
0
41
1
10
70.5977484328416
20
5.93292878055269
30
0
41
1
10
70.2482670174218
20
5.95990907650526
30
0
41
1
10
69.5975621967439
20
5.99121439963531
30
0
41
1
10
69.2964155940874
20
5.99814536509578
30
0
41
1
10
68.9963832969271
20
5.99757552451081
30
0
0
SPLINE
5
F0
100
AcDbEntity
8
1
62
256
6
ByLayer
370
18
48
1
60
0
100
AcDbSpline
70
4
71
3
72
46
73
42
40
0
40
0
40
0
40
0
40
0.0173307624251924
40
0.0173307624251924
40
0.0471086181092777
40
0.0471086181092777
40
0.166220040845617
40
0.166220040845617
40
0.225775752213787
40
0.225775752213787
40
0.255553607897872
40
0.255553607897872
40
0.285331463581957
40
0.285331463581957
40
0.315109319266042
40
0.315109319266042
40
0.344887174950127
40
0.344887174950127
40
0.404442886318297
40
0.404442886318297
40
0.523554309054636
40
0.523554309054636
40
0.553332164738722
40
0.553332164738722
40
0.583110020422807
40
0.583110020422807
40
0.642665731790978
40
0.642665731790978
40
0.702221443159149
40
0.702221443159149
40
0.731999298843234
40
0.731999298843234
40
0.761777154527319
40
0.761777154527319
40
0.88088857726366
40
0.88088857726366
40
0.94044428863183
40
0.94044428863183
40
0.970222144315915
40
0.970222144315915
40
1
40
1
40
1
40
1
41
1
10
39.1995606471548
20
-5.7404955347055
30
0
41
1
10
38.9961618554986
20
-5.77175872871294
30
0
41
1
10
38.7926944390546
20
-5.79972986828005
30
0
41
1
10
38.2391965869317
20
-5.86668349284599
30
0
41
1
10
37.8881374243466
20
-5.89918391985071
30
0
41
1
10
36.1396828215257
20
-6.01067077880592
30
0
41
1
10
34.7613960204309
20
-5.93755216085026
30
0
41
1
10
32.6840900456632
20
-5.59826076629588
30
0
41
1
10
31.9899881419261
20
-5.44691519445169
30
0
41
1
10
30.9412121298903
20
-5.1643855224722
30
0
41
1
10
30.5899691171692
20
-5.06081368024451
30
0
41
1
10
29.8898086790677
20
-4.83745555337507
30
0
41
1
10
29.5402131251224
20
-4.71751729724147
30
0
41
1
10
28.8411042067432
20
-4.46212365356061
30
0
41
1
10
28.4915585648641
20
-4.32670514114261
30
0
41
1
10
27.7916377225785
20
-4.04140491598616
30
0
41
1
10
27.4406301614345
20
-3.89119730934013
30
0
41
1
10
26.3900555042427
20
-3.42250133450102
30
0
41
1
10
25.6950434863107
20
-3.08717935410533
30
0
41
1
10
23.6156287591647
20
-2.03012348242643
30
0
41
1
10
22.2373663511951
20
-1.25640335442
30
0
41
1
10
20.4899606652864
20
-0.26095263139041
30
0
41
1
10
20.1384068227613
20
-0.0598842032646587
30
0
41
1
10
19.4389331521576
20
0.339758644607315
30
0
41
1
10
19.0904649026946
20
0.538583320744294
30
0
41
1
10
18.047418458958
20
1.12959909770453
30
0
41
1
10
17.3554733653224
20
1.51682399024818
30
0
41
1
10
15.9712613018133
20
2.26554312519966
30
0
41
1
10
15.2791074122483
20
2.62723516968495
30
0
41
1
10
14.2356845236918
20
3.14213313024459
30
0
41
1
10
13.8870018029705
20
3.30914495254143
30
0
41
1
10
13.1870848857423
20
3.6325671637328
30
0
41
1
10
12.8354836393029
20
3.78906961333868
30
0
41
1
10
11.0880306596523
20
4.53306112693659
30
0
41
1
10
9.70901987901965
20
5.01254763990383
30
0
41
1
10
7.6282805360313
20
5.51961717347166
30
0
41
1
10
6.93280576469223
20
5.6533952498296
30
0
41
1
10
5.88134413992623
20
5.79622016310137
30
0
41
1
10
5.52982608621369
20
5.83409085968174
30
0
41
1
10
4.82809243802396
20
5.88960886081995
30
0
41
1
10
4.47729269912207
20
5.90734492798904
30
0
41
1
10
4.12620800993474
20
5.91496106790885
30
0
0
SPLINE
5
F1
100
AcDbEntity
8
1
62
256
6
ByLayer
370
18
48
1
60
0
100
AcDbSpline
70
4
71
3
72
12
73
8
40
0
40
0
40
0
40
0
40
0.25
40
0.25
40
0.5
40
0.5
40
1
40
1
40
1
40
1
41
1
10
4.12620800993471
20
5.91496106790885
30
0
41
1
10
4.10821326038939
20
5.91535143107359
30
0
41
1
10
4.09184874182836
20
5.91579783104058
30
0
41
1
10
4.06227155330547
20
5.91672502843994
30
0
41
1
10
4.04908385732261
20
5.91720705424746
30
0
41
1
10
4.01652806527298
20
5.91851345152756
30
0
41
1
10
4.00340072853248
20
5.91920896124719
30
0
41
1
10
4.00058411861042
20
5.91946745809963
30
0
0
SPLINE
5
F2
100
AcDbEntity
8
1
62
256
6
ByLayer
370
18
48
1
60
0
100
AcDbSpline
70
4
71
3
72
24
73
20
40
0
40
0
40
0
40
0
40
0.124999999999999
40
0.124999999999999
40
0.249999999999997
40
0.249999999999997
40
0.374999999999995
40
0.374999999999995
40
0.499999999999994
40
0.499999999999994
40
0.624999999999993
40
0.624999999999993
40
0.687499999999994
40
0.687499999999994
40
0.749999999999995
40
0.749999999999995
40
0.874999999999998
40
0.874999999999998
40
1
40
1
40
1
40
1
41
1
10
71.0112226024117
20
5.80937383114366
30
0
41
1
10
71.0706078758593
20
5.66140145210611
30
0
41
1
10
71.1300952153688
20
5.51152567086285
30
0
41
1
10
71.2492021844755
20
5.20930706654218
30
0
41
1
10
71.3088060928438
20
5.0572574243854
30
0
41
1
10
71.4282364106473
20
4.74900877823734
30
0
41
1
10
71.4880459864474
20
4.59312370012614
30
0
41
1
10
71.6077941585025
20
4.27894747656651
30
0
41
1
10
71.6677140573018
20
4.12100501487893
30
0
41
1
10
71.7877569742711
20
3.80133217364983
30
0
41
1
10
71.8480570938485
20
3.63925504818513
30
0
41
1
10
71.9377201192259
20
3.39660219539059
30
0
41
1
10
71.9674897477491
20
3.31576022396698
30
0
41
1
10
72.0268743619352
20
3.15413171159102
30
0
41
1
10
72.0564772097806
20
3.07334952134028
30
0
41
1
10
72.1447749872479
20
2.83118603051688
30
0
41
1
10
72.2030209968577
20
2.66996564165874
30
0
41
1
10
72.3185293720385
20
2.34787744312038
30
0
41
1
10
72.3758492448007
20
2.18698902045682
30
0
41
1
10
72.4327900818567
20
2.02623646004872
30
0
0
SPLINE
5
F3
100
AcDbEntity
8
1
62
256
6
ByLayer
370
13
48
1
60
0
100
AcDbSpline
70
4
71
3
72
8
73
4
40
0
40
0
40
0
40
0
40
1
40
1
40
1
40
1
41
1
10
4.1281637098393
20
-5.79367329797478
30
0
41
1
10
4.15122044443117
20
-5.78033654398311
30
0
41
1
10
4.17603456783485
20
-5.77349193524634
30
0
41
1
10
4.20166769018473
20
-5.77285711583639
30
0
0
SPLINE
5
F4
100
AcDbEntity
8
1
62
256
6
ByLayer
370
13
48
1
60
0
100
AcDbSpline
70
4
71
3
72
12
73
8
40
0
40
0
40
0
40
0
40
0.500000000000002
40
0.500000000000002
40
0.750000000000001
40
0.750000000000001
40
1
40
1
40
1
40
1
41
1
10
4.000584118608
20
-5.91946745809329
30
0
41
1
10
4.00332080800143
20
-5.89472099322543
30
0
41
1
10
4.01573659158549
20
-5.87023915200322
30
0
41
1
10
4.04777913460975
20
-5.83765554750107
30
0
41
1
10
4.06099240779565
20
-5.82723447961854
30
0
41
1
10
4.09148824582695
20
-5.80869624712759
30
0
41
1
10
4.10868825490232
20
-5.80053367112538
30
0
41
1
10
4.1281637098393
20
-5.79367329797478
30
0
0
SPLINE
5
F5
100
AcDbEntity
8
1
62
256
6
ByLayer
370
18
48
1
60
0
100
AcDbSpline
70
4
71
3
72
16
73
12
40
0
40
0
40
0
40
0
40
0.249999999999998
40
0.249999999999998
40
0.374999999999997
40
0.374999999999997
40
0.499999999999996
40
0.499999999999996
40
0.749999999999998
40
0.749999999999998
40
1
40
1
40
1
40
1
41
1
10
4.25125931694035
20
-2.01666666323291
30
0
41
1
10
4.22397535167158
20
-1.99440017884524
30
0
41
1
10
4.19460025685939
20
-1.97574173742961
30
0
41
1
10
4.14888015111461
20
-1.95976177520646
30
0
41
1
10
4.13330024367266
20
-1.95652525129734
30
0
41
1
10
4.10334169475499
20
-1.95584149247256
30
0
41
1
10
4.08885453163936
20
-1.95844780669981
30
0
41
1
10
4.05018995631059
20
-1.97492554444617
30
0
41
1
10
4.03098001764067
20
-1.99754049949462
30
0
41
1
10
4.00705944012455
20
-2.0509051548064
30
0
41
1
10
4.00148569804807
20
-2.08171028730135
30
0
41
1
10
4.00025781216635
20
-2.11373004708892
30
0
0
SPLINE
5
F6
100
AcDbEntity
8
SK1
62
256
6
ByLayer
370
18
48
1
60
0
100
AcDbSpline
70
4
71
3
72
16
73
12
40
0
40
0
40
0
40
0
40
0.201122792518932
40
0.201122792518932
40
0.467415195012622
40
0.467415195012622
40
0.733707597506312
40
0.733707597506312
40
0.866853798753156
40
0.866853798753156
40
1
40
1
40
1
40
1
41
1
10
-45
20
1.96894157964297
30
0
41
1
10
-45
20
1.9776212509812
30
0
41
1
10
-45
20
1.98120998068151
30
0
41
1
10
-45
20
1.97724370566414
30
0
41
1
10
-45
20
1.96591838654805
30
0
41
1
10
-45
20
1.9251632107499
30
0
41
1
10
-45
20
1.8964305727666
30
0
41
1
10
-45
20
1.84097105734068
30
0
41
1
10
-45
20
1.82026925972775
30
0
41
1
10
-45
20
1.77576329138387
30
0
41
1
10
-45
20
1.75186331844085
30
0
41
1
10
-45
20
1.72633987078717
30
0
0
SPLINE
5
F7
100
AcDbEntity
8
SK1
62
256
6
ByLayer
370
18
48
1
60
0
100
AcDbSpline
70
4
71
3
72
8
73
4
40
0
40
0
40
0
40
0
40
1
40
1
40
1
40
1
41
1
10
-44.25
20
2.35183112061907
30
0
41
1
10
-44.5004608308156
20
2.27996544043728
30
0
41
1
10
-44.7505432593797
20
2.20799711848412
30
0
41
1
10
-45
20
2.13585907841056
30
0
0
SPLINE
5
F8
100
AcDbEntity
8
SK1
62
256
6
ByLayer
370
18
48
1
60
0
100
AcDbSpline
70
4
71
3
72
8
73
4
40
0
40
0
40
0
40
0
40
1
40
1
40
1
40
1
41
1
10
-45
20
0.21659115562673
30
0
41
1
10
-44.7505379939906
20
0.288730718348461
30
0
41
1
10
-44.5004563465392
20
0.360698804343969
30
0
41
1
10
-44.25
20
0.432563197835208
30
0
0
SPLINE
5
F9
100
AcDbEntity
8
SK1
62
256
6
ByLayer
370
18
48
1
60
0
100
AcDbSpline
70
4
71
3
72
12
73
8
40
0
40
0
40
0
40
0
40
0.249999999999998
40
0.249999999999998
40
0.499999999999995
40
0.499999999999995
40
1
40
1
40
1
40
1
41
1
10
-44.15
20
2.2898287433429
30
0
41
1
10
-44.15
20
2.30491929616366
30
0
41
1
10
-44.1541941749322
20
2.3177548367859
30
0
41
1
10
-44.1670526877135
20
2.337315887763
30
0
41
1
10
-44.175534353051
20
2.34415310479625
30
0
41
1
10
-44.2039198806883
20
2.35799422270782
30
0
41
1
10
-44.2265892999413
20
2.35854844195742
30
0
41
1
10
-44.25
20
2.3518311206191
30
0
0
SPLINE
5
FA
100
AcDbEntity
8
SK1
62
256
6
ByLayer
370
18
48
1
60
0
100
AcDbSpline
70
4
71
3
72
12
73
8
40
0
40
0
40
0
40
0
40
0.5
40
0.5
40
0.75
40
0.75
40
1
40
1
40
1
40
1
41
1
10
-44.25
20
0.432563197835179
30
0
41
1
10
-44.2265845479658
20
0.439281882675914
30
0
41
1
10
-44.2038584068652
20
0.453844557738279
30
0
41
1
10
-44.1756851307021
20
0.486309570320827
30
0
41
1
10
-44.1670829075058
20
0.499261444790704
30
0
41
1
10
-44.1542477010067
20
0.528762888190528
30
0
41
1
10
-44.15
20
0.54577137414006
30
0
41
1
10
-44.15
20
0.56248761283743
30
0
0
SPLINE
5
FB
100
AcDbEntity
8
SK1
62
256
6
ByLayer
370
18
48
1
60
0
100
AcDbSpline
70
4
71
3
72
26
73
22
40
0
40
0
40
0
40
0
40
0.125
40
0.125
40
0.25
40
0.25
40
0.375
40
0.375
40
0.4375
40
0.4375
40
0.5
40
0.5
40
0.5625
40
0.5625
40
0.625
40
0.625
40
0.75
40
0.75
40
0.875
40
0.875
40
1
40
1
40
1
40
1
41
1
10
-45.0000000000043
20
1.72633987078811
30
0
41
1
10
-44.9586705960208
20
1.73293698389369
30
0
41
1
10
-44.91835628541
20
1.74001438482276
30
0
41
1
10
-44.8414227745455
20
1.75546077997865
30
0
41
1
10
-44.8046689451291
20
1.76382470779438
30
0
41
1
10
-44.7370466674317
20
1.78275402549681
30
0
41
1
10
-44.7065073548851
20
1.79323544730676
30
0
41
1
10
-44.6721067672038
20
1.81091446952814
30
0
41
1
10
-44.6627897932804
20
1.81702575118186
30
0
41
1
10
-44.6495408482527
20
1.82979504393995
30
0
41
1
10
-44.6456591474192
20
1.83656443275356
30
0
41
1
10
-44.644783025674
20
1.84994014981785
30
0
41
1
10
-44.6477205283756
20
1.8566819595874
30
0
41
1
10
-44.6597409211666
20
1.86971478364933
30
0
41
1
10
-44.6686453523043
20
1.87593292068206
30
0
41
1
10
-44.7023475783464
20
1.89386706405736
30
0
41
1
10
-44.7324757246135
20
1.90419412646722
30
0
41
1
10
-44.8009430852978
20
1.92300386991215
30
0
41
1
10
-44.8383593399126
20
1.93118251587566
30
0
41
1
10
-44.9166850057033
20
1.94605853653229
30
0
41
1
10
-44.9577524549629
20
1.95275362726943
30
0
41
1
10
-44.9999999999999
20
1.95890757303175
30
0
0
SPLINE
5
FC
100
AcDbEntity
8
1
62
256
6
ByLayer
370
18
48
1
60
0
100
AcDbSpline
70
4
71
3
72
30
73
26
40
0
40
0
40
0
40
0
40
0.0604946903217098
40
0.11029081352401
40
0.143357544918497
40
0.163016075054903
40
0.185545251731853
40
0.238322467498233
40
0.282532962284424
40
0.323461456065964
40
0.372270630981066
40
0.420659687317999
40
0.45542949190137
40
0.491798484314445
40
0.551797411760862
40
0.606076226034414
40
0.648510316011701
40
0.696021400218988
40
0.742099583870155
40
0.781467666387419
40
0.842990294541836
40
0.904229706833919
40
0.932948014423478
40
0.974946311598775
40
1
40
1
40
1
40
1
41
1
10
36.5650148105284
20
-5.71870315433981
30
0
41
1
10
36.8011967859911
20
-5.7190291453195
30
0
41
1
10
37.2318453699773
20
-5.71959710476455
30
0
41
1
10
37.7918133143358
20
-5.72021642243803
30
0
41
1
10
38.192247537833
20
-5.72069290359144
30
0
41
1
10
38.4860862614778
20
-5.72115368089021
30
0
41
1
10
38.8569996468852
20
-5.72173400917561
30
0
41
1
10
39.3238023554977
20
-5.72240898530279
30
0
41
1
10
39.862491159487
20
-5.72277787837908
30
0
41
1
10
40.3856622248543
20
-5.72337058143771
30
0
41
1
10
40.9251669437721
20
-5.72431211726214
30
0
41
1
10
41.44061888694
20
-5.72477136037642
30
0
41
1
10
41.9074688149818
20
-5.72494658164953
30
0
41
1
10
42.4196786929163
20
-5.72548753757729
30
0
41
1
10
43.0080822287223
20
-5.7268630762201
30
0
41
1
10
43.6201771589857
20
-5.72720630592289
30
0
41
1
10
44.1834944693576
20
-5.72712820588828
30
0
41
1
10
44.7147836461399
20
-5.72862572314651
30
0
41
1
10
45.2340975123141
20
-5.72940453708154
30
0
41
1
10
45.8081393157195
20
-5.72943603964922
30
0
41
1
10
46.4413956727174
20
-5.72950947687443
30
0
41
1
10
47.0330686139464
20
-5.73145505435028
30
0
41
1
10
47.5484010790363
20
-5.73158707690058
30
0
41
1
10
47.9224890144498
20
-5.73168496495481
30
0
41
1
10
48.184376905901
20
-5.73221486121648
30
0
41
1
10
48.2822307751252
20
-5.73245253322438
30
0
0
SPLINE
5
FD
100
AcDbEntity
8
1
62
256
6
ByLayer
370
18
48
1
60
0
100
AcDbSpline
70
4
71
3
72
26
73
22
40
0
40
0
40
0
40
0
40
0.0595401855301911
40
0.122705348968305
40
0.177085581542882
40
0.225571481076796
40
0.280829171789686
40
0.339933344170969
40
0.40038245140328
40
0.457910397961269
40
0.503749323636397
40
0.5478005234109
40
0.615303196684071
40
0.675170469267675
40
0.726079628652201
40
0.786476533242143
40
0.852319894277097
40
0.903249736370135
40
0.932843831972635
40
0.968393269455217
40
1
40
1
40
1
40
1
41
1
10
15.7096111232978
20
5.69410414723825
30
0
41
1
10
15.5276235957281
20
5.6939102535342
30
0
41
1
10
15.1528321624077
20
5.69350533145138
30
0
41
1
10
14.6139134180727
20
5.69352291631694
30
0
41
1
10
14.1072671960986
20
5.69244723546601
30
0
41
1
10
13.6244099391058
20
5.6917185947685
30
0
41
1
10
13.1272453386787
20
5.69144310209697
30
0
41
1
10
12.593473995586
20
5.69103718826324
30
0
41
1
10
12.0527922389882
20
5.68996543882034
30
0
41
1
10
11.5526080785746
20
5.68927595189606
30
0
41
1
10
11.1024915857055
20
5.6892201581004
30
0
41
1
10
10.6219223555167
20
5.68919038636099
30
0
41
1
10
10.0985126533233
20
5.68858089173833
30
0
41
1
10
9.5541823992711
20
5.68772019968492
30
0
41
1
10
9.03260152061259
20
5.68697793557314
30
0
41
1
10
8.49126879190493
20
5.68633540290463
30
0
41
1
10
7.95087021575463
20
5.68490700147953
30
0
41
1
10
7.50422521749235
20
5.68431961283113
30
0
41
1
10
7.14979914232089
20
5.68397157678146
30
0
41
1
10
6.85443856924931
20
5.68368575879964
30
0
41
1
10
6.64928861717723
20
5.68350440686291
30
0
41
1
10
6.55279858433218
20
5.68341414537107
30
0
0
SPLINE
5
FE
100
AcDbEntity
8
1
62
256
6
ByLayer
370
18
48
1
60
0
100
AcDbSpline
70
4
71
3
72
24
73
20
40
0
40
0
40
0
40
0
40
0.0040807776204186
40
0.029485785946199
40
0.0838151803377152
40
0.149382928531188
40
0.242556081298202
40
0.321137684437173
40
0.387178338142858
40
0.452344421650161
40
0.537266465059569
40
0.612130562739327
40
0.683269531300958
40
0.741126238331836
40
0.782668594411767
40
0.834275348949622
40
0.877591324305889
40
0.941919537337844
40
1
40
1
40
1
40
1
41
1
10
20.294902058825
20
-1.41161217804628
30
0
41
1
10
20.2949572302495
20
-1.41168289557953
30
0
41
1
10
20.302112810712
20
-1.41271893313686
30
0
41
1
10
20.3947920401272
20
-1.42176166883849
30
0
41
1
10
20.5848489123555
20
-1.44385826547193
30
0
41
1
10
20.8708245345268
20
-1.4857245681381
30
0
41
1
10
21.1425187916629
20
-1.5350967037711
30
0
41
1
10
21.4045213110045
20
-1.59435746923549
30
0
41
1
10
21.680052182508
20
-1.66549014604627
30
0
41
1
10
21.9721447374872
20
-1.74962393545698
30
0
41
1
10
22.3169578619707
20
-1.8613547946677
30
0
41
1
10
22.5889131514259
20
-1.95830262278201
30
0
41
1
10
22.8534864829579
20
-2.06098094104368
30
0
41
1
10
23.1090851372122
20
-2.16676018075765
30
0
41
1
10
23.3427081148599
20
-2.26791408292053
30
0
41
1
10
23.5638879454156
20
-2.36720457786777
30
0
41
1
10
23.8261538455988
20
-2.48921412442843
30
0
41
1
10
24.0970218269057
20
-2.61894145708575
30
0
41
1
10
24.2977159853242
20
-2.71948245863942
30
0
41
1
10
24.3928992541885
20
-2.76806350203682
30
0
0
SPLINE
5
FF
100
AcDbEntity
8
1
62
256
6
ByLayer
370
18
48
1
60
0
100
AcDbSpline
70
4
71
3
72
23
73
19
40
0
40
0
40
0
40
0
40
0.006189372560419
40
0.022155845929373
40
0.0686307141288056
40
0.118939022944603
40
0.205917145688041
40
0.291972845570894
40
0.399135785703155
40
0.516801065184961
40
0.600004819622031
40
0.661341274338187
40
0.713376679213644
40
0.757985696796784
40
0.813421730653057
40
0.861902385598328
40
0.930922257510453
40
1
40
1
40
1
40
1
41
1
10
52.9517078680399
20
-1.41124760086669
30
0
41
1
10
52.9517274381567
20
-1.41130285938308
30
0
41
1
10
52.9575993726645
20
-1.41199026635769
30
0
41
1
10
53.0154891684683
20
-1.41774816477269
30
0
41
1
10
53.1656518634971
20
-1.43461846696911
30
0
41
1
10
53.4004814257901
20
-1.46715312013663
30
0
41
1
10
53.6987700627002
20
-1.51775654342219
30
0
41
1
10
54.0804904593401
20
-1.59900137141361
30
0
41
1
10
54.392030670913
20
-1.67984249656914
30
0
41
1
10
54.8150886964604
20
-1.80893277546142
30
0
41
1
10
55.2151397421703
20
-1.95099659322972
30
0
41
1
10
55.4961947618955
20
-2.058591143303
30
0
41
1
10
55.709335561199
20
-2.14492331220609
30
0
41
1
10
55.9239652490804
20
-2.23647699664363
30
0
41
1
10
56.1428201813639
20
-2.33372596250896
30
0
41
1
10
56.4212538997652
20
-2.46247199211425
30
0
41
1
10
56.7325849915154
20
-2.61201141066468
30
0
41
1
10
56.9662192680136
20
-2.72960971336411
30
0
41
1
10
57.0844122203686
20
-2.79035875597341
30
0
0
SPLINE
5
100
100
AcDbEntity
8
1
62
256
6
ByLayer
370
18
48
1
60
0
100
AcDbSpline
70
4
71
3
72
27
73
23
40
0
40
0
40
0
40
0
40
0.0439624780612123
40
0.108228685861214
40
0.158705781292777
40
0.206908765489841
40
0.269503840179159
40
0.32985768157332
40
0.37071906215021
40
0.405561968115617
40
0.45973386158927
40
0.524164475502486
40
0.576473453414563
40
0.624498954851161
40
0.685486766683502
40
0.742145920740955
40
0.784955466338954
40
0.833735383279227
40
0.875484798795302
40
0.921833122063498
40
0.972804544592086
40
1
40
1
40
1
40
1
41
1
10
48.473759582108
20
5.73168955675735
30
0
41
1
10
48.3378520472832
20
5.73143562050356
30
0
41
1
10
48.0039579533744
20
5.73096049922958
30
0
41
1
10
47.5268439588845
20
5.73176508958798
30
0
41
1
10
47.0213217755521
20
5.7314214780686
30
0
41
1
10
46.5289922728714
20
5.72981652218698
30
0
41
1
10
46.0002044741103
20
5.72910867330415
30
0
41
1
10
45.4968493451467
20
5.72950514274007
30
0
41
1
10
45.0778712623039
20
5.72919173242502
30
0
41
1
10
44.6778626015972
20
5.72850528593486
30
0
41
1
10
44.2052830360852
20
5.72711993489165
30
0
41
1
10
43.6789019999852
20
5.72722417928321
30
0
41
1
10
43.1714542514209
20
5.72690904510185
30
0
41
1
10
42.6746070204702
20
5.72623182890416
30
0
41
1
10
42.1643802328895
20
5.72501757224947
30
0
41
1
10
41.6701940388393
20
5.72490626084505
30
0
41
1
10
41.2136224171737
20
5.72456700540568
30
0
41
1
10
40.8029588558647
20
5.72412259592627
30
0
41
1
10
40.3814104064032
20
5.72339293562092
30
0
41
1
10
39.9530968100505
20
5.72283456979127
30
0
41
1
10
39.5696208938342
20
5.72260171349862
30
0
41
1
10
39.328871089536
20
5.72234634935427
30
0
41
1
10
39.2451135003751
20
5.72224685203244
30
0
0
SPLINE
5
101
100
AcDbEntity
8
1
62
256
6
ByLayer
370
18
48
1
60
0
100
AcDbSpline
70
4
71
3
72
10
73
6
40
0
40
0
40
0
40
0
40
0.363380744243944
40
0.725701616495062
40
1
40
1
40
1
40
1
41
1
10
69.219942312942
20
-5.75793900270156
30
0
41
1
10
69.4244691709519
20
-5.75810364584032
30
0
41
1
10
69.8329411413347
20
-5.75848136462042
30
0
41
1
10
70.3958932548761
20
-5.75904971581565
30
0
41
1
10
70.7542501516775
20
-5.75958373872137
30
0
41
1
10
70.9086542176343
20
-5.75983600479699
30
0
0
SPLINE
5
102
100
AcDbEntity
8
1
62
256
6
ByLayer
370
18
48
1
60
0
100
AcDbSpline
70
4
71
3
72
33
73
29
40
0
40
0
40
0
40
0
40
0.0570084184298997
40
0.117514655517893
40
0.159684344093393
40
0.192596470861425
40
0.236549485433183
40
0.288103072140176
40
0.324516661922399
40
0.361298373233501
40
0.393208233317131
40
0.430087310303291
40
0.472934219709738
40
0.517009198851052
40
0.547701427611047
40
0.575111134314241
40
0.612633944885164
40
0.658983128517524
40
0.701477306599361
40
0.737710338251222
40
0.778443937456539
40
0.818860269505167
40
0.858761686167063
40
0.889969369781048
40
0.912966102136714
40
0.94245460887521
40
0.985556031230923
40
1
40
1
40
1
40
1
41
1
10
4.25048805432215
20
-5.67284226315732
30
0
41
1
10
4.46306880054058
20
-5.6753527893066
30
0
41
1
10
4.9020775528324
20
-5.67956565157897
30
0
41
1
10
5.5010486178316
20
-5.68198634112204
30
0
41
1
10
6.01105653878159
20
-5.68291921998673
30
0
41
1
10
6.46265769869706
20
-5.68331807436428
30
0
41
1
10
6.94940362216019
20
-5.68378438086307
30
0
41
1
10
7.44958304712537
20
-5.68422739799047
30
0
41
1
10
7.92251100964808
20
-5.68491710156641
30
0
41
1
10
8.32099184492668
20
-5.6860373618016
30
0
41
1
10
8.72122852859496
20
-5.68681518992693
30
0
41
1
10
9.14446189731981
20
-5.68729940095926
30
0
41
1
10
9.61382167774232
20
-5.68779317706517
30
0
41
1
10
10.0597113860737
20
-5.68850801408027
30
0
41
1
10
10.447087068467
20
-5.68900920133549
30
0
41
1
10
10.8096124131668
20
-5.68921248285181
30
0
41
1
10
11.2315050030266
20
-5.6892086629876
30
0
41
1
10
11.7105877560101
20
-5.68940859988922
30
0
41
1
10
12.1847762342468
20
-5.69024682768938
30
0
41
1
10
12.6376771345764
20
-5.69105652689129
30
0
41
1
10
13.0827016239458
20
-5.6914197011973
30
0
41
1
10
13.5416345554763
20
-5.69165146761213
30
0
41
1
10
13.96444913751
20
-5.6922245251975
30
0
41
1
10
14.3212241273417
20
-5.69288869246944
30
0
41
1
10
14.638471292961
20
-5.69341445099488
30
0
41
1
10
15.0008586879489
20
-5.69380722666347
30
0
41
1
10
15.3308250079081
20
-5.69383668428307
30
0
41
1
10
15.5489904045258
20
-5.69411976870305
30
0
41
1
10
15.6037501575916
20
-5.69419567790121
30
0
0
SPLINE
5
103
100
AcDbEntity
8
1
62
256
6
ByLayer
370
18
48
1
60
0
100
AcDbSpline
70
4
71
3
72
10
73
6
40
0
40
0
40
0
40
0
40
0.107369902933553
40
0.348085978190092
40
1
40
1
40
1
40
1
41
1
10
64.2300903912345
20
0.200879879705894
30
0
41
1
10
64.2296744712084
20
0.201087495227029
30
0
41
1
10
64.2267677450109
20
0.202559247776691
30
0
41
1
10
64.1950030031855
20
0.219230727480323
30
0
41
1
10
64.1561626461466
20
0.240785424801857
30
0
41
1
10
64.1173194392922
20
0.262557654003501
30
0
0
SPLINE
5
104
100
AcDbEntity
8
1
62
256
6
ByLayer
370
18
48
1
60
0
100
AcDbSpline
70
4
71
3
72
10
73
6
40
0
40
0
40
0
40
0
40
0.291073629857729
40
0.648553588338549
40
1
40
1
40
1
40
1
41
1
10
31.5938339390676
20
0.194246122525385
30
0
41
1
10
31.5938524213842
20
0.194310452111324
30
0
41
1
10
31.5852143442051
20
0.198764651331544
30
0
41
1
10
31.5390298377796
20
0.222975222062132
30
0
41
1
10
31.4976907904129
20
0.245608869844631
30
0
41
1
10
31.4736943390848
20
0.258830257629398
30
0
0
SPLINE
5
105
100
AcDbEntity
8
1
62
256
6
ByLayer
370
18
48
1
60
0
100
AcDbSpline
70
4
71
1
72
4
73
2
40
0
40
0
40
1
40
1
41
1
10
52.682587075275
20
0.0007011300490092
30
0
41
1
10
52.6825735619541
20
0.0007124088545254
30
0
0
LINE
5
7B
100
AcDbEntity
8
1
62
256
6
ByLayer
370
18
48
1
60
0
100
AcDbLine
10
4.250496
20
-5.679918
30
0
11
4.250535
21
-5.6732
31
0
39
0
210
0
220
0
230
1
0
LINE
5
7C
100
AcDbEntity
8
1
62
256
6
ByLayer
370
18
48
1
60
0
100
AcDbLine
10
72.986839
20
0.075759
30
0
11
72.574248
21
1.581821
31
0
39
0
210
0
220
0
230
1
0
LINE
5
7D
100
AcDbEntity
8
1
62
256
6
ByLayer
370
18
48
1
60
0
100
AcDbLine
10
0.8
20
5.915747
30
0
11
0.8
21
-5.915747
31
0
39
0
210
0
220
0
230
1
0
LINE
5
7E
100
AcDbEntity
8
1
62
256
6
ByLayer
370
18
48
1
60
0
100
AcDbLine
10
71.570597
20
-3.898488
30
0
11
70.893629
21
-5.758443
31
0
39
0
210
0
220
0
230
1
0
LINE
5
7F
100
AcDbEntity
8
1
62
256
6
ByLayer
370
18
48
1
60
0
100
AcDbLine
10
72.999328
20
-0.031563
30
0
11
73
21
-0.028764
31
0
39
0
210
0
220
0
230
1
0
LINE
5
80
100
AcDbEntity
8
1
62
256
6
ByLayer
370
18
48
1
60
0
100
AcDbLine
10
72.986839
20
-0.075759
30
0
11
72.574248
21
-1.581821
31
0
39
0
210
0
220
0
230
1
0
LINE
5
81
100
AcDbEntity
8
1
62
256
6
ByLayer
370
18
48
1
60
0
100
AcDbLine
10
73
20
0.028764
30
0
11
73
21
-0.028764
31
0
39
0
210
0
220
0
230
1
0
LINE
5
82
100
AcDbEntity
8
1
62
256
6
ByLayer
370
13
48
1
60
0
100
AcDbLine
10
72.929117
20
-0.17267
30
0
11
70.713408
21
1.453987
31
0
39
0
210
0
220
0
230
1
0
LINE
5
83
100
AcDbEntity
8
1
62
256
6
ByLayer
370
18
48
1
60
0
100
AcDbLine
10
0
20
-6
30
0
11
0
21
6
31
0
39
0
210
0
220
0
230
1
0
LINE
5
84
100
AcDbEntity
8
1
62
256
6
ByLayer
370
18
48
1
60
0
100
AcDbLine
10
72.908931
20
-0.221447
30
0
11
69.924655
21
-4.412481
31
0
39
0
210
0
220
0
230
1
0
LINE
5
85
100
AcDbEntity
8
1
62
256
6
ByLayer
370
13
48
1
60
0
100
AcDbLine
10
72.986839
20
0.075759
30
0
11
70.827492
21
1.661038
31
0
39
0
210
0
220
0
230
1
0
LINE
5
86
100
AcDbEntity
8
1
62
256
6
ByLayer
370
18
48
1
60
0
100
AcDbLine
10
72.908931
20
-0.221447
30
0
11
72.151632
21
-2.30211
31
0
39
0
210
0
220
0
230
1
0
LINE
5
87
100
AcDbEntity
8
1
62
256
6
ByLayer
370
18
48
1
60
0
100
AcDbLine
10
73
20
0.028764
30
0
11
72.999253
21
0.026712
31
0
39
0
210
0
220
0
230
1
0
LINE
5
88
100
AcDbEntity
8
1
62
256
6
ByLayer
370
18
48
1
60
0
100
AcDbLine
10
72.908931
20
-0.221447
30
0
11
72.929117
21
-0.17267
31
0
39
0
210
0
220
0
230
1
0
LINE
5
89
100
AcDbEntity
8
1
62
256
6
ByLayer
370
18
48
1
60
0
100
AcDbLine
10
73
20
0.028764
30
0
11
72.999328
21
0.031563
31
0
39
0
210
0
220
0
230
1
0
LINE
5
8A
100
AcDbEntity
8
SK1
62
256
6
ByLayer
370
18
48
1
60
0
100
AcDbLine
10
-45
20
1.72634
30
0
11
-45
21
0.216591
31
0
39
0
210
0
220
0
230
1
0
LINE
5
8C
100
AcDbEntity
8
SK1
62
256
6
ByLayer
370
18
48
1
60
0
100
AcDbLine
10
-44.15
20
0.562488
30
0
11
-44.15
21
2.289829
31
0
39
0
210
0
220
0
230
1
0
LINE
5
8D
100
AcDbEntity
8
SK1
62
256
6
ByLayer
370
18
48
1
60
0
100
AcDbLine
10
0
20
-6
30
0
11
0
21
6
31
0
39
0
210
0
220
0
230
1
0
LINE
5
8E
100
AcDbEntity
8
SK1
62
256
6
ByLayer
370
18
48
1
60
0
100
AcDbLine
10
-45
20
4.3
30
0
11
-45
21
2.135859
31
0
39
0
210
0
220
0
230
1
0
LINE
5
8F
100
AcDbEntity
8
SK1
62
256
6
ByLayer
370
18
48
1
60
0
100
AcDbLine
10
-45
20
2.135859
30
0
11
-45
21
1.958908
31
0
39
0
210
0
220
0
230
1
0
LINE
5
90
100
AcDbEntity
8
SK1
62
256
6
ByLayer
370
13
48
1
60
0
100
AcDbLine
10
-44.25
20
2.351831
30
0
11
-44.25
21
0.4326
31
0
39
0
210
0
220
0
230
1
0
LINE
5
91
100
AcDbEntity
8
SK1
62
256
6
ByLayer
370
18
48
1
60
0
100
AcDbLine
10
-43.3
20
6
30
0
11
-43.3
21
-6
31
0
39
0
210
0
220
0
230
1
0
LINE
5
92
100
AcDbEntity
8
SK1
62
256
6
ByLayer
370
18
48
1
60
0
100
AcDbLine
10
-45
20
0.216591
30
0
11
-45
21
-4.3
31
0
39
0
210
0
220
0
230
1
0
LINE
5
93
100
AcDbEntity
8
80
62
256
6
ByLayer
370
18
48
1
60
0
100
AcDbLine
10
0
20
0
30
0
11
-5
21
0
31
0
39
0
210
0
220
0
230
1
0
LINE
5
94
100
AcDbEntity
8
4
62
256
6
ByLayer
370
18
48
0.05
60
0
100
AcDbLine
10
73
20
0
30
0
11
0
21
0
31
0
39
0
210
0
220
0
230
1
0
LINE
5
96
100
AcDbEntity
8
SK4
62
256
6
ByLayer
370
18
48
0.05
60
0
100
AcDbLine
10
78
20
0
30
0
11
-50
21
0
31
0
39
0
210
0
220
0
230
1
0
LINE
5
98
100
AcDbEntity
8
SK1
62
256
6
ByLayer
370
18
48
1
60
0
100
AcDbLine
10
-45
20
-4.3
30
0
11
-43.3
21
-6
31
0
39
0
210
0
220
0
230
1
0
LINE
5
99
100
AcDbEntity
8
SK1
62
256
6
ByLayer
370
18
48
1
60
0
100
AcDbLine
10
-43.3
20
6
30
0
11
-45
21
4.3
31
0
39
0
210
0
220
0
230
1
0
LINE
5
9A
100
AcDbEntity
8
SK1
62
256
6
ByLayer
370
18
48
1
60
0
100
AcDbLine
10
-43.3
20
-6
30
0
11
0
21
-6
31
0
39
0
210
0
220
0
230
1
0
LINE
5
9B
100
AcDbEntity
8
SK1
62
256
6
ByLayer
370
18
48
1
60
0
100
AcDbLine
10
0
20
6
30
0
11
-43.3
21
6
31
0
39
0
210
0
220
0
230
1
0
LINE
5
9C
100
AcDbEntity
8
1
62
256
6
ByLayer
370
18
48
1
60
0
100
AcDbLine
10
0.8
20
5.915747
30
0
11
0
21
6
31
0
39
0
210
0
220
0
230
1
0
LINE
5
9D
100
AcDbEntity
8
1
62
256
6
ByLayer
370
18
48
1
60
0
100
AcDbLine
10
0
20
-6
30
0
11
0.8
21
-5.915747
31
0
39
0
210
0
220
0
230
1
0
LINE
5
9E
100
AcDbEntity
8
1
62
256
6
ByLayer
370
18
48
1
60
0
100
AcDbLine
10
0.8
20
-5.915747
30
0
11
4.000219
21
-5.919587
31
0
39
0
210
0
220
0
230
1
0
LINE
5
9F
100
AcDbEntity
8
1
62
256
6
ByLayer
370
18
48
1
60
0
100
AcDbLine
10
35.695998
20
-5.957622
30
0
11
36.358396
21
-5.958417
31
0
39
0
210
0
220
0
230
1
0
LINE
5
A0
100
AcDbEntity
8
1
62
256
6
ByLayer
370
18
48
1
60
0
100
AcDbLine
10
68.383964
20
-5.996847
30
0
11
69.00969
21
-5.997598
31
0
39
0
210
0
220
0
230
1
0
LINE
5
A1
100
AcDbEntity
8
1
62
256
6
ByLayer
370
18
48
1
60
0
100
AcDbLine
10
69.009604
20
5.997598
30
0
11
68.383964
21
5.996847
31
0
39
0
210
0
220
0
230
1
0
LINE
5
A2
100
AcDbEntity
8
1
62
256
6
ByLayer
370
18
48
1
60
0
100
AcDbLine
10
36.35823
20
5.958416
30
0
11
35.695998
21
5.957622
31
0
39
0
210
0
220
0
230
1
0
LINE
5
A3
100
AcDbEntity
8
1
62
256
6
ByLayer
370
18
48
1
60
0
100
AcDbLine
10
4.000219
20
5.919587
30
0
11
0.8
21
5.915747
31
0
39
0
210
0
220
0
230
1
0
LINE
5
A4
100
AcDbEntity
8
81
62
256
6
ByLayer
370
18
48
1
60
0
100
AcDbLine
10
73
20
0
30
0
11
78
21
0
31
0
39
0
210
0
220
0
230
1
0
LINE
5
A5
100
AcDbEntity
8
SK2
62
256
6
ByLayer
370
13
48
1
60
0
100
AcDbLine
10
-53.625163
20
-6
30
0
11
-53.625163
21
36.857173
31
0
39
0
210
0
220
0
230
1
0
LINE
5
A7
100
AcDbEntity
8
SK2
62
256
6
ByLayer
370
13
48
1
60
0
100
AcDbLine
10
-46.5875
20
6
30
0
11
-55.625163
21
6
31
0
39
0
210
0
220
0
230
1
0
LINE
5
A8
100
AcDbEntity
8
SK2
62
256
6
ByLayer
370
13
48
1
60
0
100
AcDbLine
10
-46.5875
20
-6
30
0
11
-55.625163
21
-6
31
0
39
0
210
0
220
0
230
1
0
LINE
5
A9
100
AcDbEntity
8
1
62
256
6
ByLayer
370
18
48
1
60
1
100
AcDbLine
10
-53.625163
20
6
30
0
11
-53.164379
21
2.500002
31
0
39
0
210
0
220
0
230
1
0
LINE
5
AA
100
AcDbEntity
8
1
62
256
6
ByLayer
370
18
48
1
60
1
100
AcDbLine
10
-53.164379
20
2.500002
30
0
11
-54.085946
21
2.499998
31
0
39
0
210
0
220
0
230
1
0
LINE
5
AB
100
AcDbEntity
8
1
62
256
6
ByLayer
370
18
48
1
60
1
100
AcDbLine
10
-54.085946
20
2.499998
30
0
11
-53.625163
21
6
31
0
39
0
210
0
220
0
230
1
0
LINE
5
AC
100
AcDbEntity
8
1
62
256
6
ByLayer
370
18
48
1
60
1
100
AcDbLine
10
-53.625163
20
-6
30
0
11
-54.085946
21
-2.500002
31
0
39
0
210
0
220
0
230
1
0
LINE
5
AD
100
AcDbEntity
8
1
62
256
6
ByLayer
370
18
48
1
60
1
100
AcDbLine
10
-54.085946
20
-2.500002
30
0
11
-53.164379
21
-2.499998
31
0
39
0
210
0
220
0
230
1
0
LINE
5
AE
100
AcDbEntity
8
1
62
256
6
ByLayer
370
18
48
1
60
1
100
AcDbLine
10
-53.164379
20
-2.499998
30
0
11
-53.625163
21
-6
31
0
39
0
210
0
220
0
230
1
0
LINE
5
AF
100
AcDbEntity
8
2
62
256
6
ByLayer
370
13
48
1
60
0
100
AcDbLine
10
85.083343
20
-6
30
0
11
85.083343
21
35.450259
31
0
39
0
210
0
220
0
230
1
0
LINE
5
B1
100
AcDbEntity
8
2
62
256
6
ByLayer
370
13
48
1
60
0
100
AcDbLine
10
72.3875
20
6
30
0
11
87.083343
21
6
31
0
39
0
210
0
220
0
230
1
0
LINE
5
B2
100
AcDbEntity
8
2
62
256
6
ByLayer
370
13
48
1
60
0
100
AcDbLine
10
72.3875
20
-6
30
0
11
87.083343
21
-6
31
0
39
0
210
0
220
0
230
1
0
LINE
5
B3
100
AcDbEntity
8
1
62
256
6
ByLayer
370
18
48
1
60
1
100
AcDbLine
10
85.083343
20
6
30
0
11
85.544126
21
2.500002
31
0
39
0
210
0
220
0
230
1
0
LINE
5
B4
100
AcDbEntity
8
1
62
256
6
ByLayer
370
18
48
1
60
1
100
AcDbLine
10
85.544126
20
2.500002
30
0
11
84.622559
21
2.499998
31
0
39
0
210
0
220
0
230
1
0
LINE
5
B5
100
AcDbEntity
8
1
62
256
6
ByLayer
370
18
48
1
60
1
100
AcDbLine
10
84.622559
20
2.499998
30
0
11
85.083343
21
6
31
0
39
0
210
0
220
0
230
1
0
LINE
5
B6
100
AcDbEntity
8
1
62
256
6
ByLayer
370
18
48
1
60
1
100
AcDbLine
10
85.083343
20
-6
30
0
11
84.622559
21
-2.500002
31
0
39
0
210
0
220
0
230
1
0
LINE
5
B7
100
AcDbEntity
8
1
62
256
6
ByLayer
370
18
48
1
60
1
100
AcDbLine
10
84.622559
20
-2.500002
30
0
11
85.544126
21
-2.499998
31
0
39
0
210
0
220
0
230
1
0
LINE
5
B8
100
AcDbEntity
8
1
62
256
6
ByLayer
370
18
48
1
60
1
100
AcDbLine
10
85.544126
20
-2.499998
30
0
11
85.083343
21
-6
31
0
39
0
210
0
220
0
230
1
0
LINE
5
10C
100
AcDbEntity
8
1
62
256
6
ByLayer
370
18
48
1
60
1
100
AcDbLine
10
-53.625163
20
6
30
0
11
-53.164379
21
2.500002
31
0
39
0
210
0
220
0
230
1
0
LINE
5
10D
100
AcDbEntity
8
1
62
256
6
ByLayer
370
18
48
1
60
1
100
AcDbLine
10
-53.164379
20
2.500002
30
0
11
-54.085946
21
2.499998
31
0
39
0
210
0
220
0
230
1
0
LINE
5
10E
100
AcDbEntity
8
1
62
256
6
ByLayer
370
18
48
1
60
1
100
AcDbLine
10
-54.085946
20
2.499998
30
0
11
-53.625163
21
6
31
0
39
0
210
0
220
0
230
1
0
LINE
5
110
100
AcDbEntity
8
1
62
256
6
ByLayer
370
18
48
1
60
1
100
AcDbLine
10
-53.625163
20
-6
30
0
11
-54.085946
21
-2.500002
31
0
39
0
210
0
220
0
230
1
0
LINE
5
111
100
AcDbEntity
8
1
62
256
6
ByLayer
370
18
48
1
60
1
100
AcDbLine
10
-54.085946
20
-2.500002
30
0
11
-53.164379
21
-2.499998
31
0
39
0
210
0
220
0
230
1
0
LINE
5
112
100
AcDbEntity
8
1
62
256
6
ByLayer
370
18
48
1
60
1
100
AcDbLine
10
-53.164379
20
-2.499998
30
0
11
-53.625163
21
-6
31
0
39
0
210
0
220
0
230
1
0
LINE
5
116
100
AcDbEntity
8
1
62
256
6
ByLayer
370
18
48
1
60
1
100
AcDbLine
10
85.083343
20
6
30
0
11
85.544126
21
2.500002
31
0
39
0
210
0
220
0
230
1
0
LINE
5
117
100
AcDbEntity
8
1
62
256
6
ByLayer
370
18
48
1
60
1
100
AcDbLine
10
85.544126
20
2.500002
30
0
11
84.622559
21
2.499998
31
0
39
0
210
0
220
0
230
1
0
LINE
5
118
100
AcDbEntity
8
1
62
256
6
ByLayer
370
18
48
1
60
1
100
AcDbLine
10
84.622559
20
2.499998
30
0
11
85.083343
21
6
31
0
39
0
210
0
220
0
230
1
0
LINE
5
11A
100
AcDbEntity
8
1
62
256
6
ByLayer
370
18
48
1
60
1
100
AcDbLine
10
85.083343
20
-6
30
0
11
84.622559
21
-2.500002
31
0
39
0
210
0
220
0
230
1
0
LINE
5
11B
100
AcDbEntity
8
1
62
256
6
ByLayer
370
18
48
1
60
1
100
AcDbLine
10
84.622559
20
-2.500002
30
0
11
85.544126
21
-2.499998
31
0
39
0
210
0
220
0
230
1
0
LINE
5
11C
100
AcDbEntity
8
1
62
256
6
ByLayer
370
18
48
1
60
1
100
AcDbLine
10
85.544126
20
-2.499998
30
0
11
85.083343
21
-6
31
0
39
0
210
0
220
0
230
1
0
MTEXT
5
106
100
AcDbEntity
8
SK6
62
256
6
ByLayer
370
13
48
1
60
0
100
AcDbMText
10
-12.658393
20
38.540328
30
0
210
0
220
0
230
1
1
\W0.7121;860.1-1200-054A1-SM 1210
40
3.5
41
0
44
1.084337
50
0
71
7
72
5
7
iso_b_vert
0
MTEXT
5
10A
100
AcDbEntity
8
SK2
62
256
6
ByLayer
370
18
48
1
60
0
100
AcDbMText
10
-55.189796
20
19.409024
30
0
210
0
220
0
230
1
1
%%c
40
3.5
41
0
44
1.084337
50
90
71
7
72
5
7
iso_b_vert
0
MTEXT
5
10B
100
AcDbEntity
8
SK2
62
256
6
ByLayer
370
18
48
1
60
0
100
AcDbMText
10
-55.189796
20
24.63168
30
0
210
0
220
0
230
1
1
\W0.6930;12,000
40
3.5
41
0
44
1.084337
50
90
71
7
72
5
7
iso_b_vert
0
MTEXT
5
114
100
AcDbEntity
8
2
62
256
6
ByLayer
370
18
48
1
60
0
100
AcDbMText
10
83.518709
20
18.00211
30
0
210
0
220
0
230
1
1
%%c
40
3.5
41
0
44
1.084337
50
90
71
7
72
5
7
iso_b_vert
0
MTEXT
5
115
100
AcDbEntity
8
2
62
256
6
ByLayer
370
18
48
1
60
0
100
AcDbMText
10
83.518709
20
23.224766
30
0
210
0
220
0
230
1
1
\W0.6930;12,000
40
3.5
41
0
44
1.084337
50
90
71
7
72
5
7
iso_b_vert
0
HATCH
5
10F
100
AcDbEntity
8
SK2
62
256
6
ByLayer
370
13
48
1
60
0
100
AcDbHatch
10
0
20
0
30
0
210
0
220
0
230
1
2
ANSI31
70
0
71
0
91
1
92
5
93
3
72
1
10
-53.6251625675375
20
6
11
-53.1643788259847
21
2.50000169255318
72
1
10
-53.1643788259847
20
2.50000169255318
11
-54.0859463090902
21
2.49999830744682
72
1
10
-54.0859463090902
20
2.49999830744682
11
-53.6251625675375
21
6
97
0
75
0
76
1
52
0
41
0.0062
77
0
78
1
53
45
43
0
44
0
45
-0.0139193969876572
46
0.0139193969876572
79
0
47
0
98
1
10
0
20
0
0
HATCH
5
113
100
AcDbEntity
8
SK2
62
256
6
ByLayer
370
13
48
1
60
0
100
AcDbHatch
10
0
20
0
30
0
210
0
220
0
230
1
2
ANSI31
70
0
71
0
91
1
92
5
93
3
72
1
10
-53.6251625675375
20
-6
11
-54.0859463090902
21
-2.50000169255318
72
1
10
-54.0859463090902
20
-2.50000169255318
11
-53.1643788259847
21
-2.49999830744682
72
1
10
-53.1643788259847
20
-2.49999830744682
11
-53.6251625675375
21
-6
97
0
75
0
76
1
52
0
41
0.0062
77
0
78
1
53
45
43
0
44
0
45
-0.0139193969876572
46
0.0139193969876572
79
0
47
0
98
1
10
0
20
0
0
HATCH
5
119
100
AcDbEntity
8
2
62
256
6
ByLayer
370
13
48
1
60
0
100
AcDbHatch
10
0
20
0
30
0
210
0
220
0
230
1
2
ANSI31
70
0
71
0
91
1
92
5
93
3
72
1
10
85.083342615295
20
6
11
85.5441263568477
21
2.50000169255318
72
1
10
85.5441263568477
20
2.50000169255318
11
84.6225588737422
21
2.49999830744682
72
1
10
84.6225588737422
20
2.49999830744682
11
85.083342615295
21
6
97
0
75
0
76
1
52
0
41
0.0062
77
0
78
1
53
45
43
0
44
0
45
-0.0139193969876572
46
0.0139193969876572
79
0
47
0
98
1
10
0
20
0
0
HATCH
5
11D
100
AcDbEntity
8
2
62
256
6
ByLayer
370
13
48
1
60
0
100
AcDbHatch
10
0
20
0
30
0
210
0
220
0
230
1
2
ANSI31
70
0
71
0
91
1
92
5
93
3
72
1
10
85.083342615295
20
-6
11
84.6225588737422
21
-2.50000169255318
72
1
10
84.6225588737422
20
-2.50000169255318
11
85.5441263568477
21
-2.49999830744682
72
1
10
85.5441263568477
20
-2.49999830744682
11
85.083342615295
21
-6
97
0
75
0
76
1
52
0
41
0.0062
77
0
78
1
53
45
43
0
44
0
45
-0.0139193969876572
46
0.0139193969876572
79
0
47
0
98
1
10
0
20
0
0
DIMENSION
5
11F
100
AcDbEntity
8
SK2
62
256
6
ByLayer
370
13
48
1
60
0
100
AcDbDimension
2
_U0
10
70.8
20
-16.213398
30
0
11
35.4
21
-16.213398
31
0
70
32
71
1
72
1
41
1
210
0
220
0
230
1
3
Standard
100
AcDbAlignedDimension
13
0
23
0
33
0
14
70.8
24
-6
34
0
50
0
100
AcDbRotatedDimension
1001
ACAD
1000
DSTYLE
1002
{
1070
   371
1070
    13
1070
   372
1070
    13
1070
   170
1070
     0
1070
   144
1040
1.0
1070
   277
1070
     2
1070
   278
1070
    44
1070
   146
1040
1.0
1070
   345
1005
16
1070
   347
1005
16
1070
   346
1005
16
1070
   344
1005
0
1070
   343
1005
0
1070
   172
1070
     1
1070
    76
1070
     0
1070
    75
1070
     0
1070
   282
1070
     0
1070
   281
1070
     0
1070
    71
1070
     0
1070
    74
1070
     0
1070
   279
1070
     0
1070
   173
1070
     1
1070
   340
1005
107
1070
   271
1070
     2
1070
   272
1070
     2
1070
    77
1070
     1
1070
    73
1070
     1
1070
   171
1070
     3
1070
   274
1070
     4
1070
   177
1070
    35
1070
   176
1070
    35
1070
   178
1070
    35
1070
    48
1040
-0.1
1070
    41
1040
3.5
1070
   147
1040
1.75
1070
    42
1040
1.5875
1070
    44
1040
2.0
1070
   140
1040
3.5
1002
}
1001
ACAD_DSTYLE_DIM_LINETYPE
1070
   380
1005
16
1001
ACAD_DSTYLE_DIM_EXT1_LINETYPE
1070
   381
1005
16
1001
ACAD_DSTYLE_DIM_EXT2_LINETYPE
1070
   382
1005
16
0
DIMENSION
5
138
100
AcDbEntity
8
SK2
62
256
6
ByLayer
370
13
48
1
60
0
100
AcDbDimension
2
_U1
10
73
20
-34.692985
30
0
11
14
21
-34.692985
31
0
70
32
71
1
72
1
41
1
210
0
220
0
230
1
3
Standard
100
AcDbAlignedDimension
13
-45
23
-6
33
0
14
73
24
0
34
0
50
0
100
AcDbRotatedDimension
1001
ACAD
1000
DSTYLE
1002
{
1070
   371
1070
    13
1070
   372
1070
    13
1070
   170
1070
     0
1070
   144
1040
1.0
1070
   277
1070
     2
1070
   278
1070
    44
1070
   146
1040
1.0
1070
   345
1005
16
1070
   347
1005
16
1070
   346
1005
16
1070
   344
1005
0
1070
   343
1005
0
1070
   172
1070
     1
1070
    76
1070
     0
1070
    75
1070
     0
1070
   282
1070
     0
1070
   281
1070
     0
1070
    71
1070
     0
1070
    74
1070
     0
1070
   279
1070
     0
1070
   173
1070
     1
1070
   340
1005
107
1070
   271
1070
     2
1070
   272
1070
     2
1070
    77
1070
     1
1070
    73
1070
     1
1070
   171
1070
     3
1070
   274
1070
     4
1070
   177
1070
    35
1070
   176
1070
    35
1070
   178
1070
    35
1070
    48
1040
-0.1
1070
    41
1040
3.5
1070
   147
1040
1.75
1070
    42
1040
1.5875
1070
    44
1040
2.0
1070
   140
1040
3.5
1002
}
1001
ACAD_DSTYLE_DIM_LINETYPE
1070
   380
1005
16
1001
ACAD_DSTYLE_DIM_EXT1_LINETYPE
1070
   381
1005
16
1001
ACAD_DSTYLE_DIM_EXT2_LINETYPE
1070
   382
1005
16
0
DIMENSION
5
150
100
AcDbEntity
8
SK2
62
256
6
ByLayer
370
13
48
1
60
0
100
AcDbDimension
2
_U2
10
73
20
17.609119
30
0
11
45.83975
21
17.609119
31
0
70
32
71
1
72
1
41
1
210
0
220
0
230
1
3
Standard
100
AcDbAlignedDimension
13
18.6795
23
6
33
0
14
73
24
0
34
0
50
0
100
AcDbRotatedDimension
1001
ACAD
1000
DSTYLE
1002
{
1070
   371
1070
    13
1070
   372
1070
    13
1070
   170
1070
     0
1070
   144
1040
1.0
1070
   277
1070
     2
1070
   278
1070
    44
1070
   146
1040
1.0
1070
   345
1005
16
1070
   347
1005
16
1070
   346
1005
16
1070
   344
1005
0
1070
   343
1005
0
1070
   172
1070
     1
1070
    76
1070
     0
1070
    75
1070
     0
1070
   282
1070
     0
1070
   281
1070
     0
1070
    71
1070
     0
1070
    74
1070
     0
1070
   279
1070
     0
1070
   173
1070
     1
1070
   340
1005
107
1070
   271
1070
     2
1070
   272
1070
     2
1070
    77
1070
     1
1070
    73
1070
     1
1070
   171
1070
     3
1070
   274
1070
     4
1070
   177
1070
    35
1070
   176
1070
    35
1070
   178
1070
    35
1070
    48
1040
-0.1
1070
    41
1040
3.5
1070
   147
1040
1.75
1070
    42
1040
1.5875
1070
    44
1040
2.0
1070
   140
1040
3.5
1002
}
1001
ACAD_DSTYLE_DIM_LINETYPE
1070
   380
1005
16
1001
ACAD_DSTYLE_DIM_EXT1_LINETYPE
1070
   381
1005
16
1001
ACAD_DSTYLE_DIM_EXT2_LINETYPE
1070
   382
1005
16
0
DIMENSION
5
168
100
AcDbEntity
8
SK2
62
256
6
ByLayer
370
13
48
1
60
0
100
AcDbDimension
2
_U3
10
70.8
20
-18.802503
30
0
11
90.583333
21
-18.802503
31
0
70
32
71
1
72
1
41
1
210
0
220
0
230
1
3
Standard
100
AcDbAlignedDimension
13
73
23
0
33
0
14
70.8
24
-6
34
0
50
0
100
AcDbRotatedDimension
1001
ACAD
1000
DSTYLE
1002
{
1070
   371
1070
    13
1070
   372
1070
    13
1070
   170
1070
     0
1070
   144
1040
1.0
1070
   277
1070
     2
1070
   278
1070
    44
1070
   146
1040
1.0
1070
   345
1005
16
1070
   347
1005
16
1070
   346
1005
16
1070
   344
1005
0
1070
   343
1005
0
1070
   172
1070
     1
1070
    76
1070
     0
1070
    75
1070
     0
1070
   282
1070
     0
1070
   281
1070
     0
1070
    71
1070
     0
1070
    74
1070
     0
1070
   279
1070
     0
1070
   173
1070
     1
1070
   340
1005
107
1070
   271
1070
     2
1070
   272
1070
     2
1070
    77
1070
     1
1070
    73
1070
     1
1070
   171
1070
     3
1070
   274
1070
     4
1070
   177
1070
    35
1070
   176
1070
    35
1070
   178
1070
    35
1070
    48
1040
-0.1
1070
    41
1040
3.5
1070
   147
1040
1.75
1070
    42
1040
1.5875
1070
    44
1040
2.0
1070
   140
1040
3.5
1002
}
1001
ACAD_DSTYLE_DIM_LINETYPE
1070
   380
1005
16
1001
ACAD_DSTYLE_DIM_EXT1_LINETYPE
1070
   381
1005
16
1001
ACAD_DSTYLE_DIM_EXT2_LINETYPE
1070
   382
1005
16
0
DIMENSION
5
182
100
AcDbEntity
8
SK2
62
256
6
ByLayer
370
13
48
1
60
0
100
AcDbDimension
2
_U4
10
70.8
20
-24.343428
30
0
11
12.9
21
-24.343428
31
0
70
32
71
1
72
1
41
1
210
0
220
0
230
1
3
Standard
100
AcDbAlignedDimension
13
-45
23
-6
33
0
14
70.8
24
-6
34
0
50
0
100
AcDbRotatedDimension
1001
ACAD
1000
DSTYLE
1002
{
1070
   371
1070
    13
1070
   372
1070
    13
1070
   170
1070
     0
1070
   144
1040
1.0
1070
   277
1070
     2
1070
   278
1070
    44
1070
   146
1040
1.0
1070
   345
1005
16
1070
   347
1005
16
1070
   346
1005
16
1070
   344
1005
0
1070
   343
1005
0
1070
   172
1070
     1
1070
    76
1070
     0
1070
    75
1070
     0
1070
   282
1070
     0
1070
   281
1070
     0
1070
    71
1070
     0
1070
    74
1070
     0
1070
   279
1070
     0
1070
   173
1070
     1
1070
   340
1005
107
1070
   271
1070
     2
1070
   272
1070
     2
1070
    77
1070
     1
1070
    73
1070
     1
1070
   171
1070
     3
1070
   274
1070
     4
1070
   177
1070
    35
1070
   176
1070
    35
1070
   178
1070
    35
1070
    48
1040
-0.1
1070
    41
1040
3.5
1070
   147
1040
1.75
1070
    42
1040
1.5875
1070
    44
1040
2.0
1070
   140
1040
3.5
1002
}
1001
ACAD_DSTYLE_DIM_LINETYPE
1070
   380
1005
16
1001
ACAD_DSTYLE_DIM_EXT1_LINETYPE
1070
   381
1005
16
1001
ACAD_DSTYLE_DIM_EXT2_LINETYPE
1070
   382
1005
16
0
ENDSEC
0
SECTION
2
OBJECTS
0
DICTIONARY
5
20a
330
0
100
AcDbDictionary
280
0
281
1
3
ACAD_GROUP
350
20b
3
ACAD_MLINESTYLE
350
20c
0
DICTIONARY
5
20b
330
0
100
AcDbDictionary
280
0
281
1
0
DICTIONARY
5
20c
330
0
100
AcDbDictionary
280
0
281
1
3
Standard
350
18
0
MLINESTYLE
5
18
330
20c
100
AcDbMlineStyle
2
Standard
70
0
3

62
256
51
90
52
90
71
2
49
-0.5
62
256
6
ByLayer
49
0.5
62
256
6
ByLayer
0
RASTERVARIABLES
5
1f8
330

100
AcDbRasterVariables
90
0
70
1
71
1
72
1
0
ENDSEC
0
EOF
