0
SECTION
2
HEADER
9
$ACADVER
1
AC1015
9
$DWGCODEPAGE
3
ANSI_1252
9
$HANDSEED
5
20d
9
$ANGBASE
50
0
9
$ANGDIR
70
0
9
$ATTMODE
70
1
9
$AUNITS
70
0
9
$AUPREC
70
0
9
$CECOLOR
62
256
9
$CELTSCALE
40
1
9
$CELTYPE
6
ByLayer
9
$CELWEIGHT
370
18
9
$CLAYER
8
0
9
$CMLJUST
70
0
9
$CMLSCALE
40
1
9
$CMLSTYLE
2
Standard
9
$DIMSTYLE
2
Standard
9
$TEXTSIZE
40
0.2
9
$TEXTSTYLE
7
Standard
9
$LUNITS
70
2
9
$LUPREC
70
4
9
$EXTNAMES
290
1
9
$INSUNITS
70
4
9
$LTSCALE
40
1
9
$LWDISPLAY
290
1
9
$PDMODE
70
0
9
$PDSIZE
40
0
9
$PLINEGEN
70
0
0
ENDSEC
0
SECTION
2
CLASSES
0
CLASS
1
RASTERVARIABLES
2
AcDbRasterVariables
3
ISM
90
0
280
0
281
0
0
ENDSEC
0
SECTION
2
TABLES
0
TABLE
2
VPORT
5
203
100
AcDbSymbolTable
0
VPORT
5
1
100
AcDbSymbolTableRecord
100
AcDbViewportTableRecord
2
*Active
70
0
10
0
20
0
11
1
21
1
12
-1
22
1
13
0
23
0
14
0.5
24
0.5
15
10
25
10
16
0
26
0
36
1
17
0
27
0
37
0
0
ENDTAB
0
TABLE
2
LTYPE
5
204
100
AcDbSymbolTable
0
LTYPE
5
14
100
AcDbSymbolTableRecord
100
AcDbLinetypeTableRecord
70
0
2
ByBlock
3

72
65
73
0
40
0
0
LTYPE
5
15
100
AcDbSymbolTableRecord
100
AcDbLinetypeTableRecord
70
0
2
ByLayer
3

72
65
73
0
40
0
0
LTYPE
5
16
100
AcDbSymbolTableRecord
100
AcDbLinetypeTableRecord
70
0
2
Continuous
3
Solid line
72
65
73
0
40
0
0
LTYPE
5
6E
100
AcDbSymbolTableRecord
100
AcDbLinetypeTableRecord
70
0
2
CENTER
3
____ _ ____ _ ____ _ ____
72
65
73
4
40
47.5
49
22
74
0
49
-8.5
74
0
49
8.5
74
0
49
-8.5
74
0
0
LTYPE
5
6F
100
AcDbSymbolTableRecord
100
AcDbLinetypeTableRecord
70
0
2
DASHED
3
__ __ __ __ __ __ __ __ __
72
65
73
2
40
25.72
49
12.86
74
0
49
-12.86
74
0
0
ENDTAB
0
TABLE
2
LAYER
5
205
100
AcDbSymbolTable
0
LAYER
5
10
100
AcDbSymbolTableRecord
100
AcDbLayerTableRecord
2
0
70
0
62
7
6
Continuous
290
1
370
-3
390
0
0
LAYER
5
71
100
AcDbSymbolTableRecord
100
AcDbLayerTableRecord
2
80
70
0
62
-6
6
Continuous
290
1
370
-3
390
0
0
LAYER
5
73
100
AcDbSymbolTableRecord
100
AcDbLayerTableRecord
2
81
70
0
62
-3
6
Continuous
290
1
370
-3
390
0
0
LAYER
5
75
100
AcDbSymbolTableRecord
100
AcDbLayerTableRecord
2
1
70
0
62
4
6
Continuous
290
1
370
-3
390
0
0
LAYER
5
91
100
AcDbSymbolTableRecord
100
AcDbLayerTableRecord
2
4
70
0
62
-2
6
CENTER
290
1
370
-3
390
0
0
LAYER
5
AC
100
AcDbSymbolTableRecord
100
AcDbLayerTableRecord
2
2
70
0
62
7
6
Continuous
290
1
370
-3
390
0
0
LAYER
5
118
100
AcDbSymbolTableRecord
100
AcDbLayerTableRecord
2
Defpoints
70
0
62
7
6
Continuous
290
0
370
-3
390
0
0
LAYER
5
1ef
100
AcDbSymbolTableRecord
100
AcDbLayerTableRecord
2
SK1
70
0
62
4
6
Continuous
290
1
370
-3
390
0
0
LAYER
5
1f0
100
AcDbSymbolTableRecord
100
AcDbLayerTableRecord
2
SK4
70
0
62
2
6
CENTER
290
1
370
-3
390
0
0
LAYER
5
1f1
100
AcDbSymbolTableRecord
100
AcDbLayerTableRecord
2
SK2
70
0
62
7
6
Continuous
290
1
370
-3
390
0
0
LAYER
5
1f2
100
AcDbSymbolTableRecord
100
AcDbLayerTableRecord
2
SK6
70
0
62
5
6
Continuous
290
1
370
-3
390
0
0
ENDTAB
0
TABLE
2
STYLE
5
206
100
AcDbSymbolTable
0
STYLE
5
11
100
AcDbSymbolTableRecord
100
AcDbTextStyleTableRecord
2
Standard
3
txt
70
0
71
0
40
0
41
1
42
0
50
0
0
STYLE
5
FD
100
AcDbSymbolTableRecord
100
AcDbTextStyleTableRecord
2
iso_b_vert
3
simplex.shx
70
0
71
0
40
0
41
1
42
0
50
0
0
STYLE
5
FE
100
AcDbSymbolTableRecord
100
AcDbTextStyleTableRecord
2
DWGDirectTextStyle
3
simplex
70
0
71
0
40
0
41
1
42
0
50
0
0
ENDTAB
0
TABLE
2
DIMSTYLE
5
207
100
AcDbSymbolTable
100
AcDbDimStyleTable
0
DIMSTYLE
105
27
100
AcDbSymbolTableRecord
100
AcDbDimStyleTableRecord
2
Standard
70
0
3
<>
41
0.18
42
0.0625
44
0.18
140
0.18
147
0.09
73
0
74
0
77
1
271
2
275
0
278
52
280
0
340
11
0
ENDTAB
0
TABLE
2
VIEW
5
208
100
AcDbSymbolTable
0
ENDTAB
0
TABLE
2
UCS
5
209
100
AcDbSymbolTable
0
ENDTAB
0
TABLE
2
APPID
5
20a
100
AcDbSymbolTable
0
APPID
5
12
100
AcDbSymbolTableRecord
100
AcDbRegAppTableRecord
2
ACAD
70
0
0
APPID
5
114
100
AcDbSymbolTableRecord
100
AcDbRegAppTableRecord
2
ACAD_DSTYLE_DIMBREAK
70
0
0
APPID
5
1AE
100
AcDbSymbolTableRecord
100
AcDbRegAppTableRecord
2
ACAD_DSTYLE_DIM_LINETYPE
70
0
0
APPID
5
1AF
100
AcDbSymbolTableRecord
100
AcDbRegAppTableRecord
2
ACAD_DSTYLE_DIM_EXT1_LINETYPE
70
0
0
APPID
5
1B0
100
AcDbSymbolTableRecord
100
AcDbRegAppTableRecord
2
ACAD_DSTYLE_DIM_EXT2_LINETYPE
70
0
0
APPID
5
1EB
100
AcDbSymbolTableRecord
100
AcDbRegAppTableRecord
2
ACAD_MLEADERVER
70
0
0
ENDTAB
0
TABLE
2
BLOCK_RECORD
5
20b
100
AcDbSymbolTable
0
BLOCK_RECORD
5
1F
100
AcDbSymbolTableRecord
100
AcDbBlockTableRecord
2
*Model_Space
340
0
70
0
0
BLOCK_RECORD
5
1B
100
AcDbSymbolTableRecord
100
AcDbBlockTableRecord
2
*Paper_Space
340
0
70
0
0
BLOCK_RECORD
5
23
100
AcDbSymbolTableRecord
100
AcDbBlockTableRecord
2
*Paper_Space0
340
0
70
0
0
BLOCK_RECORD
5
119
100
AcDbSymbolTableRecord
100
AcDbBlockTableRecord
2
*D1
340
0
70
0
0
BLOCK_RECORD
5
125
100
AcDbSymbolTableRecord
100
AcDbBlockTableRecord
2
_U0
340
0
70
0
0
BLOCK_RECORD
5
131
100
AcDbSymbolTableRecord
100
AcDbBlockTableRecord
2
*D3
340
0
70
0
0
BLOCK_RECORD
5
13D
100
AcDbSymbolTableRecord
100
AcDbBlockTableRecord
2
_U1
340
0
70
0
0
BLOCK_RECORD
5
149
100
AcDbSymbolTableRecord
100
AcDbBlockTableRecord
2
*D5
340
0
70
0
0
BLOCK_RECORD
5
155
100
AcDbSymbolTableRecord
100
AcDbBlockTableRecord
2
_U2
340
0
70
0
0
BLOCK_RECORD
5
161
100
AcDbSymbolTableRecord
100
AcDbBlockTableRecord
2
*D7
340
0
70
0
0
BLOCK_RECORD
5
16F
100
AcDbSymbolTableRecord
100
AcDbBlockTableRecord
2
_U3
340
0
70
0
0
BLOCK_RECORD
5
17B
100
AcDbSymbolTableRecord
100
AcDbBlockTableRecord
2
*D9
340
0
70
0
0
BLOCK_RECORD
5
187
100
AcDbSymbolTableRecord
100
AcDbBlockTableRecord
2
_U4
340
0
70
0
0
ENDTAB
0
ENDSEC
0
SECTION
2
BLOCKS
0
BLOCK
5
20
100
AcDbEntity
8
0
100
AcDbBlockBegin
2
*Model_Space
70
0
10
0
20
0
30
0
3
*Model_Space
0
ENDBLK
5
21
100
AcDbEntity
8
0
100
AcDbBlockEnd
0
BLOCK
5
1C
100
AcDbEntity
8
0
100
AcDbBlockBegin
2
*Paper_Space
70
0
10
0
20
0
30
0
3
*Paper_Space
0
ENDBLK
5
1D
100
AcDbEntity
8
0
100
AcDbBlockEnd
0
BLOCK
5
24
100
AcDbEntity
8
0
100
AcDbBlockBegin
2
*Paper_Space0
70
0
10
0
20
0
30
0
3
*Paper_Space0
0
ENDBLK
5
25
100
AcDbEntity
8
0
100
AcDbBlockEnd
0
BLOCK
5
11A
100
AcDbEntity
8
0
100
AcDbBlockBegin
2
*D1
70
1
10
0
20
0
30
0
3
*D1
0
LINE
5
11C
100
AcDbEntity
8
0
62
256
6
ByLayer
370
-2
48
1
60
0
100
AcDbLine
10
0
20
-1.5875
30
0
11
0
21
-17.113398
31
0
39
0
210
0
220
0
230
1
0
LINE
5
11D
100
AcDbEntity
8
0
62
256
6
ByLayer
370
-2
48
1
60
0
100
AcDbLine
10
61.2
20
-6.4875
30
0
11
61.2
21
-17.113398
31
0
39
0
210
0
220
0
230
1
0
LINE
5
11E
100
AcDbEntity
8
0
62
256
6
ByLayer
370
-2
48
1
60
0
100
AcDbLine
10
3.5
20
-15.113398
30
0
11
57.7
21
-15.113398
31
0
39
0
210
0
220
0
230
1
0
SOLID
5
11F
100
AcDbEntity
8
0
62
256
6
ByLayer
370
-1
48
1
60
0
100
AcDbTrace
10
3.5
20
-14.530065
30
0
11
3.5
21
-15.696732
31
0
12
0
22
-15.113398
32
0
13
0
23
-15.113398
33
0
39
0
210
0
220
0
230
1
0
SOLID
5
120
100
AcDbEntity
8
0
62
256
6
ByLayer
370
-1
48
1
60
0
100
AcDbTrace
10
57.7
20
-15.696732
30
0
11
57.7
21
-14.530065
31
0
12
61.2
22
-15.113398
32
0
13
61.2
23
-15.113398
33
0
39
0
210
0
220
0
230
1
0
MTEXT
5
121
100
AcDbEntity
8
0
62
256
6
ByLayer
370
18
48
1
60
0
100
AcDbMText
10
30.6
20
-8.113398
30
0
210
0
220
0
230
1
1
\A1;61.20
40
3.5
41
0
44
1
50
0
71
5
72
5
7
iso_b_vert
0
POINT
5
122
100
AcDbEntity
8
Defpoints
62
0
6
ByLayer
370
-1
48
1
60
0
100
AcDbPoint
10
0
20
0
30
0
39
0
210
0
220
0
230
1
50
360
0
POINT
5
123
100
AcDbEntity
8
Defpoints
62
0
6
ByLayer
370
-1
48
1
60
0
100
AcDbPoint
10
61.2
20
-4.9
30
0
39
0
210
0
220
0
230
1
50
360
0
POINT
5
124
100
AcDbEntity
8
Defpoints
62
0
6
ByLayer
370
-1
48
1
60
0
100
AcDbPoint
10
61.2
20
-15.113398
30
0
39
0
210
0
220
0
230
1
50
360
0
ENDBLK
5
11B
100
AcDbEntity
8
0
100
AcDbBlockEnd
0
BLOCK
5
12C
100
AcDbEntity
8
0
100
AcDbBlockBegin
2
_U0
70
0
10
0
20
0
30
0
3
_U0
0
MTEXT
5
126
100
AcDbEntity
8
SK2
62
256
6
ByLayer
370
13
48
1
60
0
100
AcDbMText
10
25.900135
20
-14.080765
30
0
210
0
220
0
230
1
1
\W0.6713;61,20
40
3.5
41
0
44
1.084337
50
0
71
7
72
5
7
iso_b_vert
0
LINE
5
127
100
AcDbEntity
8
SK2
62
256
6
ByLayer
370
13
48
1
60
0
100
AcDbLine
10
0
20
-1.5875
30
0
11
0
21
-17.113398
31
0
39
0
210
0
220
0
230
1
0
LINE
5
128
100
AcDbEntity
8
SK2
62
256
6
ByLayer
370
13
48
1
60
0
100
AcDbLine
10
61.2
20
-6.4875
30
0
11
61.2
21
-17.113398
31
0
39
0
210
0
220
0
230
1
0
LINE
5
129
100
AcDbEntity
8
SK2
62
256
6
ByLayer
370
13
48
1
60
0
100
AcDbLine
10
0
20
-15.113398
30
0
11
61.2
21
-15.113398
31
0
39
0
210
0
220
0
230
1
0
SOLID
5
12A
100
AcDbEntity
8
SK2
62
256
6
ByLayer
370
18
48
1
60
0
100
AcDbTrace
10
0
20
-15.113398
30
0
11
3.499998
21
-14.652615
31
0
12
3.500002
22
-15.574182
32
0
13
3.500002
23
-15.574182
33
0
39
0
210
0
220
0
230
1
0
SOLID
5
12B
100
AcDbEntity
8
SK2
62
256
6
ByLayer
370
18
48
1
60
0
100
AcDbTrace
10
61.2
20
-15.113398
30
0
11
57.700002
21
-15.574182
31
0
12
57.699998
22
-14.652615
32
0
13
57.699998
23
-14.652615
33
0
39
0
210
0
220
0
230
1
0
ENDBLK
5
12D
100
AcDbEntity
8
0
100
AcDbBlockEnd
0
BLOCK
5
132
100
AcDbEntity
8
0
100
AcDbBlockBegin
2
*D3
70
1
10
0
20
0
30
0
3
*D3
0
LINE
5
134
100
AcDbEntity
8
0
62
256
6
ByLayer
370
-2
48
1
60
0
100
AcDbLine
10
-40
20
-6.5875
30
0
11
-40
21
-35.692985
31
0
39
0
210
0
220
0
230
1
0
LINE
5
135
100
AcDbEntity
8
0
62
256
6
ByLayer
370
-2
48
1
60
0
100
AcDbLine
10
63
20
-1.5875
30
0
11
63
21
-35.692985
31
0
39
0
210
0
220
0
230
1
0
LINE
5
136
100
AcDbEntity
8
0
62
256
6
ByLayer
370
-2
48
1
60
0
100
AcDbLine
10
-36.5
20
-33.692985
30
0
11
59.5
21
-33.692985
31
0
39
0
210
0
220
0
230
1
0
SOLID
5
137
100
AcDbEntity
8
0
62
256
6
ByLayer
370
-1
48
1
60
0
100
AcDbTrace
10
-36.5
20
-33.109652
30
0
11
-36.5
21
-34.276319
31
0
12
-40
22
-33.692985
32
0
13
-40
23
-33.692985
33
0
39
0
210
0
220
0
230
1
0
SOLID
5
138
100
AcDbEntity
8
0
62
256
6
ByLayer
370
-1
48
1
60
0
100
AcDbTrace
10
59.5
20
-34.276319
30
0
11
59.5
21
-33.109652
31
0
12
63
22
-33.692985
32
0
13
63
23
-33.692985
33
0
39
0
210
0
220
0
230
1
0
MTEXT
5
139
100
AcDbEntity
8
0
62
256
6
ByLayer
370
18
48
1
60
0
100
AcDbMText
10
11.5
20
-26.692985
30
0
210
0
220
0
230
1
1
\A1;103.00
40
3.5
41
0
44
1
50
0
71
5
72
5
7
iso_b_vert
0
POINT
5
13A
100
AcDbEntity
8
Defpoints
62
0
6
ByLayer
370
-1
48
1
60
0
100
AcDbPoint
10
-40
20
-5
30
0
39
0
210
0
220
0
230
1
50
360
0
POINT
5
13B
100
AcDbEntity
8
Defpoints
62
0
6
ByLayer
370
-1
48
1
60
0
100
AcDbPoint
10
63
20
0
30
0
39
0
210
0
220
0
230
1
50
360
0
POINT
5
13C
100
AcDbEntity
8
Defpoints
62
0
6
ByLayer
370
-1
48
1
60
0
100
AcDbPoint
10
63
20
-33.692985
30
0
39
0
210
0
220
0
230
1
50
360
0
ENDBLK
5
133
100
AcDbEntity
8
0
100
AcDbBlockEnd
0
BLOCK
5
144
100
AcDbEntity
8
0
100
AcDbBlockBegin
2
_U1
70
0
10
0
20
0
30
0
3
_U1
0
MTEXT
5
13E
100
AcDbEntity
8
SK2
62
256
6
ByLayer
370
13
48
1
60
0
100
AcDbMText
10
5.492401
20
-32.660352
30
0
210
0
220
0
230
1
1
\W0.6930;103,00
40
3.5
41
0
44
1.084337
50
0
71
7
72
5
7
iso_b_vert
0
LINE
5
13F
100
AcDbEntity
8
SK2
62
256
6
ByLayer
370
13
48
1
60
0
100
AcDbLine
10
-40
20
-6.5875
30
0
11
-40
21
-35.692985
31
0
39
0
210
0
220
0
230
1
0
LINE
5
140
100
AcDbEntity
8
SK2
62
256
6
ByLayer
370
13
48
1
60
0
100
AcDbLine
10
63
20
-1.5875
30
0
11
63
21
-35.692985
31
0
39
0
210
0
220
0
230
1
0
LINE
5
141
100
AcDbEntity
8
SK2
62
256
6
ByLayer
370
13
48
1
60
0
100
AcDbLine
10
-40
20
-33.692985
30
0
11
63
21
-33.692985
31
0
39
0
210
0
220
0
230
1
0
SOLID
5
142
100
AcDbEntity
8
SK2
62
256
6
ByLayer
370
18
48
1
60
0
100
AcDbTrace
10
-40
20
-33.692985
30
0
11
-36.500002
21
-33.232202
31
0
12
-36.499998
22
-34.153769
32
0
13
-36.499998
23
-34.153769
33
0
39
0
210
0
220
0
230
1
0
SOLID
5
143
100
AcDbEntity
8
SK2
62
256
6
ByLayer
370
18
48
1
60
0
100
AcDbTrace
10
63
20
-33.692985
30
0
11
59.500002
21
-34.153769
31
0
12
59.499998
22
-33.232202
32
0
13
59.499998
23
-33.232202
33
0
39
0
210
0
220
0
230
1
0
ENDBLK
5
145
100
AcDbEntity
8
0
100
AcDbBlockEnd
0
BLOCK
5
14A
100
AcDbEntity
8
0
100
AcDbBlockBegin
2
*D5
70
1
10
0
20
0
30
0
3
*D5
0
LINE
5
14C
100
AcDbEntity
8
0
62
256
6
ByLayer
370
-2
48
1
60
0
100
AcDbLine
10
16.575
20
6.4875
30
0
11
16.575
21
18.509119
31
0
39
0
210
0
220
0
230
1
0
LINE
5
14D
100
AcDbEntity
8
0
62
256
6
ByLayer
370
-2
48
1
60
0
100
AcDbLine
10
63
20
1.5875
30
0
11
63
21
18.509119
31
0
39
0
210
0
220
0
230
1
0
LINE
5
14E
100
AcDbEntity
8
0
62
256
6
ByLayer
370
-2
48
1
60
0
100
AcDbLine
10
20.075
20
16.509119
30
0
11
59.5
21
16.509119
31
0
39
0
210
0
220
0
230
1
0
SOLID
5
14F
100
AcDbEntity
8
0
62
256
6
ByLayer
370
-1
48
1
60
0
100
AcDbTrace
10
20.075
20
17.092453
30
0
11
20.075
21
15.925786
31
0
12
16.575
22
16.509119
32
0
13
16.575
23
16.509119
33
0
39
0
210
0
220
0
230
1
0
SOLID
5
150
100
AcDbEntity
8
0
62
256
6
ByLayer
370
-1
48
1
60
0
100
AcDbTrace
10
59.5
20
15.925786
30
0
11
59.5
21
17.092453
31
0
12
63
22
16.509119
32
0
13
63
23
16.509119
33
0
39
0
210
0
220
0
230
1
0
MTEXT
5
151
100
AcDbEntity
8
0
62
256
6
ByLayer
370
18
48
1
60
0
100
AcDbMText
10
39.7875
20
23.509119
30
0
210
0
220
0
230
1
1
\A1;46.43
40
3.5
41
0
44
1
50
0
71
5
72
5
7
iso_b_vert
0
POINT
5
152
100
AcDbEntity
8
Defpoints
62
0
6
ByLayer
370
-1
48
1
60
0
100
AcDbPoint
10
16.575
20
4.9
30
0
39
0
210
0
220
0
230
1
50
360
0
POINT
5
153
100
AcDbEntity
8
Defpoints
62
0
6
ByLayer
370
-1
48
1
60
0
100
AcDbPoint
10
63
20
0
30
0
39
0
210
0
220
0
230
1
50
360
0
POINT
5
154
100
AcDbEntity
8
Defpoints
62
0
6
ByLayer
370
-1
48
1
60
0
100
AcDbPoint
10
63
20
16.509119
30
0
39
0
210
0
220
0
230
1
50
360
0
ENDBLK
5
14B
100
AcDbEntity
8
0
100
AcDbBlockEnd
0
BLOCK
5
15C
100
AcDbEntity
8
0
100
AcDbBlockBegin
2
_U2
70
0
10
0
20
0
30
0
3
_U2
0
MTEXT
5
156
100
AcDbEntity
8
SK2
62
256
6
ByLayer
370
13
48
1
60
0
100
AcDbMText
10
34.281668
20
17.541753
30
0
210
0
220
0
230
1
1
\W0.7845;46,42
40
3.5
41
0
44
1.084337
50
0
71
7
72
5
7
iso_b_vert
0
LINE
5
157
100
AcDbEntity
8
SK2
62
256
6
ByLayer
370
13
48
1
60
0
100
AcDbLine
10
16.575
20
6.4875
30
0
11
16.575
21
18.509119
31
0
39
0
210
0
220
0
230
1
0
LINE
5
158
100
AcDbEntity
8
SK2
62
256
6
ByLayer
370
13
48
1
60
0
100
AcDbLine
10
63
20
1.5875
30
0
11
63
21
18.509119
31
0
39
0
210
0
220
0
230
1
0
LINE
5
159
100
AcDbEntity
8
SK2
62
256
6
ByLayer
370
13
48
1
60
0
100
AcDbLine
10
16.575
20
16.509119
30
0
11
63
21
16.509119
31
0
39
0
210
0
220
0
230
1
0
SOLID
5
15A
100
AcDbEntity
8
SK2
62
256
6
ByLayer
370
18
48
1
60
0
100
AcDbTrace
10
16.575
20
16.509119
30
0
11
20.074998
21
16.969903
31
0
12
20.075002
22
16.048335
32
0
13
20.075002
23
16.048335
33
0
39
0
210
0
220
0
230
1
0
SOLID
5
15B
100
AcDbEntity
8
SK2
62
256
6
ByLayer
370
18
48
1
60
0
100
AcDbTrace
10
63
20
16.509119
30
0
11
59.500002
21
16.048335
31
0
12
59.499998
22
16.969903
32
0
13
59.499998
23
16.969903
33
0
39
0
210
0
220
0
230
1
0
ENDBLK
5
15D
100
AcDbEntity
8
0
100
AcDbBlockEnd
0
BLOCK
5
162
100
AcDbEntity
8
0
100
AcDbBlockBegin
2
*D7
70
1
10
0
20
0
30
0
3
*D7
0
LINE
5
164
100
AcDbEntity
8
0
62
256
6
ByLayer
370
-2
48
1
60
0
100
AcDbLine
10
63
20
-1.5875
30
0
11
63
21
-19.702503
31
0
39
0
210
0
220
0
230
1
0
LINE
5
165
100
AcDbEntity
8
0
62
256
6
ByLayer
370
-2
48
1
60
0
100
AcDbLine
10
61.2
20
-6.4875
30
0
11
61.2
21
-19.702503
31
0
39
0
210
0
220
0
230
1
0
LINE
5
166
100
AcDbEntity
8
0
62
256
6
ByLayer
370
-2
48
1
60
0
100
AcDbLine
10
63
20
-17.702503
30
0
11
90.666667
21
-17.702503
31
0
39
0
210
0
220
0
230
1
0
LINE
5
167
100
AcDbEntity
8
0
62
256
6
ByLayer
370
-2
48
1
60
0
100
AcDbLine
10
66.5
20
-17.702503
30
0
11
70
21
-17.702503
31
0
39
0
210
0
220
0
230
1
0
LINE
5
168
100
AcDbEntity
8
0
62
256
6
ByLayer
370
-2
48
1
60
0
100
AcDbLine
10
57.7
20
-17.702503
30
0
11
54.2
21
-17.702503
31
0
39
0
210
0
220
0
230
1
0
SOLID
5
169
100
AcDbEntity
8
0
62
256
6
ByLayer
370
-1
48
1
60
0
100
AcDbTrace
10
66.5
20
-17.11917
30
0
11
66.5
21
-18.285837
31
0
12
63
22
-17.702503
32
0
13
63
23
-17.702503
33
0
39
0
210
0
220
0
230
1
0
SOLID
5
16A
100
AcDbEntity
8
0
62
256
6
ByLayer
370
-1
48
1
60
0
100
AcDbTrace
10
57.7
20
-18.285837
30
0
11
57.7
21
-17.11917
31
0
12
61.2
22
-17.702503
32
0
13
61.2
23
-17.702503
33
0
39
0
210
0
220
0
230
1
0
MTEXT
5
16B
100
AcDbEntity
8
0
62
256
6
ByLayer
370
18
48
1
60
0
100
AcDbMText
10
80.333333
20
-10.702503
30
0
210
0
220
0
230
1
1
\A1;1.80
40
3.5
41
0
44
1
50
0
71
5
72
5
7
iso_b_vert
0
POINT
5
16C
100
AcDbEntity
8
Defpoints
62
0
6
ByLayer
370
-1
48
1
60
0
100
AcDbPoint
10
63
20
0
30
0
39
0
210
0
220
0
230
1
50
360
0
POINT
5
16D
100
AcDbEntity
8
Defpoints
62
0
6
ByLayer
370
-1
48
1
60
0
100
AcDbPoint
10
61.2
20
-4.9
30
0
39
0
210
0
220
0
230
1
50
360
0
POINT
5
16E
100
AcDbEntity
8
Defpoints
62
0
6
ByLayer
370
-1
48
1
60
0
100
AcDbPoint
10
61.2
20
-17.702503
30
0
39
0
210
0
220
0
230
1
50
360
0
ENDBLK
5
163
100
AcDbEntity
8
0
100
AcDbBlockEnd
0
BLOCK
5
176
100
AcDbEntity
8
0
100
AcDbBlockBegin
2
_U3
70
0
10
0
20
0
30
0
3
_U3
0
MTEXT
5
170
100
AcDbEntity
8
SK2
62
256
6
ByLayer
370
13
48
1
60
0
100
AcDbMText
10
69.589293
20
-16.66987
30
0
210
0
220
0
230
1
1
\W0.6367;1,80
40
3.5
41
0
44
1.084337
50
0
71
7
72
5
7
iso_b_vert
0
LINE
5
171
100
AcDbEntity
8
SK2
62
256
6
ByLayer
370
13
48
1
60
0
100
AcDbLine
10
63
20
-1.5875
30
0
11
63
21
-19.702503
31
0
39
0
210
0
220
0
230
1
0
LINE
5
172
100
AcDbEntity
8
SK2
62
256
6
ByLayer
370
13
48
1
60
0
100
AcDbLine
10
61.2
20
-6.4875
30
0
11
61.2
21
-19.702503
31
0
39
0
210
0
220
0
230
1
0
LINE
5
173
100
AcDbEntity
8
SK2
62
256
6
ByLayer
370
13
48
1
60
0
100
AcDbLine
10
52.45
20
-17.702503
30
0
11
76.559058
21
-17.702503
31
0
39
0
210
0
220
0
230
1
0
SOLID
5
174
100
AcDbEntity
8
SK2
62
256
6
ByLayer
370
18
48
1
60
0
100
AcDbTrace
10
63
20
-17.702503
30
0
11
66.499998
21
-17.241719
31
0
12
66.500002
22
-18.163287
32
0
13
66.500002
23
-18.163287
33
0
39
0
210
0
220
0
230
1
0
SOLID
5
175
100
AcDbEntity
8
SK2
62
256
6
ByLayer
370
18
48
1
60
0
100
AcDbTrace
10
61.2
20
-17.702503
30
0
11
57.700002
21
-18.163287
31
0
12
57.699998
22
-17.241719
32
0
13
57.699998
23
-17.241719
33
0
39
0
210
0
220
0
230
1
0
ENDBLK
5
177
100
AcDbEntity
8
0
100
AcDbBlockEnd
0
BLOCK
5
17C
100
AcDbEntity
8
0
100
AcDbBlockBegin
2
*D9
70
1
10
0
20
0
30
0
3
*D9
0
LINE
5
17E
100
AcDbEntity
8
0
62
256
6
ByLayer
370
-2
48
1
60
0
100
AcDbLine
10
-40
20
-6.5875
30
0
11
-40
21
-25.343428
31
0
39
0
210
0
220
0
230
1
0
LINE
5
17F
100
AcDbEntity
8
0
62
256
6
ByLayer
370
-2
48
1
60
0
100
AcDbLine
10
61.2
20
-6.4875
30
0
11
61.2
21
-25.343428
31
0
39
0
210
0
220
0
230
1
0
LINE
5
180
100
AcDbEntity
8
0
62
256
6
ByLayer
370
-2
48
1
60
0
100
AcDbLine
10
-36.5
20
-23.343428
30
0
11
57.7
21
-23.343428
31
0
39
0
210
0
220
0
230
1
0
SOLID
5
181
100
AcDbEntity
8
0
62
256
6
ByLayer
370
-1
48
1
60
0
100
AcDbTrace
10
-36.5
20
-22.760095
30
0
11
-36.5
21
-23.926762
31
0
12
-40
22
-23.343428
32
0
13
-40
23
-23.343428
33
0
39
0
210
0
220
0
230
1
0
SOLID
5
182
100
AcDbEntity
8
0
62
256
6
ByLayer
370
-1
48
1
60
0
100
AcDbTrace
10
57.7
20
-23.926762
30
0
11
57.7
21
-22.760095
31
0
12
61.2
22
-23.343428
32
0
13
61.2
23
-23.343428
33
0
39
0
210
0
220
0
230
1
0
MTEXT
5
183
100
AcDbEntity
8
0
62
256
6
ByLayer
370
18
48
1
60
0
100
AcDbMText
10
10.6
20
-16.343428
30
0
210
0
220
0
230
1
1
\A1;101.20
40
3.5
41
0
44
1
50
0
71
5
72
5
7
iso_b_vert
0
POINT
5
184
100
AcDbEntity
8
Defpoints
62
0
6
ByLayer
370
-1
48
1
60
0
100
AcDbPoint
10
-40
20
-5
30
0
39
0
210
0
220
0
230
1
50
360
0
POINT
5
185
100
AcDbEntity
8
Defpoints
62
0
6
ByLayer
370
-1
48
1
60
0
100
AcDbPoint
10
61.2
20
-4.9
30
0
39
0
210
0
220
0
230
1
50
360
0
POINT
5
186
100
AcDbEntity
8
Defpoints
62
0
6
ByLayer
370
-1
48
1
60
0
100
AcDbPoint
10
61.2
20
-23.343428
30
0
39
0
210
0
220
0
230
1
50
360
0
ENDBLK
5
17D
100
AcDbEntity
8
0
100
AcDbBlockEnd
0
BLOCK
5
18E
100
AcDbEntity
8
0
100
AcDbBlockBegin
2
_U4
70
0
10
0
20
0
30
0
3
_U4
0
MTEXT
5
188
100
AcDbEntity
8
SK2
62
256
6
ByLayer
370
13
48
1
60
0
100
AcDbMText
10
5.029835
20
-22.310795
30
0
210
0
220
0
230
1
1
\W0.6440;101,20
40
3.5
41
0
44
1.084337
50
0
71
7
72
5
7
iso_b_vert
0
LINE
5
189
100
AcDbEntity
8
SK2
62
256
6
ByLayer
370
13
48
1
60
0
100
AcDbLine
10
-40
20
-6.5875
30
0
11
-40
21
-25.343428
31
0
39
0
210
0
220
0
230
1
0
LINE
5
18A
100
AcDbEntity
8
SK2
62
256
6
ByLayer
370
13
48
1
60
0
100
AcDbLine
10
61.2
20
-6.4875
30
0
11
61.2
21
-25.343428
31
0
39
0
210
0
220
0
230
1
0
LINE
5
18B
100
AcDbEntity
8
SK2
62
256
6
ByLayer
370
13
48
1
60
0
100
AcDbLine
10
-40
20
-23.343428
30
0
11
61.2
21
-23.343428
31
0
39
0
210
0
220
0
230
1
0
SOLID
5
18C
100
AcDbEntity
8
SK2
62
256
6
ByLayer
370
18
48
1
60
0
100
AcDbTrace
10
-40
20
-23.343428
30
0
11
-36.500002
21
-22.882645
31
0
12
-36.499998
22
-23.804212
32
0
13
-36.499998
23
-23.804212
33
0
39
0
210
0
220
0
230
1
0
SOLID
5
18D
100
AcDbEntity
8
SK2
62
256
6
ByLayer
370
18
48
1
60
0
100
AcDbTrace
10
61.2
20
-23.343428
30
0
11
57.700002
21
-23.804212
31
0
12
57.699998
22
-22.882645
32
0
13
57.699998
23
-22.882645
33
0
39
0
210
0
220
0
230
1
0
ENDBLK
5
18F
100
AcDbEntity
8
0
100
AcDbBlockEnd
0
ENDSEC
0
SECTION
2
ENTITIES
0
ELLIPSE
5
B5
100
AcDbEntity
8
1
62
256
6
ByLayer
370
18
48
1
60
0
100
AcDbEllipse
10
63.071817
20
0.146312
30
0
11
0.107158239883714
21
0.326150735856158
31
0
210
0
220
0
230
1
40
0.050974
41
2.14072981798638
42
2.34746926657726
0
ELLIPSE
5
B6
100
AcDbEntity
8
1
62
256
6
ByLayer
370
18
48
1
60
0
100
AcDbEllipse
10
62.953098
20
-0.059155
30
0
11
0.0685673025923526
21
0.197677258996918
31
0
210
0
220
0
230
1
40
0.089621
41
-2.14968638257094
42
-1.09978876525734
0
ELLIPSE
5
B7
100
AcDbEntity
8
1
62
256
6
ByLayer
370
13
48
1
60
0
100
AcDbEllipse
10
4.177795
20
-4.697536
30
0
11
-0.0417780479350077
21
0.0908548001524421
31
0
210
0
220
0
230
1
40
0.489065
41
0.154996833421521
42
1.47739131204634
0
ELLIPSE
5
B8
100
AcDbEntity
8
1
62
256
6
ByLayer
370
18
48
1
60
0
100
AcDbEllipse
10
53.527383
20
1.812629
30
0
11
9.14397571702425
21
-0.596547346753999
31
0
210
0
220
0
230
1
40
0.058294
41
0.0206048030001734
42
0.299886478053603
0
ELLIPSE
5
B9
100
AcDbEntity
8
1
62
256
6
ByLayer
370
18
48
1
60
0
100
AcDbEllipse
10
62.411389
20
-1.812629
30
0
11
0.2928823774401
21
0.799707144627252
31
0
210
0
220
0
230
1
40
0.073902
41
-1.44877255360171
42
-0.722781149906845
0
ELLIPSE
5
BA
100
AcDbEntity
8
1
62
256
6
ByLayer
370
18
48
1
60
0
100
AcDbEllipse
10
63.071817
20
-0.146312
30
0
11
0.107158243753255
21
-0.326150746323188
31
0
210
0
220
0
230
1
40
0.050974
41
-2.34746927437099
42
-2.14072983082267
0
ELLIPSE
5
BB
100
AcDbEntity
8
1
62
256
6
ByLayer
370
13
48
1
60
0
100
AcDbEllipse
10
4.250285
20
-4.685112
30
0
11
0.0081158928635293
21
0.099670117302167
31
0
210
0
220
0
230
1
40
0.474591
41
0.165965007410941
42
1.72134756224713
0
ELLIPSE
5
BC
100
AcDbEntity
8
1
62
256
6
ByLayer
370
18
48
1
60
0
100
AcDbEllipse
10
63.000821
20
0.002141
30
0
11
1.79461851040854
21
4.90015563667761
31
0
210
0
220
0
230
1
40
0.073902
41
-2.92806872520661
42
-2.86200531432017
0
ELLIPSE
5
BD
100
AcDbEntity
8
1
62
256
6
ByLayer
370
18
48
1
60
0
100
AcDbEllipse
10
63.000821
20
-0.002141
30
0
11
1.79461857539344
21
-4.90015582509657
31
0
210
0
220
0
230
1
40
0.073902
41
2.86200531967048
42
2.92806872925296
0
ELLIPSE
5
BE
100
AcDbEntity
8
1
62
256
6
ByLayer
370
18
48
1
60
0
100
AcDbEllipse
10
62.411389
20
1.812629
30
0
11
0.292882377356835
21
-0.799707144432621
31
0
210
0
220
0
230
1
40
0.073902
41
0.722781149920523
42
1.44877255376828
0
POINT
5
70
100
AcDbEntity
8
80
62
256
6
ByLayer
370
18
48
1
60
0
100
AcDbPoint
10
0
20
0
30
0
39
0
210
0
220
0
230
1
50
360
0
POINT
5
72
100
AcDbEntity
8
81
62
256
6
ByLayer
370
18
48
1
60
0
100
AcDbPoint
10
63
20
0
30
0
39
0
210
0
220
0
230
1
50
360
0
POINT
5
74
100
AcDbEntity
8
1
62
256
6
ByLayer
370
18
48
1
60
1
100
AcDbPoint
10
61.2
20
-4.9
30
0
39
0
210
0
220
0
230
1
50
360
0
POINT
5
76
100
AcDbEntity
8
1
62
256
6
ByLayer
370
18
48
1
60
1
100
AcDbPoint
10
-40
20
-5
30
0
39
0
210
0
220
0
230
1
50
360
0
POINT
5
77
100
AcDbEntity
8
1
62
256
6
ByLayer
370
18
48
1
60
1
100
AcDbPoint
10
16.575
20
4.9
30
0
39
0
210
0
220
0
230
1
50
360
0
POINT
5
78
100
AcDbEntity
8
1
62
256
6
ByLayer
370
18
48
1
60
1
100
AcDbPoint
10
61.2
20
-4.9
30
0
39
0
210
0
220
0
230
1
50
360
0
POINT
5
79
100
AcDbEntity
8
1
62
256
6
ByLayer
370
18
48
1
60
1
100
AcDbPoint
10
-40
20
-5
30
0
39
0
210
0
220
0
230
1
50
360
0
POINT
5
7A
100
AcDbEntity
8
1
62
256
6
ByLayer
370
18
48
1
60
1
100
AcDbPoint
10
61.2
20
-4.9
30
0
39
0
210
0
220
0
230
1
50
360
0
SPLINE
5
BF
100
AcDbEntity
8
SK1
62
256
6
ByLayer
370
18
48
1
60
0
100
AcDbSpline
70
4
71
3
72
8
73
4
40
0
40
0
40
0
40
0
40
1
40
1
40
1
40
1
41
1
10
-39.35
20
3.83196001397653
30
0
41
1
10
-39.5672238350105
20
3.66488979418151
30
0
41
1
10
-39.7839917756392
20
3.49749502305812
30
0
41
1
10
-40
20
3.32955940972698
30
0
0
SPLINE
5
C0
100
AcDbEntity
8
SK1
62
256
6
ByLayer
370
18
48
1
60
0
100
AcDbSpline
70
4
71
3
72
8
73
4
40
0
40
0
40
0
40
0
40
1
40
1
40
1
40
1
41
1
10
-40
20
2.0033279599705
30
0
41
1
10
-39.7839825041701
20
2.17127078140612
30
0
41
1
10
-39.5672159460453
20
2.33866441195045
30
0
41
1
10
-39.35
20
2.50572856422008
30
0
0
SPLINE
5
C1
100
AcDbEntity
8
SK1
62
256
6
ByLayer
370
18
48
1
60
0
100
AcDbSpline
70
4
71
3
72
12
73
8
40
0
40
0
40
0
40
0
40
0.500000000000003
40
0.500000000000003
40
0.750000000000001
40
0.750000000000001
40
1
40
1
40
1
40
1
41
1
10
-39.35
20
2.50572856422005
30
0
41
1
10
-39.3264213677977
20
2.52386325585877
30
0
41
1
10
-39.3036992467059
20
2.54806340047409
30
0
41
1
10
-39.2756046028624
20
2.58965438418241
30
0
41
1
10
-39.2670500056163
20
2.60478363325245
30
0
41
1
10
-39.2542658313663
20
2.63558312889794
30
0
41
1
10
-39.25
20
2.65165439789806
30
0
41
1
10
-39.25
20
2.66526131161387
30
0
0
SPLINE
5
C2
100
AcDbEntity
8
SK1
62
256
6
ByLayer
370
18
48
1
60
0
100
AcDbSpline
70
4
71
3
72
12
73
8
40
0
40
0
40
0
40
0
40
0.25
40
0.25
40
0.5
40
0.5
40
1
40
1
40
1
40
1
41
1
10
-39.25
20
3.85886961639469
30
0
41
1
10
-39.25
20
3.86734115305984
30
0
41
1
10
-39.254233190705
20
3.87189013308222
30
0
41
1
10
-39.2670221927524
20
3.87483350363379
30
0
41
1
10
-39.2754822149466
20
3.87341621216825
30
0
41
1
10
-39.3037500831724
20
3.86368221587483
30
0
41
1
10
-39.3264281370761
20
3.85008949925839
30
0
41
1
10
-39.35
20
3.83196001397656
30
0
0
SPLINE
5
C3
100
AcDbEntity
8
1
62
256
6
ByLayer
370
18
48
1
60
0
100
AcDbSpline
70
4
71
3
72
8
73
4
40
0
40
0
40
0
40
0
40
1
40
1
40
1
40
1
41
1
10
61.3597835144206
20
-4.71608925079508
30
0
41
1
10
61.3477633209153
20
-4.74901209054664
30
0
41
1
10
61.3357336155658
20
-4.78192807031968
30
0
41
1
10
61.323694398636
20
-4.81483719030439
30
0
0
SPLINE
5
C4
100
AcDbEntity
8
1
62
256
6
ByLayer
370
18
48
1
60
0
100
AcDbSpline
70
4
71
3
72
40
73
36
40
0
40
0
40
0
40
0
40
0.104004031487055
40
0.104004031487055
40
0.156006047230581
40
0.156006047230581
40
0.208008062974108
40
0.208008062974108
40
0.260010078717636
40
0.260010078717636
40
0.312012094461164
40
0.312012094461164
40
0.416016125948222
40
0.416016125948222
40
0.468018141691751
40
0.468018141691751
40
0.52002015743528
40
0.52002015743528
40
0.572022173178809
40
0.572022173178809
40
0.624024188922339
40
0.624024188922339
40
0.676026204665868
40
0.676026204665868
40
0.728028220409397
40
0.728028220409397
40
0.780030236152926
40
0.780030236152926
40
0.832032251896455
40
0.832032251896455
40
0.884034267639984
40
0.884034267639984
40
0.936036283383513
40
0.936036283383513
40
1
40
1
40
1
40
1
41
1
10
19.3019837061727
20
-0.537386556633834
30
0
41
1
10
19.7407755131906
20
-0.783823389479949
30
0
41
1
10
20.1802111563979
20
-1.02385602380824
30
0
41
1
10
20.8380221442238
20
-1.3786784000749
30
0
41
1
10
21.056945415118
20
-1.49627636174281
30
0
41
1
10
21.4946531933131
20
-1.72910909499674
30
0
41
1
10
21.7139959995129
20
-1.84340131023231
30
0
41
1
10
22.1535162508003
20
-2.06802419231084
30
0
41
1
10
22.373801021833
20
-2.17850872289179
30
0
41
1
10
22.8131056959726
20
-2.39529359338278
30
0
41
1
10
23.0321384737407
20
-2.50194129328125
30
0
41
1
10
23.6886176908616
20
-2.81460045556878
30
0
41
1
10
24.127526784257
20
-3.0103376636817
30
0
41
1
10
24.7857434467984
20
-3.28806221312144
30
0
41
1
10
25.0049800353076
20
-3.37822902854236
30
0
41
1
10
25.443950777686
20
-3.55198596929955
30
0
41
1
10
25.6635472494908
20
-3.63481327019281
30
0
41
1
10
26.1025063420182
20
-3.79314642287034
30
0
41
1
10
26.3218800241748
20
-3.8686359991807
30
0
41
1
10
26.760113003203
20
-4.01256582061731
30
0
41
1
10
26.9787346718484
20
-4.08122245362412
30
0
41
1
10
27.4164511986841
20
-4.21034160126845
30
0
41
1
10
27.6358799514644
20
-4.27052867639784
30
0
41
1
10
28.0753404899852
20
-4.38275291823149
30
0
41
1
10
28.2955213400498
20
-4.43478384869005
30
0
41
1
10
28.7344914794669
20
-4.5303815451887
30
0
41
1
10
28.9532134855039
20
-4.57414487345724
30
0
41
1
10
29.3909238595668
20
-4.65240715651458
30
0
41
1
10
29.6101027937601
20
-4.68684962029582
30
0
41
1
10
30.0485804516136
20
-4.7467988922823
30
0
41
1
10
30.2679073686465
20
-4.77228859275712
30
0
41
1
10
30.7064359843162
20
-4.81429283559677
30
0
41
1
10
30.9254503260943
20
-4.83084457799114
30
0
41
1
10
31.4149665602369
20
-4.85708545423955
30
0
41
1
10
31.6850309877986
20
-4.86443343019943
30
0
41
1
10
31.9548235532124
20
-4.86473488189026
30
0
0
SPLINE
5
C5
100
AcDbEntity
8
1
62
256
6
ByLayer
370
18
48
1
60
0
100
AcDbSpline
70
4
71
3
72
32
73
28
40
0
40
0
40
0
40
0
40
0.0190075638511406
40
0.0190075638511406
40
0.141631618369748
40
0.141631618369748
40
0.202943645629054
40
0.202943645629054
40
0.264255672888359
40
0.264255672888359
40
0.325567700147665
40
0.325567700147665
40
0.38687972740697
40
0.38687972740697
40
0.509503781925578
40
0.509503781925578
40
0.632127836444186
40
0.632127836444186
40
0.693439863703488
40
0.693439863703488
40
0.75475189096279
40
0.75475189096279
40
0.816063918222093
40
0.816063918222093
40
0.877375945481395
40
0.877375945481395
40
1
40
1
40
1
40
1
41
1
10
50.660877756692
20
2.70944595946006
30
0
41
1
10
50.7286847555746
20
2.74135841892448
30
0
41
1
10
50.7965282876148
20
2.77298660738472
30
0
41
1
10
51.3024203176702
20
3.00640709337125
30
0
41
1
10
51.7424853531921
20
3.19771749362343
30
0
41
1
10
52.3986070166971
20
3.46763358691706
30
0
41
1
10
52.61726503187
20
3.5540085841993
30
0
41
1
10
53.0550453270174
20
3.71904987101499
30
0
41
1
10
53.2740096757164
20
3.79791862772328
30
0
41
1
10
53.7117831570126
20
3.94869844292867
30
0
41
1
10
53.93052253391
20
4.02067811862474
30
0
41
1
10
54.3678355689194
20
4.1574886539909
30
0
41
1
10
54.5871905487601
20
4.22181279330619
30
0
41
1
10
55.2455015689382
20
4.40168686659783
30
0
41
1
10
55.6835087476479
20
4.50478370192488
30
0
41
1
10
56.5567183176716
20
4.67759981185267
30
0
41
1
10
56.9948974910197
20
4.74552528073477
30
0
41
1
10
57.6530419205091
20
4.82073023015937
30
0
41
1
10
57.8722533959625
20
4.84132706409747
30
0
41
1
10
58.3095889299895
20
4.87311525346121
30
0
41
1
10
58.5284682245592
20
4.88422070799979
30
0
41
1
10
58.9664783045014
20
4.89712436264062
30
0
41
1
10
59.1855657053318
20
4.8989290036057
30
0
41
1
10
59.6236034713695
20
4.8932016562085
30
0
41
1
10
59.8423864106973
20
4.88563641362541
30
0
41
1
10
60.4993043921853
20
4.84862353217275
30
0
41
1
10
60.9381362118982
20
4.80560531265562
30
0
41
1
10
61.3758209666288
20
4.74433768431405
30
0
0
SPLINE
5
C6
100
AcDbEntity
8
1
62
256
6
ByLayer
370
18
48
1
60
0
100
AcDbSpline
70
4
71
3
72
14
73
10
40
0
40
0
40
0
40
0
40
0.25
40
0.25
40
0.5
40
0.5
40
0.75
40
0.75
40
1
40
1
40
1
40
1
41
1
10
61.3786564233079
20
-4.63685066558301
30
0
41
1
10
61.3806551384703
20
-4.63451255183691
30
0
41
1
10
61.3820036399439
20
-4.6339831008487
30
0
41
1
10
61.3830044012512
20
-4.63764253860336
30
0
41
1
10
61.3825984357669
20
-4.64189046742192
30
0
41
1
10
61.3794611463794
20
-4.65600384568626
30
0
41
1
10
61.3766852886635
20
-4.66595261786546
30
0
41
1
10
61.3692250276663
20
-4.6894874374259
30
0
41
1
10
61.3646231437526
20
-4.70283369539283
30
0
41
1
10
61.3597835144206
20
-4.71608925079508
30
0
0
SPLINE
5
C7
100
AcDbEntity
8
1
62
256
6
ByLayer
370
18
48
1
60
0
100
AcDbSpline
70
4
71
3
72
24
73
20
40
0
40
0
40
0
40
0
40
0.125
40
0.125
40
0.25
40
0.25
40
0.375
40
0.375
40
0.499999999999999
40
0.499999999999999
40
0.562499999999999
40
0.562499999999999
40
0.624999999999999
40
0.624999999999999
40
0.749999999999999
40
0.749999999999999
40
0.875
40
0.875
40
1
40
1
40
1
40
1
41
1
10
61.3758209666413
20
-4.74433768431288
30
0
41
1
10
61.4228559468633
20
-4.62668872215582
30
0
41
1
10
61.4699924129395
20
-4.50818170710582
30
0
41
1
10
61.5647699585855
20
-4.26690121966598
30
0
41
1
10
61.6123732688482
20
-4.14444708304316
30
0
41
1
10
61.7078501829943
20
-3.8972535038809
30
0
41
1
10
61.7556970553442
20
-3.77283308693822
30
0
41
1
10
61.8510014657827
20
-3.52243160932588
30
0
41
1
10
61.898536693894
20
-3.39638758220553
30
0
41
1
10
61.9697194913697
20
-3.20645613899435
30
0
41
1
10
61.9934266602212
20
-3.14299837578102
30
0
41
1
10
62.0408156919188
20
-3.0159004182857
30
0
41
1
10
62.064496962413
20
-2.95225595373719
30
0
41
1
10
62.1354484176942
20
-2.76065676396786
30
0
41
1
10
62.1824033940472
20
-2.63275197455059
30
0
41
1
10
62.2757022588459
20
-2.37689688787177
30
0
41
1
10
62.3220750213526
20
-2.24890711653035
30
0
41
1
10
62.4144691501687
20
-1.99284853856449
30
0
41
1
10
62.4603987638752
20
-1.86460381984014
30
0
41
1
10
62.5058737952216
20
-1.73663083334535
30
0
0
SPLINE
5
C8
100
AcDbEntity
8
1
62
256
6
ByLayer
370
13
48
1
60
0
100
AcDbSpline
70
4
71
3
72
8
73
4
40
0
40
0
40
0
40
0
40
1
40
1
40
1
40
1
41
1
10
4.12965794405224
20
-4.61092464371359
30
0
41
1
10
4.16708282827764
20
-4.59244119449417
30
0
41
1
10
4.20828985229301
20
-4.58412535422613
30
0
41
1
10
4.25047437280486
20
-4.58617550046014
30
0
0
SPLINE
5
C9
100
AcDbEntity
8
1
62
256
6
ByLayer
370
18
48
1
60
0
100
AcDbSpline
70
4
71
3
72
8
73
4
40
0
40
0
40
0
40
0
40
1
40
1
40
1
40
1
41
1
10
4.01637234901412
20
-4.76714091512704
30
0
41
1
10
4.00959163913649
20
-4.76424300694222
30
0
41
1
10
4.00601145237252
20
-4.76112172940165
30
0
41
1
10
4.00601247904407
20
-4.75781153969791
30
0
0
SPLINE
5
CA
100
AcDbEntity
8
1
62
256
6
ByLayer
370
18
48
1
60
0
100
AcDbSpline
70
4
71
3
72
18
73
14
40
0
40
0
40
0
40
0
40
0.44395963007446
40
0.44395963007446
40
0.693305202149153
40
0.693305202149153
40
0.755641595167826
40
0.755641595167826
40
0.817977988186499
40
0.817977988186499
40
0.942650774223845
40
0.942650774223845
40
1
40
1
40
1
40
1
41
1
10
18.9085936297093
20
-0.0003821606664189
30
0
41
1
10
19.974042596706
20
-0.584959420253227
30
0
41
1
10
21.0261826777686
20
-1.16300466070618
30
0
41
1
10
22.6745075127672
20
-2.00886054635214
30
0
41
1
10
23.2682816735425
20
-2.30176100702988
30
0
41
1
10
24.0153362201767
20
-2.64734315427918
30
0
41
1
10
24.1649935125453
20
-2.71542465926828
30
0
41
1
10
24.4648965508232
20
-2.84934869387825
30
0
41
1
10
24.615246293564
20
-2.91523150370492
30
0
41
1
10
25.0648685443406
20
-3.10822248914218
30
0
41
1
10
25.3634442422876
20
-3.23109592868306
30
0
41
1
10
25.798216246298
20
-3.40143279849224
30
0
41
1
10
25.9350381806597
20
-3.45378066455217
30
0
41
1
10
26.0717339539146
20
-3.5047735795635
30
0
0
SPLINE
5
CB
100
AcDbEntity
8
1
62
256
6
ByLayer
370
13
48
1
60
0
100
AcDbSpline
70
4
71
3
72
16
73
12
40
0
40
0
40
0
40
0
40
0.38909853924271
40
0.38909853924271
40
0.499013284491338
40
0.499013284491338
40
0.608928029739965
40
0.608928029739965
40
0.828757520237219
40
0.828757520237219
40
1
40
1
40
1
40
1
41
1
10
26.0717330167766
20
-3.50477322997401
30
0
41
1
10
27.1237017601124
20
-3.89719910924185
30
0
41
1
10
28.1681987719354
20
-4.20937978627327
30
0
41
1
10
29.5183031189239
20
-4.48625866862938
30
0
41
1
10
29.8163508916828
20
-4.53955655606546
30
0
41
1
10
30.4145295540411
20
-4.6300908243949
30
0
41
1
10
30.7151306329546
20
-4.66736108150977
30
0
41
1
10
31.6150071730347
20
-4.75345842850018
30
0
41
1
10
32.2143666169807
20
-4.77697305802334
30
0
41
1
10
33.282061275997
20
-4.75747899166572
30
0
41
1
10
33.74741364008
20
-4.72812033724722
30
0
41
1
10
34.2119908328835
20
-4.67862240523499
30
0
0
SPLINE
5
CC
100
AcDbEntity
8
1
62
256
6
ByLayer
370
18
48
1
60
0
100
AcDbSpline
70
4
71
3
72
18
73
14
40
0
40
0
40
0
40
0
40
0.125000000000001
40
0.125000000000001
40
0.250000000000003
40
0.250000000000003
40
0.500000000000003
40
0.500000000000003
40
0.750000000000003
40
0.750000000000003
40
0.875000000000001
40
0.875000000000001
40
1
40
1
40
1
40
1
41
1
10
9.58497100518505
20
-3.70095522102704
30
0
41
1
10
9.35402716213378
20
-3.62622588305896
30
0
41
1
10
9.12369798571714
20
-3.54643996240537
30
0
41
1
10
8.66387048884349
20
-3.37737571006116
30
0
41
1
10
8.43454545434335
20
-3.28826104821724
30
0
41
1
10
7.75149176408624
20
-3.0075743457264
30
0
41
1
10
7.30155645630376
20
-2.80123719540822
30
0
41
1
10
6.41030802423342
20
-2.35418186094225
30
0
41
1
10
5.96916541648241
20
-2.11252687340934
30
0
41
1
10
5.31578051232125
20
-1.71576767597833
30
0
41
1
10
5.09940398114946
20
-1.57771704680672
30
0
41
1
10
4.67035409325842
20
-1.28720403065816
30
0
41
1
10
4.45830997555885
20
-1.1351756364293
30
0
41
1
10
4.25128699782195
20
-0.975641325918417
30
0
0
SPLINE
5
CD
100
AcDbEntity
8
1
62
256
6
ByLayer
370
18
48
1
60
0
100
AcDbSpline
70
4
71
3
72
8
73
4
40
0
40
0
40
0
40
0
40
1
40
1
40
1
40
1
41
1
10
62.4994716536553
20
1.73677140238527
30
0
41
1
10
62.5016057294623
20
1.7367245571721
30
0
41
1
10
62.5037397766794
20
1.73667770083642
30
0
41
1
10
62.5058737952216
20
1.73663083334529
30
0
0
SPLINE
5
CE
100
AcDbEntity
8
1
62
256
6
ByLayer
370
13
48
1
60
0
100
AcDbSpline
70
4
71
3
72
24
73
20
40
0
40
0
40
0
40
0
40
0.125
40
0.125
40
0.25
40
0.25
40
0.375
40
0.375
40
0.4375
40
0.4375
40
0.5
40
0.5
40
0.625
40
0.625
40
0.75
40
0.75
40
0.875
40
0.875
40
1
40
1
40
1
40
1
41
1
10
4.25047437280483
20
-4.58617550046014
30
0
41
1
10
4.25052743104609
20
-4.55186204336181
30
0
41
1
10
4.25057593040162
20
-4.50011838182547
30
0
41
1
10
4.25066628630566
20
-4.36236604159748
30
0
41
1
10
4.2507083125015
20
-4.27563564434143
30
0
41
1
10
4.25078592398606
20
-4.07241664187308
30
0
41
1
10
4.25082179536557
20
-3.95569813742193
30
0
41
1
10
4.25087299580551
20
-3.75812588696539
30
0
41
1
10
4.25088962385141
20
-3.68850363257056
30
0
41
1
10
4.25092225933656
20
-3.54156182044352
30
0
41
1
10
4.25093830299608
20
-3.46401676979212
30
0
41
1
10
4.25098507733239
20
-3.22361176675659
30
0
41
1
10
4.25101473495431
20
-3.05196696867725
30
0
41
1
10
4.25107265105174
20
-2.68645142487901
30
0
41
1
10
4.25110095169759
20
-2.49224364313517
30
0
41
1
10
4.25115689791213
20
-2.0819802515239
30
0
41
1
10
4.25118410678562
20
-1.86920797337154
30
0
41
1
10
4.2512372625055
20
-1.42838235913075
30
0
41
1
10
4.25126280793884
20
-1.20360154700134
30
0
41
1
10
4.25128699707096
20
-0.975641325388949
30
0
0
SPLINE
5
CF
100
AcDbEntity
8
1
62
256
6
ByLayer
370
18
48
1
60
0
100
AcDbSpline
70
4
71
3
72
8
73
4
40
0
40
0
40
0
40
0
40
1
40
1
40
1
40
1
41
1
10
62.2735365340283
20
1.40017189134218
30
0
41
1
10
61.9344958429894
20
1.37751322112257
30
0
41
1
10
61.5942271110655
20
1.36170810923881
30
0
41
1
10
61.2532936338601
20
1.34961286615623
30
0
0
SPLINE
5
D0
100
AcDbEntity
8
1
62
256
6
ByLayer
370
18
48
1
60
0
100
AcDbSpline
70
4
71
3
72
14
73
10
40
0
40
0
40
0
40
0
40
0.25
40
0.25
40
0.5
40
0.5
40
0.75
40
0.75
40
1
40
1
40
1
40
1
41
1
10
4.25128699707099
20
-0.975641325339694
30
0
41
1
10
4.22709551917771
20
-0.956999091570282
30
0
41
1
10
4.20181764912411
20
-0.940913128376167
30
0
41
1
10
4.1491608643183
20
-0.917444987595928
30
0
41
1
10
4.12220726222932
20
-0.910673888096795
30
0
41
1
10
4.07417064495459
20
-0.91194272255612
30
0
41
1
10
4.05305746799391
20
-0.920148530207541
30
0
41
1
10
4.02196888191955
20
-0.947928913580398
30
0
41
1
10
4.01196496196903
20
-0.966706746990042
30
0
41
1
10
4.00621456430244
20
-0.987697281576573
30
0
0
SPLINE
5
D1
100
AcDbEntity
8
1
62
256
6
ByLayer
370
13
48
1
60
0
100
AcDbSpline
70
4
71
3
72
10
73
6
40
0
40
0
40
0
40
0
40
0.5
40
0.5
40
1
40
1
40
1
40
1
41
1
10
4.01637234901247
20
-4.76714091512628
30
0
41
1
10
4.02643933572435
20
-4.7555381657657
30
0
41
1
10
4.04076813045771
20
-4.744680326458
30
0
41
1
10
4.07915501030126
20
-4.72473095424178
30
0
41
1
10
4.10227733440328
20
-4.71614676913848
30
0
41
1
10
4.12965794405224
20
-4.70940516018228
30
0
0
SPLINE
5
D2
100
AcDbEntity
8
1
62
256
6
ByLayer
370
18
48
1
60
0
100
AcDbSpline
70
4
71
3
72
18
73
14
40
0
40
0
40
0
40
0
40
0.0551032456078843
40
0.0551032456078843
40
0.368190287068411
40
0.368190287068411
40
0.681277328528938
40
0.681277328528938
40
0.837820849259201
40
0.837820849259201
40
0.994364369989465
40
0.994364369989465
40
1
40
1
40
1
40
1
41
1
10
59.907811108412
20
-4.70231283644071
30
0
41
1
10
59.8034651240304
20
-4.70213777484625
30
0
41
1
10
59.6991775453285
20
-4.70093735230492
30
0
41
1
10
59.0026443704286
20
-4.68610018220505
30
0
41
1
10
58.4117201570029
20
-4.64054536718956
30
0
41
1
10
57.2272661802863
20
-4.48517212306351
30
0
41
1
10
56.6336771295249
20
-4.37524735810194
30
0
41
1
10
55.7367936594349
20
-4.16355468928512
30
0
41
1
10
55.4368946072639
20
-4.08516357207546
30
0
41
1
10
54.8406645826467
20
-3.91508988749476
30
0
41
1
10
54.5435382776344
20
-3.82323255118229
30
0
41
1
10
54.2363623817435
20
-3.72149382042713
30
0
41
1
10
54.2256889836056
20
-3.71795024533887
30
0
41
1
10
54.215016352825
20
-3.71439847920343
30
0
0
SPLINE
5
D3
100
AcDbEntity
8
1
62
256
6
ByLayer
370
13
48
1
60
0
100
AcDbSpline
70
4
71
3
72
26
73
22
40
0
40
0
40
0
40
0
40
0.281954586686127
40
0.281954586686127
40
0.353083399861477
40
0.353083399861477
40
0.388647806449151
40
0.388647806449151
40
0.424212213036826
40
0.424212213036826
40
0.566469839387531
40
0.566469839387531
40
0.850985092088941
40
0.850985092088941
40
0.886549498676617
40
0.886549498676617
40
0.922113905264294
40
0.922113905264294
40
0.993242718439649
40
0.993242718439649
40
1
40
1
40
1
40
1
41
1
10
54.215016352881
20
-3.71439847922201
30
0
41
1
10
53.0398544311768
20
-3.32331399377927
30
0
41
1
10
51.873996088406
20
-2.8329197603162
30
0
41
1
10
50.3988493409127
20
-2.13297295900597
30
0
41
1
10
50.100889780756
20
-1.98763991805239
30
0
41
1
10
49.6522247709138
20
-1.76388523794867
30
0
41
1
10
49.5022037619507
20
-1.68825005827222
30
0
41
1
10
49.2029946395241
20
-1.53595145268125
30
0
41
1
10
49.0536836062485
20
-1.45921902816366
30
0
41
1
10
48.3083552162596
20
-1.07309617709345
30
0
41
1
10
47.7158428141631
20
-0.756652109976443
30
0
41
1
10
45.9415072882048
20
0.200127523005051
30
0
41
1
10
44.7624344110716
20
0.847062849884566
30
0
41
1
10
43.4158309980195
20
1.53894145328707
30
0
41
1
10
43.2657955937102
20
1.6153792963876
30
0
41
1
10
42.9666040032555
20
1.76622453204084
30
0
41
1
10
42.8172795541343
20
1.84072891277893
30
0
41
1
10
42.3699688275537
20
2.06126584815553
30
0
41
1
10
42.0726286411495
20
2.20429270058881
30
0
41
1
10
41.7477159589102
20
2.35615531354364
30
0
41
1
10
41.7195321504063
20
2.36929067861081
30
0
41
1
10
41.6913531776544
20
2.38238560726705
30
0
0
SPLINE
5
D4
100
AcDbEntity
8
1
62
256
6
ByLayer
370
18
48
1
60
0
100
AcDbSpline
70
4
71
3
72
8
73
4
40
0
40
0
40
0
40
0
40
1
40
1
40
1
40
1
41
1
10
5.51172362827063
20
-4.63725455703317
30
0
41
1
10
5.09131900861667
20
-4.63671831900848
30
0
41
1
10
4.67120061385535
20
-4.61972352834403
30
0
41
1
10
4.25047437280486
20
-4.58617550046014
30
0
0
SPLINE
5
D5
100
AcDbEntity
8
1
62
256
6
ByLayer
370
13
48
1
60
0
100
AcDbSpline
70
4
71
3
72
8
73
4
40
0
40
0
40
0
40
0
40
1
40
1
40
1
40
1
41
1
10
4.12812874389283
20
-4.78654710964682
30
0
41
1
10
4.12863553239032
20
-4.76083350973857
30
0
41
1
10
4.12914526317633
20
-4.73511952956758
30
0
41
1
10
4.12965794405221
20
-4.70940516018228
30
0
0
SPLINE
5
D6
100
AcDbEntity
8
1
62
256
6
ByLayer
370
18
48
1
60
0
100
AcDbSpline
70
4
71
3
72
24
73
20
40
0
40
0
40
0
40
0
40
0.125
40
0.125
40
0.25
40
0.25
40
0.375
40
0.375
40
0.5
40
0.5
40
0.5625
40
0.5625
40
0.625
40
0.625
40
0.75
40
0.75
40
0.875
40
0.875
40
1
40
1
40
1
40
1
41
1
10
61.3758209666413
20
4.74433768431288
30
0
41
1
10
61.4228559476125
20
4.62668872028189
30
0
41
1
10
61.4699924144423
20
4.50818170332144
30
0
41
1
10
61.5647699616117
20
4.26690121192075
30
0
41
1
10
61.6123732726415
20
4.14444707327314
30
0
41
1
10
61.7078501883258
20
3.89725349002657
30
0
41
1
10
61.7556970614278
20
3.77283307106572
30
0
41
1
10
61.8510014733617
20
3.52243158930199
30
0
41
1
10
61.8985367022188
20
3.39638756009299
30
0
41
1
10
61.9697195008131
20
3.20645611374698
30
0
41
1
10
61.9934266700379
20
3.14299834949048
30
0
41
1
10
62.0408157024826
20
3.01590038991569
30
0
41
1
10
62.0644969733465
20
2.95225592429995
30
0
41
1
10
62.1354484297313
20
2.7606567312863
30
0
41
1
10
62.1824034067339
20
2.63275193992237
30
0
41
1
10
62.2757022729089
20
2.37689684914352
30
0
41
1
10
62.3220750361258
20
2.24890707575702
30
0
41
1
10
62.4144691663011
20
1.99284849368723
30
0
41
1
10
62.4603988230944
20
1.86460365318899
30
0
41
1
10
62.5058737952215
20
1.73663083334535
30
0
0
SPLINE
5
D7
100
AcDbEntity
8
1
62
256
6
ByLayer
370
18
48
1
60
0
100
AcDbSpline
70
4
71
3
72
44
73
40
40
0
40
0
40
0
40
0
40
0.0545524098233606
40
0.0545524098233606
40
0.109104819646721
40
0.109104819646721
40
0.163657229470082
40
0.163657229470082
40
0.218209639293442
40
0.218209639293442
40
0.272762049116803
40
0.272762049116803
40
0.327314458940164
40
0.327314458940164
40
0.381866868763524
40
0.381866868763524
40
0.436419278586885
40
0.436419278586885
40
0.490971688410245
40
0.490971688410245
40
0.545524098233606
40
0.545524098233606
40
0.600076508056967
40
0.600076508056967
40
0.654628917880327
40
0.654628917880327
40
0.709181327703688
40
0.709181327703688
40
0.763733737527048
40
0.763733737527048
40
0.818286147350409
40
0.818286147350409
40
0.87283855717377
40
0.87283855717377
40
0.92739096699713
40
0.92739096699713
40
0.981943376820491
40
0.981943376820491
40
1
40
1
40
1
40
1
41
1
10
9.58492355797037
20
-3.70099192196676
30
0
41
1
10
9.83760081390162
20
-3.78317120984397
30
0
41
1
10
10.0900380556619
20
-3.8599544993977
30
0
41
1
10
10.5944686320478
20
-4.0038738994233
30
0
41
1
10
10.8464363296083
20
-4.07116689887374
30
0
41
1
10
11.3501253226007
20
-4.19539915302278
30
0
41
1
10
11.6017422510091
20
-4.25221392535823
30
0
41
1
10
12.1059603589662
20
-4.35431817142876
30
0
41
1
10
12.3584183863554
20
-4.39993388494253
30
0
41
1
10
12.8639844451207
20
-4.48055419897111
30
0
41
1
10
13.1163282070936
20
-4.51526569386178
30
0
41
1
10
13.6201395686124
20
-4.57248355121271
30
0
41
1
10
13.8719795767467
20
-4.59502243167759
30
0
41
1
10
14.375830543401
20
-4.62908208282585
30
0
41
1
10
14.627766533559
20
-4.64057532744823
30
0
41
1
10
15.1317544366572
20
-4.65135026954442
30
0
41
1
10
15.3837084115401
20
-4.65048740989266
30
0
41
1
10
15.8888976512207
20
-4.63749977038603
30
0
41
1
10
16.1414401479935
20
-4.62579155712669
30
0
41
1
10
16.6456710697526
20
-4.58905277803274
30
0
41
1
10
16.8974912238338
20
-4.56433822546478
30
0
41
1
10
17.4007671637249
20
-4.50394776521512
30
0
41
1
10
17.6524586403151
20
-4.46865348102574
30
0
41
1
10
18.1564970898608
20
-4.38698360849239
30
0
41
1
10
18.4088087496212
20
-4.33950449502822
30
0
41
1
10
18.914035526661
20
-4.23359522851621
30
0
41
1
10
19.1661632719275
20
-4.17515861272722
30
0
41
1
10
19.6701659454092
20
-4.04961473575273
30
0
41
1
10
19.9221132781041
20
-3.98171328820757
30
0
41
1
10
20.4259088441383
20
-3.83437128110262
30
0
41
1
10
20.6777779959344
20
-3.75574516310709
30
0
41
1
10
21.1814974139504
20
-3.58953091733781
30
0
41
1
10
21.4334486535954
20
-3.50248224386996
30
0
41
1
10
21.9388026433712
20
-3.31772950000766
30
0
41
1
10
22.1912673318459
20
-3.22073102302252
30
0
41
1
10
22.6954160866787
20
-3.01965968532576
30
0
41
1
10
22.9470472551371
20
-2.91531318153193
30
0
41
1
10
23.2820335003145
20
-2.77179303164698
30
0
41
1
10
23.3653634977973
20
-2.73569119391124
30
0
41
1
10
23.4487170349681
20
-2.69919603377824
30
0
0
SPLINE
5
D8
100
AcDbEntity
8
1
62
256
6
ByLayer
370
18
48
1
60
0
100
AcDbSpline
70
4
71
3
72
44
73
40
40
0
40
0
40
0
40
0
40
0.0201921955488243
40
0.0201921955488243
40
0.0691825857713832
40
0.0691825857713832
40
0.118172975993942
40
0.118172975993942
40
0.167163366216501
40
0.167163366216501
40
0.21615375643906
40
0.21615375643906
40
0.265144146661619
40
0.265144146661619
40
0.314134536884178
40
0.314134536884178
40
0.363124927106737
40
0.363124927106737
40
0.412115317329296
40
0.412115317329296
40
0.461105707551854
40
0.461105707551854
40
0.510096097774413
40
0.510096097774413
40
0.559086487996972
40
0.559086487996972
40
0.608076878219531
40
0.608076878219531
40
0.706057658664647
40
0.706057658664647
40
0.755048048887205
40
0.755048048887205
40
0.804038439109763
40
0.804038439109763
40
0.902019219554881
40
0.902019219554881
40
0.95100960977744
40
0.95100960977744
40
1
40
1
40
1
40
1
41
1
10
42.5346499816548
20
4.68092776281114
30
0
41
1
10
42.6385406306316
20
4.68024217836248
30
0
41
1
10
42.7424830773227
20
4.67847496688597
30
0
41
1
10
43.0987431309815
20
4.66851249309235
30
0
41
1
10
43.3507036891705
20
4.65533165966431
30
0
41
1
10
43.854069592003
20
4.61822125879777
30
0
41
1
10
44.1053347677492
20
4.59426427966707
30
0
41
1
10
44.6081012954574
20
4.53364272406455
30
0
41
1
10
44.8597774780889
20
4.49725851714482
30
0
41
1
10
45.3635504683812
20
4.4137424734466
30
0
41
1
10
45.6158842176169
20
4.36669237784895
30
0
41
1
10
46.1199139732365
20
4.26124251685653
30
0
41
1
10
46.3713821155223
20
4.2025257103476
30
0
41
1
10
46.8745327743766
20
4.07484053314136
30
0
41
1
10
47.1260446874601
20
4.00576292977448
30
0
41
1
10
47.6289423440866
20
3.85847848602924
30
0
41
1
10
47.8802280378372
20
3.77982211631002
30
0
41
1
10
48.3833406269224
20
3.61201555295824
30
0
41
1
10
48.6356621556752
20
3.52337612551526
30
0
41
1
10
49.1399565417048
20
3.3382751106827
30
0
41
1
10
49.3917470480732
20
3.24214869490186
30
0
41
1
10
49.8945596144502
20
3.040461296839
30
0
41
1
10
50.1455881931753
20
2.93494597774639
30
0
41
1
10
50.6483756467353
20
2.71754843772263
30
0
41
1
10
50.8999496606671
20
2.60543219244161
30
0
41
1
10
51.4034778253601
20
2.37453139232494
30
0
41
1
10
51.6556419405293
20
2.25552183763114
30
0
41
1
10
52.4111121887914
20
1.89048137191088
30
0
41
1
10
52.9141292504766
20
1.6389916512675
30
0
41
1
10
53.6680159948861
20
1.24815633441372
30
0
41
1
10
53.9191384666898
20
1.11559933774322
30
0
41
1
10
54.4224858406737
20
0.848831271615438
30
0
41
1
10
54.6748635548462
20
0.714174660518324
30
0
41
1
10
55.430888426003
20
0.308000813573585
30
0
41
1
10
55.9327759715495
20
0.033771418725081
30
0
41
1
10
56.6870229945517
20
-0.374225224576321
30
0
41
1
10
56.9385445691533
20
-0.509900132343489
30
0
41
1
10
57.4418517558619
20
-0.780514458204891
30
0
41
1
10
57.6938402341925
20
-0.915960808804073
30
0
41
1
10
57.9454906840287
20
-1.04931927980869
30
0
0
SPLINE
5
D9
100
AcDbEntity
8
1
62
256
6
ByLayer
370
18
48
1
60
0
100
AcDbSpline
70
4
71
3
72
16
73
12
40
0
40
0
40
0
40
0
40
0.25
40
0.25
40
0.5
40
0.5
40
0.625
40
0.625
40
0.75
40
0.75
40
1
40
1
40
1
40
1
41
1
10
60.4978897477449
20
-3.6192610312595
30
0
41
1
10
60.2536906618123
20
-3.47313526729371
30
0
41
1
10
60.0150065806962
20
-3.31276351188311
30
0
41
1
10
59.5500604702806
20
-2.95993218794359
30
0
41
1
10
59.3237754078873
20
-2.76753211696044
30
0
41
1
10
58.995722769201
20
-2.44954898805446
30
0
41
1
10
58.8881525766159
20
-2.33848539121203
30
0
41
1
10
58.6779405818436
20
-2.10558011159841
30
0
41
1
10
58.5764254905369
20
-1.98499802893943
30
0
41
1
10
58.2837091592034
20
-1.6096488235664
30
0
41
1
10
58.1039505558505
20
-1.34115227647888
30
0
41
1
10
57.9454906840441
20
-1.04931927981687
30
0
0
SPLINE
5
DA
100
AcDbEntity
8
1
62
256
6
ByLayer
370
13
48
1
60
0
100
AcDbSpline
70
4
71
3
72
12
73
8
40
0
40
0
40
0
40
0
40
0.500000000000004
40
0.500000000000004
40
0.750000000000002
40
0.750000000000002
40
1
40
1
40
1
40
1
41
1
10
4.00601247904109
20
-4.75781153970968
30
0
41
1
10
4.01343799378427
20
-4.72838458936059
30
0
41
1
10
4.02760804899614
20
-4.70014430518393
30
0
41
1
10
4.05876225195468
20
-4.66218928008269
30
0
41
1
10
4.07099496039547
20
-4.65012623025089
30
0
41
1
10
4.09809797774031
20
-4.62867446366431
30
0
41
1
10
4.11306463513785
20
-4.61911976813533
30
0
41
1
10
4.12965794405224
20
-4.61092464371359
30
0
0
SPLINE
5
DB
100
AcDbEntity
8
1
62
256
6
ByLayer
370
18
48
1
60
0
100
AcDbSpline
70
4
71
3
72
26
73
22
40
0
40
0
40
0
40
0
40
0.124999999999999
40
0.124999999999999
40
0.249999999999999
40
0.249999999999999
40
0.312499999999999
40
0.312499999999999
40
0.374999999999999
40
0.374999999999999
40
0.499999999999999
40
0.499999999999999
40
0.624999999999999
40
0.624999999999999
40
0.749999999999999
40
0.749999999999999
40
0.874999999999999
40
0.874999999999999
40
0.9375
40
0.9375
40
1
40
1
40
1
40
1
41
1
10
4.00601247904407
20
-4.75781153969658
30
0
41
1
10
4.0060254792694
20
-4.71589619521143
30
0
41
1
10
4.00603754275275
20
-4.65590493515919
30
0
41
1
10
4.00605978827301
20
-4.50362771675589
30
0
41
1
10
4.00607004287369
20
-4.41121052458877
30
0
41
1
10
4.00608453947896
20
-4.2482533548839
30
0
41
1
10
4.00608922347908
20
-4.18986267727044
30
0
41
1
10
4.00609835856616
20
-4.06474729924642
30
0
41
1
10
4.0061028129717
20
-3.9979125066385
30
0
41
1
10
4.00611570471071
20
-3.78821484881956
30
0
41
1
10
4.00612375433127
20
-3.63521197588793
30
0
41
1
10
4.00613926757958
20
-3.30335523925549
30
0
41
1
10
4.00614674505971
20
-3.12410590283588
30
0
41
1
10
4.00616141662326
20
-2.74021801499359
30
0
41
1
10
4.00616845920496
20
-2.53968712205344
30
0
41
1
10
4.00618221957023
20
-2.12211432796408
30
0
41
1
10
4.00618893669105
20
-1.90507129694672
30
0
41
1
10
4.00619882061471
20
-1.56678125196797
30
0
41
1
10
4.00620208937616
20
-1.45158893485581
30
0
41
1
10
4.00620844660375
20
-1.2206653129119
30
0
41
1
10
4.00621154770229
20
-1.10451745313114
30
0
41
1
10
4.0062145642996
20
-0.987697281578477
30
0
0
SPLINE
5
DC
100
AcDbEntity
8
1
62
256
6
ByLayer
370
18
48
1
60
0
100
AcDbSpline
70
4
71
3
72
8
73
4
40
0
40
0
40
0
40
0
40
1
40
1
40
1
40
1
41
1
10
61.2780798753264
20
-4.70217311107351
30
0
41
1
10
61.3009609646138
20
-4.7104540990936
30
0
41
1
10
61.3345825750093
20
-4.68840862265788
30
0
41
1
10
61.3786564233078
20
-4.63685066558301
30
0
0
SPLINE
5
DD
100
AcDbEntity
8
1
62
256
6
ByLayer
370
13
48
1
60
0
100
AcDbSpline
70
4
71
3
72
8
73
4
40
0
40
0
40
0
40
0
40
1
40
1
40
1
40
1
41
1
10
4.12965794405224
20
-4.70940516018228
30
0
41
1
10
4.15237414856253
20
-4.69878178821509
30
0
41
1
10
4.17709303461413
20
-4.69445729751547
30
0
41
1
10
4.20229981465587
20
-4.69625308652118
30
0
0
SPLINE
5
DE
100
AcDbEntity
8
1
62
256
6
ByLayer
370
18
48
1
60
0
100
AcDbSpline
70
4
71
3
72
46
73
42
40
0
40
0
40
0
40
0
40
0.0625000000000024
40
0.0625000000000024
40
0.0937500000000036
40
0.0937500000000036
40
0.109375000000003
40
0.109375000000003
40
0.125000000000003
40
0.125000000000003
40
0.156250000000002
40
0.156250000000002
40
0.187500000000001
40
0.187500000000001
40
0.21875
40
0.21875
40
0.249999999999999
40
0.249999999999999
40
0.281249999999998
40
0.281249999999998
40
0.312499999999997
40
0.312499999999997
40
0.343749999999996
40
0.343749999999996
40
0.374999999999995
40
0.374999999999995
40
0.406249999999994
40
0.406249999999994
40
0.437499999999993
40
0.437499999999993
40
0.499999999999995
40
0.499999999999995
40
0.562499999999998
40
0.562499999999998
40
0.625
40
0.625
40
0.75
40
0.75
40
0.875
40
0.875
40
1
40
1
40
1
40
1
41
1
10
61.1346861855822
20
1.14588280274981
30
0
41
1
10
61.1792051551338
20
1.00617424902228
30
0
41
1
10
61.2277382176503
20
0.867678272971858
30
0
41
1
10
61.3035571625031
20
0.661580497144456
30
0
41
1
10
61.3294926022668
20
0.59317081851961
30
0
41
1
10
61.3701160167451
20
0.491308274680961
30
0
41
1
10
61.3839274940528
20
0.457475998169599
30
0
41
1
10
61.4120848651999
20
0.390114054988913
30
0
41
1
10
61.4267731096603
20
0.356763371506503
30
0
41
1
10
61.4692729960523
20
0.255851480887515
30
0
41
1
10
61.4953373500307
20
0.187357868811716
30
0
41
1
10
61.5407194964213
20
0.0482537819368076
30
0
41
1
10
61.5602571990381
20
-0.0229458688481543
30
0
41
1
10
61.5897788111819
20
-0.165803182471365
30
0
41
1
10
61.5997732827322
20
-0.237216958711088
30
0
41
1
10
61.6067700943678
20
-0.380003949550059
30
0
41
1
10
61.603580989804
20
-0.451880592431365
30
0
41
1
10
61.5838474766745
20
-0.586890537570895
30
0
41
1
10
61.5674302265136
20
-0.651099192559315
30
0
41
1
10
61.5215484931391
20
-0.772950917352745
30
0
41
1
10
61.4927139459776
20
-0.828745413415618
30
0
41
1
10
61.4255820460404
20
-0.929455436431311
30
0
41
1
10
61.3867080122792
20
-0.974780404457164
30
0
41
1
10
61.3030070623429
20
-1.05225126194682
30
0
41
1
10
61.2580268155637
20
-1.08521829322368
30
0
41
1
10
61.163691430955
20
-1.1430891128376
30
0
41
1
10
61.1142836249108
20
-1.1681628750361
30
0
41
1
10
61.0127746686648
20
-1.21008428968443
30
0
41
1
10
60.9613712509169
20
-1.22915167289028
30
0
41
1
10
60.8060361063426
20
-1.28272787981058
30
0
41
1
10
60.7008527161621
20
-1.31265251175245
30
0
41
1
10
60.4880109480727
20
-1.36143695405912
30
0
41
1
10
60.3802596186
20
-1.38032664041975
30
0
41
1
10
60.162240035819
20
-1.40769637086197
30
0
41
1
10
60.0523544141649
20
-1.41616930842221
30
0
41
1
10
59.7227608025501
20
-1.42692154575448
30
0
41
1
10
59.5020864509554
20
-1.41485448316681
30
0
41
1
10
59.0591690806929
20
-1.35879992447894
30
0
41
1
10
58.836917251402
20
-1.31463314310369
30
0
41
1
10
58.3911070614952
20
-1.19971328488882
30
0
41
1
10
58.1674997644202
20
-1.1290719354792
30
0
41
1
10
57.9454906840441
20
-1.04931927981684
30
0
0
SPLINE
5
DF
100
AcDbEntity
8
1
62
256
6
ByLayer
370
18
48
1
60
0
100
AcDbSpline
70
4
71
3
72
100
73
96
40
0
40
0
40
0
40
0
40
0.0075692249269473
40
0.0075692249269473
40
0.0288907417599926
40
0.0288907417599926
40
0.0502122585930378
40
0.0502122585930378
40
0.071533775426083
40
0.071533775426083
40
0.0928552922591283
40
0.0928552922591283
40
0.114176809092173
40
0.114176809092173
40
0.135498325925219
40
0.135498325925219
40
0.156819842758264
40
0.156819842758264
40
0.178141359591309
40
0.178141359591309
40
0.199462876424355
40
0.199462876424355
40
0.2207843932574
40
0.2207843932574
40
0.242105910090445
40
0.242105910090445
40
0.26342742692349
40
0.26342742692349
40
0.284748943756535
40
0.284748943756535
40
0.306070460589581
40
0.306070460589581
40
0.327391977422626
40
0.327391977422626
40
0.348713494255671
40
0.348713494255671
40
0.370035011088716
40
0.370035011088716
40
0.391356527921762
40
0.391356527921762
40
0.412678044754807
40
0.412678044754807
40
0.433999561587852
40
0.433999561587852
40
0.455321078420897
40
0.455321078420897
40
0.476642595253943
40
0.476642595253943
40
0.497964112086988
40
0.497964112086988
40
0.519285628920033
40
0.519285628920033
40
0.540607145753078
40
0.540607145753078
40
0.561928662586124
40
0.561928662586124
40
0.583250179419169
40
0.583250179419169
40
0.604571696252214
40
0.604571696252214
40
0.625893213085259
40
0.625893213085259
40
0.647214729918305
40
0.647214729918305
40
0.66853624675135
40
0.66853624675135
40
0.689857763584395
40
0.689857763584395
40
0.71117928041744
40
0.71117928041744
40
0.732500797250485
40
0.732500797250485
40
0.775143830916576
40
0.775143830916576
40
0.796465347749622
40
0.796465347749622
40
0.817786864582668
40
0.817786864582668
40
0.839108381415714
40
0.839108381415714
40
0.86042989824876
40
0.86042989824876
40
0.881751415081806
40
0.881751415081806
40
0.903072931914852
40
0.903072931914852
40
0.924394448747899
40
0.924394448747899
40
0.945715965580945
40
0.945715965580945
40
0.967037482413991
40
0.967037482413991
40
0.988358999247037
40
0.988358999247037
40
1
40
1
40
1
40
1
41
1
10
50.6686328258471
20
-2.70747064504323
30
0
41
1
10
50.5793680116823
20
-2.74693101210693
30
0
41
1
10
50.490098476837
20
-2.78597274549395
30
0
41
1
10
50.1493370379277
20
-2.93335869242657
30
0
41
1
10
49.8980108297188
20
-3.03903976354019
30
0
41
1
10
49.3941459893248
20
-3.24122319316541
30
0
41
1
10
49.1417439297236
20
-3.3375976855659
30
0
41
1
10
48.6379216111064
20
-3.52256798773297
30
0
41
1
10
48.3862468493117
20
-3.61100786594162
30
0
41
1
10
47.8835233664156
20
-3.77876088746569
30
0
41
1
10
47.6322089246783
20
-3.85748377136491
30
0
41
1
10
47.1288496290562
20
-4.00497901217258
30
0
41
1
10
46.8769202481153
20
-4.07421021443881
30
0
41
1
10
46.3725036207738
20
-4.20226538154748
30
0
41
1
10
46.1204285379811
20
-4.26112125421304
30
0
41
1
10
45.6171082433379
20
-4.36644985686212
30
0
41
1
10
45.365504126373
20
-4.41338681026559
30
0
41
1
10
44.8623102541236
20
-4.49687013219256
30
0
41
1
10
44.6107231864206
20
-4.5332864453095
30
0
41
1
10
44.1076811316307
20
-4.59402111177906
30
0
41
1
10
43.8560480683545
20
-4.61805451049983
30
0
41
1
10
43.3515566209489
20
-4.65528954691291
30
0
41
1
10
43.0991570778122
20
-4.66848722294202
30
0
41
1
10
42.5954365782746
20
-4.68260063178485
30
0
41
1
10
42.3440763240111
20
-4.68297471219904
30
0
41
1
10
41.8413127391561
20
-4.67198499321646
30
0
41
1
10
41.589749501923
20
-4.66151862661215
30
0
41
1
10
41.0862080060474
20
-4.62835110327205
30
0
41
1
10
40.8342098267608
20
-4.60572478233479
30
0
41
1
10
40.3297260742999
20
-4.54746247420888
30
0
41
1
10
40.07771591191
20
-4.51269915775109
30
0
41
1
10
39.5739213404549
20
-4.43316899176639
30
0
41
1
10
39.3221419777654
20
-4.38783882426017
30
0
41
1
10
38.8187303242131
20
-4.28530300467273
30
0
41
1
10
38.5671803459453
20
-4.2277865842392
30
0
41
1
10
38.0638493123958
20
-4.10369754676361
30
0
41
1
10
37.8118200611339
20
-4.03679750083384
30
0
41
1
10
37.306779467856
20
-3.89211594574925
30
0
41
1
10
37.0544813700957
20
-3.81440393663968
30
0
41
1
10
36.5507972203856
20
-3.64964665439581
30
0
41
1
10
36.2993870884177
20
-3.56296474863203
30
0
41
1
10
35.7960956845559
20
-3.3809717796085
30
0
41
1
10
35.5443224131175
20
-3.28562151548346
30
0
41
1
10
35.0403775891908
20
-3.08606994903497
30
0
41
1
10
34.7882799486623
20
-2.98232498084758
30
0
41
1
10
34.2836350371943
20
-2.76726268021017
30
0
41
1
10
34.0316203248791
20
-2.65631133167713
30
0
41
1
10
33.5278536920131
20
-2.42787184563395
30
0
41
1
10
33.2760911297238
20
-2.31055470087338
30
0
41
1
10
32.772798440823
20
-2.07077489962342
30
0
41
1
10
32.5214450952633
20
-1.94786219516516
30
0
41
1
10
32.0178225581664
20
-1.69743001173711
30
0
41
1
10
31.765521612838
20
-1.5696571539118
30
0
41
1
10
31.2603736678706
20
-1.3106868183242
30
0
41
1
10
31.0081913858885
20
-1.17973999341936
30
0
41
1
10
30.5047123917039
20
-0.914463929124764
30
0
41
1
10
30.2531182086746
20
-0.780609276426532
30
0
41
1
10
29.7495509503566
20
-0.511900628310343
30
0
41
1
10
29.4976444806231
20
-0.376991884488859
30
0
41
1
10
28.9936362514892
20
-0.105948385769182
30
0
41
1
10
28.741548591402
20
0.0306667647585925
30
0
41
1
10
28.2366670883178
20
0.30285791282725
30
0
41
1
10
27.9844340459062
20
0.438141010517512
30
0
41
1
10
27.4802781006223
20
0.707155474287873
30
0
41
1
10
27.2283769190909
20
0.840926164437803
30
0
41
1
10
26.7250385192814
20
1.10653621255318
30
0
41
1
10
26.4733050166886
20
1.23783297075369
30
0
41
1
10
25.9689934669528
20
1.49705523953855
30
0
41
1
10
25.7163144192428
20
1.62516594813724
30
0
41
1
10
25.2112136635062
20
1.87707723748332
30
0
41
1
10
24.9594106720985
20
2.00056961657208
30
0
41
1
10
24.2040312759968
20
2.36222491368005
30
0
41
1
10
23.7002766061595
20
2.59264680105289
30
0
41
1
10
22.9443248605767
20
2.9164573181861
30
0
41
1
10
22.691918055736
20
3.02109527469705
30
0
41
1
10
22.186898810351
20
3.22243224199866
30
0
41
1
10
21.9346225041266
20
3.31930333195271
30
0
41
1
10
21.4306241578652
20
3.5034686035477
30
0
41
1
10
21.1790342034004
20
3.59037110400607
30
0
41
1
10
20.6756144236371
20
3.75643144098447
30
0
41
1
10
20.4236654273331
20
3.83506208469416
30
0
41
1
10
19.9192010670213
20
3.98252996334063
30
0
41
1
10
19.6663620686528
20
4.05061236227931
30
0
41
1
10
19.1614453943393
20
4.17628284785118
30
0
41
1
10
18.909455434175
20
4.23461295829236
30
0
41
1
10
18.405297780616
20
4.34018193960858
30
0
41
1
10
18.1532642097213
20
4.38755951856072
30
0
41
1
10
17.6491623895492
20
4.46913481359337
30
0
41
1
10
17.3971823136514
20
4.50443790912456
30
0
41
1
10
16.8928482557894
20
4.56483438997492
30
0
41
1
10
16.6399443345204
20
4.58957516781447
30
0
41
1
10
16.1347329890796
20
4.62617249454235
30
0
41
1
10
15.8824597477665
20
4.63775020049198
30
0
41
1
10
15.4928646149579
20
4.64763326529544
30
0
41
1
10
15.355387261433
20
4.64945275866074
30
0
41
1
10
15.2179061964004
20
4.64949581037203
30
0
0
SPLINE
5
E0
100
AcDbEntity
8
1
62
256
6
ByLayer
370
18
48
1
60
0
100
AcDbSpline
70
4
71
3
72
69
73
65
40
0
40
0
40
0
40
0
40
0.0624999999999993
40
0.0624999999999993
40
0.124999999999999
40
0.124999999999999
40
0.249999999999996
40
0.249999999999996
40
0.374999999999994
40
0.374999999999994
40
0.499999999999992
40
0.499999999999992
40
0.562499999999991
40
0.562499999999991
40
0.62499999999999
40
0.62499999999999
40
0.687499999999989
40
0.687499999999989
40
0.718749999999988
40
0.718749999999988
40
0.720703124999988
40
0.720703124999988
40
0.722656249999987
40
0.722656249999987
40
0.724609374999987
40
0.724609374999987
40
0.726562499999987
40
0.726562499999987
40
0.734374999999987
40
0.734374999999987
40
0.749999999999988
40
0.749999999999988
40
0.765624999999988
40
0.765624999999988
40
0.781249999999988
40
0.781249999999988
40
0.796874999999988
40
0.796874999999988
40
0.804687499999988
40
0.804687499999988
40
0.812499999999989
40
0.812499999999989
40
0.82812499999999
40
0.82812499999999
40
0.83593749999999
40
0.83593749999999
40
0.843749999999991
40
0.851562499999991
40
0.851562499999991
40
0.859374999999992
40
0.859374999999992
40
0.874999999999993
40
0.874999999999993
40
0.890624999999994
40
0.890624999999994
40
0.906249999999995
40
0.906249999999995
40
0.921874999999995
40
0.921874999999995
40
0.937499999999996
40
0.937499999999996
40
0.968749999999998
40
0.968749999999998
40
1
40
1
40
1
40
1
41
1
10
19.3022449119969
20
-0.537552975595958
30
0
41
1
10
18.8861791179727
20
-0.304633765268534
30
0
41
1
10
18.4657832083594
20
-0.0798780378590607
30
0
41
1
10
17.6162989792747
20
0.353182862745569
30
0
41
1
10
17.1870273079299
20
0.561525380049972
30
0
41
1
10
15.8859466501034
20
1.15898833594377
30
0
41
1
10
15.012519579781
20
1.51505320011847
30
0
41
1
10
13.2446152496011
20
2.13502937838547
30
0
41
1
10
12.3500600724532
20
2.39868615384165
30
0
41
1
10
10.5329992496579
20
2.83236014377718
30
0
41
1
10
9.61051431157918
20
3.00256593085803
30
0
41
1
10
8.20315514956354
20
3.19273471574843
30
0
41
1
10
7.72982138993609
20
3.24529278014805
30
0
41
1
10
6.78189308230617
20
3.32908828817082
30
0
41
1
10
6.30648113934549
20
3.36047112116535
30
0
41
1
10
5.35264375725447
20
3.40296346160673
30
0
41
1
10
4.87499296119776
20
3.41404903796214
30
0
41
1
10
4.15804880913547
20
3.41529958791563
30
0
41
1
10
3.91909464560791
20
3.41314395140301
30
0
41
1
10
3.66526984213047
20
3.40804058973333
30
0
41
1
10
3.65033916606322
20
3.40773003072678
30
0
41
1
10
3.62047820409373
20
3.40708813764402
30
0
41
1
10
3.60557255339373
20
3.40664894352997
30
0
41
1
10
3.57621273606577
20
3.40372793193799
30
0
41
1
10
3.56166275305557
20
3.40147784143485
30
0
41
1
10
3.53323548201621
20
3.39474072449786
30
0
41
1
10
3.52018600065051
20
3.38994220202849
30
0
41
1
10
3.45693143693404
20
3.36343804053996
30
0
41
1
10
3.40674394669881
20
3.34153467856049
30
0
41
1
10
3.25754945026324
20
3.27348789999655
30
0
41
1
10
3.16027082539671
20
3.22518699256858
30
0
41
1
10
2.97134055427753
20
3.12152099261439
30
0
41
1
10
2.87962532591783
20
3.0661428583166
30
0
41
1
10
2.70305742269343
20
2.94629868111738
30
0
41
1
10
2.61779637275794
20
2.88150244784174
30
0
41
1
10
2.45818553991032
20
2.74139659819664
30
0
41
1
10
2.38426258248589
20
2.66655464572935
30
0
41
1
10
2.28447438305182
20
2.54503514766333
30
0
41
1
10
2.25307056704671
20
2.50297726811937
30
0
41
1
10
2.19452274589346
20
2.41526535441474
30
0
41
1
10
2.1673357836215
20
2.36945981093342
30
0
41
1
10
2.09467691533996
20
2.22893151807634
30
0
41
1
10
2.05744422337693
20
2.13029919868453
30
0
41
1
10
2.02084084517958
20
1.97361187791657
30
0
41
1
10
2.01190454226494
20
1.9198085326785
30
0
41
1
10
2.00108443652141
20
1.81220444551255
30
0
41
1
10
1.9971029311391
20
1.70387352447352
30
0
41
1
10
2.00621860469366
20
1.59409071211638
30
0
41
1
10
2.02163997140164
20
1.48358003886793
30
0
41
1
10
2.03254975361287
20
1.42796557743969
30
0
41
1
10
2.07314409276472
20
1.26407304030946
30
0
41
1
10
2.1107804064923
20
1.15728558898141
30
0
41
1
10
2.20258064221537
20
0.947460504903006
30
0
41
1
10
2.25710420430278
20
0.844045179951394
30
0
41
1
10
2.37610641727463
20
0.645588892077996
30
0
41
1
10
2.44088672428026
20
0.549763705502386
30
0
41
1
10
2.57849521162294
20
0.363268632664642
30
0
41
1
10
2.65134167992264
20
0.272610789274523
30
0
41
1
10
2.80350758661009
20
0.0954148871994676
30
0
41
1
10
2.88292819119556
20
0.0088206744495096
30
0
41
1
10
3.12595095555608
20
-0.242617789349197
30
0
41
1
10
3.29531501031457
20
-0.400570831041421
30
0
41
1
10
3.64390451463433
20
-0.703317902335755
30
0
41
1
10
3.82319464257918
20
-0.848029221644111
30
0
41
1
10
4.00621456429752
20
-0.98769728158527
30
0
0
SPLINE
5
E1
100
AcDbEntity
8
1
62
256
6
ByLayer
370
18
48
1
60
0
100
AcDbSpline
70
4
71
3
72
14
73
10
40
0
40
0
40
0
40
0
40
0.366918157596317
40
0.366918157596317
40
0.558123368034496
40
0.558123368034496
40
0.749328578472674
40
0.749328578472674
40
1
40
1
40
1
40
1
41
1
10
32.7739637676242
20
-4.66961796998973
30
0
41
1
10
32.198574515103
20
-4.670995245836
30
0
41
1
10
31.6239657141647
20
-4.64136663929131
30
0
41
1
10
30.7490518646521
20
-4.55006807751676
30
0
41
1
10
30.4487227616069
20
-4.51043760667574
30
0
41
1
10
29.8509998603113
20
-4.41566725871556
30
0
41
1
10
29.5531424609103
20
-4.36048330622035
30
0
41
1
10
28.8662874056593
20
-4.21570715185644
30
0
41
1
10
28.4777172608334
20
-4.12077256884484
30
0
41
1
10
28.089456121342
20
-4.01385563080541
30
0
0
SPLINE
5
E2
100
AcDbEntity
8
1
62
256
6
ByLayer
370
13
48
1
60
0
100
AcDbSpline
70
4
71
3
72
26
73
22
40
0
40
0
40
0
40
0
40
0.173673922649286
40
0.173673922649286
40
0.238260903833186
40
0.238260903833186
40
0.270554394425138
40
0.270554394425138
40
0.302847885017089
40
0.302847885017089
40
0.432021847384898
40
0.432021847384898
40
0.690369772120518
40
0.690369772120518
40
0.754956753304423
40
0.754956753304423
40
0.819543734488327
40
0.819543734488327
40
0.948717696856136
40
0.948717696856136
40
1
40
1
40
1
40
1
41
1
10
28.089456121196
20
-4.01385563076516
30
0
41
1
10
27.2930979303141
20
-3.79455946461869
30
0
41
1
10
26.4980397145198
20
-3.52485393236134
30
0
41
1
10
25.4000298700619
20
-3.09542825664701
30
0
41
1
10
25.1016099895042
20
-2.97307963690406
30
0
41
1
10
24.6522669191948
20
-2.78128621352229
30
0
41
1
10
24.5020379779673
20
-2.71587505439464
30
0
41
1
10
24.2023901966838
20
-2.58301713799875
30
0
41
1
10
24.0528508202657
20
-2.51552263494128
30
0
41
1
10
23.3063423685321
20
-2.17314206244876
30
0
41
1
10
22.7128277377088
20
-1.88372834522471
30
0
41
1
10
20.9351092121609
20
-0.983875915359704
30
0
41
1
10
19.7539517585433
20
-0.341468420658941
30
0
41
1
10
18.2540802999362
20
0.462413700019795
30
0
41
1
10
17.9541473199671
20
0.622551134731708
30
0
41
1
10
17.3571990599262
20
0.938653496971028
30
0
41
1
10
17.0596355450002
20
1.09484958839923
30
0
41
1
10
16.1684352876946
20
1.55562433189814
30
0
41
1
10
15.5764994963957
20
1.85284572245544
30
0
41
1
10
14.7486569314023
20
2.24725798060163
30
0
41
1
10
14.5133000715435
20
2.35699585853337
30
0
41
1
10
14.2776715024269
20
2.4640961531874
30
0
0
SPLINE
5
E3
100
AcDbEntity
8
1
62
256
6
ByLayer
370
18
48
1
60
0
100
AcDbSpline
70
4
71
3
72
100
73
96
40
0
40
0
40
0
40
0
40
0.031380081010485
40
0.031380081010485
40
0.0497739268176315
40
0.0497739268176315
40
0.068167772624778
40
0.068167772624778
40
0.0865616184319246
40
0.0865616184319246
40
0.104955464239071
40
0.104955464239071
40
0.123349310046218
40
0.123349310046218
40
0.141743155853364
40
0.141743155853364
40
0.160137001660511
40
0.160137001660511
40
0.178530847467657
40
0.178530847467657
40
0.196924693274804
40
0.196924693274804
40
0.21531853908195
40
0.21531853908195
40
0.252106230696243
40
0.252106230696243
40
0.270500076503388
40
0.270500076503388
40
0.288893922310534
40
0.288893922310534
40
0.307287768117679
40
0.307287768117679
40
0.325681613924825
40
0.325681613924825
40
0.362469305539117
40
0.362469305539117
40
0.380863151346263
40
0.380863151346263
40
0.399256997153409
40
0.399256997153409
40
0.417650842960555
40
0.417650842960555
40
0.436044688767702
40
0.436044688767702
40
0.454438534574848
40
0.454438534574848
40
0.472832380381994
40
0.472832380381994
40
0.49122622618914
40
0.49122622618914
40
0.509620071996286
40
0.509620071996286
40
0.528013917803432
40
0.528013917803432
40
0.546407763610578
40
0.546407763610578
40
0.58319545522487
40
0.58319545522487
40
0.601589301032016
40
0.601589301032016
40
0.619983146839162
40
0.619983146839162
40
0.638376992646307
40
0.638376992646307
40
0.656770838453453
40
0.656770838453453
40
0.693558530067744
40
0.693558530067744
40
0.711952375874889
40
0.711952375874889
40
0.730346221682035
40
0.730346221682035
40
0.74874006748918
40
0.74874006748918
40
0.767133913296325
40
0.767133913296325
40
0.803921604910615
40
0.803921604910615
40
0.822315450717761
40
0.822315450717761
40
0.840709296524906
40
0.840709296524906
40
0.859103142332051
40
0.859103142332051
40
0.877496988139197
40
0.877496988139197
40
0.914284679753487
40
0.914284679753487
40
0.951072371367777
40
0.951072371367777
40
0.969466217174922
40
0.969466217174922
40
0.987860062982067
40
0.987860062982067
40
1
40
1
40
1
40
1
41
1
10
23.4440404769254
20
2.69726307098335
30
0
41
1
10
23.8176505504749
20
2.8719165083819
30
0
41
1
10
24.1920298693522
20
3.03755376328081
30
0
41
1
10
24.7857434467988
20
3.28806221312158
30
0
41
1
10
25.004980035308
20
3.37822902854251
30
0
41
1
10
25.4439507776864
20
3.55198596929972
30
0
41
1
10
25.6635472494912
20
3.63481327019295
30
0
41
1
10
26.1025063420187
20
3.79314642287048
30
0
41
1
10
26.3218800241753
20
3.86863599918084
30
0
41
1
10
26.7601130032035
20
4.01256582061745
30
0
41
1
10
26.9787346718489
20
4.08122245362432
30
0
41
1
10
27.4164511986848
20
4.21034160126857
30
0
41
1
10
27.6358799514649
20
4.27052867639799
30
0
41
1
10
28.0753404899859
20
4.38275291823166
30
0
41
1
10
28.2955213400504
20
4.43478384869019
30
0
41
1
10
28.7344914794676
20
4.53038154518882
30
0
41
1
10
28.9532134855045
20
4.57414487345736
30
0
41
1
10
29.3909238595675
20
4.65240715651467
30
0
41
1
10
29.6101027937608
20
4.68684962029593
30
0
41
1
10
30.0485804516143
20
4.74679889228238
30
0
41
1
10
30.2679073686471
20
4.77228859275721
30
0
41
1
10
30.7064359843169
20
4.81429283559683
30
0
41
1
10
30.925450326095
20
4.8308445779912
30
0
41
1
10
31.5839853190594
20
4.866145828594
30
0
41
1
10
32.0231669011885
20
4.87084057180846
30
0
41
1
10
32.6800376475398
20
4.85013484725491
30
0
41
1
10
32.8984176102663
20
4.83847709214754
30
0
41
1
10
33.3362891372035
20
4.80597992876619
30
0
41
1
10
33.555713728424
20
4.78518588025761
30
0
41
1
10
33.9950881880503
20
4.73445890141247
30
0
41
1
10
34.2151452262201
20
4.70450759717778
30
0
41
1
10
34.6537395035645
20
4.63545419277455
30
0
41
1
10
34.8722413216095
20
4.59614757008737
30
0
41
1
10
35.5289507822445
20
4.46597643671103
30
0
41
1
10
35.9676414841322
20
4.36278818555604
30
0
41
1
10
36.6249732154655
20
4.1817697760668
30
0
41
1
10
36.8439033677669
20
4.11674798634249
30
0
41
1
10
37.2829799029464
20
3.97983283096048
30
0
41
1
10
37.5025017578695
20
3.90788474142258
30
0
41
1
10
37.9411368668524
20
3.75673639891923
30
0
41
1
10
38.1602653972853
20
3.6775520149416
30
0
41
1
10
38.5978144988507
20
3.51149195090301
30
0
41
1
10
38.8160969847012
20
3.42440440645254
30
0
41
1
10
39.2540603848335
20
3.24513016334717
30
0
41
1
10
39.4734545745737
20
3.15261380568543
30
0
41
1
10
39.9127111235184
20
2.96136930831059
30
0
41
1
10
40.1326278897028
20
2.86263152664679
30
0
41
1
10
40.5708226525297
20
2.65919781468082
30
0
41
1
10
40.7892699379881
20
2.55430006783354
30
0
41
1
10
41.2271231982727
20
2.3416130403543
30
0
41
1
10
41.4462147527564
20
2.23336506876174
30
0
41
1
10
41.8843935568904
20
2.01257166178937
30
0
41
1
10
42.1034916029407
20
1.90004380882135
30
0
41
1
10
42.5413618696245
20
1.67006721130323
30
0
41
1
10
42.7603443136465
20
1.55258549692954
30
0
41
1
10
43.4189311789661
20
1.19883105461605
30
0
41
1
10
43.8576856606041
20
0.959801449697466
30
0
41
1
10
44.5134316676117
20
0.593076450080304
30
0
41
1
10
44.7317739113069
20
0.469737572299067
30
0
41
1
10
45.1697815710857
20
0.224084028228731
30
0
41
1
10
45.3891381357615
20
0.101224281468717
30
0
41
1
10
45.8282488557939
20
-0.145114702332563
30
0
41
1
10
46.0479985681784
20
-0.26857625992227
30
0
41
1
10
46.4857517666981
20
-0.515711884922638
30
0
41
1
10
46.7042755523407
20
-0.638976279213836
30
0
41
1
10
47.3610257718542
20
-1.00394482217837
30
0
41
1
10
47.7993209791734
20
-1.24284276905306
30
0
41
1
10
48.4556191367206
20
-1.59763665219242
30
0
41
1
10
48.6747836074361
20
-1.7147101975188
30
0
41
1
10
49.1137733866461
20
-1.94384560376119
30
0
41
1
10
49.3331432900548
20
-2.05621125189137
30
0
41
1
10
49.7713316520311
20
-2.27707561593081
30
0
41
1
10
49.9901302644179
20
-2.38560489943117
30
0
41
1
10
50.4269351803543
20
-2.59907411463615
30
0
41
1
10
50.6454215565049
20
-2.70326539314132
30
0
41
1
10
51.3024203176724
20
-3.00640709337222
30
0
41
1
10
51.7424853531942
20
-3.1977174936244
30
0
41
1
10
52.3986070166993
20
-3.46763358691791
30
0
41
1
10
52.6172650318722
20
-3.55400858420018
30
0
41
1
10
53.0550453270197
20
-3.71904987101581
30
0
41
1
10
53.2740096757187
20
-3.7979186277241
30
0
41
1
10
53.7117831570149
20
-3.94869844292947
30
0
41
1
10
53.9305225339124
20
-4.02067811862551
30
0
41
1
10
54.3678355689218
20
-4.15748865399161
30
0
41
1
10
54.5871905487625
20
-4.22181279330684
30
0
41
1
10
55.2455015689406
20
-4.40168686659842
30
0
41
1
10
55.6835087476505
20
-4.50478370192539
30
0
41
1
10
56.5567183176741
20
-4.67759981185313
30
0
41
1
10
56.9948974910222
20
-4.74552528073511
30
0
41
1
10
57.6530419205117
20
-4.82073023015963
30
0
41
1
10
57.8722533959653
20
-4.8413270640977
30
0
41
1
10
58.3095889299922
20
-4.87311525346138
30
0
41
1
10
58.5284682245619
20
-4.8842207079999
30
0
41
1
10
58.8920165764503
20
-4.89493074092562
30
0
41
1
10
59.0365957647506
20
-4.89716463255974
30
0
41
1
10
59.1811674524327
20
-4.89736813592023
30
0
0
SPLINE
5
E4
100
AcDbEntity
8
1
62
256
6
ByLayer
370
18
48
1
60
0
100
AcDbSpline
70
4
71
3
72
8
73
4
40
0
40
0
40
0
40
0
40
1
40
1
40
1
40
1
41
1
10
4.12812874389283
20
-4.78654710964761
30
0
41
1
10
4.07688709114885
20
-4.78260107758661
30
0
41
1
10
4.03717779693423
20
-4.77603265049251
30
0
41
1
10
4.01637234901247
20
-4.76714091512636
30
0
0
SPLINE
5
E5
100
AcDbEntity
8
1
62
256
6
ByLayer
370
18
48
1
60
0
100
AcDbSpline
70
4
71
3
72
50
73
46
40
0
40
0
40
0
40
0
40
0.0309875738787952
40
0.0309875738787952
40
0.0619751477575904
40
0.0619751477575904
40
0.12395029551518
40
0.12395029551518
40
0.247900591030357
40
0.247900591030357
40
0.278888164909153
40
0.278888164909153
40
0.309875738787948
40
0.309875738787948
40
0.340863312666743
40
0.340863312666743
40
0.371850886545538
40
0.371850886545538
40
0.495801182060719
40
0.495801182060719
40
0.55777632981831
40
0.55777632981831
40
0.588763903697106
40
0.588763903697106
40
0.619751477575901
40
0.619751477575901
40
0.650739051454697
40
0.650739051454697
40
0.681726625333492
40
0.681726625333492
40
0.743701773091082
40
0.743701773091082
40
0.774689346969878
40
0.774689346969878
40
0.805676920848673
40
0.805676920848673
40
0.867652068606263
40
0.867652068606263
40
0.898639642485058
40
0.898639642485058
40
0.929627216363853
40
0.929627216363853
40
0.991602364121443
40
0.991602364121443
40
1
40
1
40
1
40
1
41
1
10
61.323694398636
20
-4.81483719030439
30
0
41
1
10
61.0247630479604
20
-4.84593383876586
30
0
41
1
10
60.7260087661987
20
-4.86832939757605
30
0
41
1
10
60.1281780879325
20
-4.89566116846663
30
0
41
1
10
59.8287362378184
20
-4.90059077693587
30
0
41
1
10
58.9313735276059
20
-4.8890457188412
30
0
41
1
10
58.3379128461543
20
-4.84638912959349
30
0
41
1
10
56.5631651323059
20
-4.61882515958024
30
0
41
1
10
55.3869165865224
20
-4.33451012767912
30
0
41
1
10
53.8959729103186
20
-3.83204878632137
30
0
41
1
10
53.5961601057957
20
-3.72397061217947
30
0
41
1
10
52.9980451776727
20
-3.4955083230208
30
0
41
1
10
52.6994087685033
20
-3.37507016185086
30
0
41
1
10
52.102342502557
20
-3.12265989099433
30
0
41
1
10
51.8038964074397
20
-2.99070621531965
30
0
41
1
10
51.2063867739793
20
-2.71637805118158
30
0
41
1
10
50.9069149134479
20
-2.57380319657881
30
0
41
1
10
49.4106011898207
20
-1.83990220605858
30
0
41
1
10
48.2326014291399
20
-1.1935319387147
30
0
41
1
10
46.4584512000219
20
-0.198495357138285
30
0
41
1
10
45.8657372207757
20
0.137168915301288
30
0
41
1
10
44.970665489286
20
0.63954284260106
30
0
41
1
10
44.6706614787726
20
0.806970602547437
30
0
41
1
10
44.0721913574934
20
1.1372298823915
30
0
41
1
10
43.7733943027114
20
1.30029955491133
30
0
41
1
10
43.1761256349386
20
1.62138562455325
30
0
41
1
10
42.8775564603259
20
1.77923307169408
30
0
41
1
10
42.2797115796347
20
2.08813531356975
30
0
41
1
10
41.9801486092051
20
2.23932981419154
30
0
41
1
10
41.0814182286251
20
2.6801951056265
30
0
41
1
10
40.484540909952
20
2.95571530655363
30
0
41
1
10
39.5880387959209
20
3.33496137555682
30
0
41
1
10
39.289020002391
20
3.45572060813001
30
0
41
1
10
38.6897593174255
20
3.6847509602845
30
0
41
1
10
38.3901688630859
20
3.79276586433224
30
0
41
1
10
37.493170812217
20
4.09533400744206
30
0
41
1
10
36.8962991834309
20
4.2686694589886
30
0
41
1
10
35.9981727498437
20
4.48184004040596
30
0
41
1
10
35.6980544474481
20
4.54509923218541
30
0
41
1
10
35.1010206642006
20
4.65447166499612
30
0
41
1
10
34.8035116782234
20
4.70074902494145
30
0
41
1
10
33.9129608137758
20
4.81427236241404
30
0
41
1
10
33.3218676777371
20
4.85617697500601
30
0
41
1
10
32.6502076362211
20
4.8650782420921
30
0
41
1
10
32.5700510793832
20
4.86551524859013
30
0
41
1
10
32.4898803279205
20
4.86532655619152
30
0
0
SPLINE
5
E6
100
AcDbEntity
8
1
62
256
6
ByLayer
370
18
48
1
60
0
100
AcDbSpline
70
4
71
3
72
12
73
8
40
0
40
0
40
0
40
0
40
0.003487743141746
40
0.003487743141746
40
0.501743871570875
40
0.501743871570875
40
1
40
1
40
1
40
1
41
1
10
7.73136968605121
20
-4.64738221941721
30
0
41
1
10
7.72721370781554
20
-4.64801846303968
30
0
41
1
10
7.72305762314184
20
-4.64865311169535
30
0
41
1
10
7.12515122673963
20
-4.73972358632159
30
0
41
1
10
6.52914252578157
20
-4.79773948176819
30
0
41
1
10
5.32787414278957
20
-4.84435216712458
30
0
41
1
10
4.72862828800953
20
-4.83279055276108
30
0
41
1
10
4.12812874389292
20
-4.78654710964761
30
0
0
SPLINE
5
E7
100
AcDbEntity
8
1
62
256
6
ByLayer
370
18
48
1
60
0
100
AcDbSpline
70
4
71
3
72
79
73
75
40
0
40
0
40
0
40
0
40
0.0360403747711
40
0.0360403747711
40
0.107281336401444
40
0.107281336401444
40
0.142901817216616
40
0.142901817216616
40
0.178522298031788
40
0.178522298031788
40
0.249763259662131
40
0.249763259662131
40
0.321004221292475
40
0.321004221292475
40
0.356624702107647
40
0.356624702107647
40
0.392245182922819
40
0.392245182922819
40
0.463486144553162
40
0.463486144553162
40
0.499106625368334
40
0.499106625368334
40
0.508011745572127
40
0.508011745572127
40
0.512464305674024
40
0.512742590680392
40
0.512742590680392
40
0.512881733183576
40
0.512881733183576
40
0.513020875686761
40
0.513020875686761
40
0.513577445699498
40
0.513577445699498
40
0.514690585724973
40
0.514690585724973
40
0.516916865775922
40
0.516916865775922
40
0.525821985979718
40
0.525821985979718
40
0.534727106183515
40
0.534727106183515
40
0.570347586998702
40
0.570347586998702
40
0.605968067813889
40
0.605968067813889
40
0.677209029444262
40
0.677209029444262
40
0.712829510259449
40
0.712829510259449
40
0.721734630463246
40
0.721734630463246
40
0.726187190565144
40
0.726187190565144
40
0.727300330590619
40
0.727300330590619
40
0.727578615596988
40
0.727578615596988
40
0.727856900603356
40
0.727856900603356
40
0.728413470616094
40
0.730639750667043
40
0.748449991074638
40
0.748449991074638
40
0.784070471889827
40
0.784070471889827
40
0.819690952705016
40
0.819690952705016
40
0.890931914335394
40
0.890931914335394
40
0.926552395150583
40
0.926552395150583
40
0.962172875965772
40
0.962172875965772
40
1
40
1
40
1
40
1
41
1
10
19.3021114219186
20
-0.537439709208883
30
0
41
1
10
19.0988006588588
20
-0.452825302829552
30
0
41
1
10
18.8952328043841
20
-0.371896514711153
30
0
41
1
10
18.2880770454935
20
-0.143328099572017
30
0
41
1
10
17.8833239318335
20
-0.0077558661867556
30
0
41
1
10
17.2712203295455
20
0.165622227270944
30
0
41
1
10
17.0658943250152
20
0.218502703891687
30
0
41
1
10
16.6567465245877
20
0.312548041884014
30
0
41
1
10
16.4526258572737
20
0.353820751470465
30
0
41
1
10
15.8408934424413
20
0.459870503607959
30
0
41
1
10
15.4339241665867
20
0.506822550255322
30
0
41
1
10
14.61732156345
20
0.55191843395761
30
0
41
1
10
14.2076781771058
20
0.55007736287871
30
0
41
1
10
13.5877015045827
20
0.510952954851206
30
0
41
1
10
13.3797962877999
20
0.49182111615039
30
0
41
1
10
12.9630422050354
20
0.441797415329347
30
0
41
1
10
12.754866297595
20
0.411008485603304
30
0
41
1
10
12.1300820323635
20
0.302313264037423
30
0
41
1
10
11.7131002869673
20
0.208042843586441
30
0
41
1
10
11.0841725809798
20
0.0381911245641504
30
0
41
1
10
10.874439711946
20
-0.0230344262269
30
0
41
1
10
10.6121069851315
20
-0.104703059534131
30
0
41
1
10
10.5596325887828
20
-0.121293332607621
30
0
41
1
10
10.4809156512567
20
-0.146548934605818
30
0
41
1
10
10.4530352012416
20
-0.155559365679608
30
0
41
1
10
10.4251537344903
20
-0.16463824245406
30
0
41
1
10
10.4226935988475
20
-0.165439674968582
30
0
41
1
10
10.4220901714549
20
-0.166103197373673
30
0
41
1
10
10.4225492122954
20
-0.167584776107049
30
0
41
1
10
10.4230363032754
20
-0.168243773261963
30
0
41
1
10
10.4255661399189
20
-0.171421311175664
30
0
41
1
10
10.4281306950913
20
-0.173555199562401
30
0
41
1
10
10.4358088282223
20
-0.179949022924433
30
0
41
1
10
10.4412181703951
20
-0.183931694243967
30
0
41
1
10
10.4575856629725
20
-0.195707710559901
30
0
41
1
10
10.4687906180324
20
-0.203262032265229
30
0
41
1
10
10.5251387268894
20
-0.240615320118195
30
0
41
1
10
10.5713366754179
20
-0.269193924121595
30
0
41
1
10
10.6639272006624
20
-0.326172671356147
30
0
41
1
10
10.7104604195824
20
-0.35438332006018
30
0
41
1
10
10.9436614443758
20
-0.494881690923194
30
0
41
1
10
11.1317779319319
20
-0.605721599256896
30
0
41
1
10
11.5085964106304
20
-0.827407253905562
30
0
41
1
10
11.697452512001
20
-0.938021456559966
30
0
41
1
10
12.2645934544897
20
-1.27025238375001
30
0
41
1
10
12.6429341746944
20
-1.49308355592555
30
0
41
1
10
13.2078699635903
20
-1.83410109159021
30
0
41
1
10
13.3960491191386
20
-1.94838904770921
30
0
41
1
10
13.6288779413413
20
-2.09611691290087
30
0
41
1
10
13.6753549617251
20
-2.12589120690421
30
0
41
1
10
13.744217807043
20
-2.17200140333725
30
0
41
1
10
13.7671849042711
20
-2.18741813543772
30
0
41
1
10
13.7946748304398
20
-2.20843311528498
30
0
41
1
10
13.8001659457494
20
-2.212685212455
30
0
41
1
10
13.8064740522408
20
-2.21867553740353
30
0
41
1
10
13.8077144646156
20
-2.2199108606419
30
0
41
1
10
13.8099142562044
20
-2.2226190504544
30
0
41
1
10
13.8110482382898
20
-2.22467744413566
30
0
41
1
10
13.806829276977
20
-2.22762430779221
30
0
41
1
10
13.7927660375253
20
-2.23744205733433
30
0
41
1
10
13.6886975801536
20
-2.30990173786765
30
0
41
1
10
13.5874322998951
20
-2.37903134975596
30
0
41
1
10
13.3173303527408
20
-2.55947998775199
30
0
41
1
10
13.1376569071831
20
-2.67428548731411
30
0
41
1
10
12.7770573259953
20
-2.8905262152112
30
0
41
1
10
12.595510851498
20
-2.99224819243412
30
0
41
1
10
12.0521942816587
20
-3.26993338392677
30
0
41
1
10
11.6907022790522
20
-3.41912616029165
30
0
41
1
10
11.1363300545916
20
-3.57830086584127
30
0
41
1
10
10.9490067795977
20
-3.62068812338387
30
0
41
1
10
10.570481160428
20
-3.68246117914316
30
0
41
1
10
10.3813686042846
20
-3.70157265652728
30
0
41
1
10
9.99027197440464
20
-3.71863835324373
30
0
41
1
10
9.78815153747362
20
-3.71517637735374
30
0
41
1
10
9.5849290887592
20
-3.70099230799511
30
0
0
SPLINE
5
E8
100
AcDbEntity
8
1
62
256
6
ByLayer
370
18
48
1
60
0
100
AcDbSpline
70
4
71
3
72
18
73
14
40
0
40
0
40
0
40
0
40
0.250000000000003
40
0.250000000000003
40
0.375000000000003
40
0.375000000000003
40
0.500000000000002
40
0.500000000000002
40
0.750000000000001
40
0.750000000000001
40
0.875000000000001
40
0.875000000000001
40
1
40
1
40
1
40
1
41
1
10
61.2780798753269
20
-4.70217311107354
30
0
41
1
10
61.1786224023374
20
-4.6953549976339
30
0
41
1
10
61.0858794425162
20
-4.66873421339471
30
0
41
1
10
60.9577003511814
20
-4.59655213529814
30
0
41
1
10
60.9166402954563
20
-4.56689487731441
30
0
41
1
10
60.8398276237235
20
-4.49736373933814
30
0
41
1
10
60.8039352123837
20
-4.45747316006322
30
0
41
1
10
60.7038185774999
20
-4.32238801267169
30
0
41
1
10
60.6470950252762
20
-4.21190220678366
30
0
41
1
10
60.5781054998523
20
-4.01335980182503
30
0
41
1
10
60.5577338430178
20
-3.94132154168995
30
0
41
1
10
60.5231705328838
20
-3.78742056622679
30
0
41
1
10
60.5089734452556
20
-3.7057319831606
30
0
41
1
10
60.4978897477448
20
-3.61926103125953
30
0
0
SPLINE
5
E9
100
AcDbEntity
8
1
62
256
6
ByLayer
370
18
48
1
60
0
100
AcDbSpline
70
4
71
3
72
10
73
6
40
0
40
0
40
0
40
0
40
0.55217718086543
40
0.55217718086543
40
1
40
1
40
1
40
1
41
1
10
61.323694398636
20
4.81483719030439
30
0
41
1
10
61.0246592080825
20
4.84594464081849
30
0
41
1
10
60.7256884110768
20
4.86835671248997
30
0
41
1
10
60.1837520764905
20
4.89311012357203
30
0
41
1
10
59.9405304889186
20
4.89842756047594
30
0
41
1
10
59.6979428006158
20
4.89797982327468
30
0
0
SPLINE
5
EA
100
AcDbEntity
8
1
62
256
6
ByLayer
370
18
48
1
60
0
100
AcDbSpline
70
4
71
3
72
49
73
45
40
0
40
0
40
0
40
0
40
0.0122702661984643
40
0.0122702661984643
40
0.0424927141652432
40
0.0424927141652432
40
0.072715162132022
40
0.072715162132022
40
0.19360495399914
40
0.19360495399914
40
0.2540498499327
40
0.2540498499327
40
0.284272297899479
40
0.284272297899479
40
0.314494745866258
40
0.314494745866258
40
0.344717193833037
40
0.344717193833037
40
0.374939641799816
40
0.374939641799816
40
0.435384537733373
40
0.435384537733373
40
0.556274329600488
40
0.556274329600488
40
0.571385553583878
40
0.571385553583878
40
0.586496777567267
40
0.616719225534046
40
0.616719225534046
40
0.677164121467605
40
0.677164121467605
40
0.737609017401163
40
0.737609017401163
40
0.767831465367943
40
0.767831465367943
40
0.798053913334722
40
0.798053913334722
40
0.918943705201839
40
0.918943705201839
40
0.949166153168618
40
0.949166153168618
40
0.979388601135397
40
0.979388601135397
40
1
40
1
40
1
40
1
41
1
10
34.8893130605497
20
-4.68520053245288
30
0
41
1
10
34.7678728379224
20
-4.70360283938956
30
0
41
1
10
34.646453002465
20
-4.72061851122064
30
0
41
1
10
34.2259576954948
20
-4.7747095088742
30
0
41
1
10
33.9268657041201
20
-4.80470694642742
30
0
41
1
10
33.3278377471358
20
-4.84741996562298
30
0
41
1
10
33.0273151557673
20
-4.86012236117327
30
0
41
1
10
31.5317209387691
20
-4.87973322998366
30
0
41
1
10
30.352504982191
20
-4.75581203115374
30
0
41
1
10
28.573856447534
20
-4.37794601070007
30
0
41
1
10
27.9793399557818
20
-4.22001743738096
30
0
41
1
10
27.0805953279587
20
-3.93758136382044
30
0
41
1
10
26.7801186351973
20
-3.83591219668321
30
0
41
1
10
26.1811101562752
20
-3.61981320026797
30
0
41
1
10
25.8819608157982
20
-3.50520814815371
30
0
41
1
10
25.2835957433558
20
-3.26387246039604
30
0
41
1
10
24.984348269504
20
-3.1371832676368
30
0
41
1
10
24.3849791023862
20
-2.8727336756983
30
0
41
1
10
24.084300037311
20
-2.73464889842146
30
0
41
1
10
23.1864984213147
20
-2.30837341103339
30
0
41
1
10
22.5922823743003
20
-2.00784830317474
30
0
41
1
10
20.8135124838269
20
-1.073179931222
30
0
41
1
10
19.633285827578
20
-0.405111455019352
30
0
41
1
10
18.2844698528981
20
0.348638737402268
30
0
41
1
10
18.134118932709
20
0.432521534214914
30
0
41
1
10
17.8342656934497
20
0.599406360099408
30
0
41
1
10
17.3854045443316
20
0.848585755328429
30
0
41
1
10
16.9387701930476
20
1.09340468817365
30
0
41
1
10
16.0471885502223
20
1.5750805381139
30
0
41
1
10
15.4553307328812
20
1.88607613589929
30
0
41
1
10
14.2703891676288
20
2.47737783325542
30
0
41
1
10
13.677410167682
20
2.75786326938732
30
0
41
1
10
12.7826740589047
20
3.14845123157042
30
0
41
1
10
12.4835383735104
20
3.27360764765237
30
0
41
1
10
11.8827921798884
20
3.51269169009157
30
0
41
1
10
11.5832847177746
20
3.62574606291946
30
0
41
1
10
10.0911209951849
20
4.1554936652818
30
0
41
1
10
8.91170523982296
20
4.46732421457918
30
0
41
1
10
7.42542083402606
20
4.69405711480181
30
0
41
1
10
7.12758129772954
20
4.73127517599676
30
0
41
1
10
6.53007564961848
20
4.78891109573195
30
0
41
1
10
6.22992923159794
20
4.80933057484674
30
0
41
1
10
5.72461288484718
20
4.82897063043606
30
0
41
1
10
5.51987308759445
20
4.83287715787736
30
0
41
1
10
5.31517719567859
20
4.83273270042781
30
0
0
SPLINE
5
EB
100
AcDbEntity
8
1
62
256
6
ByLayer
370
18
48
1
60
0
100
AcDbSpline
70
4
71
3
72
40
73
36
40
0
40
0
40
0
40
0
40
0.0078043946764322
40
0.0078043946764322
40
0.0739507683646693
40
0.0739507683646693
40
0.140097142052906
40
0.140097142052906
40
0.206243515741143
40
0.206243515741143
40
0.272389889429381
40
0.272389889429381
40
0.338536263117618
40
0.338536263117618
40
0.404682636805855
40
0.404682636805855
40
0.470829010494092
40
0.470829010494092
40
0.536975384182329
40
0.536975384182329
40
0.570048571026447
40
0.570048571026447
40
0.603121757870566
40
0.603121757870566
40
0.669268131558805
40
0.669268131558805
40
0.735414505247044
40
0.735414505247044
40
0.801560878935283
40
0.801560878935283
40
0.867707252623522
40
0.867707252623522
40
0.933853626311761
40
0.933853626311761
40
1
40
1
40
1
40
1
41
1
10
62.2994398511072
20
-1.73487452541357
30
0
41
1
10
62.2968802896067
20
-1.73479010641881
30
0
41
1
10
62.294297734536
20
-1.73477745483655
30
0
41
1
10
62.269614240151
20
-1.73532057494029
30
0
41
1
10
62.2456947059721
20
-1.74097319325361
30
0
41
1
10
62.1959389008809
20
-1.76144472928203
30
0
41
1
10
62.1701862789466
20
-1.77614279465638
30
0
41
1
10
62.1170232244552
20
-1.81399608784972
30
0
41
1
10
62.0894579732454
20
-1.83735500435398
30
0
41
1
10
62.034396820084
20
-1.89120751212295
30
0
41
1
10
62.0067092951752
20
-1.92179768083281
30
0
41
1
10
61.9509992411528
20
-1.9907985977128
30
0
41
1
10
61.9227372180423
20
-2.02961472505052
30
0
41
1
10
61.86800560743
20
-2.11328193484937
30
0
41
1
10
61.8413326702681
20
-2.15829741356993
30
0
41
1
10
61.789668147062
20
-2.25604967723379
30
0
41
1
10
61.7653432948913
20
-2.3075896639657
30
0
41
1
10
61.7212694323822
20
-2.41491032914709
30
0
41
1
10
61.7014847197877
20
-2.47101805634881
30
0
41
1
10
61.677819108659
20
-2.55372434109984
30
0
41
1
10
61.670790702818
20
-2.58154740197432
30
0
41
1
10
61.6591227948632
20
-2.63553383309173
30
0
41
1
10
61.6544658010066
20
-2.66166251623457
30
0
41
1
10
61.6440037526974
20
-2.73747108959176
30
0
41
1
10
61.6418724962308
20
-2.78464070827761
30
0
41
1
10
61.6470281787704
20
-2.86517359991549
30
0
41
1
10
61.6542773288268
20
-2.89939673558067
30
0
41
1
10
61.6758840846824
20
-2.95366779480679
30
0
41
1
10
61.6903812978474
20
-2.97420657301069
30
0
41
1
10
61.7240123848119
20
-3.00250927650515
30
0
41
1
10
61.7435068801982
20
-3.01067315229062
30
0
41
1
10
61.7859898370611
20
-3.01605934256884
30
0
41
1
10
61.8087337541207
20
-3.01336787032929
30
0
41
1
10
61.8568557751051
20
-2.99854430288193
30
0
41
1
10
61.8824757510552
20
-2.98621909200472
30
0
41
1
10
61.9086683010281
20
-2.96964565048799
30
0
0
SPLINE
5
EC
100
AcDbEntity
8
1
62
256
6
ByLayer
370
18
48
1
60
0
100
AcDbSpline
70
4
71
3
72
18
73
14
40
0
40
0
40
0
40
0
40
0.124999999999986
40
0.124999999999986
40
0.249999999999971
40
0.249999999999971
40
0.374999999999957
40
0.374999999999957
40
0.499999999999942
40
0.499999999999942
40
0.749999999999971
40
0.749999999999971
40
1
40
1
40
1
40
1
41
1
10
62.4994716536553
20
1.73677140238527
30
0
41
1
10
62.5065151969708
20
1.71848805443898
30
0
41
1
10
62.5113756873409
20
1.69983338182567
30
0
41
1
10
62.5154979039196
20
1.66155429783348
30
0
41
1
10
62.5145810892342
20
1.64214776174859
30
0
41
1
10
62.5067866141516
20
1.60530211096992
30
0
41
1
10
62.4997910350942
20
1.58731335493812
30
0
41
1
10
62.4816988922096
20
1.55453072993123
30
0
41
1
10
62.4705158800893
20
1.53933446278719
30
0
41
1
10
62.4330081178981
20
1.49724656271957
30
0
41
1
10
62.4036276284442
20
1.47427810904748
30
0
41
1
10
62.340518204617
20
1.4332940488984
30
0
41
1
10
62.3073733754142
20
1.41584261657448
30
0
41
1
10
62.2735365340336
20
1.40017189133701
30
0
0
SPLINE
5
ED
100
AcDbEntity
8
1
62
256
6
ByLayer
370
13
48
1
60
0
100
AcDbSpline
70
4
71
3
72
12
73
8
40
0
40
0
40
0
40
0
40
0.659413129561164
40
0.659413129561164
40
0.989119694341746
40
0.989119694341746
40
1
40
1
40
1
40
1
41
1
10
4.20229981465587
20
-4.69625308652118
30
0
41
1
10
4.80345808874873
20
-4.73908098510719
30
0
41
1
10
5.40332080204414
20
-4.7473844739053
30
0
41
1
10
6.30516632572866
20
-4.70859958946727
30
0
41
1
10
6.6051353037378
20
-4.68715640709868
30
0
41
1
10
6.91377691337806
20
-4.6565708949141
30
0
41
1
10
6.92363576154514
20
-4.65558491344868
30
0
41
1
10
6.93349367820426
20
-4.6545900340484
30
0
0
SPLINE
5
EE
100
AcDbEntity
8
1
62
256
6
ByLayer
370
18
48
1
60
0
100
AcDbSpline
70
4
71
3
72
18
73
14
40
0
40
0
40
0
40
0
40
0.148162974019736
40
0.148162974019736
40
0.417305720563281
40
0.417305720563281
40
0.484591407199166
40
0.484591407199166
40
0.551877093835051
40
0.551877093835051
40
0.686448467106821
40
0.686448467106821
40
1
40
1
40
1
40
1
41
1
10
46.1226393920524
20
-0.0081481273493011
30
0
41
1
10
46.4482015853326
20
-0.188054594516899
30
0
41
1
10
46.7736064591071
20
-0.367920822519409
30
0
41
1
10
47.6909982125958
20
-0.871963823350029
30
0
41
1
10
48.2838143018475
20
-1.19384898365524
30
0
41
1
10
49.0297234704191
20
-1.58580806695437
30
0
41
1
10
49.1791601730135
20
-1.66366102078513
30
0
41
1
10
49.4786474562773
20
-1.81809669771326
30
0
41
1
10
49.6287764886959
20
-1.89472202613479
30
0
41
1
10
50.0776694968057
20
-2.12120140481042
30
0
41
1
10
50.3757589139227
20
-2.26808732985214
30
0
41
1
10
51.3657057693904
20
-2.7419831372525
30
0
41
1
10
52.0540857027501
20
-3.04851759135991
30
0
41
1
10
52.7426932168905
20
-3.32377951155243
30
0
0
SPLINE
5
EF
100
AcDbEntity
8
1
62
256
6
ByLayer
370
13
48
1
60
0
100
AcDbSpline
70
4
71
3
72
20
73
16
40
0
40
0
40
0
40
0
40
0.172698920760648
40
0.172698920760648
40
0.276111555665568
40
0.276111555665568
40
0.379524190570488
40
0.379524190570488
40
0.586349460380325
40
0.586349460380325
40
0.793174730190163
40
0.793174730190163
40
0.896587365095081
40
0.896587365095081
40
1
40
1
40
1
40
1
41
1
10
52.742693219882
20
-3.32377951274827
30
0
41
1
10
53.2362436482011
20
-3.52106989337344
30
0
41
1
10
53.7299109874587
20
-3.70229520394506
30
0
41
1
10
54.5220316071861
20
-3.96269107595686
30
0
41
1
10
54.8193623887186
20
-4.05363029236506
30
0
41
1
10
55.4160971634042
20
-4.22136308070708
30
0
41
1
10
55.7163298273299
20
-4.298335012693
30
0
41
1
10
56.6136269292225
20
-4.50490592582878
30
0
41
1
10
57.2073556795894
20
-4.61044014350833
30
0
41
1
10
58.3920113922475
20
-4.7553514544484
30
0
41
1
10
58.9830323884024
20
-4.79480688050705
30
0
41
1
10
59.8716735073428
20
-4.80349235598314
30
0
41
1
10
60.1682584883359
20
-4.7979653950234
30
0
41
1
10
60.7628158797133
20
-4.76984606323438
30
0
41
1
10
61.0608659138352
20
-4.74667540566765
30
0
41
1
10
61.3597835144206
20
-4.71608925079508
30
0
0
SPLINE
5
F0
100
AcDbEntity
8
1
62
256
6
ByLayer
370
18
48
1
60
0
100
AcDbSpline
70
4
71
3
72
30
73
26
40
0
40
0
40
0
40
0
40
0.0625000000000014
40
0.0625000000000014
40
0.125000000000003
40
0.125000000000003
40
0.187500000000004
40
0.187500000000004
40
0.250000000000006
40
0.250000000000006
40
0.312500000000007
40
0.312500000000007
40
0.375000000000009
40
0.375000000000009
40
0.500000000000013
40
0.500000000000013
40
0.625000000000016
40
0.625000000000016
40
0.687500000000013
40
0.687500000000013
40
0.75000000000001
40
0.75000000000001
40
0.875000000000005
40
0.875000000000005
40
1
40
1
40
1
40
1
41
1
10
62.352746586461
20
-1.74955058879053
30
0
41
1
10
62.3530927692873
20
-1.75676508939446
30
0
41
1
10
62.3523068513882
20
-1.76683364694369
30
0
41
1
10
62.3484561136101
20
-1.79271593636437
30
0
41
1
10
62.3453496011209
20
-1.80870976670388
30
0
41
1
10
62.3368479555941
20
-1.84610138703323
30
0
41
1
10
62.3315203072286
20
-1.86724953802232
30
0
41
1
10
62.318747720955
20
-1.91436771233757
30
0
41
1
10
62.3112048580137
20
-1.9406522559986
30
0
41
1
10
62.2945116550289
20
-1.99623460461817
30
0
41
1
10
62.2853554184964
20
-2.0255876532473
30
0
41
1
10
62.2654823914117
20
-2.08730422945851
30
0
41
1
10
62.2547387904039
20
-2.11972758405139
30
0
41
1
10
62.2214283755116
20
-2.21780025657992
30
0
41
1
10
62.1970389794103
20
-2.28644135908709
30
0
41
1
10
62.1475932541375
20
-2.4204742365263
30
0
41
1
10
62.1220332128192
20
-2.48724274905493
30
0
41
1
10
62.0848526420232
20
-2.58104252869072
30
0
41
1
10
62.0726042801216
20
-2.61138522986695
30
0
41
1
10
62.0483933015253
20
-2.67025198634869
30
0
41
1
10
62.0364191473797
20
-2.69879307991673
30
0
41
1
10
62.001911868072
20
-2.77935249377995
30
0
41
1
10
61.9802779215753
20
-2.82756184334983
30
0
41
1
10
61.940800860364
20
-2.91049977548903
30
0
41
1
10
61.9234464846662
20
-2.94424541998282
30
0
41
1
10
61.9086683010283
20
-2.96964565048765
30
0
0
SPLINE
5
F1
100
AcDbEntity
8
1
62
256
6
ByLayer
370
18
48
1
60
0
100
AcDbSpline
70
4
71
3
72
14
73
10
40
0
40
0
40
0
40
0
40
0.25
40
0.25
40
0.5
40
0.5
40
0.75
40
0.75
40
1
40
1
40
1
40
1
41
1
10
61.2532936338601
20
1.34961286615623
30
0
41
1
10
61.2297640980607
20
1.34877811253378
30
0
41
1
10
61.2062748328182
20
1.34390151427291
30
0
41
1
10
61.1651327576253
20
1.32259338338954
30
0
41
1
10
61.1476512862571
20
1.30569039425885
30
0
41
1
10
61.1259290986236
20
1.26334912747268
30
0
41
1
10
61.1218839859608
20
1.23936948218537
30
0
41
1
10
61.1227084103825
20
1.1922358283004
30
0
41
1
10
61.1274450322893
20
1.1686068473964
30
0
41
1
10
61.1346861855709
20
1.14588280273856
30
0
0
SPLINE
5
F2
100
AcDbEntity
8
1
62
256
6
ByLayer
370
18
48
1
60
0
100
AcDbSpline
70
4
71
3
72
10
73
6
40
0
40
0
40
0
40
0
40
0.282050060175942
40
0.600547128383092
40
1
40
1
40
1
40
1
41
1
10
28.7205167198434
20
0.0441390017830656
30
0
41
1
10
28.7209654562814
20
0.043989257292651
30
0
41
1
10
28.7125375416422
20
0.0482720377974886
30
0
41
1
10
28.6418194956601
20
0.0845255995813261
30
0
41
1
10
28.5749887006578
20
0.120600964414336
30
0
41
1
10
28.5297337489542
20
0.145204739176847
30
0
0
SPLINE
5
F3
100
AcDbEntity
8
1
62
256
6
ByLayer
370
18
48
1
60
0
100
AcDbSpline
70
4
71
3
72
23
73
19
40
0
40
0
40
0
40
0
40
0.0007891944386298
40
0.0243370911316431
40
0.0599129547260914
40
0.0997006867370617
40
0.145887717613663
40
0.235485117432459
40
0.315202315455488
40
0.376444655768727
40
0.453103904499025
40
0.544670806848007
40
0.62636057995983
40
0.708230836408776
40
0.762535567246438
40
0.831749267441862
40
0.909015522060842
40
1
40
1
40
1
40
1
41
1
10
46.6098258315516
20
-1.18794534599257
30
0
41
1
10
46.609805727895
20
-1.18795707845814
30
0
41
1
10
46.6094307920939
20
-1.18833185868374
30
0
41
1
10
46.627558566468
20
-1.19028383868829
30
0
41
1
10
46.7174588858055
20
-1.19939616959721
30
0
41
1
10
46.8254283367167
20
-1.21272047075834
30
0
41
1
10
46.9608640150505
20
-1.23134708748836
30
0
41
1
10
47.1407854267802
20
-1.26213404311301
30
0
41
1
10
47.3271294020307
20
-1.3036300212963
30
0
41
1
10
47.5292421413473
20
-1.35434359334246
30
0
41
1
10
47.7641690465319
20
-1.42098754047672
30
0
41
1
10
48.016610061705
20
-1.50212262751077
30
0
41
1
10
48.2210737711735
20
-1.57683350792956
30
0
41
1
10
48.4799335706684
20
-1.67851425381019
30
0
41
1
10
48.7347103873969
20
-1.78599241658838
30
0
41
1
10
48.9927859899189
20
-1.90014622398226
30
0
41
1
10
49.2934586827803
20
-2.03913134467814
30
0
41
1
10
49.5062515013183
20
-2.14391931484593
30
0
41
1
10
49.6209335223732
20
-2.20214819607918
30
0
0
SPLINE
5
F4
100
AcDbEntity
8
1
62
256
6
ByLayer
370
18
48
1
60
0
100
AcDbSpline
70
4
71
3
72
10
73
6
40
0
40
0
40
0
40
0
40
0.252748431036099
40
0.521913418776796
40
1
40
1
40
1
40
1
41
1
10
55.9209840298623
20
0.0440479869436956
30
0
41
1
10
55.9209981071225
20
0.0441101960098536
30
0
41
1
10
55.911144253273
20
0.0490326364401596
30
0
41
1
10
55.8335075507695
20
0.0888979494513933
30
0
41
1
10
55.7566523552976
20
0.130144442350456
30
0
41
1
10
55.694996723409
20
0.163511058361678
30
0
0
SPLINE
5
F5
100
AcDbEntity
8
1
62
256
6
ByLayer
370
18
48
1
60
0
100
AcDbSpline
70
4
71
3
72
22
73
18
40
0
40
0
40
0
40
0
40
0.0743849864438311
40
0.124994273112639
40
0.167319729561302
40
0.25366477366238
40
0.325281474130852
40
0.397192639667124
40
0.489250058833567
40
0.562056779334559
40
0.651448580682873
40
0.713764710342843
40
0.757657203554231
40
0.811174206067077
40
0.885807572723152
40
0.953563714086754
40
1
40
1
40
1
40
1
41
1
10
15.2246700553335
20
4.64948461988385
30
0
41
1
10
15.0392344050294
20
4.64925347067597
30
0
41
1
10
14.7276604155004
20
4.64882273679615
30
0
41
1
10
14.3106120495091
20
4.64792486828435
30
0
41
1
10
13.8638573011801
20
4.64733183963554
30
0
41
1
10
13.3645236928479
20
4.64731080523492
30
0
41
1
10
12.7915071828134
20
4.64639210430119
30
0
41
1
10
12.2042342234356
20
4.64532525836043
30
0
41
1
10
11.6139952131688
20
4.64522011327304
30
0
41
1
10
10.980188537367
20
4.64416252013072
30
0
41
1
10
10.4205159387973
20
4.64322058730684
30
0
41
1
10
9.93292036080635
20
4.64302311944445
30
0
41
1
10
9.53476229068815
20
4.64268791343713
30
0
41
1
10
9.10589993638959
20
4.64203084369268
30
0
41
1
10
8.61751854731799
20
4.64134683401537
30
0
41
1
10
8.14690068898636
20
4.64097886673721
30
0
41
1
10
7.86207504156692
20
4.64056137461219
30
0
41
1
10
7.7463642150324
20
4.64035350475083
30
0
0
SPLINE
5
F6
100
AcDbEntity
8
1
62
256
6
ByLayer
370
18
48
1
60
0
100
AcDbSpline
70
4
71
3
72
24
73
20
40
0
40
0
40
0
40
0
40
0.0045503757827237
40
0.0201021161271387
40
0.0613532826815474
40
0.104980244990069
40
0.18076267748189
40
0.267969612828286
40
0.334703606132638
40
0.400863039954426
40
0.480044614892966
40
0.556675008649356
40
0.599555789414627
40
0.644149383175647
40
0.706093993014457
40
0.773292292488247
40
0.856665435897291
40
0.925596174361249
40
1
40
1
40
1
40
1
41
1
10
19.4117441261147
20
-1.18843130024041
30
0
41
1
10
19.4115992889314
20
-1.18848261715979
30
0
41
1
10
19.4121959359334
20
-1.18877966744486
30
0
41
1
10
19.4352453564189
20
-1.19108991568336
30
0
41
1
10
19.5379528368204
20
-1.20147095907117
30
0
41
1
10
19.6729289954623
20
-1.21855694466836
30
0
41
1
10
19.8181353325574
20
-1.23972038384414
30
0
41
1
10
20.0001151756462
20
-1.27531992625961
30
0
41
1
10
20.1982841999259
20
-1.32095792381548
30
0
41
1
10
20.3954275766933
20
-1.37252165879568
30
0
41
1
10
20.6052946149254
20
-1.43297192478744
30
0
41
1
10
20.8010230876432
20
-1.49774563173932
30
0
41
1
10
20.9415231851525
20
-1.54838994361657
30
0
41
1
10
21.0954755708389
20
-1.60607142510736
30
0
41
1
10
21.2985581927362
20
-1.68652489261368
30
0
41
1
10
21.5587837256433
20
-1.79600978436389
30
0
41
1
10
21.8325648364813
20
-1.91741962257939
30
0
41
1
10
22.105384984302
20
-2.04517994600926
30
0
41
1
10
22.2871497196429
20
-2.13496922246313
30
0
41
1
10
22.3826721569923
20
-2.18334130720544
30
0
0
SPLINE
5
F7
100
AcDbEntity
8
1
62
256
6
ByLayer
370
18
48
1
60
0
100
AcDbSpline
70
4
71
3
72
23
73
19
40
0
40
0
40
0
40
0
40
0.0781923672885256
40
0.144736235229756
40
0.200488921160359
40
0.256755814900003
40
0.329432521413241
40
0.408320179411943
40
0.474977992104559
40
0.535553601198256
40
0.60824422672071
40
0.673001331546086
40
0.730716686213154
40
0.800682885550062
40
0.871013437267359
40
0.919445281543021
40
0.966776809629898
40
1
40
1
40
1
40
1
41
1
10
42.5358688046271
20
4.6810246979189
30
0
41
1
10
42.3356738040526
20
4.68046692017785
30
0
41
1
10
41.9658675439277
20
4.67971028508765
30
0
41
1
10
41.4626124808683
20
4.67983763775041
30
0
41
1
10
41.0043171889547
20
4.67971690459967
30
0
41
1
10
40.5353547032722
20
4.6789645681113
30
0
41
1
10
40.0038030381478
20
4.67756298700601
30
0
41
1
10
39.4468322488247
20
4.6780593083983
30
0
41
1
10
38.9204433203811
20
4.67737312023454
30
0
41
1
10
38.409955599637
20
4.6759134226684
30
0
41
1
10
37.9043093082721
20
4.67601228886417
30
0
41
1
10
37.4059246152344
20
4.67564069744853
30
0
41
1
10
36.9148597871464
20
4.67457668154887
30
0
41
1
10
36.4090927330898
20
4.67397291455686
30
0
41
1
10
35.9273807207507
20
4.67377598661517
30
0
41
1
10
35.5032811254239
20
4.67327018668612
30
0
41
1
10
35.1739228111769
20
4.67271269966281
30
0
41
1
10
34.9682192102336
20
4.67245881536593
30
0
41
1
10
34.8833826498095
20
4.6723639054012
30
0
0
SPLINE
5
F8
100
AcDbEntity
8
1
62
256
6
ByLayer
370
18
48
1
60
0
100
AcDbSpline
70
4
71
3
72
29
73
25
40
0
40
0
40
0
40
0
40
0.0507651979992758
40
0.105158340300988
40
0.157956312497765
40
0.201982080917784
40
0.246472518370058
40
0.297508831595181
40
0.337557164298616
40
0.374365660291422
40
0.411748943945249
40
0.459311015363977
40
0.519429259785192
40
0.564479047466607
40
0.598061290951162
40
0.646196624249776
40
0.698507131544034
40
0.742297516452153
40
0.785421839719483
40
0.835652169848831
40
0.883134360688551
40
0.927731366176117
40
0.994102540389148
40
1
40
1
40
1
40
1
41
1
10
32.6489444873542
20
-4.66955989083169
30
0
41
1
10
32.8106788496974
20
-4.66925218130584
30
0
41
1
10
33.1472799351009
20
-4.66898998790381
30
0
41
1
10
33.6660829262854
20
-4.67060991169416
30
0
41
1
10
34.1518642124428
20
-4.67170343139955
30
0
41
1
10
34.6147048730251
20
-4.67203065907404
30
0
41
1
10
35.0694111081209
20
-4.67253651746469
30
0
41
1
10
35.5121015364223
20
-4.67329394947041
30
0
41
1
10
35.9294504985771
20
-4.67375222319174
30
0
41
1
10
36.3023032469128
20
-4.67403352840043
30
0
41
1
10
36.6996606962526
20
-4.67421264473566
30
0
41
1
10
37.1730987308826
20
-4.67527400182217
30
0
41
1
10
37.6715571199732
20
-4.67588264120613
30
0
41
1
10
38.1243881056431
20
-4.67598316946678
30
0
41
1
10
38.5381119587242
20
-4.67620304450324
30
0
41
1
10
38.9755344151341
20
-4.67753027434324
30
0
41
1
10
39.4462717860737
20
-4.67795405668306
30
0
41
1
10
39.9006552079441
20
-4.6778444211632
30
0
41
1
10
40.3482517208812
20
-4.67811543906657
30
0
41
1
10
40.8078920743139
20
-4.67972662634955
30
0
41
1
10
41.2723490746604
20
-4.68004736922904
30
0
41
1
10
41.7892105749321
20
-4.67947762808845
30
0
41
1
10
42.1707384179038
20
-4.6811065251577
30
0
41
1
10
42.406556864618
20
-4.68124246198676
30
0
41
1
10
42.4258007618217
20
-4.68125316120921
30
0
0
SPLINE
5
F9
100
AcDbEntity
8
1
62
256
6
ByLayer
370
18
48
1
60
0
100
AcDbSpline
70
4
71
3
72
28
73
24
40
0
40
0
40
0
40
0
40
0.0784098584502417
40
0.140737475915831
40
0.184274462945081
40
0.210310721953237
40
0.243961345967447
40
0.285401113343568
40
0.335856231155437
40
0.388776153038001
40
0.424237683749262
40
0.45690177532569
40
0.502187252776177
40
0.558032726692279
40
0.604322261426777
40
0.651874691146143
40
0.710076693293416
40
0.75146228250002
40
0.806195739700733
40
0.872185414561315
40
0.904532877412104
40
0.943211303062144
40
1
40
1
40
1
40
1
41
1
10
5.44425011646606
20
-4.63715466973088
30
0
41
1
10
5.69980603074802
20
-4.63730484667281
30
0
41
1
10
6.15827307263768
20
-4.63765059863525
30
0
41
1
10
6.75591047967694
20
-4.63888763243042
30
0
41
1
10
7.18597504787601
20
-4.6391336657955
30
0
41
1
10
7.52165863628389
20
-4.63993543993914
30
0
41
1
10
7.85168196927876
20
-4.64057858910834
30
0
41
1
10
8.26111468517007
20
-4.64108316245634
30
0
41
1
10
8.73349183874132
20
-4.6414688914619
30
0
41
1
10
9.18632516902326
20
-4.64216820989188
30
0
41
1
10
9.58114911535614
20
-4.6427354643094
30
0
41
1
10
9.95105779440695
20
-4.64302773956453
30
0
41
1
10
10.3874654350416
20
-4.64322446284311
30
0
41
1
10
10.8683159326583
20
-4.64392005747146
30
0
41
1
10
11.3565513067115
20
-4.64487017536629
30
0
41
1
10
11.8524844419795
20
-4.6452535701591
30
0
41
1
10
12.332418789473
20
-4.64553276307913
30
0
41
1
10
12.8357779203608
20
-4.64647219773627
30
0
41
1
10
13.3645235838333
20
-4.64730739106631
30
0
41
1
10
13.8638573155165
20
-4.64733228733644
30
0
41
1
10
14.3106120475801
20
-4.64792476137532
30
0
41
1
10
14.7274633018159
20
-4.6488223933716
30
0
41
1
10
15.0388401685234
20
-4.6492528158663
30
0
41
1
10
15.2240786708729
20
-4.64948373874662
30
0
0
SPLINE
5
FA
100
AcDbEntity
8
1
62
256
6
ByLayer
370
18
48
1
60
0
100
AcDbSpline
70
4
71
3
72
11
73
7
40
0
40
0
40
0
40
0
40
0.258926805991747
40
0.564429173818821
40
0.918795176988102
40
1
40
1
40
1
40
1
41
1
10
59.8564845639984
20
-4.70227059348576
30
0
41
1
10
59.9794637535083
20
-4.70232360217122
30
0
41
1
10
60.2479866828634
20
-4.70239006527214
30
0
41
1
10
60.6876060652874
20
-4.70312877647243
30
0
41
1
10
61.0420405208567
20
-4.70215841408265
30
0
41
1
10
61.2498988184838
20
-4.7042390520424
30
0
41
1
10
61.2886407089593
20
-4.7046682838928
30
0
0
SPLINE
5
FB
100
AcDbEntity
8
1
62
256
6
ByLayer
370
18
48
1
60
0
100
AcDbSpline
70
4
71
2
72
6
73
3
40
0
40
0
40
0
40
1
40
1
40
1
41
1
10
46.1057237323835
20
0.0012012634382472
30
0
41
1
10
46.1057141588674
20
0.0012054767509255
30
0
41
1
10
46.105704585377
20
0.0012098170275578
30
0
0
LINE
5
7B
100
AcDbEntity
8
SK1
62
256
6
ByLayer
370
18
48
1
60
0
100
AcDbLine
10
0
20
-5
30
0
11
0
21
5
31
0
39
0
210
0
220
0
230
1
0
LINE
5
7D
100
AcDbEntity
8
SK1
62
256
6
ByLayer
370
18
48
1
60
0
100
AcDbLine
10
-40
20
2.003328
30
0
11
-40
21
-3.7
31
0
39
0
210
0
220
0
230
1
0
LINE
5
7E
100
AcDbEntity
8
SK1
62
256
6
ByLayer
370
18
48
1
60
0
100
AcDbLine
10
-39.25
20
2.665261
30
0
11
-39.25
21
3.85887
31
0
39
0
210
0
220
0
230
1
0
LINE
5
7F
100
AcDbEntity
8
SK1
62
256
6
ByLayer
370
13
48
1
60
0
100
AcDbLine
10
-39.35
20
3.83196
30
0
11
-39.35
21
2.5057
31
0
39
0
210
0
220
0
230
1
0
LINE
5
80
100
AcDbEntity
8
SK1
62
256
6
ByLayer
370
18
48
1
60
0
100
AcDbLine
10
-40
20
3.7
30
0
11
-40
21
3.329559
31
0
39
0
210
0
220
0
230
1
0
LINE
5
81
100
AcDbEntity
8
SK1
62
256
6
ByLayer
370
18
48
1
60
0
100
AcDbLine
10
-40
20
3.329559
30
0
11
-40
21
2.003254
31
0
39
0
210
0
220
0
230
1
0
LINE
5
82
100
AcDbEntity
8
SK1
62
256
6
ByLayer
370
18
48
1
60
0
100
AcDbLine
10
-38.7
20
5
30
0
11
-38.7
21
-5
31
0
39
0
210
0
220
0
230
1
0
LINE
5
83
100
AcDbEntity
8
1
62
256
6
ByLayer
370
18
48
1
60
0
100
AcDbLine
10
0.8
20
4.827309
30
0
11
0.8
21
-4.827309
31
0
39
0
210
0
220
0
230
1
0
LINE
5
84
100
AcDbEntity
8
1
62
256
6
ByLayer
370
18
48
1
60
0
100
AcDbLine
10
62.900134
20
-0.245617
30
0
11
62.352747
21
-1.749551
31
0
39
0
210
0
220
0
230
1
0
LINE
5
85
100
AcDbEntity
8
1
62
256
6
ByLayer
370
18
48
1
60
0
100
AcDbLine
10
61.908668
20
-2.969646
30
0
11
61.27808
21
-4.702173
31
0
39
0
210
0
220
0
230
1
0
LINE
5
86
100
AcDbEntity
8
1
62
256
6
ByLayer
370
18
48
1
60
0
100
AcDbLine
10
62.984851
20
0.078394
30
0
11
62.670134
21
1.227191
31
0
39
0
210
0
220
0
230
1
0
LINE
5
87
100
AcDbEntity
8
1
62
256
6
ByLayer
370
18
48
1
60
0
100
AcDbLine
10
62.984851
20
-0.078394
30
0
11
62.670134
21
-1.227191
31
0
39
0
210
0
220
0
230
1
0
LINE
5
88
100
AcDbEntity
8
1
62
256
6
ByLayer
370
13
48
1
60
0
100
AcDbLine
10
62.984851
20
0.078394
30
0
11
61.253294
21
1.349613
31
0
39
0
210
0
220
0
230
1
0
LINE
5
89
100
AcDbEntity
8
1
62
256
6
ByLayer
370
18
48
1
60
0
100
AcDbLine
10
62.505874
20
-1.736631
30
0
11
62.505699
21
-1.736771
31
0
39
0
210
0
220
0
230
1
0
LINE
5
8A
100
AcDbEntity
8
1
62
256
6
ByLayer
370
18
48
1
60
0
100
AcDbLine
10
62.900134
20
-0.245617
30
0
11
62.930415
21
-0.172447
31
0
39
0
210
0
220
0
230
1
0
LINE
5
8B
100
AcDbEntity
8
1
62
256
6
ByLayer
370
18
48
1
60
0
100
AcDbLine
10
62.900134
20
-0.245617
30
0
11
60.49789
21
-3.619261
31
0
39
0
210
0
220
0
230
1
0
LINE
5
8C
100
AcDbEntity
8
1
62
256
6
ByLayer
370
18
48
1
60
0
100
AcDbLine
10
0
20
-5
30
0
11
0
21
5
31
0
39
0
210
0
220
0
230
1
0
LINE
5
8D
100
AcDbEntity
8
1
62
256
6
ByLayer
370
13
48
1
60
0
100
AcDbLine
10
62.930415
20
-0.172447
30
0
11
61.134686
21
1.145883
31
0
39
0
210
0
220
0
230
1
0
LINE
5
8E
100
AcDbEntity
8
1
62
256
6
ByLayer
370
18
48
1
60
0
100
AcDbLine
10
63
20
0.025072
30
0
11
63
21
-0.025072
31
0
39
0
210
0
220
0
230
1
0
LINE
5
8F
100
AcDbEntity
8
80
62
256
6
ByLayer
370
18
48
1
60
0
100
AcDbLine
10
0
20
0
30
0
11
-5
21
0
31
0
39
0
210
0
220
0
230
1
0
LINE
5
90
100
AcDbEntity
8
4
62
256
6
ByLayer
370
18
48
0.05
60
0
100
AcDbLine
10
63
20
0
30
0
11
0
21
0
31
0
39
0
210
0
220
0
230
1
0
LINE
5
92
100
AcDbEntity
8
SK4
62
256
6
ByLayer
370
18
48
0.05
60
0
100
AcDbLine
10
68
20
0
30
0
11
-45
21
0
31
0
39
0
210
0
220
0
230
1
0
LINE
5
94
100
AcDbEntity
8
SK1
62
256
6
ByLayer
370
18
48
1
60
0
100
AcDbLine
10
-40
20
-3.7
30
0
11
-38.7
21
-5
31
0
39
0
210
0
220
0
230
1
0
LINE
5
95
100
AcDbEntity
8
SK1
62
256
6
ByLayer
370
18
48
1
60
0
100
AcDbLine
10
-38.7
20
5
30
0
11
-40
21
3.7
31
0
39
0
210
0
220
0
230
1
0
LINE
5
96
100
AcDbEntity
8
SK1
62
256
6
ByLayer
370
18
48
1
60
0
100
AcDbLine
10
-38.7
20
-5
30
0
11
0
21
-5
31
0
39
0
210
0
220
0
230
1
0
LINE
5
97
100
AcDbEntity
8
SK1
62
256
6
ByLayer
370
18
48
1
60
0
100
AcDbLine
10
0
20
5
30
0
11
-38.7
21
5
31
0
39
0
210
0
220
0
230
1
0
LINE
5
98
100
AcDbEntity
8
1
62
256
6
ByLayer
370
18
48
1
60
0
100
AcDbLine
10
0.8
20
4.827309
30
0
11
0
21
5
31
0
39
0
210
0
220
0
230
1
0
LINE
5
99
100
AcDbEntity
8
1
62
256
6
ByLayer
370
18
48
1
60
0
100
AcDbLine
10
0
20
-5
30
0
11
0.8
21
-4.827309
31
0
39
0
210
0
220
0
230
1
0
LINE
5
9A
100
AcDbEntity
8
1
62
256
6
ByLayer
370
18
48
1
60
0
100
AcDbLine
10
0.8
20
-4.827309
30
0
11
5.307899
21
-4.832719
31
0
39
0
210
0
220
0
230
1
0
LINE
5
9B
100
AcDbEntity
8
1
62
256
6
ByLayer
370
18
48
1
60
0
100
AcDbLine
10
31.954564
20
-4.864695
30
0
11
32.507635
21
-4.865358
31
0
39
0
210
0
220
0
230
1
0
LINE
5
9C
100
AcDbEntity
8
1
62
256
6
ByLayer
370
18
48
1
60
0
100
AcDbLine
10
59.182728
20
-4.897368
30
0
11
59.708053
21
-4.897999
31
0
39
0
210
0
220
0
230
1
0
LINE
5
9D
100
AcDbEntity
8
1
62
256
6
ByLayer
370
18
48
1
60
0
100
AcDbLine
10
59.708525
20
4.897999
30
0
11
59.182728
21
4.897368
31
0
39
0
210
0
220
0
230
1
0
LINE
5
9E
100
AcDbEntity
8
1
62
256
6
ByLayer
370
18
48
1
60
0
100
AcDbLine
10
32.507807
20
4.865358
30
0
11
31.954564
21
4.864695
31
0
39
0
210
0
220
0
230
1
0
LINE
5
9F
100
AcDbEntity
8
1
62
256
6
ByLayer
370
18
48
1
60
0
100
AcDbLine
10
5.307775
20
4.832718
30
0
11
0.8
21
4.827309
31
0
39
0
210
0
220
0
230
1
0
LINE
5
A0
100
AcDbEntity
8
81
62
256
6
ByLayer
370
18
48
1
60
0
100
AcDbLine
10
63
20
0
30
0
11
68
21
0
31
0
39
0
210
0
220
0
230
1
0
LINE
5
A1
100
AcDbEntity
8
SK2
62
256
6
ByLayer
370
13
48
1
60
0
100
AcDbLine
10
-48.625163
20
-5
30
0
11
-48.625163
21
35.857173
31
0
39
0
210
0
220
0
230
1
0
LINE
5
A3
100
AcDbEntity
8
SK2
62
256
6
ByLayer
370
13
48
1
60
0
100
AcDbLine
10
-41.5875
20
5
30
0
11
-50.625163
21
5
31
0
39
0
210
0
220
0
230
1
0
LINE
5
A4
100
AcDbEntity
8
SK2
62
256
6
ByLayer
370
13
48
1
60
0
100
AcDbLine
10
-41.5875
20
-5
30
0
11
-50.625163
21
-5
31
0
39
0
210
0
220
0
230
1
0
LINE
5
A5
100
AcDbEntity
8
1
62
256
6
ByLayer
370
18
48
1
60
1
100
AcDbLine
10
-48.625163
20
5
30
0
11
-48.164379
21
1.500002
31
0
39
0
210
0
220
0
230
1
0
LINE
5
A6
100
AcDbEntity
8
1
62
256
6
ByLayer
370
18
48
1
60
1
100
AcDbLine
10
-48.164379
20
1.500002
30
0
11
-49.085946
21
1.499998
31
0
39
0
210
0
220
0
230
1
0
LINE
5
A7
100
AcDbEntity
8
1
62
256
6
ByLayer
370
18
48
1
60
1
100
AcDbLine
10
-49.085946
20
1.499998
30
0
11
-48.625163
21
5
31
0
39
0
210
0
220
0
230
1
0
LINE
5
A8
100
AcDbEntity
8
1
62
256
6
ByLayer
370
18
48
1
60
1
100
AcDbLine
10
-48.625163
20
-5
30
0
11
-49.085946
21
-1.500002
31
0
39
0
210
0
220
0
230
1
0
LINE
5
A9
100
AcDbEntity
8
1
62
256
6
ByLayer
370
18
48
1
60
1
100
AcDbLine
10
-49.085946
20
-1.500002
30
0
11
-48.164379
21
-1.499998
31
0
39
0
210
0
220
0
230
1
0
LINE
5
AA
100
AcDbEntity
8
1
62
256
6
ByLayer
370
18
48
1
60
1
100
AcDbLine
10
-48.164379
20
-1.499998
30
0
11
-48.625163
21
-5
31
0
39
0
210
0
220
0
230
1
0
LINE
5
AB
100
AcDbEntity
8
2
62
256
6
ByLayer
370
13
48
1
60
0
100
AcDbLine
10
75.083343
20
-4.9
30
0
11
75.083343
21
32.610193
31
0
39
0
210
0
220
0
230
1
0
LINE
5
AD
100
AcDbEntity
8
2
62
256
6
ByLayer
370
13
48
1
60
0
100
AcDbLine
10
62.7875
20
4.9
30
0
11
77.083343
21
4.9
31
0
39
0
210
0
220
0
230
1
0
LINE
5
AE
100
AcDbEntity
8
2
62
256
6
ByLayer
370
13
48
1
60
0
100
AcDbLine
10
62.7875
20
-4.9
30
0
11
77.083343
21
-4.9
31
0
39
0
210
0
220
0
230
1
0
LINE
5
AF
100
AcDbEntity
8
1
62
256
6
ByLayer
370
18
48
1
60
1
100
AcDbLine
10
75.083343
20
4.9
30
0
11
75.544126
21
1.400002
31
0
39
0
210
0
220
0
230
1
0
LINE
5
B0
100
AcDbEntity
8
1
62
256
6
ByLayer
370
18
48
1
60
1
100
AcDbLine
10
75.544126
20
1.400002
30
0
11
74.622559
21
1.399998
31
0
39
0
210
0
220
0
230
1
0
LINE
5
B1
100
AcDbEntity
8
1
62
256
6
ByLayer
370
18
48
1
60
1
100
AcDbLine
10
74.622559
20
1.399998
30
0
11
75.083343
21
4.9
31
0
39
0
210
0
220
0
230
1
0
LINE
5
B2
100
AcDbEntity
8
1
62
256
6
ByLayer
370
18
48
1
60
1
100
AcDbLine
10
75.083343
20
-4.9
30
0
11
74.622559
21
-1.400002
31
0
39
0
210
0
220
0
230
1
0
LINE
5
B3
100
AcDbEntity
8
1
62
256
6
ByLayer
370
18
48
1
60
1
100
AcDbLine
10
74.622559
20
-1.400002
30
0
11
75.544126
21
-1.399998
31
0
39
0
210
0
220
0
230
1
0
LINE
5
B4
100
AcDbEntity
8
1
62
256
6
ByLayer
370
18
48
1
60
1
100
AcDbLine
10
75.544126
20
-1.399998
30
0
11
75.083343
21
-4.9
31
0
39
0
210
0
220
0
230
1
0
LINE
5
102
100
AcDbEntity
8
1
62
256
6
ByLayer
370
18
48
1
60
1
100
AcDbLine
10
-48.625163
20
5
30
0
11
-48.164379
21
1.500002
31
0
39
0
210
0
220
0
230
1
0
LINE
5
103
100
AcDbEntity
8
1
62
256
6
ByLayer
370
18
48
1
60
1
100
AcDbLine
10
-48.164379
20
1.500002
30
0
11
-49.085946
21
1.499998
31
0
39
0
210
0
220
0
230
1
0
LINE
5
104
100
AcDbEntity
8
1
62
256
6
ByLayer
370
18
48
1
60
1
100
AcDbLine
10
-49.085946
20
1.499998
30
0
11
-48.625163
21
5
31
0
39
0
210
0
220
0
230
1
0
LINE
5
106
100
AcDbEntity
8
1
62
256
6
ByLayer
370
18
48
1
60
1
100
AcDbLine
10
-48.625163
20
-5
30
0
11
-49.085946
21
-1.500002
31
0
39
0
210
0
220
0
230
1
0
LINE
5
107
100
AcDbEntity
8
1
62
256
6
ByLayer
370
18
48
1
60
1
100
AcDbLine
10
-49.085946
20
-1.500002
30
0
11
-48.164379
21
-1.499998
31
0
39
0
210
0
220
0
230
1
0
LINE
5
108
100
AcDbEntity
8
1
62
256
6
ByLayer
370
18
48
1
60
1
100
AcDbLine
10
-48.164379
20
-1.499998
30
0
11
-48.625163
21
-5
31
0
39
0
210
0
220
0
230
1
0
LINE
5
10C
100
AcDbEntity
8
1
62
256
6
ByLayer
370
18
48
1
60
1
100
AcDbLine
10
75.083343
20
4.9
30
0
11
75.544126
21
1.400002
31
0
39
0
210
0
220
0
230
1
0
LINE
5
10D
100
AcDbEntity
8
1
62
256
6
ByLayer
370
18
48
1
60
1
100
AcDbLine
10
75.544126
20
1.400002
30
0
11
74.622559
21
1.399998
31
0
39
0
210
0
220
0
230
1
0
LINE
5
10E
100
AcDbEntity
8
1
62
256
6
ByLayer
370
18
48
1
60
1
100
AcDbLine
10
74.622559
20
1.399998
30
0
11
75.083343
21
4.9
31
0
39
0
210
0
220
0
230
1
0
LINE
5
110
100
AcDbEntity
8
1
62
256
6
ByLayer
370
18
48
1
60
1
100
AcDbLine
10
75.083343
20
-4.9
30
0
11
74.622559
21
-1.400002
31
0
39
0
210
0
220
0
230
1
0
LINE
5
111
100
AcDbEntity
8
1
62
256
6
ByLayer
370
18
48
1
60
1
100
AcDbLine
10
74.622559
20
-1.400002
30
0
11
75.544126
21
-1.399998
31
0
39
0
210
0
220
0
230
1
0
LINE
5
112
100
AcDbEntity
8
1
62
256
6
ByLayer
370
18
48
1
60
1
100
AcDbLine
10
75.544126
20
-1.399998
30
0
11
75.083343
21
-4.9
31
0
39
0
210
0
220
0
230
1
0
MTEXT
5
FC
100
AcDbEntity
8
SK6
62
256
6
ByLayer
370
13
48
1
60
0
100
AcDbMText
10
-15.595826
20
37.440328
30
0
210
0
220
0
230
1
1
\W0.7228;860.1-0980-046A1-SM 1210
40
3.5
41
0
44
1.084337
50
0
71
7
72
5
7
iso_b_vert
0
MTEXT
5
100
100
AcDbEntity
8
SK2
62
256
6
ByLayer
370
18
48
1
60
0
100
AcDbMText
10
-50.189796
20
18.409024
30
0
210
0
220
0
230
1
1
%%c
40
3.5
41
0
44
1.084337
50
90
71
7
72
5
7
iso_b_vert
0
MTEXT
5
101
100
AcDbEntity
8
SK2
62
256
6
ByLayer
370
18
48
1
60
0
100
AcDbMText
10
-50.189796
20
23.63168
30
0
210
0
220
0
230
1
1
\W0.6930;10,000
40
3.5
41
0
44
1.084337
50
90
71
7
72
5
7
iso_b_vert
0
MTEXT
5
10A
100
AcDbEntity
8
2
62
256
6
ByLayer
370
18
48
1
60
0
100
AcDbMText
10
73.518709
20
16.90211
30
0
210
0
220
0
230
1
1
%%c
40
3.5
41
0
44
1.084337
50
90
71
7
72
5
7
iso_b_vert
0
MTEXT
5
10B
100
AcDbEntity
8
2
62
256
6
ByLayer
370
18
48
1
60
0
100
AcDbMText
10
73.518709
20
22.124766
30
0
210
0
220
0
230
1
1
\W0.7317;9,800
40
3.5
41
0
44
1.084337
50
90
71
7
72
5
7
iso_b_vert
0
HATCH
5
105
100
AcDbEntity
8
SK2
62
256
6
ByLayer
370
13
48
1
60
0
100
AcDbHatch
10
0
20
0
30
0
210
0
220
0
230
1
2
ANSI31
70
0
71
0
91
1
92
5
93
3
72
1
10
-48.6251625675374
20
5
11
-48.1643788259847
21
1.50000169255318
72
1
10
-48.1643788259847
20
1.50000169255318
11
-49.0859463090902
21
1.49999830744682
72
1
10
-49.0859463090902
20
1.49999830744682
11
-48.6251625675374
21
5
97
0
75
0
76
1
52
0
41
0.0062
77
0
78
1
53
45
43
0
44
0
45
-0.0139193969876572
46
0.0139193969876572
79
0
47
0
98
1
10
0
20
0
0
HATCH
5
109
100
AcDbEntity
8
SK2
62
256
6
ByLayer
370
13
48
1
60
0
100
AcDbHatch
10
0
20
0
30
0
210
0
220
0
230
1
2
ANSI31
70
0
71
0
91
1
92
5
93
3
72
1
10
-48.6251625675374
20
-5
11
-49.0859463090902
21
-1.50000169255318
72
1
10
-49.0859463090902
20
-1.50000169255318
11
-48.1643788259847
21
-1.49999830744682
72
1
10
-48.1643788259847
20
-1.49999830744682
11
-48.6251625675374
21
-5
97
0
75
0
76
1
52
0
41
0.0062
77
0
78
1
53
45
43
0
44
0
45
-0.0139193969876572
46
0.0139193969876572
79
0
47
0
98
1
10
0
20
0
0
HATCH
5
10F
100
AcDbEntity
8
2
62
256
6
ByLayer
370
13
48
1
60
0
100
AcDbHatch
10
0
20
0
30
0
210
0
220
0
230
1
2
ANSI31
70
0
71
0
91
1
92
5
93
3
72
1
10
75.083342615295
20
4.90000000000001
11
75.5441263568477
21
1.40000169255319
72
1
10
75.5441263568477
20
1.40000169255319
11
74.6225588737422
21
1.39999830744682
72
1
10
74.6225588737422
20
1.39999830744682
11
75.083342615295
21
4.90000000000001
97
0
75
0
76
1
52
0
41
0.0062
77
0
78
1
53
45
43
0
44
0
45
-0.0139193969876572
46
0.0139193969876572
79
0
47
0
98
1
10
0
20
0
0
HATCH
5
113
100
AcDbEntity
8
2
62
256
6
ByLayer
370
13
48
1
60
0
100
AcDbHatch
10
0
20
0
30
0
210
0
220
0
230
1
2
ANSI31
70
0
71
0
91
1
92
5
93
3
72
1
10
75.083342615295
20
-4.90000000000001
11
74.6225588737422
21
-1.40000169255319
72
1
10
74.6225588737422
20
-1.40000169255319
11
75.5441263568477
21
-1.39999830744682
72
1
10
75.5441263568477
20
-1.39999830744682
11
75.083342615295
21
-4.90000000000001
97
0
75
0
76
1
52
0
41
0.0062
77
0
78
1
53
45
43
0
44
0
45
-0.0139193969876572
46
0.0139193969876572
79
0
47
0
98
1
10
0
20
0
0
DIMENSION
5
115
100
AcDbEntity
8
SK2
62
256
6
ByLayer
370
13
48
1
60
0
100
AcDbDimension
2
_U0
10
61.2
20
-15.113398
30
0
11
30.6
21
-15.113398
31
0
70
32
71
1
72
1
41
1
210
0
220
0
230
1
3
Standard
100
AcDbAlignedDimension
13
0
23
0
33
0
14
61.2
24
-4.9
34
0
50
0
100
AcDbRotatedDimension
1001
ACAD
1000
DSTYLE
1002
{
1070
   371
1070
    13
1070
   372
1070
    13
1070
   170
1070
     0
1070
   144
1040
1.0
1070
   277
1070
     2
1070
   278
1070
    44
1070
   146
1040
1.0
1070
   345
1005
16
1070
   347
1005
16
1070
   346
1005
16
1070
   344
1005
0
1070
   343
1005
0
1070
   172
1070
     1
1070
    76
1070
     0
1070
    75
1070
     0
1070
   282
1070
     0
1070
   281
1070
     0
1070
    71
1070
     0
1070
    74
1070
     0
1070
   279
1070
     0
1070
   173
1070
     1
1070
   340
1005
FD
1070
   271
1070
     2
1070
   272
1070
     2
1070
    77
1070
     1
1070
    73
1070
     1
1070
   171
1070
     3
1070
   274
1070
     4
1070
   177
1070
    35
1070
   176
1070
    35
1070
   178
1070
    35
1070
    48
1040
-0.1
1070
    41
1040
3.5
1070
   147
1040
1.75
1070
    42
1040
1.5875
1070
    44
1040
2.0
1070
   140
1040
3.5
1002
}
1001
ACAD_DSTYLE_DIM_LINETYPE
1070
   380
1005
16
1001
ACAD_DSTYLE_DIM_EXT1_LINETYPE
1070
   381
1005
16
1001
ACAD_DSTYLE_DIM_EXT2_LINETYPE
1070
   382
1005
16
0
DIMENSION
5
12E
100
AcDbEntity
8
SK2
62
256
6
ByLayer
370
13
48
1
60
0
100
AcDbDimension
2
_U1
10
63
20
-33.692985
30
0
11
11.5
21
-33.692985
31
0
70
32
71
1
72
1
41
1
210
0
220
0
230
1
3
Standard
100
AcDbAlignedDimension
13
-40
23
-5
33
0
14
63
24
0
34
0
50
0
100
AcDbRotatedDimension
1001
ACAD
1000
DSTYLE
1002
{
1070
   371
1070
    13
1070
   372
1070
    13
1070
   170
1070
     0
1070
   144
1040
1.0
1070
   277
1070
     2
1070
   278
1070
    44
1070
   146
1040
1.0
1070
   345
1005
16
1070
   347
1005
16
1070
   346
1005
16
1070
   344
1005
0
1070
   343
1005
0
1070
   172
1070
     1
1070
    76
1070
     0
1070
    75
1070
     0
1070
   282
1070
     0
1070
   281
1070
     0
1070
    71
1070
     0
1070
    74
1070
     0
1070
   279
1070
     0
1070
   173
1070
     1
1070
   340
1005
FD
1070
   271
1070
     2
1070
   272
1070
     2
1070
    77
1070
     1
1070
    73
1070
     1
1070
   171
1070
     3
1070
   274
1070
     4
1070
   177
1070
    35
1070
   176
1070
    35
1070
   178
1070
    35
1070
    48
1040
-0.1
1070
    41
1040
3.5
1070
   147
1040
1.75
1070
    42
1040
1.5875
1070
    44
1040
2.0
1070
   140
1040
3.5
1002
}
1001
ACAD_DSTYLE_DIM_LINETYPE
1070
   380
1005
16
1001
ACAD_DSTYLE_DIM_EXT1_LINETYPE
1070
   381
1005
16
1001
ACAD_DSTYLE_DIM_EXT2_LINETYPE
1070
   382
1005
16
0
DIMENSION
5
146
100
AcDbEntity
8
SK2
62
256
6
ByLayer
370
13
48
1
60
0
100
AcDbDimension
2
_U2
10
63
20
16.509119
30
0
11
39.7875
21
16.509119
31
0
70
32
71
1
72
1
41
1
210
0
220
0
230
1
3
Standard
100
AcDbAlignedDimension
13
16.575
23
4.9
33
0
14
63
24
0
34
0
50
0
100
AcDbRotatedDimension
1001
ACAD
1000
DSTYLE
1002
{
1070
   371
1070
    13
1070
   372
1070
    13
1070
   170
1070
     0
1070
   144
1040
1.0
1070
   277
1070
     2
1070
   278
1070
    44
1070
   146
1040
1.0
1070
   345
1005
16
1070
   347
1005
16
1070
   346
1005
16
1070
   344
1005
0
1070
   343
1005
0
1070
   172
1070
     1
1070
    76
1070
     0
1070
    75
1070
     0
1070
   282
1070
     0
1070
   281
1070
     0
1070
    71
1070
     0
1070
    74
1070
     0
1070
   279
1070
     0
1070
   173
1070
     1
1070
   340
1005
FD
1070
   271
1070
     2
1070
   272
1070
     2
1070
    77
1070
     1
1070
    73
1070
     1
1070
   171
1070
     3
1070
   274
1070
     4
1070
   177
1070
    35
1070
   176
1070
    35
1070
   178
1070
    35
1070
    48
1040
-0.1
1070
    41
1040
3.5
1070
   147
1040
1.75
1070
    42
1040
1.5875
1070
    44
1040
2.0
1070
   140
1040
3.5
1002
}
1001
ACAD_DSTYLE_DIM_LINETYPE
1070
   380
1005
16
1001
ACAD_DSTYLE_DIM_EXT1_LINETYPE
1070
   381
1005
16
1001
ACAD_DSTYLE_DIM_EXT2_LINETYPE
1070
   382
1005
16
0
DIMENSION
5
15E
100
AcDbEntity
8
SK2
62
256
6
ByLayer
370
13
48
1
60
0
100
AcDbDimension
2
_U3
10
61.2
20
-17.702503
30
0
11
80.333333
21
-17.702503
31
0
70
32
71
1
72
1
41
1
210
0
220
0
230
1
3
Standard
100
AcDbAlignedDimension
13
63
23
0
33
0
14
61.2
24
-4.9
34
0
50
0
100
AcDbRotatedDimension
1001
ACAD
1000
DSTYLE
1002
{
1070
   371
1070
    13
1070
   372
1070
    13
1070
   170
1070
     0
1070
   144
1040
1.0
1070
   277
1070
     2
1070
   278
1070
    44
1070
   146
1040
1.0
1070
   345
1005
16
1070
   347
1005
16
1070
   346
1005
16
1070
   344
1005
0
1070
   343
1005
0
1070
   172
1070
     1
1070
    76
1070
     0
1070
    75
1070
     0
1070
   282
1070
     0
1070
   281
1070
     0
1070
    71
1070
     0
1070
    74
1070
     0
1070
   279
1070
     0
1070
   173
1070
     1
1070
   340
1005
FD
1070
   271
1070
     2
1070
   272
1070
     2
1070
    77
1070
     1
1070
    73
1070
     1
1070
   171
1070
     3
1070
   274
1070
     4
1070
   177
1070
    35
1070
   176
1070
    35
1070
   178
1070
    35
1070
    48
1040
-0.1
1070
    41
1040
3.5
1070
   147
1040
1.75
1070
    42
1040
1.5875
1070
    44
1040
2.0
1070
   140
1040
3.5
1002
}
1001
ACAD_DSTYLE_DIM_LINETYPE
1070
   380
1005
16
1001
ACAD_DSTYLE_DIM_EXT1_LINETYPE
1070
   381
1005
16
1001
ACAD_DSTYLE_DIM_EXT2_LINETYPE
1070
   382
1005
16
0
DIMENSION
5
178
100
AcDbEntity
8
SK2
62
256
6
ByLayer
370
13
48
1
60
0
100
AcDbDimension
2
_U4
10
61.2
20
-23.343428
30
0
11
10.6
21
-23.343428
31
0
70
32
71
1
72
1
41
1
210
0
220
0
230
1
3
Standard
100
AcDbAlignedDimension
13
-40
23
-5
33
0
14
61.2
24
-4.9
34
0
50
0
100
AcDbRotatedDimension
1001
ACAD
1000
DSTYLE
1002
{
1070
   371
1070
    13
1070
   372
1070
    13
1070
   170
1070
     0
1070
   144
1040
1.0
1070
   277
1070
     2
1070
   278
1070
    44
1070
   146
1040
1.0
1070
   345
1005
16
1070
   347
1005
16
1070
   346
1005
16
1070
   344
1005
0
1070
   343
1005
0
1070
   172
1070
     1
1070
    76
1070
     0
1070
    75
1070
     0
1070
   282
1070
     0
1070
   281
1070
     0
1070
    71
1070
     0
1070
    74
1070
     0
1070
   279
1070
     0
1070
   173
1070
     1
1070
   340
1005
FD
1070
   271
1070
     2
1070
   272
1070
     2
1070
    77
1070
     1
1070
    73
1070
     1
1070
   171
1070
     3
1070
   274
1070
     4
1070
   177
1070
    35
1070
   176
1070
    35
1070
   178
1070
    35
1070
    48
1040
-0.1
1070
    41
1040
3.5
1070
   147
1040
1.75
1070
    42
1040
1.5875
1070
    44
1040
2.0
1070
   140
1040
3.5
1002
}
1001
ACAD_DSTYLE_DIM_LINETYPE
1070
   380
1005
16
1001
ACAD_DSTYLE_DIM_EXT1_LINETYPE
1070
   381
1005
16
1001
ACAD_DSTYLE_DIM_EXT2_LINETYPE
1070
   382
1005
16
0
ENDSEC
0
SECTION
2
OBJECTS
0
DICTIONARY
5
200
330
0
100
AcDbDictionary
280
0
281
1
3
ACAD_GROUP
350
201
3
ACAD_MLINESTYLE
350
202
0
DICTIONARY
5
201
330
0
100
AcDbDictionary
280
0
281
1
0
DICTIONARY
5
202
330
0
100
AcDbDictionary
280
0
281
1
3
Standard
350
18
0
MLINESTYLE
5
18
330
202
100
AcDbMlineStyle
2
Standard
70
0
3

62
256
51
90
52
90
71
2
49
-0.5
62
256
6
ByLayer
49
0.5
62
256
6
ByLayer
0
RASTERVARIABLES
5
1ee
330

100
AcDbRasterVariables
90
0
70
1
71
1
72
1
0
ENDSEC
0
EOF
