0
SECTION
2
HEADER
9
$ACADVER
1
AC1015
9
$DWGCODEPAGE
3
ANSI_1252
9
$HANDSEED
5
20d
9
$ANGBASE
50
0
9
$ANGDIR
70
0
9
$ATTMODE
70
1
9
$AUNITS
70
0
9
$AUPREC
70
0
9
$CECOLOR
62
256
9
$CELTSCALE
40
1
9
$CELTYPE
6
ByLayer
9
$CELWEIGHT
370
18
9
$CLAYER
8
0
9
$CMLJUST
70
0
9
$CMLSCALE
40
1
9
$CMLSTYLE
2
Standard
9
$DIMSTYLE
2
Standard
9
$TEXTSIZE
40
0.2
9
$TEXTSTYLE
7
Standard
9
$LUNITS
70
2
9
$LUPREC
70
4
9
$EXTNAMES
290
1
9
$INSUNITS
70
4
9
$LTSCALE
40
1
9
$LWDISPLAY
290
1
9
$PDMODE
70
0
9
$PDSIZE
40
0
9
$PLINEGEN
70
0
0
ENDSEC
0
SECTION
2
CLASSES
0
CLASS
1
RASTERVARIABLES
2
AcDbRasterVariables
3
ISM
90
0
280
0
281
0
0
ENDSEC
0
SECTION
2
TABLES
0
TABLE
2
VPORT
5
203
100
AcDbSymbolTable
0
VPORT
5
1
100
AcDbSymbolTableRecord
100
AcDbViewportTableRecord
2
*Active
70
0
10
0
20
0
11
1
21
1
12
-1
22
1
13
0
23
0
14
0.5
24
0.5
15
10
25
10
16
0
26
0
36
1
17
0
27
0
37
0
0
ENDTAB
0
TABLE
2
LTYPE
5
204
100
AcDbSymbolTable
0
LTYPE
5
14
100
AcDbSymbolTableRecord
100
AcDbLinetypeTableRecord
70
0
2
ByBlock
3

72
65
73
0
40
0
0
LTYPE
5
15
100
AcDbSymbolTableRecord
100
AcDbLinetypeTableRecord
70
0
2
ByLayer
3

72
65
73
0
40
0
0
LTYPE
5
16
100
AcDbSymbolTableRecord
100
AcDbLinetypeTableRecord
70
0
2
Continuous
3
Solid line
72
65
73
0
40
0
0
LTYPE
5
6E
100
AcDbSymbolTableRecord
100
AcDbLinetypeTableRecord
70
0
2
CENTER
3
____ _ ____ _ ____ _ ____
72
65
73
4
40
47.5
49
22
74
0
49
-8.5
74
0
49
8.5
74
0
49
-8.5
74
0
0
LTYPE
5
6F
100
AcDbSymbolTableRecord
100
AcDbLinetypeTableRecord
70
0
2
DASHED
3
__ __ __ __ __ __ __ __ __
72
65
73
2
40
25.72
49
12.86
74
0
49
-12.86
74
0
0
ENDTAB
0
TABLE
2
LAYER
5
205
100
AcDbSymbolTable
0
LAYER
5
10
100
AcDbSymbolTableRecord
100
AcDbLayerTableRecord
2
0
70
0
62
7
6
Continuous
290
1
370
-3
390
0
0
LAYER
5
71
100
AcDbSymbolTableRecord
100
AcDbLayerTableRecord
2
80
70
0
62
-6
6
Continuous
290
1
370
-3
390
0
0
LAYER
5
73
100
AcDbSymbolTableRecord
100
AcDbLayerTableRecord
2
81
70
0
62
-3
6
Continuous
290
1
370
-3
390
0
0
LAYER
5
75
100
AcDbSymbolTableRecord
100
AcDbLayerTableRecord
2
1
70
0
62
4
6
Continuous
290
1
370
-3
390
0
0
LAYER
5
91
100
AcDbSymbolTableRecord
100
AcDbLayerTableRecord
2
4
70
0
62
-2
6
CENTER
290
1
370
-3
390
0
0
LAYER
5
AA
100
AcDbSymbolTableRecord
100
AcDbLayerTableRecord
2
2
70
0
62
7
6
Continuous
290
1
370
-3
390
0
0
LAYER
5
118
100
AcDbSymbolTableRecord
100
AcDbLayerTableRecord
2
Defpoints
70
0
62
7
6
Continuous
290
0
370
-3
390
0
0
LAYER
5
1ef
100
AcDbSymbolTableRecord
100
AcDbLayerTableRecord
2
SK1
70
0
62
4
6
Continuous
290
1
370
-3
390
0
0
LAYER
5
1f0
100
AcDbSymbolTableRecord
100
AcDbLayerTableRecord
2
SK4
70
0
62
2
6
CENTER
290
1
370
-3
390
0
0
LAYER
5
1f1
100
AcDbSymbolTableRecord
100
AcDbLayerTableRecord
2
SK2
70
0
62
7
6
Continuous
290
1
370
-3
390
0
0
LAYER
5
1f2
100
AcDbSymbolTableRecord
100
AcDbLayerTableRecord
2
SK6
70
0
62
5
6
Continuous
290
1
370
-3
390
0
0
ENDTAB
0
TABLE
2
STYLE
5
206
100
AcDbSymbolTable
0
STYLE
5
11
100
AcDbSymbolTableRecord
100
AcDbTextStyleTableRecord
2
Standard
3
txt
70
0
71
0
40
0
41
1
42
0
50
0
0
STYLE
5
FD
100
AcDbSymbolTableRecord
100
AcDbTextStyleTableRecord
2
iso_b_vert
3
simplex.shx
70
0
71
0
40
0
41
1
42
0
50
0
0
STYLE
5
FE
100
AcDbSymbolTableRecord
100
AcDbTextStyleTableRecord
2
DWGDirectTextStyle
3
simplex
70
0
71
0
40
0
41
1
42
0
50
0
0
ENDTAB
0
TABLE
2
DIMSTYLE
5
207
100
AcDbSymbolTable
100
AcDbDimStyleTable
0
DIMSTYLE
105
27
100
AcDbSymbolTableRecord
100
AcDbDimStyleTableRecord
2
Standard
70
0
3
<>
41
0.18
42
0.0625
44
0.18
140
0.18
147
0.09
73
0
74
0
77
1
271
2
275
0
278
52
280
0
340
11
0
ENDTAB
0
TABLE
2
VIEW
5
208
100
AcDbSymbolTable
0
ENDTAB
0
TABLE
2
UCS
5
209
100
AcDbSymbolTable
0
ENDTAB
0
TABLE
2
APPID
5
20a
100
AcDbSymbolTable
0
APPID
5
12
100
AcDbSymbolTableRecord
100
AcDbRegAppTableRecord
2
ACAD
70
0
0
APPID
5
114
100
AcDbSymbolTableRecord
100
AcDbRegAppTableRecord
2
ACAD_DSTYLE_DIMBREAK
70
0
0
APPID
5
1AE
100
AcDbSymbolTableRecord
100
AcDbRegAppTableRecord
2
ACAD_DSTYLE_DIM_LINETYPE
70
0
0
APPID
5
1AF
100
AcDbSymbolTableRecord
100
AcDbRegAppTableRecord
2
ACAD_DSTYLE_DIM_EXT1_LINETYPE
70
0
0
APPID
5
1B0
100
AcDbSymbolTableRecord
100
AcDbRegAppTableRecord
2
ACAD_DSTYLE_DIM_EXT2_LINETYPE
70
0
0
APPID
5
1EB
100
AcDbSymbolTableRecord
100
AcDbRegAppTableRecord
2
ACAD_MLEADERVER
70
0
0
ENDTAB
0
TABLE
2
BLOCK_RECORD
5
20b
100
AcDbSymbolTable
0
BLOCK_RECORD
5
1F
100
AcDbSymbolTableRecord
100
AcDbBlockTableRecord
2
*Model_Space
340
0
70
0
0
BLOCK_RECORD
5
1B
100
AcDbSymbolTableRecord
100
AcDbBlockTableRecord
2
*Paper_Space
340
0
70
0
0
BLOCK_RECORD
5
23
100
AcDbSymbolTableRecord
100
AcDbBlockTableRecord
2
*Paper_Space0
340
0
70
0
0
BLOCK_RECORD
5
119
100
AcDbSymbolTableRecord
100
AcDbBlockTableRecord
2
*D1
340
0
70
0
0
BLOCK_RECORD
5
125
100
AcDbSymbolTableRecord
100
AcDbBlockTableRecord
2
_U0
340
0
70
0
0
BLOCK_RECORD
5
131
100
AcDbSymbolTableRecord
100
AcDbBlockTableRecord
2
*D3
340
0
70
0
0
BLOCK_RECORD
5
13D
100
AcDbSymbolTableRecord
100
AcDbBlockTableRecord
2
_U1
340
0
70
0
0
BLOCK_RECORD
5
149
100
AcDbSymbolTableRecord
100
AcDbBlockTableRecord
2
*D5
340
0
70
0
0
BLOCK_RECORD
5
155
100
AcDbSymbolTableRecord
100
AcDbBlockTableRecord
2
_U2
340
0
70
0
0
BLOCK_RECORD
5
161
100
AcDbSymbolTableRecord
100
AcDbBlockTableRecord
2
*D7
340
0
70
0
0
BLOCK_RECORD
5
16F
100
AcDbSymbolTableRecord
100
AcDbBlockTableRecord
2
_U3
340
0
70
0
0
BLOCK_RECORD
5
17B
100
AcDbSymbolTableRecord
100
AcDbBlockTableRecord
2
*D9
340
0
70
0
0
BLOCK_RECORD
5
187
100
AcDbSymbolTableRecord
100
AcDbBlockTableRecord
2
_U4
340
0
70
0
0
ENDTAB
0
ENDSEC
0
SECTION
2
BLOCKS
0
BLOCK
5
20
100
AcDbEntity
8
0
100
AcDbBlockBegin
2
*Model_Space
70
0
10
0
20
0
30
0
3
*Model_Space
0
ENDBLK
5
21
100
AcDbEntity
8
0
100
AcDbBlockEnd
0
BLOCK
5
1C
100
AcDbEntity
8
0
100
AcDbBlockBegin
2
*Paper_Space
70
0
10
0
20
0
30
0
3
*Paper_Space
0
ENDBLK
5
1D
100
AcDbEntity
8
0
100
AcDbBlockEnd
0
BLOCK
5
24
100
AcDbEntity
8
0
100
AcDbBlockBegin
2
*Paper_Space0
70
0
10
0
20
0
30
0
3
*Paper_Space0
0
ENDBLK
5
25
100
AcDbEntity
8
0
100
AcDbBlockEnd
0
BLOCK
5
11A
100
AcDbEntity
8
0
100
AcDbBlockBegin
2
*D1
70
1
10
0
20
0
30
0
3
*D1
0
LINE
5
11C
100
AcDbEntity
8
0
62
256
6
ByLayer
370
-2
48
1
60
0
100
AcDbLine
10
0
20
-1.5875
30
0
11
0
21
-16.513398
31
0
39
0
210
0
220
0
230
1
0
LINE
5
11D
100
AcDbEntity
8
0
62
256
6
ByLayer
370
-2
48
1
60
0
100
AcDbLine
10
61.4
20
-5.8875
30
0
11
61.4
21
-16.513398
31
0
39
0
210
0
220
0
230
1
0
LINE
5
11E
100
AcDbEntity
8
0
62
256
6
ByLayer
370
-2
48
1
60
0
100
AcDbLine
10
3.5
20
-14.513398
30
0
11
57.9
21
-14.513398
31
0
39
0
210
0
220
0
230
1
0
SOLID
5
11F
100
AcDbEntity
8
0
62
256
6
ByLayer
370
-1
48
1
60
0
100
AcDbTrace
10
3.5
20
-13.930065
30
0
11
3.5
21
-15.096732
31
0
12
0
22
-14.513398
32
0
13
0
23
-14.513398
33
0
39
0
210
0
220
0
230
1
0
SOLID
5
120
100
AcDbEntity
8
0
62
256
6
ByLayer
370
-1
48
1
60
0
100
AcDbTrace
10
57.9
20
-15.096732
30
0
11
57.9
21
-13.930065
31
0
12
61.4
22
-14.513398
32
0
13
61.4
23
-14.513398
33
0
39
0
210
0
220
0
230
1
0
MTEXT
5
121
100
AcDbEntity
8
0
62
256
6
ByLayer
370
18
48
1
60
0
100
AcDbMText
10
30.7
20
-7.513398
30
0
210
0
220
0
230
1
1
\A1;61.40
40
3.5
41
0
44
1
50
0
71
5
72
5
7
iso_b_vert
0
POINT
5
122
100
AcDbEntity
8
Defpoints
62
0
6
ByLayer
370
-1
48
1
60
0
100
AcDbPoint
10
0
20
0
30
0
39
0
210
0
220
0
230
1
50
360
0
POINT
5
123
100
AcDbEntity
8
Defpoints
62
0
6
ByLayer
370
-1
48
1
60
0
100
AcDbPoint
10
61.4
20
-4.3
30
0
39
0
210
0
220
0
230
1
50
360
0
POINT
5
124
100
AcDbEntity
8
Defpoints
62
0
6
ByLayer
370
-1
48
1
60
0
100
AcDbPoint
10
61.4
20
-14.513398
30
0
39
0
210
0
220
0
230
1
50
360
0
ENDBLK
5
11B
100
AcDbEntity
8
0
100
AcDbBlockEnd
0
BLOCK
5
12C
100
AcDbEntity
8
0
100
AcDbBlockBegin
2
_U0
70
0
10
0
20
0
30
0
3
_U0
0
MTEXT
5
126
100
AcDbEntity
8
SK2
62
256
6
ByLayer
370
13
48
1
60
0
100
AcDbMText
10
25.815868
20
-13.480765
30
0
210
0
220
0
230
1
1
\W0.6977;61,40
40
3.5
41
0
44
1.084337
50
0
71
7
72
5
7
iso_b_vert
0
LINE
5
127
100
AcDbEntity
8
SK2
62
256
6
ByLayer
370
13
48
1
60
0
100
AcDbLine
10
0
20
-1.5875
30
0
11
0
21
-16.513398
31
0
39
0
210
0
220
0
230
1
0
LINE
5
128
100
AcDbEntity
8
SK2
62
256
6
ByLayer
370
13
48
1
60
0
100
AcDbLine
10
61.4
20
-5.8875
30
0
11
61.4
21
-16.513398
31
0
39
0
210
0
220
0
230
1
0
LINE
5
129
100
AcDbEntity
8
SK2
62
256
6
ByLayer
370
13
48
1
60
0
100
AcDbLine
10
0
20
-14.513398
30
0
11
61.4
21
-14.513398
31
0
39
0
210
0
220
0
230
1
0
SOLID
5
12A
100
AcDbEntity
8
SK2
62
256
6
ByLayer
370
18
48
1
60
0
100
AcDbTrace
10
0
20
-14.513398
30
0
11
3.499998
21
-14.052615
31
0
12
3.500002
22
-14.974182
32
0
13
3.500002
23
-14.974182
33
0
39
0
210
0
220
0
230
1
0
SOLID
5
12B
100
AcDbEntity
8
SK2
62
256
6
ByLayer
370
18
48
1
60
0
100
AcDbTrace
10
61.4
20
-14.513398
30
0
11
57.900002
21
-14.974182
31
0
12
57.899998
22
-14.052615
32
0
13
57.899998
23
-14.052615
33
0
39
0
210
0
220
0
230
1
0
ENDBLK
5
12D
100
AcDbEntity
8
0
100
AcDbBlockEnd
0
BLOCK
5
132
100
AcDbEntity
8
0
100
AcDbBlockBegin
2
*D3
70
1
10
0
20
0
30
0
3
*D3
0
LINE
5
134
100
AcDbEntity
8
0
62
256
6
ByLayer
370
-2
48
1
60
0
100
AcDbLine
10
-40
20
-6.5875
30
0
11
-40
21
-35.692985
31
0
39
0
210
0
220
0
230
1
0
LINE
5
135
100
AcDbEntity
8
0
62
256
6
ByLayer
370
-2
48
1
60
0
100
AcDbLine
10
63
20
-1.5875
30
0
11
63
21
-35.692985
31
0
39
0
210
0
220
0
230
1
0
LINE
5
136
100
AcDbEntity
8
0
62
256
6
ByLayer
370
-2
48
1
60
0
100
AcDbLine
10
-36.5
20
-33.692985
30
0
11
59.5
21
-33.692985
31
0
39
0
210
0
220
0
230
1
0
SOLID
5
137
100
AcDbEntity
8
0
62
256
6
ByLayer
370
-1
48
1
60
0
100
AcDbTrace
10
-36.5
20
-33.109652
30
0
11
-36.5
21
-34.276319
31
0
12
-40
22
-33.692985
32
0
13
-40
23
-33.692985
33
0
39
0
210
0
220
0
230
1
0
SOLID
5
138
100
AcDbEntity
8
0
62
256
6
ByLayer
370
-1
48
1
60
0
100
AcDbTrace
10
59.5
20
-34.276319
30
0
11
59.5
21
-33.109652
31
0
12
63
22
-33.692985
32
0
13
63
23
-33.692985
33
0
39
0
210
0
220
0
230
1
0
MTEXT
5
139
100
AcDbEntity
8
0
62
256
6
ByLayer
370
18
48
1
60
0
100
AcDbMText
10
11.5
20
-26.692985
30
0
210
0
220
0
230
1
1
\A1;103.00
40
3.5
41
0
44
1
50
0
71
5
72
5
7
iso_b_vert
0
POINT
5
13A
100
AcDbEntity
8
Defpoints
62
0
6
ByLayer
370
-1
48
1
60
0
100
AcDbPoint
10
-40
20
-5
30
0
39
0
210
0
220
0
230
1
50
360
0
POINT
5
13B
100
AcDbEntity
8
Defpoints
62
0
6
ByLayer
370
-1
48
1
60
0
100
AcDbPoint
10
63
20
0
30
0
39
0
210
0
220
0
230
1
50
360
0
POINT
5
13C
100
AcDbEntity
8
Defpoints
62
0
6
ByLayer
370
-1
48
1
60
0
100
AcDbPoint
10
63
20
-33.692985
30
0
39
0
210
0
220
0
230
1
50
360
0
ENDBLK
5
133
100
AcDbEntity
8
0
100
AcDbBlockEnd
0
BLOCK
5
144
100
AcDbEntity
8
0
100
AcDbBlockBegin
2
_U1
70
0
10
0
20
0
30
0
3
_U1
0
MTEXT
5
13E
100
AcDbEntity
8
SK2
62
256
6
ByLayer
370
13
48
1
60
0
100
AcDbMText
10
5.492401
20
-32.660352
30
0
210
0
220
0
230
1
1
\W0.6930;103,00
40
3.5
41
0
44
1.084337
50
0
71
7
72
5
7
iso_b_vert
0
LINE
5
13F
100
AcDbEntity
8
SK2
62
256
6
ByLayer
370
13
48
1
60
0
100
AcDbLine
10
-40
20
-6.5875
30
0
11
-40
21
-35.692985
31
0
39
0
210
0
220
0
230
1
0
LINE
5
140
100
AcDbEntity
8
SK2
62
256
6
ByLayer
370
13
48
1
60
0
100
AcDbLine
10
63
20
-1.5875
30
0
11
63
21
-35.692985
31
0
39
0
210
0
220
0
230
1
0
LINE
5
141
100
AcDbEntity
8
SK2
62
256
6
ByLayer
370
13
48
1
60
0
100
AcDbLine
10
-40
20
-33.692985
30
0
11
63
21
-33.692985
31
0
39
0
210
0
220
0
230
1
0
SOLID
5
142
100
AcDbEntity
8
SK2
62
256
6
ByLayer
370
18
48
1
60
0
100
AcDbTrace
10
-40
20
-33.692985
30
0
11
-36.500002
21
-33.232202
31
0
12
-36.499998
22
-34.153769
32
0
13
-36.499998
23
-34.153769
33
0
39
0
210
0
220
0
230
1
0
SOLID
5
143
100
AcDbEntity
8
SK2
62
256
6
ByLayer
370
18
48
1
60
0
100
AcDbTrace
10
63
20
-33.692985
30
0
11
59.500002
21
-34.153769
31
0
12
59.499998
22
-33.232202
32
0
13
59.499998
23
-33.232202
33
0
39
0
210
0
220
0
230
1
0
ENDBLK
5
145
100
AcDbEntity
8
0
100
AcDbBlockEnd
0
BLOCK
5
14A
100
AcDbEntity
8
0
100
AcDbBlockBegin
2
*D5
70
1
10
0
20
0
30
0
3
*D5
0
LINE
5
14C
100
AcDbEntity
8
0
62
256
6
ByLayer
370
-2
48
1
60
0
100
AcDbLine
10
16.7655
20
5.8875
30
0
11
16.7655
21
17.909119
31
0
39
0
210
0
220
0
230
1
0
LINE
5
14D
100
AcDbEntity
8
0
62
256
6
ByLayer
370
-2
48
1
60
0
100
AcDbLine
10
63
20
1.5875
30
0
11
63
21
17.909119
31
0
39
0
210
0
220
0
230
1
0
LINE
5
14E
100
AcDbEntity
8
0
62
256
6
ByLayer
370
-2
48
1
60
0
100
AcDbLine
10
20.2655
20
15.909119
30
0
11
59.5
21
15.909119
31
0
39
0
210
0
220
0
230
1
0
SOLID
5
14F
100
AcDbEntity
8
0
62
256
6
ByLayer
370
-1
48
1
60
0
100
AcDbTrace
10
20.2655
20
16.492453
30
0
11
20.2655
21
15.325786
31
0
12
16.7655
22
15.909119
32
0
13
16.7655
23
15.909119
33
0
39
0
210
0
220
0
230
1
0
SOLID
5
150
100
AcDbEntity
8
0
62
256
6
ByLayer
370
-1
48
1
60
0
100
AcDbTrace
10
59.5
20
15.325786
30
0
11
59.5
21
16.492453
31
0
12
63
22
15.909119
32
0
13
63
23
15.909119
33
0
39
0
210
0
220
0
230
1
0
MTEXT
5
151
100
AcDbEntity
8
0
62
256
6
ByLayer
370
18
48
1
60
0
100
AcDbMText
10
39.88275
20
22.909119
30
0
210
0
220
0
230
1
1
\A1;46.23
40
3.5
41
0
44
1
50
0
71
5
72
5
7
iso_b_vert
0
POINT
5
152
100
AcDbEntity
8
Defpoints
62
0
6
ByLayer
370
-1
48
1
60
0
100
AcDbPoint
10
16.7655
20
4.3
30
0
39
0
210
0
220
0
230
1
50
360
0
POINT
5
153
100
AcDbEntity
8
Defpoints
62
0
6
ByLayer
370
-1
48
1
60
0
100
AcDbPoint
10
63
20
0
30
0
39
0
210
0
220
0
230
1
50
360
0
POINT
5
154
100
AcDbEntity
8
Defpoints
62
0
6
ByLayer
370
-1
48
1
60
0
100
AcDbPoint
10
63
20
15.909119
30
0
39
0
210
0
220
0
230
1
50
360
0
ENDBLK
5
14B
100
AcDbEntity
8
0
100
AcDbBlockEnd
0
BLOCK
5
15C
100
AcDbEntity
8
0
100
AcDbBlockBegin
2
_U2
70
0
10
0
20
0
30
0
3
_U2
0
MTEXT
5
156
100
AcDbEntity
8
SK2
62
256
6
ByLayer
370
13
48
1
60
0
100
AcDbMText
10
34.561185
20
16.941753
30
0
210
0
220
0
230
1
1
\W0.7581;46,23
40
3.5
41
0
44
1.084337
50
0
71
7
72
5
7
iso_b_vert
0
LINE
5
157
100
AcDbEntity
8
SK2
62
256
6
ByLayer
370
13
48
1
60
0
100
AcDbLine
10
16.7655
20
5.8875
30
0
11
16.7655
21
17.909119
31
0
39
0
210
0
220
0
230
1
0
LINE
5
158
100
AcDbEntity
8
SK2
62
256
6
ByLayer
370
13
48
1
60
0
100
AcDbLine
10
63
20
1.5875
30
0
11
63
21
17.909119
31
0
39
0
210
0
220
0
230
1
0
LINE
5
159
100
AcDbEntity
8
SK2
62
256
6
ByLayer
370
13
48
1
60
0
100
AcDbLine
10
16.7655
20
15.909119
30
0
11
63
21
15.909119
31
0
39
0
210
0
220
0
230
1
0
SOLID
5
15A
100
AcDbEntity
8
SK2
62
256
6
ByLayer
370
18
48
1
60
0
100
AcDbTrace
10
16.7655
20
15.909119
30
0
11
20.265498
21
16.369903
31
0
12
20.265502
22
15.448335
32
0
13
20.265502
23
15.448335
33
0
39
0
210
0
220
0
230
1
0
SOLID
5
15B
100
AcDbEntity
8
SK2
62
256
6
ByLayer
370
18
48
1
60
0
100
AcDbTrace
10
63
20
15.909119
30
0
11
59.500002
21
15.448335
31
0
12
59.499998
22
16.369903
32
0
13
59.499998
23
16.369903
33
0
39
0
210
0
220
0
230
1
0
ENDBLK
5
15D
100
AcDbEntity
8
0
100
AcDbBlockEnd
0
BLOCK
5
162
100
AcDbEntity
8
0
100
AcDbBlockBegin
2
*D7
70
1
10
0
20
0
30
0
3
*D7
0
LINE
5
164
100
AcDbEntity
8
0
62
256
6
ByLayer
370
-2
48
1
60
0
100
AcDbLine
10
63
20
-1.5875
30
0
11
63
21
-19.102503
31
0
39
0
210
0
220
0
230
1
0
LINE
5
165
100
AcDbEntity
8
0
62
256
6
ByLayer
370
-2
48
1
60
0
100
AcDbLine
10
61.4
20
-5.8875
30
0
11
61.4
21
-19.102503
31
0
39
0
210
0
220
0
230
1
0
LINE
5
166
100
AcDbEntity
8
0
62
256
6
ByLayer
370
-2
48
1
60
0
100
AcDbLine
10
63
20
-17.102503
30
0
11
90.666667
21
-17.102503
31
0
39
0
210
0
220
0
230
1
0
LINE
5
167
100
AcDbEntity
8
0
62
256
6
ByLayer
370
-2
48
1
60
0
100
AcDbLine
10
66.5
20
-17.102503
30
0
11
70
21
-17.102503
31
0
39
0
210
0
220
0
230
1
0
LINE
5
168
100
AcDbEntity
8
0
62
256
6
ByLayer
370
-2
48
1
60
0
100
AcDbLine
10
57.9
20
-17.102503
30
0
11
54.4
21
-17.102503
31
0
39
0
210
0
220
0
230
1
0
SOLID
5
169
100
AcDbEntity
8
0
62
256
6
ByLayer
370
-1
48
1
60
0
100
AcDbTrace
10
66.5
20
-16.51917
30
0
11
66.5
21
-17.685837
31
0
12
63
22
-17.102503
32
0
13
63
23
-17.102503
33
0
39
0
210
0
220
0
230
1
0
SOLID
5
16A
100
AcDbEntity
8
0
62
256
6
ByLayer
370
-1
48
1
60
0
100
AcDbTrace
10
57.9
20
-17.685837
30
0
11
57.9
21
-16.51917
31
0
12
61.4
22
-17.102503
32
0
13
61.4
23
-17.102503
33
0
39
0
210
0
220
0
230
1
0
MTEXT
5
16B
100
AcDbEntity
8
0
62
256
6
ByLayer
370
18
48
1
60
0
100
AcDbMText
10
80.333333
20
-10.102503
30
0
210
0
220
0
230
1
1
\A1;1.60
40
3.5
41
0
44
1
50
0
71
5
72
5
7
iso_b_vert
0
POINT
5
16C
100
AcDbEntity
8
Defpoints
62
0
6
ByLayer
370
-1
48
1
60
0
100
AcDbPoint
10
63
20
0
30
0
39
0
210
0
220
0
230
1
50
360
0
POINT
5
16D
100
AcDbEntity
8
Defpoints
62
0
6
ByLayer
370
-1
48
1
60
0
100
AcDbPoint
10
61.4
20
-4.3
30
0
39
0
210
0
220
0
230
1
50
360
0
POINT
5
16E
100
AcDbEntity
8
Defpoints
62
0
6
ByLayer
370
-1
48
1
60
0
100
AcDbPoint
10
61.4
20
-17.102503
30
0
39
0
210
0
220
0
230
1
50
360
0
ENDBLK
5
163
100
AcDbEntity
8
0
100
AcDbBlockEnd
0
BLOCK
5
176
100
AcDbEntity
8
0
100
AcDbBlockBegin
2
_U3
70
0
10
0
20
0
30
0
3
_U3
0
MTEXT
5
170
100
AcDbEntity
8
SK2
62
256
6
ByLayer
370
13
48
1
60
0
100
AcDbMText
10
69.589293
20
-16.06987
30
0
210
0
220
0
230
1
1
\W0.6367;1,60
40
3.5
41
0
44
1.084337
50
0
71
7
72
5
7
iso_b_vert
0
LINE
5
171
100
AcDbEntity
8
SK2
62
256
6
ByLayer
370
13
48
1
60
0
100
AcDbLine
10
63
20
-1.5875
30
0
11
63
21
-19.102503
31
0
39
0
210
0
220
0
230
1
0
LINE
5
172
100
AcDbEntity
8
SK2
62
256
6
ByLayer
370
13
48
1
60
0
100
AcDbLine
10
61.4
20
-5.8875
30
0
11
61.4
21
-19.102503
31
0
39
0
210
0
220
0
230
1
0
LINE
5
173
100
AcDbEntity
8
SK2
62
256
6
ByLayer
370
13
48
1
60
0
100
AcDbLine
10
52.65
20
-17.102503
30
0
11
76.559058
21
-17.102503
31
0
39
0
210
0
220
0
230
1
0
SOLID
5
174
100
AcDbEntity
8
SK2
62
256
6
ByLayer
370
18
48
1
60
0
100
AcDbTrace
10
63
20
-17.102503
30
0
11
66.499998
21
-16.641719
31
0
12
66.500002
22
-17.563287
32
0
13
66.500002
23
-17.563287
33
0
39
0
210
0
220
0
230
1
0
SOLID
5
175
100
AcDbEntity
8
SK2
62
256
6
ByLayer
370
18
48
1
60
0
100
AcDbTrace
10
61.4
20
-17.102503
30
0
11
57.900002
21
-17.563287
31
0
12
57.899998
22
-16.641719
32
0
13
57.899998
23
-16.641719
33
0
39
0
210
0
220
0
230
1
0
ENDBLK
5
177
100
AcDbEntity
8
0
100
AcDbBlockEnd
0
BLOCK
5
17C
100
AcDbEntity
8
0
100
AcDbBlockBegin
2
*D9
70
1
10
0
20
0
30
0
3
*D9
0
LINE
5
17E
100
AcDbEntity
8
0
62
256
6
ByLayer
370
-2
48
1
60
0
100
AcDbLine
10
-40
20
-6.5875
30
0
11
-40
21
-25.343428
31
0
39
0
210
0
220
0
230
1
0
LINE
5
17F
100
AcDbEntity
8
0
62
256
6
ByLayer
370
-2
48
1
60
0
100
AcDbLine
10
61.4
20
-5.8875
30
0
11
61.4
21
-25.343428
31
0
39
0
210
0
220
0
230
1
0
LINE
5
180
100
AcDbEntity
8
0
62
256
6
ByLayer
370
-2
48
1
60
0
100
AcDbLine
10
-36.5
20
-23.343428
30
0
11
57.9
21
-23.343428
31
0
39
0
210
0
220
0
230
1
0
SOLID
5
181
100
AcDbEntity
8
0
62
256
6
ByLayer
370
-1
48
1
60
0
100
AcDbTrace
10
-36.5
20
-22.760095
30
0
11
-36.5
21
-23.926762
31
0
12
-40
22
-23.343428
32
0
13
-40
23
-23.343428
33
0
39
0
210
0
220
0
230
1
0
SOLID
5
182
100
AcDbEntity
8
0
62
256
6
ByLayer
370
-1
48
1
60
0
100
AcDbTrace
10
57.9
20
-23.926762
30
0
11
57.9
21
-22.760095
31
0
12
61.4
22
-23.343428
32
0
13
61.4
23
-23.343428
33
0
39
0
210
0
220
0
230
1
0
MTEXT
5
183
100
AcDbEntity
8
0
62
256
6
ByLayer
370
18
48
1
60
0
100
AcDbMText
10
10.7
20
-16.343428
30
0
210
0
220
0
230
1
1
\A1;101.40
40
3.5
41
0
44
1
50
0
71
5
72
5
7
iso_b_vert
0
POINT
5
184
100
AcDbEntity
8
Defpoints
62
0
6
ByLayer
370
-1
48
1
60
0
100
AcDbPoint
10
-40
20
-5
30
0
39
0
210
0
220
0
230
1
50
360
0
POINT
5
185
100
AcDbEntity
8
Defpoints
62
0
6
ByLayer
370
-1
48
1
60
0
100
AcDbPoint
10
61.4
20
-4.3
30
0
39
0
210
0
220
0
230
1
50
360
0
POINT
5
186
100
AcDbEntity
8
Defpoints
62
0
6
ByLayer
370
-1
48
1
60
0
100
AcDbPoint
10
61.4
20
-23.343428
30
0
39
0
210
0
220
0
230
1
50
360
0
ENDBLK
5
17D
100
AcDbEntity
8
0
100
AcDbBlockEnd
0
BLOCK
5
18E
100
AcDbEntity
8
0
100
AcDbBlockBegin
2
_U4
70
0
10
0
20
0
30
0
3
_U4
0
MTEXT
5
188
100
AcDbEntity
8
SK2
62
256
6
ByLayer
370
13
48
1
60
0
100
AcDbMText
10
4.945568
20
-22.310795
30
0
210
0
220
0
230
1
1
\W0.6654;101,40
40
3.5
41
0
44
1.084337
50
0
71
7
72
5
7
iso_b_vert
0
LINE
5
189
100
AcDbEntity
8
SK2
62
256
6
ByLayer
370
13
48
1
60
0
100
AcDbLine
10
-40
20
-6.5875
30
0
11
-40
21
-25.343428
31
0
39
0
210
0
220
0
230
1
0
LINE
5
18A
100
AcDbEntity
8
SK2
62
256
6
ByLayer
370
13
48
1
60
0
100
AcDbLine
10
61.4
20
-5.8875
30
0
11
61.4
21
-25.343428
31
0
39
0
210
0
220
0
230
1
0
LINE
5
18B
100
AcDbEntity
8
SK2
62
256
6
ByLayer
370
13
48
1
60
0
100
AcDbLine
10
-40
20
-23.343428
30
0
11
61.4
21
-23.343428
31
0
39
0
210
0
220
0
230
1
0
SOLID
5
18C
100
AcDbEntity
8
SK2
62
256
6
ByLayer
370
18
48
1
60
0
100
AcDbTrace
10
-40
20
-23.343428
30
0
11
-36.500002
21
-22.882645
31
0
12
-36.499998
22
-23.804212
32
0
13
-36.499998
23
-23.804212
33
0
39
0
210
0
220
0
230
1
0
SOLID
5
18D
100
AcDbEntity
8
SK2
62
256
6
ByLayer
370
18
48
1
60
0
100
AcDbTrace
10
61.4
20
-23.343428
30
0
11
57.900002
21
-23.804212
31
0
12
57.899998
22
-22.882645
32
0
13
57.899998
23
-22.882645
33
0
39
0
210
0
220
0
230
1
0
ENDBLK
5
18F
100
AcDbEntity
8
0
100
AcDbBlockEnd
0
ENDSEC
0
SECTION
2
ENTITIES
0
ARC
5
B3
100
AcDbEntity
8
1
62
256
6
ByLayer
370
18
48
1
60
0
100
AcDbCircle
39
0
10
1.369242
20
-5.027754
30
0
40
0.799999999999999
210
0
220
0
230
1
100
AcDbArc
50
89.931245
51
148.845586
0
ARC
5
B4
100
AcDbEntity
8
1
62
256
6
ByLayer
370
18
48
1
60
0
100
AcDbCircle
39
0
10
1.369242
20
5.027754
30
0
40
0.799999999999999
210
0
220
0
230
1
100
AcDbArc
50
211.154414
51
270.068755
0
ARC
5
B5
100
AcDbEntity
8
1
62
256
6
ByLayer
370
18
48
1
60
0
100
AcDbCircle
39
0
10
0
20
-4.2
30
0
40
0.8
210
0
220
0
230
1
100
AcDbArc
50
270
51
328.845586
0
ARC
5
B6
100
AcDbEntity
8
1
62
256
6
ByLayer
370
18
48
1
60
0
100
AcDbCircle
39
0
10
0
20
4.2
30
0
40
0.8
210
0
220
0
230
1
100
AcDbArc
50
31.154414
51
90
0
ELLIPSE
5
B7
100
AcDbEntity
8
1
62
256
6
ByLayer
370
18
48
1
60
0
100
AcDbEllipse
10
53.572563
20
1.647712
30
0
11
9.14397571695646
21
-0.596547346748328
31
0
210
0
220
0
230
1
40
0.058294
41
0.0206826746161326
42
0.310009721838955
0
ELLIPSE
5
B8
100
AcDbEntity
8
1
62
256
6
ByLayer
370
13
48
1
60
0
100
AcDbEllipse
10
4.250288
20
-4.098186
30
0
11
0.00835727181684579
21
0.0996501681272007
31
0
210
0
220
0
230
1
40
0.4265
41
0.189726101158932
42
1.74177712567098
0
ELLIPSE
5
B9
100
AcDbEntity
8
1
62
256
6
ByLayer
370
18
48
1
60
0
100
AcDbEllipse
10
63.071817
20
-0.146312
30
0
11
0.107158240303352
21
-0.326150736979729
31
0
210
0
220
0
230
1
40
0.050974
41
-2.34746926660235
42
-2.14072981867349
0
ELLIPSE
5
BA
100
AcDbEntity
8
1
62
256
6
ByLayer
370
18
48
1
60
0
100
AcDbEllipse
10
63.00072
20
-0.001879
30
0
11
1.57486929293149
21
-4.30013654444695
31
0
210
0
220
0
230
1
40
0.073902
41
2.86213644627587
42
2.9272715532042
0
ELLIPSE
5
BB
100
AcDbEntity
8
1
62
256
6
ByLayer
370
18
48
1
60
0
100
AcDbEllipse
10
63.00072
20
0.001878
30
0
11
1.57486905696276
21
4.30013586181845
31
0
210
0
220
0
230
1
40
0.073902
41
-2.92727153637929
42
-2.86213642415541
0
ELLIPSE
5
BC
100
AcDbEntity
8
1
62
256
6
ByLayer
370
18
48
1
60
0
100
AcDbEllipse
10
62.456569
20
1.647712
30
0
11
0.292882377500801
21
-0.799707144768573
31
0
210
0
220
0
230
1
40
0.073902
41
0.722859021496069
42
1.39571268505247
0
ELLIPSE
5
BD
100
AcDbEntity
8
1
62
256
6
ByLayer
370
18
48
1
60
0
100
AcDbEllipse
10
62.456569
20
-1.647712
30
0
11
0.29288237734168
21
0.799707144397396
31
0
210
0
220
0
230
1
40
0.073902
41
-1.39571268535911
42
-0.722859021539661
0
ELLIPSE
5
BE
100
AcDbEntity
8
1
62
256
6
ByLayer
370
18
48
1
60
0
100
AcDbEllipse
10
63.071817
20
0.146312
30
0
11
0.107158240760482
21
0.326150738228031
31
0
210
0
220
0
230
1
40
0.050974
41
2.14072982092826
42
2.34746926838721
0
ELLIPSE
5
BF
100
AcDbEntity
8
1
62
256
6
ByLayer
370
18
48
1
60
0
100
AcDbEllipse
10
62.953098
20
-0.059155
30
0
11
0.0685673025913968
21
0.197677258994198
31
0
210
0
220
0
230
1
40
0.089621
41
-2.14968638257999
42
-1.09978876525448
0
ELLIPSE
5
C0
100
AcDbEntity
8
1
62
256
6
ByLayer
370
13
48
1
60
0
100
AcDbEllipse
10
4.184847
20
-4.107413
30
0
11
-0.0363779404299978
21
0.0931485128709607
31
0
210
0
220
0
230
1
40
0.456112
41
0.181100232644279
42
1.5442928762887
0
POINT
5
70
100
AcDbEntity
8
80
62
256
6
ByLayer
370
18
48
1
60
0
100
AcDbPoint
10
0
20
0
30
0
39
0
210
0
220
0
230
1
50
360
0
POINT
5
72
100
AcDbEntity
8
81
62
256
6
ByLayer
370
18
48
1
60
0
100
AcDbPoint
10
63
20
0
30
0
39
0
210
0
220
0
230
1
50
360
0
POINT
5
74
100
AcDbEntity
8
1
62
256
6
ByLayer
370
18
48
1
60
1
100
AcDbPoint
10
61.4
20
-4.3
30
0
39
0
210
0
220
0
230
1
50
360
0
POINT
5
76
100
AcDbEntity
8
1
62
256
6
ByLayer
370
18
48
1
60
1
100
AcDbPoint
10
-40
20
-5
30
0
39
0
210
0
220
0
230
1
50
360
0
POINT
5
77
100
AcDbEntity
8
1
62
256
6
ByLayer
370
18
48
1
60
1
100
AcDbPoint
10
16.7655
20
4.3
30
0
39
0
210
0
220
0
230
1
50
360
0
POINT
5
78
100
AcDbEntity
8
1
62
256
6
ByLayer
370
18
48
1
60
1
100
AcDbPoint
10
61.4
20
-4.3
30
0
39
0
210
0
220
0
230
1
50
360
0
POINT
5
79
100
AcDbEntity
8
1
62
256
6
ByLayer
370
18
48
1
60
1
100
AcDbPoint
10
-40
20
-5
30
0
39
0
210
0
220
0
230
1
50
360
0
POINT
5
7A
100
AcDbEntity
8
1
62
256
6
ByLayer
370
18
48
1
60
1
100
AcDbPoint
10
61.4
20
-4.3
30
0
39
0
210
0
220
0
230
1
50
360
0
SPLINE
5
C1
100
AcDbEntity
8
SK1
62
256
6
ByLayer
370
18
48
1
60
0
100
AcDbSpline
70
4
71
3
72
12
73
8
40
0
40
0
40
0
40
0
40
0.499999999999997
40
0.499999999999997
40
0.749999999999999
40
0.749999999999999
40
1
40
1
40
1
40
1
41
1
10
-39.35
20
2.50572856422005
30
0
41
1
10
-39.3264213677977
20
2.52386325585877
30
0
41
1
10
-39.3036992467059
20
2.54806340047409
30
0
41
1
10
-39.2756046028624
20
2.58965438418241
30
0
41
1
10
-39.2670500056163
20
2.60478363325245
30
0
41
1
10
-39.2542658313663
20
2.63558312889794
30
0
41
1
10
-39.25
20
2.65165439789806
30
0
41
1
10
-39.25
20
2.66526131161387
30
0
0
SPLINE
5
C2
100
AcDbEntity
8
SK1
62
256
6
ByLayer
370
18
48
1
60
0
100
AcDbSpline
70
4
71
3
72
12
73
8
40
0
40
0
40
0
40
0
40
0.249999999999999
40
0.249999999999999
40
0.499999999999998
40
0.499999999999998
40
1
40
1
40
1
40
1
41
1
10
-39.25
20
3.85886961639469
30
0
41
1
10
-39.25
20
3.86734115305984
30
0
41
1
10
-39.254233190705
20
3.87189013308222
30
0
41
1
10
-39.2670221927524
20
3.87483350363379
30
0
41
1
10
-39.2754822149466
20
3.87341621216825
30
0
41
1
10
-39.3037500831724
20
3.86368221587483
30
0
41
1
10
-39.3264281370761
20
3.85008949925839
30
0
41
1
10
-39.35
20
3.83196001397656
30
0
0
SPLINE
5
C3
100
AcDbEntity
8
SK1
62
256
6
ByLayer
370
18
48
1
60
0
100
AcDbSpline
70
4
71
3
72
8
73
4
40
0
40
0
40
0
40
0
40
1
40
1
40
1
40
1
41
1
10
-40
20
2.0033279599705
30
0
41
1
10
-39.7839825041701
20
2.17127078140612
30
0
41
1
10
-39.5672159460453
20
2.33866441195045
30
0
41
1
10
-39.35
20
2.50572856422008
30
0
0
SPLINE
5
C4
100
AcDbEntity
8
SK1
62
256
6
ByLayer
370
18
48
1
60
0
100
AcDbSpline
70
4
71
3
72
8
73
4
40
0
40
0
40
0
40
0
40
1
40
1
40
1
40
1
41
1
10
-39.35
20
3.83196001397653
30
0
41
1
10
-39.5672238350105
20
3.66488979418151
30
0
41
1
10
-39.7839917756392
20
3.49749502305812
30
0
41
1
10
-40
20
3.32955940972698
30
0
0
SPLINE
5
C5
100
AcDbEntity
8
1
62
256
6
ByLayer
370
13
48
1
60
0
100
AcDbSpline
70
4
71
3
72
10
73
6
40
0
40
0
40
0
40
0
40
0.5
40
0.5
40
1
40
1
40
1
40
1
41
1
10
4.01264392073224
20
-4.14704924683014
30
0
41
1
10
4.0227121249832
20
-4.12064879651439
30
0
41
1
10
4.03864571060362
20
-4.0956442010619
30
0
41
1
10
4.08201803166685
20
-4.05142057544919
30
0
41
1
10
4.10928674307428
20
-4.03243592689682
30
0
41
1
10
4.1414113782958
20
-4.01877596034683
30
0
0
SPLINE
5
C6
100
AcDbEntity
8
1
62
256
6
ByLayer
370
18
48
1
60
0
100
AcDbSpline
70
4
71
3
72
8
73
4
40
0
40
0
40
0
40
0
40
1
40
1
40
1
40
1
41
1
10
4.03542314792983
20
-4.16217073132134
30
0
41
1
10
4.02093890192944
20
-4.157801648847
30
0
41
1
10
4.01264084626163
20
-4.15265037276379
30
0
41
1
10
4.01264392073585
20
-4.1470492468211
30
0
0
SPLINE
5
C7
100
AcDbEntity
8
1
62
256
6
ByLayer
370
18
48
1
60
0
100
AcDbSpline
70
4
71
3
72
96
73
92
40
0
40
0
40
0
40
0
40
0.0293549250349156
40
0.0293549250349156
40
0.051261179113072
40
0.051261179113072
40
0.0731674331912283
40
0.0731674331912283
40
0.0950736872693847
40
0.0950736872693847
40
0.116979941347541
40
0.116979941347541
40
0.138886195425697
40
0.138886195425697
40
0.160792449503854
40
0.160792449503854
40
0.18269870358201
40
0.18269870358201
40
0.204604957660167
40
0.204604957660167
40
0.226511211738323
40
0.226511211738323
40
0.248417465816479
40
0.248417465816479
40
0.270323719894636
40
0.270323719894636
40
0.292229973972792
40
0.292229973972792
40
0.314136228050948
40
0.314136228050948
40
0.336042482129105
40
0.336042482129105
40
0.357948736207261
40
0.357948736207261
40
0.379854990285418
40
0.379854990285418
40
0.401761244363574
40
0.401761244363574
40
0.42366749844173
40
0.42366749844173
40
0.445573752519887
40
0.445573752519887
40
0.467480006598043
40
0.467480006598043
40
0.489386260676199
40
0.489386260676199
40
0.511292514754356
40
0.511292514754356
40
0.533198768832512
40
0.533198768832512
40
0.555105022910669
40
0.555105022910669
40
0.577011276988825
40
0.577011276988825
40
0.598917531066981
40
0.598917531066981
40
0.620823785145138
40
0.620823785145138
40
0.642730039223294
40
0.642730039223294
40
0.66463629330145
40
0.66463629330145
40
0.686542547379607
40
0.686542547379607
40
0.708448801457763
40
0.708448801457763
40
0.73035505553592
40
0.73035505553592
40
0.752261309614076
40
0.752261309614076
40
0.774167563692232
40
0.774167563692232
40
0.796073817770389
40
0.796073817770389
40
0.817980071848544
40
0.817980071848544
40
0.839886325926701
40
0.839886325926701
40
0.861792580004857
40
0.861792580004857
40
0.883698834083014
40
0.883698834083014
40
0.90560508816117
40
0.90560508816117
40
0.949417596317483
40
0.949417596317483
40
0.97132385039564
40
0.97132385039564
40
0.993230104473796
40
0.993230104473796
40
1
40
1
40
1
40
1
41
1
10
50.6438164763549
20
-2.28753357046247
30
0
41
1
10
50.2976290013202
20
-2.42443025044346
30
0
41
1
10
49.9514819171625
20
-2.55540831502674
30
0
41
1
10
49.3468392475245
20
-2.77209172232591
30
0
41
1
10
49.0884898531546
20
-2.86130414745222
30
0
41
1
10
48.5706104711289
20
-3.03235724086301
30
0
41
1
10
48.3112408415079
20
-3.11407639500095
30
0
41
1
10
47.7937050329336
20
-3.26831603763154
30
0
41
1
10
47.5353509655414
20
-3.34096635862738
30
0
41
1
10
47.0189424560888
20
-3.47814051784491
30
0
41
1
10
46.7606614455361
20
-3.54219155762203
30
0
41
1
10
46.2437918444476
20
-3.65992098229972
30
0
41
1
10
45.9851935215979
20
-3.71316280445089
30
0
41
1
10
45.4677247636984
20
-3.81086348813977
30
0
41
1
10
45.2086317389556
20
-3.85558860129228
30
0
41
1
10
44.6908289390814
20
-3.93350791700712
30
0
41
1
10
44.4321783921829
20
-3.96677236646093
30
0
41
1
10
43.9152760596633
20
-4.02206811753859
30
0
41
1
10
43.6570858125643
20
-4.04518115571366
30
0
41
1
10
43.1406959032408
20
-4.08064158491953
30
0
41
1
10
42.8822942777115
20
-4.0927828508982
30
0
41
1
10
42.3649191854999
20
-4.10491657068968
30
0
41
1
10
42.1058179704914
20
-4.10525990568948
30
0
41
1
10
41.5876994437645
20
-4.0967355401238
30
0
41
1
10
41.3291533655268
20
-4.08705259289982
30
0
41
1
10
40.8120897810708
20
-4.05599102972741
30
0
41
1
10
40.5536856206346
20
-4.0342367900432
30
0
41
1
10
40.0369523367169
20
-3.98171898759193
30
0
41
1
10
39.778804139048
20
-3.95057476474227
30
0
41
1
10
39.2620727196184
20
-3.87698105739946
30
0
41
1
10
39.0033492754748
20
-3.8345082149327
30
0
41
1
10
38.4850960383423
20
-3.73930954365844
30
0
41
1
10
38.2257401439528
20
-3.68746808393499
30
0
41
1
10
37.708501216908
20
-3.57339497898414
30
0
41
1
10
37.4502061492479
20
-3.51132453021288
30
0
41
1
10
36.933391992576
20
-3.37764798841147
30
0
41
1
10
36.6749325237809
20
-3.30658990122683
30
0
41
1
10
36.1579651964279
20
-3.15634661210333
30
0
41
1
10
35.8996268195677
20
-3.07647089289404
30
0
41
1
10
35.382045194083
20
-2.90824760059067
30
0
41
1
10
35.1225367232325
20
-2.81979169072602
30
0
41
1
10
34.6043389661531
20
-2.63732238135981
30
0
41
1
10
34.3455510130619
20
-2.54279187904436
30
0
41
1
10
33.8287618802453
20
-2.34556930933132
30
0
41
1
10
33.5704767776389
20
-2.24343973211336
30
0
41
1
10
33.0534140962752
20
-2.03477226642798
30
0
41
1
10
32.7947365350093
20
-1.9281731359618
30
0
41
1
10
32.2771337381513
20
-1.70902606339342
30
0
41
1
10
32.0181556838559
20
-1.59589787415237
30
0
41
1
10
31.499705551654
20
-1.36664088290959
30
0
41
1
10
31.240625416379
20
-1.25081594968003
30
0
41
1
10
30.7229043415726
20
-1.01624508079666
30
0
41
1
10
30.4643212625895
20
-0.897279582696456
30
0
41
1
10
29.9475039403575
20
-0.656427381021416
30
0
41
1
10
29.6889667849474
20
-0.535266609370183
30
0
41
1
10
29.1713048819649
20
-0.292408507868743
30
0
41
1
10
28.9122487590486
20
-0.170502320817263
30
0
41
1
10
28.3935454648823
20
0.0745921219507863
30
0
41
1
10
28.1343609567855
20
0.197702739793073
30
0
41
1
10
27.6163250761431
20
0.441609176049184
30
0
41
1
10
27.3573792738822
20
0.562781033431008
30
0
41
1
10
26.8397679798985
20
0.803258801428598
30
0
41
1
10
26.5811543084924
20
0.922527139328793
30
0
41
1
10
26.0638106614871
20
1.15915338938603
30
0
41
1
10
25.8048568405112
20
1.27594309761119
30
0
41
1
10
25.2862242428906
20
1.50588767032787
30
0
41
1
10
25.02635166417
20
1.6187035625174
30
0
41
1
10
24.5079376083496
20
1.83971956065343
30
0
41
1
10
24.2491505032791
20
1.94845698479332
30
0
41
1
10
23.7313400268263
20
2.15971983840595
30
0
41
1
10
23.4724526924157
20
2.26246275740399
30
0
41
1
10
22.9546647573112
20
2.46033658766808
30
0
41
1
10
22.6958216217366
20
2.55647962491736
30
0
41
1
10
22.1777256383226
20
2.74272022009154
30
0
41
1
10
21.917998002306
20
2.83257525092134
30
0
41
1
10
21.3988872416
20
3.00289601739468
30
0
41
1
10
21.1397135668913
20
3.08321051124469
30
0
41
1
10
20.621929655024
20
3.23733465060741
30
0
41
1
10
20.3633184508035
20
3.31066610701237
30
0
41
1
10
19.8456666187138
20
3.44734961297624
30
0
41
1
10
19.586737002869
20
3.51005885679689
30
0
41
1
10
19.0685560972156
20
3.62706452895605
30
0
41
1
10
18.8094710120318
20
3.68158389162093
30
0
41
1
10
18.030963187895
20
3.83010167407991
30
0
41
1
10
17.512492191772
20
3.90623551063388
30
0
41
1
10
16.7364238239766
20
3.99109265866127
30
0
41
1
10
16.4778297184128
20
4.01382015215907
30
0
41
1
10
15.9599457627752
20
4.04832117482292
30
0
41
1
10
15.7007568337955
20
4.06038762495635
30
0
41
1
10
15.3611629855442
20
4.0692677440864
30
0
41
1
10
15.2809748765102
20
4.07083373562998
30
0
41
1
10
15.2007864536473
20
4.07186203773361
30
0
0
SPLINE
5
C8
100
AcDbEntity
8
1
62
256
6
ByLayer
370
18
48
1
60
0
100
AcDbSpline
70
4
71
3
72
20
73
16
40
0
40
0
40
0
40
0
40
0.25
40
0.25
40
0.375
40
0.375
40
0.5
40
0.5
40
0.625
40
0.625
40
0.75
40
0.75
40
0.875
40
0.875
40
1
40
1
40
1
40
1
41
1
10
61.5746029996421
20
-4.16353928147615
30
0
41
1
10
61.6572477647602
20
-3.95786897123534
30
0
41
1
10
61.7408782745929
20
-3.74468829844207
30
0
41
1
10
61.8670038614561
20
-3.41973774278984
30
0
41
1
10
61.9090348172769
20
-3.31038156797561
30
0
41
1
10
61.9925548876772
20
-3.09118995713351
30
0
41
1
10
62.0341343878828
20
-2.9811430320911
30
0
41
1
10
62.1171103494153
20
-2.76059180569484
30
0
41
1
10
62.1584532766958
20
-2.64995373382871
30
0
41
1
10
62.2407526551725
20
-2.42771186627519
30
0
41
1
10
62.2817238483742
20
-2.31614490781067
30
0
41
1
10
62.3634379477236
20
-2.09244054873736
30
0
41
1
10
62.4042119840174
20
-1.98038093592646
30
0
41
1
10
62.4853774759562
20
-1.75530572037056
30
0
41
1
10
62.5258169397386
20
-1.64223271462131
30
0
41
1
10
62.5657820755019
20
-1.52972369218378
30
0
0
SPLINE
5
C9
100
AcDbEntity
8
1
62
256
6
ByLayer
370
18
48
1
60
0
100
AcDbSpline
70
4
71
3
72
10
73
6
40
0
40
0
40
0
40
0
40
0.551876018691826
40
0.551876018691826
40
1
40
1
40
1
40
1
41
1
10
61.5294703882285
20
4.22462821939232
30
0
41
1
10
61.2301047072189
20
4.2520302013595
30
0
41
1
10
60.930800300521
20
4.27178466958159
30
0
41
1
10
60.3880680522994
20
4.2936440451841
30
0
41
1
10
60.1445114374177
20
4.29836175027839
30
0
41
1
10
59.9011852793397
20
4.29798926969923
30
0
0
SPLINE
5
CA
100
AcDbEntity
8
1
62
256
6
ByLayer
370
18
48
1
60
0
100
AcDbSpline
70
4
71
3
72
50
73
46
40
0
40
0
40
0
40
0
40
0.0137861577919802
40
0.0137861577919802
40
0.0441517596757112
40
0.0441517596757112
40
0.0745173615594422
40
0.0745173615594422
40
0.135248565326906
40
0.135248565326906
40
0.165614167210637
40
0.165614167210637
40
0.195979769094369
40
0.195979769094369
40
0.256710972861832
40
0.256710972861832
40
0.317442176629295
40
0.317442176629295
40
0.347807778513027
40
0.347807778513027
40
0.378173380396758
40
0.378173380396758
40
0.438904584164222
40
0.438904584164222
40
0.56036699169915
40
0.56036699169915
40
0.590732593582882
40
0.590732593582882
40
0.621098195466613
40
0.621098195466613
40
0.681829399234077
40
0.681829399234077
40
0.712195001117809
40
0.712195001117809
40
0.74256060300154
40
0.74256060300154
40
0.803291806769003
40
0.803291806769003
40
0.924754214303929
40
0.924754214303929
40
0.95511981618766
40
0.95511981618766
40
0.985485418071392
40
0.985485418071392
40
1
40
1
40
1
40
1
41
1
10
35.0384975522529
20
-4.11428077756017
30
0
41
1
10
34.9025907432455
20
-4.13194999892167
30
0
41
1
10
34.7666454369545
20
-4.14810148322559
30
0
41
1
10
34.3310474374049
20
-4.19490769636988
30
0
41
1
10
34.0308332240772
20
-4.21967287711837
30
0
41
1
10
33.430671058944
20
-4.25386611422636
30
0
41
1
10
33.1310803135799
20
-4.26329030117685
30
0
41
1
10
32.2328554391749
20
-4.26860789812116
30
0
41
1
10
31.6348279721322
20
-4.24151424432188
30
0
41
1
10
30.7350698219262
20
-4.15546327564448
30
0
41
1
10
30.4345191392953
20
-4.11916542807123
30
0
41
1
10
29.834898110664
20
-4.03206924038918
30
0
41
1
10
29.5354706658418
20
-3.98125460824835
30
0
41
1
10
28.6373560456677
20
-3.80782428434054
30
0
41
1
10
28.038999859771
20
-3.66404859525974
30
0
41
1
10
26.837583644006
20
-3.32519138512762
30
0
41
1
10
26.2387197239021
20
-3.13092051549478
30
0
41
1
10
25.3404831410478
20
-2.8084690487417
30
0
41
1
10
25.0410427587954
20
-2.69574353630659
30
0
41
1
10
24.4414557613474
20
-2.46078316397498
30
0
41
1
10
24.1407231699888
20
-2.33835342822653
30
0
41
1
10
23.2412078762951
20
-1.96032358931061
30
0
41
1
10
22.6457279028047
20
-1.69407382972756
30
0
41
1
10
20.8639601261991
20
-0.868589292634795
30
0
41
1
10
19.6829380626418
20
-0.281382173008524
30
0
41
1
10
18.1908243412694
20
0.448591350628135
30
0
41
1
10
17.8916414249733
20
0.594447144844224
30
0
41
1
10
17.2911004877659
20
0.884514004294687
30
0
41
1
10
16.9906567681367
20
1.02822863136541
30
0
41
1
10
16.0911897851214
20
1.4519325087476
30
0
41
1
10
15.4927604014056
20
1.72536458590375
30
0
41
1
10
14.5930949433526
20
2.11464592391531
30
0
41
1
10
14.2923846139457
20
2.24109626904601
30
0
41
1
10
13.6920010159953
20
2.48507499810663
30
0
41
1
10
13.3928869787708
20
2.60236692052933
30
0
41
1
10
12.4977242618347
20
2.93866858225934
30
0
41
1
10
11.9039654020866
20
3.14227970963611
30
0
41
1
10
10.1244141612626
20
3.68195259198689
30
0
41
1
10
8.94049205036561
20
3.94680848502978
30
0
41
1
10
7.43969590063406
20
4.13237475980537
30
0
41
1
10
7.13877207479203
20
4.16215319178514
30
0
41
1
10
6.53876920034077
20
4.20642319086326
30
0
41
1
10
6.23913136591781
20
4.2209839550458
30
0
41
1
10
5.79633421887624
20
4.23127397053338
30
0
41
1
10
5.6531385810537
20
4.23286661438323
30
0
41
1
10
5.50992067898309
20
4.23272305105817
30
0
0
SPLINE
5
CB
100
AcDbEntity
8
1
62
256
6
ByLayer
370
13
48
1
60
0
100
AcDbSpline
70
4
71
3
72
8
73
4
40
0
40
0
40
0
40
0
40
1
40
1
40
1
40
1
41
1
10
4.03542314793006
20
-4.16217073132242
30
0
41
1
10
4.05927322323282
20
-4.14559589811509
30
0
41
1
10
4.09530021778383
20
-4.1309444905971
30
0
41
1
10
4.1414113782958
20
-4.12153077047421
30
0
0
SPLINE
5
CC
100
AcDbEntity
8
1
62
256
6
ByLayer
370
13
48
1
60
0
100
AcDbSpline
70
4
71
3
72
24
73
20
40
0
40
0
40
0
40
0
40
0.125
40
0.125
40
0.25
40
0.25
40
0.375
40
0.375
40
0.4375
40
0.4375
40
0.5
40
0.5
40
0.75
40
0.75
40
0.8125
40
0.8125
40
0.875
40
0.875
40
1
40
1
40
1
40
1
41
1
10
4.25047981670988
20
-3.99965207029965
30
0
41
1
10
4.25053981427757
20
-3.96596411784563
30
0
41
1
10
4.25059636175391
20
-3.91842507625068
30
0
41
1
10
4.25070411404073
20
-3.79613190275893
30
0
41
1
10
4.2507555939581
20
-3.72073259284633
30
0
41
1
10
4.2508522568983
20
-3.54618996917751
30
0
41
1
10
4.25089768591644
20
-3.44696607474771
30
0
41
1
10
4.25096265614036
20
-3.28045102253333
30
0
41
1
10
4.25098378049148
20
-3.22198800747867
30
0
41
1
10
4.251025125019
20
-3.0990479067022
30
0
41
1
10
4.25104541692022
20
-3.03432138586013
30
0
41
1
10
4.25114407232226
20
-2.69826038206628
30
0
41
1
10
4.25121344446768
20
-2.39425652796723
30
0
41
1
10
4.25129301031799
20
-1.97062900843125
30
0
41
1
10
4.25130856769488
20
-1.88351123834539
30
0
41
1
10
4.25133859899819
20
-1.70683265486176
30
0
41
1
10
4.25135311786008
20
-1.61704799363855
30
0
41
1
10
4.25139523101862
20
-1.34336413095861
30
0
41
1
10
4.25142146801596
20
-1.15448509597766
30
0
41
1
10
4.2514452639667
20
-0.963118160729607
30
0
0
SPLINE
5
CD
100
AcDbEntity
8
1
62
256
6
ByLayer
370
18
48
1
60
0
100
AcDbSpline
70
4
71
3
72
100
73
96
40
0
40
0
40
0
40
0
40
0.0308677074706221
40
0.0308677074706221
40
0.0492631970717003
40
0.0492631970717003
40
0.0676586866727785
40
0.0676586866727785
40
0.0860541762738566
40
0.0860541762738566
40
0.104449665874935
40
0.104449665874935
40
0.14124064507709
40
0.14124064507709
40
0.159636134678167
40
0.159636134678167
40
0.178031624279245
40
0.178031624279245
40
0.196427113880322
40
0.196427113880322
40
0.214822603481399
40
0.214822603481399
40
0.251613582683553
40
0.251613582683553
40
0.270009072284631
40
0.270009072284631
40
0.288404561885708
40
0.288404561885708
40
0.306800051486785
40
0.306800051486785
40
0.325195541087862
40
0.325195541087862
40
0.361986520290018
40
0.361986520290018
40
0.380382009891095
40
0.380382009891095
40
0.398777499492173
40
0.398777499492173
40
0.417172989093251
40
0.417172989093251
40
0.435568478694328
40
0.435568478694328
40
0.472359457896485
40
0.472359457896485
40
0.509150437098641
40
0.509150437098641
40
0.52754592669972
40
0.52754592669972
40
0.545941416300798
40
0.545941416300798
40
0.564336905901877
40
0.564336905901877
40
0.582732395502956
40
0.582732395502956
40
0.601127885104034
40
0.601127885104034
40
0.619523374705113
40
0.619523374705113
40
0.637918864306191
40
0.637918864306191
40
0.65631435390727
40
0.65631435390727
40
0.674709843508349
40
0.674709843508349
40
0.693105333109427
40
0.693105333109427
40
0.711500822710506
40
0.711500822710506
40
0.729896312311585
40
0.729896312311585
40
0.748291801912663
40
0.748291801912663
40
0.766687291513742
40
0.766687291513742
40
0.785082781114821
40
0.785082781114821
40
0.803478270715899
40
0.803478270715899
40
0.840269249918057
40
0.840269249918057
40
0.858664739519135
40
0.858664739519135
40
0.877060229120214
40
0.877060229120214
40
0.895455718721293
40
0.895455718721293
40
0.913851208322371
40
0.913851208322371
40
0.950642187524528
40
0.950642187524528
40
0.969037677125607
40
0.969037677125607
40
0.987433166726686
40
0.987433166726686
40
1
40
1
40
1
40
1
41
1
10
23.4397083392086
20
2.2833027510512
30
0
41
1
10
23.8096127590617
20
2.43690131028447
30
0
41
1
10
24.1798659927036
20
2.58286333730791
30
0
41
1
10
24.7701232626755
20
2.80580456409177
30
0
41
1
10
24.9901724720484
20
2.88711291281419
30
0
41
1
10
25.4310543656151
20
3.04346467682481
30
0
41
1
10
25.652159270253
20
3.11833038436063
30
0
41
1
10
26.0945485129935
20
3.26195365644634
30
0
41
1
10
26.3154872217063
20
3.33054898119045
30
0
41
1
10
26.7565527761532
20
3.46166336231309
30
0
41
1
10
26.9764454551317
20
3.52442394391943
30
0
41
1
10
27.6370239379154
20
3.70096439321776
30
0
41
1
10
28.0784114558487
20
3.80356569560817
30
0
41
1
10
28.7400839907887
20
3.93666200196944
30
0
41
1
10
28.9605456379089
20
3.9776410158415
30
0
41
1
10
29.4023158870296
20
4.05105914279153
30
0
41
1
10
29.6231765260081
20
4.0836351940564
30
0
41
1
10
30.0645206263884
20
4.14088565513859
30
0
41
1
10
30.2850224040329
20
4.16555009158057
30
0
41
1
10
30.7253425082455
20
4.20699498586407
30
0
41
1
10
30.9450850224344
20
4.22374555223615
30
0
41
1
10
31.6059961716539
20
4.26123886141457
30
0
41
1
10
32.0482999462353
20
4.26984004216263
30
0
41
1
10
32.7104020081045
20
4.25779741972369
30
0
41
1
10
32.9305686950079
20
4.24955368897298
30
0
41
1
10
33.3714962816895
20
4.22501951351728
30
0
41
1
10
33.5919949429891
20
4.20871581814069
30
0
41
1
10
34.0327986740076
20
4.16803119703678
30
0
41
1
10
34.2531068476456
20
4.14365367001787
30
0
41
1
10
34.6931889940835
20
4.08646832341719
30
0
41
1
10
34.9132285378222
20
4.05376440014723
30
0
41
1
10
35.5751766341409
20
3.94461311118144
30
0
41
1
10
36.0181684138689
20
3.85666983112256
30
0
41
1
10
36.6784530005079
20
3.70129262996449
30
0
41
1
10
36.8984519326644
20
3.6459002453401
30
0
41
1
10
37.339025794317
20
3.52887823901952
30
0
41
1
10
37.559430250693
20
3.46708179733037
30
0
41
1
10
38.0002059836663
20
3.33660861560773
30
0
41
1
10
38.2205126778746
20
3.26784497545359
30
0
41
1
10
38.6610367277214
20
3.12315288576147
30
0
41
1
10
38.8819099334028
20
3.04776241124949
30
0
41
1
10
39.5445010179489
20
2.81421952433683
30
0
41
1
10
39.9854184713673
20
2.64784672823112
30
0
41
1
10
40.8648187206138
20
2.29214023355379
30
0
41
1
10
41.3057601254586
20
2.10693531244689
30
0
41
1
10
41.9676700969635
20
1.81591995211301
30
0
41
1
10
42.1884158088864
20
1.71625180001337
30
0
41
1
10
42.6291953381616
20
1.51379833241185
30
0
41
1
10
42.8496714274058
20
1.411771369273
30
0
41
1
10
43.2905188396015
20
1.20563875477427
30
0
41
1
10
43.51088231651
20
1.1015177197431
30
0
41
1
10
43.9512053821679
20
0.890600991150137
30
0
41
1
10
44.1709612277543
20
0.783392517815571
30
0
41
1
10
44.6108829857384
20
0.567884001209336
30
0
41
1
10
44.8313310016958
20
0.460163115519037
30
0
41
1
10
45.2727563440477
20
0.243916303609439
30
0
41
1
10
45.4939442639811
20
0.135341011108551
30
0
41
1
10
45.9351737368057
20
-0.0824208697557083
30
0
41
1
10
46.1550826648618
20
-0.192134032049751
30
0
41
1
10
46.5951366870701
20
-0.409843848356189
30
0
41
1
10
46.8153857276901
20
-0.517636955994249
30
0
41
1
10
47.2558742554868
20
-0.732044005877981
30
0
41
1
10
47.4761436844099
20
-0.838597077255116
30
0
41
1
10
47.9164338882712
20
-1.05098439202328
30
0
41
1
10
48.1362309455205
20
-1.1572553701771
30
0
41
1
10
48.5770701587489
20
-1.36609810564065
30
0
41
1
10
48.7981947847347
20
-1.46889975368813
30
0
41
1
10
49.2396210794433
20
-1.67119991171691
30
0
41
1
10
49.4600961673044
20
-1.77072670108822
30
0
41
1
10
49.9002495540373
20
-1.96709252618618
30
0
41
1
10
50.1197646373798
20
-2.06420054773216
30
0
41
1
10
50.559714437446
20
-2.25260731266425
30
0
41
1
10
50.7799510721457
20
-2.3442848978782
30
0
41
1
10
51.2206170156675
20
-2.52320264966571
30
0
41
1
10
51.4410635353839
20
-2.61041415582943
30
0
41
1
10
51.8818508572808
20
-2.78079184224373
30
0
41
1
10
52.1022562103461
20
-2.86403400634043
30
0
41
1
10
52.7636253773482
20
-3.10250822865174
30
0
41
1
10
53.204489120222
20
-3.24858729252242
30
0
41
1
10
53.8638737072778
20
-3.45075927558619
30
0
41
1
10
54.0834535365856
20
-3.51512471758991
30
0
41
1
10
54.523792171183
20
-3.6359612765404
30
0
41
1
10
54.7442869079359
20
-3.69276828532944
30
0
41
1
10
55.1856623346667
20
-3.79945157987481
30
0
41
1
10
55.4065880818118
20
-3.84933115501684
30
0
41
1
10
55.8468602321492
20
-3.9419161204784
30
0
41
1
10
56.0666936611264
20
-3.98439180890134
30
0
41
1
10
56.7270362715983
20
-4.09926209177561
30
0
41
1
10
57.167483211693
20
-4.16002615220441
30
0
41
1
10
57.8269448025088
20
-4.22778307305447
30
0
41
1
10
58.0469808443238
20
-4.24623657817014
30
0
41
1
10
58.4882159982861
20
-4.27475634563899
30
0
41
1
10
58.7092105528928
20
-4.28488214465921
30
0
41
1
10
59.0804995730179
20
-4.29497447157826
30
0
41
1
10
59.2309891046512
20
-4.297121915232
30
0
41
1
10
59.3814137836323
20
-4.29732637021544
30
0
0
SPLINE
5
CE
100
AcDbEntity
8
1
62
256
6
ByLayer
370
18
48
1
60
0
100
AcDbSpline
70
4
71
3
72
18
73
14
40
0
40
0
40
0
40
0
40
0.124999999999982
40
0.124999999999982
40
0.249999999999964
40
0.249999999999964
40
0.374999999999947
40
0.374999999999947
40
0.499999999999929
40
0.499999999999929
40
0.749999999999964
40
0.749999999999964
40
1
40
1
40
1
40
1
41
1
10
62.5657820755019
20
1.52972369218381
30
0
41
1
10
62.5682463074574
20
1.51176537646842
30
0
41
1
10
62.5678588332401
20
1.49325280934525
30
0
41
1
10
62.5610442919779
20
1.45803857458051
30
0
41
1
10
62.554585407892
20
1.44093664178953
30
0
41
1
10
62.5374932446613
20
1.40962507856733
30
0
41
1
10
62.5267534032611
20
1.39506775354226
30
0
41
1
10
62.5031361323805
20
1.3686501842449
30
0
41
1
10
62.4901542457954
20
1.35659832774564
30
0
41
1
10
62.44875336193
20
1.32284454860346
30
0
41
1
10
62.4184872512053
20
1.30392867414258
30
0
41
1
10
62.3563280782526
20
1.27037855768006
30
0
41
1
10
62.3241414293136
20
1.25566120242851
30
0
41
1
10
62.2912600125325
20
1.24221450047008
30
0
0
SPLINE
5
CF
100
AcDbEntity
8
1
62
256
6
ByLayer
370
13
48
1
60
0
100
AcDbSpline
70
4
71
3
72
8
73
4
40
0
40
0
40
0
40
0
40
1
40
1
40
1
40
1
41
1
10
4.14017701945065
20
-4.17851062779559
30
0
41
1
10
4.14058683700074
20
-4.1595176400487
30
0
41
1
10
4.1409982904097
20
-4.14052435582673
30
0
41
1
10
4.14141137829577
20
-4.12153077047421
30
0
0
SPLINE
5
D0
100
AcDbEntity
8
1
62
256
6
ByLayer
370
18
48
1
60
0
100
AcDbSpline
70
4
71
3
72
18
73
14
40
0
40
0
40
0
40
0
40
0.250000000000003
40
0.250000000000003
40
0.375000000000002
40
0.375000000000002
40
0.500000000000001
40
0.500000000000001
40
0.749999999999999
40
0.749999999999999
40
0.875
40
0.875
40
1
40
1
40
1
40
1
41
1
10
61.4878114400018
20
-4.12594037297714
30
0
41
1
10
61.4015507556095
20
-4.11917844648383
30
0
41
1
10
61.321118631007
20
-4.09530847313169
30
0
41
1
10
61.2099495185178
20
-4.03168043928875
30
0
41
1
10
61.1743320915131
20
-4.00563990226226
30
0
41
1
10
61.1076598851966
20
-3.9447268836102
30
0
41
1
10
61.0764987497941
20
-3.90985032851307
30
0
41
1
10
60.989553341743
20
-3.79193391401313
30
0
41
1
10
60.9402564447417
20
-3.69571018224167
30
0
41
1
10
60.8802026371076
20
-3.52314371401221
30
0
41
1
10
60.8624520754524
20
-3.46060259214318
30
0
41
1
10
60.8322412063993
20
-3.32689433571051
30
0
41
1
10
60.8197975398166
20
-3.25595258530132
30
0
41
1
10
60.8100390281462
20
-3.18088729781417
30
0
0
SPLINE
5
D1
100
AcDbEntity
8
1
62
256
6
ByLayer
370
18
48
1
60
0
100
AcDbSpline
70
4
71
3
72
8
73
4
40
0
40
0
40
0
40
0
40
1
40
1
40
1
40
1
41
1
10
61.5563670478633
20
-4.15057978168423
30
0
41
1
10
61.5474077199878
20
-4.17526401257089
30
0
41
1
10
61.5384420826513
20
-4.19994705867072
30
0
41
1
10
61.5294703882286
20
-4.22462821939229
30
0
0
SPLINE
5
D2
100
AcDbEntity
8
1
62
256
6
ByLayer
370
13
48
1
60
0
100
AcDbSpline
70
4
71
3
72
8
73
4
40
0
40
0
40
0
40
0
40
1
40
1
40
1
40
1
41
1
10
4.1414113782958
20
-4.12153077047421
30
0
41
1
10
4.16218302944375
20
-4.11324240277318
30
0
41
1
10
4.18434055180637
20
-4.10996683994506
30
0
41
1
10
4.20698468864202
20
-4.11162928164381
30
0
0
SPLINE
5
D3
100
AcDbEntity
8
1
62
256
6
ByLayer
370
18
48
1
60
0
100
AcDbSpline
70
4
71
3
72
14
73
10
40
0
40
0
40
0
40
0
40
0.25
40
0.25
40
0.5
40
0.5
40
0.75
40
0.75
40
1
40
1
40
1
40
1
41
1
10
61.4348640016313
20
1.21631346110192
30
0
41
1
10
61.4110279020755
20
1.21584199268031
30
0
41
1
10
61.3871394862776
20
1.21135527604014
30
0
41
1
10
61.3452517318614
20
1.19037548030002
30
0
41
1
10
61.3274176776683
20
1.17323023847939
30
0
41
1
10
61.3060332982335
20
1.13033129859514
30
0
41
1
10
61.3024753336339
20
1.10602507477188
30
0
41
1
10
61.3043098866901
20
1.05841198918347
30
0
41
1
10
61.3095595099325
20
1.03469150811154
30
0
41
1
10
61.3172244326385
20
1.01187283167246
30
0
0
SPLINE
5
D4
100
AcDbEntity
8
1
62
256
6
ByLayer
370
18
48
1
60
0
100
AcDbSpline
70
4
71
3
72
8
73
4
40
0
40
0
40
0
40
0
40
1
40
1
40
1
40
1
41
1
10
4.14017701945062
20
-4.17851062779641
30
0
41
1
10
4.09653253947457
20
-4.1751051217137
30
0
41
1
10
4.06005671900951
20
-4.16960129440915
30
0
41
1
10
4.03542314792983
20
-4.16217073132137
30
0
0
SPLINE
5
D5
100
AcDbEntity
8
1
62
256
6
ByLayer
370
18
48
1
60
0
100
AcDbSpline
70
4
71
3
72
28
73
24
40
0
40
0
40
0
40
0
40
0.125
40
0.125
40
0.25
40
0.25
40
0.312499999999999
40
0.312499999999999
40
0.374999999999999
40
0.374999999999999
40
0.499999999999999
40
0.499999999999999
40
0.625
40
0.625
40
0.6875
40
0.6875
40
0.75
40
0.75
40
0.875
40
0.875
40
0.9375
40
0.9375
40
1
40
1
40
1
40
1
41
1
10
4.01264392073585
20
-4.14704924681885
30
0
41
1
10
4.0126658632766
20
-4.10707398300329
30
0
41
1
10
4.01268687601026
20
-4.0526663002438
30
0
41
1
10
4.01272654719742
20
-3.91819669086951
30
0
41
1
10
4.01274528863019
20
-3.83812755010226
30
0
41
1
10
4.01277215716544
20
-3.69904347501148
30
0
41
1
10
4.01278090518144
20
-3.64950684944372
30
0
41
1
10
4.01279804238843
20
-3.5439838674572
30
0
41
1
10
4.01280645496436
20
-3.48782679871627
30
0
41
1
10
4.01283107288805
20
-3.31055376735279
30
0
41
1
10
4.01284648654462
20
-3.18207996409231
30
0
41
1
10
4.01287584396493
20
-2.9052992017927
30
0
41
1
10
4.01288978621199
20
-2.75699085479451
30
0
41
1
10
4.01290985455768
20
-2.51929951605669
30
0
41
1
10
4.01291642630832
20
-2.43718441167752
30
0
41
1
10
4.0129291424534
20
-2.26999996165438
30
0
41
1
10
4.0129352980201
20
-2.18483505540894
30
0
41
1
10
4.0129532134807
20
-1.92472685687517
30
0
41
1
10
4.01296442908148
20
-1.74519261188294
30
0
41
1
10
4.01298025182834
20
-1.46669237152818
30
0
41
1
10
4.01298535755865
20
-1.37232018481325
30
0
41
1
10
4.01299522561266
20
-1.18042650004622
30
0
41
1
10
4.01299998842211
20
-1.08284050674419
30
0
41
1
10
4.01300449872082
20
-0.985239090955019
30
0
0
SPLINE
5
D6
100
AcDbEntity
8
1
62
256
6
ByLayer
370
18
48
1
60
0
100
AcDbSpline
70
4
71
3
72
8
73
4
40
0
40
0
40
0
40
0
40
1
40
1
40
1
40
1
41
1
10
62.2912600125326
20
1.24221450047008
30
0
41
1
10
62.0069259534125
20
1.22999976075314
30
0
41
1
10
61.7212671811698
20
1.2219784003122
30
0
41
1
10
61.4348640016312
20
1.21631346110192
30
0
0
SPLINE
5
D7
100
AcDbEntity
8
1
62
256
6
ByLayer
370
18
48
1
60
0
100
AcDbSpline
70
4
71
3
72
40
73
36
40
0
40
0
40
0
40
0
40
0.0624999999999978
40
0.0624999999999978
40
0.124999999999996
40
0.124999999999996
40
0.187499999999993
40
0.187499999999993
40
0.249999999999991
40
0.249999999999991
40
0.312499999999989
40
0.312499999999989
40
0.374999999999987
40
0.374999999999987
40
0.437499999999984
40
0.437499999999984
40
0.499999999999982
40
0.499999999999982
40
0.56249999999998
40
0.56249999999998
40
0.593749999999981
40
0.593749999999981
40
0.624999999999983
40
0.624999999999983
40
0.687499999999985
40
0.687499999999985
40
0.749999999999988
40
0.749999999999988
40
0.812499999999991
40
0.812499999999991
40
0.874999999999994
40
0.874999999999994
40
0.937499999999997
40
0.937499999999997
40
1
40
1
40
1
40
1
41
1
10
62.3527465864596
20
-1.74955058878942
30
0
41
1
10
62.3342527837171
20
-1.73889710286426
30
0
41
1
10
62.3137483707706
20
-1.73434641614162
30
0
41
1
10
62.2695972682233
20
-1.73532401025935
30
0
41
1
10
62.2457003410353
20
-1.74097019450997
30
0
41
1
10
62.1959210376671
20
-1.76145275934493
30
0
41
1
10
62.1701672102253
20
-1.77615562277816
30
0
41
1
10
62.1170260528766
20
-1.81399482341663
30
0
41
1
10
62.0894558329813
20
-1.83735588570687
30
0
41
1
10
62.0343707870722
20
-1.89123418623544
30
0
41
1
10
62.0066852150621
20
-1.92182689528022
30
0
41
1
10
61.951009694989
20
-1.9907862605408
30
0
41
1
10
61.9227531982902
20
-2.02959043931065
30
0
41
1
10
61.8679923424806
20
-2.11330206977169
30
0
41
1
10
61.8413241821266
20
-2.15831574779656
30
0
41
1
10
61.7897084114583
20
-2.25597122189606
30
0
41
1
10
61.7653326364024
20
-2.30761567201904
30
0
41
1
10
61.721280555803
20
-2.41488318897623
30
0
41
1
10
61.7014781887175
20
-2.47104035819956
30
0
41
1
10
61.6778209200799
20
-2.55371827201955
30
0
41
1
10
61.6708000568777
20
-2.5815057816047
30
0
41
1
10
61.659119745957
20
-2.63554628094133
30
0
41
1
10
61.6544624140561
20
-2.66168391871361
30
0
41
1
10
61.6440040845266
20
-2.73747496713938
30
0
41
1
10
61.6418729772114
20
-2.78465836906176
30
0
41
1
10
61.6470287110942
20
-2.86517176517421
30
0
41
1
10
61.6542809793082
20
-2.89940732873717
30
0
41
1
10
61.6758833829435
20
-2.95366460799937
30
0
41
1
10
61.6903874936549
20
-2.97421433256051
30
0
41
1
10
61.724021854003
20
-3.00251469886447
30
0
41
1
10
61.7434911603306
20
-3.01067083266196
30
0
41
1
10
61.7860018792755
20
-3.01606119589903
30
0
41
1
10
61.8087508403708
20
-3.01336389907161
30
0
41
1
10
61.8568600064823
20
-2.99854170685782
30
0
41
1
10
61.8824637650399
20
-2.98622667620395
30
0
41
1
10
61.9086683010258
20
-2.96964565048938
30
0
0
SPLINE
5
D8
100
AcDbEntity
8
1
62
256
6
ByLayer
370
18
48
1
60
0
100
AcDbSpline
70
4
71
3
72
16
73
12
40
0
40
0
40
0
40
0
40
0.0004904099277598
40
0.0004904099277598
40
0.327448074845237
40
0.327448074845237
40
0.654405739762714
40
0.654405739762714
40
0.981363404680193
40
0.981363404680193
40
1
40
1
40
1
40
1
41
1
10
32.9353227329356
20
-4.09352266358346
30
0
41
1
10
32.9344195594146
20
-4.09352147461948
30
0
41
1
10
32.9335163828107
20
-4.09352021868565
30
0
41
1
10
32.3304607844516
20
-4.09263691086252
30
0
41
1
10
31.7318323615085
20
-4.06203314723112
30
0
41
1
10
30.5395067612524
20
-3.94423278775369
30
0
41
1
10
29.9454263232698
20
-3.85707492321754
30
0
41
1
10
28.7568336074432
20
-3.62984179525387
30
0
41
1
10
28.1624007993304
20
-3.48978704235901
30
0
41
1
10
27.5314098481456
20
-3.31603976698554
30
0
41
1
10
27.4973745932848
20
-3.30659117262078
30
0
41
1
10
27.4633307219378
20
-3.29706396806043
30
0
0
SPLINE
5
D9
100
AcDbEntity
8
1
62
256
6
ByLayer
370
13
48
1
60
0
100
AcDbSpline
70
4
71
3
72
22
73
18
40
0
40
0
40
0
40
0
40
0.0603542030850939
40
0.0603542030850939
40
0.128474075096583
40
0.128474075096583
40
0.400953563142537
40
0.400953563142537
40
0.537193307165514
40
0.537193307165514
40
0.605313179177003
40
0.605313179177003
40
0.673433051188491
40
0.673433051188491
40
0.945912539234443
40
0.945912539234443
40
1
40
1
40
1
40
1
41
1
10
27.4633307218225
20
-3.29706396802817
30
0
41
1
10
27.1987442777084
20
-3.2230192405259
30
0
41
1
10
26.9336373734276
20
-3.14422623462062
30
0
41
1
10
26.3678807276109
20
-2.96684299848835
30
0
41
1
10
26.0663048066415
20
-2.86673448135426
30
0
41
1
10
24.5639764959062
20
-2.34327998939995
30
0
41
1
10
23.3775891464863
20
-1.85050317868112
30
0
41
1
10
21.5938501441271
20
-1.05440408940729
30
0
41
1
10
20.9986718065548
20
-0.779427975361358
30
0
41
1
10
20.1014228086207
20
-0.359881336659157
30
0
41
1
10
19.8016091055372
20
-0.218822572622315
30
0
41
1
10
19.199977354961
20
0.0645341268941593
30
0
41
1
10
18.8985813727157
20
0.206556401350753
30
0
41
1
10
17.3991591683231
20
0.909678094100258
30
0
41
1
10
16.2132205117141
20
1.45506178819241
30
0
41
1
10
14.7864339808312
20
2.043832288635
30
0
41
1
10
14.5499431430447
20
2.13921381444177
30
0
41
1
10
14.3131325561573
20
2.23219353425768
30
0
0
SPLINE
5
DA
100
AcDbEntity
8
1
62
256
6
ByLayer
370
18
48
1
60
0
100
AcDbSpline
70
4
71
3
72
12
73
8
40
0
40
0
40
0
40
0
40
0.500000000000005
40
0.500000000000005
40
0.750000000000003
40
0.750000000000003
40
1
40
1
40
1
40
1
41
1
10
60.8100390281463
20
-3.18088729781417
30
0
41
1
10
60.4620634633405
20
-2.9731902031875
30
0
41
1
10
60.1266350281234
20
-2.73298299672214
30
0
41
1
10
59.64718923699
20
-2.3112726758151
30
0
41
1
10
59.4913712132945
20
-2.16034556097165
30
0
41
1
10
59.1895911396073
20
-1.83295411138755
30
0
41
1
10
59.0461184775634
20
-1.65908880655348
30
0
41
1
10
58.9124707981601
20
-1.4744639678369
30
0
0
SPLINE
5
DB
100
AcDbEntity
8
1
62
256
6
ByLayer
370
13
48
1
60
0
100
AcDbSpline
70
4
71
3
72
8
73
4
40
0
40
0
40
0
40
0
40
1
40
1
40
1
40
1
41
1
10
4.14141137829583
20
-4.01877596034683
30
0
41
1
10
4.17575612732935
20
-4.00417196189713
30
0
41
1
10
4.21265748444421
20
-3.99776496214852
30
0
41
1
10
4.25047981670991
20
-3.99965207029965
30
0
0
SPLINE
5
DC
100
AcDbEntity
8
1
62
256
6
ByLayer
370
18
48
1
60
0
100
AcDbSpline
70
4
71
3
72
18
73
14
40
0
40
0
40
0
40
0
40
0.249999999999999
40
0.249999999999999
40
0.374999999999999
40
0.374999999999999
40
0.499999999999998
40
0.499999999999998
40
0.749999999999998
40
0.749999999999998
40
0.874999999999999
40
0.874999999999999
40
1
40
1
40
1
40
1
41
1
10
9.21943294838997
20
-3.20684961402136
30
0
41
1
10
8.7912582682562
20
-3.0828837791401
30
0
41
1
10
8.36673856951765
20
-2.94545274215901
30
0
41
1
10
7.73475144670562
20
-2.71617677173819
30
0
41
1
10
7.52491704820125
20
-2.63568405833402
30
0
41
1
10
7.10663054102221
20
-2.46769523165551
30
0
41
1
10
6.89816206787822
20
-2.38033910530118
30
0
41
1
10
6.27497742309993
20
-2.10577285725023
30
0
41
1
10
5.86234623177461
20
-1.90677949733933
30
0
41
1
10
5.24864773537089
20
-1.57756289621077
30
0
41
1
10
5.0450276860679
20
-1.46258204162265
30
0
41
1
10
4.6439093545421
20
-1.22192709238192
30
0
41
1
10
4.44596476595416
20
-1.09607291394224
30
0
41
1
10
4.25144526625709
20
-0.963118162294393
30
0
0
SPLINE
5
DD
100
AcDbEntity
8
1
62
256
6
ByLayer
370
18
48
1
60
0
100
AcDbSpline
70
4
71
3
72
30
73
26
40
0
40
0
40
0
40
0
40
0.0625000000000014
40
0.0625000000000014
40
0.125000000000003
40
0.125000000000003
40
0.187500000000004
40
0.187500000000004
40
0.250000000000006
40
0.250000000000006
40
0.312500000000007
40
0.312500000000007
40
0.375000000000009
40
0.375000000000009
40
0.500000000000012
40
0.500000000000012
40
0.625000000000016
40
0.625000000000016
40
0.687500000000013
40
0.687500000000013
40
0.75000000000001
40
0.75000000000001
40
0.875000000000005
40
0.875000000000005
40
1
40
1
40
1
40
1
41
1
10
62.3527465864597
20
-1.74955058878967
30
0
41
1
10
62.3530927692859
20
-1.75676508939344
30
0
41
1
10
62.3523068513869
20
-1.76683364694247
30
0
41
1
10
62.348456113609
20
-1.79271593636287
30
0
41
1
10
62.3453496011199
20
-1.80870976670226
30
0
41
1
10
62.3368479555933
20
-1.8461013870315
30
0
41
1
10
62.3315203072278
20
-1.86724953802053
30
0
41
1
10
62.3187477209543
20
-1.9143677123358
30
0
41
1
10
62.3112048580128
20
-1.94065225599687
30
0
41
1
10
62.294511655028
20
-1.99623460461658
30
0
41
1
10
62.2853554184956
20
-2.02558765324579
30
0
41
1
10
62.2654823914107
20
-2.08730422945723
30
0
41
1
10
62.2547387904029
20
-2.11972758405025
30
0
41
1
10
62.2214283755105
20
-2.21780025657921
30
0
41
1
10
62.197038979409
20
-2.2864413590867
30
0
41
1
10
62.147593254136
20
-2.42047423652656
30
0
41
1
10
62.1220332128177
20
-2.48724274905552
30
0
41
1
10
62.0848526420215
20
-2.58104252869174
30
0
41
1
10
62.0726042801198
20
-2.61138522986809
30
0
41
1
10
62.0483933015233
20
-2.67025198635008
30
0
41
1
10
62.0364191473776
20
-2.6987930799182
30
0
41
1
10
62.0019118680698
20
-2.7793524937816
30
0
41
1
10
61.9802779215731
20
-2.8275618433517
30
0
41
1
10
61.9408008603618
20
-2.91049977549076
30
0
41
1
10
61.923446484664
20
-2.94424541998453
30
0
41
1
10
61.908668301026
20
-2.96964565048913
30
0
0
SPLINE
5
DE
100
AcDbEntity
8
1
62
256
6
ByLayer
370
18
48
1
60
0
100
AcDbSpline
70
4
71
3
72
48
73
44
40
0
40
0
40
0
40
0
40
0.0621735873578948
40
0.0621735873578948
40
0.12434717471579
40
0.12434717471579
40
0.155433968394737
40
0.155433968394737
40
0.186520762073684
40
0.186520762073684
40
0.248694349431579
40
0.248694349431579
40
0.310867936789474
40
0.310867936789474
40
0.373041524147369
40
0.373041524147369
40
0.404128317826315
40
0.404128317826315
40
0.435215111505262
40
0.435215111505262
40
0.497388698863155
40
0.497388698863155
40
0.528475492542101
40
0.528475492542101
40
0.559562286221047
40
0.559562286221047
40
0.62173587357894
40
0.62173587357894
40
0.683909460936832
40
0.683909460936832
40
0.714996254615778
40
0.714996254615778
40
0.746083048294723
40
0.746083048294723
40
0.870430223010507
40
0.870430223010507
40
0.932603810368399
40
0.932603810368399
40
0.963690604047345
40
0.963690604047345
40
0.994777397726291
40
0.994777397726291
40
1
40
1
40
1
40
1
41
1
10
61.5294703882286
20
-4.22462821939232
30
0
41
1
10
60.9305480114156
20
-4.27944966757511
30
0
41
1
10
60.3318670484737
20
-4.30363980226861
30
0
41
1
10
59.132804363834
20
-4.29018645268027
30
0
41
1
10
58.5353632467782
20
-4.25259374983807
30
0
41
1
10
57.638750655155
20
-4.15121232226332
30
0
41
1
10
57.3397926418969
20
-4.10992324866967
30
0
41
1
10
56.7410215160652
20
-4.01266958858267
30
0
41
1
10
56.4408899526186
20
-3.95663350536486
30
0
41
1
10
55.542493552957
20
-3.76797208867768
30
0
41
1
10
54.9452191719968
20
-3.61464866013463
30
0
41
1
10
53.7489386849459
20
-3.25842820166491
30
0
41
1
10
53.1485094899812
20
-3.05497592432565
30
0
41
1
10
51.9517179902799
20
-2.60838049481771
30
0
41
1
10
51.3543941142344
20
-2.36546610761823
30
0
41
1
10
50.4563096412972
20
-1.97791058441297
30
0
41
1
10
50.1562557357002
20
-1.84470016305786
30
0
41
1
10
49.5566736617535
20
-1.57224079464655
30
0
41
1
10
49.2574065747668
20
-1.43313345392221
30
0
41
1
10
48.3601169015349
20
-1.0092446964355
30
0
41
1
10
47.7625345860021
20
-0.718038045948276
30
0
41
1
10
46.8635124599334
20
-0.275372631032184
30
0
41
1
10
46.5632510518288
20
-0.12683659650682
30
0
41
1
10
45.964211642502
20
0.169357514283064
30
0
41
1
10
45.6650717032112
20
0.317214389757424
30
0
41
1
10
44.7678367152545
20
0.758133230114993
30
0
41
1
10
44.1698683029819
20
1.04842460485929
30
0
41
1
10
42.9693995485173
20
1.61183249692991
30
0
41
1
10
42.3712646407659
20
1.88266726778497
30
0
41
1
10
41.4738692819897
20
2.26603942200742
30
0
41
1
10
41.1746916132995
20
2.39002238119474
30
0
41
1
10
40.5755290959225
20
2.62912296466374
30
0
41
1
10
40.2749818494936
20
2.74444122790203
30
0
41
1
10
38.7779209525197
20
3.29331410640521
30
0
41
1
10
37.5962909635616
20
3.64365861512815
30
0
41
1
10
35.8188051242153
20
4.005463234643
30
0
41
1
10
35.2254792810367
20
4.09885605453141
30
0
41
1
10
34.3305997629562
20
4.19492690403951
30
0
41
1
10
34.0315085211973
20
4.2196252371061
30
0
41
1
10
33.4310741445918
20
4.2538522987337
30
0
41
1
10
33.1312142340825
20
4.26328872760027
30
0
41
1
10
32.7814022500156
20
4.26536056755435
30
0
41
1
10
32.7310944131211
20
4.26544224581846
30
0
41
1
10
32.6807927945688
20
4.26530786933625
30
0
0
SPLINE
5
DF
100
AcDbEntity
8
1
62
256
6
ByLayer
370
18
48
1
60
0
100
AcDbSpline
70
4
71
3
72
14
73
10
40
0
40
0
40
0
40
0
40
0.030537894277247
40
0.030537894277247
40
0.272903420707934
40
0.272903420707934
40
0.515268947138622
40
0.515268947138622
40
1
40
1
40
1
40
1
41
1
10
7.8540865723385
20
-4.0807802478551
30
0
41
1
10
7.81636983300913
20
-4.08567939604393
30
0
41
1
10
7.77863850669112
20
-4.09046395299416
30
0
41
1
10
7.44131493088986
20
-4.13219155484353
30
0
41
1
10
7.14028269631552
20
-4.16202090029211
30
0
41
1
10
6.53973650653791
20
-4.20637256768472
30
0
41
1
10
6.2398726424905
20
-4.22095725401053
30
0
41
1
10
5.34054816667788
20
-4.24188475386305
30
0
41
1
10
4.74131975879499
20
-4.225416794545
30
0
41
1
10
4.14017701945065
20
-4.17851062779641
30
0
0
SPLINE
5
E0
100
AcDbEntity
8
1
62
256
6
ByLayer
370
18
48
1
60
0
100
AcDbSpline
70
4
71
3
72
42
73
38
40
0
40
0
40
0
40
0
40
0.0624999999999976
40
0.0624999999999976
40
0.124999999999995
40
0.124999999999995
40
0.140624999999995
40
0.140624999999995
40
0.156249999999994
40
0.156249999999994
40
0.187499999999993
40
0.187499999999993
40
0.218749999999992
40
0.218749999999992
40
0.249999999999991
40
0.249999999999991
40
0.28124999999999
40
0.28124999999999
40
0.312499999999988
40
0.312499999999988
40
0.343749999999987
40
0.343749999999987
40
0.374999999999986
40
0.374999999999986
40
0.437499999999988
40
0.437499999999988
40
0.468749999999988
40
0.468749999999988
40
0.499999999999989
40
0.499999999999989
40
0.624999999999992
40
0.624999999999992
40
0.749999999999995
40
0.749999999999995
40
0.874999999999997
40
0.874999999999997
40
1
40
1
40
1
40
1
41
1
10
61.3172244326385
20
1.01187283167238
30
0
41
1
10
61.3568007096881
20
0.894053214268467
30
0
41
1
10
61.3980048170872
20
0.77693971772581
30
0
41
1
10
61.4876477196148
20
0.545850990204514
30
0
41
1
10
61.5361340725485
20
0.431724512096707
30
0
41
1
10
61.6007123448647
20
0.291379407436977
30
0
41
1
10
61.6138143547777
20
0.263422356545391
30
0
41
1
10
61.6403321553261
20
0.207714349974907
30
0
41
1
10
61.6535245797967
20
0.179809551151038
30
0
41
1
10
61.6908051905984
20
0.0947397968282644
30
0
41
1
10
61.7134580248573
20
0.036924107986863
30
0
41
1
10
61.7528833079041
20
-0.0807375019746814
30
0
41
1
10
61.7697897220109
20
-0.14105534585002
30
0
41
1
10
61.7958992626591
20
-0.262533253299466
30
0
41
1
10
61.805108262773
20
-0.323385420208837
30
0
41
1
10
61.814107285364
20
-0.445367033323095
30
0
41
1
10
61.81375772169
20
-0.506648680371143
30
0
41
1
10
61.8016698558056
20
-0.623549538121267
30
0
41
1
10
61.7897646917027
20
-0.680512696300156
30
0
41
1
10
61.7548022386407
20
-0.786417940460012
30
0
41
1
10
61.7323017783125
20
-0.835087863210333
30
0
41
1
10
61.6790388263135
20
-0.925378067765138
30
0
41
1
10
61.6485718784591
20
-0.966421757747156
30
0
41
1
10
61.549847974726
20
-1.07658265894034
30
0
41
1
10
61.4725465069212
20
-1.13435611376937
30
0
41
1
10
61.3482677747684
20
-1.20090833961947
30
0
41
1
10
61.3054864119227
20
-1.2199874207445
30
0
41
1
10
61.2198947787824
20
-1.25766419926356
30
0
41
1
10
61.1767684321494
20
-1.27553049101655
30
0
41
1
10
60.9595186469084
20
-1.36010321656482
30
0
41
1
10
60.780861850424
20
-1.4123309868053
30
0
41
1
10
60.4185813079135
20
-1.48838442349367
30
0
41
1
10
60.2344183662695
20
-1.51242365210482
30
0
41
1
10
59.860890395758
20
-1.53642930869753
30
0
41
1
10
59.6715517872007
20
-1.53626912889965
30
0
41
1
10
59.2927892903369
20
-1.5170370999432
30
0
41
1
10
59.1027983228999
20
-1.4982748405676
30
0
41
1
10
58.9124707981602
20
-1.47446396783687
30
0
0
SPLINE
5
E1
100
AcDbEntity
8
1
62
256
6
ByLayer
370
18
48
1
60
0
100
AcDbSpline
70
4
71
3
72
14
73
10
40
0
40
0
40
0
40
0
40
0.25
40
0.25
40
0.5
40
0.5
40
0.75
40
0.75
40
1
40
1
40
1
40
1
41
1
10
61.5755662159866
20
-4.0709615609091
30
0
41
1
10
61.5775217216069
20
-4.06869572586538
30
0
41
1
10
61.5787971730585
20
-4.06832944244525
30
0
41
1
10
61.5795889671558
20
-4.07244937812874
30
0
41
1
10
61.5790449401409
20
-4.07700284386686
30
0
41
1
10
61.5757395810468
20
-4.09137999751306
30
0
41
1
10
61.572920142838
20
-4.10136408552901
30
0
41
1
10
61.5655933702323
20
-4.12445420526782
30
0
41
1
10
61.5611044952842
20
-4.13752743584101
30
0
41
1
10
61.5563670478632
20
-4.15057978168423
30
0
0
SPLINE
5
E2
100
AcDbEntity
8
1
62
256
6
ByLayer
370
18
48
1
60
0
100
AcDbSpline
70
4
71
3
72
40
73
36
40
0
40
0
40
0
40
0
40
0.109391365127682
40
0.109391365127682
40
0.164087047691524
40
0.164087047691524
40
0.218782730255365
40
0.218782730255365
40
0.273478412819206
40
0.273478412819206
40
0.328174095383047
40
0.328174095383047
40
0.382869777946889
40
0.382869777946889
40
0.43756546051073
40
0.43756546051073
40
0.492261143074571
40
0.492261143074571
40
0.546956825638413
40
0.546956825638413
40
0.656348190766095
40
0.656348190766095
40
0.711043873329936
40
0.711043873329936
40
0.765739555893778
40
0.765739555893778
40
0.820435238457619
40
0.820435238457619
40
0.87513092102146
40
0.87513092102146
40
0.929826603585303
40
0.929826603585303
40
0.984522286149145
40
0.984522286149145
40
1
40
1
40
1
40
1
41
1
10
9.21944876539752
20
-3.20689263176652
30
0
41
1
10
9.73870963686474
20
-3.35816766671047
30
0
41
1
10
10.2569997679871
20
-3.48929577746156
30
0
41
1
10
11.0333938103287
20
-3.66001652897177
30
0
41
1
10
11.2919500948057
20
-3.71240859182066
30
0
41
1
10
11.8099148156724
20
-3.8059894985449
30
0
41
1
10
12.0691795066443
20
-3.84747988822113
30
0
41
1
10
12.588166504826
20
-3.92089307235341
30
0
41
1
10
12.8478651195496
20
-3.95279405696405
30
0
41
1
10
13.3660485273395
20
-4.00520823584677
30
0
41
1
10
13.6250531205179
20
-4.0255745055467
30
0
41
1
10
14.142884684701
20
-4.05586902986559
30
0
41
1
10
14.4016920870995
20
-4.06596736331028
30
0
41
1
10
14.9191309413693
20
-4.07516682411929
30
0
41
1
10
15.1778107344377
20
-4.07400162271858
30
0
41
1
10
15.696237947877
20
-4.06056543275631
30
0
41
1
10
15.9560655764001
20
-4.04853282065977
30
0
41
1
10
16.4749679566055
20
-4.01405704480308
30
0
41
1
10
16.7338584299192
20
-3.99133903618201
30
0
41
1
10
17.5101325985981
20
-3.90656128004162
30
0
41
1
10
18.0276729740954
20
-3.83060567094986
30
0
41
1
10
18.8042097981463
20
-3.68264860719404
30
0
41
1
10
19.0632321241247
20
-3.62821427483436
30
0
41
1
10
19.5823397908372
20
-3.51110319020054
30
0
41
1
10
19.841741422912
20
-3.44833616518491
30
0
41
1
10
20.3596004000296
20
-3.31169698717906
30
0
41
1
10
20.6180842806844
20
-3.23844105022141
30
0
41
1
10
21.135200347749
20
-3.0845915271446
30
0
41
1
10
21.3938644100013
20
-3.00447189259899
30
0
41
1
10
21.9114251456015
20
-2.8348023356354
30
0
41
1
10
22.170373279643
20
-2.74529511738959
30
0
41
1
10
22.6885191422133
20
-2.55917082365295
30
0
41
1
10
22.9480362888703
20
-2.46281406895991
30
0
41
1
10
23.2804832430398
20
-2.33583917989486
30
0
41
1
10
23.3537856829855
20
-2.30753731105435
30
0
41
1
10
23.4270668529107
20
-2.27895971473697
30
0
0
SPLINE
5
E3
100
AcDbEntity
8
1
62
256
6
ByLayer
370
18
48
1
60
0
100
AcDbSpline
70
4
71
3
72
46
73
42
40
0
40
0
40
0
40
0
40
0.0276868344348067
40
0.0276868344348067
40
0.073987461366482
40
0.073987461366482
40
0.120288088298158
40
0.120288088298158
40
0.166588715229833
40
0.166588715229833
40
0.212889342161509
40
0.212889342161509
40
0.259189969093184
40
0.259189969093184
40
0.30549059602486
40
0.30549059602486
40
0.351791222956535
40
0.351791222956535
40
0.398091849888211
40
0.398091849888211
40
0.444392476819886
40
0.444392476819886
40
0.536993730683237
40
0.536993730683237
40
0.629594984546588
40
0.629594984546588
40
0.675895611478264
40
0.675895611478264
40
0.722196238409941
40
0.722196238409941
40
0.768496865341618
40
0.768496865341618
40
0.814797492273294
40
0.814797492273294
40
0.861098119204971
40
0.861098119204971
40
0.907398746136647
40
0.907398746136647
40
0.953699373068324
40
0.953699373068324
40
1
40
1
40
1
40
1
41
1
10
42.1549975286735
20
4.10382905094579
30
0
41
1
10
42.309788440959
20
4.10408711676291
30
0
41
1
10
42.4646863106185
20
4.10253950221934
30
0
41
1
10
42.8789010792316
20
4.09292353610829
30
0
41
1
10
43.1384787240646
20
4.0807707808346
30
0
41
1
10
43.6561242626501
20
4.0452701015698
30
0
41
1
10
43.9147004996724
20
4.02212442859567
30
0
41
1
10
44.4319641179689
20
3.96680054008215
30
0
41
1
10
44.6905420841983
20
3.9335423580529
30
0
41
1
10
45.2076845725162
20
3.85573983581517
30
0
41
1
10
45.466137012441
20
3.81114786919866
30
0
41
1
10
45.983862054395
20
3.71342949985396
30
0
41
1
10
46.2434091809691
20
3.6600126644266
30
0
41
1
10
46.7617148363339
20
3.54194709543728
30
0
41
1
10
47.0204524737392
20
3.47775929445569
30
0
41
1
10
47.5373169631537
20
3.34042411007081
30
0
41
1
10
47.7956822702409
20
3.26774639032939
30
0
41
1
10
48.3127262088858
20
3.11361396076873
30
0
41
1
10
48.5713396219871
20
3.03212115155267
30
0
41
1
10
49.0886957315396
20
2.86123139247175
30
0
41
1
10
49.3472977582116
20
2.77193952460291
30
0
41
1
10
50.1248895409268
20
2.49324058650225
30
0
41
1
10
50.6419171635085
20
2.29240330034062
30
0
41
1
10
51.6746024648017
20
1.86736261677342
30
0
41
1
10
52.1916455185666
20
1.64572429086508
30
0
41
1
10
52.968089028447
20
1.2997992977088
30
0
41
1
10
53.2269757807267
20
1.18186378283363
30
0
41
1
10
53.7441268329957
20
0.944478452582587
30
0
41
1
10
54.0025379743242
20
0.824667996989973
30
0
41
1
10
54.5190447534249
20
0.582970005175156
30
0
41
1
10
54.7770708330338
20
0.460926723711651
30
0
41
1
10
55.293210974165
20
0.215518738958593
30
0
41
1
10
55.551602509735
20
0.0927364644312263
30
0
41
1
10
56.0690004657557
20
-0.152918768195036
30
0
41
1
10
56.3282133761485
20
-0.275970437149368
30
0
41
1
10
56.8455427651103
20
-0.52143938688269
30
0
41
1
10
57.1037406288493
20
-0.643859149638757
30
0
41
1
10
57.6204744698319
20
-0.885521659241903
30
0
41
1
10
57.8788326271574
20
-1.00523796342074
30
0
41
1
10
58.3955311685839
20
-1.24217477935926
30
0
41
1
10
58.6538488608344
20
-1.3592368814989
30
0
41
1
10
58.9124707981601
20
-1.47446396783687
30
0
0
SPLINE
5
E4
100
AcDbEntity
8
1
62
256
6
ByLayer
370
18
48
1
60
0
100
AcDbSpline
70
4
71
3
72
18
73
14
40
0
40
0
40
0
40
0
40
0.0545894188030318
40
0.0545894188030318
40
0.339652181752809
40
0.339652181752809
40
0.624714944702586
40
0.624714944702586
40
0.767246326177472
40
0.767246326177472
40
0.909777707652357
40
0.909777707652357
40
1
40
1
40
1
40
1
41
1
10
60.1262047107857
20
-4.12628543762452
30
0
41
1
10
60.0121754489224
20
-4.12608446951705
30
0
41
1
10
59.8982208234537
20
-4.1248096046067
30
0
41
1
10
59.1895758359721
20
-4.11023584740991
30
0
41
1
10
58.596383268651
20
-4.06887803591704
30
0
41
1
10
57.4087425782188
20
-3.92964308539732
30
0
41
1
10
56.8142657975396
20
-3.83167353247884
30
0
41
1
10
55.9179609799958
20
-3.64415983375665
30
0
41
1
10
55.6184443799975
20
-3.57487734543994
30
0
41
1
10
55.0173367028415
20
-3.42318135991888
30
0
41
1
10
54.7170823880965
20
-3.34109676084279
30
0
41
1
10
54.2287138433519
20
-3.1981401932199
30
0
41
1
10
54.0397392919505
20
-3.14048305419175
30
0
41
1
10
53.8510224526511
20
-3.08071246025943
30
0
0
SPLINE
5
E5
100
AcDbEntity
8
1
62
256
6
ByLayer
370
13
48
1
60
0
100
AcDbSpline
70
4
71
3
72
20
73
16
40
0
40
0
40
0
40
0
40
0.241861457514353
40
0.241861457514353
40
0.385527285353298
40
0.385527285353298
40
0.45736019927277
40
0.45736019927277
40
0.529193113192243
40
0.529193113192243
40
0.816524768870124
40
0.816524768870124
40
0.960190596709063
40
0.960190596709063
40
1
40
1
40
1
40
1
41
1
10
53.8510224526197
20
-3.08071246024946
30
0
41
1
10
52.84721486751
20
-2.76278547620959
30
0
41
1
10
51.8506987416128
20
-2.38506242471382
30
0
41
1
10
50.2561210872023
20
-1.71870744180572
30
0
41
1
10
49.6606123120197
20
-1.45604738375405
30
0
41
1
10
48.762069119181
20
-1.0467621768276
30
0
41
1
10
48.460926250512
20
-0.907505279297652
30
0
41
1
10
47.8605160334035
20
-0.627214599580157
30
0
41
1
10
47.561281786095
20
-0.486205424511183
30
0
41
1
10
46.0686167683847
20
0.220300252386295
30
0
41
1
10
44.8853431618285
20
0.78920403929061
30
0
41
1
10
43.0996946244411
20
1.59039022551744
30
0
41
1
10
42.5026318817958
20
1.84867466690048
30
0
41
1
10
41.7349167396443
20
2.16129817516779
30
0
41
1
10
41.568261600277
20
2.22799921379769
30
0
41
1
10
41.4018083535723
20
2.29334085718659
30
0
0
SPLINE
5
E6
100
AcDbEntity
8
1
62
256
6
ByLayer
370
18
48
1
60
0
100
AcDbSpline
70
4
71
3
72
10
73
6
40
0
40
0
40
0
40
0
40
0.381925473661849
40
0.381925473661849
40
1
40
1
40
1
40
1
41
1
10
5.71327958811219
20
-4.06117940152308
30
0
41
1
10
5.52705819708754
20
-4.06074546769884
30
0
41
1
10
5.34066041093715
20
-4.0574953501532
30
0
41
1
10
4.85314323202417
20
-4.04157148678794
30
0
41
1
10
4.55190206224637
20
-4.02433216894019
30
0
41
1
10
4.25047981670988
20
-3.99965207029965
30
0
0
SPLINE
5
E7
100
AcDbEntity
8
1
62
256
6
ByLayer
370
18
48
1
60
0
100
AcDbSpline
70
4
71
3
72
68
73
64
40
0
40
0
40
0
40
0
40
0.0625000000000045
40
0.0625000000000045
40
0.125000000000009
40
0.125000000000009
40
0.250000000000018
40
0.250000000000018
40
0.375000000000027
40
0.375000000000027
40
0.500000000000036
40
0.500000000000036
40
0.56250000000004
40
0.56250000000004
40
0.625000000000044
40
0.625000000000044
40
0.687500000000048
40
0.687500000000048
40
0.71875000000005
40
0.71875000000005
40
0.73437500000005
40
0.73437500000005
40
0.73828125000005
40
0.73828125000005
40
0.74023437500005
40
0.74023437500005
40
0.74218750000005
40
0.74218750000005
40
0.744140625000049
40
0.744140625000049
40
0.746093750000049
40
0.746093750000049
40
0.750000000000049
40
0.750000000000049
40
0.781250000000041
40
0.781250000000041
40
0.796875000000037
40
0.796875000000037
40
0.812500000000034
40
0.812500000000034
40
0.820312500000032
40
0.820312500000032
40
0.828125000000031
40
0.828125000000031
40
0.843750000000028
40
0.843750000000028
40
0.851562500000026
40
0.851562500000026
40
0.859375000000025
40
0.859375000000025
40
0.875000000000022
40
0.875000000000022
40
0.89062500000002
40
0.89062500000002
40
0.906250000000017
40
0.906250000000017
40
0.937500000000012
40
0.937500000000012
40
0.953125000000009
40
0.953125000000009
40
0.968750000000006
40
0.968750000000006
40
1
40
1
40
1
40
1
41
1
10
19.2552276967615
20
-0.35513159979439
30
0
41
1
10
18.8404248810504
20
-0.151042681255831
30
0
41
1
10
18.4216725934629
20
0.0441885705980951
30
0
41
1
10
17.5766037171342
20
0.417759238189717
30
0
41
1
10
17.1499405560372
20
0.596187512543253
30
0
41
1
10
15.8602051430842
20
1.10436530594259
30
0
41
1
10
14.9955621172635
20
1.4037652734138
30
0
41
1
10
13.2513199499027
20
1.9220374851985
30
0
41
1
10
12.3716768684154
20
2.14070777321945
30
0
41
1
10
10.5934234621367
20
2.49925825737367
30
0
41
1
10
9.69482731944493
20
2.63928122577255
30
0
41
1
10
8.331183982835
20
2.79538448907638
30
0
41
1
10
7.87402505644124
20
2.83845252949482
30
0
41
1
10
6.9543123608174
20
2.90735078551631
30
0
41
1
10
6.49224825108337
20
2.93312708994947
30
0
41
1
10
5.56841652914829
20
2.96761691321711
30
0
41
1
10
5.10597979586461
20
2.97639765221351
30
0
41
1
10
4.41151056974101
20
2.97669441917637
30
0
41
1
10
4.17995881906955
20
2.97463832741656
30
0
41
1
10
3.83279227488873
20
2.96822691278766
30
0
41
1
10
3.71707805059515
20
2.96553438127293
30
0
41
1
10
3.57247591087781
20
2.96145996685001
30
0
41
1
10
3.5435576095098
20
2.96060963815538
30
0
41
1
10
3.50018335944719
20
2.95928065203614
30
0
41
1
10
3.48571222829412
20
2.9590535416489
30
0
41
1
10
3.45684583410258
20
2.95734341565731
30
0
41
1
10
3.44246353857994
20
2.95578451408508
30
0
41
1
10
3.41472117376446
20
2.95096156164269
30
0
41
1
10
3.40124119928049
20
2.94773653897588
30
0
41
1
10
3.3756580463471
20
2.938401668777
30
0
41
1
10
3.36330792284795
20
2.93279524179701
30
0
41
1
10
3.3257982334718
20
2.91699031788451
30
0
41
1
10
3.30090598651964
20
2.90627084226901
30
0
41
1
10
3.07795664210323
20
2.8080526861595
30
0
41
1
10
2.88684038516422
20
2.70847689639922
30
0
41
1
10
2.62427132488364
20
2.53230329015494
30
0
41
1
10
2.54060545739085
20
2.46897252562093
30
0
41
1
10
2.3837035069237
20
2.32956475162092
30
0
41
1
10
2.31014324681405
20
2.25291406139047
30
0
41
1
10
2.21464316840323
20
2.1287996805207
30
0
41
1
10
2.18514170874082
20
2.08578680437771
30
0
41
1
10
2.13151886187751
20
1.99593201879227
30
0
41
1
10
2.10725400819931
20
1.94872281159678
30
0
41
1
10
2.04520566287391
20
1.80343124499433
30
0
41
1
10
2.01802139320605
20
1.70204773251913
30
0
41
1
10
2.00059527814605
20
1.54228658672295
30
0
41
1
10
1.99875001924829
20
1.48733512164563
30
0
41
1
10
2.00299676322479
20
1.37828568569949
30
0
41
1
10
2.00899354346487
20
1.32387678822425
30
0
41
1
10
2.03759345116373
20
1.16092734530386
30
0
41
1
10
2.07133265840704
20
1.05184901918454
30
0
41
1
10
2.1581237769372
20
0.8436327032137
30
0
41
1
10
2.21124374246102
20
0.743199380871317
30
0
41
1
10
2.33194585191248
20
0.547715104146135
30
0
41
1
10
2.39917535367684
20
0.453422391240054
30
0
41
1
10
2.6121450171095
20
0.183040275091059
30
0
41
1
10
2.7704712554164
20
0.0166405674533507
30
0
41
1
10
3.02263678562719
20
-0.220575765155445
30
0
41
1
10
3.10912030348078
20
-0.297367394880467
30
0
41
1
10
3.28409913236726
20
-0.445670951645383
30
0
41
1
10
3.37288270289221
20
-0.517448643178767
30
0
41
1
10
3.64237940806135
20
-0.726952342801781
30
0
41
1
10
3.82619936943382
20
-0.858917413844637
30
0
41
1
10
4.01300449872176
20
-0.985239090945214
30
0
0
SPLINE
5
E8
100
AcDbEntity
8
1
62
256
6
ByLayer
370
18
48
1
60
0
100
AcDbSpline
70
4
71
3
72
38
73
34
40
0
40
0
40
0
40
0
40
0.102644339137216
40
0.102644339137216
40
0.153966508705825
40
0.153966508705825
40
0.205288678274434
40
0.205288678274434
40
0.256610847843042
40
0.256610847843042
40
0.307933017411651
40
0.307933017411651
40
0.410577356548871
40
0.410577356548871
40
0.461899526117481
40
0.461899526117481
40
0.513221695686091
40
0.513221695686091
40
0.564543865254701
40
0.564543865254701
40
0.615866034823311
40
0.615866034823311
40
0.718510373960531
40
0.718510373960531
40
0.769832543529141
40
0.769832543529141
40
0.821154713097751
40
0.821154713097751
40
0.872476882666361
40
0.872476882666361
40
0.923799052234972
40
0.923799052234972
40
1
40
1
40
1
40
1
41
1
10
19.255015242905
20
-0.355012594358357
30
0
41
1
10
19.6964528510527
20
-0.572906301719939
30
0
41
1
10
20.1383846063823
20
-0.785258970078161
30
0
41
1
10
20.7999570310194
20
-1.09995937506062
30
0
41
1
10
21.0201030129839
20
-1.2045155595882
30
0
41
1
10
21.4603788793231
20
-1.41142839307849
30
0
41
1
10
21.6808920823493
20
-1.51304208582727
30
0
41
1
10
22.1225207179693
20
-1.71291634968389
30
0
41
1
10
22.3436652931606
20
-1.81126051570197
30
0
41
1
10
22.7859766202886
20
-2.00509699820245
30
0
41
1
10
23.0064601380529
20
-2.10071337460263
30
0
41
1
10
23.6675004310998
20
-2.38065249540762
30
0
41
1
10
24.1088950771049
20
-2.55605749552601
30
0
41
1
10
24.770123262677
20
-2.80580456409231
30
0
41
1
10
24.9901724720498
20
-2.88711291281476
30
0
41
1
10
25.4310543656167
20
-3.04346467682538
30
0
41
1
10
25.6521592702547
20
-3.1183303843612
30
0
41
1
10
26.0945485129953
20
-3.26195365644691
30
0
41
1
10
26.3154872217083
20
-3.33054898119101
30
0
41
1
10
26.7565527761552
20
-3.46166336231369
30
0
41
1
10
26.9764454551337
20
-3.52442394392
30
0
41
1
10
27.6370239379177
20
-3.7009643932183
30
0
41
1
10
28.078411455851
20
-3.80356569560865
30
0
41
1
10
28.7400839907912
20
-3.93666200196995
30
0
41
1
10
28.9605456379114
20
-3.97764101584195
30
0
41
1
10
29.4023158870322
20
-4.05105914279193
30
0
41
1
10
29.6231765260108
20
-4.08363519405677
30
0
41
1
10
30.0645206263912
20
-4.14088565513893
30
0
41
1
10
30.2850224040358
20
-4.16555009158088
30
0
41
1
10
30.7253425082484
20
-4.20699498586433
30
0
41
1
10
30.9450850224375
20
-4.22374555223635
30
0
41
1
10
31.4924862120695
20
-4.25479947237625
30
0
41
1
10
31.8205185830046
20
-4.26432026877666
30
0
41
1
10
32.1484225922337
20
-4.26470946537222
30
0
0
SPLINE
5
E9
100
AcDbEntity
8
1
62
256
6
ByLayer
370
18
48
1
60
0
100
AcDbSpline
70
4
71
3
72
34
73
30
40
0
40
0
40
0
40
0
40
0.0333494171209232
40
0.0333494171209232
40
0.0937650785508651
40
0.0937650785508651
40
0.154180739980807
40
0.154180739980807
40
0.275012062840691
40
0.275012062840691
40
0.335427724270633
40
0.335427724270633
40
0.395843385700575
40
0.395843385700575
40
0.456259047130517
40
0.456259047130517
40
0.516674708560458
40
0.516674708560458
40
0.637506031420342
40
0.637506031420342
40
0.697921692850284
40
0.697921692850284
40
0.758337354280226
40
0.758337354280226
40
0.879168677140113
40
0.879168677140113
40
0.939584338570057
40
0.939584338570057
40
1
40
1
40
1
40
1
41
1
10
50.6355288308578
20
2.28352020319625
30
0
41
1
10
50.7570660014741
20
2.33430520920484
30
0
41
1
10
50.8786603455752
20
2.38436251572506
30
0
41
1
10
51.2206170156759
20
2.52320264966906
30
0
41
1
10
51.4410635353924
20
2.61041415583278
30
0
41
1
10
51.8818508572894
20
2.78079184224697
30
0
41
1
10
52.1022562103548
20
2.86403400634364
30
0
41
1
10
52.763625377357
20
3.1025082286547
30
0
41
1
10
53.204489120231
20
3.24858729252529
30
0
41
1
10
53.8638737072869
20
3.45075927558889
30
0
41
1
10
54.0834535365948
20
3.51512471759253
30
0
41
1
10
54.5237921711923
20
3.63596127654287
30
0
41
1
10
54.7442869079453
20
3.6927682853318
30
0
41
1
10
55.1856623346761
20
3.79945157987703
30
0
41
1
10
55.4065880818214
20
3.84933115501895
30
0
41
1
10
55.8468602321589
20
3.9419161204803
30
0
41
1
10
56.066693661136
20
3.98439180890316
30
0
41
1
10
56.7270362716081
20
4.09926209177706
30
0
41
1
10
57.167483211703
20
4.16002615220566
30
0
41
1
10
57.8269448025189
20
4.22778307305541
30
0
41
1
10
58.046980844334
20
4.24623657817094
30
0
41
1
10
58.4882159982964
20
4.27475634563953
30
0
41
1
10
58.7092105529032
20
4.28488214465963
30
0
41
1
10
59.3709868030008
20
4.30287045538546
30
0
41
1
10
59.8103933024763
20
4.29815969134728
30
0
41
1
10
60.4722020792072
20
4.2662570565258
30
0
41
1
10
60.6931814959388
20
4.25151088956343
30
0
41
1
10
61.1344004787465
20
4.21378386575236
30
0
41
1
10
61.3545966718183
20
4.19074405452676
30
0
41
1
10
61.5746029996421
20
4.16353928147612
30
0
0
SPLINE
5
EA
100
AcDbEntity
8
1
62
256
6
ByLayer
370
18
48
1
60
0
100
AcDbSpline
70
4
71
3
72
20
73
16
40
0
40
0
40
0
40
0
40
0.25
40
0.25
40
0.375
40
0.375
40
0.5
40
0.5
40
0.625
40
0.625
40
0.75
40
0.75
40
0.875
40
0.875
40
1
40
1
40
1
40
1
41
1
10
61.5746029996421
20
4.16353928147612
30
0
41
1
10
61.6572477787961
20
3.95786893630537
30
0
41
1
10
61.7408783029315
20
3.74468822654927
30
0
41
1
10
61.8670039115482
20
3.4197376131726
30
0
41
1
10
61.9090348741934
20
3.31038141951544
30
0
41
1
10
61.992554958422
20
3.09118977055655
30
0
41
1
10
62.0341344655336
20
2.98114282643513
30
0
41
1
10
62.1171104408709
20
2.76059156186378
30
0
41
1
10
62.1584533748268
20
2.64995347034272
30
0
41
1
10
62.2407527667008
20
2.42771156359541
30
0
41
1
10
62.2817239665484
20
2.31614458540233
30
0
41
1
10
62.3634380793514
20
2.09244018727591
30
0
41
1
10
62.4042121222711
20
1.98038055468626
30
0
41
1
10
62.4853776271815
20
1.75530529887351
30
0
41
1
10
62.5258171165686
20
1.64223221681328
30
0
41
1
10
62.5657820755019
20
1.52972369218381
30
0
0
SPLINE
5
EB
100
AcDbEntity
8
1
62
256
6
ByLayer
370
18
48
1
60
0
100
AcDbSpline
70
4
71
3
72
79
73
75
40
0
40
0
40
0
40
0
40
0.0340521149611427
40
0.0340521149611427
40
0.105325882812575
40
0.105325882812575
40
0.176599650664007
40
0.176599650664007
40
0.247873418515439
40
0.247873418515439
40
0.319147186366871
40
0.319147186366871
40
0.354784070292588
40
0.354784070292588
40
0.390420954218304
40
0.390420954218304
40
0.461694722069736
40
0.461694722069736
40
0.497331605995452
40
0.497331605995452
40
0.506240826976881
40
0.506240826976881
40
0.508468132222238
40
0.509024958533578
40
0.509303371689247
40
0.509303371689247
40
0.509442578267082
40
0.509442578267082
40
0.509581784844917
40
0.509581784844917
40
0.510695437467596
40
0.510695437467596
40
0.51515004795831
40
0.51515004795831
40
0.532968489921169
40
0.532968489921169
40
0.568605373846887
40
0.568605373846887
40
0.604242257772605
40
0.604242257772605
40
0.67551602562404
40
0.67551602562404
40
0.693334467586899
40
0.693334467586899
40
0.711152909549758
40
0.711152909549758
40
0.720062130531187
40
0.720062130531187
40
0.721175783153866
40
0.721175783153866
40
0.722289435776544
40
0.722289435776544
40
0.722567848932214
40
0.722567848932214
40
0.722707055510049
40
0.722707055510049
40
0.722846262087884
40
0.723403088399223
40
0.724516741021902
40
0.728971351512617
40
0.728971351512617
40
0.746789793475478
40
0.746789793475478
40
0.7824266774012
40
0.7824266774012
40
0.818063561326922
40
0.818063561326922
40
0.889337329178365
40
0.889337329178365
40
0.924974213104086
40
0.924974213104086
40
0.960611097029808
40
0.960611097029808
40
1
40
1
40
1
40
1
41
1
10
19.2551188581546
20
-0.355047312988944
30
0
41
1
10
19.0580682053784
20
-0.289020486913273
30
0
41
1
10
18.8607141052877
20
-0.226043774106501
30
0
41
1
10
18.2490486811198
20
-0.0416362016741232
30
0
41
1
10
17.833186124658
20
0.0684715619165388
30
0
41
1
10
16.9962397810751
20
0.253175177286408
30
0
41
1
10
16.5794194221175
20
0.326790215930117
30
0
41
1
10
15.7466966428654
20
0.433707547868067
30
0
41
1
10
15.3307855979457
20
0.467006651536877
30
0
41
1
10
14.4969156604456
20
0.491992466753345
30
0
41
1
10
14.0789496670323
20
0.483682363126803
30
0
41
1
10
13.4480036104673
20
0.440193539957306
30
0
41
1
10
13.2370202973
20
0.420538281687215
30
0
41
1
10
12.8132932947276
20
0.371075155871097
30
0
41
1
10
12.6003171116568
20
0.341211783390463
30
0
41
1
10
11.9630864324251
20
0.23768884798892
30
0
41
1
10
11.539001648765
20
0.149945369653381
30
0
41
1
10
10.9014690676229
20
-0.0057365966526675
30
0
41
1
10
10.6887247472404
20
-0.0616366300446032
30
0
41
1
10
10.4222444549168
20
-0.136059804170003
30
0
41
1
10
10.3689176042394
20
-0.151172765769161
30
0
41
1
10
10.3022689235284
20
-0.170326525189893
30
0
41
1
10
10.2856066365342
20
-0.17513157674901
30
0
41
1
10
10.2672778712287
20
-0.18043979482016
30
0
41
1
10
10.2622791024415
20
-0.181889338872082
30
0
41
1
10
10.2597797178895
20
-0.182614417920519
30
0
41
1
10
10.2595685819015
20
-0.183489070031612
30
0
41
1
10
10.2603525365489
20
-0.184864321883026
30
0
41
1
10
10.2609094756469
20
-0.185461183161863
30
0
41
1
10
10.2660990991657
20
-0.190680210958988
30
0
41
1
10
10.2718927114466
20
-0.194229761293371
30
0
41
1
10
10.299897898311
20
-0.212620244880526
30
0
41
1
10
10.3234850937734
20
-0.225915527125949
30
0
41
1
10
10.4410848552088
20
-0.292560072890296
30
0
41
1
10
10.5371140155997
20
-0.343306240235819
30
0
41
1
10
10.8251158356502
20
-0.495780013648101
30
0
41
1
10
11.0182977070916
20
-0.596116993947959
30
0
41
1
10
11.405167496114
20
-0.796780057105252
30
0
41
1
10
11.5989501155291
20
-0.896941100444735
30
0
41
1
10
12.1808413864461
20
-1.1976678123105
30
0
41
1
10
12.5687869974172
20
-1.39970558519889
30
0
41
1
10
13.0519118892884
20
-1.65768157128858
30
0
41
1
10
13.1484454898598
20
-1.70955477664671
30
0
41
1
10
13.3411354757028
20
-1.81425806508977
30
0
41
1
10
13.4373572721108
20
-1.86695333095741
30
0
41
1
10
13.5807062048522
20
-1.94815847775717
30
0
41
1
10
13.6285377536977
20
-1.97514920816948
30
0
41
1
10
13.6809845318333
20
-2.00834969242516
30
0
41
1
10
13.6867857266404
20
-2.01209303620513
30
0
41
1
10
13.6982531604448
20
-2.01985856958876
30
0
41
1
10
13.7040682029934
20
-2.02371931229666
30
0
41
1
10
13.7105097430079
20
-2.02962270833325
30
0
41
1
10
13.7120769920626
20
-2.03077523305907
30
0
41
1
10
13.7126942496292
20
-2.0333486100337
30
0
41
1
10
13.7116581449428
20
-2.03379363538895
30
0
41
1
10
13.7101844984286
20
-2.03462564150678
30
0
41
1
10
13.706500352655
20
-2.03670530152232
30
0
41
1
10
13.6969211971575
20
-2.04210778950682
30
0
41
1
10
13.6644965492916
20
-2.06035526614704
30
0
41
1
10
13.6350094534116
20
-2.07682880763255
30
0
41
1
10
13.5170367036241
20
-2.14233631042691
30
0
41
1
10
13.4225293536821
20
-2.19353211140538
30
0
41
1
10
13.1389076292855
20
-2.34281099978855
30
0
41
1
10
12.9496727713463
20
-2.4366052038329
30
0
41
1
10
12.5693661386641
20
-2.61084682129385
30
0
41
1
10
12.3782933305088
20
-2.691223986225
30
0
41
1
10
11.8070517635935
20
-2.9072206519717
30
0
41
1
10
11.4264689780187
20
-3.0186005401205
30
0
41
1
10
10.8485163173319
20
-3.13337766997708
30
0
41
1
10
10.6547047707516
20
-3.16297208700993
30
0
41
1
10
10.2638344598952
20
-3.20497009065571
30
0
41
1
10
10.0661518950565
20
-3.21733555914838
30
0
41
1
10
9.65242509964662
20
-3.22603487708426
30
0
41
1
10
9.43581376953853
20
-3.22071165983752
30
0
41
1
10
9.21943023365145
20
-3.20689144818223
30
0
0
SPLINE
5
EC
100
AcDbEntity
8
1
62
256
6
ByLayer
370
13
48
1
60
0
100
AcDbSpline
70
4
71
3
72
12
73
8
40
0
40
0
40
0
40
0
40
0.282726099296927
40
0.282726099296927
40
0.565452198593855
40
0.565452198593855
40
1
40
1
40
1
40
1
41
1
10
4.20698468864202
20
-4.11162928164381
30
0
41
1
10
4.5086599566296
20
-4.13377706977241
30
0
41
1
10
4.81014581589056
20
-4.14828348075099
30
0
41
1
10
5.41328049575895
20
-4.16212929906123
30
0
41
1
10
5.71539341941724
20
-4.16144442688673
30
0
41
1
10
6.47900404662556
20
-4.14065020012529
30
0
41
1
10
6.9392299364813
20
-4.11042303812545
30
0
41
1
10
7.39814473181053
20
-4.06316743036282
30
0
0
SPLINE
5
ED
100
AcDbEntity
8
1
62
256
6
ByLayer
370
18
48
1
60
0
100
AcDbSpline
70
4
71
3
72
16
73
12
40
0
40
0
40
0
40
0
40
0.122757884596925
40
0.122757884596925
40
0.240793717626249
40
0.240793717626249
40
0.358829550655574
40
0.358829550655574
40
0.594901216714219
40
0.594901216714219
40
1
40
1
40
1
40
1
41
1
10
46.3086786563988
20
-0.0009271902816295
30
0
41
1
10
46.6181160085483
20
-0.151340513716605
30
0
41
1
10
46.9279953999593
20
-0.302009395270204
30
0
41
1
10
47.5373493726445
20
-0.596696934639084
30
0
41
1
10
47.8367840279636
20
-0.740701678624589
30
0
41
1
10
48.437696779388
20
-1.02660190737359
30
0
41
1
10
48.7390287617692
20
-1.16842742048212
30
0
41
1
10
49.6379440023864
20
-1.58466777378331
30
0
41
1
10
50.2335941217991
20
-1.8509463657202
30
0
41
1
10
51.8478638790102
20
-2.53254040881987
30
0
41
1
10
52.8636535956487
20
-2.91851639114054
30
0
41
1
10
53.8876686663129
20
-3.23906040449765
30
0
0
SPLINE
5
EE
100
AcDbEntity
8
1
62
256
6
ByLayer
370
13
48
1
60
0
100
AcDbSpline
70
4
71
3
72
20
73
16
40
0
40
0
40
0
40
0
40
0.0662933645892563
40
0.0662933645892563
40
0.183006694015599
40
0.183006694015599
40
0.299720023441942
40
0.299720023441942
40
0.533146682294626
40
0.533146682294626
40
0.766573341147311
40
0.766573341147311
40
0.883286670573655
40
0.883286670573655
40
1
40
1
40
1
40
1
41
1
10
53.8876686663392
20
-3.23906040450583
30
0
41
1
10
54.0571449304962
20
-3.29211099276157
30
0
41
1
10
54.2268464938622
20
-3.3433693455944
30
0
41
1
10
54.6960940411814
20
-3.47966353442285
30
0
41
1
10
54.9966846008518
20
-3.56090442643071
30
0
41
1
10
55.5981189186074
20
-3.71029873127097
30
0
41
1
10
55.8977566955219
20
-3.7781686043613
30
0
41
1
10
56.794321108327
20
-3.96072282438897
30
0
41
1
10
57.3888555830017
20
-4.05442580443511
30
0
41
1
10
58.5765554073756
20
-4.18345578053535
30
0
41
1
10
59.1697853367213
20
-4.21884848195467
30
0
41
1
10
60.0620455482983
20
-4.22715306519351
30
0
41
1
10
60.3598894415385
20
-4.22245387921896
30
0
41
1
10
60.9569564089387
20
-4.19790598108804
30
0
41
1
10
61.2562361876965
20
-4.17765112808399
30
0
41
1
10
61.5563670478632
20
-4.15057978168423
30
0
0
SPLINE
5
EF
100
AcDbEntity
8
1
62
256
6
ByLayer
370
18
48
1
60
0
100
AcDbSpline
70
4
71
3
72
8
73
4
40
0
40
0
40
0
40
0
40
1
40
1
40
1
40
1
41
1
10
61.4878114400015
20
-4.12594037297711
30
0
41
1
10
61.5076163196541
20
-4.13426380172717
30
0
41
1
10
61.5369499812866
20
-4.11570600803808
30
0
41
1
10
61.5755662159852
20
-4.07096156091055
30
0
0
SPLINE
5
F0
100
AcDbEntity
8
1
62
256
6
ByLayer
370
18
48
1
60
0
100
AcDbSpline
70
4
71
3
72
14
73
10
40
0
40
0
40
0
40
0
40
0.25
40
0.25
40
0.5
40
0.5
40
0.75
40
0.75
40
1
40
1
40
1
40
1
41
1
10
4.25144526396673
20
-0.963118160728897
30
0
41
1
10
4.22842873991169
20
-0.94738628682407
30
0
41
1
10
4.20439898440793
20
-0.934233759860831
30
0
41
1
10
4.15474687556627
20
-0.916289682209538
30
0
41
1
10
4.12951424876047
20
-0.911970978965257
30
0
41
1
10
4.08407495028072
20
-0.915706238560205
30
0
41
1
10
4.0637565244447
20
-0.923838049486278
30
0
41
1
10
4.03210802537424
20
-0.94931394427266
30
0
41
1
10
4.02074153986092
20
-0.966116799032932
30
0
41
1
10
4.01300449871599
20
-0.98523909095664
30
0
0
SPLINE
5
F1
100
AcDbEntity
8
1
62
256
6
ByLayer
370
18
48
1
60
0
100
AcDbSpline
70
4
71
3
72
16
73
12
40
0
40
0
40
0
40
0
40
0.0505106213848897
40
0.0505106213848897
40
0.17766556675215
40
0.17766556675215
40
0.431975457486669
40
0.431975457486669
40
0.940595238955712
40
0.940595238955712
40
1
40
1
40
1
40
1
41
1
10
19.1058250002292
20
0.0004001776596283
30
0
41
1
10
19.2254648427919
20
-0.0573034393061107
30
0
41
1
10
19.3451414624673
20
-0.115037703142036
30
0
41
1
10
19.7657253223907
20
-0.317815569143846
30
0
41
1
10
20.0656960461786
20
-0.462110565057543
30
0
41
1
10
20.9633589819243
20
-0.89069557176407
30
0
41
1
10
21.5586774317657
20
-1.1709193435278
30
0
41
1
10
23.3428805200221
20
-1.97996181126698
30
0
41
1
10
24.5294442293903
20
-2.47803469321252
30
0
41
1
10
25.8727296156292
20
-2.94724392268461
30
0
41
1
10
26.013454179312
20
-2.99526191450701
30
0
41
1
10
26.1541367640486
20
-3.04207492990216
30
0
0
SPLINE
5
F2
100
AcDbEntity
8
1
62
256
6
ByLayer
370
13
48
1
60
0
100
AcDbSpline
70
4
71
3
72
18
73
14
40
0
40
0
40
0
40
0
40
0.0584880063033721
40
0.0584880063033721
40
0.168259720996129
40
0.168259720996129
40
0.387803150381637
40
0.387803150381637
40
0.607346579767146
40
0.607346579767146
40
0.826890009152655
40
0.826890009152655
40
1
40
1
40
1
40
1
41
1
10
26.1541377127223
20
-3.04207524557927
30
0
41
1
10
26.3145836446874
20
-3.09546463303013
30
0
41
1
10
26.4749749738569
20
-3.14728670862723
30
0
41
1
10
26.9350237050093
20
-3.29121027526557
30
0
41
1
10
27.2342754899701
20
-3.37904055806621
30
0
41
1
10
28.1300627940572
20
-3.62352762958295
30
0
41
1
10
28.7246060728162
20
-3.76125864967219
30
0
41
1
10
29.9135029471038
20
-3.98191159474629
30
0
41
1
10
30.507712404059
20
-4.0649000819659
30
0
41
1
10
31.7005585860012
20
-4.17259352846293
30
0
41
1
10
32.2996111984282
20
-4.19730679793392
30
0
41
1
10
33.3773726518733
20
-4.18688062802119
30
0
41
1
10
33.851633246993
20
-4.16332310788872
30
0
41
1
10
34.3262717636265
20
-4.12115248729256
30
0
0
SPLINE
5
F3
100
AcDbEntity
8
1
62
256
6
ByLayer
370
18
48
1
60
0
100
AcDbSpline
70
4
71
3
72
14
73
10
40
0
40
0
40
0
40
0
40
0.16722222455332
40
0.42426279362057
40
0.650016319787792
40
0.707896264660885
40
0.789363152581494
40
0.927770299216713
40
1
40
1
40
1
40
1
41
1
10
28.3950969204926
20
0.0928317048231975
30
0
41
1
10
28.3932858858186
20
0.0933722592547497
30
0
41
1
10
28.377876198454
20
0.0984403064968546
30
0
41
1
10
28.3035615544793
20
0.126835400781488
30
0
41
1
10
28.2193582409077
20
0.162924281682649
30
0
41
1
10
28.1319086158281
20
0.201609452436145
30
0
41
1
10
28.0542916708229
20
0.236544511113408
30
0
41
1
10
27.966342032594
20
0.27678176874457
30
0
41
1
10
27.9002850662164
20
0.308033808173548
30
0
41
1
10
27.8772426759339
20
0.319021855908716
30
0
0
SPLINE
5
F4
100
AcDbEntity
8
1
62
256
6
ByLayer
370
18
48
1
60
0
100
AcDbSpline
70
4
71
3
72
27
73
23
40
0
40
0
40
0
40
0
40
0.0055779107374928
40
0.0169043567790416
40
0.0443458853281208
40
0.0845541393213831
40
0.148377001920543
40
0.19121820352064
40
0.228640147661899
40
0.288515933722876
40
0.380711368605632
40
0.453102930769869
40
0.541121949861024
40
0.613900972147559
40
0.695847721492052
40
0.729464842720812
40
0.753549865835994
40
0.781246818165236
40
0.798962781907281
40
0.821527277415201
40
0.899198594588035
40
1
40
1
40
1
40
1
41
1
10
46.5031693232984
20
-1.04709311055731
30
0
41
1
10
46.5030621094776
20
-1.04718821815845
30
0
41
1
10
46.5043876839633
20
-1.04754877293519
30
0
41
1
10
46.5263588381682
20
-1.04942512143734
30
0
41
1
10
46.6004015674359
20
-1.05512057695046
30
0
41
1
10
46.7405601305548
20
-1.06792092994414
30
0
41
1
10
46.904287924669
20
-1.08633297283757
30
0
41
1
10
47.0772727092154
20
-1.11000178839828
30
0
41
1
10
47.2345512420325
20
-1.13448500403436
30
0
41
1
10
47.424751023565
20
-1.16752840574071
30
0
41
1
10
47.6761568588953
20
-1.22125204338801
30
0
41
1
10
47.9878736919493
20
-1.29856554901153
30
0
41
1
10
48.2821221115216
20
-1.38101899087931
30
0
41
1
10
48.5949846817433
20
-1.47709727989849
30
0
41
1
10
48.8699241686916
20
-1.56995520845146
30
0
41
1
10
49.0879196045169
20
-1.64852054594334
30
0
41
1
10
49.1532916116739
20
-1.67401000252681
30
0
41
1
10
49.2342621419543
20
-1.70443787792911
30
0
41
1
10
49.3286720080288
20
-1.74053478169529
30
0
41
1
10
49.5001611360427
20
-1.80705007415506
30
0
41
1
10
49.7988600577134
20
-1.92694732317239
30
0
41
1
10
50.0650708918254
20
-2.04002261069212
30
0
41
1
10
50.2166379860726
20
-2.10636057612445
30
0
0
SPLINE
5
F5
100
AcDbEntity
8
1
62
256
6
ByLayer
370
18
48
1
60
0
100
AcDbSpline
70
4
71
3
72
30
73
26
40
0
40
0
40
0
40
0
40
0.0735913149780374
40
0.12742751652105
40
0.161410912691041
40
0.193784249453768
40
0.237321989008105
40
0.276826313009769
40
0.306641353379195
40
0.345570731780494
40
0.408566004752247
40
0.46048951888282
40
0.500069139697228
40
0.537130825929426
40
0.587691183050771
40
0.652249579794907
40
0.706820036066303
40
0.766546791472699
40
0.81321360711668
40
0.852135552598247
40
0.878595121126352
40
0.886789039860005
40
0.900206290260445
40
0.944329207103976
40
1
40
1
40
1
40
1
41
1
10
32.9289423537506
20
-4.09350908107547
30
0
41
1
10
33.1540799695628
20
-4.09377209357996
30
0
41
1
10
33.5439293286954
20
-4.09425683577348
30
0
41
1
10
34.0380448621273
20
-4.09496115774866
30
0
41
1
10
34.4056619836464
20
-4.09548705356769
30
0
41
1
10
34.7419752575015
20
-4.09582868435598
30
0
41
1
10
35.0951987488983
20
-4.09614926325423
30
0
41
1
10
35.4405877123765
20
-4.0967203038135
30
0
41
1
10
35.7718764255587
20
-4.09717255389165
30
0
41
1
10
36.1750464873248
20
-4.09762593143211
30
0
41
1
10
36.6458897269242
20
-4.09774864909593
30
0
41
1
10
37.1187170878044
20
-4.09858286545185
30
0
41
1
10
37.5121716876807
20
-4.09927553845904
30
0
41
1
10
37.9014706949549
20
-4.09965270876447
30
0
41
1
10
38.3671710328759
20
-4.09962449051883
30
0
41
1
10
38.8866485952007
20
-4.10058715520952
30
0
41
1
10
39.4334255627014
20
-4.10160757827327
30
0
41
1
10
39.9262368901964
20
-4.10154268392648
30
0
41
1
10
40.3707502297878
20
-4.10162575704092
30
0
41
1
10
40.7136145642324
20
-4.10271780383101
30
0
41
1
10
40.9388976943275
20
-4.10319518536292
30
0
41
1
10
41.0855663428097
20
-4.10333363659842
30
0
41
1
10
41.2868172368258
20
-4.10350795104216
30
0
41
1
10
41.6332352853031
20
-4.10342947722219
30
0
41
1
10
41.9386410993459
20
-4.103624679917
30
0
41
1
10
42.1089964562838
20
-4.10373538941332
30
0
0
SPLINE
5
F6
100
AcDbEntity
8
1
62
256
6
ByLayer
370
18
48
1
60
0
100
AcDbSpline
70
4
71
3
72
30
73
26
40
0
40
0
40
0
40
0
40
0.0638494590487828
40
0.111595970223092
40
0.144286639743797
40
0.179263822898817
40
0.223271213590243
40
0.27255117174247
40
0.309816982000435
40
0.339983544938712
40
0.39242016956914
40
0.439432456711583
40
0.472063099345057
40
0.506947944388861
40
0.546768656824467
40
0.599888296195982
40
0.659909417378279
40
0.698153581430474
40
0.73533329031223
40
0.786951967342387
40
0.837614580254741
40
0.876003712807732
40
0.912608514155628
40
0.957059958223102
40
1
40
1
40
1
40
1
41
1
10
5.66548969346161
20
-4.06112273525625
30
0
41
1
10
5.86835321105428
20
-4.06140942847688
30
0
41
1
10
6.22291444760313
20
-4.06189799852436
30
0
41
1
10
6.68140945786303
20
-4.06245790896898
30
0
41
1
10
7.04805027043815
20
-4.06294810468134
30
0
41
1
10
7.40272778171476
20
-4.06346807357815
30
0
41
1
10
7.81031342271456
20
-4.06429972552533
30
0
41
1
10
8.22514655720627
20
-4.06490684748047
30
0
41
1
10
8.59598488353834
20
-4.0653632159335
30
0
41
1
10
8.97687655120873
20
-4.06582929678024
30
0
41
1
10
9.38872815675296
20
-4.06661103347119
30
0
41
1
10
9.80841704015074
20
-4.06717742996665
30
0
41
1
10
10.1723308564271
20
-4.06735293730199
30
0
41
1
10
10.5133961525717
20
-4.06756597758118
30
0
41
1
10
10.919561986027
20
-4.06819086750582
30
0
41
1
10
11.405603165008
20
-4.06912952338627
30
0
41
1
10
11.8866308722719
20
-4.06941938829684
30
0
41
1
10
12.3170105916637
20
-4.06976987842026
30
0
41
1
10
12.720696683598
20
-4.07046106213215
30
0
41
1
10
13.1637537031727
20
-4.0712931328255
30
0
41
1
10
13.6109794671185
20
-4.07156103467779
30
0
41
1
10
14.0095834261954
20
-4.07170525194331
30
0
41
1
10
14.3908924142557
20
-4.0725335321246
30
0
41
1
10
14.7751310740545
20
-4.0722146202209
30
0
41
1
10
15.0530739794088
20
-4.07209343975617
30
0
41
1
10
15.1900663771746
20
-4.07197756527287
30
0
0
SPLINE
5
F7
100
AcDbEntity
8
1
62
256
6
ByLayer
370
18
48
1
60
0
100
AcDbSpline
70
4
71
3
72
11
73
7
40
0
40
0
40
0
40
0
40
0.255074670350481
40
0.558094249088796
40
0.910820209712048
40
1
40
1
40
1
40
1
41
1
10
60.080823918005
20
-4.12625270000555
30
0
41
1
10
60.2009473825405
20
-4.12631086496788
30
0
41
1
10
60.4640821702234
20
-4.12640062490607
30
0
41
1
10
60.8952932490507
20
-4.12708617506269
30
0
41
1
10
61.247844028394
20
-4.12632708388512
30
0
41
1
10
61.4566877157347
20
-4.12822377955294
30
0
41
1
10
61.4988262912732
20
-4.12865016441091
30
0
0
SPLINE
5
F8
100
AcDbEntity
8
1
62
256
6
ByLayer
370
18
48
1
60
0
100
AcDbSpline
70
4
71
3
72
15
73
11
40
0
40
0
40
0
40
0
40
0.0594320909143064
40
0.188519635003095
40
0.321528297856708
40
0.480663232333757
40
0.566719153616937
40
0.666599261060813
40
0.831714992170059
40
1
40
1
40
1
40
1
41
1
10
55.5805014459662
20
0.0977915812270851
30
0
41
1
10
55.5804169129905
20
0.0978045109955588
30
0
41
1
10
55.5779089425327
20
0.0986344259673331
30
0
41
1
10
55.5539475297142
20
0.10729137333351
30
0
41
1
10
55.5357052332384
20
0.114570835109674
30
0
41
1
10
55.4965640416553
20
0.130526064857577
30
0
41
1
10
55.421695674442
20
0.162325388829316
30
0
41
1
10
55.3214536159194
20
0.206213962120586
30
0
41
1
10
55.1812712111717
20
0.269611215639401
30
0
41
1
10
55.0680490844346
20
0.322848257683091
30
0
41
1
10
55.0086428159757
20
0.351232661560459
30
0
0
SPLINE
5
F9
100
AcDbEntity
8
1
62
256
6
ByLayer
370
18
48
1
60
0
100
AcDbSpline
70
4
71
3
72
25
73
21
40
0
40
0
40
0
40
0
40
0.0596272803349641
40
0.119355884455423
40
0.159543647086456
40
0.196342543206383
40
0.231158990571041
40
0.266862585186447
40
0.303553748726914
40
0.343980675042752
40
0.412077247907392
40
0.487299517229361
40
0.535516082571507
40
0.580559659054138
40
0.663893569341401
40
0.745224769547821
40
0.81189402470422
40
0.882224133699404
40
0.961731874086909
40
1
40
1
40
1
40
1
41
1
10
42.1570096764069
20
4.10391382988905
30
0
41
1
10
42.0165616184931
20
4.10371854008994
30
0
41
1
10
41.7354278967564
20
4.10340874130284
30
0
41
1
10
41.3596265079316
20
4.10364487900492
30
0
41
1
10
41.0376150313958
20
4.1033819100322
30
0
41
1
10
40.7742688600937
20
4.10287761651253
30
0
41
1
10
40.5214860784678
20
4.10210729062024
30
0
41
1
10
40.2689562683503
20
4.1016470301727
30
0
41
1
10
40.0032111499438
20
4.10163467303542
30
0
41
1
10
39.6611666898711
20
4.10163184405513
30
0
41
1
10
39.228363551836
20
4.10144352820294
30
0
41
1
10
38.7772138814454
20
4.10018284289896
30
0
41
1
10
38.3803623274255
20
4.09972542870096
30
0
41
1
10
37.964407554427
20
4.09968055472425
30
0
41
1
10
37.4704515960625
20
4.09932908284736
30
0
41
1
10
36.9255562430391
20
4.09806832770093
30
0
41
1
10
36.4112955399864
20
4.09774712592102
30
0
41
1
10
35.901326864856
20
4.09737076529794
30
0
41
1
10
35.458253344993
20
4.09672035396039
30
0
41
1
10
35.1808387564565
20
4.09632158114292
30
0
41
1
10
35.0907006253976
20
4.09620382058472
30
0
0
SPLINE
5
FA
100
AcDbEntity
8
1
62
256
6
ByLayer
370
18
48
1
60
0
100
AcDbSpline
70
4
71
3
72
23
73
19
40
0
40
0
40
0
40
0
40
0.0643517378582312
40
0.12399616556435
40
0.173266404645542
40
0.229668007614748
40
0.299045435205156
40
0.358034761101227
40
0.400100170865536
40
0.45128310399771
40
0.525915100422235
40
0.590665889452306
40
0.655391447837542
40
0.71039251163019
40
0.778610791077827
40
0.864856672533966
40
0.931761576806821
40
1
40
1
40
1
40
1
41
1
10
15.196818484755
20
4.07188717084696
30
0
41
1
10
15.0396940848321
20
4.07216459936174
30
0
41
1
10
14.7374311180792
20
4.07247407464172
30
0
41
1
10
14.3225631901652
20
4.07233399166716
30
0
41
1
10
13.9170835250492
20
4.07163403011546
30
0
41
1
10
13.4902866559331
20
4.07152674447366
30
0
41
1
10
13.0388906496785
20
4.07109498834922
30
0
41
1
10
12.6227876839331
20
4.07027337039591
30
0
41
1
10
12.2510401657153
20
4.06969661168696
30
0
41
1
10
11.8411030282101
20
4.06940349343338
30
0
41
1
10
11.3757701089572
20
4.06907640733036
30
0
41
1
10
10.877366050888
20
4.06810770714253
30
0
41
1
10
10.4269013069211
20
4.06745753520477
30
0
41
1
10
9.96796515142921
20
4.06728661702954
30
0
41
1
10
9.45648247298405
20
4.06678697208827
30
0
41
1
10
8.91593258185938
20
4.06569934202832
30
0
41
1
10
8.37533625667911
20
4.06511356775351
30
0
41
1
10
8.04535017067084
20
4.06465142628682
30
0
41
1
10
7.87871812350653
20
4.06437343051954
30
0
0
SPLINE
5
FB
100
AcDbEntity
8
1
62
256
6
ByLayer
370
18
48
1
60
0
100
AcDbSpline
70
4
71
3
72
24
73
20
40
0
40
0
40
0
40
0
40
0.0112377778265796
40
0.0418641992269405
40
0.0882996379156636
40
0.147218113355298
40
0.192098943340113
40
0.271036728014541
40
0.356342252273547
40
0.421442493534805
40
0.491301545712849
40
0.590563164832117
40
0.636737899117132
40
0.685357760619852
40
0.746121214292086
40
0.812955917324425
40
0.872716190294825
40
0.936644390679538
40
1
40
1
40
1
40
1
41
1
10
19.3215501246731
20
-1.04769117111951
30
0
41
1
10
19.3223833704726
20
-1.04813335393089
30
0
41
1
10
19.3288722907521
20
-1.04965952434901
30
0
41
1
10
19.376479691531
20
-1.05397261817404
30
0
41
1
10
19.5103607704091
20
-1.06491847681349
30
0
41
1
10
19.6865564893401
20
-1.08398969798006
30
0
41
1
10
19.8689168766576
20
-1.10746890583906
30
0
41
1
10
20.0886740023277
20
-1.14205762410714
30
0
41
1
10
20.3507696010044
20
-1.19446184613784
30
0
41
1
10
20.6122157836498
20
-1.25454964269548
30
0
41
1
10
20.9051386570471
20
-1.32973900483611
30
0
41
1
10
21.1866740151185
20
-1.41123311210777
30
0
41
1
10
21.4146156157261
20
-1.48461897326087
30
0
41
1
10
21.615293303897
20
-1.55232711492121
30
0
41
1
10
21.8577362729483
20
-1.63856118583652
30
0
41
1
10
22.1209549761092
20
-1.73726661488399
30
0
41
1
10
22.395686985371
20
-1.84516277284155
30
0
41
1
10
22.6707412732899
20
-1.95693033627404
30
0
41
1
10
22.8562791427664
20
-2.03600743967922
30
0
41
1
10
22.948670468496
20
-2.07620489670427
30
0
0
LINE
5
7B
100
AcDbEntity
8
SK1
62
256
6
ByLayer
370
18
48
1
60
0
100
AcDbLine
10
0
20
-5
30
0
11
0
21
5
31
0
39
0
210
0
220
0
230
1
0
LINE
5
7D
100
AcDbEntity
8
SK1
62
256
6
ByLayer
370
18
48
1
60
0
100
AcDbLine
10
-40
20
3.329559
30
0
11
-40
21
2.003254
31
0
39
0
210
0
220
0
230
1
0
LINE
5
7E
100
AcDbEntity
8
SK1
62
256
6
ByLayer
370
18
48
1
60
0
100
AcDbLine
10
-40
20
2.003328
30
0
11
-40
21
-3.7
31
0
39
0
210
0
220
0
230
1
0
LINE
5
7F
100
AcDbEntity
8
SK1
62
256
6
ByLayer
370
18
48
1
60
0
100
AcDbLine
10
-40
20
3.7
30
0
11
-40
21
3.329559
31
0
39
0
210
0
220
0
230
1
0
LINE
5
80
100
AcDbEntity
8
SK1
62
256
6
ByLayer
370
18
48
1
60
0
100
AcDbLine
10
-39.25
20
2.665261
30
0
11
-39.25
21
3.85887
31
0
39
0
210
0
220
0
230
1
0
LINE
5
81
100
AcDbEntity
8
SK1
62
256
6
ByLayer
370
13
48
1
60
0
100
AcDbLine
10
-39.35
20
3.83196
30
0
11
-39.35
21
2.5057
31
0
39
0
210
0
220
0
230
1
0
LINE
5
82
100
AcDbEntity
8
SK1
62
256
6
ByLayer
370
18
48
1
60
0
100
AcDbLine
10
-38.7
20
5
30
0
11
-38.7
21
-5
31
0
39
0
210
0
220
0
230
1
0
LINE
5
83
100
AcDbEntity
8
1
62
256
6
ByLayer
370
13
48
1
60
0
100
AcDbLine
10
62.984851
20
0.078394
30
0
11
61.434864
21
1.216313
31
0
39
0
210
0
220
0
230
1
0
LINE
5
84
100
AcDbEntity
8
1
62
256
6
ByLayer
370
18
48
1
60
0
100
AcDbLine
10
62.984851
20
-0.078394
30
0
11
62.715303
21
-1.062316
31
0
39
0
210
0
220
0
230
1
0
LINE
5
85
100
AcDbEntity
8
1
62
256
6
ByLayer
370
18
48
1
60
0
100
AcDbLine
10
62.900134
20
-0.245617
30
0
11
60.810039
21
-3.180887
31
0
39
0
210
0
220
0
230
1
0
LINE
5
86
100
AcDbEntity
8
1
62
256
6
ByLayer
370
13
48
1
60
0
100
AcDbLine
10
1.370202
20
4.227755
30
0
11
1.370202
21
-4.227755
31
0
39
0
210
0
220
0
230
1
0
LINE
5
87
100
AcDbEntity
8
1
62
256
6
ByLayer
370
18
48
1
60
0
100
AcDbLine
10
0
20
-5
30
0
11
0
21
5
31
0
39
0
210
0
220
0
230
1
0
LINE
5
88
100
AcDbEntity
8
1
62
256
6
ByLayer
370
18
48
1
60
0
100
AcDbLine
10
63
20
0.025072
30
0
11
63
21
-0.025072
31
0
39
0
210
0
220
0
230
1
0
LINE
5
89
100
AcDbEntity
8
1
62
256
6
ByLayer
370
13
48
1
60
0
100
AcDbLine
10
62.930415
20
-0.172447
30
0
11
61.317224
21
1.011873
31
0
39
0
210
0
220
0
230
1
0
LINE
5
8A
100
AcDbEntity
8
1
62
256
6
ByLayer
370
13
48
1
60
0
100
AcDbLine
10
0.684621
20
4.613877
30
0
11
0.684621
21
-4.613877
31
0
39
0
210
0
220
0
230
1
0
LINE
5
8B
100
AcDbEntity
8
1
62
256
6
ByLayer
370
18
48
1
60
0
100
AcDbLine
10
62.900134
20
-0.245617
30
0
11
62.930415
21
-0.172447
31
0
39
0
210
0
220
0
230
1
0
LINE
5
8C
100
AcDbEntity
8
1
62
256
6
ByLayer
370
18
48
1
60
0
100
AcDbLine
10
61.908668
20
-2.969646
30
0
11
61.487811
21
-4.12594
31
0
39
0
210
0
220
0
230
1
0
LINE
5
8D
100
AcDbEntity
8
1
62
256
6
ByLayer
370
18
48
1
60
0
100
AcDbLine
10
62.900134
20
-0.245617
30
0
11
62.352747
21
-1.749551
31
0
39
0
210
0
220
0
230
1
0
LINE
5
8E
100
AcDbEntity
8
1
62
256
6
ByLayer
370
18
48
1
60
0
100
AcDbLine
10
62.984851
20
0.078394
30
0
11
62.715303
21
1.062316
31
0
39
0
210
0
220
0
230
1
0
LINE
5
8F
100
AcDbEntity
8
80
62
256
6
ByLayer
370
18
48
1
60
0
100
AcDbLine
10
0
20
0
30
0
11
-5
21
0
31
0
39
0
210
0
220
0
230
1
0
LINE
5
90
100
AcDbEntity
8
4
62
256
6
ByLayer
370
18
48
0.05
60
0
100
AcDbLine
10
63
20
0
30
0
11
0
21
0
31
0
39
0
210
0
220
0
230
1
0
LINE
5
92
100
AcDbEntity
8
SK4
62
256
6
ByLayer
370
18
48
0.05
60
0
100
AcDbLine
10
68
20
0
30
0
11
-45
21
0
31
0
39
0
210
0
220
0
230
1
0
LINE
5
94
100
AcDbEntity
8
SK1
62
256
6
ByLayer
370
18
48
1
60
0
100
AcDbLine
10
-38.7
20
-5
30
0
11
0
21
-5
31
0
39
0
210
0
220
0
230
1
0
LINE
5
95
100
AcDbEntity
8
SK1
62
256
6
ByLayer
370
18
48
1
60
0
100
AcDbLine
10
0
20
5
30
0
11
-38.7
21
5
31
0
39
0
210
0
220
0
230
1
0
LINE
5
96
100
AcDbEntity
8
SK1
62
256
6
ByLayer
370
18
48
1
60
0
100
AcDbLine
10
-40
20
-3.7
30
0
11
-38.7
21
-5
31
0
39
0
210
0
220
0
230
1
0
LINE
5
97
100
AcDbEntity
8
SK1
62
256
6
ByLayer
370
18
48
1
60
0
100
AcDbLine
10
-38.7
20
5
30
0
11
-40
21
3.7
31
0
39
0
210
0
220
0
230
1
0
LINE
5
98
100
AcDbEntity
8
1
62
256
6
ByLayer
370
18
48
1
60
0
100
AcDbLine
10
1.370202
20
-4.227755
30
0
11
5.50679
21
-4.232719
31
0
39
0
210
0
220
0
230
1
0
LINE
5
99
100
AcDbEntity
8
1
62
256
6
ByLayer
370
18
48
1
60
0
100
AcDbLine
10
32.14985
20
-4.26469
30
0
11
32.705904
21
-4.265357
31
0
39
0
210
0
220
0
230
1
0
LINE
5
9A
100
AcDbEntity
8
1
62
256
6
ByLayer
370
18
48
1
60
0
100
AcDbLine
10
59.383808
20
-4.297371
30
0
11
59.906885
21
-4.297999
31
0
39
0
210
0
220
0
230
1
0
LINE
5
9B
100
AcDbEntity
8
1
62
256
6
ByLayer
370
18
48
1
60
0
100
AcDbLine
10
59.907483
20
4.297999
30
0
11
59.383808
21
4.297371
31
0
39
0
210
0
220
0
230
1
0
LINE
5
9C
100
AcDbEntity
8
1
62
256
6
ByLayer
370
18
48
1
60
0
100
AcDbLine
10
32.70608
20
4.265358
30
0
11
32.14985
21
4.26469
31
0
39
0
210
0
220
0
230
1
0
LINE
5
9D
100
AcDbEntity
8
1
62
256
6
ByLayer
370
18
48
1
60
0
100
AcDbLine
10
5.506909
20
4.232719
30
0
11
1.370202
21
4.227755
31
0
39
0
210
0
220
0
230
1
0
LINE
5
9E
100
AcDbEntity
8
81
62
256
6
ByLayer
370
18
48
1
60
0
100
AcDbLine
10
63
20
0
30
0
11
68
21
0
31
0
39
0
210
0
220
0
230
1
0
LINE
5
9F
100
AcDbEntity
8
SK2
62
256
6
ByLayer
370
13
48
1
60
0
100
AcDbLine
10
-48.625163
20
-5
30
0
11
-48.625163
21
35.857173
31
0
39
0
210
0
220
0
230
1
0
LINE
5
A1
100
AcDbEntity
8
SK2
62
256
6
ByLayer
370
13
48
1
60
0
100
AcDbLine
10
-41.5875
20
5
30
0
11
-50.625163
21
5
31
0
39
0
210
0
220
0
230
1
0
LINE
5
A2
100
AcDbEntity
8
SK2
62
256
6
ByLayer
370
13
48
1
60
0
100
AcDbLine
10
-41.5875
20
-5
30
0
11
-50.625163
21
-5
31
0
39
0
210
0
220
0
230
1
0
LINE
5
A3
100
AcDbEntity
8
1
62
256
6
ByLayer
370
18
48
1
60
1
100
AcDbLine
10
-48.625163
20
5
30
0
11
-48.164379
21
1.500002
31
0
39
0
210
0
220
0
230
1
0
LINE
5
A4
100
AcDbEntity
8
1
62
256
6
ByLayer
370
18
48
1
60
1
100
AcDbLine
10
-48.164379
20
1.500002
30
0
11
-49.085946
21
1.499998
31
0
39
0
210
0
220
0
230
1
0
LINE
5
A5
100
AcDbEntity
8
1
62
256
6
ByLayer
370
18
48
1
60
1
100
AcDbLine
10
-49.085946
20
1.499998
30
0
11
-48.625163
21
5
31
0
39
0
210
0
220
0
230
1
0
LINE
5
A6
100
AcDbEntity
8
1
62
256
6
ByLayer
370
18
48
1
60
1
100
AcDbLine
10
-48.625163
20
-5
30
0
11
-49.085946
21
-1.500002
31
0
39
0
210
0
220
0
230
1
0
LINE
5
A7
100
AcDbEntity
8
1
62
256
6
ByLayer
370
18
48
1
60
1
100
AcDbLine
10
-49.085946
20
-1.500002
30
0
11
-48.164379
21
-1.499998
31
0
39
0
210
0
220
0
230
1
0
LINE
5
A8
100
AcDbEntity
8
1
62
256
6
ByLayer
370
18
48
1
60
1
100
AcDbLine
10
-48.164379
20
-1.499998
30
0
11
-48.625163
21
-5
31
0
39
0
210
0
220
0
230
1
0
LINE
5
A9
100
AcDbEntity
8
2
62
256
6
ByLayer
370
13
48
1
60
0
100
AcDbLine
10
75.083343
20
-4.3
30
0
11
75.083343
21
32.010193
31
0
39
0
210
0
220
0
230
1
0
LINE
5
AB
100
AcDbEntity
8
2
62
256
6
ByLayer
370
13
48
1
60
0
100
AcDbLine
10
62.9875
20
4.3
30
0
11
77.083343
21
4.3
31
0
39
0
210
0
220
0
230
1
0
LINE
5
AC
100
AcDbEntity
8
2
62
256
6
ByLayer
370
13
48
1
60
0
100
AcDbLine
10
62.9875
20
-4.3
30
0
11
77.083343
21
-4.3
31
0
39
0
210
0
220
0
230
1
0
LINE
5
AD
100
AcDbEntity
8
1
62
256
6
ByLayer
370
18
48
1
60
1
100
AcDbLine
10
75.083343
20
4.3
30
0
11
75.544126
21
0.800002
31
0
39
0
210
0
220
0
230
1
0
LINE
5
AE
100
AcDbEntity
8
1
62
256
6
ByLayer
370
18
48
1
60
1
100
AcDbLine
10
75.544126
20
0.800002
30
0
11
74.622559
21
0.799998
31
0
39
0
210
0
220
0
230
1
0
LINE
5
AF
100
AcDbEntity
8
1
62
256
6
ByLayer
370
18
48
1
60
1
100
AcDbLine
10
74.622559
20
0.799998
30
0
11
75.083343
21
4.3
31
0
39
0
210
0
220
0
230
1
0
LINE
5
B0
100
AcDbEntity
8
1
62
256
6
ByLayer
370
18
48
1
60
1
100
AcDbLine
10
75.083343
20
-4.3
30
0
11
74.622559
21
-0.800002
31
0
39
0
210
0
220
0
230
1
0
LINE
5
B1
100
AcDbEntity
8
1
62
256
6
ByLayer
370
18
48
1
60
1
100
AcDbLine
10
74.622559
20
-0.800002
30
0
11
75.544126
21
-0.799998
31
0
39
0
210
0
220
0
230
1
0
LINE
5
B2
100
AcDbEntity
8
1
62
256
6
ByLayer
370
18
48
1
60
1
100
AcDbLine
10
75.544126
20
-0.799998
30
0
11
75.083343
21
-4.3
31
0
39
0
210
0
220
0
230
1
0
LINE
5
102
100
AcDbEntity
8
1
62
256
6
ByLayer
370
18
48
1
60
1
100
AcDbLine
10
-48.625163
20
5
30
0
11
-48.164379
21
1.500002
31
0
39
0
210
0
220
0
230
1
0
LINE
5
103
100
AcDbEntity
8
1
62
256
6
ByLayer
370
18
48
1
60
1
100
AcDbLine
10
-48.164379
20
1.500002
30
0
11
-49.085946
21
1.499998
31
0
39
0
210
0
220
0
230
1
0
LINE
5
104
100
AcDbEntity
8
1
62
256
6
ByLayer
370
18
48
1
60
1
100
AcDbLine
10
-49.085946
20
1.499998
30
0
11
-48.625163
21
5
31
0
39
0
210
0
220
0
230
1
0
LINE
5
106
100
AcDbEntity
8
1
62
256
6
ByLayer
370
18
48
1
60
1
100
AcDbLine
10
-48.625163
20
-5
30
0
11
-49.085946
21
-1.500002
31
0
39
0
210
0
220
0
230
1
0
LINE
5
107
100
AcDbEntity
8
1
62
256
6
ByLayer
370
18
48
1
60
1
100
AcDbLine
10
-49.085946
20
-1.500002
30
0
11
-48.164379
21
-1.499998
31
0
39
0
210
0
220
0
230
1
0
LINE
5
108
100
AcDbEntity
8
1
62
256
6
ByLayer
370
18
48
1
60
1
100
AcDbLine
10
-48.164379
20
-1.499998
30
0
11
-48.625163
21
-5
31
0
39
0
210
0
220
0
230
1
0
LINE
5
10C
100
AcDbEntity
8
1
62
256
6
ByLayer
370
18
48
1
60
1
100
AcDbLine
10
75.083343
20
4.3
30
0
11
75.544126
21
0.800002
31
0
39
0
210
0
220
0
230
1
0
LINE
5
10D
100
AcDbEntity
8
1
62
256
6
ByLayer
370
18
48
1
60
1
100
AcDbLine
10
75.544126
20
0.800002
30
0
11
74.622559
21
0.799998
31
0
39
0
210
0
220
0
230
1
0
LINE
5
10E
100
AcDbEntity
8
1
62
256
6
ByLayer
370
18
48
1
60
1
100
AcDbLine
10
74.622559
20
0.799998
30
0
11
75.083343
21
4.3
31
0
39
0
210
0
220
0
230
1
0
LINE
5
110
100
AcDbEntity
8
1
62
256
6
ByLayer
370
18
48
1
60
1
100
AcDbLine
10
75.083343
20
-4.3
30
0
11
74.622559
21
-0.800002
31
0
39
0
210
0
220
0
230
1
0
LINE
5
111
100
AcDbEntity
8
1
62
256
6
ByLayer
370
18
48
1
60
1
100
AcDbLine
10
74.622559
20
-0.800002
30
0
11
75.544126
21
-0.799998
31
0
39
0
210
0
220
0
230
1
0
LINE
5
112
100
AcDbEntity
8
1
62
256
6
ByLayer
370
18
48
1
60
1
100
AcDbLine
10
75.544126
20
-0.799998
30
0
11
75.083343
21
-4.3
31
0
39
0
210
0
220
0
230
1
0
MTEXT
5
FC
100
AcDbEntity
8
SK6
62
256
6
ByLayer
370
13
48
1
60
0
100
AcDbMText
10
-15.780093
20
36.840328
30
0
210
0
220
0
230
1
1
\W0.7275;860.1-0860-044A1-SM 1210
40
3.5
41
0
44
1.084337
50
0
71
7
72
5
7
iso_b_vert
0
MTEXT
5
100
100
AcDbEntity
8
SK2
62
256
6
ByLayer
370
18
48
1
60
0
100
AcDbMText
10
-50.189796
20
18.409024
30
0
210
0
220
0
230
1
1
%%c
40
3.5
41
0
44
1.084337
50
90
71
7
72
5
7
iso_b_vert
0
MTEXT
5
101
100
AcDbEntity
8
SK2
62
256
6
ByLayer
370
18
48
1
60
0
100
AcDbMText
10
-50.189796
20
23.63168
30
0
210
0
220
0
230
1
1
\W0.6930;10,000
40
3.5
41
0
44
1.084337
50
90
71
7
72
5
7
iso_b_vert
0
MTEXT
5
10A
100
AcDbEntity
8
2
62
256
6
ByLayer
370
18
48
1
60
0
100
AcDbMText
10
73.518709
20
16.30211
30
0
210
0
220
0
230
1
1
%%c
40
3.5
41
0
44
1.084337
50
90
71
7
72
5
7
iso_b_vert
0
MTEXT
5
10B
100
AcDbEntity
8
2
62
256
6
ByLayer
370
18
48
1
60
0
100
AcDbMText
10
73.518709
20
21.524766
30
0
210
0
220
0
230
1
1
\W0.7317;8,600
40
3.5
41
0
44
1.084337
50
90
71
7
72
5
7
iso_b_vert
0
HATCH
5
105
100
AcDbEntity
8
SK2
62
256
6
ByLayer
370
13
48
1
60
0
100
AcDbHatch
10
0
20
0
30
0
210
0
220
0
230
1
2
ANSI31
70
0
71
0
91
1
92
5
93
3
72
1
10
-48.6251625675374
20
5
11
-48.1643788259847
21
1.50000169255318
72
1
10
-48.1643788259847
20
1.50000169255318
11
-49.0859463090902
21
1.49999830744682
72
1
10
-49.0859463090902
20
1.49999830744682
11
-48.6251625675374
21
5
97
0
75
0
76
1
52
0
41
0.0062
77
0
78
1
53
45
43
0
44
0
45
-0.0139193969876572
46
0.0139193969876572
79
0
47
0
98
1
10
0
20
0
0
HATCH
5
109
100
AcDbEntity
8
SK2
62
256
6
ByLayer
370
13
48
1
60
0
100
AcDbHatch
10
0
20
0
30
0
210
0
220
0
230
1
2
ANSI31
70
0
71
0
91
1
92
5
93
3
72
1
10
-48.6251625675374
20
-5
11
-49.0859463090902
21
-1.50000169255318
72
1
10
-49.0859463090902
20
-1.50000169255318
11
-48.1643788259847
21
-1.49999830744682
72
1
10
-48.1643788259847
20
-1.49999830744682
11
-48.6251625675374
21
-5
97
0
75
0
76
1
52
0
41
0.0062
77
0
78
1
53
45
43
0
44
0
45
-0.0139193969876572
46
0.0139193969876572
79
0
47
0
98
1
10
0
20
0
0
HATCH
5
10F
100
AcDbEntity
8
2
62
256
6
ByLayer
370
13
48
1
60
0
100
AcDbHatch
10
0
20
0
30
0
210
0
220
0
230
1
2
ANSI31
70
0
71
0
91
1
92
5
93
3
72
1
10
75.083342615295
20
4.30000000000001
11
75.5441263568477
21
0.800001692553195
72
1
10
75.5441263568477
20
0.800001692553195
11
74.6225588737422
21
0.799998307446828
72
1
10
74.6225588737422
20
0.799998307446828
11
75.083342615295
21
4.30000000000001
97
0
75
0
76
1
52
0
41
0.0062
77
0
78
1
53
45
43
0
44
0
45
-0.0139193969876572
46
0.0139193969876572
79
0
47
0
98
1
10
0
20
0
0
HATCH
5
113
100
AcDbEntity
8
2
62
256
6
ByLayer
370
13
48
1
60
0
100
AcDbHatch
10
0
20
0
30
0
210
0
220
0
230
1
2
ANSI31
70
0
71
0
91
1
92
5
93
3
72
1
10
75.083342615295
20
-4.29999999999998
11
74.6225588737422
21
-0.800001692553167
72
1
10
74.6225588737422
20
-0.800001692553167
11
75.5441263568477
21
-0.799998307446799
72
1
10
75.5441263568477
20
-0.799998307446799
11
75.083342615295
21
-4.29999999999998
97
0
75
0
76
1
52
0
41
0.0062
77
0
78
1
53
45
43
0
44
0
45
-0.0139193969876572
46
0.0139193969876572
79
0
47
0
98
1
10
0
20
0
0
DIMENSION
5
115
100
AcDbEntity
8
SK2
62
256
6
ByLayer
370
13
48
1
60
0
100
AcDbDimension
2
_U0
10
61.4
20
-14.513398
30
0
11
30.7
21
-14.513398
31
0
70
32
71
1
72
1
41
1
210
0
220
0
230
1
3
Standard
100
AcDbAlignedDimension
13
0
23
0
33
0
14
61.4
24
-4.3
34
0
50
0
100
AcDbRotatedDimension
1001
ACAD
1000
DSTYLE
1002
{
1070
   371
1070
    13
1070
   372
1070
    13
1070
   170
1070
     0
1070
   144
1040
1.0
1070
   277
1070
     2
1070
   278
1070
    44
1070
   146
1040
1.0
1070
   345
1005
16
1070
   347
1005
16
1070
   346
1005
16
1070
   344
1005
0
1070
   343
1005
0
1070
   172
1070
     1
1070
    76
1070
     0
1070
    75
1070
     0
1070
   282
1070
     0
1070
   281
1070
     0
1070
    71
1070
     0
1070
    74
1070
     0
1070
   279
1070
     0
1070
   173
1070
     1
1070
   340
1005
FD
1070
   271
1070
     2
1070
   272
1070
     2
1070
    77
1070
     1
1070
    73
1070
     1
1070
   171
1070
     3
1070
   274
1070
     4
1070
   177
1070
    35
1070
   176
1070
    35
1070
   178
1070
    35
1070
    48
1040
-0.1
1070
    41
1040
3.5
1070
   147
1040
1.75
1070
    42
1040
1.5875
1070
    44
1040
2.0
1070
   140
1040
3.5
1002
}
1001
ACAD_DSTYLE_DIM_LINETYPE
1070
   380
1005
16
1001
ACAD_DSTYLE_DIM_EXT1_LINETYPE
1070
   381
1005
16
1001
ACAD_DSTYLE_DIM_EXT2_LINETYPE
1070
   382
1005
16
0
DIMENSION
5
12E
100
AcDbEntity
8
SK2
62
256
6
ByLayer
370
13
48
1
60
0
100
AcDbDimension
2
_U1
10
63
20
-33.692985
30
0
11
11.5
21
-33.692985
31
0
70
32
71
1
72
1
41
1
210
0
220
0
230
1
3
Standard
100
AcDbAlignedDimension
13
-40
23
-5
33
0
14
63
24
0
34
0
50
0
100
AcDbRotatedDimension
1001
ACAD
1000
DSTYLE
1002
{
1070
   371
1070
    13
1070
   372
1070
    13
1070
   170
1070
     0
1070
   144
1040
1.0
1070
   277
1070
     2
1070
   278
1070
    44
1070
   146
1040
1.0
1070
   345
1005
16
1070
   347
1005
16
1070
   346
1005
16
1070
   344
1005
0
1070
   343
1005
0
1070
   172
1070
     1
1070
    76
1070
     0
1070
    75
1070
     0
1070
   282
1070
     0
1070
   281
1070
     0
1070
    71
1070
     0
1070
    74
1070
     0
1070
   279
1070
     0
1070
   173
1070
     1
1070
   340
1005
FD
1070
   271
1070
     2
1070
   272
1070
     2
1070
    77
1070
     1
1070
    73
1070
     1
1070
   171
1070
     3
1070
   274
1070
     4
1070
   177
1070
    35
1070
   176
1070
    35
1070
   178
1070
    35
1070
    48
1040
-0.1
1070
    41
1040
3.5
1070
   147
1040
1.75
1070
    42
1040
1.5875
1070
    44
1040
2.0
1070
   140
1040
3.5
1002
}
1001
ACAD_DSTYLE_DIM_LINETYPE
1070
   380
1005
16
1001
ACAD_DSTYLE_DIM_EXT1_LINETYPE
1070
   381
1005
16
1001
ACAD_DSTYLE_DIM_EXT2_LINETYPE
1070
   382
1005
16
0
DIMENSION
5
146
100
AcDbEntity
8
SK2
62
256
6
ByLayer
370
13
48
1
60
0
100
AcDbDimension
2
_U2
10
63
20
15.909119
30
0
11
39.88275
21
15.909119
31
0
70
32
71
1
72
1
41
1
210
0
220
0
230
1
3
Standard
100
AcDbAlignedDimension
13
16.7655
23
4.3
33
0
14
63
24
0
34
0
50
0
100
AcDbRotatedDimension
1001
ACAD
1000
DSTYLE
1002
{
1070
   371
1070
    13
1070
   372
1070
    13
1070
   170
1070
     0
1070
   144
1040
1.0
1070
   277
1070
     2
1070
   278
1070
    44
1070
   146
1040
1.0
1070
   345
1005
16
1070
   347
1005
16
1070
   346
1005
16
1070
   344
1005
0
1070
   343
1005
0
1070
   172
1070
     1
1070
    76
1070
     0
1070
    75
1070
     0
1070
   282
1070
     0
1070
   281
1070
     0
1070
    71
1070
     0
1070
    74
1070
     0
1070
   279
1070
     0
1070
   173
1070
     1
1070
   340
1005
FD
1070
   271
1070
     2
1070
   272
1070
     2
1070
    77
1070
     1
1070
    73
1070
     1
1070
   171
1070
     3
1070
   274
1070
     4
1070
   177
1070
    35
1070
   176
1070
    35
1070
   178
1070
    35
1070
    48
1040
-0.1
1070
    41
1040
3.5
1070
   147
1040
1.75
1070
    42
1040
1.5875
1070
    44
1040
2.0
1070
   140
1040
3.5
1002
}
1001
ACAD_DSTYLE_DIM_LINETYPE
1070
   380
1005
16
1001
ACAD_DSTYLE_DIM_EXT1_LINETYPE
1070
   381
1005
16
1001
ACAD_DSTYLE_DIM_EXT2_LINETYPE
1070
   382
1005
16
0
DIMENSION
5
15E
100
AcDbEntity
8
SK2
62
256
6
ByLayer
370
13
48
1
60
0
100
AcDbDimension
2
_U3
10
61.4
20
-17.102503
30
0
11
80.333333
21
-17.102503
31
0
70
32
71
1
72
1
41
1
210
0
220
0
230
1
3
Standard
100
AcDbAlignedDimension
13
63
23
0
33
0
14
61.4
24
-4.3
34
0
50
0
100
AcDbRotatedDimension
1001
ACAD
1000
DSTYLE
1002
{
1070
   371
1070
    13
1070
   372
1070
    13
1070
   170
1070
     0
1070
   144
1040
1.0
1070
   277
1070
     2
1070
   278
1070
    44
1070
   146
1040
1.0
1070
   345
1005
16
1070
   347
1005
16
1070
   346
1005
16
1070
   344
1005
0
1070
   343
1005
0
1070
   172
1070
     1
1070
    76
1070
     0
1070
    75
1070
     0
1070
   282
1070
     0
1070
   281
1070
     0
1070
    71
1070
     0
1070
    74
1070
     0
1070
   279
1070
     0
1070
   173
1070
     1
1070
   340
1005
FD
1070
   271
1070
     2
1070
   272
1070
     2
1070
    77
1070
     1
1070
    73
1070
     1
1070
   171
1070
     3
1070
   274
1070
     4
1070
   177
1070
    35
1070
   176
1070
    35
1070
   178
1070
    35
1070
    48
1040
-0.1
1070
    41
1040
3.5
1070
   147
1040
1.75
1070
    42
1040
1.5875
1070
    44
1040
2.0
1070
   140
1040
3.5
1002
}
1001
ACAD_DSTYLE_DIM_LINETYPE
1070
   380
1005
16
1001
ACAD_DSTYLE_DIM_EXT1_LINETYPE
1070
   381
1005
16
1001
ACAD_DSTYLE_DIM_EXT2_LINETYPE
1070
   382
1005
16
0
DIMENSION
5
178
100
AcDbEntity
8
SK2
62
256
6
ByLayer
370
13
48
1
60
0
100
AcDbDimension
2
_U4
10
61.4
20
-23.343428
30
0
11
10.7
21
-23.343428
31
0
70
32
71
1
72
1
41
1
210
0
220
0
230
1
3
Standard
100
AcDbAlignedDimension
13
-40
23
-5
33
0
14
61.4
24
-4.3
34
0
50
0
100
AcDbRotatedDimension
1001
ACAD
1000
DSTYLE
1002
{
1070
   371
1070
    13
1070
   372
1070
    13
1070
   170
1070
     0
1070
   144
1040
1.0
1070
   277
1070
     2
1070
   278
1070
    44
1070
   146
1040
1.0
1070
   345
1005
16
1070
   347
1005
16
1070
   346
1005
16
1070
   344
1005
0
1070
   343
1005
0
1070
   172
1070
     1
1070
    76
1070
     0
1070
    75
1070
     0
1070
   282
1070
     0
1070
   281
1070
     0
1070
    71
1070
     0
1070
    74
1070
     0
1070
   279
1070
     0
1070
   173
1070
     1
1070
   340
1005
FD
1070
   271
1070
     2
1070
   272
1070
     2
1070
    77
1070
     1
1070
    73
1070
     1
1070
   171
1070
     3
1070
   274
1070
     4
1070
   177
1070
    35
1070
   176
1070
    35
1070
   178
1070
    35
1070
    48
1040
-0.1
1070
    41
1040
3.5
1070
   147
1040
1.75
1070
    42
1040
1.5875
1070
    44
1040
2.0
1070
   140
1040
3.5
1002
}
1001
ACAD_DSTYLE_DIM_LINETYPE
1070
   380
1005
16
1001
ACAD_DSTYLE_DIM_EXT1_LINETYPE
1070
   381
1005
16
1001
ACAD_DSTYLE_DIM_EXT2_LINETYPE
1070
   382
1005
16
0
ENDSEC
0
SECTION
2
OBJECTS
0
DICTIONARY
5
200
330
0
100
AcDbDictionary
280
0
281
1
3
ACAD_GROUP
350
201
3
ACAD_MLINESTYLE
350
202
0
DICTIONARY
5
201
330
0
100
AcDbDictionary
280
0
281
1
0
DICTIONARY
5
202
330
0
100
AcDbDictionary
280
0
281
1
3
Standard
350
18
0
MLINESTYLE
5
18
330
202
100
AcDbMlineStyle
2
Standard
70
0
3

62
256
51
90
52
90
71
2
49
-0.5
62
256
6
ByLayer
49
0.5
62
256
6
ByLayer
0
RASTERVARIABLES
5
1ee
330

100
AcDbRasterVariables
90
0
70
1
71
1
72
1
0
ENDSEC
0
EOF
