0
SECTION
2
HEADER
9
$ACADVER
1
AC1015
9
$DWGCODEPAGE
3
ANSI_1252
9
$HANDSEED
5
20f
9
$ANGBASE
50
0
9
$ANGDIR
70
0
9
$ATTMODE
70
1
9
$AUNITS
70
0
9
$AUPREC
70
0
9
$CECOLOR
62
256
9
$CELTSCALE
40
1
9
$CELTYPE
6
ByLayer
9
$CELWEIGHT
370
18
9
$CLAYER
8
0
9
$CMLJUST
70
0
9
$CMLSCALE
40
1
9
$CMLSTYLE
2
Standard
9
$DIMSTYLE
2
Standard
9
$TEXTSIZE
40
0.2
9
$TEXTSTYLE
7
Standard
9
$LUNITS
70
2
9
$LUPREC
70
4
9
$EXTNAMES
290
1
9
$INSUNITS
70
4
9
$LTSCALE
40
1
9
$LWDISPLAY
290
1
9
$PDMODE
70
0
9
$PDSIZE
40
0
9
$PLINEGEN
70
0
0
ENDSEC
0
SECTION
2
CLASSES
0
CLASS
1
RASTERVARIABLES
2
AcDbRasterVariables
3
ISM
90
0
280
0
281
0
0
ENDSEC
0
SECTION
2
TABLES
0
TABLE
2
VPORT
5
205
100
AcDbSymbolTable
0
VPORT
5
1
100
AcDbSymbolTableRecord
100
AcDbViewportTableRecord
2
*Active
70
0
10
0
20
0
11
1
21
1
12
-1
22
1
13
0
23
0
14
0.5
24
0.5
15
10
25
10
16
0
26
0
36
1
17
0
27
0
37
0
0
ENDTAB
0
TABLE
2
LTYPE
5
206
100
AcDbSymbolTable
0
LTYPE
5
14
100
AcDbSymbolTableRecord
100
AcDbLinetypeTableRecord
70
0
2
ByBlock
3

72
65
73
0
40
0
0
LTYPE
5
15
100
AcDbSymbolTableRecord
100
AcDbLinetypeTableRecord
70
0
2
ByLayer
3

72
65
73
0
40
0
0
LTYPE
5
16
100
AcDbSymbolTableRecord
100
AcDbLinetypeTableRecord
70
0
2
Continuous
3
Solid line
72
65
73
0
40
0
0
LTYPE
5
6E
100
AcDbSymbolTableRecord
100
AcDbLinetypeTableRecord
70
0
2
CENTER
3
____ _ ____ _ ____ _ ____
72
65
73
4
40
47.5
49
22
74
0
49
-8.5
74
0
49
8.5
74
0
49
-8.5
74
0
0
LTYPE
5
6F
100
AcDbSymbolTableRecord
100
AcDbLinetypeTableRecord
70
0
2
DASHED
3
__ __ __ __ __ __ __ __ __
72
65
73
2
40
25.72
49
12.86
74
0
49
-12.86
74
0
0
ENDTAB
0
TABLE
2
LAYER
5
207
100
AcDbSymbolTable
0
LAYER
5
10
100
AcDbSymbolTableRecord
100
AcDbLayerTableRecord
2
0
70
0
62
7
6
Continuous
290
1
370
-3
390
0
0
LAYER
5
71
100
AcDbSymbolTableRecord
100
AcDbLayerTableRecord
2
80
70
0
62
-6
6
Continuous
290
1
370
-3
390
0
0
LAYER
5
73
100
AcDbSymbolTableRecord
100
AcDbLayerTableRecord
2
81
70
0
62
-3
6
Continuous
290
1
370
-3
390
0
0
LAYER
5
75
100
AcDbSymbolTableRecord
100
AcDbLayerTableRecord
2
1
70
0
62
4
6
Continuous
290
1
370
-3
390
0
0
LAYER
5
92
100
AcDbSymbolTableRecord
100
AcDbLayerTableRecord
2
4
70
0
62
-2
6
CENTER
290
1
370
-3
390
0
0
LAYER
5
AB
100
AcDbSymbolTableRecord
100
AcDbLayerTableRecord
2
2
70
0
62
7
6
Continuous
290
1
370
-3
390
0
0
LAYER
5
11A
100
AcDbSymbolTableRecord
100
AcDbLayerTableRecord
2
Defpoints
70
0
62
7
6
Continuous
290
0
370
-3
390
0
0
LAYER
5
1f1
100
AcDbSymbolTableRecord
100
AcDbLayerTableRecord
2
SK1
70
0
62
4
6
Continuous
290
1
370
-3
390
0
0
LAYER
5
1f2
100
AcDbSymbolTableRecord
100
AcDbLayerTableRecord
2
SK4
70
0
62
2
6
CENTER
290
1
370
-3
390
0
0
LAYER
5
1f3
100
AcDbSymbolTableRecord
100
AcDbLayerTableRecord
2
SK2
70
0
62
7
6
Continuous
290
1
370
-3
390
0
0
LAYER
5
1f4
100
AcDbSymbolTableRecord
100
AcDbLayerTableRecord
2
SK6
70
0
62
5
6
Continuous
290
1
370
-3
390
0
0
ENDTAB
0
TABLE
2
STYLE
5
208
100
AcDbSymbolTable
0
STYLE
5
11
100
AcDbSymbolTableRecord
100
AcDbTextStyleTableRecord
2
Standard
3
txt
70
0
71
0
40
0
41
1
42
0
50
0
0
STYLE
5
FF
100
AcDbSymbolTableRecord
100
AcDbTextStyleTableRecord
2
iso_b_vert
3
simplex.shx
70
0
71
0
40
0
41
1
42
0
50
0
0
STYLE
5
100
100
AcDbSymbolTableRecord
100
AcDbTextStyleTableRecord
2
DWGDirectTextStyle
3
simplex
70
0
71
0
40
0
41
1
42
0
50
0
0
ENDTAB
0
TABLE
2
DIMSTYLE
5
209
100
AcDbSymbolTable
100
AcDbDimStyleTable
0
DIMSTYLE
105
27
100
AcDbSymbolTableRecord
100
AcDbDimStyleTableRecord
2
Standard
70
0
3
<>
41
0.18
42
0.0625
44
0.18
140
0.18
147
0.09
73
0
74
0
77
1
271
2
275
0
278
52
280
0
340
11
0
ENDTAB
0
TABLE
2
VIEW
5
20a
100
AcDbSymbolTable
0
ENDTAB
0
TABLE
2
UCS
5
20b
100
AcDbSymbolTable
0
ENDTAB
0
TABLE
2
APPID
5
20c
100
AcDbSymbolTable
0
APPID
5
12
100
AcDbSymbolTableRecord
100
AcDbRegAppTableRecord
2
ACAD
70
0
0
APPID
5
116
100
AcDbSymbolTableRecord
100
AcDbRegAppTableRecord
2
ACAD_DSTYLE_DIMBREAK
70
0
0
APPID
5
1B0
100
AcDbSymbolTableRecord
100
AcDbRegAppTableRecord
2
ACAD_DSTYLE_DIM_LINETYPE
70
0
0
APPID
5
1B1
100
AcDbSymbolTableRecord
100
AcDbRegAppTableRecord
2
ACAD_DSTYLE_DIM_EXT1_LINETYPE
70
0
0
APPID
5
1B2
100
AcDbSymbolTableRecord
100
AcDbRegAppTableRecord
2
ACAD_DSTYLE_DIM_EXT2_LINETYPE
70
0
0
APPID
5
1ED
100
AcDbSymbolTableRecord
100
AcDbRegAppTableRecord
2
ACAD_MLEADERVER
70
0
0
ENDTAB
0
TABLE
2
BLOCK_RECORD
5
20d
100
AcDbSymbolTable
0
BLOCK_RECORD
5
1F
100
AcDbSymbolTableRecord
100
AcDbBlockTableRecord
2
*Model_Space
340
0
70
0
0
BLOCK_RECORD
5
1B
100
AcDbSymbolTableRecord
100
AcDbBlockTableRecord
2
*Paper_Space
340
0
70
0
0
BLOCK_RECORD
5
23
100
AcDbSymbolTableRecord
100
AcDbBlockTableRecord
2
*Paper_Space0
340
0
70
0
0
BLOCK_RECORD
5
11B
100
AcDbSymbolTableRecord
100
AcDbBlockTableRecord
2
*D1
340
0
70
0
0
BLOCK_RECORD
5
127
100
AcDbSymbolTableRecord
100
AcDbBlockTableRecord
2
_U0
340
0
70
0
0
BLOCK_RECORD
5
133
100
AcDbSymbolTableRecord
100
AcDbBlockTableRecord
2
*D3
340
0
70
0
0
BLOCK_RECORD
5
13F
100
AcDbSymbolTableRecord
100
AcDbBlockTableRecord
2
_U1
340
0
70
0
0
BLOCK_RECORD
5
14B
100
AcDbSymbolTableRecord
100
AcDbBlockTableRecord
2
*D5
340
0
70
0
0
BLOCK_RECORD
5
157
100
AcDbSymbolTableRecord
100
AcDbBlockTableRecord
2
_U2
340
0
70
0
0
BLOCK_RECORD
5
163
100
AcDbSymbolTableRecord
100
AcDbBlockTableRecord
2
*D7
340
0
70
0
0
BLOCK_RECORD
5
171
100
AcDbSymbolTableRecord
100
AcDbBlockTableRecord
2
_U3
340
0
70
0
0
BLOCK_RECORD
5
17D
100
AcDbSymbolTableRecord
100
AcDbBlockTableRecord
2
*D9
340
0
70
0
0
BLOCK_RECORD
5
189
100
AcDbSymbolTableRecord
100
AcDbBlockTableRecord
2
_U4
340
0
70
0
0
ENDTAB
0
ENDSEC
0
SECTION
2
BLOCKS
0
BLOCK
5
20
100
AcDbEntity
8
0
100
AcDbBlockBegin
2
*Model_Space
70
0
10
0
20
0
30
0
3
*Model_Space
0
ENDBLK
5
21
100
AcDbEntity
8
0
100
AcDbBlockEnd
0
BLOCK
5
1C
100
AcDbEntity
8
0
100
AcDbBlockBegin
2
*Paper_Space
70
0
10
0
20
0
30
0
3
*Paper_Space
0
ENDBLK
5
1D
100
AcDbEntity
8
0
100
AcDbBlockEnd
0
BLOCK
5
24
100
AcDbEntity
8
0
100
AcDbBlockBegin
2
*Paper_Space0
70
0
10
0
20
0
30
0
3
*Paper_Space0
0
ENDBLK
5
25
100
AcDbEntity
8
0
100
AcDbBlockEnd
0
BLOCK
5
11C
100
AcDbEntity
8
0
100
AcDbBlockBegin
2
*D1
70
1
10
0
20
0
30
0
3
*D1
0
LINE
5
11E
100
AcDbEntity
8
0
62
256
6
ByLayer
370
-2
48
1
60
0
100
AcDbLine
10
0
20
-1.5875
30
0
11
0
21
-15.763398
31
0
39
0
210
0
220
0
230
1
0
LINE
5
11F
100
AcDbEntity
8
0
62
256
6
ByLayer
370
-2
48
1
60
0
100
AcDbLine
10
53.7
20
-5.1375
30
0
11
53.7
21
-15.763398
31
0
39
0
210
0
220
0
230
1
0
LINE
5
120
100
AcDbEntity
8
0
62
256
6
ByLayer
370
-2
48
1
60
0
100
AcDbLine
10
3.5
20
-13.763398
30
0
11
50.2
21
-13.763398
31
0
39
0
210
0
220
0
230
1
0
SOLID
5
121
100
AcDbEntity
8
0
62
256
6
ByLayer
370
-1
48
1
60
0
100
AcDbTrace
10
3.5
20
-13.180065
30
0
11
3.5
21
-14.346732
31
0
12
0
22
-13.763398
32
0
13
0
23
-13.763398
33
0
39
0
210
0
220
0
230
1
0
SOLID
5
122
100
AcDbEntity
8
0
62
256
6
ByLayer
370
-1
48
1
60
0
100
AcDbTrace
10
50.2
20
-14.346732
30
0
11
50.2
21
-13.180065
31
0
12
53.7
22
-13.763398
32
0
13
53.7
23
-13.763398
33
0
39
0
210
0
220
0
230
1
0
MTEXT
5
123
100
AcDbEntity
8
0
62
256
6
ByLayer
370
18
48
1
60
0
100
AcDbMText
10
26.85
20
-6.763398
30
0
210
0
220
0
230
1
1
\A1;53.70
40
3.5
41
0
44
1
50
0
71
5
72
5
7
iso_b_vert
0
POINT
5
124
100
AcDbEntity
8
Defpoints
62
0
6
ByLayer
370
-1
48
1
60
0
100
AcDbPoint
10
0
20
0
30
0
39
0
210
0
220
0
230
1
50
360
0
POINT
5
125
100
AcDbEntity
8
Defpoints
62
0
6
ByLayer
370
-1
48
1
60
0
100
AcDbPoint
10
53.7
20
-3.55
30
0
39
0
210
0
220
0
230
1
50
360
0
POINT
5
126
100
AcDbEntity
8
Defpoints
62
0
6
ByLayer
370
-1
48
1
60
0
100
AcDbPoint
10
53.7
20
-13.763398
30
0
39
0
210
0
220
0
230
1
50
360
0
ENDBLK
5
11D
100
AcDbEntity
8
0
100
AcDbBlockEnd
0
BLOCK
5
12E
100
AcDbEntity
8
0
100
AcDbBlockBegin
2
_U0
70
0
10
0
20
0
30
0
3
_U0
0
MTEXT
5
128
100
AcDbEntity
8
SK2
62
256
6
ByLayer
370
13
48
1
60
0
100
AcDbMText
10
21.712701
20
-12.730765
30
0
210
0
220
0
230
1
1
\W0.7317;53,70
40
3.5
41
0
44
1.084337
50
0
71
7
72
5
7
iso_b_vert
0
LINE
5
129
100
AcDbEntity
8
SK2
62
256
6
ByLayer
370
13
48
1
60
0
100
AcDbLine
10
0
20
-1.5875
30
0
11
0
21
-15.763398
31
0
39
0
210
0
220
0
230
1
0
LINE
5
12A
100
AcDbEntity
8
SK2
62
256
6
ByLayer
370
13
48
1
60
0
100
AcDbLine
10
53.7
20
-5.1375
30
0
11
53.7
21
-15.763398
31
0
39
0
210
0
220
0
230
1
0
LINE
5
12B
100
AcDbEntity
8
SK2
62
256
6
ByLayer
370
13
48
1
60
0
100
AcDbLine
10
0
20
-13.763398
30
0
11
53.7
21
-13.763398
31
0
39
0
210
0
220
0
230
1
0
SOLID
5
12C
100
AcDbEntity
8
SK2
62
256
6
ByLayer
370
18
48
1
60
0
100
AcDbTrace
10
0
20
-13.763398
30
0
11
3.499998
21
-13.302615
31
0
12
3.500002
22
-14.224182
32
0
13
3.500002
23
-14.224182
33
0
39
0
210
0
220
0
230
1
0
SOLID
5
12D
100
AcDbEntity
8
SK2
62
256
6
ByLayer
370
18
48
1
60
0
100
AcDbTrace
10
53.7
20
-13.763398
30
0
11
50.200002
21
-14.224182
31
0
12
50.199998
22
-13.302615
32
0
13
50.199998
23
-13.302615
33
0
39
0
210
0
220
0
230
1
0
ENDBLK
5
12F
100
AcDbEntity
8
0
100
AcDbBlockEnd
0
BLOCK
5
134
100
AcDbEntity
8
0
100
AcDbBlockBegin
2
*D3
70
1
10
0
20
0
30
0
3
*D3
0
LINE
5
136
100
AcDbEntity
8
0
62
256
6
ByLayer
370
-2
48
1
60
0
100
AcDbLine
10
-36
20
-5.5875
30
0
11
-36
21
-34.692985
31
0
39
0
210
0
220
0
230
1
0
LINE
5
137
100
AcDbEntity
8
0
62
256
6
ByLayer
370
-2
48
1
60
0
100
AcDbLine
10
55
20
-1.5875
30
0
11
55
21
-34.692985
31
0
39
0
210
0
220
0
230
1
0
LINE
5
138
100
AcDbEntity
8
0
62
256
6
ByLayer
370
-2
48
1
60
0
100
AcDbLine
10
-32.5
20
-32.692985
30
0
11
51.5
21
-32.692985
31
0
39
0
210
0
220
0
230
1
0
SOLID
5
139
100
AcDbEntity
8
0
62
256
6
ByLayer
370
-1
48
1
60
0
100
AcDbTrace
10
-32.5
20
-32.109652
30
0
11
-32.5
21
-33.276319
31
0
12
-36
22
-32.692985
32
0
13
-36
23
-32.692985
33
0
39
0
210
0
220
0
230
1
0
SOLID
5
13A
100
AcDbEntity
8
0
62
256
6
ByLayer
370
-1
48
1
60
0
100
AcDbTrace
10
51.5
20
-33.276319
30
0
11
51.5
21
-32.109652
31
0
12
55
22
-32.692985
32
0
13
55
23
-32.692985
33
0
39
0
210
0
220
0
230
1
0
MTEXT
5
13B
100
AcDbEntity
8
0
62
256
6
ByLayer
370
18
48
1
60
0
100
AcDbMText
10
9.5
20
-25.692985
30
0
210
0
220
0
230
1
1
\A1;91.00
40
3.5
41
0
44
1
50
0
71
5
72
5
7
iso_b_vert
0
POINT
5
13C
100
AcDbEntity
8
Defpoints
62
0
6
ByLayer
370
-1
48
1
60
0
100
AcDbPoint
10
-36
20
-4
30
0
39
0
210
0
220
0
230
1
50
360
0
POINT
5
13D
100
AcDbEntity
8
Defpoints
62
0
6
ByLayer
370
-1
48
1
60
0
100
AcDbPoint
10
55
20
0
30
0
39
0
210
0
220
0
230
1
50
360
0
POINT
5
13E
100
AcDbEntity
8
Defpoints
62
0
6
ByLayer
370
-1
48
1
60
0
100
AcDbPoint
10
55
20
-32.692985
30
0
39
0
210
0
220
0
230
1
50
360
0
ENDBLK
5
135
100
AcDbEntity
8
0
100
AcDbBlockEnd
0
BLOCK
5
146
100
AcDbEntity
8
0
100
AcDbBlockBegin
2
_U1
70
0
10
0
20
0
30
0
3
_U1
0
MTEXT
5
140
100
AcDbEntity
8
SK2
62
256
6
ByLayer
370
13
48
1
60
0
100
AcDbMText
10
4.800135
20
-31.660352
30
0
210
0
220
0
230
1
1
\W0.6713;91,00
40
3.5
41
0
44
1.084337
50
0
71
7
72
5
7
iso_b_vert
0
LINE
5
141
100
AcDbEntity
8
SK2
62
256
6
ByLayer
370
13
48
1
60
0
100
AcDbLine
10
-36
20
-5.5875
30
0
11
-36
21
-34.692985
31
0
39
0
210
0
220
0
230
1
0
LINE
5
142
100
AcDbEntity
8
SK2
62
256
6
ByLayer
370
13
48
1
60
0
100
AcDbLine
10
55
20
-1.5875
30
0
11
55
21
-34.692985
31
0
39
0
210
0
220
0
230
1
0
LINE
5
143
100
AcDbEntity
8
SK2
62
256
6
ByLayer
370
13
48
1
60
0
100
AcDbLine
10
-36
20
-32.692985
30
0
11
55
21
-32.692985
31
0
39
0
210
0
220
0
230
1
0
SOLID
5
144
100
AcDbEntity
8
SK2
62
256
6
ByLayer
370
18
48
1
60
0
100
AcDbTrace
10
-36
20
-32.692985
30
0
11
-32.500002
21
-32.232202
31
0
12
-32.499998
22
-33.153769
32
0
13
-32.499998
23
-33.153769
33
0
39
0
210
0
220
0
230
1
0
SOLID
5
145
100
AcDbEntity
8
SK2
62
256
6
ByLayer
370
18
48
1
60
0
100
AcDbTrace
10
55
20
-32.692985
30
0
11
51.500002
21
-33.153769
31
0
12
51.499998
22
-32.232202
32
0
13
51.499998
23
-32.232202
33
0
39
0
210
0
220
0
230
1
0
ENDBLK
5
147
100
AcDbEntity
8
0
100
AcDbBlockEnd
0
BLOCK
5
14C
100
AcDbEntity
8
0
100
AcDbBlockBegin
2
*D5
70
1
10
0
20
0
30
0
3
*D5
0
LINE
5
14E
100
AcDbEntity
8
0
62
256
6
ByLayer
370
-2
48
1
60
0
100
AcDbLine
10
14.3785
20
5.1375
30
0
11
14.3785
21
17.159119
31
0
39
0
210
0
220
0
230
1
0
LINE
5
14F
100
AcDbEntity
8
0
62
256
6
ByLayer
370
-2
48
1
60
0
100
AcDbLine
10
55
20
1.5875
30
0
11
55
21
17.159119
31
0
39
0
210
0
220
0
230
1
0
LINE
5
150
100
AcDbEntity
8
0
62
256
6
ByLayer
370
-2
48
1
60
0
100
AcDbLine
10
17.8785
20
15.159119
30
0
11
51.5
21
15.159119
31
0
39
0
210
0
220
0
230
1
0
SOLID
5
151
100
AcDbEntity
8
0
62
256
6
ByLayer
370
-1
48
1
60
0
100
AcDbTrace
10
17.8785
20
15.742453
30
0
11
17.8785
21
14.575786
31
0
12
14.3785
22
15.159119
32
0
13
14.3785
23
15.159119
33
0
39
0
210
0
220
0
230
1
0
SOLID
5
152
100
AcDbEntity
8
0
62
256
6
ByLayer
370
-1
48
1
60
0
100
AcDbTrace
10
51.5
20
14.575786
30
0
11
51.5
21
15.742453
31
0
12
55
22
15.159119
32
0
13
55
23
15.159119
33
0
39
0
210
0
220
0
230
1
0
MTEXT
5
153
100
AcDbEntity
8
0
62
256
6
ByLayer
370
18
48
1
60
0
100
AcDbMText
10
34.68925
20
22.159119
30
0
210
0
220
0
230
1
1
\A1;40.62
40
3.5
41
0
44
1
50
0
71
5
72
5
7
iso_b_vert
0
POINT
5
154
100
AcDbEntity
8
Defpoints
62
0
6
ByLayer
370
-1
48
1
60
0
100
AcDbPoint
10
14.3785
20
3.55
30
0
39
0
210
0
220
0
230
1
50
360
0
POINT
5
155
100
AcDbEntity
8
Defpoints
62
0
6
ByLayer
370
-1
48
1
60
0
100
AcDbPoint
10
55
20
0
30
0
39
0
210
0
220
0
230
1
50
360
0
POINT
5
156
100
AcDbEntity
8
Defpoints
62
0
6
ByLayer
370
-1
48
1
60
0
100
AcDbPoint
10
55
20
15.159119
30
0
39
0
210
0
220
0
230
1
50
360
0
ENDBLK
5
14D
100
AcDbEntity
8
0
100
AcDbBlockEnd
0
BLOCK
5
15E
100
AcDbEntity
8
0
100
AcDbBlockBegin
2
_U2
70
0
10
0
20
0
30
0
3
_U2
0
MTEXT
5
158
100
AcDbEntity
8
SK2
62
256
6
ByLayer
370
13
48
1
60
0
100
AcDbMText
10
29.367685
20
16.191753
30
0
210
0
220
0
230
1
1
\W0.7581;40,62
40
3.5
41
0
44
1.084337
50
0
71
7
72
5
7
iso_b_vert
0
LINE
5
159
100
AcDbEntity
8
SK2
62
256
6
ByLayer
370
13
48
1
60
0
100
AcDbLine
10
14.3785
20
5.1375
30
0
11
14.3785
21
17.159119
31
0
39
0
210
0
220
0
230
1
0
LINE
5
15A
100
AcDbEntity
8
SK2
62
256
6
ByLayer
370
13
48
1
60
0
100
AcDbLine
10
55
20
1.5875
30
0
11
55
21
17.159119
31
0
39
0
210
0
220
0
230
1
0
LINE
5
15B
100
AcDbEntity
8
SK2
62
256
6
ByLayer
370
13
48
1
60
0
100
AcDbLine
10
14.3785
20
15.159119
30
0
11
55
21
15.159119
31
0
39
0
210
0
220
0
230
1
0
SOLID
5
15C
100
AcDbEntity
8
SK2
62
256
6
ByLayer
370
18
48
1
60
0
100
AcDbTrace
10
14.3785
20
15.159119
30
0
11
17.878498
21
15.619903
31
0
12
17.878502
22
14.698335
32
0
13
17.878502
23
14.698335
33
0
39
0
210
0
220
0
230
1
0
SOLID
5
15D
100
AcDbEntity
8
SK2
62
256
6
ByLayer
370
18
48
1
60
0
100
AcDbTrace
10
55
20
15.159119
30
0
11
51.500002
21
14.698335
31
0
12
51.499998
22
15.619903
32
0
13
51.499998
23
15.619903
33
0
39
0
210
0
220
0
230
1
0
ENDBLK
5
15F
100
AcDbEntity
8
0
100
AcDbBlockEnd
0
BLOCK
5
164
100
AcDbEntity
8
0
100
AcDbBlockBegin
2
*D7
70
1
10
0
20
0
30
0
3
*D7
0
LINE
5
166
100
AcDbEntity
8
0
62
256
6
ByLayer
370
-2
48
1
60
0
100
AcDbLine
10
55
20
-1.5875
30
0
11
55
21
-18.352503
31
0
39
0
210
0
220
0
230
1
0
LINE
5
167
100
AcDbEntity
8
0
62
256
6
ByLayer
370
-2
48
1
60
0
100
AcDbLine
10
53.7
20
-5.1375
30
0
11
53.7
21
-18.352503
31
0
39
0
210
0
220
0
230
1
0
LINE
5
168
100
AcDbEntity
8
0
62
256
6
ByLayer
370
-2
48
1
60
0
100
AcDbLine
10
55
20
-16.352503
30
0
11
82.666667
21
-16.352503
31
0
39
0
210
0
220
0
230
1
0
LINE
5
169
100
AcDbEntity
8
0
62
256
6
ByLayer
370
-2
48
1
60
0
100
AcDbLine
10
58.5
20
-16.352503
30
0
11
62
21
-16.352503
31
0
39
0
210
0
220
0
230
1
0
LINE
5
16A
100
AcDbEntity
8
0
62
256
6
ByLayer
370
-2
48
1
60
0
100
AcDbLine
10
50.2
20
-16.352503
30
0
11
46.7
21
-16.352503
31
0
39
0
210
0
220
0
230
1
0
SOLID
5
16B
100
AcDbEntity
8
0
62
256
6
ByLayer
370
-1
48
1
60
0
100
AcDbTrace
10
58.5
20
-15.76917
30
0
11
58.5
21
-16.935837
31
0
12
55
22
-16.352503
32
0
13
55
23
-16.352503
33
0
39
0
210
0
220
0
230
1
0
SOLID
5
16C
100
AcDbEntity
8
0
62
256
6
ByLayer
370
-1
48
1
60
0
100
AcDbTrace
10
50.2
20
-16.935837
30
0
11
50.2
21
-15.76917
31
0
12
53.7
22
-16.352503
32
0
13
53.7
23
-16.352503
33
0
39
0
210
0
220
0
230
1
0
MTEXT
5
16D
100
AcDbEntity
8
0
62
256
6
ByLayer
370
18
48
1
60
0
100
AcDbMText
10
72.333333
20
-9.352503
30
0
210
0
220
0
230
1
1
\A1;1.30
40
3.5
41
0
44
1
50
0
71
5
72
5
7
iso_b_vert
0
POINT
5
16E
100
AcDbEntity
8
Defpoints
62
0
6
ByLayer
370
-1
48
1
60
0
100
AcDbPoint
10
55
20
0
30
0
39
0
210
0
220
0
230
1
50
360
0
POINT
5
16F
100
AcDbEntity
8
Defpoints
62
0
6
ByLayer
370
-1
48
1
60
0
100
AcDbPoint
10
53.7
20
-3.55
30
0
39
0
210
0
220
0
230
1
50
360
0
POINT
5
170
100
AcDbEntity
8
Defpoints
62
0
6
ByLayer
370
-1
48
1
60
0
100
AcDbPoint
10
53.7
20
-16.352503
30
0
39
0
210
0
220
0
230
1
50
360
0
ENDBLK
5
165
100
AcDbEntity
8
0
100
AcDbBlockEnd
0
BLOCK
5
178
100
AcDbEntity
8
0
100
AcDbBlockBegin
2
_U3
70
0
10
0
20
0
30
0
3
_U3
0
MTEXT
5
172
100
AcDbEntity
8
SK2
62
256
6
ByLayer
370
13
48
1
60
0
100
AcDbMText
10
61.589293
20
-15.31987
30
0
210
0
220
0
230
1
1
\W0.6367;1,30
40
3.5
41
0
44
1.084337
50
0
71
7
72
5
7
iso_b_vert
0
LINE
5
173
100
AcDbEntity
8
SK2
62
256
6
ByLayer
370
13
48
1
60
0
100
AcDbLine
10
55
20
-1.5875
30
0
11
55
21
-18.352503
31
0
39
0
210
0
220
0
230
1
0
LINE
5
174
100
AcDbEntity
8
SK2
62
256
6
ByLayer
370
13
48
1
60
0
100
AcDbLine
10
53.7
20
-5.1375
30
0
11
53.7
21
-18.352503
31
0
39
0
210
0
220
0
230
1
0
LINE
5
175
100
AcDbEntity
8
SK2
62
256
6
ByLayer
370
13
48
1
60
0
100
AcDbLine
10
44.95
20
-16.352503
30
0
11
68.559058
21
-16.352503
31
0
39
0
210
0
220
0
230
1
0
SOLID
5
176
100
AcDbEntity
8
SK2
62
256
6
ByLayer
370
18
48
1
60
0
100
AcDbTrace
10
55
20
-16.352503
30
0
11
58.499998
21
-15.891719
31
0
12
58.500002
22
-16.813287
32
0
13
58.500002
23
-16.813287
33
0
39
0
210
0
220
0
230
1
0
SOLID
5
177
100
AcDbEntity
8
SK2
62
256
6
ByLayer
370
18
48
1
60
0
100
AcDbTrace
10
53.7
20
-16.352503
30
0
11
50.200002
21
-16.813287
31
0
12
50.199998
22
-15.891719
32
0
13
50.199998
23
-15.891719
33
0
39
0
210
0
220
0
230
1
0
ENDBLK
5
179
100
AcDbEntity
8
0
100
AcDbBlockEnd
0
BLOCK
5
17E
100
AcDbEntity
8
0
100
AcDbBlockBegin
2
*D9
70
1
10
0
20
0
30
0
3
*D9
0
LINE
5
180
100
AcDbEntity
8
0
62
256
6
ByLayer
370
-2
48
1
60
0
100
AcDbLine
10
-36
20
-5.5875
30
0
11
-36
21
-24.343428
31
0
39
0
210
0
220
0
230
1
0
LINE
5
181
100
AcDbEntity
8
0
62
256
6
ByLayer
370
-2
48
1
60
0
100
AcDbLine
10
53.7
20
-5.1375
30
0
11
53.7
21
-24.343428
31
0
39
0
210
0
220
0
230
1
0
LINE
5
182
100
AcDbEntity
8
0
62
256
6
ByLayer
370
-2
48
1
60
0
100
AcDbLine
10
-32.5
20
-22.343428
30
0
11
50.2
21
-22.343428
31
0
39
0
210
0
220
0
230
1
0
SOLID
5
183
100
AcDbEntity
8
0
62
256
6
ByLayer
370
-1
48
1
60
0
100
AcDbTrace
10
-32.5
20
-21.760095
30
0
11
-32.5
21
-22.926762
31
0
12
-36
22
-22.343428
32
0
13
-36
23
-22.343428
33
0
39
0
210
0
220
0
230
1
0
SOLID
5
184
100
AcDbEntity
8
0
62
256
6
ByLayer
370
-1
48
1
60
0
100
AcDbTrace
10
50.2
20
-22.926762
30
0
11
50.2
21
-21.760095
31
0
12
53.7
22
-22.343428
32
0
13
53.7
23
-22.343428
33
0
39
0
210
0
220
0
230
1
0
MTEXT
5
185
100
AcDbEntity
8
0
62
256
6
ByLayer
370
18
48
1
60
0
100
AcDbMText
10
8.85
20
-15.343428
30
0
210
0
220
0
230
1
1
\A1;89.70
40
3.5
41
0
44
1
50
0
71
5
72
5
7
iso_b_vert
0
POINT
5
186
100
AcDbEntity
8
Defpoints
62
0
6
ByLayer
370
-1
48
1
60
0
100
AcDbPoint
10
-36
20
-4
30
0
39
0
210
0
220
0
230
1
50
360
0
POINT
5
187
100
AcDbEntity
8
Defpoints
62
0
6
ByLayer
370
-1
48
1
60
0
100
AcDbPoint
10
53.7
20
-3.55
30
0
39
0
210
0
220
0
230
1
50
360
0
POINT
5
188
100
AcDbEntity
8
Defpoints
62
0
6
ByLayer
370
-1
48
1
60
0
100
AcDbPoint
10
53.7
20
-22.343428
30
0
39
0
210
0
220
0
230
1
50
360
0
ENDBLK
5
17F
100
AcDbEntity
8
0
100
AcDbBlockEnd
0
BLOCK
5
190
100
AcDbEntity
8
0
100
AcDbBlockBegin
2
_U4
70
0
10
0
20
0
30
0
3
_U4
0
MTEXT
5
18A
100
AcDbEntity
8
SK2
62
256
6
ByLayer
370
13
48
1
60
0
100
AcDbMText
10
3.712701
20
-21.310795
30
0
210
0
220
0
230
1
1
\W0.7317;89,70
40
3.5
41
0
44
1.084337
50
0
71
7
72
5
7
iso_b_vert
0
LINE
5
18B
100
AcDbEntity
8
SK2
62
256
6
ByLayer
370
13
48
1
60
0
100
AcDbLine
10
-36
20
-5.5875
30
0
11
-36
21
-24.343428
31
0
39
0
210
0
220
0
230
1
0
LINE
5
18C
100
AcDbEntity
8
SK2
62
256
6
ByLayer
370
13
48
1
60
0
100
AcDbLine
10
53.7
20
-5.1375
30
0
11
53.7
21
-24.343428
31
0
39
0
210
0
220
0
230
1
0
LINE
5
18D
100
AcDbEntity
8
SK2
62
256
6
ByLayer
370
13
48
1
60
0
100
AcDbLine
10
-36
20
-22.343428
30
0
11
53.7
21
-22.343428
31
0
39
0
210
0
220
0
230
1
0
SOLID
5
18E
100
AcDbEntity
8
SK2
62
256
6
ByLayer
370
18
48
1
60
0
100
AcDbTrace
10
-36
20
-22.343428
30
0
11
-32.500002
21
-21.882645
31
0
12
-32.499998
22
-22.804212
32
0
13
-32.499998
23
-22.804212
33
0
39
0
210
0
220
0
230
1
0
SOLID
5
18F
100
AcDbEntity
8
SK2
62
256
6
ByLayer
370
18
48
1
60
0
100
AcDbTrace
10
53.7
20
-22.343428
30
0
11
50.200002
21
-22.804212
31
0
12
50.199998
22
-21.882645
32
0
13
50.199998
23
-21.882645
33
0
39
0
210
0
220
0
230
1
0
ENDBLK
5
191
100
AcDbEntity
8
0
100
AcDbBlockEnd
0
ENDSEC
0
SECTION
2
ENTITIES
0
ARC
5
B4
100
AcDbEntity
8
1
62
256
6
ByLayer
370
18
48
1
60
0
100
AcDbCircle
39
0
10
1.174231
20
-4.286822
30
0
40
0.8
210
0
220
0
230
1
100
AcDbArc
50
89.931245
51
137.213876
0
ARC
5
B5
100
AcDbEntity
8
1
62
256
6
ByLayer
370
18
48
1
60
0
100
AcDbCircle
39
0
10
0
20
-3.2
30
0
40
0.8
210
0
220
0
230
1
100
AcDbArc
50
270
51
317.213876
0
ARC
5
B6
100
AcDbEntity
8
1
62
256
6
ByLayer
370
18
48
1
60
0
100
AcDbCircle
39
0
10
1.174231
20
4.286822
30
0
40
0.8
210
0
220
0
230
1
100
AcDbArc
50
222.786124
51
270.068755
0
ARC
5
B7
100
AcDbEntity
8
1
62
256
6
ByLayer
370
18
48
1
60
0
100
AcDbCircle
39
0
10
0
20
3.2
30
0
40
0.8
210
0
220
0
230
1
100
AcDbArc
50
42.786124
51
90
0
ELLIPSE
5
B8
100
AcDbEntity
8
1
62
256
6
ByLayer
370
18
48
1
60
0
100
AcDbEllipse
10
55.000594
20
-0.001551
30
0
11
1.3001828217379
21
-3.55011282546894
31
0
210
0
220
0
230
1
40
0.073902
41
2.86208959337232
42
2.92745852796379
0
ELLIPSE
5
B9
100
AcDbEntity
8
1
62
256
6
ByLayer
370
18
48
1
60
0
100
AcDbEllipse
10
54.520367
20
1.412523
30
0
11
0.292882377425129
21
-0.799707144591774
31
0
210
0
220
0
230
1
40
0.073902
41
0.723085955294458
42
1.44051817565355
0
ELLIPSE
5
BA
100
AcDbEntity
8
1
62
256
6
ByLayer
370
18
48
1
60
0
100
AcDbEllipse
10
45.636363
20
1.412523
30
0
11
9.14397571657789
21
-0.596547346727391
31
0
210
0
220
0
230
1
40
0.058294
41
0.0209096083950318
42
0.305917646427244
0
ELLIPSE
5
BB
100
AcDbEntity
8
1
62
256
6
ByLayer
370
18
48
1
60
0
100
AcDbEllipse
10
55.000594
20
0.001551
30
0
11
1.30018271170952
21
3.5501125067627
31
0
210
0
220
0
230
1
40
0.073902
41
-2.92745851847311
42
-2.86208958087274
0
ELLIPSE
5
BC
100
AcDbEntity
8
1
62
256
6
ByLayer
370
13
48
1
60
0
100
AcDbEllipse
10
4.182864
20
-2.589758
30
0
11
-0.00503286269848756
21
0.0998732711643019
31
0
210
0
220
0
230
1
40
0.571363
41
0.808801146961419
42
2.15685274210092
0
ELLIPSE
5
BD
100
AcDbEntity
8
1
62
256
6
ByLayer
370
18
48
1
60
0
100
AcDbEllipse
10
54.953738
20
-0.059078
30
0
11
0.0685673025918122
21
0.197677258995373
31
0
210
0
220
0
230
1
40
0.089621
41
-2.14968638257565
42
-1.11177708820234
0
ELLIPSE
5
BE
100
AcDbEntity
8
1
62
256
6
ByLayer
370
18
48
1
60
0
100
AcDbEllipse
10
55.070838
20
0.145047
30
0
11
0.107158250226739
21
0.32615076387596
31
0
210
0
220
0
230
1
40
0.050974
41
2.12874153214689
42
2.34746929009443
0
ELLIPSE
5
BF
100
AcDbEntity
8
1
62
256
6
ByLayer
370
18
48
1
60
0
100
AcDbEllipse
10
54.520367
20
-1.412523
30
0
11
0.292882377372974
21
0.79970714447056
31
0
210
0
220
0
230
1
40
0.073902
41
-1.44051817576358
42
-0.723085955313502
0
ELLIPSE
5
C0
100
AcDbEntity
8
1
62
256
6
ByLayer
370
18
48
1
60
0
100
AcDbEllipse
10
55.070838
20
-0.145047
30
0
11
0.107158235842643
21
-0.326150724893859
31
0
210
0
220
0
230
1
40
0.050974
41
-2.34746925640621
42
-2.12874147934066
0
ELLIPSE
5
C1
100
AcDbEntity
8
1
62
256
6
ByLayer
370
13
48
1
60
0
100
AcDbEllipse
10
4.250309
20
-2.59982
30
0
11
0.0312352901786763
21
0.0949966138736213
31
0
210
0
220
0
230
1
40
0.335134
41
0.771255413014638
42
2.31966780457867
0
POINT
5
70
100
AcDbEntity
8
80
62
256
6
ByLayer
370
18
48
1
60
0
100
AcDbPoint
10
0
20
0
30
0
39
0
210
0
220
0
230
1
50
360
0
POINT
5
72
100
AcDbEntity
8
81
62
256
6
ByLayer
370
18
48
1
60
0
100
AcDbPoint
10
55
20
0
30
0
39
0
210
0
220
0
230
1
50
360
0
POINT
5
74
100
AcDbEntity
8
1
62
256
6
ByLayer
370
18
48
1
60
1
100
AcDbPoint
10
53.7
20
-3.55
30
0
39
0
210
0
220
0
230
1
50
360
0
POINT
5
76
100
AcDbEntity
8
1
62
256
6
ByLayer
370
18
48
1
60
1
100
AcDbPoint
10
-36
20
-4
30
0
39
0
210
0
220
0
230
1
50
360
0
POINT
5
77
100
AcDbEntity
8
1
62
256
6
ByLayer
370
18
48
1
60
1
100
AcDbPoint
10
14.3785
20
3.55
30
0
39
0
210
0
220
0
230
1
50
360
0
POINT
5
78
100
AcDbEntity
8
1
62
256
6
ByLayer
370
18
48
1
60
1
100
AcDbPoint
10
53.7
20
-3.55
30
0
39
0
210
0
220
0
230
1
50
360
0
POINT
5
79
100
AcDbEntity
8
1
62
256
6
ByLayer
370
18
48
1
60
1
100
AcDbPoint
10
-36
20
-4
30
0
39
0
210
0
220
0
230
1
50
360
0
POINT
5
7A
100
AcDbEntity
8
1
62
256
6
ByLayer
370
18
48
1
60
1
100
AcDbPoint
10
53.7
20
-3.55
30
0
39
0
210
0
220
0
230
1
50
360
0
SPLINE
5
C2
100
AcDbEntity
8
SK1
62
256
6
ByLayer
370
18
48
1
60
0
100
AcDbSpline
70
4
71
3
72
8
73
4
40
0
40
0
40
0
40
0
40
1
40
1
40
1
40
1
41
1
10
-35.5
20
-2.31469978676449
30
0
41
1
10
-35.667091034693
20
-2.1697041351232
30
0
41
1
10
-35.8338360609927
20
-2.02442937333487
30
0
41
1
10
-36
20
-1.87868587332289
30
0
0
SPLINE
5
C3
100
AcDbEntity
8
SK1
62
256
6
ByLayer
370
18
48
1
60
0
100
AcDbSpline
70
4
71
3
72
12
73
8
40
0
40
0
40
0
40
0
40
0.250000000000001
40
0.250000000000001
40
0.500000000000002
40
0.500000000000002
40
1
40
1
40
1
40
1
41
1
10
-35.4
20
-2.47265580625515
30
0
41
1
10
-35.4
20
-2.46100267364463
30
0
41
1
10
-35.4042370616106
20
-2.44641153350875
30
0
41
1
10
-35.4170648595203
20
-2.4171720364287
30
0
41
1
10
-35.4255346451078
20
-2.40250843281865
30
0
41
1
10
-35.4538247011425
20
-2.3605530379748
30
0
41
1
10
-35.4764732265133
20
-2.33511548326777
30
0
41
1
10
-35.5
20
-2.31469978676444
30
0
0
SPLINE
5
C4
100
AcDbEntity
8
SK1
62
256
6
ByLayer
370
18
48
1
60
0
100
AcDbSpline
70
4
71
3
72
8
73
4
40
0
40
0
40
0
40
0
40
1
40
1
40
1
40
1
41
1
10
-36
20
-2.68070257364229
30
0
41
1
10
-35.8338303991514
20
-2.82645103969304
30
0
41
1
10
-35.6670862289931
20
-2.9717250056579
30
0
41
1
10
-35.5
20
-3.11671648708389
30
0
0
SPLINE
5
C5
100
AcDbEntity
8
SK1
62
256
6
ByLayer
370
18
48
1
60
0
100
AcDbSpline
70
4
71
3
72
12
73
8
40
0
40
0
40
0
40
0
40
0.500000000000001
40
0.500000000000001
40
0.750000000000001
40
0.750000000000001
40
1
40
1
40
1
40
1
41
1
10
-35.5
20
-3.11671648708398
30
0
41
1
10
-35.4764672289083
20
-3.13713738809537
30
0
41
1
10
-35.4537710571501
20
-3.15415237626499
30
0
41
1
10
-35.4256648981904
20
-3.17011922662042
30
0
41
1
10
-35.4170936315986
20
-3.17390904063717
30
0
41
1
10
-35.4042750440943
20
-3.17587236608904
30
0
41
1
10
-35.4
20
-3.17389584104851
30
0
41
1
10
-35.4
20
-3.16773694653199
30
0
0
SPLINE
5
C6
100
AcDbEntity
8
1
62
256
6
ByLayer
370
18
48
1
60
0
100
AcDbSpline
70
4
71
3
72
10
73
6
40
0
40
0
40
0
40
0
40
0.597424259689389
40
0.597424259689389
40
1
40
1
40
1
40
1
41
1
10
53.7858584980056
20
3.48789801853627
30
0
41
1
10
53.5263852594908
20
3.51241777163395
30
0
41
1
10
53.2670136382418
20
3.52950154286248
30
0
41
1
10
52.8325452703757
20
3.5456055401705
30
0
41
1
10
52.657412765055
20
3.54869643436172
30
0
41
1
10
52.4822681168958
20
3.54838607870147
30
0
0
SPLINE
5
C7
100
AcDbEntity
8
1
62
256
6
ByLayer
370
18
48
1
60
0
100
AcDbSpline
70
4
71
3
72
48
73
44
40
0
40
0
40
0
40
0
40
0.0231777209306297
40
0.0231777209306297
40
0.0560066158686562
40
0.0560066158686562
40
0.0888355108066827
40
0.0888355108066827
40
0.154493300682736
40
0.154493300682736
40
0.220151090558789
40
0.220151090558789
40
0.252979985496815
40
0.252979985496815
40
0.28580888043484
40
0.28580888043484
40
0.351466670310893
40
0.351466670310893
40
0.384295565248919
40
0.384295565248919
40
0.417124460186945
40
0.417124460186945
40
0.449953355124972
40
0.449953355124972
40
0.482782250062998
40
0.482782250062998
40
0.548440039939049
40
0.548440039939049
40
0.679755619691153
40
0.679755619691153
40
0.712584514629179
40
0.712584514629179
40
0.745413409567205
40
0.745413409567205
40
0.811071199443258
40
0.811071199443258
40
0.876728989319311
40
0.876728989319311
40
0.909557884257337
40
0.909557884257337
40
0.942386779195364
40
0.942386779195364
40
1
40
1
40
1
40
1
41
1
10
32.6340496304651
20
-3.39342765140091
30
0
41
1
10
32.4507670184232
20
-3.41843236744987
30
0
41
1
10
32.2674097800866
20
-3.43987645484631
30
0
41
1
10
31.8238809890216
20
-3.48291740007994
30
0
41
1
10
31.5630881120502
20
-3.50085877990958
30
0
41
1
10
31.0440994943785
20
-3.52172703547441
30
0
41
1
10
30.78550888371
20
-3.5247205623231
30
0
41
1
10
30.0115427269321
20
-3.51174566239035
30
0
41
1
10
29.4979769068975
20
-3.47378111822428
30
0
41
1
10
28.4703005779856
20
-3.3415415251138
30
0
41
1
10
27.9562567313289
20
-3.24724796051709
30
0
41
1
10
27.1810009454458
20
-3.06564177445949
30
0
41
1
10
26.9218661322205
20
-2.99843461932449
30
0
41
1
10
26.4015424651622
20
-2.85105080907383
30
0
41
1
10
26.1409359084454
20
-2.77103644362188
30
0
41
1
10
25.3612285656563
20
-2.51471098780962
30
0
41
1
10
24.842557926023
20
-2.32150056915097
30
0
41
1
10
24.0621322918804
20
-2.00407071772608
30
0
41
1
10
23.8013253501614
20
-1.89354845729926
30
0
41
1
10
23.2810229598185
20
-1.66560431171686
30
0
41
1
10
23.0212537621268
20
-1.5480342020268
30
0
41
1
10
22.5018193627724
20
-1.30688719770478
30
0
41
1
10
22.2421220470111
20
-1.18336839398248
30
0
41
1
10
21.7221034989724
20
-0.931663340875474
30
0
41
1
10
21.4612915299339
20
-0.8031827104613
30
0
41
1
10
20.68082834694
20
-0.414670539782833
30
0
41
1
10
20.1646050149139
20
-0.151946223755033
30
0
41
1
10
18.6197498941299
20
0.630349757096525
30
0
41
1
10
17.5955971717998
20
1.14534732822011
30
0
41
1
10
16.2962566705596
20
1.72861467187303
30
0
41
1
10
16.0350841708038
20
1.84245770632492
30
0
41
1
10
15.5158697095804
20
2.06045666257074
30
0
41
1
10
15.2571444700999
20
2.1648868910022
30
0
41
1
10
14.4826788844176
20
2.46324945121731
30
0
41
1
10
13.9687563934054
20
2.64238856479028
30
0
41
1
10
12.9402786333941
20
2.95414053394237
30
0
41
1
10
12.4257534160721
20
3.08681059117146
30
0
41
1
10
11.6497273117532
20
3.24649066988766
30
0
41
1
10
11.3903468768796
20
3.29316567429436
30
0
41
1
10
10.869485389726
20
3.37265329111958
30
0
41
1
10
10.6087701275701
20
3.4053133058774
30
0
41
1
10
9.89444743791199
20
3.47490662729518
30
0
41
1
10
9.44191800997737
20
3.49666571586593
30
0
41
1
10
8.99017246619226
20
3.49613543578187
30
0
0
SPLINE
5
C8
100
AcDbEntity
8
1
62
256
6
ByLayer
370
18
48
1
60
0
100
AcDbSpline
70
4
71
3
72
22
73
18
40
0
40
0
40
0
40
0
40
0.0889829023856945
40
0.0889829023856945
40
0.156241438758784
40
0.156241438758784
40
0.223499975131873
40
0.223499975131873
40
0.492534120624231
40
0.492534120624231
40
0.62705119337041
40
0.62705119337041
40
0.694309729743499
40
0.694309729743499
40
0.761568266116588
40
0.761568266116588
40
1
40
1
40
1
40
1
41
1
10
14.0457195969474
20
2.57669440960183
30
0
41
1
10
14.3859855788972
20
2.4635428257549
30
0
41
1
10
14.7264919100111
20
2.34094722717194
30
0
41
1
10
15.3261321965369
20
2.11089047716146
30
0
41
1
10
15.5848079765054
20
2.00699044750695
30
0
41
1
10
16.1038720466065
20
1.79028513234289
30
0
41
1
10
16.3650131339502
20
1.67724902060368
30
0
41
1
10
17.6651314282571
20
1.09791472912801
30
0
41
1
10
18.6895525188329
20
0.587826193959984
30
0
41
1
10
20.2336382822777
20
-0.184646895011753
30
0
41
1
10
20.7494266823941
20
-0.443672089617479
30
0
41
1
10
21.5288201098497
20
-0.826147128247953
30
0
41
1
10
21.7899345176678
20
-0.952880576159345
30
0
41
1
10
22.3090671487479
20
-1.20027418881585
30
0
41
1
10
22.5677070824942
20
-1.32133290313394
30
0
41
1
10
23.7405434041901
20
-1.85687290941101
30
0
41
1
10
24.6480776133941
20
-2.23359786215588
30
0
41
1
10
25.5623148920588
20
-2.54625944400004
30
0
0
SPLINE
5
C9
100
AcDbEntity
8
1
62
256
6
ByLayer
370
13
48
1
60
0
100
AcDbSpline
70
4
71
3
72
22
73
18
40
0
40
0
40
0
40
0
40
0.0522864473962869
40
0.0522864473962869
40
0.167202551754886
40
0.167202551754886
40
0.282118656113485
40
0.282118656113485
40
0.511950864830679
40
0.511950864830679
40
0.626866969189274
40
0.626866969189274
40
0.741783073547869
40
0.741783073547869
40
0.971615282265053
40
0.971615282265053
40
1
40
1
40
1
40
1
41
1
10
25.5623148922644
20
-2.54625944407042
30
0
41
1
10
25.679656091097
20
-2.58638916279608
30
0
41
1
10
25.7971077122604
20
-2.62546354011872
30
0
41
1
10
26.1731441090196
20
-2.74688546194844
30
0
41
1
10
26.4322577355274
20
-2.8250208816884
30
0
41
1
10
26.9524937974397
20
-2.96964260085284
30
0
41
1
10
27.2132339223513
20
-3.03598396452875
30
0
41
1
10
27.9934735313448
20
-3.21486752309778
30
0
41
1
10
28.5131820369583
20
-3.30783962991006
30
0
41
1
10
29.2946883984915
20
-3.40449284998951
30
0
41
1
10
29.5549864252345
20
-3.42952243803001
30
0
41
1
10
30.0758357152324
20
-3.46499578926185
30
0
41
1
10
30.3361802954693
20
-3.47540360177157
30
0
41
1
10
31.1134361580624
20
-3.48452373397365
30
0
41
1
10
31.6281672507861
20
-3.4612690638613
30
0
41
1
10
32.2055211659524
20
-3.40353698270098
30
0
41
1
10
32.2689739763033
20
-3.3967600853953
30
0
41
1
10
32.3324183005281
20
-3.38955553803152
30
0
0
SPLINE
5
CA
100
AcDbEntity
8
1
62
256
6
ByLayer
370
18
48
1
60
0
100
AcDbSpline
70
4
71
3
72
14
73
10
40
0
40
0
40
0
40
0
40
0.500000000000005
40
0.500000000000005
40
0.625000000000006
40
0.625000000000006
40
0.750000000000007
40
0.750000000000007
40
1
40
1
40
1
40
1
41
1
10
53.2006458904357
20
-2.63828830413016
30
0
41
1
10
52.8838477093181
20
-2.45091928071369
30
0
41
1
10
52.5794062478669
20
-2.23118467641211
30
0
41
1
10
52.218899723936
20
-1.90401236742406
30
0
41
1
10
52.1478261791613
20
-1.83588592501329
30
0
41
1
10
52.0079800717716
20
-1.69360614743917
30
0
41
1
10
51.9389346918143
20
-1.61912156895093
30
0
41
1
10
51.7387849286137
20
-1.38891772055803
30
0
41
1
10
51.6140303490834
20
-1.22611318329172
30
0
41
1
10
51.4997373164444
20
-1.05205547422659
30
0
0
SPLINE
5
CB
100
AcDbEntity
8
1
62
256
6
ByLayer
370
18
48
1
60
0
100
AcDbSpline
70
4
71
3
72
26
73
22
40
0
40
0
40
0
40
0
40
0.124999999999999
40
0.124999999999999
40
0.187499999999999
40
0.187499999999999
40
0.249999999999999
40
0.249999999999999
40
0.312499999999999
40
0.312499999999999
40
0.374999999999999
40
0.374999999999999
40
0.499999999999999
40
0.499999999999999
40
0.624999999999999
40
0.624999999999999
40
0.75
40
0.75
40
0.875
40
0.875
40
1
40
1
40
1
40
1
41
1
10
54.5543084087221
20
-1.19576403349407
30
0
41
1
10
54.5544912716006
20
-1.20770699754044
30
0
41
1
10
54.5512390424057
20
-1.22839054179369
30
0
41
1
10
54.5411136978895
20
-1.27218228220985
30
0
41
1
10
54.5369358417918
20
-1.2885958230284
30
0
41
1
10
54.5270128377203
20
-1.32496908199116
30
0
41
1
10
54.5211939374175
20
-1.3451674299406
30
0
41
1
10
54.5083394132684
20
-1.38786878691212
30
0
41
1
10
54.5013155122167
20
-1.41035727179229
30
0
41
1
10
54.4861232195971
20
-1.45751681540034
30
0
41
1
10
54.4779038000762
20
-1.48232763769758
30
0
41
1
10
54.4524384337479
20
-1.55734309620541
30
0
41
1
10
54.4338459005658
20
-1.60973113943155
30
0
41
1
10
54.3960477392166
20
-1.71232840140411
30
0
41
1
10
54.376536560137
20
-1.76337530683097
30
0
41
1
10
54.3385607891984
20
-1.85931974881584
30
0
41
1
10
54.3198445784783
20
-1.90486934557075
30
0
41
1
10
54.284525672256
20
-1.98741371725097
30
0
41
1
10
54.2680984561916
20
-2.02405011398466
30
0
41
1
10
54.2377998356412
20
-2.08770770922018
30
0
41
1
10
54.224535982424
20
-2.11345333544745
30
0
41
1
10
54.2132993877438
20
-2.13267861846285
30
0
0
SPLINE
5
CC
100
AcDbEntity
8
1
62
256
6
ByLayer
370
18
48
1
60
0
100
AcDbSpline
70
4
71
3
72
46
73
42
40
0
40
0
40
0
40
0
40
0.0830116517353307
40
0.0830116517353307
40
0.124517477602997
40
0.124517477602997
40
0.166023303470663
40
0.166023303470663
40
0.207529129338329
40
0.207529129338329
40
0.249034955205995
40
0.249034955205995
40
0.332046606941327
40
0.332046606941327
40
0.373552432808994
40
0.373552432808994
40
0.415058258676661
40
0.415058258676661
40
0.456564084544327
40
0.456564084544327
40
0.498069910411994
40
0.498069910411994
40
0.53957573627966
40
0.53957573627966
40
0.581081562147327
40
0.581081562147327
40
0.66409321388266
40
0.66409321388266
40
0.705599039750326
40
0.705599039750326
40
0.747104865617993
40
0.747104865617993
40
0.830116517353325
40
0.830116517353325
40
0.871622343220993
40
0.871622343220993
40
0.913128169088661
40
0.913128169088661
40
0.996139820823996
40
0.996139820823996
40
1
40
1
40
1
40
1
41
1
10
16.0706265667984
20
1.62090434776653
30
0
41
1
10
16.4644108382618
20
1.44253633852392
30
0
41
1
10
16.8588707557043
20
1.26027730717448
30
0
41
1
10
17.4490792879091
20
0.976765156075516
30
0
41
1
10
17.6453210568265
20
0.880070438656844
30
0
41
1
10
18.0384601118286
20
0.685411999990947
30
0
41
1
10
18.2355320665414
20
0.587805729154383
30
0
41
1
10
18.6301812191925
20
0.391096167503775
30
0
41
1
10
18.8277941515959
20
0.292075514187246
30
0
41
1
10
19.221519930194
20
0.0926740556675441
30
0
41
1
10
19.4177521107331
20
-0.0079827361516607
30
0
41
1
10
20.0077519007842
20
-0.306466881066228
30
0
41
1
10
20.4017357755962
20
-0.502999581481589
30
0
41
1
10
20.9917510645012
20
-0.79789671751692
30
0
41
1
10
21.1889040016797
20
-0.895457617809512
30
0
41
1
10
21.5832999143556
20
-1.08666445039822
30
0
41
1
10
21.7803827615851
20
-1.18067746321392
30
0
41
1
10
22.1740062506123
20
-1.36613233720161
30
0
41
1
10
22.3703627932433
20
-1.45790203739372
30
0
41
1
10
22.7630015584612
20
-1.63792322075068
30
0
41
1
10
22.9597089823036
20
-1.72542958882968
30
0
41
1
10
23.3536256148221
20
-1.89599773151968
30
0
41
1
10
23.5508510464813
20
-1.97908410463185
30
0
41
1
10
23.9453379181864
20
-2.14132535234145
30
0
41
1
10
24.141766015659
20
-2.22060652669876
30
0
41
1
10
24.7317275385821
20
-2.44804192547957
30
0
41
1
10
25.1256327965673
20
-2.58661372880263
30
0
41
1
10
25.7150361514345
20
-2.7780576641907
30
0
41
1
10
25.9113980254022
20
-2.83888122538696
30
0
41
1
10
26.305593195363
20
-2.95257514386813
30
0
41
1
10
26.5031167310328
20
-3.00578127316462
30
0
41
1
10
27.0941324479022
20
-3.15438678066715
30
0
41
1
10
27.4859599770236
20
-3.2396161590506
30
0
41
1
10
28.0760670422248
20
-3.34206203691005
30
0
41
1
10
28.2729617439202
20
-3.37219905394062
30
0
41
1
10
28.6668075144813
20
-3.42457454966905
30
0
41
1
10
28.8637339086015
20
-3.4469045344176
30
0
41
1
10
29.4539656000821
20
-3.50085792144279
30
0
41
1
10
29.8479064440037
20
-3.51957780437977
30
0
41
1
10
30.2590301677121
20
-3.5216894294129
30
0
41
1
10
30.2772948831588
20
-3.52174605478825
30
0
41
1
10
30.295556774497
20
-3.52176553289453
30
0
0
SPLINE
5
CD
100
AcDbEntity
8
1
62
256
6
ByLayer
370
18
48
1
60
0
100
AcDbSpline
70
4
71
3
72
32
73
28
40
0
40
0
40
0
40
0
40
0.0478151113094359
40
0.0478151113094359
40
0.115828317644477
40
0.115828317644477
40
0.183841523979519
40
0.183841523979519
40
0.319867936649601
40
0.319867936649601
40
0.387881142984641
40
0.387881142984641
40
0.45589434931968
40
0.45589434931968
40
0.52390755565472
40
0.52390755565472
40
0.59192076198976
40
0.59192076198976
40
0.659933968324799
40
0.659933968324799
40
0.727947174659839
40
0.727947174659839
40
0.863973587329921
40
0.863973587329921
40
0.931986793664961
40
0.931986793664961
40
1
40
1
40
1
40
1
41
1
10
45.1613490088257
20
1.92219135146658
30
0
41
1
10
45.299252151262
20
1.981627366325
30
0
41
1
10
45.437173736265
20
2.03983556452209
30
0
41
1
10
45.771722316197
20
2.17719935331814
30
0
41
1
10
45.968313998621
20
2.25522333875762
30
0
41
1
10
46.3614615462696
20
2.4064663704327
30
0
41
1
10
46.5579207481136
20
2.48007376606557
30
0
41
1
10
47.1478710503947
20
2.69070889368717
30
0
41
1
10
47.5414610777396
20
2.81652418649327
30
0
41
1
10
48.129914309086
20
2.9865787574912
30
0
41
1
10
48.3256388399453
20
3.04016231324729
30
0
41
1
10
48.7183987816279
20
3.13890234723652
30
0
41
1
10
48.9151636987781
20
3.18437792631971
30
0
41
1
10
49.3091425909675
20
3.26785356601781
30
0
41
1
10
49.5060464397003
20
3.30579725349597
30
0
41
1
10
49.898345959753
20
3.37394532445853
30
0
41
1
10
50.0943000249382
20
3.40388368922498
30
0
41
1
10
50.4867482713795
20
3.45517001091892
30
0
41
1
10
50.6830484994771
20
3.47664810220672
30
0
41
1
10
51.0754901818374
20
3.51140518174279
30
0
41
1
10
51.271464104286
20
3.52471248957178
30
0
41
1
10
51.8597463449895
20
3.55177786348213
30
0
41
1
10
52.2547873597039
20
3.55257057195897
30
0
41
1
10
52.8435527847519
20
3.52835371854977
30
0
41
1
10
53.0391156362976
20
3.51591078174047
30
0
41
1
10
53.4308546227728
20
3.48273714204822
30
0
41
1
10
53.6270189830547
20
3.46206994239364
30
0
41
1
10
53.8232473775439
20
3.43729900953483
30
0
0
SPLINE
5
CE
100
AcDbEntity
8
1
62
256
6
ByLayer
370
18
48
1
60
0
100
AcDbSpline
70
4
71
3
72
18
73
14
40
0
40
0
40
0
40
0
40
0.125
40
0.125
40
0.25
40
0.25
40
0.375
40
0.375
40
0.5
40
0.5
40
0.75
40
0.75
40
1
40
1
40
1
40
1
41
1
10
54.6170137903206
20
1.330093979043
30
0
41
1
10
54.6227071919784
20
1.31131718689886
30
0
41
1
10
54.6260023338095
20
1.29232801496201
30
0
41
1
10
54.6266889093269
20
1.25380420245068
30
0
41
1
10
54.6239233363311
20
1.23455124937863
30
0
41
1
10
54.6127508261021
20
1.19848967650515
30
0
41
1
10
54.6041909114556
20
1.18114890767939
30
0
41
1
10
54.5834903971841
20
1.14975516080867
30
0
41
1
10
54.5712768322104
20
1.13537363177502
30
0
41
1
10
54.5308980783172
20
1.09539234200398
30
0
41
1
10
54.5002414946405
20
1.07376935914041
30
0
41
1
10
54.4352261743793
20
1.03537813221527
30
0
41
1
10
54.4009399654065
20
1.01887542451524
30
0
41
1
10
54.3662658043118
20
1.00420726244673
30
0
0
SPLINE
5
CF
100
AcDbEntity
8
1
62
256
6
ByLayer
370
18
48
1
60
0
100
AcDbSpline
70
4
71
3
72
14
73
10
40
0
40
0
40
0
40
0
40
0.25
40
0.25
40
0.5
40
0.5
40
0.75
40
0.75
40
1
40
1
40
1
40
1
41
1
10
7.66394074945586
20
-0.875322929768345
30
0
41
1
10
7.3701345004794
20
-0.738358555718833
30
0
41
1
10
7.0791061740853
20
-0.596525442398899
30
0
41
1
10
6.50127804381407
20
-0.305521788563851
30
0
41
1
10
6.21451456813438
20
-0.156288613296141
30
0
41
1
10
5.64539383221646
20
0.149707330742444
30
0
41
1
10
5.36296046877061
20
0.30634188925734
30
0
41
1
10
4.80301747237576
20
0.627978988663386
30
0
41
1
10
4.52548395043382
20
0.792937550168887
30
0
41
1
10
4.25146600720458
20
0.963902282669267
30
0
0
SPLINE
5
D0
100
AcDbEntity
8
1
62
256
6
ByLayer
370
18
48
1
60
0
100
AcDbSpline
70
4
71
3
72
25
73
21
40
0
40
0
40
0
40
0
40
0.125
40
0.125
40
0.25
40
0.25
40
0.3125
40
0.3125
40
0.375
40
0.375
40
0.5
40
0.625
40
0.625
40
0.6875
40
0.6875
40
0.75
40
0.75
40
0.875
40
0.875
40
1
40
1
40
1
40
1
41
1
10
4.02478300076765
20
-2.56430677769464
30
0
41
1
10
4.0248155395922
20
-2.45214398416738
30
0
41
1
10
4.02484647765121
20
-2.33097022644867
30
0
41
1
10
4.02490482933069
20
-2.07523569530736
30
0
41
1
10
4.02493221547081
20
-1.94098743361101
30
0
41
1
10
4.02497128628724
20
-1.73018469090201
30
0
41
1
10
4.02498397369692
20
-1.65833950539096
30
0
41
1
10
4.02500877460719
20
-1.51144607410742
30
0
41
1
10
4.02502092566718
20
-1.4361405443309
30
0
41
1
10
4.02505618763533
20
-1.2083798280577
30
0
41
1
10
4.02510028357892
20
-0.898584992861032
30
0
41
1
10
4.02514021606598
20
-0.576901968305805
30
0
41
1
10
4.02516903869412
20
-0.331038500503468
30
0
41
1
10
4.02517845446189
20
-0.248309575811788
30
0
41
1
10
4.02519666953071
20
-0.0839473551353933
30
0
41
1
10
4.02520550840595
20
-0.0019820602441598
30
0
41
1
10
4.02523130622717
20
0.24327810182487
30
0
41
1
10
4.0252475569371
20
0.405940345158371
30
0
41
1
10
4.02527836192371
20
0.729561926535922
30
0
41
1
10
4.02529300545359
20
0.891645443570269
30
0
41
1
10
4.0253063561465
20
1.04832200079545
30
0
0
SPLINE
5
D1
100
AcDbEntity
8
1
62
256
6
ByLayer
370
18
48
1
60
0
100
AcDbSpline
70
4
71
3
72
14
73
10
40
0
40
0
40
0
40
0
40
0.25
40
0.25
40
0.5
40
0.5
40
0.75
40
0.75
40
1
40
1
40
1
40
1
41
1
10
53.7544184436143
20
0.982259091686359
30
0
41
1
10
53.7304662261077
20
0.981613000755374
30
0
41
1
10
53.7065081290187
20
0.976779258978183
30
0
41
1
10
53.6649195170167
20
0.954750416094754
30
0
41
1
10
53.6474930422952
20
0.936811009984581
30
0
41
1
10
53.6274694274592
20
0.893201244130637
30
0
41
1
10
53.6245633230873
20
0.868694166472125
30
0
41
1
10
53.6275628730195
20
0.820833235813637
30
0
41
1
10
53.6333218453135
20
0.797161320546309
30
0
41
1
10
53.6414551847606
20
0.774385361542045
30
0
0
SPLINE
5
D2
100
AcDbEntity
8
1
62
256
6
ByLayer
370
18
48
1
60
0
100
AcDbSpline
70
4
71
3
72
22
73
18
40
0
40
0
40
0
40
0
40
0.125
40
0.125
40
0.25
40
0.25
40
0.375
40
0.375
40
0.5
40
0.5
40
0.625
40
0.625
40
0.75
40
0.75
40
0.875
40
0.875
40
1
40
1
40
1
40
1
41
1
10
53.8232473775439
20
-3.4372990095348
30
0
41
1
10
53.8561410963552
20
-3.35532521032047
30
0
41
1
10
53.8891818972074
20
-3.27226074317841
30
0
41
1
10
53.9554597661428
20
-3.10467641452479
30
0
41
1
10
53.988784206767
20
-3.01950865319057
30
0
41
1
10
54.0557706460852
20
-2.84667001213848
30
0
41
1
10
54.089339578452
20
-2.75925376871598
30
0
41
1
10
54.1563043535273
20
-2.58414656544289
30
0
41
1
10
54.1897349731002
20
-2.4960699353849
30
0
41
1
10
54.2564624500534
20
-2.31856523276082
30
0
41
1
10
54.2897727874302
20
-2.22915516846749
30
0
41
1
10
54.356283753251
20
-2.04971805292803
30
0
41
1
10
54.3894267330396
20
-1.95995761489385
30
0
41
1
10
54.4551596289367
20
-1.78023085606588
30
0
41
1
10
54.4877810471539
20
-1.69027626220574
30
0
41
1
10
54.5526308463
20
-1.51022076294038
30
0
41
1
10
54.5849731357283
20
-1.42002210259111
30
0
41
1
10
54.6170137903205
20
-1.33009397904334
30
0
0
SPLINE
5
D3
100
AcDbEntity
8
1
62
256
6
ByLayer
370
13
48
1
60
0
100
AcDbSpline
70
4
71
3
72
8
73
4
40
0
40
0
40
0
40
0
40
1
40
1
40
1
40
1
41
1
10
4.0744115686752
20
-2.63831674736986
30
0
41
1
10
4.09278192241302
20
-2.64195540906553
30
0
41
1
10
4.11386542062689
20
-2.64499889391195
30
0
41
1
10
4.13810560720967
20
-2.64739184547568
30
0
0
SPLINE
5
D4
100
AcDbEntity
8
1
62
256
6
ByLayer
370
13
48
1
60
0
100
AcDbSpline
70
4
71
3
72
8
73
4
40
0
40
0
40
0
40
0
40
1
40
1
40
1
40
1
41
1
10
4.13810560720967
20
-2.52288945791179
30
0
41
1
10
4.17334626124207
20
-2.51637136693216
30
0
41
1
10
4.21146627829276
20
-2.51690163037543
30
0
41
1
10
4.25051449611561
20
-2.52440699234558
30
0
0
SPLINE
5
D5
100
AcDbEntity
8
1
62
256
6
ByLayer
370
18
48
1
60
0
100
AcDbSpline
70
4
71
3
72
42
73
38
40
0
40
0
40
0
40
0
40
0.0625000000000012
40
0.0625000000000012
40
0.0937500000000002
40
0.0937500000000002
40
0.124999999999999
40
0.124999999999999
40
0.187499999999994
40
0.187499999999994
40
0.218749999999991
40
0.218749999999991
40
0.249999999999989
40
0.249999999999989
40
0.281249999999986
40
0.281249999999986
40
0.312499999999984
40
0.312499999999984
40
0.374999999999978
40
0.374999999999978
40
0.406249999999978
40
0.406249999999978
40
0.421874999999981
40
0.421874999999981
40
0.437499999999984
40
0.437499999999984
40
0.499999999999984
40
0.499999999999984
40
0.562499999999984
40
0.562499999999984
40
0.624999999999983
40
0.624999999999983
40
0.749999999999989
40
0.749999999999989
40
0.874999999999994
40
0.874999999999994
40
1
40
1
40
1
40
1
41
1
10
53.6414551847606
20
0.774385361542073
30
0
41
1
10
53.6747972316101
20
0.681016936788467
30
0
41
1
10
53.7113329889093
20
0.588500262088388
30
0
41
1
10
53.7686364291091
20
0.450409395319554
30
0
41
1
10
53.7880300614569
20
0.404533017353913
30
0
41
1
10
53.8281314988333
20
0.313526438008864
30
0
41
1
10
53.8488501055411
20
0.268405780036261
30
0
41
1
10
53.9039855336546
20
0.12924306668512
30
0
41
1
10
53.9332809362133
20
0.0342823436335209
30
0
41
1
10
53.9580546888797
20
-0.111974963011391
30
0
41
1
10
53.9631682149681
20
-0.161974047647647
30
0
41
1
10
53.9656092263905
20
-0.259602451515264
30
0
41
1
10
53.9631074786851
20
-0.307472034970715
30
0
41
1
10
53.9497668406685
20
-0.401095435414078
30
0
41
1
10
53.9389538122348
20
-0.446166002826999
30
0
41
1
10
53.9095211867315
20
-0.529657420251198
30
0
41
1
10
53.8906963451937
20
-0.56896988726777
30
0
41
1
10
53.8243394243461
20
-0.675961877178565
30
0
41
1
10
53.767727512929
20
-0.732360798801182
30
0
41
1
10
53.6744782350524
20
-0.801063442529454
30
0
41
1
10
53.6419451967998
20
-0.821182083268752
30
0
41
1
10
53.5916148784847
20
-0.84762665659747
30
0
41
1
10
53.5744569995579
20
-0.855580667604187
30
0
41
1
10
53.5402139970249
20
-0.871528738963292
30
0
41
1
10
53.5230248983509
20
-0.87930428235822
30
0
41
1
10
53.4367469394839
20
-0.917205751306625
30
0
41
1
10
53.3666657705404
20
-0.944417872357803
30
0
41
1
10
53.2244441527243
20
-0.992795267523519
30
0
41
1
10
53.1522569469932
20
-1.01395567694126
30
0
41
1
10
53.0072427282595
20
-1.05020126516342
30
0
41
1
10
52.9342481720781
20
-1.06532980056511
30
0
41
1
10
52.7139202417396
20
-1.10245795700263
30
0
41
1
10
52.5652391685822
20
-1.11617901441119
30
0
41
1
10
52.2648244430473
20
-1.12486993085562
30
0
41
1
10
52.1131023620827
20
-1.11991087006558
30
0
41
1
10
51.8073108193428
20
-1.09557340010062
30
0
41
1
10
51.6534375154683
20
-1.07576193062332
30
0
41
1
10
51.4997373164444
20
-1.05205547422662
30
0
0
SPLINE
5
D6
100
AcDbEntity
8
1
62
256
6
ByLayer
370
18
48
1
60
0
100
AcDbSpline
70
4
71
3
72
86
73
82
40
0
40
0
40
0
40
0
40
0.0176341570141257
40
0.0176341570141257
40
0.0417235649634604
40
0.0417235649634604
40
0.0658129729127951
40
0.0658129729127951
40
0.113991788811465
40
0.113991788811465
40
0.1380811967608
40
0.1380811967608
40
0.162170604710135
40
0.162170604710135
40
0.186260012659471
40
0.186260012659471
40
0.210349420608806
40
0.210349420608806
40
0.234438828558141
40
0.234438828558141
40
0.258528236507477
40
0.258528236507477
40
0.282617644456812
40
0.282617644456812
40
0.306707052406147
40
0.306707052406147
40
0.330796460355482
40
0.330796460355482
40
0.354885868304818
40
0.354885868304818
40
0.378975276254153
40
0.378975276254153
40
0.403064684203489
40
0.403064684203489
40
0.427154092152824
40
0.427154092152824
40
0.451243500102159
40
0.451243500102159
40
0.475332908051494
40
0.475332908051494
40
0.49942231600083
40
0.49942231600083
40
0.523511723950165
40
0.523511723950165
40
0.5476011318995
40
0.5476011318995
40
0.571690539848835
40
0.571690539848835
40
0.595779947798171
40
0.595779947798171
40
0.619869355747506
40
0.619869355747506
40
0.643958763696841
40
0.643958763696841
40
0.668048171646178
40
0.668048171646178
40
0.692137579595514
40
0.692137579595514
40
0.716226987544851
40
0.716226987544851
40
0.740316395494187
40
0.740316395494187
40
0.764405803443523
40
0.764405803443523
40
0.78849521139286
40
0.78849521139286
40
0.836674027291533
40
0.836674027291533
40
0.860763435240869
40
0.860763435240869
40
0.884852843190205
40
0.884852843190205
40
0.908942251139541
40
0.908942251139541
40
0.933031659088877
40
0.933031659088877
40
0.957121067038213
40
0.957121067038213
40
0.981210474987549
40
0.981210474987549
40
1
40
1
40
1
40
1
41
1
10
45.1608229933339
20
-1.92196738501539
30
0
41
1
10
44.9939724979755
20
-1.98937451516855
30
0
41
1
10
44.8271565600535
20
-2.05511767768931
30
0
41
1
10
44.4324502996241
20
-2.206485311623
30
0
41
1
10
44.2047714777254
20
-2.29094962976319
30
0
41
1
10
43.7484018017985
20
-2.4512546279999
30
0
41
1
10
43.5195379372172
20
-2.52703301588247
30
0
41
1
10
42.8344279487514
20
-2.74083229779131
30
0
41
1
10
42.3792056410364
20
-2.86884906982311
30
0
41
1
10
41.6949242503512
20
-3.02855749266794
30
0
41
1
10
41.4666661591357
20
-3.07716372354338
30
0
41
1
10
41.009955104546
20
-3.16530678912429
30
0
41
1
10
40.7813091928303
20
-3.20438127514549
30
0
41
1
10
40.3248448925008
20
-3.27016288025203
30
0
41
1
10
40.0968100208555
20
-3.29704325446642
30
0
41
1
10
39.6409174963334
20
-3.34233533416622
30
0
41
1
10
39.4132768814996
20
-3.35994627306255
30
0
41
1
10
38.957215198998
20
-3.3830548052762
30
0
41
1
10
38.7288563552982
20
-3.38814171811143
30
0
41
1
10
38.2714564952998
20
-3.38917342391628
30
0
41
1
10
38.0430530861862
20
-3.38489626866098
30
0
41
1
10
37.5870451310044
20
-3.36423595971951
30
0
41
1
10
37.3591120779286
20
-3.34775171931477
30
0
41
1
10
36.90311529578
20
-3.30401482746328
30
0
41
1
10
36.6750342316699
20
-3.27784412706021
30
0
41
1
10
36.2189255407891
20
-3.21411009208447
30
0
41
1
10
35.9904494815644
20
-3.17662797121443
30
0
41
1
10
35.533171779327
20
-3.09050868382585
30
0
41
1
10
35.3047494305392
20
-3.04287588691832
30
0
41
1
10
34.8484277819773
20
-2.93853536935342
30
0
41
1
10
34.6206989406872
20
-2.88121614061174
30
0
41
1
10
34.1646725691911
20
-2.75689933299233
30
0
41
1
10
33.936445086627
20
-2.68988233464228
30
0
41
1
10
33.4795327699457
20
-2.54877938488377
30
0
41
1
10
33.2507134644883
20
-2.47367404029026
30
0
41
1
10
32.7940075241422
20
-2.31512839550811
30
0
41
1
10
32.5658409475721
20
-2.23176812283805
30
0
41
1
10
32.109522199882
20
-2.05946941366241
30
0
41
1
10
31.8814268007198
20
-1.97029193291365
30
0
41
1
10
31.4255108069804
20
-1.78438502555204
30
0
41
1
10
31.1974322713657
20
-1.68800803947346
30
0
41
1
10
30.7402504403142
20
-1.49064558824733
30
0
41
1
10
30.5111942207903
20
-1.38993115664687
30
0
41
1
10
30.0544730953725
20
-1.18377974027535
30
0
41
1
10
29.8266997654971
20
-1.07792180528145
30
0
41
1
10
29.3707048175631
20
-0.864185620832274
30
0
41
1
10
29.1425745645178
20
-0.756282779307725
30
0
41
1
10
28.6861294009431
20
-0.538118513037659
30
0
41
1
10
28.4579491531184
20
-0.427469059691703
30
0
41
1
10
28.0007788570436
20
-0.20450580727578
30
0
41
1
10
27.7719919867669
20
-0.0929955757785308
30
0
41
1
10
27.3150669102217
20
0.129403383631057
30
0
41
1
10
27.0868164829567
20
0.240474501954566
30
0
41
1
10
26.630825676287
20
0.462312193555306
30
0
41
1
10
26.4027779894874
20
0.572488765876471
30
0
41
1
10
25.9459078792766
20
0.790282724747783
30
0
41
1
10
25.717034673384
20
0.898170769848946
30
0
41
1
10
25.2594276712165
20
1.11104618835506
30
0
41
1
10
25.0313024749262
20
1.2159222118139
30
0
41
1
10
24.5747474208382
20
1.42048040467657
30
0
41
1
10
24.3464511624228
20
1.52053735419565
30
0
41
1
10
23.8899593311028
20
1.71540879010931
30
0
41
1
10
23.6618918140139
20
1.81006232462974
30
0
41
1
10
23.2051013000801
20
1.99378460250176
30
0
41
1
10
22.9759817458875
20
2.08270301049811
30
0
41
1
10
22.2897200882565
20
2.33832074025489
30
0
41
1
10
21.8342931384748
20
2.49293700765929
30
0
41
1
10
21.149449982804
20
2.7011524485024
30
0
41
1
10
20.9210205351394
20
2.76674127334283
30
0
41
1
10
20.4638125730684
20
2.88657776916605
30
0
41
1
10
20.2349748974507
20
2.94205442598519
30
0
41
1
10
19.7776958190132
20
3.04391963437783
30
0
41
1
10
19.5491608123023
20
3.09040055525071
30
0
41
1
10
19.0924768051898
20
3.17174510771358
30
0
41
1
10
18.8644424847335
20
3.20638889141617
30
0
41
1
10
18.4078493713323
20
3.26704229964403
30
0
41
1
10
18.1792081612321
20
3.29254298028909
30
0
41
1
10
17.7212339522174
20
3.33238792251396
30
0
41
1
10
17.4923111952056
20
3.34564837046989
30
0
41
1
10
17.0858251399387
20
3.36060334917292
30
0
41
1
10
16.9077525796144
20
3.36419147326978
30
0
41
1
10
16.7296465736177
20
3.36453773357272
30
0
0
SPLINE
5
D7
100
AcDbEntity
8
1
62
256
6
ByLayer
370
18
48
1
60
0
100
AcDbSpline
70
4
71
3
72
8
73
4
40
0
40
0
40
0
40
0
40
1
40
1
40
1
40
1
41
1
10
4.13739931660467
20
-2.66777722296229
30
0
41
1
10
4.11398750912991
20
-2.66013988366976
30
0
41
1
10
4.09300123816533
20
-2.65034337376522
30
0
41
1
10
4.0744115686752
20
-2.63831674736989
30
0
0
SPLINE
5
D8
100
AcDbEntity
8
1
62
256
6
ByLayer
370
18
48
1
60
0
100
AcDbSpline
70
4
71
3
72
36
73
32
40
0
40
0
40
0
40
0
40
0.0624999999999996
40
0.0624999999999996
40
0.124999999999999
40
0.124999999999999
40
0.187499999999999
40
0.187499999999999
40
0.249999999999998
40
0.249999999999998
40
0.312499999999998
40
0.312499999999998
40
0.374999999999997
40
0.374999999999997
40
0.437499999999997
40
0.437499999999997
40
0.499999999999996
40
0.499999999999996
40
0.562499999999996
40
0.562499999999996
40
0.624999999999996
40
0.624999999999996
40
0.687499999999995
40
0.687499999999995
40
0.749999999999995
40
0.749999999999995
40
0.812499999999994
40
0.812499999999994
40
0.874999999999994
40
0.874999999999994
40
1
40
1
40
1
40
1
41
1
10
54.5543084087222
20
-1.19576403349379
30
0
41
1
10
54.5406441022267
20
-1.1869036910077
30
0
41
1
10
54.5250300276669
20
-1.18262096146719
30
0
41
1
10
54.4915971692908
20
-1.18224202268638
30
0
41
1
10
54.4734617811949
20
-1.18612585948384
30
0
41
1
10
54.4356839886223
20
-1.20109697883697
30
0
41
1
10
54.4160963060236
20
-1.21209701098709
30
0
41
1
10
54.3755973228014
20
-1.24075407333015
30
0
41
1
10
54.3545745641298
20
-1.25856555531416
30
0
41
1
10
54.3125835274352
20
-1.29977353948746
30
0
41
1
10
54.2914576663435
20
-1.32325166533008
30
0
41
1
10
54.2489282513407
20
-1.37633120610448
30
0
41
1
10
54.2274013043692
20
-1.40617202858377
30
0
41
1
10
54.1857961827237
20
-1.47037984525892
30
0
41
1
10
54.1655161103052
20
-1.50494507186127
30
0
41
1
10
54.1262197878742
20
-1.58002909104141
30
0
41
1
10
54.1078704215255
20
-1.61929019897974
30
0
41
1
10
54.0744445296879
20
-1.70130799594122
30
0
41
1
10
54.0594633878493
20
-1.74403747001134
30
0
41
1
10
54.0354084946566
20
-1.82810018413667
30
0
41
1
10
54.0261798598228
20
-1.87013698045513
30
0
41
1
10
54.0151144151697
20
-1.94750304760714
30
0
41
1
10
54.0131433116668
20
-1.98384621549741
30
0
41
1
10
54.0162881528935
20
-2.04623108996483
30
0
41
1
10
54.0213861718723
20
-2.07305199933694
30
0
41
1
10
54.0370572950321
20
-2.11582895600222
30
0
41
1
10
54.0477602364291
20
-2.13228429500549
30
0
41
1
10
54.0729512375463
20
-2.15528855878128
30
0
41
1
10
54.0876870263741
20
-2.1621132378543
30
0
41
1
10
54.1357481811015
20
-2.16967296163355
30
0
41
1
10
54.1734578568549
20
-2.15784161997053
30
0
41
1
10
54.2132993877437
20
-2.1326786184631
30
0
0
SPLINE
5
D9
100
AcDbEntity
8
1
62
256
6
ByLayer
370
18
48
1
60
0
100
AcDbSpline
70
4
71
3
72
8
73
4
40
0
40
0
40
0
40
0
40
1
40
1
40
1
40
1
41
1
10
53.8017968509662
20
-3.44409317027373
30
0
41
1
10
53.7964866996253
20
-3.45869565077294
30
0
41
1
10
53.7911738880829
20
-3.47329734231221
30
0
41
1
10
53.7858584980056
20
-3.48789801853627
30
0
0
SPLINE
5
DA
100
AcDbEntity
8
1
62
256
6
ByLayer
370
18
48
1
60
0
100
AcDbSpline
70
4
71
3
72
50
73
46
40
0
40
0
40
0
40
0
40
0.0435464214587339
40
0.0435464214587339
40
0.0870928429174678
40
0.0870928429174678
40
0.130639264376202
40
0.130639264376202
40
0.174185685834935
40
0.174185685834935
40
0.217732107293669
40
0.217732107293669
40
0.261278528752403
40
0.261278528752403
40
0.304824950211137
40
0.304824950211137
40
0.348371371669871
40
0.348371371669871
40
0.391917793128605
40
0.391917793128605
40
0.435464214587339
40
0.435464214587339
40
0.479010636046073
40
0.479010636046073
40
0.522557057504807
40
0.522557057504807
40
0.56610347896354
40
0.56610347896354
40
0.609649900422274
40
0.609649900422274
40
0.653196321881008
40
0.653196321881008
40
0.696742743339742
40
0.696742743339742
40
0.740289164798476
40
0.740289164798476
40
0.78383558625721
40
0.78383558625721
40
0.827382007715944
40
0.827382007715944
40
0.870928429174678
40
0.870928429174678
40
0.958021272092145
40
0.958021272092145
40
1
40
1
40
1
40
1
41
1
10
7.66399094730218
20
-0.875403696044373
30
0
41
1
10
7.89295603052531
20
-0.982854383493248
30
0
41
1
10
8.12174270762688
20
-1.08820735483224
30
0
41
1
10
8.57889366825572
20
-1.29526878322756
30
0
41
1
10
8.80725244284159
20
-1.39685899447795
30
0
41
1
10
9.26372251177577
20
-1.59537767915316
30
0
41
1
10
9.49188116036854
20
-1.69228413721194
30
0
41
1
10
9.94906128423023
20
-1.8800332705606
30
0
41
1
10
10.1781028439145
20
-1.97121345336367
30
0
41
1
10
10.6360490694222
20
-2.14694042361668
30
0
41
1
10
10.8643892132879
20
-2.23145683497646
30
0
41
1
10
11.3211088661633
20
-2.39248605140864
30
0
41
1
10
11.5494646616587
20
-2.46915352586365
30
0
41
1
10
12.0061092813422
20
-2.6143405663228
30
0
41
1
10
12.2343719213064
20
-2.68275058458508
30
0
41
1
10
12.6912226177104
20
-2.81093962593826
30
0
41
1
10
12.9203239976773
20
-2.87063558155151
30
0
41
1
10
13.3780931090654
20
-2.98049327576175
30
0
41
1
10
13.6066220334997
20
-3.03044543401864
30
0
41
1
10
14.0630432773602
20
-3.12034072748008
30
0
41
1
10
14.2910217113231
20
-3.16056357804956
30
0
41
1
10
14.7475237924502
20
-3.23061718667228
30
0
41
1
10
14.9759569865435
20
-3.25973010035008
30
0
41
1
10
15.4331665508163
20
-3.30760875732548
30
0
41
1
10
15.662039652982
20
-3.32644456326355
30
0
41
1
10
16.1192909526569
20
-3.35412840645199
30
0
41
1
10
16.3477384376696
20
-3.36205182104069
30
0
41
1
10
16.8043342746519
20
-3.36600031710401
30
0
41
1
10
17.0324269721031
20
-3.36251887151559
30
0
41
1
10
17.4885646550905
20
-3.34583451561622
30
0
41
1
10
17.7168559166201
20
-3.33268943023231
30
0
41
1
10
18.1743713959988
20
-3.29304160169119
30
0
41
1
10
18.4035714243696
20
-3.2675507345275
30
0
41
1
10
18.8605190002627
20
-3.20696886280803
30
0
41
1
10
19.0886269016636
20
-3.17236109751016
30
0
41
1
10
19.545166590199
20
-3.09118057323241
30
0
41
1
10
19.7734900996421
20
-3.04479451293562
30
0
41
1
10
20.2301344452688
20
-2.9431934905241
30
0
41
1
10
20.4582805631084
20
-2.88794650113178
30
0
41
1
10
20.915694951855
20
-2.76821646348617
30
0
41
1
10
21.1447310953776
20
-2.70253267092835
30
0
41
1
10
21.8301928748433
20
-2.4942909854405
30
0
41
1
10
22.2855543706496
20
-2.33976970737675
30
0
41
1
10
22.9625567777401
20
-2.08775220696458
30
0
41
1
10
23.182942510976
20
-2.00240512986562
30
0
41
1
10
23.4034542574396
20
-1.91398797769597
30
0
0
SPLINE
5
DB
100
AcDbEntity
8
1
62
256
6
ByLayer
370
18
48
1
60
0
100
AcDbSpline
70
4
71
3
72
40
73
36
40
0
40
0
40
0
40
0
40
0.0502323165223532
40
0.0502323165223532
40
0.102997187826667
40
0.102997187826667
40
0.155762059130981
40
0.155762059130981
40
0.208526930435295
40
0.208526930435295
40
0.261291801739608
40
0.261291801739608
40
0.366821544348236
40
0.366821544348236
40
0.41958641565255
40
0.41958641565255
40
0.472351286956864
40
0.472351286956864
40
0.577881029565489
40
0.577881029565489
40
0.630645900869803
40
0.630645900869803
40
0.683410772174117
40
0.683410772174117
40
0.736175643478431
40
0.736175643478431
40
0.788940514782745
40
0.788940514782745
40
0.841705386087059
40
0.841705386087059
40
0.894470257391373
40
0.894470257391373
40
0.947235128695686
40
0.947235128695686
40
1
40
1
40
1
40
1
41
1
10
38.5278292337916
20
3.38857278420161
30
0
41
1
10
38.7452513527287
20
3.38772921609254
30
0
41
1
10
38.9630508095731
20
3.38268063353789
30
0
41
1
10
39.4090907471083
20
3.36023911827599
30
0
41
1
10
39.6369976523915
20
3.34266944342011
30
0
41
1
10
40.0930674585845
20
3.2974694697061
30
0
41
1
10
40.3210469141741
20
3.2706382160961
30
0
41
1
10
40.7769821126948
20
3.20507557947855
30
0
41
1
10
41.0048835559853
20
3.16621007846965
30
0
41
1
10
41.4613069375399
20
3.07827181828864
30
0
41
1
10
41.6902439618331
20
3.02958570009781
30
0
41
1
10
42.3755567486442
20
2.86982720070358
30
0
41
1
10
42.8306434420761
20
2.74190664617657
30
0
41
1
10
43.5145674724036
20
2.52863666100646
30
0
41
1
10
43.7426835745995
20
2.45319157396921
30
0
41
1
10
44.199446309391
20
2.29289008975454
30
0
41
1
10
44.4279912160665
20
2.20815760336092
30
0
41
1
10
45.1128015131747
20
1.9456489241374
30
0
41
1
10
45.5685527173207
20
1.75770469278945
30
0
41
1
10
46.2522072798083
20
1.45967549596173
30
0
41
1
10
46.4804364674622
20
1.35816050796589
30
0
41
1
10
46.9376906113609
20
1.15013756159817
30
0
41
1
10
47.1662512464935
20
1.04390073627243
30
0
41
1
10
47.6221972271927
20
0.828097096222791
30
0
41
1
10
47.8499978512145
20
0.718894997579582
30
0
41
1
10
48.3058902329857
20
0.499053798840435
30
0
41
1
10
48.5338946181787
20
0.388225313949079
30
0
41
1
10
48.9900059341533
20
0.164877018151571
30
0
41
1
10
49.2181114224916
20
0.0521095697376666
30
0
41
1
10
49.6752169216793
20
-0.172414269480242
30
0
41
1
10
49.9035299931668
20
-0.284163734041954
30
0
41
1
10
50.3596974008289
20
-0.506664552168246
30
0
41
1
10
50.5874233525809
20
-0.617745118928724
30
0
41
1
10
51.0430742133332
20
-0.83752126168821
30
0
41
1
10
51.2712685599944
20
-0.945534039100096
30
0
41
1
10
51.4997373164444
20
-1.05205547422659
30
0
0
SPLINE
5
DC
100
AcDbEntity
8
1
62
256
6
ByLayer
370
18
48
1
60
0
100
AcDbSpline
70
4
71
3
72
79
73
75
40
0
40
0
40
0
40
0
40
0.0266591147692377
40
0.0266591147692377
40
0.0992008531653233
40
0.0992008531653233
40
0.135471722363366
40
0.135471722363366
40
0.171742591561409
40
0.171742591561409
40
0.244284329957495
40
0.244284329957495
40
0.316826068353581
40
0.316826068353581
40
0.353096937551624
40
0.353096937551624
40
0.389367806749666
40
0.389367806749666
40
0.461909545145752
40
0.461909545145752
40
0.498180414343795
40
0.498180414343795
40
0.500447343668673
40
0.501580808331112
40
0.502147540662331
40
0.502147540662331
40
0.502430906827941
40
0.502430906827941
40
0.502572589910745
40
0.502572589910745
40
0.50271427299355
40
0.50271427299355
40
0.503847737655989
40
0.503847737655989
40
0.504981202318427
40
0.504981202318427
40
0.507248131643304
40
0.507248131643304
40
0.516315848942811
40
0.516315848942811
40
0.534451283541826
40
0.534451283541826
40
0.606993021937885
40
0.606993021937885
40
0.679534760333945
40
0.679534760333945
40
0.69767019493296
40
0.69767019493296
40
0.706737912232467
40
0.706737912232467
40
0.709004841557344
40
0.709004841557344
40
0.711271770882221
40
0.711271770882221
40
0.71155513704783
40
0.71155513704783
40
0.71183850321344
40
0.71183850321344
40
0.712405235544659
40
0.713538700207098
40
0.715805629531975
40
0.752076498730007
40
0.752076498730007
40
0.788347367928039
40
0.788347367928039
40
0.824618237126071
40
0.824618237126071
40
0.897159975522134
40
0.897159975522134
40
0.933430844720166
40
0.933430844720166
40
0.969701713918198
40
0.969701713918198
40
1
40
1
40
1
40
1
41
1
10
16.070752552201
20
1.62088610845447
30
0
41
1
10
15.944579419645
20
1.63915322343081
30
0
41
1
10
15.8182577033078
20
1.65556512938099
30
0
41
1
10
15.3475155390052
20
1.70930873138715
30
0
41
1
10
15.0019131199286
20
1.73400625286013
30
0
41
1
10
14.4797996245049
20
1.74621822392453
30
0
41
1
10
14.3053581338772
20
1.74613379834588
30
0
41
1
10
13.9575866617878
20
1.73752237977061
30
0
41
1
10
13.783952596443
20
1.72900505202907
30
0
41
1
10
13.2633866934424
20
1.6909236550012
30
0
41
1
10
12.9168050866336
20
1.64876579951328
30
0
41
1
10
12.2219176078381
20
1.53307667088356
30
0
41
1
10
11.8736043370691
20
1.45955618425319
30
0
41
1
10
11.3475777852484
20
1.32882089307495
30
0
41
1
10
11.1716407956053
20
1.28184719347124
30
0
41
1
10
10.8181838159381
20
1.1817734487426
30
0
41
1
10
10.6405306055112
20
1.12862121155305
30
0
41
1
10
10.1090370030936
20
0.962565500050516
30
0
41
1
10
9.75522427005964
20
0.842673294881564
30
0
41
1
10
9.22294406867064
20
0.654909449818888
30
0
41
1
10
9.04518543984196
20
0.590975759154276
30
0
41
1
10
8.85600554530052
20
0.522237687475297
30
0
41
1
10
8.83931294647692
20
0.516168644697984
30
0
41
1
10
8.81983767839409
20
0.509081566911306
30
0
41
1
10
8.8114909997457
20
0.506042884387597
30
0
41
1
10
8.80731763679486
20
0.504523318825875
30
0
41
1
10
8.80592321094738
20
0.504025301673067
30
0
41
1
10
8.80384148996438
20
0.503252551233885
30
0
41
1
10
8.80390575684214
20
0.502278365659606
30
0
41
1
10
8.80463006025283
20
0.500991605947092
30
0
41
1
10
8.80510632062888
20
0.500423347626651
30
0
41
1
10
8.80950572409947
20
0.495515538968306
30
0
41
1
10
8.81436944660723
20
0.492118347400407
30
0
41
1
10
8.82379051718735
20
0.485145889188487
30
0
41
1
10
8.82858831892835
20
0.481782381281135
30
0
41
1
10
8.84307009252316
20
0.471835482928071
30
0
41
1
10
8.85285623560344
20
0.465401568512817
30
0
41
1
10
8.9020164330158
20
0.433577381470968
30
0
41
1
10
8.9420041336484
20
0.409163111163934
30
0
41
1
10
9.06218082951861
20
0.336358080144777
30
0
41
1
10
9.14287484647025
20
0.288792587779085
30
0
41
1
10
9.54699861222338
20
0.0523402053972291
30
0
41
1
10
9.87273617453198
20
-0.13212222294581
30
0
41
1
10
10.5241592249371
20
-0.499820751523543
30
0
41
1
10
10.8497315584378
20
-0.68330831155447
30
0
41
1
10
11.2543164163499
20
-0.915133430518523
30
0
41
1
10
11.3351177263638
20
-0.961613957187552
30
0
41
1
10
11.4556206129214
20
-1.03223219030204
30
0
41
1
10
11.4957186485046
20
-1.05585202817622
30
0
41
1
10
11.5451680714982
20
-1.08622942610202
30
0
41
1
10
11.5550183374893
20
-1.09234919889019
30
0
41
1
10
11.5744992897766
20
-1.10483553974262
30
0
41
1
10
11.58454415069
20
-1.11085693339518
30
0
41
1
10
11.5942449964158
20
-1.11914563637038
30
0
41
1
10
11.5954435366422
20
-1.1200707517134
30
0
41
1
10
11.5965542982764
20
-1.12237706598268
30
0
41
1
10
11.5943461253446
20
-1.12252760541702
30
0
41
1
10
11.5905503251611
20
-1.12369445347224
30
0
41
1
10
11.5829585458875
20
-1.12602298679565
30
0
41
1
10
11.5652430055004
20
-1.13142007164242
30
0
41
1
10
11.3880693653491
20
-1.18466452277727
30
0
41
1
10
11.2155434674958
20
-1.22834054213652
30
0
41
1
10
10.8909374452411
20
-1.2948709797447
30
0
41
1
10
10.7285841316178
20
-1.32035187145516
30
0
41
1
10
10.4023516203965
20
-1.35519681394064
30
0
41
1
10
10.2378708761328
20
-1.36454531207099
30
0
41
1
10
9.74502218648649
20
-1.36788017363514
30
0
41
1
10
9.41770343242095
20
-1.33732133955357
30
0
41
1
10
8.92198522285833
20
-1.24868796987809
30
0
41
1
10
8.75598017653178
20
-1.21204457403107
30
0
41
1
10
8.42168827370406
20
-1.12596685983144
30
0
41
1
10
8.2527469003617
20
-1.07630745431899
30
0
41
1
10
7.94399512048392
20
-0.976160364062793
30
0
41
1
10
7.80385423810134
20
-0.927203869956941
30
0
41
1
10
7.66395633686327
20
-0.875390877682008
30
0
0
SPLINE
5
DD
100
AcDbEntity
8
1
62
256
6
ByLayer
370
18
48
1
60
0
100
AcDbSpline
70
4
71
3
72
22
73
18
40
0
40
0
40
0
40
0
40
0.125
40
0.125
40
0.25
40
0.25
40
0.375
40
0.375
40
0.500000000000001
40
0.500000000000001
40
0.625000000000001
40
0.625000000000001
40
0.750000000000001
40
0.750000000000001
40
0.875
40
0.875
40
1
40
1
40
1
40
1
41
1
10
53.8232473775439
20
3.4372990095348
30
0
41
1
10
53.8561410502181
20
3.35532532529791
30
0
41
1
10
53.8891818262979
20
3.27226092134154
30
0
41
1
10
53.955459674568
20
3.10467664720488
30
0
41
1
10
53.9887841321546
20
3.01950884522077
30
0
41
1
10
54.0557706571017
20
2.84666998419888
30
0
41
1
10
54.0893394103725
20
2.75925420602374
30
0
41
1
10
54.1563040346475
20
2.58414740149186
30
0
41
1
10
54.1897346172468
20
2.49607087684163
30
0
41
1
10
54.2564621175761
20
2.31856612236251
30
0
41
1
10
54.2897726537356
20
2.22915552742293
30
0
41
1
10
54.3562834539323
20
2.04971886218078
30
0
41
1
10
54.3894263789602
20
1.95995857792809
30
0
41
1
10
54.4551592954674
20
1.78023177292596
30
0
41
1
10
54.487780781114
20
1.69027699906132
30
0
41
1
10
54.5526308024538
20
1.51022088648352
30
0
41
1
10
54.5849733356145
20
1.42002154157316
30
0
41
1
10
54.6170137903206
20
1.330093979043
30
0
0
SPLINE
5
DE
100
AcDbEntity
8
1
62
256
6
ByLayer
370
18
48
1
60
0
100
AcDbSpline
70
4
71
3
72
64
73
60
40
0
40
0
40
0
40
0
40
0.0624999999999942
40
0.0624999999999942
40
0.0937499999999917
40
0.0937499999999917
40
0.124999999999989
40
0.124999999999989
40
0.249999999999981
40
0.249999999999981
40
0.374999999999972
40
0.374999999999972
40
0.499999999999963
40
0.499999999999963
40
0.562499999999958
40
0.562499999999958
40
0.624999999999953
40
0.624999999999953
40
0.687499999999948
40
0.687499999999948
40
0.695312499999947
40
0.695312499999947
40
0.699218749999946
40
0.699218749999946
40
0.701171874999946
40
0.701171874999946
40
0.703124999999946
40
0.703124999999946
40
0.71874999999995
40
0.71874999999995
40
0.749999999999955
40
0.749999999999955
40
0.765624999999958
40
0.765624999999958
40
0.781249999999961
40
0.781249999999961
40
0.796874999999964
40
0.796874999999964
40
0.812499999999967
40
0.812499999999967
40
0.82812499999997
40
0.82812499999997
40
0.835937499999971
40
0.835937499999971
40
0.843749999999972
40
0.843749999999972
40
0.859374999999975
40
0.859374999999975
40
0.874999999999978
40
0.874999999999978
40
0.890624999999981
40
0.890624999999981
40
0.906249999999983
40
0.906249999999983
40
0.937499999999989
40
0.937499999999989
40
0.968749999999994
40
0.968749999999994
40
1
40
1
40
1
40
1
41
1
10
16.0708840579689
20
1.62077745397761
30
0
41
1
10
15.7201933387359
20
1.77883382660053
30
0
41
1
10
15.365948526679
20
1.9230356616392
30
0
41
1
10
14.8294491215398
20
2.12150178682327
30
0
41
1
10
14.6497530534442
20
2.18465987669174
30
0
41
1
10
14.2886031975517
20
2.30527127448175
30
0
41
1
10
14.1070327977
20
2.36275151043768
30
0
41
1
10
13.1988222206893
20
2.63526161622664
30
0
41
1
10
12.4679574096105
20
2.80683011029907
30
0
41
1
10
10.9917512535044
20
3.07600448001452
30
0
41
1
10
10.2463565805982
20
3.17344321357771
30
0
41
1
10
8.73668904299979
20
3.31529956648364
30
0
41
1
10
7.97242906705654
20
3.35993405351556
30
0
41
1
10
6.81035879136837
20
3.40408368998808
30
0
41
1
10
6.41993616425728
20
3.41499002625176
30
0
41
1
10
5.637850553866
20
3.43132112464056
30
0
41
1
10
5.24573838043776
20
3.43677664981107
30
0
41
1
10
4.45986710176689
20
3.44381942869225
30
0
41
1
10
4.06641762965515
20
3.44541060714005
30
0
41
1
10
3.62357672254035
20
3.44534670264434
30
0
41
1
10
3.57437149812191
20
3.44531313344615
30
0
41
1
10
3.50056263709939
20
3.44522296141801
30
0
41
1
10
3.47570382795328
20
3.44536088725434
30
0
41
1
10
3.43923749785813
20
3.44460558038026
30
0
41
1
10
3.42746322244059
20
3.44421454941983
30
0
41
1
10
3.40490894601953
20
3.44305637270904
30
0
41
1
10
3.39438110653114
20
3.44219369889052
30
0
41
1
10
3.29937845680902
20
3.43440398255646
30
0
41
1
10
3.21567536447461
20
3.42640966681276
30
0
41
1
10
2.96943445890926
20
3.39846776972249
30
0
41
1
10
2.81136926048171
20
3.37479357101822
30
0
41
1
10
2.58876005374157
20
3.3254927362143
30
0
41
1
10
2.51690941207849
20
3.30669415420914
30
0
41
1
10
2.38034280646693
20
3.26239864251966
30
0
41
1
10
2.31670974624896
20
3.23726464199703
30
0
41
1
10
2.20185204513015
20
3.17857028665182
30
0
41
1
10
2.15033905981147
20
3.14458648721188
30
0
41
1
10
2.06857948126199
20
3.06798207788242
30
0
41
1
10
2.03770947054261
20
3.02520079980485
30
0
41
1
10
2.00079402531259
20
2.92788625387556
30
0
41
1
10
1.99584639849854
20
2.87569818477388
30
0
41
1
10
2.00720292280849
20
2.79310281316941
30
0
41
1
10
2.01418603678726
20
2.76458520776734
30
0
41
1
10
2.03374315817356
20
2.70711323411007
30
0
41
1
10
2.04622067359946
20
2.6782776901081
30
0
41
1
10
2.09054624402177
20
2.5914415721939
30
0
41
1
10
2.12947804679851
20
2.53279505509505
30
0
41
1
10
2.22020522101596
20
2.415916967973
30
0
41
1
10
2.27125867003556
20
2.35851152710626
30
0
41
1
10
2.38139988523992
20
2.24495846757895
30
0
41
1
10
2.44052347797503
20
2.1888198432579
30
0
41
1
10
2.56494741717447
20
2.0773566946433
30
0
41
1
10
2.63029819016006
20
2.02202873063973
30
0
41
1
10
2.83066938290784
20
1.85926773122762
30
0
41
1
10
2.97098325633962
20
1.75401021687591
30
0
41
1
10
3.26023077512809
20
1.54712562321828
30
0
41
1
10
3.40924306599951
20
1.44554591785297
30
0
41
1
10
3.71369028396751
20
1.24473917174959
30
0
41
1
10
3.86913728604523
20
1.14555547420574
30
0
41
1
10
4.02530635614633
20
1.0483220007948
30
0
0
SPLINE
5
DF
100
AcDbEntity
8
1
62
256
6
ByLayer
370
13
48
1
60
0
100
AcDbSpline
70
4
71
3
72
8
73
4
40
0
40
0
40
0
40
0
40
1
40
1
40
1
40
1
41
1
10
4.13739931660476
20
-2.66777722296086
30
0
41
1
10
4.13763418953167
20
-2.66098251185227
30
0
41
1
10
4.13786961974679
20
-2.65418738740442
30
0
41
1
10
4.13810560720967
20
-2.64739184547568
30
0
0
SPLINE
5
E0
100
AcDbEntity
8
1
62
256
6
ByLayer
370
13
48
1
60
0
100
AcDbSpline
70
4
71
3
72
14
73
10
40
0
40
0
40
0
40
0
40
0.245520499548984
40
0.245520499548984
40
0.491040999097967
40
0.491040999097967
40
0.982081998195932
40
0.982081998195932
40
1
40
1
40
1
40
1
41
1
10
4.20572457976616
20
-2.6568270977728
30
0
41
1
10
4.72731629785437
20
-2.82304904497843
30
0
41
1
10
5.24799862240602
20
-2.96584414731424
30
0
41
1
10
6.29161260288751
20
-3.19997708126911
30
0
41
1
10
6.80906315517322
20
-3.29004807440856
30
0
41
1
10
8.35620162118562
20
-3.47550644724188
30
0
41
1
10
9.3805687659717
20
-3.4863531822221
30
0
41
1
10
10.4557493651771
20
-3.37765422378999
30
0
41
1
10
10.4936315046361
20
-3.37367183949297
30
0
41
1
10
10.5315385357292
20
-3.36953487343016
30
0
0
SPLINE
5
E1
100
AcDbEntity
8
1
62
256
6
ByLayer
370
18
48
1
60
0
100
AcDbSpline
70
4
71
3
72
22
73
18
40
0
40
0
40
0
40
0
40
0.0601285957944344
40
0.0601285957944344
40
0.196658346886878
40
0.196658346886878
40
0.333188097979321
40
0.333188097979321
40
0.401452973525544
40
0.401452973525544
40
0.469717849071767
40
0.469717849071767
40
0.74277735125666
40
0.74277735125666
40
0.879307102349107
40
0.879307102349107
40
1
40
1
40
1
40
1
41
1
10
36.1063000967111
20
2.48992577809167
30
0
41
1
10
36.3339956114194
20
2.40988182902882
30
0
41
1
10
36.5611341569862
20
2.32597491349551
30
0
41
1
10
37.3025771924138
20
2.04025435687115
30
0
41
1
10
37.8155215844309
20
1.82398518890381
30
0
41
1
10
38.8426320331758
20
1.36416805180511
30
0
41
1
10
39.3568848707901
20
1.12070519825386
30
0
41
1
10
40.1330319483178
20
0.741879242841577
30
0
41
1
10
40.3930997434852
20
0.613130000976867
30
0
41
1
10
40.9131067806417
20
0.35354322734716
30
0
41
1
10
41.1719945657951
20
0.223234288562736
30
0
41
1
10
42.4625213270211
20
-0.427550687408115
30
0
41
1
10
43.4825859684705
20
-0.945220437094122
30
0
41
1
10
45.0244040951374
20
-1.65718950052707
30
0
41
1
10
45.5402229215311
20
-1.88396046084912
30
0
41
1
10
46.5205897510232
20
-2.28149110937855
30
0
41
1
10
46.9772915779779
20
-2.45263208170729
30
0
41
1
10
47.4320235317334
20
-2.6063590166421
30
0
0
SPLINE
5
E2
100
AcDbEntity
8
1
62
256
6
ByLayer
370
13
48
1
60
0
100
AcDbSpline
70
4
71
3
72
18
73
14
40
0
40
0
40
0
40
0
40
0.0281815231184907
40
0.0281815231184907
40
0.514090761559245
40
0.514090761559245
40
0.635568071169434
40
0.635568071169434
40
0.757045380779622
40
0.757045380779622
40
0.878522690389812
40
0.878522690389812
40
1
40
1
40
1
40
1
41
1
10
47.432024478982
20
-2.6063593368695
30
0
41
1
10
47.4916923243559
20
-2.62653067851363
30
0
41
1
10
47.551326253479
20
-2.64640219416634
30
0
41
1
10
48.6386118005047
20
-3.00334777549577
30
0
41
1
10
49.658149306415
20
-3.25006260419309
30
0
41
1
10
50.9474608785943
20
-3.41926097698214
30
0
41
1
10
51.2061315553904
20
-3.44615429592628
30
0
41
1
10
51.7255953988968
20
-3.485509075143
30
0
41
1
10
51.9858067729595
20
-3.49790271724359
30
0
41
1
10
52.504844483076
20
-3.50785386443528
30
0
41
1
10
52.7641192956702
20
-3.50544748007565
30
0
41
1
10
53.2827513204502
20
-3.48584099692687
30
0
41
1
10
53.5421341867236
20
-3.46822426672387
30
0
41
1
10
53.8017968509665
20
-3.4440931702737
30
0
0
SPLINE
5
E3
100
AcDbEntity
8
1
62
256
6
ByLayer
370
18
48
1
60
0
100
AcDbSpline
70
4
71
3
72
8
73
4
40
0
40
0
40
0
40
0
40
1
40
1
40
1
40
1
41
1
10
54.3662658043118
20
1.00420726244678
30
0
41
1
10
54.162983252728
20
0.994859912112702
30
0
41
1
10
53.958899432362
20
0.987774794453827
30
0
41
1
10
53.7544184436143
20
0.982259091686359
30
0
0
SPLINE
5
E4
100
AcDbEntity
8
1
62
256
6
ByLayer
370
18
48
1
60
0
100
AcDbSpline
70
4
71
3
72
18
73
14
40
0
40
0
40
0
40
0
40
0.0812344946608663
40
0.0812344946608663
40
0.262557880571116
40
0.262557880571116
40
0.443881266481367
40
0.443881266481367
40
0.806528038301877
40
0.806528038301877
40
0.987851424212131
40
0.987851424212131
40
1
40
1
40
1
40
1
41
1
10
30.9726577824169
20
-3.3807837334256
30
0
41
1
10
30.8569504916725
20
-3.38072671499586
30
0
41
1
10
30.7411059331058
20
-3.37925094613766
30
0
41
1
10
30.3661531247641
20
-3.36985868363732
30
0
41
1
10
30.105993107207
20
-3.35621377644858
30
0
41
1
10
29.5856048016659
20
-3.31478347206226
30
0
41
1
10
29.3255244582673
20
-3.28702499554038
30
0
41
1
10
28.5447138970036
20
-3.18295749054229
30
0
41
1
10
28.0254409315289
20
-3.08614847101711
30
0
41
1
10
27.245837059766
20
-2.90319939192955
30
0
41
1
10
26.9853188915379
20
-2.83578793903456
30
0
41
1
10
26.7080271838009
20
-2.75783133762894
30
0
41
1
10
26.6906196481538
20
-2.75291136629715
30
0
41
1
10
26.6732163044552
20
-2.74796665665289
30
0
0
SPLINE
5
E5
100
AcDbEntity
8
1
62
256
6
ByLayer
370
13
48
1
60
0
100
AcDbSpline
70
4
71
3
72
22
73
18
40
0
40
0
40
0
40
0
40
0.0658759089415258
40
0.0658759089415258
40
0.348301947442857
40
0.348301947442857
40
0.418908457068191
40
0.418908457068191
40
0.489514966693524
40
0.489514966693524
40
0.630727985944189
40
0.630727985944189
40
0.913154024445518
40
0.913154024445518
40
0.983760534070851
40
0.983760534070851
40
1
40
1
40
1
40
1
41
1
10
26.6732163044505
20
-2.74796665665159
30
0
41
1
10
26.4308663025171
20
-2.67910917658324
30
0
41
1
10
26.1893291996145
20
-2.60545446441077
30
0
41
1
10
24.9152163046761
20
-2.19277462166622
30
0
41
1
10
23.8922494617124
20
-1.77736714106641
30
0
41
1
10
22.602543523233
20
-1.19827134351277
30
0
41
1
10
22.344026794792
20
-1.07951100801389
30
0
41
1
10
21.825206172149
20
-0.837296696346812
30
0
41
1
10
21.5643459972993
20
-0.713449000934361
30
0
41
1
10
20.7856299638699
20
-0.340206134011567
30
0
41
1
10
20.2700623898768
20
-0.0882100397611509
30
0
41
1
10
18.7265549643288
20
0.661345512669612
30
0
41
1
10
17.7021683002829
20
1.15325890461696
30
0
41
1
10
16.4030249763943
20
1.70783231174363
30
0
41
1
10
16.1421518780693
20
1.81576899897632
30
0
41
1
10
15.823159794001
20
1.9428054139141
30
0
41
1
10
15.7635544900754
20
1.96632570390352
30
0
41
1
10
15.7039889865169
20
1.98960631895142
30
0
0
SPLINE
5
E6
100
AcDbEntity
8
1
62
256
6
ByLayer
370
18
48
1
60
0
100
AcDbSpline
70
4
71
3
72
48
73
44
40
0
40
0
40
0
40
0
40
0.0672562873983157
40
0.0672562873983157
40
0.100884431097473
40
0.100884431097473
40
0.134512574796631
40
0.134512574796631
40
0.168140718495789
40
0.168140718495789
40
0.201768862194947
40
0.201768862194947
40
0.269025149593263
40
0.269025149593263
40
0.302653293292421
40
0.302653293292421
40
0.336281436991578
40
0.336281436991578
40
0.403537724389895
40
0.403537724389895
40
0.470794011788213
40
0.470794011788213
40
0.504422155487372
40
0.504422155487372
40
0.538050299186531
40
0.538050299186531
40
0.605306586584851
40
0.605306586584851
40
0.638934730284011
40
0.638934730284011
40
0.672562873983171
40
0.672562873983171
40
0.73981916138149
40
0.73981916138149
40
0.807075448779808
40
0.807075448779808
40
0.840703592478968
40
0.840703592478968
40
0.874331736178128
40
0.874331736178128
40
0.941588023576448
40
0.941588023576448
40
1
40
1
40
1
40
1
41
1
10
53.7858584980056
20
-3.48789801853627
30
0
41
1
10
53.2674144532605
20
-3.53689004578683
30
0
41
1
10
52.7497720476807
20
-3.55618510858514
30
0
41
1
10
51.9710204622765
20
-3.54030448046805
30
0
41
1
10
51.7114572880875
20
-3.52751915125975
30
0
41
1
10
51.1933420734924
20
-3.4872868559888
30
0
41
1
10
50.9345295746855
20
-3.4598455357802
30
0
41
1
10
50.4168757650832
20
-3.39054147123002
30
0
41
1
10
50.1579910179658
20
-3.34869330664827
30
0
41
1
10
49.6393754467406
20
-3.25098513344136
30
0
41
1
10
49.3794291929604
20
-3.19506494059343
30
0
41
1
10
48.6016133633313
20
-3.0080190470328
30
0
41
1
10
48.0845062643906
20
-2.85735120145148
30
0
41
1
10
47.3069559370789
20
-2.59693925812652
30
0
41
1
10
47.046893753312
20
-2.50422553398784
30
0
41
1
10
46.5284701047281
20
-2.30931011768129
30
0
41
1
10
46.2702546833545
20
-2.20717772408014
30
0
41
1
10
45.4976407732988
20
-1.88846009375621
30
0
41
1
10
44.9851441395815
20
-1.65976190209761
30
0
41
1
10
43.9600985629745
20
-1.17944613051071
30
0
41
1
10
43.4475676566706
20
-0.927803374536325
30
0
41
1
10
42.6750607593816
20
-0.539964091516879
30
0
41
1
10
42.4169007466061
20
-0.409033987362847
30
0
41
1
10
41.8986093017691
20
-0.145122113737671
30
0
41
1
10
41.6383856469855
20
-0.0120719148751505
30
0
41
1
10
40.8603961366025
20
0.384965994079636
30
0
41
1
10
40.3430068630142
20
0.647700072027561
30
0
41
1
10
39.564988040036
20
1.0313865217727
30
0
41
1
10
39.3049316157528
20
1.15766976501749
30
0
41
1
10
38.7856998912336
20
1.40429894575777
30
0
41
1
10
38.526511068801
20
1.52467534251039
30
0
41
1
10
37.7492508717853
20
1.87530196650664
30
0
41
1
10
37.2310536687963
20
2.09497231140074
30
0
41
1
10
36.1914713007906
20
2.49678301138854
30
0
41
1
10
35.6737195291608
20
2.67729718997063
30
0
41
1
10
34.8961496674585
20
2.9124488238536
30
0
41
1
10
34.6368269300215
20
2.9849246881079
30
0
41
1
10
34.117152154838
20
3.11714935770442
30
0
41
1
10
33.8573735099456
20
3.17673069121955
30
0
41
1
10
33.0818803039529
20
3.33439256496038
30
0
41
1
10
32.5681083739042
20
3.4117354840393
30
0
41
1
10
31.6093490170092
20
3.50277706296316
30
0
41
1
10
31.1641802240982
20
3.52349768063405
30
0
41
1
10
30.7178106839101
20
3.52225542199781
30
0
0
SPLINE
5
E7
100
AcDbEntity
8
1
62
256
6
ByLayer
370
18
48
1
60
0
100
AcDbSpline
70
4
71
3
72
14
73
10
40
0
40
0
40
0
40
0
40
0.0890280319955293
40
0.0890280319955293
40
0.544514015997763
40
0.544514015997763
40
0.772257007998882
40
0.772257007998882
40
1
40
1
40
1
40
1
41
1
10
10.9491384650986
20
-3.35935319539667
30
0
41
1
10
10.7458008927997
20
-3.38780809347841
30
0
41
1
10
10.5425898333477
20
-3.41189231484265
30
0
41
1
10
9.30478813683214
20
-3.53166367098709
30
0
41
1
10
8.28221236234035
20
-3.51496716177397
30
0
41
1
10
6.73716196331986
20
-3.31955341234419
30
0
41
1
10
6.2199621500051
20
-3.22596107668312
30
0
41
1
10
5.1779577375745
20
-2.98435361105498
30
0
41
1
10
4.65823178741076
20
-2.83768184473956
30
0
41
1
10
4.13739931660479
20
-2.66777722296231
30
0
0
SPLINE
5
E8
100
AcDbEntity
8
1
62
256
6
ByLayer
370
18
48
1
60
0
100
AcDbSpline
70
4
71
3
72
16
73
12
40
0
40
0
40
0
40
0
40
0.25
40
0.25
40
0.375
40
0.375
40
0.5
40
0.5
40
0.75
40
0.75
40
1
40
1
40
1
40
1
41
1
10
53.7500019496124
20
-3.4055778682206
30
0
41
1
10
53.68044325307
20
-3.3989772890555
30
0
41
1
10
53.615576871104
20
-3.37873256102805
30
0
41
1
10
53.5258893285635
20
-3.32623147213832
30
0
41
1
10
53.4971387008001
20
-3.30488506019358
30
0
41
1
10
53.4432089759329
20
-3.2550949572786
30
0
41
1
10
53.4179885681678
20
-3.22668211813613
30
0
41
1
10
53.3475618582615
20
-3.13088791987596
30
0
41
1
10
53.3075516788851
20
-3.05302829669819
30
0
41
1
10
53.242275641019
20
-2.86757632564391
30
0
41
1
10
53.217044677691
20
-2.75917187712929
30
0
41
1
10
53.2006458904357
20
-2.63828830413016
30
0
0
SPLINE
5
E9
100
AcDbEntity
8
1
62
256
6
ByLayer
370
13
48
1
60
0
100
AcDbSpline
70
4
71
3
72
8
73
4
40
0
40
0
40
0
40
0
40
1
40
1
40
1
40
1
41
1
10
4.13810560720967
20
-2.64739184547568
30
0
41
1
10
4.15944823263229
20
-2.64614455585146
30
0
41
1
10
4.18234234855194
20
-2.64937559908591
30
0
41
1
10
4.20572457976616
20
-2.6568270977728
30
0
0
SPLINE
5
EA
100
AcDbEntity
8
1
62
256
6
ByLayer
370
18
48
1
60
0
100
AcDbSpline
70
4
71
3
72
14
73
10
40
0
40
0
40
0
40
0
40
0.25
40
0.25
40
0.5
40
0.5
40
0.75
40
0.75
40
1
40
1
40
1
40
1
41
1
10
53.8210825643269
20
-3.36427005168946
30
0
41
1
10
53.8230106785777
20
-3.36208462097372
30
0
41
1
10
53.8242688599126
20
-3.36176237394139
30
0
41
1
10
53.8250493858753
20
-3.36592037610504
30
0
41
1
10
53.8245109447786
20
-3.37045857384555
30
0
41
1
10
53.8212134856346
20
-3.38482342480867
30
0
41
1
10
53.8183952617553
20
-3.39480725099523
30
0
41
1
10
53.8110528152956
20
-3.41792762562386
30
0
41
1
10
53.8065456444772
20
-3.43103437774821
30
0
41
1
10
53.8017968509661
20
-3.44409317027373
30
0
0
SPLINE
5
EB
100
AcDbEntity
8
1
62
256
6
ByLayer
370
13
48
1
60
0
100
AcDbSpline
70
4
71
3
72
25
73
21
40
0
40
0
40
0
40
0
40
0.125
40
0.125
40
0.250000000000001
40
0.250000000000001
40
0.312500000000001
40
0.312500000000001
40
0.375000000000001
40
0.375000000000001
40
0.500000000000001
40
0.625
40
0.625
40
0.6875
40
0.6875
40
0.75
40
0.75
40
0.875
40
0.875
40
1
40
1
40
1
40
1
41
1
10
4.25051449611561
20
-2.52440699234558
30
0
41
1
10
4.25057453226464
20
-2.4184650094503
30
0
41
1
10
4.25063124600851
20
-2.30367214525492
30
0
41
1
10
4.25073748741946
20
-2.06165369702037
30
0
41
1
10
4.250787303366
20
-1.93397489344554
30
0
41
1
10
4.25085835770506
20
-1.73251215664504
30
0
41
1
10
4.25088142819698
20
-1.66369424916914
30
0
41
1
10
4.25092652929575
20
-1.52266369967077
30
0
41
1
10
4.250948634445
20
-1.45017968288215
30
0
41
1
10
4.25101272505052
20
-1.23072877119253
30
0
41
1
10
4.25109275717068
20
-0.93154944987532
30
0
41
1
10
4.2511651756071
20
-0.619577532784064
30
0
41
1
10
4.2512174609906
20
-0.380637582442375
30
0
41
1
10
4.25123451147525
20
-0.300306678407622
30
0
41
1
10
4.25126750356401
20
-0.140557473468021
30
0
41
1
10
4.25128351436038
20
-0.0608260399383482
30
0
41
1
10
4.25133024896195
20
0.177946085307013
30
0
41
1
10
4.25135969518306
20
0.33656673168187
30
0
41
1
10
4.25141549888107
20
0.652673428803581
30
0
41
1
10
4.25144198330798
20
0.811085396662946
30
0
41
1
10
4.25146600578861
20
0.963902283396379
30
0
0
SPLINE
5
EC
100
AcDbEntity
8
1
62
256
6
ByLayer
370
18
48
1
60
0
100
AcDbSpline
70
4
71
3
72
14
73
10
40
0
40
0
40
0
40
0
40
0.25
40
0.25
40
0.5
40
0.5
40
0.75
40
0.75
40
1
40
1
40
1
40
1
41
1
10
4.25146600578867
20
0.963902283552699
30
0
41
1
10
4.23069207082531
20
0.976863515918495
30
0
41
1
10
4.20943993162246
20
0.989114093243529
30
0
41
1
10
4.16566448256998
20
1.0117250663582
30
0
41
1
10
4.14378065350067
20
1.02172508598639
30
0
41
1
10
4.10162332899384
20
1.03774945432247
30
0
41
1
10
4.08239067923773
20
1.04336773161489
30
0
41
1
10
4.04900921351177
20
1.04955286470451
30
0
41
1
10
4.03549619462541
20
1.04999247011415
30
0
41
1
10
4.0253063561469
20
1.04832200079508
30
0
0
SPLINE
5
ED
100
AcDbEntity
8
1
62
256
6
ByLayer
370
18
48
1
60
0
100
AcDbSpline
70
4
71
3
72
14
73
10
40
0
40
0
40
0
40
0
40
0.122256883753844
40
0.122256883753844
40
0.337498393729146
40
0.337498393729146
40
0.552739903704449
40
0.552739903704449
40
1
40
1
40
1
40
1
41
1
10
52.7073481658051
20
-3.40671015213056
30
0
41
1
10
52.5601401324673
20
-3.4064847029627
30
0
41
1
10
52.4129080652743
20
-3.40394581637546
30
0
41
1
10
52.0062600653039
20
-3.39055612379153
30
0
41
1
10
51.7462218790614
20
-3.37482171261232
30
0
41
1
10
51.2273192418178
20
-3.32930631474991
30
0
41
1
10
50.9688711270293
20
-3.29958588335578
30
0
41
1
10
50.1756898610461
20
-3.18759326414684
30
0
41
1
10
49.6432427239273
20
-3.08305287734285
30
0
41
1
10
49.1111431545267
20
-2.95255945281937
30
0
0
SPLINE
5
EE
100
AcDbEntity
8
1
62
256
6
ByLayer
370
13
48
1
60
0
100
AcDbSpline
70
4
71
3
72
22
73
18
40
0
40
0
40
0
40
0
40
0.123042494299866
40
0.123042494299866
40
0.251074832696284
40
0.251074832696284
40
0.379107171092703
40
0.379107171092703
40
0.635171847885536
40
0.635171847885536
40
0.699188017083743
40
0.699188017083743
40
0.763204186281951
40
0.763204186281951
40
0.891236524678364
40
0.891236524678364
40
1
40
1
40
1
40
1
41
1
10
49.1111421833219
20
-2.95255921463863
30
0
41
1
10
48.6189618808412
20
-2.8318556613163
30
0
41
1
10
48.1270789503322
20
-2.68894710628101
30
0
41
1
10
47.1196309099822
20
-2.35683675941095
30
0
41
1
10
46.6034309209892
20
-2.16588552503779
30
0
41
1
10
45.5638334783298
20
-1.74767490323217
30
0
41
1
10
45.048343980736
20
-1.5238809183929
30
0
41
1
10
43.5071725324782
20
-0.823787827078945
30
0
41
1
10
42.4870012527197
20
-0.318123373579738
30
0
41
1
10
41.1969334558697
20
0.313300947825695
30
0
41
1
10
40.9381722534129
20
0.439530278944034
30
0
41
1
10
40.4184908501579
20
0.69050916145514
30
0
41
1
10
40.1587411992042
20
0.814666558134746
30
0
41
1
10
39.3831782222555
20
1.17965161319748
30
0
41
1
10
38.8691245450135
20
1.41346328511048
30
0
41
1
10
37.9195868048715
20
1.82034133988347
30
0
41
1
10
37.4838397516419
20
1.99717148065091
30
0
41
1
10
37.0470897851805
20
2.16143979421523
30
0
0
SPLINE
5
EF
100
AcDbEntity
8
1
62
256
6
ByLayer
370
18
48
1
60
0
100
AcDbSpline
70
4
71
3
72
12
73
8
40
0
40
0
40
0
40
0
40
0.447976972678444
40
0.447976972678444
40
0.824264021439871
40
0.824264021439871
40
1
40
1
40
1
40
1
41
1
10
9.20516651050255
20
-3.3544867907658
30
0
41
1
10
8.59219112664002
20
-3.35338765243387
30
0
41
1
10
7.98084775282746
20
-3.31290773616414
30
0
41
1
10
6.85159741309766
20
-3.16742837723908
30
0
41
1
10
6.33441099130468
20
-3.07378739991495
30
0
41
1
10
5.56962017672728
20
-2.89852587657282
30
0
41
1
10
5.32639595998828
20
-2.83735846260871
30
0
41
1
10
5.08321411111271
20
-2.77106155999462
30
0
0
SPLINE
5
F0
100
AcDbEntity
8
1
62
256
6
ByLayer
370
13
48
1
60
0
100
AcDbSpline
70
4
71
3
72
8
73
4
40
0
40
0
40
0
40
0
40
1
40
1
40
1
40
1
41
1
10
5.08321411090273
20
-2.77106155993738
30
0
41
1
10
4.80569336396854
20
-2.69540309275004
30
0
41
1
10
4.52822779493383
20
-2.61306422240574
30
0
41
1
10
4.25051449611553
20
-2.52440699234555
30
0
0
SPLINE
5
F1
100
AcDbEntity
8
1
62
256
6
ByLayer
370
18
48
1
60
0
100
AcDbSpline
70
4
71
3
72
88
73
84
40
0
40
0
40
0
40
0
40
0.0120957622615287
40
0.0120957622615287
40
0.032666309810808
40
0.032666309810808
40
0.073807404909367
40
0.073807404909367
40
0.0943779524586462
40
0.0943779524586462
40
0.114948500007926
40
0.114948500007926
40
0.156089595106483
40
0.156089595106483
40
0.176660142655761
40
0.176660142655761
40
0.19723069020504
40
0.19723069020504
40
0.238371785303597
40
0.238371785303597
40
0.258942332852877
40
0.258942332852877
40
0.279512880402156
40
0.279512880402156
40
0.300083427951435
40
0.300083427951435
40
0.320653975500714
40
0.320653975500714
40
0.341224523049994
40
0.341224523049994
40
0.361795070599273
40
0.361795070599273
40
0.402936165697831
40
0.402936165697831
40
0.42350671324711
40
0.42350671324711
40
0.44407726079639
40
0.44407726079639
40
0.464647808345669
40
0.464647808345669
40
0.485218355894948
40
0.485218355894948
40
0.526359450993507
40
0.526359450993507
40
0.546929998542787
40
0.546929998542787
40
0.567500546092066
40
0.567500546092066
40
0.588071093641346
40
0.588071093641346
40
0.608641641190626
40
0.608641641190626
40
0.629212188739906
40
0.629212188739906
40
0.649782736289186
40
0.649782736289186
40
0.690923831387745
40
0.690923831387745
40
0.711494378937025
40
0.711494378937025
40
0.732064926486304
40
0.732064926486304
40
0.773206021584864
40
0.773206021584864
40
0.793776569134144
40
0.793776569134144
40
0.814347116683424
40
0.814347116683424
40
0.855488211781985
40
0.855488211781985
40
0.876058759331266
40
0.876058759331266
40
0.896629306880546
40
0.896629306880546
40
0.917199854429826
40
0.917199854429826
40
0.937770401979107
40
0.937770401979107
40
0.958340949528387
40
0.958340949528387
40
0.978911497077667
40
0.978911497077667
40
1
40
1
40
1
40
1
41
1
10
23.4002183209231
20
1.9150184414043
30
0
41
1
10
23.5161370514626
20
1.96412498655596
30
0
41
1
10
23.6321126543319
20
2.01250469627686
30
0
41
1
10
23.945337918184
20
2.14132535234049
30
0
41
1
10
24.1417660156565
20
2.22060652669779
30
0
41
1
10
24.7317275385795
20
2.44804192547863
30
0
41
1
10
25.1256327965646
20
2.58661372880167
30
0
41
1
10
25.7150361514316
20
2.77805766418979
30
0
41
1
10
25.9113980253992
20
2.83888122538607
30
0
41
1
10
26.3055931953599
20
2.95257514386728
30
0
41
1
10
26.5031167310296
20
3.00578127316376
30
0
41
1
10
27.0941324478989
20
3.15438678066639
30
0
41
1
10
27.4859599770202
20
3.23961615904992
30
0
41
1
10
28.0760670422212
20
3.34206203690945
30
0
41
1
10
28.2729617439165
20
3.37219905394008
30
0
41
1
10
28.6668075144775
20
3.42457454966856
30
0
41
1
10
28.8637339085976
20
3.44690453441717
30
0
41
1
10
29.453965600078
20
3.50085792144256
30
0
41
1
10
29.8479064439996
20
3.51957780437962
30
0
41
1
10
30.4371893970798
20
3.52260449577113
30
0
41
1
10
30.6331885656917
20
3.51931199979984
30
0
41
1
10
31.026523007786
20
3.5042687387338
30
0
41
1
10
31.2236745797745
20
3.49254784125895
30
0
41
1
10
31.6182741941343
20
3.46069105806166
30
0
41
1
10
31.8152108867732
20
3.44059952050665
30
0
41
1
10
32.2079782040766
20
3.39177741238638
30
0
41
1
10
32.40416982394
20
3.36318390413916
30
0
41
1
10
32.7972717975969
20
3.29844593668389
30
0
41
1
10
32.9939683776727
20
3.26220003843127
30
0
41
1
10
33.3873454867436
20
3.181729931197
30
0
41
1
10
33.5838735534908
20
3.13735946682942
30
0
41
1
10
34.1738728216062
20
2.99225079457924
30
0
41
1
10
34.5684736123261
20
2.88198069954663
30
0
41
1
10
35.1578996275116
20
2.69567164543307
30
0
41
1
10
35.3538173591196
20
2.62961882672803
30
0
41
1
10
35.7464455031903
20
2.49202096231735
30
0
41
1
10
35.9431980217385
20
2.42058424367275
30
0
41
1
10
36.3371004013891
20
2.27184648903642
30
0
41
1
10
36.5344932201474
20
2.19452103080215
30
0
41
1
10
36.9278965683423
20
2.0338663910241
30
0
41
1
10
37.1240124925343
20
1.9505185726957
30
0
41
1
10
37.7135238653923
20
1.69629377523969
30
0
41
1
10
38.1068801255307
20
1.51942303626373
30
0
41
1
10
38.6957877796956
20
1.23986031193292
30
0
41
1
10
38.8925076873902
20
1.14515292326487
30
0
41
1
10
39.286742181058
20
0.954117947245805
30
0
41
1
10
39.4836908799145
20
0.857728434316584
30
0
41
1
10
39.8769321596099
20
0.662596078964157
30
0
41
1
10
40.0730148206798
20
0.563441676799926
30
0
41
1
10
40.4652030564869
20
0.364075513923865
30
0
41
1
10
40.6616740387387
20
0.264584522841488
30
0
41
1
10
41.0549659429516
20
0.0652172693551734
30
0
41
1
10
41.2518017556355
20
-0.0346296122370688
30
0
41
1
10
41.6454900738871
20
-0.235393374237077
30
0
41
1
10
41.8419698763928
20
-0.336672466048555
30
0
41
1
10
42.4315833064871
20
-0.635652970083243
30
0
41
1
10
42.8250253820979
20
-0.830246641117441
30
0
41
1
10
43.4134580148151
20
-1.11940364116168
30
0
41
1
10
43.6095487791432
20
-1.21486489231958
30
0
41
1
10
44.0030642130143
20
-1.40127100968746
30
0
41
1
10
44.2004142675295
20
-1.49277821662929
30
0
41
1
10
44.7909896960779
20
-1.76174211323405
30
0
41
1
10
45.1823917778862
20
-1.93522350750203
30
0
41
1
10
45.7717223161881
20
-2.17719935331453
30
0
41
1
10
45.968313998612
20
-2.25522333875409
30
0
41
1
10
46.3614615462605
20
-2.40646637042926
30
0
41
1
10
46.5579207481044
20
-2.48007376606216
30
0
41
1
10
47.1478710503854
20
-2.69070889368408
30
0
41
1
10
47.54146107773
20
-2.81652418649031
30
0
41
1
10
48.1299143090764
20
-2.9865787574885
30
0
41
1
10
48.3256388399356
20
-3.04016231324471
30
0
41
1
10
48.718398781618
20
-3.13890234723419
30
0
41
1
10
48.9151636987681
20
-3.18437792631747
30
0
41
1
10
49.3091425909574
20
-3.26785356601579
30
0
41
1
10
49.5060464396902
20
-3.30579725349406
30
0
41
1
10
49.8983459597428
20
-3.37394532445691
30
0
41
1
10
50.094300024928
20
-3.4038836892235
30
0
41
1
10
50.4867482713691
20
-3.45517001091773
30
0
41
1
10
50.6830484994667
20
-3.47664810220564
30
0
41
1
10
51.0754901818267
20
-3.51140518174199
30
0
41
1
10
51.2714641042755
20
-3.52471248957113
30
0
41
1
10
51.6685898086884
20
-3.54298323605275
30
0
41
1
10
51.8703710152809
20
-3.54769955452434
30
0
41
1
10
52.0721767319605
20
-3.54792547213683
30
0
0
SPLINE
5
F2
100
AcDbEntity
8
1
62
256
6
ByLayer
370
18
48
1
60
0
100
AcDbSpline
70
4
71
3
72
8
73
4
40
0
40
0
40
0
40
0
40
1
40
1
40
1
40
1
41
1
10
4.07441156867517
20
-2.63831674736986
30
0
41
1
10
4.04458641667233
20
-2.61902130155715
30
0
41
1
10
4.02477472612364
20
-2.59282985898835
30
0
41
1
10
4.02478300076765
20
-2.56430677770106
30
0
0
SPLINE
5
F3
100
AcDbEntity
8
1
62
256
6
ByLayer
370
13
48
1
60
0
100
AcDbSpline
70
4
71
3
72
8
73
4
40
0
40
0
40
0
40
0
40
1
40
1
40
1
40
1
41
1
10
4.0247830007672
20
-2.56430677769612
30
0
41
1
10
4.04763925568548
20
-2.5476744448888
30
0
41
1
10
4.08622633472842
20
-2.53248501813172
30
0
41
1
10
4.13810560720967
20
-2.52288945791179
30
0
0
SPLINE
5
F4
100
AcDbEntity
8
1
62
256
6
ByLayer
370
18
48
1
60
0
100
AcDbSpline
70
4
71
3
72
21
73
17
40
0
40
0
40
0
40
0
40
0.0970498917554065
40
0.189880871916282
40
0.277025119166065
40
0.344908284535162
40
0.396975919599681
40
0.463979163354154
40
0.52810223616108
40
0.590808887031483
40
0.639844246373307
40
0.675313137546546
40
0.723251892843367
40
0.804602596600057
40
0.919484764314498
40
1
40
1
40
1
40
1
41
1
10
30.9207761263422
20
-3.3807241866169
30
0
41
1
10
31.160783708219
20
-3.38024532752124
30
0
41
1
10
31.63160750474
20
-3.37993483897287
30
0
41
1
10
32.332303292413
20
-3.38026949183964
30
0
41
1
10
32.9444604555902
20
-3.38382063688863
30
0
41
1
10
33.4637109108616
20
-3.38351184892812
30
0
41
1
10
33.9330407416174
20
-3.38394993436475
30
0
41
1
10
34.3930054839849
20
-3.38509588339082
30
0
41
1
10
34.8797377726882
20
-3.38552925789972
30
0
41
1
10
35.3212901841432
20
-3.38527353791753
30
0
41
1
10
35.6910902234478
20
-3.38618676112125
30
0
41
1
10
36.0227705055021
20
-3.38705589770135
30
0
41
1
10
36.436377094248
20
-3.3872201945984
30
0
41
1
10
37.0495447014245
20
-3.38661712117474
30
0
41
1
10
37.744460014281
20
-3.3890995821566
30
0
41
1
10
38.2350603944613
20
-3.38939782157536
30
0
41
1
10
38.4372094314103
20
-3.38950511944856
30
0
0
SPLINE
5
F5
100
AcDbEntity
8
1
62
256
6
ByLayer
370
18
48
1
60
0
100
AcDbSpline
70
4
71
3
72
20
73
16
40
0
40
0
40
0
40
0
40
0.0341841794080186
40
0.118429086151814
40
0.178331876444124
40
0.250109584642513
40
0.339322435902517
40
0.451029639965754
40
0.533208803907309
40
0.599271677993643
40
0.677278627719866
40
0.767145102164591
40
0.849983345382103
40
0.92267529282936
40
1
40
1
40
1
40
1
41
1
10
16.7288685855385
20
3.3646667326621
30
0
41
1
10
16.6631424310432
20
3.36466519260247
30
0
41
1
10
16.4354317634622
20
3.36457991796558
30
0
41
1
10
16.0923479750551
20
3.36441310183798
30
0
41
1
10
15.6772269979552
20
3.36281212258777
30
0
41
1
10
15.2523517921737
20
3.3625730354018
30
0
41
1
10
14.7278621521089
20
3.36270281835161
30
0
41
1
10
14.1833578946907
20
3.3608999661233
30
0
41
1
10
13.6833897139895
20
3.36062001688668
30
0
41
1
10
13.2482310148256
20
3.35997020872941
30
0
41
1
10
12.7982980640865
20
3.35913499210884
30
0
41
1
10
12.3161169790028
20
3.35874518197409
30
0
41
1
10
11.8441005405691
20
3.35823124015249
30
0
41
1
10
11.3963378366443
20
3.35748148362759
30
0
41
1
10
11.1077887871172
20
3.35714860177407
30
0
41
1
10
10.9590610304266
20
3.35696989609764
30
0
0
SPLINE
5
F6
100
AcDbEntity
8
1
62
256
6
ByLayer
370
18
48
1
60
0
100
AcDbSpline
70
4
71
3
72
23
73
19
40
0
40
0
40
0
40
0
40
0.0031162286460405
40
0.0222086778073177
40
0.0899163669853002
40
0.168702289300065
40
0.226499236325787
40
0.310680926784442
40
0.409764402146709
40
0.482257902547723
40
0.571793314212557
40
0.63484512093495
40
0.711159646524034
40
0.794463619848239
40
0.820739769538875
40
0.862041833580189
40
0.934525811864839
40
1
40
1
40
1
40
1
41
1
10
20.0077003452031
20
-0.838866761063485
30
0
41
1
10
20.0075488501451
20
-0.838872023489671
30
0
41
1
10
20.007748980518
20
-0.838987533589858
30
0
41
1
10
20.0610796705058
20
-0.843283441266124
30
0
41
1
10
20.1892577154432
20
-0.856812182287797
30
0
41
1
10
20.3652510408355
20
-0.880438699633629
30
0
41
1
10
20.5754123400912
20
-0.915335533900333
30
0
41
1
10
20.7685768579032
20
-0.952850117009632
30
0
41
1
10
20.9863724219606
20
-1.00385047179722
30
0
41
1
10
21.2501773224989
20
-1.07649331217931
30
0
41
1
10
21.4730767205672
20
-1.14465865437353
30
0
41
1
10
21.7142986566135
20
-1.22458048087765
30
0
41
1
10
21.9546006541743
20
-1.30945528714008
30
0
41
1
10
22.1576790655548
20
-1.38738219261515
30
0
41
1
10
22.3199210660154
20
-1.45218195613054
30
0
41
1
10
22.4805258287463
20
-1.51769896880882
30
0
41
1
10
22.6880223944747
20
-1.60506435897537
30
0
41
1
10
22.8488777261071
20
-1.67593812864106
30
0
41
1
10
22.9255318116892
20
-1.71036583848993
30
0
0
SPLINE
5
F7
100
AcDbEntity
8
1
62
256
6
ByLayer
370
18
48
1
60
0
100
AcDbSpline
70
4
71
3
72
14
73
10
40
0
40
0
40
0
40
0
40
0.0005680388093602
40
0.26676229227071
40
0.407081938041553
40
0.51470880145919
40
0.569757584272703
40
0.670999006859839
40
1
40
1
40
1
40
1
41
1
10
48.9800914259443
20
0.188501322402175
30
0
41
1
10
48.9800947074756
20
0.188500644578369
30
0
41
1
10
48.9816100892364
20
0.188190871546709
30
0
41
1
10
48.9654541859977
20
0.193861541209003
30
0
41
1
10
48.9081906017729
20
0.217181636903206
30
0
41
1
10
48.8641833830723
20
0.235627691693821
30
0
41
1
10
48.8055734755493
20
0.261106522243466
30
0
41
1
10
48.6746971200032
20
0.320137285431002
30
0
41
1
10
48.5500065952419
20
0.379553380563266
30
0
41
1
10
48.4442770811867
20
0.431651393311569
30
0
0
SPLINE
5
F8
100
AcDbEntity
8
1
62
256
6
ByLayer
370
18
48
1
60
0
100
AcDbSpline
70
4
71
3
72
23
73
19
40
0
40
0
40
0
40
0
40
0.0910289686064471
40
0.177991361549809
40
0.261358952071107
40
0.329741731060635
40
0.380889440381611
40
0.434779606747294
40
0.506914867708461
40
0.600788442167151
40
0.673774079545836
40
0.730817920992908
40
0.759974634058804
40
0.790025666276413
40
0.83135270170808
40
0.890877240304867
40
0.968636578323818
40
1
40
1
40
1
40
1
41
1
10
9.16740402756855
20
-3.35449836145878
30
0
41
1
10
9.39308682836216
20
-3.35411819842472
30
0
41
1
10
9.83576957734851
20
-3.35390635501756
30
0
41
1
10
10.4980623162701
20
-3.35403131333675
30
0
41
1
10
11.0917229960764
20
-3.35742919285545
30
0
41
1
10
11.5995318033372
20
-3.35765352084726
30
0
41
1
10
12.0369978078757
20
-3.35835924878796
30
0
41
1
10
12.4826753945616
20
-3.3588612271933
30
0
41
1
10
13.0367263133413
20
-3.35947206321859
30
0
41
1
10
13.6386068717138
20
-3.36061093977557
30
0
41
1
10
14.2025434923632
20
-3.36094902508046
30
0
41
1
10
14.6034310611359
20
-3.36228719978411
30
0
41
1
10
14.8962277053559
20
-3.36255087290596
30
0
41
1
10
15.1494408088836
20
-3.3626087097893
30
0
41
1
10
15.4791409123537
20
-3.36263973533332
30
0
41
1
10
15.9290003957526
20
-3.36367165521264
30
0
41
1
10
16.3537654267128
20
-3.36472263721572
30
0
41
1
10
16.6286091971047
20
-3.36473904742533
30
0
41
1
10
16.7076032213481
20
-3.36471310850254
30
0
0
SPLINE
5
F9
100
AcDbEntity
8
1
62
256
6
ByLayer
370
18
48
1
60
0
100
AcDbSpline
70
4
71
2
72
6
73
3
40
0
40
0
40
0
40
1
40
1
40
1
41
1
10
52.6768883984192
20
-3.40669436564667
30
0
41
1
10
53.2186992672248
20
-3.40527430241326
30
0
41
1
10
53.7595945708503
20
-3.40952371097171
30
0
0
SPLINE
5
FA
100
AcDbEntity
8
1
62
256
6
ByLayer
370
18
48
1
60
0
100
AcDbSpline
70
4
71
3
72
18
73
14
40
0
40
0
40
0
40
0
40
0.0878175317989131
40
0.230194843607997
40
0.35676189149416
40
0.461649033239763
40
0.542036385223721
40
0.612026721035486
40
0.698791954672352
40
0.794859889140543
40
0.881608487753591
40
0.972945097094487
40
1
40
1
40
1
40
1
41
1
10
38.5322803181607
20
3.38902066100746
30
0
41
1
10
38.3603318190125
20
3.38860558758952
30
0
41
1
10
37.9091240563979
20
3.38767016290569
30
0
41
1
10
37.2054913743475
20
3.3851715402736
30
0
41
1
10
36.4705135894568
20
3.3866154942294
30
0
41
1
10
35.8583684336951
20
3.38678993046065
30
0
41
1
10
35.3559718735195
20
3.38533144501866
30
0
41
1
10
34.8888596479836
20
3.38558758821847
30
0
41
1
10
34.3909913719169
20
3.38513158019521
30
0
41
1
10
33.8600502803317
20
3.38380652945074
30
0
41
1
10
33.320181637364
20
3.38380357038381
30
0
41
1
10
32.9161996304712
20
3.38320687038609
30
0
41
1
10
32.6830459740941
20
3.38289514851374
30
0
41
1
10
32.6297653136684
20
3.3828252481469
30
0
0
SPLINE
5
FB
100
AcDbEntity
8
1
62
256
6
ByLayer
370
18
48
1
60
0
100
AcDbSpline
70
4
71
1
72
4
73
2
40
0
40
0
40
1
40
1
41
1
10
19.8595315190857
20
0.0024940733277106
30
0
41
1
10
19.8595406416692
20
0.0024884729333223
30
0
0
SPLINE
5
FC
100
AcDbEntity
8
1
62
256
6
ByLayer
370
18
48
1
60
0
100
AcDbSpline
70
4
71
3
72
23
73
19
40
0
40
0
40
0
40
0
40
0.0067567555033551
40
0.0333152687811791
40
0.0924956211903327
40
0.156641074239861
40
0.212027038660301
40
0.259204075800261
40
0.315783687369319
40
0.380252126285234
40
0.43423865764816
40
0.49875135970423
40
0.580009228405051
40
0.640877987960215
40
0.719844870560069
40
0.784929132772598
40
0.871886341416346
40
1
40
1
40
1
40
1
41
1
10
41.760276431041
20
-0.839858701352085
30
0
41
1
10
41.7603576244557
20
-0.839977218876044
30
0
41
1
10
41.7677075920984
20
-0.840985351184287
30
0
41
1
10
41.8333904241591
20
-0.846684455990157
30
0
41
1
10
41.9601342489312
20
-0.859723884873659
30
0
41
1
10
42.1145670550959
20
-0.879873908998519
30
0
41
1
10
42.2621389974403
20
-0.903145201964435
30
0
41
1
10
42.3926205499528
20
-0.927837692776876
30
0
41
1
10
42.5426843391667
20
-0.95968965063696
30
0
41
1
10
42.7017788499148
20
-0.997169830979971
30
0
41
1
10
42.8856016384799
20
-1.04478106365096
30
0
41
1
10
43.0862414817048
20
-1.10155705128221
30
0
41
1
10
43.2796799049392
20
-1.16163916490152
30
0
41
1
10
43.4925450263566
20
-1.23418513806581
30
0
41
1
10
43.7258370246611
20
-1.31869148204024
30
0
41
1
10
43.9906149348181
20
-1.42073508358169
30
0
41
1
10
44.3156353636249
20
-1.55237569740495
30
0
41
1
10
44.5638801107329
20
-1.65943807857178
30
0
41
1
10
44.7118682178977
20
-1.72560516854725
30
0
0
SPLINE
5
FD
100
AcDbEntity
8
1
62
256
6
ByLayer
370
18
48
1
60
0
100
AcDbSpline
70
4
71
3
72
13
73
9
40
0
40
0
40
0
40
0
40
0.15224251658829
40
0.391167105024606
40
0.492615256831705
40
0.620118074070916
40
0.807993122544445
40
1
40
1
40
1
40
1
41
1
10
27.2248778781679
20
0.190447012522867
30
0
41
1
10
27.2250724312751
20
0.190460794053962
30
0
41
1
10
27.2193025286549
20
0.192627855847206
30
0
41
1
10
27.1870508568598
20
0.204669373470836
30
0
41
1
10
27.1386854206233
20
0.225103928922266
30
0
41
1
10
27.0509555939531
20
0.263240524952067
30
0
41
1
10
26.9025087935005
20
0.331147537667533
30
0
41
1
10
26.7809743777159
20
0.389584349556344
30
0
41
1
10
26.7145941590946
20
0.422056651225859
30
0
0
LINE
5
7B
100
AcDbEntity
8
SK1
62
256
6
ByLayer
370
18
48
1
60
0
100
AcDbLine
10
-36
20
-1.878678
30
0
11
-36
21
-2.680703
31
0
39
0
210
0
220
0
230
1
0
LINE
5
7D
100
AcDbEntity
8
SK1
62
256
6
ByLayer
370
18
48
1
60
0
100
AcDbLine
10
-36
20
2.8
30
0
11
-36
21
-1.878686
31
0
39
0
210
0
220
0
230
1
0
LINE
5
7E
100
AcDbEntity
8
SK1
62
256
6
ByLayer
370
18
48
1
60
0
100
AcDbLine
10
0
20
-4
30
0
11
0
21
4
31
0
39
0
210
0
220
0
230
1
0
LINE
5
7F
100
AcDbEntity
8
SK1
62
256
6
ByLayer
370
13
48
1
60
0
100
AcDbLine
10
-35.5
20
-2.314649
30
0
11
-35.5
21
-3.116716
31
0
39
0
210
0
220
0
230
1
0
LINE
5
80
100
AcDbEntity
8
SK1
62
256
6
ByLayer
370
18
48
1
60
0
100
AcDbLine
10
-35.4
20
-3.167737
30
0
11
-35.4
21
-2.472656
31
0
39
0
210
0
220
0
230
1
0
LINE
5
81
100
AcDbEntity
8
SK1
62
256
6
ByLayer
370
18
48
1
60
0
100
AcDbLine
10
-36
20
-2.8
30
0
11
-36
21
-2.680703
31
0
39
0
210
0
220
0
230
1
0
LINE
5
82
100
AcDbEntity
8
SK1
62
256
6
ByLayer
370
18
48
1
60
0
100
AcDbLine
10
-34.8
20
4
30
0
11
-34.8
21
-4
31
0
39
0
210
0
220
0
230
1
0
LINE
5
83
100
AcDbEntity
8
1
62
256
6
ByLayer
370
13
48
1
60
0
100
AcDbLine
10
0.587116
20
3.743411
30
0
11
0.587116
21
-3.743411
31
0
39
0
210
0
220
0
230
1
0
LINE
5
84
100
AcDbEntity
8
1
62
256
6
ByLayer
370
18
48
1
60
0
100
AcDbLine
10
54.983872
20
0.079659
30
0
11
54.779067
21
0.827251
31
0
39
0
210
0
220
0
230
1
0
LINE
5
85
100
AcDbEntity
8
1
62
256
6
ByLayer
370
18
48
1
60
0
100
AcDbLine
10
53.750002
20
-3.405578
30
0
11
53.756876
21
-3.407734
31
0
39
0
210
0
220
0
230
1
0
LINE
5
86
100
AcDbEntity
8
1
62
256
6
ByLayer
370
18
48
1
60
0
100
AcDbLine
10
0
20
-4
30
0
11
0
21
4
31
0
39
0
210
0
220
0
230
1
0
LINE
5
87
100
AcDbEntity
8
1
62
256
6
ByLayer
370
18
48
1
60
0
100
AcDbLine
10
54.895698
20
-0.257805
30
0
11
54.554308
21
-1.195764
31
0
39
0
210
0
220
0
230
1
0
LINE
5
88
100
AcDbEntity
8
1
62
256
6
ByLayer
370
18
48
1
60
0
100
AcDbLine
10
55
20
0.022997
30
0
11
55
21
-0.022997
31
0
39
0
210
0
220
0
230
1
0
LINE
5
89
100
AcDbEntity
8
1
62
256
6
ByLayer
370
13
48
1
60
0
100
AcDbLine
10
54.983872
20
0.079659
30
0
11
53.754418
21
0.982259
31
0
39
0
210
0
220
0
230
1
0
LINE
5
8A
100
AcDbEntity
8
1
62
256
6
ByLayer
370
18
48
1
60
0
100
AcDbLine
10
54.983872
20
-0.079659
30
0
11
54.779067
21
-0.827251
31
0
39
0
210
0
220
0
230
1
0
LINE
5
8B
100
AcDbEntity
8
1
62
256
6
ByLayer
370
13
48
1
60
0
100
AcDbLine
10
1.175191
20
3.486822
30
0
11
1.175191
21
-3.486822
31
0
39
0
210
0
220
0
230
1
0
LINE
5
8C
100
AcDbEntity
8
1
62
256
6
ByLayer
370
13
48
1
60
0
100
AcDbLine
10
54.931054
20
-0.172371
30
0
11
53.641455
21
0.774385
31
0
39
0
210
0
220
0
230
1
0
LINE
5
8D
100
AcDbEntity
8
1
62
256
6
ByLayer
370
18
48
1
60
0
100
AcDbLine
10
54.895698
20
-0.257805
30
0
11
54.931054
21
-0.172371
31
0
39
0
210
0
220
0
230
1
0
LINE
5
8E
100
AcDbEntity
8
1
62
256
6
ByLayer
370
18
48
1
60
0
100
AcDbLine
10
54.895698
20
-0.257805
30
0
11
53.200646
21
-2.638288
31
0
39
0
210
0
220
0
230
1
0
LINE
5
8F
100
AcDbEntity
8
1
62
256
6
ByLayer
370
18
48
1
60
0
100
AcDbLine
10
54.213299
20
-2.132679
30
0
11
53.750002
21
-3.405578
31
0
39
0
210
0
220
0
230
1
0
LINE
5
90
100
AcDbEntity
8
80
62
256
6
ByLayer
370
18
48
1
60
0
100
AcDbLine
10
0
20
0
30
0
11
-5
21
0
31
0
39
0
210
0
220
0
230
1
0
LINE
5
91
100
AcDbEntity
8
4
62
256
6
ByLayer
370
18
48
0.05
60
0
100
AcDbLine
10
55
20
0
30
0
11
0
21
0
31
0
39
0
210
0
220
0
230
1
0
LINE
5
93
100
AcDbEntity
8
SK4
62
256
6
ByLayer
370
18
48
0.05
60
0
100
AcDbLine
10
60
20
0
30
0
11
-41
21
0
31
0
39
0
210
0
220
0
230
1
0
LINE
5
95
100
AcDbEntity
8
SK1
62
256
6
ByLayer
370
18
48
1
60
0
100
AcDbLine
10
-34.8
20
-4
30
0
11
0
21
-4
31
0
39
0
210
0
220
0
230
1
0
LINE
5
96
100
AcDbEntity
8
SK1
62
256
6
ByLayer
370
18
48
1
60
0
100
AcDbLine
10
0
20
4
30
0
11
-34.8
21
4
31
0
39
0
210
0
220
0
230
1
0
LINE
5
97
100
AcDbEntity
8
SK1
62
256
6
ByLayer
370
18
48
1
60
0
100
AcDbLine
10
-36
20
-2.8
30
0
11
-34.8
21
-4
31
0
39
0
210
0
220
0
230
1
0
LINE
5
98
100
AcDbEntity
8
SK1
62
256
6
ByLayer
370
18
48
1
60
0
100
AcDbLine
10
-34.8
20
4
30
0
11
-36
21
2.8
31
0
39
0
210
0
220
0
230
1
0
LINE
5
99
100
AcDbEntity
8
1
62
256
6
ByLayer
370
18
48
1
60
0
100
AcDbLine
10
1.175191
20
-3.486822
30
0
11
8.989312
21
-3.496199
31
0
39
0
210
0
220
0
230
1
0
LINE
5
9A
100
AcDbEntity
8
1
62
256
6
ByLayer
370
18
48
1
60
0
100
AcDbLine
10
30.293851
20
-3.521765
30
0
11
30.738995
21
-3.522299
31
0
39
0
210
0
220
0
230
1
0
LINE
5
9B
100
AcDbEntity
8
1
62
256
6
ByLayer
370
18
48
1
60
0
100
AcDbLine
10
52.07026
20
-3.547896
30
0
11
52.488869
21
-3.548399
31
0
39
0
210
0
220
0
230
1
0
LINE
5
9C
100
AcDbEntity
8
1
62
256
6
ByLayer
370
18
48
1
60
0
100
AcDbLine
10
52.489487
20
3.548399
30
0
11
52.07026
21
3.547896
31
0
39
0
210
0
220
0
230
1
0
LINE
5
9D
100
AcDbEntity
8
1
62
256
6
ByLayer
370
18
48
1
60
0
100
AcDbLine
10
30.738968
20
3.522299
30
0
11
30.293851
21
3.521765
31
0
39
0
210
0
220
0
230
1
0
LINE
5
9E
100
AcDbEntity
8
1
62
256
6
ByLayer
370
18
48
1
60
0
100
AcDbLine
10
8.989327
20
3.496199
30
0
11
1.175191
21
3.486822
31
0
39
0
210
0
220
0
230
1
0
LINE
5
9F
100
AcDbEntity
8
81
62
256
6
ByLayer
370
18
48
1
60
0
100
AcDbLine
10
55
20
0
30
0
11
60
21
0
31
0
39
0
210
0
220
0
230
1
0
LINE
5
A0
100
AcDbEntity
8
SK2
62
256
6
ByLayer
370
13
48
1
60
0
100
AcDbLine
10
-44.625163
20
-4
30
0
11
-44.625163
21
33.117107
31
0
39
0
210
0
220
0
230
1
0
LINE
5
A2
100
AcDbEntity
8
SK2
62
256
6
ByLayer
370
13
48
1
60
0
100
AcDbLine
10
-37.5875
20
4
30
0
11
-46.625163
21
4
31
0
39
0
210
0
220
0
230
1
0
LINE
5
A3
100
AcDbEntity
8
SK2
62
256
6
ByLayer
370
13
48
1
60
0
100
AcDbLine
10
-37.5875
20
-4
30
0
11
-46.625163
21
-4
31
0
39
0
210
0
220
0
230
1
0
LINE
5
A4
100
AcDbEntity
8
1
62
256
6
ByLayer
370
18
48
1
60
1
100
AcDbLine
10
-44.625163
20
4
30
0
11
-44.164379
21
0.500002
31
0
39
0
210
0
220
0
230
1
0
LINE
5
A5
100
AcDbEntity
8
1
62
256
6
ByLayer
370
18
48
1
60
1
100
AcDbLine
10
-44.164379
20
0.500002
30
0
11
-45.085946
21
0.499998
31
0
39
0
210
0
220
0
230
1
0
LINE
5
A6
100
AcDbEntity
8
1
62
256
6
ByLayer
370
18
48
1
60
1
100
AcDbLine
10
-45.085946
20
0.499998
30
0
11
-44.625163
21
4
31
0
39
0
210
0
220
0
230
1
0
LINE
5
A7
100
AcDbEntity
8
1
62
256
6
ByLayer
370
18
48
1
60
1
100
AcDbLine
10
-44.625163
20
-4
30
0
11
-45.085946
21
-0.500002
31
0
39
0
210
0
220
0
230
1
0
LINE
5
A8
100
AcDbEntity
8
1
62
256
6
ByLayer
370
18
48
1
60
1
100
AcDbLine
10
-45.085946
20
-0.500002
30
0
11
-44.164379
21
-0.499998
31
0
39
0
210
0
220
0
230
1
0
LINE
5
A9
100
AcDbEntity
8
1
62
256
6
ByLayer
370
18
48
1
60
1
100
AcDbLine
10
-44.164379
20
-0.499998
30
0
11
-44.625163
21
-4
31
0
39
0
210
0
220
0
230
1
0
LINE
5
AA
100
AcDbEntity
8
2
62
256
6
ByLayer
370
13
48
1
60
0
100
AcDbLine
10
67.083343
20
-3.55
30
0
11
67.083343
21
30.385327
31
0
39
0
210
0
220
0
230
1
0
LINE
5
AC
100
AcDbEntity
8
2
62
256
6
ByLayer
370
13
48
1
60
0
100
AcDbLine
10
55.2875
20
3.55
30
0
11
69.083343
21
3.55
31
0
39
0
210
0
220
0
230
1
0
LINE
5
AD
100
AcDbEntity
8
2
62
256
6
ByLayer
370
13
48
1
60
0
100
AcDbLine
10
55.2875
20
-3.55
30
0
11
69.083343
21
-3.55
31
0
39
0
210
0
220
0
230
1
0
LINE
5
AE
100
AcDbEntity
8
1
62
256
6
ByLayer
370
18
48
1
60
1
100
AcDbLine
10
67.083343
20
3.55
30
0
11
67.544126
21
0.050002
31
0
39
0
210
0
220
0
230
1
0
LINE
5
AF
100
AcDbEntity
8
1
62
256
6
ByLayer
370
18
48
1
60
1
100
AcDbLine
10
67.544126
20
0.050002
30
0
11
66.622559
21
0.049998
31
0
39
0
210
0
220
0
230
1
0
LINE
5
B0
100
AcDbEntity
8
1
62
256
6
ByLayer
370
18
48
1
60
1
100
AcDbLine
10
66.622559
20
0.049998
30
0
11
67.083343
21
3.55
31
0
39
0
210
0
220
0
230
1
0
LINE
5
B1
100
AcDbEntity
8
1
62
256
6
ByLayer
370
18
48
1
60
1
100
AcDbLine
10
67.083343
20
-3.55
30
0
11
66.622559
21
-0.050002
31
0
39
0
210
0
220
0
230
1
0
LINE
5
B2
100
AcDbEntity
8
1
62
256
6
ByLayer
370
18
48
1
60
1
100
AcDbLine
10
66.622559
20
-0.050002
30
0
11
67.544126
21
-0.049998
31
0
39
0
210
0
220
0
230
1
0
LINE
5
B3
100
AcDbEntity
8
1
62
256
6
ByLayer
370
18
48
1
60
1
100
AcDbLine
10
67.544126
20
-0.049998
30
0
11
67.083343
21
-3.55
31
0
39
0
210
0
220
0
230
1
0
LINE
5
104
100
AcDbEntity
8
1
62
256
6
ByLayer
370
18
48
1
60
1
100
AcDbLine
10
-44.625163
20
4
30
0
11
-44.164379
21
0.500002
31
0
39
0
210
0
220
0
230
1
0
LINE
5
105
100
AcDbEntity
8
1
62
256
6
ByLayer
370
18
48
1
60
1
100
AcDbLine
10
-44.164379
20
0.500002
30
0
11
-45.085946
21
0.499998
31
0
39
0
210
0
220
0
230
1
0
LINE
5
106
100
AcDbEntity
8
1
62
256
6
ByLayer
370
18
48
1
60
1
100
AcDbLine
10
-45.085946
20
0.499998
30
0
11
-44.625163
21
4
31
0
39
0
210
0
220
0
230
1
0
LINE
5
108
100
AcDbEntity
8
1
62
256
6
ByLayer
370
18
48
1
60
1
100
AcDbLine
10
-44.625163
20
-4
30
0
11
-45.085946
21
-0.500002
31
0
39
0
210
0
220
0
230
1
0
LINE
5
109
100
AcDbEntity
8
1
62
256
6
ByLayer
370
18
48
1
60
1
100
AcDbLine
10
-45.085946
20
-0.500002
30
0
11
-44.164379
21
-0.499998
31
0
39
0
210
0
220
0
230
1
0
LINE
5
10A
100
AcDbEntity
8
1
62
256
6
ByLayer
370
18
48
1
60
1
100
AcDbLine
10
-44.164379
20
-0.499998
30
0
11
-44.625163
21
-4
31
0
39
0
210
0
220
0
230
1
0
LINE
5
10E
100
AcDbEntity
8
1
62
256
6
ByLayer
370
18
48
1
60
1
100
AcDbLine
10
67.083343
20
3.55
30
0
11
67.544126
21
0.050002
31
0
39
0
210
0
220
0
230
1
0
LINE
5
10F
100
AcDbEntity
8
1
62
256
6
ByLayer
370
18
48
1
60
1
100
AcDbLine
10
67.544126
20
0.050002
30
0
11
66.622559
21
0.049998
31
0
39
0
210
0
220
0
230
1
0
LINE
5
110
100
AcDbEntity
8
1
62
256
6
ByLayer
370
18
48
1
60
1
100
AcDbLine
10
66.622559
20
0.049998
30
0
11
67.083343
21
3.55
31
0
39
0
210
0
220
0
230
1
0
LINE
5
112
100
AcDbEntity
8
1
62
256
6
ByLayer
370
18
48
1
60
1
100
AcDbLine
10
67.083343
20
-3.55
30
0
11
66.622559
21
-0.050002
31
0
39
0
210
0
220
0
230
1
0
LINE
5
113
100
AcDbEntity
8
1
62
256
6
ByLayer
370
18
48
1
60
1
100
AcDbLine
10
66.622559
20
-0.050002
30
0
11
67.544126
21
-0.049998
31
0
39
0
210
0
220
0
230
1
0
LINE
5
114
100
AcDbEntity
8
1
62
256
6
ByLayer
370
18
48
1
60
1
100
AcDbLine
10
67.544126
20
-0.049998
30
0
11
67.083343
21
-3.55
31
0
39
0
210
0
220
0
230
1
0
MTEXT
5
FE
100
AcDbEntity
8
SK6
62
256
6
ByLayer
370
13
48
1
60
0
100
AcDbMText
10
-16.974126
20
36.090328
30
0
210
0
220
0
230
1
1
\W0.7074;860.1-0710-036A1-SM 1210
40
3.5
41
0
44
1.084337
50
0
71
7
72
5
7
iso_b_vert
0
MTEXT
5
102
100
AcDbEntity
8
SK2
62
256
6
ByLayer
370
18
48
1
60
0
100
AcDbMText
10
-46.189796
20
17.409024
30
0
210
0
220
0
230
1
1
%%c
40
3.5
41
0
44
1.084337
50
90
71
7
72
5
7
iso_b_vert
0
MTEXT
5
103
100
AcDbEntity
8
SK2
62
256
6
ByLayer
370
18
48
1
60
0
100
AcDbMText
10
-46.189796
20
22.63168
30
0
210
0
220
0
230
1
1
\W0.7317;8,000
40
3.5
41
0
44
1.084337
50
90
71
7
72
5
7
iso_b_vert
0
MTEXT
5
10C
100
AcDbEntity
8
2
62
256
6
ByLayer
370
18
48
1
60
0
100
AcDbMText
10
65.518709
20
15.55211
30
0
210
0
220
0
230
1
1
%%c
40
3.5
41
0
44
1.084337
50
90
71
7
72
5
7
iso_b_vert
0
MTEXT
5
10D
100
AcDbEntity
8
2
62
256
6
ByLayer
370
18
48
1
60
0
100
AcDbMText
10
65.518709
20
20.774766
30
0
210
0
220
0
230
1
1
\W0.6713;7,100
40
3.5
41
0
44
1.084337
50
90
71
7
72
5
7
iso_b_vert
0
HATCH
5
107
100
AcDbEntity
8
SK2
62
256
6
ByLayer
370
13
48
1
60
0
100
AcDbHatch
10
0
20
0
30
0
210
0
220
0
230
1
2
ANSI31
70
0
71
0
91
1
92
5
93
3
72
1
10
-44.6251625675374
20
4
11
-44.1643788259847
21
0.500001692553184
72
1
10
-44.1643788259847
20
0.500001692553184
11
-45.0859463090902
21
0.499998307446816
72
1
10
-45.0859463090902
20
0.499998307446816
11
-44.6251625675374
21
4
97
0
75
0
76
1
52
0
41
0.0062
77
0
78
1
53
45
43
0
44
0
45
-0.0139193969876572
46
0.0139193969876572
79
0
47
0
98
1
10
0
20
0
0
HATCH
5
10B
100
AcDbEntity
8
SK2
62
256
6
ByLayer
370
13
48
1
60
0
100
AcDbHatch
10
0
20
0
30
0
210
0
220
0
230
1
2
ANSI31
70
0
71
0
91
1
92
5
93
3
72
1
10
-44.6251625675374
20
-4
11
-45.0859463090902
21
-0.500001692553184
72
1
10
-45.0859463090902
20
-0.500001692553184
11
-44.1643788259847
21
-0.499998307446816
72
1
10
-44.1643788259847
20
-0.499998307446816
11
-44.6251625675374
21
-4
97
0
75
0
76
1
52
0
41
0.0062
77
0
78
1
53
45
43
0
44
0
45
-0.0139193969876572
46
0.0139193969876572
79
0
47
0
98
1
10
0
20
0
0
HATCH
5
111
100
AcDbEntity
8
2
62
256
6
ByLayer
370
13
48
1
60
0
100
AcDbHatch
10
0
20
0
30
0
210
0
220
0
230
1
2
ANSI31
70
0
71
0
91
1
92
5
93
3
72
1
10
67.083342615295
20
3.55000000000001
11
67.5441263568478
21
0.0500016925531952
72
1
10
67.5441263568478
20
0.0500016925531952
11
66.6225588737423
21
0.0499983074468275
72
1
10
66.6225588737423
20
0.0499983074468275
11
67.083342615295
21
3.55000000000001
97
0
75
0
76
1
52
0
41
0.0062
77
0
78
1
53
45
43
0
44
0
45
-0.0139193969876572
46
0.0139193969876572
79
0
47
0
98
1
10
0
20
0
0
HATCH
5
115
100
AcDbEntity
8
2
62
256
6
ByLayer
370
13
48
1
60
0
100
AcDbHatch
10
0
20
0
30
0
210
0
220
0
230
1
2
ANSI31
70
0
71
0
91
1
92
5
93
3
72
1
10
67.083342615295
20
-3.54999999999998
11
66.6225588737423
21
-0.0500016925531668
72
1
10
66.6225588737423
20
-0.0500016925531668
11
67.5441263568478
21
-0.0499983074467991
72
1
10
67.5441263568478
20
-0.0499983074467991
11
67.083342615295
21
-3.54999999999998
97
0
75
0
76
1
52
0
41
0.0062
77
0
78
1
53
45
43
0
44
0
45
-0.0139193969876572
46
0.0139193969876572
79
0
47
0
98
1
10
0
20
0
0
DIMENSION
5
117
100
AcDbEntity
8
SK2
62
256
6
ByLayer
370
13
48
1
60
0
100
AcDbDimension
2
_U0
10
53.7
20
-13.763398
30
0
11
26.85
21
-13.763398
31
0
70
32
71
1
72
1
41
1
210
0
220
0
230
1
3
Standard
100
AcDbAlignedDimension
13
0
23
0
33
0
14
53.7
24
-3.55
34
0
50
0
100
AcDbRotatedDimension
1001
ACAD
1000
DSTYLE
1002
{
1070
   371
1070
    13
1070
   372
1070
    13
1070
   170
1070
     0
1070
   144
1040
1.0
1070
   277
1070
     2
1070
   278
1070
    44
1070
   146
1040
1.0
1070
   345
1005
16
1070
   347
1005
16
1070
   346
1005
16
1070
   344
1005
0
1070
   343
1005
0
1070
   172
1070
     1
1070
    76
1070
     0
1070
    75
1070
     0
1070
   282
1070
     0
1070
   281
1070
     0
1070
    71
1070
     0
1070
    74
1070
     0
1070
   279
1070
     0
1070
   173
1070
     1
1070
   340
1005
FF
1070
   271
1070
     2
1070
   272
1070
     2
1070
    77
1070
     1
1070
    73
1070
     1
1070
   171
1070
     3
1070
   274
1070
     4
1070
   177
1070
    35
1070
   176
1070
    35
1070
   178
1070
    35
1070
    48
1040
-0.1
1070
    41
1040
3.5
1070
   147
1040
1.75
1070
    42
1040
1.5875
1070
    44
1040
2.0
1070
   140
1040
3.5
1002
}
1001
ACAD_DSTYLE_DIM_LINETYPE
1070
   380
1005
16
1001
ACAD_DSTYLE_DIM_EXT1_LINETYPE
1070
   381
1005
16
1001
ACAD_DSTYLE_DIM_EXT2_LINETYPE
1070
   382
1005
16
0
DIMENSION
5
130
100
AcDbEntity
8
SK2
62
256
6
ByLayer
370
13
48
1
60
0
100
AcDbDimension
2
_U1
10
55
20
-32.692985
30
0
11
9.5
21
-32.692985
31
0
70
32
71
1
72
1
41
1
210
0
220
0
230
1
3
Standard
100
AcDbAlignedDimension
13
-36
23
-4
33
0
14
55
24
0
34
0
50
0
100
AcDbRotatedDimension
1001
ACAD
1000
DSTYLE
1002
{
1070
   371
1070
    13
1070
   372
1070
    13
1070
   170
1070
     0
1070
   144
1040
1.0
1070
   277
1070
     2
1070
   278
1070
    44
1070
   146
1040
1.0
1070
   345
1005
16
1070
   347
1005
16
1070
   346
1005
16
1070
   344
1005
0
1070
   343
1005
0
1070
   172
1070
     1
1070
    76
1070
     0
1070
    75
1070
     0
1070
   282
1070
     0
1070
   281
1070
     0
1070
    71
1070
     0
1070
    74
1070
     0
1070
   279
1070
     0
1070
   173
1070
     1
1070
   340
1005
FF
1070
   271
1070
     2
1070
   272
1070
     2
1070
    77
1070
     1
1070
    73
1070
     1
1070
   171
1070
     3
1070
   274
1070
     4
1070
   177
1070
    35
1070
   176
1070
    35
1070
   178
1070
    35
1070
    48
1040
-0.1
1070
    41
1040
3.5
1070
   147
1040
1.75
1070
    42
1040
1.5875
1070
    44
1040
2.0
1070
   140
1040
3.5
1002
}
1001
ACAD_DSTYLE_DIM_LINETYPE
1070
   380
1005
16
1001
ACAD_DSTYLE_DIM_EXT1_LINETYPE
1070
   381
1005
16
1001
ACAD_DSTYLE_DIM_EXT2_LINETYPE
1070
   382
1005
16
0
DIMENSION
5
148
100
AcDbEntity
8
SK2
62
256
6
ByLayer
370
13
48
1
60
0
100
AcDbDimension
2
_U2
10
55
20
15.159119
30
0
11
34.68925
21
15.159119
31
0
70
32
71
1
72
1
41
1
210
0
220
0
230
1
3
Standard
100
AcDbAlignedDimension
13
14.3785
23
3.55
33
0
14
55
24
0
34
0
50
0
100
AcDbRotatedDimension
1001
ACAD
1000
DSTYLE
1002
{
1070
   371
1070
    13
1070
   372
1070
    13
1070
   170
1070
     0
1070
   144
1040
1.0
1070
   277
1070
     2
1070
   278
1070
    44
1070
   146
1040
1.0
1070
   345
1005
16
1070
   347
1005
16
1070
   346
1005
16
1070
   344
1005
0
1070
   343
1005
0
1070
   172
1070
     1
1070
    76
1070
     0
1070
    75
1070
     0
1070
   282
1070
     0
1070
   281
1070
     0
1070
    71
1070
     0
1070
    74
1070
     0
1070
   279
1070
     0
1070
   173
1070
     1
1070
   340
1005
FF
1070
   271
1070
     2
1070
   272
1070
     2
1070
    77
1070
     1
1070
    73
1070
     1
1070
   171
1070
     3
1070
   274
1070
     4
1070
   177
1070
    35
1070
   176
1070
    35
1070
   178
1070
    35
1070
    48
1040
-0.1
1070
    41
1040
3.5
1070
   147
1040
1.75
1070
    42
1040
1.5875
1070
    44
1040
2.0
1070
   140
1040
3.5
1002
}
1001
ACAD_DSTYLE_DIM_LINETYPE
1070
   380
1005
16
1001
ACAD_DSTYLE_DIM_EXT1_LINETYPE
1070
   381
1005
16
1001
ACAD_DSTYLE_DIM_EXT2_LINETYPE
1070
   382
1005
16
0
DIMENSION
5
160
100
AcDbEntity
8
SK2
62
256
6
ByLayer
370
13
48
1
60
0
100
AcDbDimension
2
_U3
10
53.7
20
-16.352503
30
0
11
72.333333
21
-16.352503
31
0
70
32
71
1
72
1
41
1
210
0
220
0
230
1
3
Standard
100
AcDbAlignedDimension
13
55
23
0
33
0
14
53.7
24
-3.55
34
0
50
0
100
AcDbRotatedDimension
1001
ACAD
1000
DSTYLE
1002
{
1070
   371
1070
    13
1070
   372
1070
    13
1070
   170
1070
     0
1070
   144
1040
1.0
1070
   277
1070
     2
1070
   278
1070
    44
1070
   146
1040
1.0
1070
   345
1005
16
1070
   347
1005
16
1070
   346
1005
16
1070
   344
1005
0
1070
   343
1005
0
1070
   172
1070
     1
1070
    76
1070
     0
1070
    75
1070
     0
1070
   282
1070
     0
1070
   281
1070
     0
1070
    71
1070
     0
1070
    74
1070
     0
1070
   279
1070
     0
1070
   173
1070
     1
1070
   340
1005
FF
1070
   271
1070
     2
1070
   272
1070
     2
1070
    77
1070
     1
1070
    73
1070
     1
1070
   171
1070
     3
1070
   274
1070
     4
1070
   177
1070
    35
1070
   176
1070
    35
1070
   178
1070
    35
1070
    48
1040
-0.1
1070
    41
1040
3.5
1070
   147
1040
1.75
1070
    42
1040
1.5875
1070
    44
1040
2.0
1070
   140
1040
3.5
1002
}
1001
ACAD_DSTYLE_DIM_LINETYPE
1070
   380
1005
16
1001
ACAD_DSTYLE_DIM_EXT1_LINETYPE
1070
   381
1005
16
1001
ACAD_DSTYLE_DIM_EXT2_LINETYPE
1070
   382
1005
16
0
DIMENSION
5
17A
100
AcDbEntity
8
SK2
62
256
6
ByLayer
370
13
48
1
60
0
100
AcDbDimension
2
_U4
10
53.7
20
-22.343428
30
0
11
8.85
21
-22.343428
31
0
70
32
71
1
72
1
41
1
210
0
220
0
230
1
3
Standard
100
AcDbAlignedDimension
13
-36
23
-4
33
0
14
53.7
24
-3.55
34
0
50
0
100
AcDbRotatedDimension
1001
ACAD
1000
DSTYLE
1002
{
1070
   371
1070
    13
1070
   372
1070
    13
1070
   170
1070
     0
1070
   144
1040
1.0
1070
   277
1070
     2
1070
   278
1070
    44
1070
   146
1040
1.0
1070
   345
1005
16
1070
   347
1005
16
1070
   346
1005
16
1070
   344
1005
0
1070
   343
1005
0
1070
   172
1070
     1
1070
    76
1070
     0
1070
    75
1070
     0
1070
   282
1070
     0
1070
   281
1070
     0
1070
    71
1070
     0
1070
    74
1070
     0
1070
   279
1070
     0
1070
   173
1070
     1
1070
   340
1005
FF
1070
   271
1070
     2
1070
   272
1070
     2
1070
    77
1070
     1
1070
    73
1070
     1
1070
   171
1070
     3
1070
   274
1070
     4
1070
   177
1070
    35
1070
   176
1070
    35
1070
   178
1070
    35
1070
    48
1040
-0.1
1070
    41
1040
3.5
1070
   147
1040
1.75
1070
    42
1040
1.5875
1070
    44
1040
2.0
1070
   140
1040
3.5
1002
}
1001
ACAD_DSTYLE_DIM_LINETYPE
1070
   380
1005
16
1001
ACAD_DSTYLE_DIM_EXT1_LINETYPE
1070
   381
1005
16
1001
ACAD_DSTYLE_DIM_EXT2_LINETYPE
1070
   382
1005
16
0
ENDSEC
0
SECTION
2
OBJECTS
0
DICTIONARY
5
202
330
0
100
AcDbDictionary
280
0
281
1
3
ACAD_GROUP
350
203
3
ACAD_MLINESTYLE
350
204
0
DICTIONARY
5
203
330
0
100
AcDbDictionary
280
0
281
1
0
DICTIONARY
5
204
330
0
100
AcDbDictionary
280
0
281
1
3
Standard
350
18
0
MLINESTYLE
5
18
330
204
100
AcDbMlineStyle
2
Standard
70
0
3

62
256
51
90
52
90
71
2
49
-0.5
62
256
6
ByLayer
49
0.5
62
256
6
ByLayer
0
RASTERVARIABLES
5
1f0
330

100
AcDbRasterVariables
90
0
70
1
71
1
72
1
0
ENDSEC
0
EOF
