0
SECTION
2
HEADER
9
$ACADVER
1
AC1015
9
$DWGCODEPAGE
3
ANSI_1252
9
$HANDSEED
5
213
9
$ANGBASE
50
0
9
$ANGDIR
70
0
9
$ATTMODE
70
1
9
$AUNITS
70
0
9
$AUPREC
70
0
9
$CECOLOR
62
256
9
$CELTSCALE
40
1
9
$CELTYPE
6
ByLayer
9
$CELWEIGHT
370
18
9
$CLAYER
8
0
9
$CMLJUST
70
0
9
$CMLSCALE
40
1
9
$CMLSTYLE
2
Standard
9
$DIMSTYLE
2
Standard
9
$TEXTSIZE
40
0.2
9
$TEXTSTYLE
7
Standard
9
$LUNITS
70
2
9
$LUPREC
70
4
9
$EXTNAMES
290
1
9
$INSUNITS
70
4
9
$LTSCALE
40
1
9
$LWDISPLAY
290
1
9
$PDMODE
70
0
9
$PDSIZE
40
0
9
$PLINEGEN
70
0
0
ENDSEC
0
SECTION
2
CLASSES
0
CLASS
1
RASTERVARIABLES
2
AcDbRasterVariables
3
ISM
90
0
280
0
281
0
0
ENDSEC
0
SECTION
2
TABLES
0
TABLE
2
VPORT
5
209
100
AcDbSymbolTable
0
VPORT
5
1
100
AcDbSymbolTableRecord
100
AcDbViewportTableRecord
2
*Active
70
0
10
0
20
0
11
1
21
1
12
-1
22
1
13
0
23
0
14
0.5
24
0.5
15
10
25
10
16
0
26
0
36
1
17
0
27
0
37
0
0
ENDTAB
0
TABLE
2
LTYPE
5
20a
100
AcDbSymbolTable
0
LTYPE
5
14
100
AcDbSymbolTableRecord
100
AcDbLinetypeTableRecord
70
0
2
ByBlock
3

72
65
73
0
40
0
0
LTYPE
5
15
100
AcDbSymbolTableRecord
100
AcDbLinetypeTableRecord
70
0
2
ByLayer
3

72
65
73
0
40
0
0
LTYPE
5
16
100
AcDbSymbolTableRecord
100
AcDbLinetypeTableRecord
70
0
2
Continuous
3
Solid line
72
65
73
0
40
0
0
LTYPE
5
6E
100
AcDbSymbolTableRecord
100
AcDbLinetypeTableRecord
70
0
2
CENTER
3
____ _ ____ _ ____ _ ____
72
65
73
4
40
47.5
49
22
74
0
49
-8.5
74
0
49
8.5
74
0
49
-8.5
74
0
0
LTYPE
5
6F
100
AcDbSymbolTableRecord
100
AcDbLinetypeTableRecord
70
0
2
DASHED
3
__ __ __ __ __ __ __ __ __
72
65
73
2
40
25.72
49
12.86
74
0
49
-12.86
74
0
0
ENDTAB
0
TABLE
2
LAYER
5
20b
100
AcDbSymbolTable
0
LAYER
5
10
100
AcDbSymbolTableRecord
100
AcDbLayerTableRecord
2
0
70
0
62
7
6
Continuous
290
1
370
-3
390
0
0
LAYER
5
71
100
AcDbSymbolTableRecord
100
AcDbLayerTableRecord
2
80
70
0
62
-6
6
Continuous
290
1
370
-3
390
0
0
LAYER
5
73
100
AcDbSymbolTableRecord
100
AcDbLayerTableRecord
2
81
70
0
62
-3
6
Continuous
290
1
370
-3
390
0
0
LAYER
5
75
100
AcDbSymbolTableRecord
100
AcDbLayerTableRecord
2
1
70
0
62
4
6
Continuous
290
1
370
-3
390
0
0
LAYER
5
94
100
AcDbSymbolTableRecord
100
AcDbLayerTableRecord
2
4
70
0
62
-2
6
CENTER
290
1
370
-3
390
0
0
LAYER
5
AF
100
AcDbSymbolTableRecord
100
AcDbLayerTableRecord
2
2
70
0
62
7
6
Continuous
290
1
370
-3
390
0
0
LAYER
5
11E
100
AcDbSymbolTableRecord
100
AcDbLayerTableRecord
2
Defpoints
70
0
62
7
6
Continuous
290
0
370
-3
390
0
0
LAYER
5
1f5
100
AcDbSymbolTableRecord
100
AcDbLayerTableRecord
2
SK1
70
0
62
4
6
Continuous
290
1
370
-3
390
0
0
LAYER
5
1f6
100
AcDbSymbolTableRecord
100
AcDbLayerTableRecord
2
SK4
70
0
62
2
6
CENTER
290
1
370
-3
390
0
0
LAYER
5
1f7
100
AcDbSymbolTableRecord
100
AcDbLayerTableRecord
2
SK2
70
0
62
7
6
Continuous
290
1
370
-3
390
0
0
LAYER
5
1f8
100
AcDbSymbolTableRecord
100
AcDbLayerTableRecord
2
SK6
70
0
62
5
6
Continuous
290
1
370
-3
390
0
0
ENDTAB
0
TABLE
2
STYLE
5
20c
100
AcDbSymbolTable
0
STYLE
5
11
100
AcDbSymbolTableRecord
100
AcDbTextStyleTableRecord
2
Standard
3
txt
70
0
71
0
40
0
41
1
42
0
50
0
0
STYLE
5
103
100
AcDbSymbolTableRecord
100
AcDbTextStyleTableRecord
2
iso_b_vert
3
simplex.shx
70
0
71
0
40
0
41
1
42
0
50
0
0
STYLE
5
104
100
AcDbSymbolTableRecord
100
AcDbTextStyleTableRecord
2
DWGDirectTextStyle
3
simplex
70
0
71
0
40
0
41
1
42
0
50
0
0
ENDTAB
0
TABLE
2
DIMSTYLE
5
20d
100
AcDbSymbolTable
100
AcDbDimStyleTable
0
DIMSTYLE
105
27
100
AcDbSymbolTableRecord
100
AcDbDimStyleTableRecord
2
Standard
70
0
3
<>
41
0.18
42
0.0625
44
0.18
140
0.18
147
0.09
73
0
74
0
77
1
271
2
275
0
278
52
280
0
340
11
0
ENDTAB
0
TABLE
2
VIEW
5
20e
100
AcDbSymbolTable
0
ENDTAB
0
TABLE
2
UCS
5
20f
100
AcDbSymbolTable
0
ENDTAB
0
TABLE
2
APPID
5
210
100
AcDbSymbolTable
0
APPID
5
12
100
AcDbSymbolTableRecord
100
AcDbRegAppTableRecord
2
ACAD
70
0
0
APPID
5
11A
100
AcDbSymbolTableRecord
100
AcDbRegAppTableRecord
2
ACAD_DSTYLE_DIMBREAK
70
0
0
APPID
5
1B4
100
AcDbSymbolTableRecord
100
AcDbRegAppTableRecord
2
ACAD_DSTYLE_DIM_LINETYPE
70
0
0
APPID
5
1B5
100
AcDbSymbolTableRecord
100
AcDbRegAppTableRecord
2
ACAD_DSTYLE_DIM_EXT1_LINETYPE
70
0
0
APPID
5
1B6
100
AcDbSymbolTableRecord
100
AcDbRegAppTableRecord
2
ACAD_DSTYLE_DIM_EXT2_LINETYPE
70
0
0
APPID
5
1F1
100
AcDbSymbolTableRecord
100
AcDbRegAppTableRecord
2
ACAD_MLEADERVER
70
0
0
ENDTAB
0
TABLE
2
BLOCK_RECORD
5
211
100
AcDbSymbolTable
0
BLOCK_RECORD
5
1F
100
AcDbSymbolTableRecord
100
AcDbBlockTableRecord
2
*Model_Space
340
0
70
0
0
BLOCK_RECORD
5
1B
100
AcDbSymbolTableRecord
100
AcDbBlockTableRecord
2
*Paper_Space
340
0
70
0
0
BLOCK_RECORD
5
23
100
AcDbSymbolTableRecord
100
AcDbBlockTableRecord
2
*Paper_Space0
340
0
70
0
0
BLOCK_RECORD
5
11F
100
AcDbSymbolTableRecord
100
AcDbBlockTableRecord
2
*D1
340
0
70
0
0
BLOCK_RECORD
5
12B
100
AcDbSymbolTableRecord
100
AcDbBlockTableRecord
2
_U0
340
0
70
0
0
BLOCK_RECORD
5
137
100
AcDbSymbolTableRecord
100
AcDbBlockTableRecord
2
*D3
340
0
70
0
0
BLOCK_RECORD
5
143
100
AcDbSymbolTableRecord
100
AcDbBlockTableRecord
2
_U1
340
0
70
0
0
BLOCK_RECORD
5
14F
100
AcDbSymbolTableRecord
100
AcDbBlockTableRecord
2
*D5
340
0
70
0
0
BLOCK_RECORD
5
15B
100
AcDbSymbolTableRecord
100
AcDbBlockTableRecord
2
_U2
340
0
70
0
0
BLOCK_RECORD
5
167
100
AcDbSymbolTableRecord
100
AcDbBlockTableRecord
2
*D7
340
0
70
0
0
BLOCK_RECORD
5
175
100
AcDbSymbolTableRecord
100
AcDbBlockTableRecord
2
_U3
340
0
70
0
0
BLOCK_RECORD
5
181
100
AcDbSymbolTableRecord
100
AcDbBlockTableRecord
2
*D9
340
0
70
0
0
BLOCK_RECORD
5
18D
100
AcDbSymbolTableRecord
100
AcDbBlockTableRecord
2
_U4
340
0
70
0
0
ENDTAB
0
ENDSEC
0
SECTION
2
BLOCKS
0
BLOCK
5
20
100
AcDbEntity
8
0
100
AcDbBlockBegin
2
*Model_Space
70
0
10
0
20
0
30
0
3
*Model_Space
0
ENDBLK
5
21
100
AcDbEntity
8
0
100
AcDbBlockEnd
0
BLOCK
5
1C
100
AcDbEntity
8
0
100
AcDbBlockBegin
2
*Paper_Space
70
0
10
0
20
0
30
0
3
*Paper_Space
0
ENDBLK
5
1D
100
AcDbEntity
8
0
100
AcDbBlockEnd
0
BLOCK
5
24
100
AcDbEntity
8
0
100
AcDbBlockBegin
2
*Paper_Space0
70
0
10
0
20
0
30
0
3
*Paper_Space0
0
ENDBLK
5
25
100
AcDbEntity
8
0
100
AcDbBlockEnd
0
BLOCK
5
120
100
AcDbEntity
8
0
100
AcDbBlockBegin
2
*D1
70
1
10
0
20
0
30
0
3
*D1
0
LINE
5
122
100
AcDbEntity
8
0
62
256
6
ByLayer
370
-2
48
1
60
0
100
AcDbLine
10
0
20
-1.5875
30
0
11
0
21
-14.563398
31
0
39
0
210
0
220
0
230
1
0
LINE
5
123
100
AcDbEntity
8
0
62
256
6
ByLayer
370
-2
48
1
60
0
100
AcDbLine
10
37.1
20
-3.9375
30
0
11
37.1
21
-14.563398
31
0
39
0
210
0
220
0
230
1
0
LINE
5
124
100
AcDbEntity
8
0
62
256
6
ByLayer
370
-2
48
1
60
0
100
AcDbLine
10
3.5
20
-12.563398
30
0
11
33.6
21
-12.563398
31
0
39
0
210
0
220
0
230
1
0
SOLID
5
125
100
AcDbEntity
8
0
62
256
6
ByLayer
370
-1
48
1
60
0
100
AcDbTrace
10
3.5
20
-11.980065
30
0
11
3.5
21
-13.146732
31
0
12
0
22
-12.563398
32
0
13
0
23
-12.563398
33
0
39
0
210
0
220
0
230
1
0
SOLID
5
126
100
AcDbEntity
8
0
62
256
6
ByLayer
370
-1
48
1
60
0
100
AcDbTrace
10
33.6
20
-13.146732
30
0
11
33.6
21
-11.980065
31
0
12
37.1
22
-12.563398
32
0
13
37.1
23
-12.563398
33
0
39
0
210
0
220
0
230
1
0
MTEXT
5
127
100
AcDbEntity
8
0
62
256
6
ByLayer
370
18
48
1
60
0
100
AcDbMText
10
18.55
20
-5.563398
30
0
210
0
220
0
230
1
1
\A1;37.10
40
3.5
41
0
44
1
50
0
71
5
72
5
7
iso_b_vert
0
POINT
5
128
100
AcDbEntity
8
Defpoints
62
0
6
ByLayer
370
-1
48
1
60
0
100
AcDbPoint
10
0
20
0
30
0
39
0
210
0
220
0
230
1
50
360
0
POINT
5
129
100
AcDbEntity
8
Defpoints
62
0
6
ByLayer
370
-1
48
1
60
0
100
AcDbPoint
10
37.1
20
-2.35
30
0
39
0
210
0
220
0
230
1
50
360
0
POINT
5
12A
100
AcDbEntity
8
Defpoints
62
0
6
ByLayer
370
-1
48
1
60
0
100
AcDbPoint
10
37.1
20
-12.563398
30
0
39
0
210
0
220
0
230
1
50
360
0
ENDBLK
5
121
100
AcDbEntity
8
0
100
AcDbBlockEnd
0
BLOCK
5
132
100
AcDbEntity
8
0
100
AcDbBlockBegin
2
_U0
70
0
10
0
20
0
30
0
3
_U0
0
MTEXT
5
12C
100
AcDbEntity
8
SK2
62
256
6
ByLayer
370
13
48
1
60
0
100
AcDbMText
10
13.850135
20
-11.530765
30
0
210
0
220
0
230
1
1
\W0.6713;37,10
40
3.5
41
0
44
1.084337
50
0
71
7
72
5
7
iso_b_vert
0
LINE
5
12D
100
AcDbEntity
8
SK2
62
256
6
ByLayer
370
13
48
1
60
0
100
AcDbLine
10
0
20
-1.5875
30
0
11
0
21
-14.563398
31
0
39
0
210
0
220
0
230
1
0
LINE
5
12E
100
AcDbEntity
8
SK2
62
256
6
ByLayer
370
13
48
1
60
0
100
AcDbLine
10
37.1
20
-3.9375
30
0
11
37.1
21
-14.563398
31
0
39
0
210
0
220
0
230
1
0
LINE
5
12F
100
AcDbEntity
8
SK2
62
256
6
ByLayer
370
13
48
1
60
0
100
AcDbLine
10
0
20
-12.563398
30
0
11
37.1
21
-12.563398
31
0
39
0
210
0
220
0
230
1
0
SOLID
5
130
100
AcDbEntity
8
SK2
62
256
6
ByLayer
370
18
48
1
60
0
100
AcDbTrace
10
0
20
-12.563398
30
0
11
3.499998
21
-12.102615
31
0
12
3.500002
22
-13.024182
32
0
13
3.500002
23
-13.024182
33
0
39
0
210
0
220
0
230
1
0
SOLID
5
131
100
AcDbEntity
8
SK2
62
256
6
ByLayer
370
18
48
1
60
0
100
AcDbTrace
10
37.1
20
-12.563398
30
0
11
33.600002
21
-13.024182
31
0
12
33.599998
22
-12.102615
32
0
13
33.599998
23
-12.102615
33
0
39
0
210
0
220
0
230
1
0
ENDBLK
5
133
100
AcDbEntity
8
0
100
AcDbBlockEnd
0
BLOCK
5
138
100
AcDbEntity
8
0
100
AcDbBlockBegin
2
*D3
70
1
10
0
20
0
30
0
3
*D3
0
LINE
5
13A
100
AcDbEntity
8
0
62
256
6
ByLayer
370
-2
48
1
60
0
100
AcDbLine
10
-36
20
-4.5875
30
0
11
-36
21
-33.692985
31
0
39
0
210
0
220
0
230
1
0
LINE
5
13B
100
AcDbEntity
8
0
62
256
6
ByLayer
370
-2
48
1
60
0
100
AcDbLine
10
38
20
-1.5875
30
0
11
38
21
-33.692985
31
0
39
0
210
0
220
0
230
1
0
LINE
5
13C
100
AcDbEntity
8
0
62
256
6
ByLayer
370
-2
48
1
60
0
100
AcDbLine
10
-32.5
20
-31.692985
30
0
11
34.5
21
-31.692985
31
0
39
0
210
0
220
0
230
1
0
SOLID
5
13D
100
AcDbEntity
8
0
62
256
6
ByLayer
370
-1
48
1
60
0
100
AcDbTrace
10
-32.5
20
-31.109652
30
0
11
-32.5
21
-32.276319
31
0
12
-36
22
-31.692985
32
0
13
-36
23
-31.692985
33
0
39
0
210
0
220
0
230
1
0
SOLID
5
13E
100
AcDbEntity
8
0
62
256
6
ByLayer
370
-1
48
1
60
0
100
AcDbTrace
10
34.5
20
-32.276319
30
0
11
34.5
21
-31.109652
31
0
12
38
22
-31.692985
32
0
13
38
23
-31.692985
33
0
39
0
210
0
220
0
230
1
0
MTEXT
5
13F
100
AcDbEntity
8
0
62
256
6
ByLayer
370
18
48
1
60
0
100
AcDbMText
10
1
20
-24.692985
30
0
210
0
220
0
230
1
1
\A1;74.00
40
3.5
41
0
44
1
50
0
71
5
72
5
7
iso_b_vert
0
POINT
5
140
100
AcDbEntity
8
Defpoints
62
0
6
ByLayer
370
-1
48
1
60
0
100
AcDbPoint
10
-36
20
-3
30
0
39
0
210
0
220
0
230
1
50
360
0
POINT
5
141
100
AcDbEntity
8
Defpoints
62
0
6
ByLayer
370
-1
48
1
60
0
100
AcDbPoint
10
38
20
0
30
0
39
0
210
0
220
0
230
1
50
360
0
POINT
5
142
100
AcDbEntity
8
Defpoints
62
0
6
ByLayer
370
-1
48
1
60
0
100
AcDbPoint
10
38
20
-31.692985
30
0
39
0
210
0
220
0
230
1
50
360
0
ENDBLK
5
139
100
AcDbEntity
8
0
100
AcDbBlockEnd
0
BLOCK
5
14A
100
AcDbEntity
8
0
100
AcDbBlockBegin
2
_U1
70
0
10
0
20
0
30
0
3
_U1
0
MTEXT
5
144
100
AcDbEntity
8
SK2
62
256
6
ByLayer
370
13
48
1
60
0
100
AcDbMText
10
-4.321565
20
-30.660352
30
0
210
0
220
0
230
1
1
\W0.7581;74,00
40
3.5
41
0
44
1.084337
50
0
71
7
72
5
7
iso_b_vert
0
LINE
5
145
100
AcDbEntity
8
SK2
62
256
6
ByLayer
370
13
48
1
60
0
100
AcDbLine
10
-36
20
-4.5875
30
0
11
-36
21
-33.692985
31
0
39
0
210
0
220
0
230
1
0
LINE
5
146
100
AcDbEntity
8
SK2
62
256
6
ByLayer
370
13
48
1
60
0
100
AcDbLine
10
38
20
-1.5875
30
0
11
38
21
-33.692985
31
0
39
0
210
0
220
0
230
1
0
LINE
5
147
100
AcDbEntity
8
SK2
62
256
6
ByLayer
370
13
48
1
60
0
100
AcDbLine
10
-36
20
-31.692985
30
0
11
38
21
-31.692985
31
0
39
0
210
0
220
0
230
1
0
SOLID
5
148
100
AcDbEntity
8
SK2
62
256
6
ByLayer
370
18
48
1
60
0
100
AcDbTrace
10
-36
20
-31.692985
30
0
11
-32.500002
21
-31.232202
31
0
12
-32.499998
22
-32.153769
32
0
13
-32.499998
23
-32.153769
33
0
39
0
210
0
220
0
230
1
0
SOLID
5
149
100
AcDbEntity
8
SK2
62
256
6
ByLayer
370
18
48
1
60
0
100
AcDbTrace
10
38
20
-31.692985
30
0
11
34.500002
21
-32.153769
31
0
12
34.499998
22
-31.232202
32
0
13
34.499998
23
-31.232202
33
0
39
0
210
0
220
0
230
1
0
ENDBLK
5
14B
100
AcDbEntity
8
0
100
AcDbBlockEnd
0
BLOCK
5
150
100
AcDbEntity
8
0
100
AcDbBlockBegin
2
*D5
70
1
10
0
20
0
30
0
3
*D5
0
LINE
5
152
100
AcDbEntity
8
0
62
256
6
ByLayer
370
-2
48
1
60
0
100
AcDbLine
10
10.2169
20
3.9375
30
0
11
10.2169
21
15.959119
31
0
39
0
210
0
220
0
230
1
0
LINE
5
153
100
AcDbEntity
8
0
62
256
6
ByLayer
370
-2
48
1
60
0
100
AcDbLine
10
38
20
1.5875
30
0
11
38
21
15.959119
31
0
39
0
210
0
220
0
230
1
0
LINE
5
154
100
AcDbEntity
8
0
62
256
6
ByLayer
370
-2
48
1
60
0
100
AcDbLine
10
13.7169
20
13.959119
30
0
11
34.5
21
13.959119
31
0
39
0
210
0
220
0
230
1
0
SOLID
5
155
100
AcDbEntity
8
0
62
256
6
ByLayer
370
-1
48
1
60
0
100
AcDbTrace
10
13.7169
20
14.542453
30
0
11
13.7169
21
13.375786
31
0
12
10.2169
22
13.959119
32
0
13
10.2169
23
13.959119
33
0
39
0
210
0
220
0
230
1
0
SOLID
5
156
100
AcDbEntity
8
0
62
256
6
ByLayer
370
-1
48
1
60
0
100
AcDbTrace
10
34.5
20
13.375786
30
0
11
34.5
21
14.542453
31
0
12
38
22
13.959119
32
0
13
38
23
13.959119
33
0
39
0
210
0
220
0
230
1
0
MTEXT
5
157
100
AcDbEntity
8
0
62
256
6
ByLayer
370
18
48
1
60
0
100
AcDbMText
10
24.10845
20
20.959119
30
0
210
0
220
0
230
1
1
\A1;27.78
40
3.5
41
0
44
1
50
0
71
5
72
5
7
iso_b_vert
0
POINT
5
158
100
AcDbEntity
8
Defpoints
62
0
6
ByLayer
370
-1
48
1
60
0
100
AcDbPoint
10
10.2169
20
2.35
30
0
39
0
210
0
220
0
230
1
50
360
0
POINT
5
159
100
AcDbEntity
8
Defpoints
62
0
6
ByLayer
370
-1
48
1
60
0
100
AcDbPoint
10
38
20
0
30
0
39
0
210
0
220
0
230
1
50
360
0
POINT
5
15A
100
AcDbEntity
8
Defpoints
62
0
6
ByLayer
370
-1
48
1
60
0
100
AcDbPoint
10
38
20
13.959119
30
0
39
0
210
0
220
0
230
1
50
360
0
ENDBLK
5
151
100
AcDbEntity
8
0
100
AcDbBlockEnd
0
BLOCK
5
162
100
AcDbEntity
8
0
100
AcDbBlockBegin
2
_U2
70
0
10
0
20
0
30
0
3
_U2
0
MTEXT
5
15C
100
AcDbEntity
8
SK2
62
256
6
ByLayer
370
13
48
1
60
0
100
AcDbMText
10
18.971151
20
14.991753
30
0
210
0
220
0
230
1
1
\W0.7317;27,78
40
3.5
41
0
44
1.084337
50
0
71
7
72
5
7
iso_b_vert
0
LINE
5
15D
100
AcDbEntity
8
SK2
62
256
6
ByLayer
370
13
48
1
60
0
100
AcDbLine
10
10.2169
20
3.9375
30
0
11
10.2169
21
15.959119
31
0
39
0
210
0
220
0
230
1
0
LINE
5
15E
100
AcDbEntity
8
SK2
62
256
6
ByLayer
370
13
48
1
60
0
100
AcDbLine
10
38
20
1.5875
30
0
11
38
21
15.959119
31
0
39
0
210
0
220
0
230
1
0
LINE
5
15F
100
AcDbEntity
8
SK2
62
256
6
ByLayer
370
13
48
1
60
0
100
AcDbLine
10
10.2169
20
13.959119
30
0
11
38
21
13.959119
31
0
39
0
210
0
220
0
230
1
0
SOLID
5
160
100
AcDbEntity
8
SK2
62
256
6
ByLayer
370
18
48
1
60
0
100
AcDbTrace
10
10.2169
20
13.959119
30
0
11
13.716898
21
14.419903
31
0
12
13.716902
22
13.498335
32
0
13
13.716902
23
13.498335
33
0
39
0
210
0
220
0
230
1
0
SOLID
5
161
100
AcDbEntity
8
SK2
62
256
6
ByLayer
370
18
48
1
60
0
100
AcDbTrace
10
38
20
13.959119
30
0
11
34.500002
21
13.498335
31
0
12
34.499998
22
14.419903
32
0
13
34.499998
23
14.419903
33
0
39
0
210
0
220
0
230
1
0
ENDBLK
5
163
100
AcDbEntity
8
0
100
AcDbBlockEnd
0
BLOCK
5
168
100
AcDbEntity
8
0
100
AcDbBlockBegin
2
*D7
70
1
10
0
20
0
30
0
3
*D7
0
LINE
5
16A
100
AcDbEntity
8
0
62
256
6
ByLayer
370
-2
48
1
60
0
100
AcDbLine
10
38
20
-1.5875
30
0
11
38
21
-17.152503
31
0
39
0
210
0
220
0
230
1
0
LINE
5
16B
100
AcDbEntity
8
0
62
256
6
ByLayer
370
-2
48
1
60
0
100
AcDbLine
10
37.1
20
-3.9375
30
0
11
37.1
21
-17.152503
31
0
39
0
210
0
220
0
230
1
0
LINE
5
16C
100
AcDbEntity
8
0
62
256
6
ByLayer
370
-2
48
1
60
0
100
AcDbLine
10
38
20
-15.152503
30
0
11
66.166667
21
-15.152503
31
0
39
0
210
0
220
0
230
1
0
LINE
5
16D
100
AcDbEntity
8
0
62
256
6
ByLayer
370
-2
48
1
60
0
100
AcDbLine
10
41.5
20
-15.152503
30
0
11
45
21
-15.152503
31
0
39
0
210
0
220
0
230
1
0
LINE
5
16E
100
AcDbEntity
8
0
62
256
6
ByLayer
370
-2
48
1
60
0
100
AcDbLine
10
33.6
20
-15.152503
30
0
11
30.1
21
-15.152503
31
0
39
0
210
0
220
0
230
1
0
SOLID
5
16F
100
AcDbEntity
8
0
62
256
6
ByLayer
370
-1
48
1
60
0
100
AcDbTrace
10
41.5
20
-14.56917
30
0
11
41.5
21
-15.735837
31
0
12
38
22
-15.152503
32
0
13
38
23
-15.152503
33
0
39
0
210
0
220
0
230
1
0
SOLID
5
170
100
AcDbEntity
8
0
62
256
6
ByLayer
370
-1
48
1
60
0
100
AcDbTrace
10
33.6
20
-15.735837
30
0
11
33.6
21
-14.56917
31
0
12
37.1
22
-15.152503
32
0
13
37.1
23
-15.152503
33
0
39
0
210
0
220
0
230
1
0
MTEXT
5
171
100
AcDbEntity
8
0
62
256
6
ByLayer
370
18
48
1
60
0
100
AcDbMText
10
55.583333
20
-8.152503
30
0
210
0
220
0
230
1
1
\A1;0.90
40
3.5
41
0
44
1
50
0
71
5
72
5
7
iso_b_vert
0
POINT
5
172
100
AcDbEntity
8
Defpoints
62
0
6
ByLayer
370
-1
48
1
60
0
100
AcDbPoint
10
38
20
0
30
0
39
0
210
0
220
0
230
1
50
360
0
POINT
5
173
100
AcDbEntity
8
Defpoints
62
0
6
ByLayer
370
-1
48
1
60
0
100
AcDbPoint
10
37.1
20
-2.35
30
0
39
0
210
0
220
0
230
1
50
360
0
POINT
5
174
100
AcDbEntity
8
Defpoints
62
0
6
ByLayer
370
-1
48
1
60
0
100
AcDbPoint
10
37.1
20
-15.152503
30
0
39
0
210
0
220
0
230
1
50
360
0
ENDBLK
5
169
100
AcDbEntity
8
0
100
AcDbBlockEnd
0
BLOCK
5
17C
100
AcDbEntity
8
0
100
AcDbBlockBegin
2
_U3
70
0
10
0
20
0
30
0
3
_U3
0
MTEXT
5
176
100
AcDbEntity
8
SK2
62
256
6
ByLayer
370
13
48
1
60
0
100
AcDbMText
10
44.15186
20
-14.11987
30
0
210
0
220
0
230
1
1
\W0.7150;0,90
40
3.5
41
0
44
1.084337
50
0
71
7
72
5
7
iso_b_vert
0
LINE
5
177
100
AcDbEntity
8
SK2
62
256
6
ByLayer
370
13
48
1
60
0
100
AcDbLine
10
38
20
-1.5875
30
0
11
38
21
-17.152503
31
0
39
0
210
0
220
0
230
1
0
LINE
5
178
100
AcDbEntity
8
SK2
62
256
6
ByLayer
370
13
48
1
60
0
100
AcDbLine
10
37.1
20
-3.9375
30
0
11
37.1
21
-17.152503
31
0
39
0
210
0
220
0
230
1
0
LINE
5
179
100
AcDbEntity
8
SK2
62
256
6
ByLayer
370
13
48
1
60
0
100
AcDbLine
10
28.35
20
-15.152503
30
0
11
51.996491
21
-15.152503
31
0
39
0
210
0
220
0
230
1
0
SOLID
5
17A
100
AcDbEntity
8
SK2
62
256
6
ByLayer
370
18
48
1
60
0
100
AcDbTrace
10
38
20
-15.152503
30
0
11
41.499998
21
-14.691719
31
0
12
41.500002
22
-15.613287
32
0
13
41.500002
23
-15.613287
33
0
39
0
210
0
220
0
230
1
0
SOLID
5
17B
100
AcDbEntity
8
SK2
62
256
6
ByLayer
370
18
48
1
60
0
100
AcDbTrace
10
37.1
20
-15.152503
30
0
11
33.600002
21
-15.613287
31
0
12
33.599998
22
-14.691719
32
0
13
33.599998
23
-14.691719
33
0
39
0
210
0
220
0
230
1
0
ENDBLK
5
17D
100
AcDbEntity
8
0
100
AcDbBlockEnd
0
BLOCK
5
182
100
AcDbEntity
8
0
100
AcDbBlockBegin
2
*D9
70
1
10
0
20
0
30
0
3
*D9
0
LINE
5
184
100
AcDbEntity
8
0
62
256
6
ByLayer
370
-2
48
1
60
0
100
AcDbLine
10
-36
20
-4.5875
30
0
11
-36
21
-23.343428
31
0
39
0
210
0
220
0
230
1
0
LINE
5
185
100
AcDbEntity
8
0
62
256
6
ByLayer
370
-2
48
1
60
0
100
AcDbLine
10
37.1
20
-3.9375
30
0
11
37.1
21
-23.343428
31
0
39
0
210
0
220
0
230
1
0
LINE
5
186
100
AcDbEntity
8
0
62
256
6
ByLayer
370
-2
48
1
60
0
100
AcDbLine
10
-32.5
20
-21.343428
30
0
11
33.6
21
-21.343428
31
0
39
0
210
0
220
0
230
1
0
SOLID
5
187
100
AcDbEntity
8
0
62
256
6
ByLayer
370
-1
48
1
60
0
100
AcDbTrace
10
-32.5
20
-20.760095
30
0
11
-32.5
21
-21.926762
31
0
12
-36
22
-21.343428
32
0
13
-36
23
-21.343428
33
0
39
0
210
0
220
0
230
1
0
SOLID
5
188
100
AcDbEntity
8
0
62
256
6
ByLayer
370
-1
48
1
60
0
100
AcDbTrace
10
33.6
20
-21.926762
30
0
11
33.6
21
-20.760095
31
0
12
37.1
22
-21.343428
32
0
13
37.1
23
-21.343428
33
0
39
0
210
0
220
0
230
1
0
MTEXT
5
189
100
AcDbEntity
8
0
62
256
6
ByLayer
370
18
48
1
60
0
100
AcDbMText
10
0.55
20
-14.343428
30
0
210
0
220
0
230
1
1
\A1;73.10
40
3.5
41
0
44
1
50
0
71
5
72
5
7
iso_b_vert
0
POINT
5
18A
100
AcDbEntity
8
Defpoints
62
0
6
ByLayer
370
-1
48
1
60
0
100
AcDbPoint
10
-36
20
-3
30
0
39
0
210
0
220
0
230
1
50
360
0
POINT
5
18B
100
AcDbEntity
8
Defpoints
62
0
6
ByLayer
370
-1
48
1
60
0
100
AcDbPoint
10
37.1
20
-2.35
30
0
39
0
210
0
220
0
230
1
50
360
0
POINT
5
18C
100
AcDbEntity
8
Defpoints
62
0
6
ByLayer
370
-1
48
1
60
0
100
AcDbPoint
10
37.1
20
-21.343428
30
0
39
0
210
0
220
0
230
1
50
360
0
ENDBLK
5
183
100
AcDbEntity
8
0
100
AcDbBlockEnd
0
BLOCK
5
194
100
AcDbEntity
8
0
100
AcDbBlockBegin
2
_U4
70
0
10
0
20
0
30
0
3
_U4
0
MTEXT
5
18E
100
AcDbEntity
8
SK2
62
256
6
ByLayer
370
13
48
1
60
0
100
AcDbMText
10
-4.149865
20
-20.310795
30
0
210
0
220
0
230
1
1
\W0.6713;73,10
40
3.5
41
0
44
1.084337
50
0
71
7
72
5
7
iso_b_vert
0
LINE
5
18F
100
AcDbEntity
8
SK2
62
256
6
ByLayer
370
13
48
1
60
0
100
AcDbLine
10
-36
20
-4.5875
30
0
11
-36
21
-23.343428
31
0
39
0
210
0
220
0
230
1
0
LINE
5
190
100
AcDbEntity
8
SK2
62
256
6
ByLayer
370
13
48
1
60
0
100
AcDbLine
10
37.1
20
-3.9375
30
0
11
37.1
21
-23.343428
31
0
39
0
210
0
220
0
230
1
0
LINE
5
191
100
AcDbEntity
8
SK2
62
256
6
ByLayer
370
13
48
1
60
0
100
AcDbLine
10
-36
20
-21.343428
30
0
11
37.1
21
-21.343428
31
0
39
0
210
0
220
0
230
1
0
SOLID
5
192
100
AcDbEntity
8
SK2
62
256
6
ByLayer
370
18
48
1
60
0
100
AcDbTrace
10
-36
20
-21.343428
30
0
11
-32.500002
21
-20.882645
31
0
12
-32.499998
22
-21.804212
32
0
13
-32.499998
23
-21.804212
33
0
39
0
210
0
220
0
230
1
0
SOLID
5
193
100
AcDbEntity
8
SK2
62
256
6
ByLayer
370
18
48
1
60
0
100
AcDbTrace
10
37.1
20
-21.343428
30
0
11
33.600002
21
-21.804212
31
0
12
33.599998
22
-20.882645
32
0
13
33.599998
23
-20.882645
33
0
39
0
210
0
220
0
230
1
0
ENDBLK
5
195
100
AcDbEntity
8
0
100
AcDbBlockEnd
0
ENDSEC
0
SECTION
2
ENTITIES
0
ARC
5
B8
100
AcDbEntity
8
1
62
256
6
ByLayer
370
18
48
1
60
0
100
AcDbCircle
39
0
10
1.318143
20
3.106917
30
0
40
0.799999999999997
210
0
220
0
230
1
100
AcDbArc
50
214.528993
51
270.068755
0
ARC
5
B9
100
AcDbEntity
8
1
62
256
6
ByLayer
370
18
48
1
60
0
100
AcDbCircle
39
0
10
1.318143
20
-3.106917
30
0
40
0.799999999999997
210
0
220
0
230
1
100
AcDbArc
50
89.931245
51
145.471007
0
ARC
5
BA
100
AcDbEntity
8
1
62
256
6
ByLayer
370
18
48
1
60
0
100
AcDbCircle
39
0
10
0
20
-2.2
30
0
40
0.800000000000003
210
0
220
0
230
1
100
AcDbArc
50
270
51
325.471007
0
ARC
5
BB
100
AcDbEntity
8
1
62
256
6
ByLayer
370
18
48
1
60
0
100
AcDbCircle
39
0
10
0
20
2.2
30
0
40
0.800000000000003
210
0
220
0
230
1
100
AcDbArc
50
34.528993
51
90
0
ELLIPSE
5
BC
100
AcDbEntity
8
1
62
256
6
ByLayer
370
18
48
1
60
0
100
AcDbEllipse
10
38.031452
20
-0.051115
30
0
11
0.0499942235358775
21
-0.14906881371357
31
0
210
0
220
0
230
1
40
0.054101
41
-2.37570418908303
42
-2.08099042519487
0
ELLIPSE
5
BD
100
AcDbEntity
8
1
62
256
6
ByLayer
370
18
48
1
60
0
100
AcDbEllipse
10
28.734894
20
1.049401
30
0
11
9.14397571852614
21
-0.596547346837553
31
0
210
0
220
0
230
1
40
0.058294
41
0.0211187083991388
42
0.289166306413362
0
ELLIPSE
5
BE
100
AcDbEntity
8
1
62
256
6
ByLayer
370
18
48
1
60
0
100
AcDbEllipse
10
37.618896
20
-1.049401
30
0
11
0.292882377336055
21
0.799707144380817
31
0
210
0
220
0
230
1
40
0.073902
41
-1.49110909721275
42
-0.723295055320189
0
ELLIPSE
5
BF
100
AcDbEntity
8
1
62
256
6
ByLayer
370
18
48
1
60
0
100
AcDbEllipse
10
38.000393
20
-0.001026
30
0
11
0.860684243166898
21
-2.35007422469222
31
0
210
0
220
0
230
1
40
0.073902
41
2.86151306157355
42
2.92922699920711
0
ELLIPSE
5
C0
100
AcDbEntity
8
1
62
256
6
ByLayer
370
18
48
1
60
0
100
AcDbEllipse
10
38.000393
20
0.001027
30
0
11
0.860684345813221
21
2.35007452158232
31
0
210
0
220
0
230
1
40
0.073902
41
-2.92922701246906
42
-2.86151307921792
0
ELLIPSE
5
C1
100
AcDbEntity
8
1
62
256
6
ByLayer
370
18
48
1
60
0
100
AcDbEllipse
10
37.618896
20
1.049401
30
0
11
0.292882377399479
21
-0.799707144528905
31
0
210
0
220
0
230
1
40
0.073902
41
0.723295055310341
42
1.49110909707899
0
ELLIPSE
5
C2
100
AcDbEntity
8
1
62
256
6
ByLayer
370
18
48
1
60
0
100
AcDbEllipse
10
38.031452
20
0.051115
30
0
11
0.0499942255685841
21
0.149068819079651
31
0
210
0
220
0
230
1
40
0.054101
41
2.08099044230559
42
2.37570419837668
0
ELLIPSE
5
C3
100
AcDbEntity
8
1
62
256
6
ByLayer
370
18
48
1
60
0
100
AcDbEllipse
10
37.978175
20
-0.017737
30
0
11
0.03408612982067
21
0.0966259033021078
31
0
210
0
220
0
230
1
40
0.0884
41
-2.16048506382412
42
-1.14620188407256
0
ELLIPSE
5
C4
100
AcDbEntity
8
1
62
256
6
ByLayer
370
18
48
1
60
0
100
AcDbEllipse
10
4.25
20
-2.466653
30
0
11
0.25
21
0
31
0
210
0
220
0
230
1
40
1
41
1.58662011048389
42
2.38677933167286
0
ELLIPSE
5
C5
100
AcDbEntity
8
1
62
256
6
ByLayer
370
18
48
1
60
0
100
AcDbEllipse
10
4.25
20
2.466653
30
0
11
0.25
21
0
31
0
210
0
220
0
230
1
40
1
41
-2.35716418536093
42
-1.55081581104257
0
POINT
5
70
100
AcDbEntity
8
80
62
256
6
ByLayer
370
18
48
1
60
0
100
AcDbPoint
10
0
20
0
30
0
39
0
210
0
220
0
230
1
50
360
0
POINT
5
72
100
AcDbEntity
8
81
62
256
6
ByLayer
370
18
48
1
60
0
100
AcDbPoint
10
38
20
0
30
0
39
0
210
0
220
0
230
1
50
360
0
POINT
5
74
100
AcDbEntity
8
1
62
256
6
ByLayer
370
18
48
1
60
1
100
AcDbPoint
10
37.1
20
-2.35
30
0
39
0
210
0
220
0
230
1
50
360
0
POINT
5
76
100
AcDbEntity
8
1
62
256
6
ByLayer
370
18
48
1
60
1
100
AcDbPoint
10
-36
20
-3
30
0
39
0
210
0
220
0
230
1
50
360
0
POINT
5
77
100
AcDbEntity
8
1
62
256
6
ByLayer
370
18
48
1
60
1
100
AcDbPoint
10
10.2169
20
2.35
30
0
39
0
210
0
220
0
230
1
50
360
0
POINT
5
78
100
AcDbEntity
8
1
62
256
6
ByLayer
370
18
48
1
60
1
100
AcDbPoint
10
37.1
20
-2.35
30
0
39
0
210
0
220
0
230
1
50
360
0
POINT
5
79
100
AcDbEntity
8
1
62
256
6
ByLayer
370
18
48
1
60
1
100
AcDbPoint
10
-36
20
-3
30
0
39
0
210
0
220
0
230
1
50
360
0
POINT
5
7A
100
AcDbEntity
8
1
62
256
6
ByLayer
370
18
48
1
60
1
100
AcDbPoint
10
37.1
20
-2.35
30
0
39
0
210
0
220
0
230
1
50
360
0
SPLINE
5
C6
100
AcDbEntity
8
SK1
62
256
6
ByLayer
370
18
48
1
60
0
100
AcDbSpline
70
4
71
3
72
12
73
8
40
0
40
0
40
0
40
0
40
0.25
40
0.25
40
0.5
40
0.5
40
1
40
1
40
1
40
1
41
1
10
-35.65
20
1.25027776701492
30
0
41
1
10
-35.65
20
1.2653643295383
30
0
41
1
10
-35.6543359418175
20
1.27789759132267
30
0
41
1
10
-35.6670061648031
20
1.2967230374199
30
0
41
1
10
-35.6754132169202
20
1.30340857565739
30
0
41
1
10
-35.7033957755317
20
1.31690985403449
30
0
41
1
10
-35.7260247133437
20
1.31776106709802
30
0
41
1
10
-35.7500000000001
20
1.31108560590519
30
0
0
SPLINE
5
C7
100
AcDbEntity
8
SK1
62
256
6
ByLayer
370
18
48
1
60
0
100
AcDbSpline
70
4
71
3
72
8
73
4
40
0
40
0
40
0
40
0
40
1
40
1
40
1
40
1
41
1
10
-35.9999999999999
20
-0.205835929938075
30
0
41
1
10
-35.9170120489731
20
-0.18239172735386
30
0
41
1
10
-35.8336399156527
20
-0.159039606046207
30
0
41
1
10
-35.7499999999999
20
-0.135751667131729
30
0
0
SPLINE
5
C8
100
AcDbEntity
8
SK1
62
256
6
ByLayer
370
18
48
1
60
0
100
AcDbSpline
70
4
71
3
72
8
73
4
40
0
40
0
40
0
40
0
40
1
40
1
40
1
40
1
41
1
10
-35.9999999999999
20
0.205835929938075
30
0
41
1
10
-35.9170120489731
20
0.182391727353888
30
0
41
1
10
-35.8336399156527
20
0.159039606046207
30
0
41
1
10
-35.7499999999999
20
0.135751667131729
30
0
0
SPLINE
5
C9
100
AcDbEntity
8
SK1
62
256
6
ByLayer
370
18
48
1
60
0
100
AcDbSpline
70
4
71
3
72
8
73
4
40
0
40
0
40
0
40
0
40
1
40
1
40
1
40
1
41
1
10
-35.75
20
1.31108560590505
30
0
41
1
10
-35.8336389303381
20
1.28779794133263
30
0
41
1
10
-35.9170109475853
20
1.26444585682637
30
0
41
1
10
-36
20
1.2410013430987
30
0
0
SPLINE
5
CA
100
AcDbEntity
8
SK1
62
256
6
ByLayer
370
18
48
1
60
0
100
AcDbSpline
70
4
71
3
72
12
73
8
40
0
40
0
40
0
40
0
40
0.5
40
0.5
40
0.75
40
0.75
40
1
40
1
40
1
40
1
41
1
10
-35.75
20
0.135751667131814
30
0
41
1
10
-35.7260151107903
20
0.129073532291215
30
0
41
1
10
-35.7033639221374
20
0.114129878916202
30
0
41
1
10
-35.6754777620904
20
0.0812736253736261
30
0
41
1
10
-35.667028628867
20
0.0682469395962642
30
0
41
1
10
-35.6543320679983
20
0.0384479026374152
30
0
41
1
10
-35.65
20
0.0211663311137613
30
0
41
1
10
-35.65
20
0.0036478696169695
30
0
0
SPLINE
5
CB
100
AcDbEntity
8
SK1
62
256
6
ByLayer
370
18
48
1
60
0
100
AcDbSpline
70
4
71
3
72
12
73
8
40
0
40
0
40
0
40
0
40
0.500000000000002
40
0.500000000000002
40
0.750000000000001
40
0.750000000000001
40
1
40
1
40
1
40
1
41
1
10
-35.75
20
-0.135751667131814
30
0
41
1
10
-35.7260151107903
20
-0.129073532291215
30
0
41
1
10
-35.7033639221374
20
-0.114129878916174
30
0
41
1
10
-35.6754777620904
20
-0.0812736253736261
30
0
41
1
10
-35.667028628867
20
-0.0682469395962642
30
0
41
1
10
-35.6543320679983
20
-0.0384479026374152
30
0
41
1
10
-35.65
20
-0.0211663311137613
30
0
41
1
10
-35.65
20
-0.0036478696169695
30
0
0
SPLINE
5
CC
100
AcDbEntity
8
1
62
256
6
ByLayer
370
13
48
1
60
0
100
AcDbSpline
70
4
71
3
72
12
73
8
40
0
40
0
40
0
40
0
40
0.399053733669473
40
0.399053733669473
40
0.798107467338946
40
0.798107467338946
40
1
40
1
40
1
40
1
41
1
10
4.2505259791717
20
2.07548452763871
30
0
41
1
10
4.25053806664641
20
2.11296265932484
30
0
41
1
10
4.2505433900929
20
2.1429099714571
30
0
41
1
10
4.25054505677613
20
2.18811634012681
30
0
41
1
10
4.25054134430974
20
2.20340920905443
30
0
41
1
10
4.25053228540912
20
2.21483297485676
30
0
41
1
10
4.25052869682685
20
2.2167416591395
30
0
41
1
10
4.25052481901179
20
2.21672010034672
30
0
0
SPLINE
5
CD
100
AcDbEntity
8
1
62
256
6
ByLayer
370
18
48
1
60
0
100
AcDbSpline
70
4
71
3
72
74
73
70
40
0
40
0
40
0
40
0
40
0.0076422669328995
40
0.0076422669328995
40
0.0370334348452904
40
0.0370334348452904
40
0.0664246027576813
40
0.0664246027576813
40
0.0958157706700722
40
0.0958157706700722
40
0.125206938582463
40
0.125206938582463
40
0.154598106494854
40
0.154598106494854
40
0.183989274407245
40
0.183989274407245
40
0.213380442319636
40
0.213380442319636
40
0.242771610232027
40
0.242771610232027
40
0.272162778144418
40
0.272162778144418
40
0.301553946056809
40
0.301553946056809
40
0.330945113969199
40
0.330945113969199
40
0.36033628188159
40
0.36033628188159
40
0.389727449793981
40
0.389727449793981
40
0.419118617706372
40
0.419118617706372
40
0.477900953531154
40
0.477900953531154
40
0.507292121443545
40
0.507292121443545
40
0.536683289355936
40
0.536683289355936
40
0.566074457268327
40
0.566074457268327
40
0.595465625180718
40
0.595465625180718
40
0.624856793093108
40
0.624856793093108
40
0.654247961005499
40
0.654247961005499
40
0.68363912891789
40
0.68363912891789
40
0.713030296830281
40
0.713030296830281
40
0.742421464742672
40
0.742421464742672
40
0.771812632655063
40
0.771812632655063
40
0.801203800567454
40
0.801203800567454
40
0.830594968479845
40
0.830594968479845
40
0.859986136392236
40
0.859986136392236
40
0.889377304304627
40
0.889377304304627
40
0.918768472217017
40
0.918768472217017
40
0.948159640129408
40
0.948159640129408
40
0.977550808041799
40
0.977550808041799
40
1
40
1
40
1
40
1
41
1
10
10.3632789204623
20
1.33431157663532
30
0
41
1
10
10.4005036492437
20
1.35399984554144
30
0
41
1
10
10.4376827865636
20
1.37350348506109
30
0
41
1
10
10.617594449381
20
1.46717552587467
30
0
41
1
10
10.7600204638907
20
1.53827960842486
30
0
41
1
10
11.0463065613343
20
1.67159763860698
30
0
41
1
10
11.1897832378333
20
1.73430154717616
30
0
41
1
10
11.4768724271075
20
1.85223100325609
30
0
41
1
10
11.6201035754835
20
1.9077560333109
30
0
41
1
10
11.9094482266219
20
2.00840975235522
30
0
41
1
10
12.0547327187326
20
2.05372123868494
30
0
41
1
10
12.3440384208098
20
2.13428863462252
30
0
41
1
10
12.4879882246574
20
2.16981359810387
30
0
41
1
10
12.7764231158324
20
2.22995747183853
30
0
41
1
10
12.9217000923178
20
2.25442178685378
30
0
41
1
10
13.2115426080842
20
2.29236408734138
30
0
41
1
10
13.3560438584238
20
2.3058558162374
30
0
41
1
10
13.6439922979133
20
2.32161907924757
30
0
41
1
10
13.7883661565779
20
2.32375610243315
30
0
41
1
10
14.0782714002883
20
2.31680800226908
30
0
41
1
10
14.223335439106
20
2.30772524032776
30
0
41
1
10
14.5106139344368
20
2.27834160007123
30
0
41
1
10
14.6533552208144
20
2.25798212557598
30
0
41
1
10
14.9397040523875
20
2.20719616799815
30
0
41
1
10
15.0828793207801
20
2.17667375316026
30
0
41
1
10
15.3687026044779
20
2.1050848064709
30
0
41
1
10
15.5109200878017
20
2.06364199962007
30
0
41
1
10
15.7973311622981
20
1.97164948153346
30
0
41
1
10
15.941324033652
20
1.9210592117436
30
0
41
1
10
16.2302926510405
20
1.81007979127577
30
0
41
1
10
16.3750882040967
20
1.7492979143251
30
0
41
1
10
16.807396027731
20
1.55481974658918
30
0
41
1
10
17.0974049100436
20
1.41177146235546
30
0
41
1
10
17.5305059328725
20
1.17310541442987
30
0
41
1
10
17.6747169549751
20
1.0909301713975
30
0
41
1
10
17.9637809136496
20
0.922813334530474
30
0
41
1
10
18.1084040471577
20
0.836571908919865
30
0
41
1
10
18.3971721803169
20
0.658678324627374
30
0
41
1
10
18.5415015525133
20
0.566787672050623
30
0
41
1
10
18.8296835987716
20
0.384166260251618
30
0
41
1
10
18.9734327687362
20
0.292510069506221
30
0
41
1
10
19.2597426427767
20
0.107706453521587
30
0
41
1
10
19.4018544409513
20
0.013858651808448
30
0
41
1
10
19.6870943344949
20
-0.171869757701359
30
0
41
1
10
19.8301905048492
20
-0.263804195928032
30
0
41
1
10
20.1166706119389
20
-0.446853937270532
30
0
41
1
10
20.2598628985857
20
-0.538266024736572
30
0
41
1
10
20.5469373428002
20
-0.719625937307029
30
0
41
1
10
20.6920011763673
20
-0.808533434257129
30
0
41
1
10
20.9813727113618
20
-0.981341560858709
30
0
41
1
10
21.1258324091092
20
-1.06539940511126
30
0
41
1
10
21.4135965143797
20
-1.22966859359775
30
0
41
1
10
21.557524281017
20
-1.30900716689166
30
0
41
1
10
21.8471195142044
20
-1.46004245592726
30
0
41
1
10
21.9920222042136
20
-1.53195919042125
30
0
41
1
10
22.2803996617539
20
-1.66876826007893
30
0
41
1
10
22.4237959992852
20
-1.73391944783757
30
0
41
1
10
22.7125135894951
20
-1.85403859686022
30
0
41
1
10
22.8577718583028
20
-1.90967939592332
30
0
41
1
10
23.1463755337916
20
-2.01143985748453
30
0
41
1
10
23.2893157473981
20
-2.05787805212302
30
0
41
1
10
23.5751192710936
20
-2.13985877922332
30
0
41
1
10
23.7181909590018
20
-2.17536166882283
30
0
41
1
10
24.0039379767195
20
-2.236157817379
30
0
41
1
10
24.146505666823
20
-2.26147641870566
30
0
41
1
10
24.4312814802515
20
-2.30147416631243
30
0
41
1
10
24.5743567974992
20
-2.31587300480936
30
0
41
1
10
24.8279256397928
20
-2.33154053365533
30
0
41
1
10
24.9382614431936
20
-2.33512344577386
30
0
41
1
10
25.0485458236937
20
-2.33539045824554
30
0
0
SPLINE
5
CE
100
AcDbEntity
8
1
62
256
6
ByLayer
370
18
48
1
60
0
100
AcDbSpline
70
4
71
3
72
28
73
24
40
0
40
0
40
0
40
0
40
0.0105868311315122
40
0.0105868311315122
40
0.109528148018361
40
0.109528148018361
40
0.20846946490521
40
0.20846946490521
40
0.307410781792059
40
0.307410781792059
40
0.406352098678908
40
0.406352098678908
40
0.505293415565756
40
0.505293415565756
40
0.604234732452605
40
0.604234732452605
40
0.703176049339454
40
0.703176049339454
40
0.802117366226303
40
0.802117366226303
40
0.901058683113152
40
0.901058683113152
40
1
40
1
40
1
40
1
41
1
10
32.8664034871815
20
1.34019559861071
30
0
41
1
10
32.8816460784989
20
1.34838265925595
30
0
41
1
10
32.8968852009047
20
1.3565393760851
30
0
41
1
10
33.0545050851495
20
1.44061660982334
30
0
41
1
10
33.1963547383215
20
1.51414031475829
30
0
41
1
10
33.4823791746407
20
1.65219225312504
30
0
41
1
10
33.6260981754037
20
1.71731780932319
30
0
41
1
10
33.9144395615184
20
1.84020375199154
30
0
41
1
10
34.0584400944334
20
1.89821298192777
30
0
41
1
10
34.3460707916342
20
2.00355500076876
30
0
41
1
10
34.4902815173762
20
2.05098159664098
30
0
41
1
10
34.7786964726228
20
2.13616111279021
30
0
41
1
10
34.9230121902513
20
2.17401151922942
30
0
41
1
10
35.2106957241852
20
2.23921985451949
30
0
41
1
10
35.3547471564008
20
2.26606115438264
30
0
41
1
10
35.6430474960746
20
2.30875081662339
30
0
41
1
10
35.7872514180627
20
2.324629772729
30
0
41
1
10
36.0750277540548
20
2.34528661063192
30
0
41
1
10
36.2190382684031
20
2.34985781221556
30
0
41
1
10
36.5065818612399
20
2.34764626287756
30
0
41
1
10
36.6501019231761
20
2.34096592054556
30
0
41
1
10
36.9360996375684
20
2.31642645454366
30
0
41
1
10
37.0782243853965
20
2.29837014479409
30
0
41
1
10
37.2212561672023
20
2.27505621945292
30
0
0
SPLINE
5
CF
100
AcDbEntity
8
1
62
256
6
ByLayer
370
18
48
1
60
0
100
AcDbSpline
70
4
71
3
72
70
73
66
40
0
40
0
40
0
40
0
40
0.0355863114361802
40
0.0355863114361802
40
0.0676404428699672
40
0.0676404428699672
40
0.0996945743037541
40
0.0996945743037541
40
0.131748705737541
40
0.131748705737541
40
0.163802837171328
40
0.163802837171328
40
0.195856968605115
40
0.195856968605115
40
0.227911100038902
40
0.227911100038902
40
0.243938165755794
40
0.243938165755794
40
0.259965231472687
40
0.259965231472687
40
0.292019362906469
40
0.292019362906469
40
0.324073494340252
40
0.324073494340252
40
0.356127625774035
40
0.356127625774035
40
0.388181757207818
40
0.388181757207818
40
0.420235888641601
40
0.420235888641601
40
0.452290020075384
40
0.452290020075384
40
0.484344151509166
40
0.484344151509166
40
0.516398282942949
40
0.516398282942949
40
0.548452414376732
40
0.548452414376732
40
0.580506545810515
40
0.580506545810515
40
0.612560677244298
40
0.612560677244298
40
0.644614808678081
40
0.644614808678081
40
0.676668940111863
40
0.676668940111863
40
0.708723071545646
40
0.708723071545646
40
0.740777202979429
40
0.740777202979429
40
0.804885465846995
40
0.804885465846995
40
0.836939597280778
40
0.836939597280778
40
0.868993728714561
40
0.868993728714561
40
0.901047860148345
40
0.901047860148345
40
0.933101991582128
40
0.933101991582128
40
0.965156123015911
40
0.965156123015911
40
0.997210254449695
40
0.997210254449695
40
1
40
1
40
1
40
1
41
1
10
32.8749619872814
20
-1.33930230554259
30
0
41
1
10
32.7012843498115
20
-1.42696859003485
30
0
41
1
10
32.5277926556681
20
-1.50973010832965
30
0
41
1
10
32.200691155164
20
-1.65548986112785
30
0
41
1
10
32.0460211355837
20
-1.71916538488043
30
0
41
1
10
31.7366748278526
20
-1.83695926035043
30
0
41
1
10
31.5820978566864
20
-1.8911760923863
30
0
41
1
10
31.2729756719328
20
-1.98969022893678
30
0
41
1
10
31.1180786158869
20
-2.0336751622165
30
0
41
1
10
30.8069537102103
20
-2.11029370029289
30
0
41
1
10
30.6503752700913
20
-2.14319816923108
30
0
41
1
10
30.3376996652141
20
-2.19514037643396
30
0
41
1
10
30.1817884344415
20
-2.21346412152067
30
0
41
1
10
29.869379323511
20
-2.23947313492403
30
0
41
1
10
29.7130583391912
20
-2.24713744664607
30
0
41
1
10
29.4784893622227
20
-2.24864766265674
30
0
41
1
10
29.4001989404684
20
-2.24748674234931
30
0
41
1
10
29.2441896626038
20
-2.24141699334237
30
0
41
1
10
29.1663775489166
20
-2.23644773863577
30
0
41
1
10
28.9332321598241
20
-2.2172142714617
30
0
41
1
10
28.7781293931361
20
-2.19931721110382
30
0
41
1
10
28.468915966946
20
-2.15103871083508
30
0
41
1
10
28.3147424518875
20
-2.12042103274513
30
0
41
1
10
28.0055312202703
20
-2.04670415366377
30
0
41
1
10
27.8506227693291
20
-2.00440201775029
30
0
41
1
10
27.540238977388
20
-1.90917898527988
30
0
41
1
10
27.3848270807268
20
-1.85585792829525
30
0
41
1
10
27.0714416292958
20
-1.73696484189335
30
0
41
1
10
26.914914334938
20
-1.67271869966976
30
0
41
1
10
26.6023403400508
20
-1.53612685362094
30
0
41
1
10
26.4464502103045
20
-1.46308318337049
30
0
41
1
10
26.1334882148805
20
-1.30839157088184
30
0
41
1
10
25.9764142090358
20
-1.22662939610788
30
0
41
1
10
25.6634013715753
20
-1.05804079597647
30
0
41
1
10
25.5074204847836
20
-0.97034154786499
30
0
41
1
10
25.1946540058739
20
-0.789924840014294
30
0
41
1
10
25.0375666498832
20
-0.696721977868407
30
0
41
1
10
24.7242910678627
20
-0.508179351712556
30
0
41
1
10
24.5687080372922
20
-0.412270383975908
30
0
41
1
10
24.2581873507484
20
-0.219595152965098
30
0
41
1
10
24.1032492899951
20
-0.122832642082415
30
0
41
1
10
23.7934910800874
20
0.0707316384698515
30
0
41
1
10
23.6389094987596
20
0.167926462433655
30
0
41
1
10
23.3289252097771
20
0.360800372064688
30
0
41
1
10
23.1734312780421
20
0.456330556236679
30
0
41
1
10
22.8611235948157
20
0.645076699263342
30
0
41
1
10
22.7041610114177
20
0.739076830170774
30
0
41
1
10
22.3911542589087
20
0.921385791082173
30
0
41
1
10
22.2347966977791
20
1.00948875810795
30
0
41
1
10
21.7655121161005
20
1.26396826539641
30
0
41
1
10
21.4519366790265
20
1.42399278834932
30
0
41
1
10
20.9826526613359
20
1.63211000138432
30
0
41
1
10
20.8263780609569
20
1.69725632562779
30
0
41
1
10
20.5135207450842
20
1.8189705569549
30
0
41
1
10
20.3564635868696
20
1.87457460607678
30
0
41
1
10
20.0433880886991
20
1.97322955983611
30
0
41
1
10
19.8871268549462
20
2.01665499788683
30
0
41
1
10
19.5745938349674
20
2.09410257983581
30
0
41
1
10
19.4177731284133
20
2.1270214366956
30
0
41
1
10
19.1041917843896
20
2.17893797614599
30
0
41
1
10
18.9477939054382
20
2.19798460594174
30
0
41
1
10
18.6353228038718
20
2.22576299918947
30
0
41
1
10
18.4789512924911
20
2.23387021525531
30
0
41
1
10
18.3084657653991
20
2.23504479849686
30
0
41
1
10
18.2948173079839
20
2.23507956406368
30
0
41
1
10
18.2811707390048
20
2.23505683483296
30
0
0
SPLINE
5
D0
100
AcDbEntity
8
1
62
256
6
ByLayer
370
18
48
1
60
0
100
AcDbSpline
70
4
71
3
72
30
73
26
40
0
40
0
40
0
40
0
40
0.0022675880572978
40
0.0022675880572978
40
0.0476190613274192
40
0.0476190613274192
40
0.0929705345975406
40
0.0929705345975406
40
0.183673481137787
40
0.183673481137787
40
0.274376427678033
40
0.274376427678033
40
0.365079374218279
40
0.365079374218279
40
0.455782320758524
40
0.455782320758524
40
0.54648526729877
40
0.54648526729877
40
0.637188213839016
40
0.637188213839016
40
0.727891160379262
40
0.727891160379262
40
0.818594106919508
40
0.818594106919508
40
1
40
1
40
1
40
1
41
1
10
10.3751802909484
20
-1.32440230686558
30
0
41
1
10
10.3713029693245
20
-1.32634011838221
30
0
41
1
10
10.3674257427763
20
-1.3282756912802
30
0
41
1
10
10.2860064802638
20
-1.36887531025496
30
0
41
1
10
10.2085035301569
20
-1.40661295776064
30
0
41
1
10
10.0535784436471
20
-1.47971513773115
30
0
41
1
10
9.97611561327994
20
-1.51507040789971
30
0
41
1
10
9.74325752325211
20
-1.61812860145014
30
0
41
1
10
9.58750064957241
20
-1.68299853428468
30
0
41
1
10
9.27479793565988
20
-1.80370299448762
30
0
41
1
10
9.11754783438474
20
-1.8595306283886
30
0
41
1
10
8.80403968761271
20
-1.95794072179754
30
0
41
1
10
8.64725416846608
20
-2.00201323643469
30
0
41
1
10
8.33360482594739
20
-2.07924310269078
30
0
41
1
10
8.17682529379354
20
-2.1123934108972
30
0
41
1
10
7.86262989335148
20
-2.16428776851544
30
0
41
1
10
7.70571975805424
20
-2.18377292747633
30
0
41
1
10
7.39195573824907
20
-2.21124973767345
30
0
41
1
10
7.23525125333757
20
-2.21871474871227
30
0
41
1
10
6.92142865027756
20
-2.22052833157014
30
0
41
1
10
6.76393125313484
20
-2.21510937106518
30
0
41
1
10
6.4504741800169
20
-2.19215529258699
30
0
41
1
10
6.29426684478659
20
-2.17434157499517
30
0
41
1
10
5.82635693390728
20
-2.10096765021325
30
0
41
1
10
5.51377358989583
20
-2.02896745904829
30
0
41
1
10
5.19931607119634
20
-1.93306285060049
30
0
0
SPLINE
5
D1
100
AcDbEntity
8
1
62
256
6
ByLayer
370
18
48
1
60
0
100
AcDbSpline
70
4
71
3
72
12
73
8
40
0
40
0
40
0
40
0
40
0.445469587845245
40
0.445469587845245
40
0.890939175690489
40
0.890939175690489
40
1
40
1
40
1
40
1
41
1
10
4.05505271247702
20
2.19044651927879
30
0
41
1
10
4.05505724120661
20
2.2260413067107
30
0
41
1
10
4.0550551860112
20
2.2537959330584
30
0
41
1
10
4.05504168699193
20
2.29354434006595
30
0
41
1
10
4.05503027365882
20
2.30528205559173
30
0
41
1
10
4.05501316257644
20
2.30984001272938
30
0
41
1
10
4.05500965481008
20
2.3102589060579
30
0
41
1
10
4.05500603308678
20
2.3101990578015
30
0
0
SPLINE
5
D2
100
AcDbEntity
8
1
62
256
6
ByLayer
370
18
48
1
60
0
100
AcDbSpline
70
4
71
3
72
18
73
14
40
0
40
0
40
0
40
0
40
0.249999999999994
40
0.249999999999994
40
0.499999999999989
40
0.499999999999989
40
0.624999999999991
40
0.624999999999991
40
0.749999999999994
40
0.749999999999994
40
0.874999999999997
40
0.874999999999997
40
1
40
1
40
1
40
1
41
1
10
36.8034392055157
20
-1.64929580506939
30
0
41
1
10
36.6419051197752
20
-1.55976983737133
30
0
41
1
10
36.4841095372956
20
-1.46052970096031
30
0
41
1
10
36.1769274194246
20
-1.24019926607275
30
0
41
1
10
36.0275061494517
20
-1.11919922232158
30
0
41
1
10
35.8116284586486
20
-0.91625131425306
30
0
41
1
10
35.7406957131369
20
-0.844547074614042
30
0
41
1
10
35.6046392675077
20
-0.694797662404454
30
0
41
1
10
35.5394514791818
20
-0.616769425472881
30
0
41
1
10
35.4158053735604
20
-0.453241702256634
30
0
41
1
10
35.3570009180343
20
-0.367190668466833
30
0
41
1
10
35.2493561149667
20
-0.188471788332919
30
0
41
1
10
35.2009436572215
20
-0.0966435663126788
30
0
41
1
10
35.1588085550519
20
-0.0019507263287153
30
0
0
SPLINE
5
D3
100
AcDbEntity
8
1
62
256
6
ByLayer
370
13
48
1
60
0
100
AcDbSpline
70
4
71
3
72
16
73
12
40
0
40
0
40
0
40
0
40
0.272806792422871
40
0.272806792422871
40
0.454605094317154
40
0.454605094317154
40
0.636403396211436
40
0.636403396211436
40
0.818201698105718
40
0.818201698105718
40
1
40
1
40
1
40
1
41
1
10
4.25052496901051
20
-2.21671997051146
30
0
41
1
10
4.25051348954014
20
-2.21680380652023
30
0
41
1
10
4.25049943652147
20
-2.19990669245516
30
0
41
1
10
4.25048285886334
20
-2.1434077294154
30
0
41
1
10
4.25047807791285
20
-2.11325321115174
30
0
41
1
10
4.25047522199361
20
-2.03865996455684
30
0
41
1
10
4.25047717679468
20
-1.99405043112935
30
0
41
1
10
4.25048929839312
20
-1.89263870501301
30
0
41
1
10
4.25049943880686
20
-1.83562844483052
30
0
41
1
10
4.25052839320875
20
-1.70899457911011
30
0
41
1
10
4.25054739403959
20
-1.63879590922753
30
0
41
1
10
4.25057009080106
20
-1.56357567722205
30
0
0
SPLINE
5
D4
100
AcDbEntity
8
1
62
256
6
ByLayer
370
18
48
1
60
0
100
AcDbSpline
70
4
71
3
72
10
73
6
40
0
40
0
40
0
40
0
40
0.775193652505252
40
0.775193652505252
40
1
40
1
40
1
40
1
41
1
10
37.1956502068586
20
2.3096598821356
30
0
41
1
10
37.0231213842557
20
2.33044501569026
30
0
41
1
10
36.8499753618341
20
2.34306112620826
30
0
41
1
10
36.6276160699827
20
2.34869349403175
30
0
41
1
10
36.577701201895
20
2.34927160893909
30
0
41
1
10
36.5278492412658
20
2.34916763935206
30
0
0
SPLINE
5
D5
100
AcDbEntity
8
1
62
256
6
ByLayer
370
18
48
1
60
0
100
AcDbSpline
70
4
71
3
72
48
73
44
40
0
40
0
40
0
40
0
40
0.0227355748940612
40
0.0227355748940612
40
0.0440193612763347
40
0.0440193612763347
40
0.0653031476586082
40
0.0653031476586082
40
0.107870720423154
40
0.107870720423154
40
0.193005865952247
40
0.193005865952247
40
0.235573438716793
40
0.235573438716793
40
0.278141011481339
40
0.278141011481339
40
0.363276157010432
40
0.363276157010432
40
0.405843729774978
40
0.405843729774978
40
0.448411302539524
40
0.448411302539524
40
0.533546448068616
40
0.533546448068616
40
0.576114020833162
40
0.576114020833162
40
0.597397807215435
40
0.597397807215435
40
0.618681593597708
40
0.618681593597708
40
0.7038167391268
40
0.7038167391268
40
0.746384311891346
40
0.746384311891346
40
0.788951884655892
40
0.788951884655892
40
0.874087030184983
40
0.874087030184983
40
0.91665460294953
40
0.91665460294953
40
0.959222175714076
40
0.959222175714076
40
1
40
1
40
1
40
1
41
1
10
26.1481917313398
20
-2.2685987345605
30
0
41
1
10
26.0563954438225
20
-2.28283773653101
30
0
41
1
10
25.9644052645097
20
-2.29487555224594
30
0
41
1
10
25.7858019276031
20
-2.31382781652349
30
0
41
1
10
25.6990639848815
20
-2.32100418814687
30
0
41
1
10
25.5263237507292
20
-2.33120308408996
30
0
41
1
10
25.4401846785823
20
-2.33425206046877
30
0
41
1
10
25.1822803024429
20
-2.33734251651447
30
0
41
1
10
25.0110198518406
20
-2.33133795566937
30
0
41
1
10
24.4980902434613
20
-2.2895999807146
30
0
41
1
10
24.1568454773499
20
-2.23026421735824
30
0
41
1
10
23.6403016034199
20
-2.09526382672766
30
0
41
1
10
23.4665492044335
20
-2.04235416441017
30
0
41
1
10
23.1215090059907
20
-1.92357921258585
30
0
41
1
10
22.9498430923935
20
-1.85767299667154
30
0
41
1
10
22.4361909872821
20
-1.64189685014145
30
0
41
1
10
22.0951459464022
20
-1.47439551028904
30
0
41
1
10
21.5797989565811
20
-1.19417516546906
30
0
41
1
10
21.4069319733576
20
-1.09572991203501
30
0
41
1
10
21.0604775720104
20
-0.891692100726516
30
0
41
1
10
20.8883290347227
20
-0.786864063207815
30
0
41
1
10
20.3737010116994
20
-0.466166797792482
30
0
41
1
10
20.0325661626924
20
-0.244810024584211
30
0
41
1
10
19.5182236237803
20
0.089947654487645
30
0
41
1
10
19.3462673920467
20
0.201882924557566
30
0
41
1
10
19.0866941172613
20
0.36895459863635
30
0
41
1
10
18.9998008694443
20
0.424587554172433
30
0
41
1
10
18.8268837050727
20
0.534515970167035
30
0
41
1
10
18.7406948822251
20
0.588931896360663
30
0
41
1
10
18.3106475022767
20
0.857627818194089
30
0
41
1
10
17.969223271568
20
1.06142601810663
30
0
41
1
10
17.4555638395883
20
1.34292193090542
30
0
41
1
10
17.2839569948945
20
1.43253237954897
30
0
41
1
10
16.9389648494172
20
1.60191783795435
30
0
41
1
10
16.7649773093331
20
1.68204946470124
30
0
41
1
10
16.2472396853883
20
1.90232410528736
30
0
41
1
10
15.9053050619346
20
2.02277563446566
30
0
41
1
10
15.3919255291719
20
2.16054348367319
30
0
41
1
10
15.2206747099039
20
2.19925044171654
30
0
41
1
10
14.8766643838338
20
2.26137957223489
30
0
41
1
10
14.7035810682048
20
2.28488926109966
30
0
41
1
10
14.3641161723458
20
2.31503982768021
30
0
41
1
10
14.1990213411977
20
2.32231080105319
30
0
41
1
10
14.0344528401877
20
2.32222087093282
30
0
0
SPLINE
5
D6
100
AcDbEntity
8
1
62
256
6
ByLayer
370
18
48
1
60
0
100
AcDbSpline
70
4
71
3
72
20
73
16
40
0
40
0
40
0
40
0
40
0.125000000000001
40
0.125000000000001
40
0.250000000000002
40
0.250000000000002
40
0.499999999999994
40
0.499999999999994
40
0.624999999999996
40
0.624999999999996
40
0.749999999999997
40
0.749999999999997
40
0.874999999999999
40
0.874999999999999
40
1
40
1
40
1
40
1
41
1
10
37.2212561672127
20
2.27505621945122
30
0
41
1
10
37.2411706420992
20
2.22562016253099
30
0
41
1
10
37.2612360972365
20
2.17517977460875
30
0
41
1
10
37.3015437982361
20
2.07312297471776
30
0
41
1
10
37.3217799730272
20
2.02165790982309
30
0
41
1
10
37.3826180917018
20
1.86566452434153
30
0
41
1
10
37.4231354766284
20
1.75925886566435
30
0
41
1
10
37.4838937469648
20
1.59861277301434
30
0
41
1
10
37.5041814385968
20
1.54475954816152
30
0
41
1
10
37.5442830138174
20
1.43718376012015
30
0
41
1
10
37.5641573267919
20
1.38341644193588
30
0
41
1
10
37.6036482757236
20
1.27591184909235
30
0
41
1
10
37.6232869465404
20
1.22217200530665
30
0
41
1
10
37.6624499057143
20
1.11470565401299
30
0
41
1
10
37.6818941251003
20
1.06098848204528
30
0
41
1
10
37.7011770934645
20
1.00729011093594
30
0
0
SPLINE
5
D7
100
AcDbEntity
8
1
62
256
6
ByLayer
370
18
48
1
60
0
100
AcDbSpline
70
4
71
3
72
10
73
6
40
0
40
0
40
0
40
0
40
0.5
40
0.5
40
1
40
1
40
1
40
1
41
1
10
4.05489528555117
20
-1.55124466839939
30
0
41
1
10
4.08031441604197
20
-1.53602971793714
30
0
41
1
10
4.11261870816128
20
-1.53050874748138
30
0
41
1
10
4.18085946322989
20
-1.53628022767805
30
0
41
1
10
4.21587549886675
20
-1.54700042332331
30
0
41
1
10
4.25057009079879
20
-1.56357567711439
30
0
0
SPLINE
5
D8
100
AcDbEntity
8
1
62
256
6
ByLayer
370
18
48
1
60
0
100
AcDbSpline
70
4
71
3
72
16
73
12
40
0
40
0
40
0
40
0
40
0.0346986728653294
40
0.0346986728653294
40
0.265899549252069
40
0.265899549252069
40
0.728301302025542
40
0.728301302025542
40
0.959502178412279
40
0.959502178412279
40
1
40
1
40
1
40
1
41
1
10
25.4677560875933
20
-2.24240510203205
30
0
41
1
10
25.4418514431497
20
-2.24239659133724
30
0
41
1
10
25.4159500845441
20
-2.24221019795795
30
0
41
1
10
25.2175358578996
20
-2.23940860214631
30
0
41
1
10
25.0459009837482
20
-2.22910152252638
30
0
41
1
10
24.5325873872139
20
-2.17571772714061
30
0
41
1
10
24.1920089851274
20
-2.11022404667673
30
0
41
1
10
23.6782735114541
20
-1.96948094136093
30
0
41
1
10
23.5064914107201
20
-1.91555333221717
30
0
41
1
10
23.3033163134788
20
-1.84415618151959
30
0
41
1
10
23.2730447920963
20
-1.83331980315617
30
0
41
1
10
23.2427889623799
20
-1.82229430741151
30
0
0
SPLINE
5
D9
100
AcDbEntity
8
1
62
256
6
ByLayer
370
13
48
1
60
0
100
AcDbSpline
70
4
71
3
72
28
73
24
40
0
40
0
40
0
40
0
40
0.0602871210802836
40
0.0602871210802836
40
0.206466585696865
40
0.206466585696865
40
0.279556318005156
40
0.279556318005156
40
0.352646050313447
40
0.352646050313447
40
0.498825514930029
40
0.498825514930029
40
0.571915247238319
40
0.571915247238319
40
0.64500497954661
40
0.64500497954661
40
0.79118444416319
40
0.79118444416319
40
0.864274176471478
40
0.864274176471478
40
0.937363908779767
40
0.937363908779767
40
1
40
1
40
1
40
1
41
1
10
23.2427889624707
20
-1.82229430744459
30
0
41
1
10
23.1003151471537
20
-1.77037557114909
30
0
41
1
10
22.9581892851955
20
-1.71426326945817
30
0
41
1
10
22.4737549449167
20
-1.5095986641708
30
0
41
1
10
22.1330356240175
20
-1.34326263035322
30
0
41
1
10
21.6199492517856
20
-1.06854656983401
30
0
41
1
10
21.4485559889307
20
-0.972838810906438
30
0
41
1
10
21.1038819903433
20
-0.774544216467405
30
0
41
1
10
20.9304849012956
20
-0.671776350134991
30
0
41
1
10
20.4113666456762
20
-0.357724209247721
30
0
41
1
10
20.0679984052481
20
-0.14272055664091
30
0
41
1
10
19.5538030608323
20
0.178365395174296
30
0
41
1
10
19.3823679600592
20
0.285119534492253
30
0
41
1
10
19.0383152110771
20
0.496276300729221
30
0
41
1
10
18.8652648496199
20
0.601094981512261
30
0
41
1
10
18.3468900195237
20
0.908092156136092
30
0
41
1
10
18.0043192092538
20
1.10039071881269
30
0
41
1
10
17.4898096711127
20
1.36360202330491
30
0
41
1
10
17.3180834201513
20
1.44692997953282
30
0
41
1
10
16.9731345306473
20
1.60331871639073
30
0
41
1
10
16.7995287520194
20
1.67670892786865
30
0
41
1
10
16.4797183974406
20
1.8009656352705
30
0
41
1
10
16.3326500517013
20
1.85351558034211
30
0
41
1
10
16.1858524592742
20
1.90114721785389
30
0
0
SPLINE
5
DA
100
AcDbEntity
8
1
62
256
6
ByLayer
370
18
48
1
60
0
100
AcDbSpline
70
4
71
3
72
16
73
12
40
0
40
0
40
0
40
0
40
0.124999999999996
40
0.124999999999996
40
0.249999999999992
40
0.249999999999992
40
0.499999999999995
40
0.499999999999995
40
0.749999999999997
40
0.749999999999997
40
1
40
1
40
1
40
1
41
1
10
37.7762376674322
20
-0.591771116390674
30
0
41
1
10
37.7764818673938
20
-0.599814247349286
30
0
41
1
10
37.7743414800721
20
-0.613940014850243
30
0
41
1
10
37.7651475441771
20
-0.654177914614138
30
0
41
1
10
37.7581809155614
20
-0.67983344679007
30
0
41
1
10
37.7314336884883
20
-0.768954362935432
30
0
41
1
10
37.7060383942554
20
-0.843486183860733
30
0
41
1
10
37.6531838899734
20
-0.986882172324869
30
0
41
1
10
37.6254367178932
20
-1.05674847471351
30
0
41
1
10
37.5762283616497
20
-1.17155017305814
30
0
41
1
10
37.554576378082
20
-1.21707780857278
30
0
41
1
10
37.5389144235029
20
-1.24381137017431
30
0
0
SPLINE
5
DB
100
AcDbEntity
8
1
62
256
6
ByLayer
370
18
48
1
60
0
100
AcDbSpline
70
4
71
3
72
8
73
4
40
0
40
0
40
0
40
0
40
1
40
1
40
1
40
1
41
1
10
4.25057009102485
20
-1.56357567722239
30
0
41
1
10
4.56281236907762
20
-1.71274863803436
30
0
41
1
10
4.87828579610118
20
-1.8356777044836
30
0
41
1
10
5.19909826693223
20
-1.93299641988861
30
0
0
SPLINE
5
DC
100
AcDbEntity
8
1
62
256
6
ByLayer
370
18
48
1
60
0
100
AcDbSpline
70
4
71
3
72
8
73
4
40
0
40
0
40
0
40
0
40
1
40
1
40
1
40
1
41
1
10
4.19620108219419
20
2.1323505370782
30
0
41
1
10
4.16415260675828
20
2.14026742514881
30
0
41
1
10
4.13162061613363
20
2.14772772534874
30
0
41
1
10
4.10337637094239
20
2.15699474670063
30
0
0
SPLINE
5
DD
100
AcDbEntity
8
1
62
256
6
ByLayer
370
18
48
1
60
0
100
AcDbSpline
70
4
71
3
72
18
73
14
40
0
40
0
40
0
40
0
40
0.249999999999993
40
0.249999999999993
40
0.374999999999993
40
0.374999999999993
40
0.499999999999993
40
0.499999999999993
40
0.749999999999998
40
0.749999999999998
40
0.874999999999999
40
0.874999999999999
40
1
40
1
40
1
40
1
41
1
10
37.1713097908898
20
-2.25379679758203
30
0
41
1
10
37.1215285553022
20
-2.24818999635605
30
0
41
1
10
37.0754253190844
20
-2.23193471949887
30
0
41
1
10
37.0123309096811
20
-2.19000571635317
30
0
41
1
10
36.9922920691262
20
-2.17301367684976
30
0
41
1
10
36.9551873103709
20
-2.13365427643709
30
0
41
1
10
36.9380045656933
20
-2.11122831752167
30
0
41
1
10
36.8905947879881
20
-2.03565240938715
30
0
41
1
10
36.8644676618271
20
-1.97428172442116
30
0
41
1
10
36.8342315576251
20
-1.86427083123308
30
0
41
1
10
36.8256804201918
20
-1.82455935351521
30
0
41
1
10
36.812041823336
20
-1.74061338885988
30
0
41
1
10
36.8068951512038
20
-1.69619203176322
30
0
41
1
10
36.8034392055157
20
-1.64929580506939
30
0
0
SPLINE
5
DE
100
AcDbEntity
8
1
62
256
6
ByLayer
370
18
48
1
60
0
100
AcDbSpline
70
4
71
3
72
32
73
28
40
0
40
0
40
0
40
0
40
0.0625000000000001
40
0.0625000000000001
40
0.125
40
0.125
40
0.15625
40
0.15625
40
0.1875
40
0.1875
40
0.21875
40
0.21875
40
0.25
40
0.25
40
0.3125
40
0.3125
40
0.375
40
0.375
40
0.5
40
0.5
40
0.625
40
0.625
40
0.75
40
0.75
40
0.875
40
0.875
40
1
40
1
40
1
40
1
41
1
10
37.0591263182258
20
0.494366076946477
30
0
41
1
10
37.090803025479
20
0.425409778576494
30
0
41
1
10
37.1236479118661
20
0.356630750253316
30
0
41
1
10
37.195908959229
20
0.221652595670662
30
0
41
1
10
37.2297257606258
20
0.152285788738254
30
0
41
1
10
37.2690332716386
20
0.0449461231205532
30
0
41
1
10
37.2802603185272
20
0.0088153192373284
30
0
41
1
10
37.2970702195854
20
-0.0645023692917732
30
0
41
1
10
37.3025258076026
20
-0.102047983267539
30
0
41
1
10
37.305333000278
20
-0.174668928525023
30
0
41
1
10
37.3026816712378
20
-0.210663394494105
30
0
41
1
10
37.288707954826
20
-0.277593939763022
30
0
41
1
10
37.2775933457631
20
-0.308445962516714
30
0
41
1
10
37.2317652225337
20
-0.392643351253696
30
0
41
1
10
37.1866246095645
20
-0.433087927840432
30
0
41
1
10
37.082518064642
20
-0.487082025335837
30
0
41
1
10
37.0249773012526
20
-0.50130996925256
30
0
41
1
10
36.8500960514236
20
-0.527432756699824
30
0
41
1
10
36.7306631081742
20
-0.530901832514786
30
0
41
1
10
36.4870138445587
20
-0.514395647796306
30
0
41
1
10
36.364832934609
20
-0.494598544718542
30
0
41
1
10
36.1214155156778
20
-0.436837802771976
30
0
41
1
10
35.9998952669283
20
-0.398864478035023
30
0
41
1
10
35.7571719724044
20
-0.307613249181742
30
0
41
1
10
35.6357241124584
20
-0.254142529247815
30
0
41
1
10
35.3957231191751
20
-0.135714132753094
30
0
41
1
10
35.2768260898028
20
-0.0703961103180006
30
0
41
1
10
35.1588085550518
20
-0.0019507263287153
30
0
0
SPLINE
5
DF
100
AcDbEntity
8
1
62
256
6
ByLayer
370
18
48
1
60
0
100
AcDbSpline
70
4
71
3
72
67
73
63
40
0
40
0
40
0
40
0
40
0.0625000000000114
40
0.0625000000000114
40
0.0937500000000171
40
0.0937500000000171
40
0.125000000000023
40
0.125000000000023
40
0.250000000000042
40
0.250000000000042
40
0.312500000000052
40
0.312500000000052
40
0.375000000000062
40
0.375000000000062
40
0.437500000000072
40
0.437500000000072
40
0.500000000000082
40
0.500000000000082
40
0.562500000000091
40
0.562500000000091
40
0.593750000000095
40
0.593750000000095
40
0.609375000000097
40
0.613281250000098
40
0.613281250000098
40
0.617187500000098
40
0.617187500000098
40
0.619140625000099
40
0.619140625000099
40
0.621093750000099
40
0.621093750000099
40
0.625000000000098
40
0.625000000000098
40
0.656250000000089
40
0.656250000000089
40
0.687500000000081
40
0.687500000000081
40
0.703125000000077
40
0.703125000000077
40
0.718750000000073
40
0.718750000000073
40
0.73437500000007
40
0.73437500000007
40
0.750000000000066
40
0.750000000000066
40
0.765625000000062
40
0.765625000000062
40
0.781250000000059
40
0.781250000000059
40
0.796875000000055
40
0.796875000000055
40
0.812500000000051
40
0.812500000000051
40
0.843750000000043
40
0.843750000000043
40
0.875000000000034
40
0.875000000000034
40
0.937500000000017
40
0.937500000000017
40
0.968750000000009
40
0.968750000000009
40
1
40
1
40
1
40
1
41
1
10
9.61188077163587
20
-0.910884780726548
30
0
41
1
10
9.40644788072967
20
-0.788043822399118
30
0
41
1
10
9.19812079419191
20
-0.665305369396208
30
0
41
1
10
8.88105842534338
20
-0.48282627294995
30
0
41
1
10
8.77443329294346
20
-0.422187193996763
30
0
41
1
10
8.56092489729565
20
-0.302566757447465
30
0
41
1
10
8.45392244165322
20
-0.24351504128731
30
0
41
1
10
7.91728340334569
20
0.0472332340551134
30
0
41
1
10
7.48274508214138
20
0.265339310154076
30
0
41
1
10
6.81543880930633
20
0.556425983950732
30
0
41
1
10
6.59042414818975
20
0.647454639198116
30
0
41
1
10
6.13420054474682
20
0.815687064510939
30
0
41
1
10
5.9027990435111
20
0.892906848159271
30
0
41
1
10
5.43688392984541
20
1.03137835552371
30
0
41
1
10
5.201908995986
20
1.09282555083854
30
0
41
1
10
4.72739589018161
20
1.2002864564821
30
0
41
1
10
4.48775582950884
20
1.24630323558469
30
0
41
1
10
4.00644170596331
20
1.32306194414269
30
0
41
1
10
3.76443291204612
20
1.35390700056749
30
0
41
1
10
3.39929358895
20
1.38944549606657
30
0
41
1
10
3.27716382820589
20
1.39950484445825
30
0
41
1
10
3.09368544895284
20
1.41192538415225
30
0
41
1
10
3.01718297273402
20
1.41654454641969
30
0
41
1
10
2.94061344970683
20
1.42047231462868
30
0
41
1
10
2.90998026272592
20
1.42198811376133
30
0
41
1
10
2.894454582295
20
1.4231528232126
30
0
41
1
10
2.87186914661919
20
1.42072913161806
30
0
41
1
10
2.86447130842953
20
1.41937513046099
30
0
41
1
10
2.85009046937012
20
1.41492447728967
30
0
41
1
10
2.84333431944532
20
1.41185076203342
30
0
41
1
10
2.82269524083344
20
1.40344442466298
30
0
41
1
10
2.8089876796223
20
1.39774419578364
30
0
41
1
10
2.68610707164692
20
1.34553206806549
30
0
41
1
10
2.58047246255137
20
1.29285848090692
30
0
41
1
10
2.38358680729081
20
1.16995716960034
30
0
41
1
10
2.29156966821233
20
1.0998561043682
30
0
41
1
10
2.17144453451542
20
0.970551170741686
30
0
41
1
10
2.13559666127026
20
0.924461939916455
30
0
41
1
10
2.07443577762697
20
0.824590209756195
30
0
41
1
10
2.0491193948067
20
0.770244602140252
30
0
41
1
10
2.01381185152388
20
0.657857021135897
30
0
41
1
10
2.0033601167797
20
0.598921444211044
30
0
41
1
10
1.99800855611352
20
0.477371984404016
30
0
41
1
10
2.0030767871724
20
0.416838943555319
30
0
41
1
10
2.02619029286114
20
0.296084668034382
30
0
41
1
10
2.04426651327373
20
0.236328457351817
30
0
41
1
10
2.08908793599764
20
0.121637902992632
30
0
41
1
10
2.11597386890117
20
0.0660219452786066
30
0
41
1
10
2.17661578033375
20
-0.0425762908240301
30
0
41
1
10
2.21011010482073
20
-0.0950266397749147
30
0
41
1
10
2.28090085972647
20
-0.195801062843259
30
0
41
1
10
2.31835824362449
20
-0.244381156228798
30
0
41
1
10
2.43550455577633
20
-0.385901865490808
30
0
41
1
10
2.52037212538014
20
-0.475127668897585
30
0
41
1
10
2.69616143187392
20
-0.643602900583375
30
0
41
1
10
2.7868472608688
20
-0.722661737720017
30
0
41
1
10
3.06465445057864
20
-0.948571610946942
30
0
41
1
10
3.2573941803586
20
-1.08436312486012
30
0
41
1
10
3.55382239232154
20
-1.27244206210341
30
0
41
1
10
3.65386032957258
20
-1.33239355225777
30
0
41
1
10
3.85392885183492
20
-1.44608244658039
30
0
41
1
10
3.95426371178422
20
-1.50001202182568
30
0
41
1
10
4.05489528554892
20
-1.55124466840073
30
0
0
SPLINE
5
E0
100
AcDbEntity
8
1
62
256
6
ByLayer
370
18
48
1
60
0
100
AcDbSpline
70
4
71
3
72
14
73
10
40
0
40
0
40
0
40
0
40
0.243343770258762
40
0.243343770258762
40
0.69025449664812
40
0.69025449664812
40
0.9137098598428
40
0.9137098598428
40
1
40
1
40
1
40
1
41
1
10
36.7419500915665
20
-2.2554869148359
30
0
41
1
10
36.5542375189294
20
-2.25623132140996
30
0
41
1
10
36.3668209466483
20
-2.24770884986816
30
0
41
1
10
35.8385449211697
20
-2.19771097876352
30
0
41
1
10
35.4989634128569
20
-2.13512754167306
30
0
41
1
10
34.9870217024227
20
-1.99888901033918
30
0
41
1
10
34.8159558044556
20
-1.94640845365535
30
0
41
1
10
34.5775591054434
20
-1.86419294030642
30
0
41
1
10
34.5109772437347
20
-1.84025017473351
30
0
41
1
10
34.4443785318785
20
-1.81536765776377
30
0
0
SPLINE
5
E1
100
AcDbEntity
8
1
62
256
6
ByLayer
370
13
48
1
60
0
100
AcDbSpline
70
4
71
3
72
26
73
22
40
0
40
0
40
0
40
0
40
0.0470844219808647
40
0.0470844219808647
40
0.200494993775547
40
0.200494993775547
40
0.27720027967289
40
0.27720027967289
40
0.353905565570233
40
0.353905565570233
40
0.507316137364924
40
0.507316137364924
40
0.660726709159615
40
0.660726709159615
40
0.737431995056961
40
0.737431995056961
40
0.814137280954306
40
0.814137280954306
40
0.967547852748992
40
0.967547852748992
40
1
40
1
40
1
40
1
41
1
10
34.4443775951054
20
-1.8153673077679
30
0
41
1
10
34.3385138170883
20
-1.77581461814026
30
0
41
1
10
34.2326074646733
20
-1.73388740823626
30
0
41
1
10
33.7840467081204
20
-1.54693637441187
30
0
41
1
10
33.4439844067667
20
-1.38198793503435
30
0
41
1
10
32.9325816612985
20
-1.10972646446618
30
0
41
1
10
32.7618993232883
20
-1.01482693510542
30
0
41
1
10
32.4191256295049
20
-0.817975533730731
30
0
41
1
10
32.2463908097423
20
-0.71570881282517
30
0
41
1
10
31.7292896887608
20
-0.402333737963033
30
0
41
1
10
31.3884465122686
20
-0.187379836398605
30
0
41
1
10
30.7059717958964
20
0.240733310628798
30
0
41
1
10
30.3644870162837
20
0.454130170512769
30
0
41
1
10
29.846715075075
20
0.764865544319463
30
0
41
1
10
29.6743183285724
20
0.866023365255785
30
0
41
1
10
29.3314728409074
20
1.06015174732124
30
0
41
1
10
29.1606053334248
20
1.15333659621422
30
0
41
1
10
28.6488687704618
20
1.42093745571779
30
0
41
1
10
28.3079644557418
20
1.58170558382773
30
0
41
1
10
27.8909923711991
20
1.74939020571094
30
0
41
1
10
27.8179740295083
20
1.77769255441473
30
0
41
1
10
27.7449353833412
20
1.80488145839925
30
0
0
SPLINE
5
E2
100
AcDbEntity
8
1
62
256
6
ByLayer
370
18
48
1
60
0
100
AcDbSpline
70
4
71
3
72
10
73
6
40
0
40
0
40
0
40
0
40
0.848340001935554
40
0.848340001935554
40
1
40
1
40
1
40
1
41
1
10
14.2122745906199
20
-2.22825693589476
30
0
41
1
10
13.6430508787302
20
-2.22734525936482
30
0
41
1
10
13.0807884729327
20
-2.1420869206525
30
0
41
1
10
12.4050293578869
20
-1.94851335769926
30
0
41
1
10
12.3025407443633
20
-1.91670617480781
30
0
41
1
10
12.2002888145936
20
-1.88269169702832
30
0
0
SPLINE
5
E3
100
AcDbEntity
8
1
62
256
6
ByLayer
370
13
48
1
60
0
100
AcDbSpline
70
4
71
3
72
30
73
26
40
0
40
0
40
0
40
0
40
0.0264623550896942
40
0.0264623550896942
40
0.0913648647503804
40
0.0913648647503804
40
0.221169884071754
40
0.221169884071754
40
0.28607239373244
40
0.28607239373244
40
0.350974903393127
40
0.350974903393127
40
0.4807799227145
40
0.4807799227145
40
0.545682432375188
40
0.545682432375188
40
0.610584942035875
40
0.610584942035875
40
0.74038996135725
40
0.74038996135725
40
0.805292471017938
40
0.805292471017938
40
0.870194980678625
40
0.870194980678625
40
1
40
1
40
1
40
1
41
1
10
12.200288814302
20
-1.88269169693129
30
0
41
1
10
12.1298981796407
20
-1.85927599529836
30
0
41
1
10
12.0596197094175
20
-1.83481425655293
30
0
41
1
10
11.8176309943471
20
-1.7470183750259
30
0
41
1
10
11.6463609265047
20
-1.67863800697015
30
0
41
1
10
11.1329691049575
20
-1.45723848028155
30
0
41
1
10
10.7913704527131
20
-1.28798265749558
30
0
41
1
10
10.2739170480691
20
-1.00855068388503
30
0
41
1
10
10.100103578402
20
-0.910805147367483
30
0
41
1
10
9.75521396028716
20
-0.711274174557161
30
0
41
1
10
9.58357297476044
20
-0.609183778844965
30
0
41
1
10
9.06954632649365
20
-0.298402056214741
30
0
41
1
10
8.72817804829344
20
-0.0850376871360652
30
0
41
1
10
8.21205230349835
20
0.23450074421379
30
0
41
1
10
8.03879939232868
20
0.341303159205808
30
0
41
1
10
7.69264554025597
20
0.551669756335201
30
0
41
1
10
7.5205645614617
20
0.654692515810865
30
0
41
1
10
7.0056970284017
20
0.954929264707062
30
0
41
1
10
6.66424826115514
20
1.1432763259777
30
0
41
1
10
6.14907895263147
20
1.39987637848282
30
0
41
1
10
5.97687328669912
20
1.48109411488753
30
0
41
1
10
5.63064019340339
20
1.63375776613893
30
0
41
1
10
5.45732846052346
20
1.70468290137356
30
0
41
1
10
4.93990503709713
20
1.89775718588768
30
0
41
1
10
4.59633334438718
20
2.00100984591808
30
0
41
1
10
4.25052597917167
20
2.07548452763871
30
0
0
SPLINE
5
E4
100
AcDbEntity
8
1
62
256
6
ByLayer
370
18
48
1
60
0
100
AcDbSpline
70
4
71
3
72
10
73
6
40
0
40
0
40
0
40
0
40
0.5
40
0.5
40
1
40
1
40
1
40
1
41
1
10
4.10337637094386
20
2.15699474670015
30
0
41
1
10
4.08938344352526
20
2.1615858680519
30
0
41
1
10
4.07759735548433
20
2.16680909016003
30
0
41
1
10
4.06035226490837
20
2.17825351952811
30
0
41
1
10
4.05505194082991
20
2.18438154877322
30
0
41
1
10
4.05505271247691
20
2.19044651927877
30
0
0
SPLINE
5
E5
100
AcDbEntity
8
1
62
256
6
ByLayer
370
18
48
1
60
0
100
AcDbSpline
70
4
71
3
72
26
73
22
40
0
40
0
40
0
40
0
40
0.124999999999999
40
0.124999999999999
40
0.249999999999997
40
0.249999999999997
40
0.374999999999996
40
0.374999999999996
40
0.499999999999995
40
0.499999999999995
40
0.624999999999994
40
0.624999999999994
40
0.687499999999995
40
0.687499999999995
40
0.749999999999996
40
0.749999999999996
40
0.874999999999998
40
0.874999999999998
40
0.937499999999999
40
0.937499999999999
40
1
40
1
40
1
40
1
41
1
10
37.7762376674377
20
-0.591771116393716
30
0
41
1
10
37.7571894462811
20
-0.579728667480055
30
0
41
1
10
37.7329738207448
20
-0.57999865331746
30
0
41
1
10
37.6806172749834
20
-0.600118314996706
30
0
41
1
10
37.6517406743385
20
-0.620172033470965
30
0
41
1
10
37.5930951717369
20
-0.676687940454968
30
0
41
1
10
37.5626167045984
20
-0.713813494436351
30
0
41
1
10
37.5042196370672
20
-0.802938634757965
30
0
41
1
10
37.4757047751641
20
-0.855953697487337
30
0
41
1
10
37.4286816539018
20
-0.971254644742572
30
0
41
1
10
37.4108835293349
20
-1.03255098357266
30
0
41
1
10
37.3995751930216
20
-1.11450576997237
30
0
41
1
10
37.3984111639384
20
-1.13920770462119
30
0
41
1
10
37.4009490896721
20
-1.18293246304899
30
0
41
1
10
37.4045893623211
20
-1.20116190236314
30
0
41
1
10
37.4214443726914
20
-1.24601879810862
30
0
41
1
10
37.4400762044304
20
-1.26136957992512
30
0
41
1
10
37.4735860511012
20
-1.26697307431871
30
0
41
1
10
37.4858594664628
20
-1.26592333117091
30
0
41
1
10
37.5114967201092
20
-1.25863794088602
30
0
41
1
10
37.524917340904
20
-1.25244547137172
30
0
41
1
10
37.5389144235104
20
-1.24381137017591
30
0
0
SPLINE
5
E6
100
AcDbEntity
8
1
62
256
6
ByLayer
370
18
48
1
60
0
100
AcDbSpline
70
4
71
3
72
24
73
20
40
0
40
0
40
0
40
0
40
0.206634648933901
40
0.206634648933901
40
0.309951973400854
40
0.309951973400854
40
0.413269297867806
40
0.413269297867806
40
0.516586622334759
40
0.516586622334759
40
0.619903946801711
40
0.619903946801711
40
0.723221271268664
40
0.723221271268664
40
0.826538595735617
40
0.826538595735617
40
0.929855920202569
40
0.929855920202569
40
1
40
1
40
1
40
1
41
1
10
9.61188077163885
20
-0.910884780728338
30
0
41
1
10
9.90057374842269
20
-1.08521040430094
30
0
41
1
10
10.1892398627748
20
-1.24415024952009
30
0
41
1
10
10.6175944493817
20
-1.46717552587503
30
0
41
1
10
10.7600204638915
20
-1.5382796084252
30
0
41
1
10
11.046306561335
20
-1.6715976386073
30
0
41
1
10
11.189783237834
20
-1.73430154717644
30
0
41
1
10
11.4768724271082
20
-1.85223100325635
30
0
41
1
10
11.6201035754842
20
-1.90775603331116
30
0
41
1
10
11.9094482266226
20
-2.00840975235545
30
0
41
1
10
12.0547327187332
20
-2.05372123868514
30
0
41
1
10
12.3440384208105
20
-2.13428863462266
30
0
41
1
10
12.487988224658
20
-2.16981359810401
30
0
41
1
10
12.776423115833
20
-2.22995747183864
30
0
41
1
10
12.9217000923184
20
-2.25442178685387
30
0
41
1
10
13.2115426080848
20
-2.29236408734144
30
0
41
1
10
13.3560438584244
20
-2.30585581623745
30
0
41
1
10
13.5977648908228
20
-2.31908843599234
30
0
41
1
10
13.695695909369
20
-2.32179155725396
30
0
41
1
10
13.7938671879936
20
-2.32188859926825
30
0
0
SPLINE
5
E7
100
AcDbEntity
8
1
62
256
6
ByLayer
370
18
48
1
60
0
100
AcDbSpline
70
4
71
3
72
74
73
70
40
0
40
0
40
0
40
0
40
0.0058965111055142
40
0.0058965111055142
40
0.0352297533018157
40
0.0352297533018157
40
0.0645629954981171
40
0.0645629954981171
40
0.0938962376944186
40
0.0938962376944186
40
0.12322947989072
40
0.12322947989072
40
0.152562722087022
40
0.152562722087022
40
0.181895964283323
40
0.181895964283323
40
0.211229206479624
40
0.211229206479624
40
0.240562448675926
40
0.240562448675926
40
0.269895690872227
40
0.269895690872227
40
0.299228933068529
40
0.299228933068529
40
0.32856217526483
40
0.32856217526483
40
0.357895417461131
40
0.357895417461131
40
0.387228659657431
40
0.387228659657431
40
0.416561901853731
40
0.416561901853731
40
0.445895144050032
40
0.445895144050032
40
0.475228386246333
40
0.475228386246333
40
0.504561628442633
40
0.504561628442633
40
0.533894870638933
40
0.533894870638933
40
0.563228112835234
40
0.563228112835234
40
0.592561355031534
40
0.592561355031534
40
0.621894597227835
40
0.621894597227835
40
0.651227839424135
40
0.651227839424135
40
0.709894323816738
40
0.709894323816738
40
0.73922756601304
40
0.73922756601304
40
0.768560808209343
40
0.768560808209343
40
0.797894050405646
40
0.797894050405646
40
0.827227292601948
40
0.827227292601948
40
0.85656053479825
40
0.85656053479825
40
0.885893776994553
40
0.885893776994553
40
0.915227019190855
40
0.915227019190855
40
0.944560261387158
40
0.944560261387158
40
0.973893503583461
40
0.973893503583461
40
1
40
1
40
1
40
1
41
1
10
21.6150998476969
20
1.33852871670806
30
0
41
1
10
21.6441431780701
20
1.35400959526962
30
0
41
1
10
21.6732149632806
20
1.36934440187335
30
0
41
1
10
21.8471195142044
20
1.46004245592724
30
0
41
1
10
21.9920222042135
20
1.53195919042122
30
0
41
1
10
22.2803996617538
20
1.66876826007891
30
0
41
1
10
22.4237959992851
20
1.73391944783754
30
0
41
1
10
22.712513589495
20
1.85403859686016
30
0
41
1
10
22.8577718583027
20
1.90967939592326
30
0
41
1
10
23.1463755337915
20
2.01143985748448
30
0
41
1
10
23.289315747398
20
2.05787805212296
30
0
41
1
10
23.5751192710934
20
2.13985877922326
30
0
41
1
10
23.7181909590017
20
2.17536166882277
30
0
41
1
10
24.0039379767193
20
2.23615781737894
30
0
41
1
10
24.1465056668227
20
2.2614764187056
30
0
41
1
10
24.4312814802512
20
2.3014741663124
30
0
41
1
10
24.5743567974989
20
2.31587300480936
30
0
41
1
10
24.8618812066584
20
2.33363858252656
30
0
41
1
10
25.0065504460089
20
2.33703316744573
30
0
41
1
10
25.29509715944
20
2.33233394515941
30
0
41
1
10
25.4387597512456
20
2.32418935655707
30
0
41
1
10
25.7273240669342
20
2.29695048008276
30
0
41
1
10
25.8717962560449
20
2.27785053843022
30
0
41
1
10
26.1605460382123
20
2.22836666543017
30
0
41
1
10
26.3045185892045
20
2.19766038592164
30
0
41
1
10
26.5930013078815
20
2.12660102576021
30
0
41
1
10
26.7374196104951
20
2.08612236813485
30
0
41
1
10
27.0260447735149
20
1.99498465708271
30
0
41
1
10
27.170110299662
20
1.94390265943292
30
0
41
1
10
27.4583436354874
20
1.83254414471992
30
0
41
1
10
27.6023154961979
20
1.77313732794616
30
0
41
1
10
27.889198206587
20
1.6464421456449
30
0
41
1
10
28.0320766262706
20
1.5791050495134
30
0
41
1
10
28.3165180038361
20
1.43610017581523
30
0
41
1
10
28.4589317825001
20
1.36143447425047
30
0
41
1
10
28.7446297582137
20
1.20658127680323
30
0
41
1
10
28.8877523460361
20
1.12620363518181
30
0
41
1
10
29.1739538628199
20
0.958526249686088
30
0
41
1
10
29.3170518836224
20
0.871182784198652
30
0
41
1
10
29.6062588382492
20
0.693850659729691
30
0
41
1
10
29.7508442770438
20
0.603856794490696
30
0
41
1
10
30.0390751669541
20
0.420610171514454
30
0
41
1
10
30.1823313249065
20
0.326630609191454
30
0
41
1
10
30.4704834260267
20
0.139036413611564
30
0
41
1
10
30.6154721493547
20
0.0450687780812586
30
0
41
1
10
30.9042867974089
20
-0.142693393451367
30
0
41
1
10
31.0480127517687
20
-0.236952876643272
30
0
41
1
10
31.4788460362991
20
-0.518211451152524
30
0
41
1
10
31.770128400278
20
-0.699804220217203
30
0
41
1
10
32.1989157277452
20
-0.962282250945634
30
0
41
1
10
32.3414801468325
20
-1.04712279469143
30
0
41
1
10
32.6270182212566
20
-1.21015076249657
30
0
41
1
10
32.7697359331656
20
-1.28871570805882
30
0
41
1
10
33.0545050851486
20
-1.44061660982288
30
0
41
1
10
33.1963547383206
20
-1.51414031475778
30
0
41
1
10
33.4823791746397
20
-1.65219225312464
30
0
41
1
10
33.6260981754027
20
-1.71731780932274
30
0
41
1
10
33.9144395615174
20
-1.84020375199111
30
0
41
1
10
34.0584400944324
20
-1.89821298192737
30
0
41
1
10
34.3460707916333
20
-2.00355500076842
30
0
41
1
10
34.4902815173751
20
-2.05098159664067
30
0
41
1
10
34.7786964726217
20
-2.13616111278992
30
0
41
1
10
34.9230121902502
20
-2.17401151922917
30
0
41
1
10
35.2106957241842
20
-2.23921985451926
30
0
41
1
10
35.3547471563996
20
-2.26606115438244
30
0
41
1
10
35.6430474960735
20
-2.30875081662324
30
0
41
1
10
35.7872514180615
20
-2.32462977272888
30
0
41
1
10
36.0591996183251
20
-2.34415045316109
30
0
41
1
10
36.1873565604766
20
-2.34878245390598
30
0
41
1
10
36.3153558759932
20
-2.34891076083434
30
0
0
SPLINE
5
E8
100
AcDbEntity
8
1
62
256
6
ByLayer
370
18
48
1
60
0
100
AcDbSpline
70
4
71
3
72
8
73
4
40
0
40
0
40
0
40
0
40
1
40
1
40
1
40
1
41
1
10
4.05505271247702
20
2.19044651927879
30
0
41
1
10
4.06094900925456
20
2.18218411249214
30
0
41
1
10
4.06724536500775
20
2.17428623169488
30
0
41
1
10
4.07396425260842
20
2.1667744629666
30
0
0
SPLINE
5
E9
100
AcDbEntity
8
1
62
256
6
ByLayer
370
18
48
1
60
0
100
AcDbSpline
70
4
71
3
72
8
73
4
40
0
40
0
40
0
40
0
40
1
40
1
40
1
40
1
41
1
10
37.5091454042018
20
0.629619522519391
30
0
41
1
10
37.3774247352289
20
0.618389672510972
30
0
41
1
10
37.2450222293958
20
0.610383816491549
30
0
41
1
10
37.1123463069546
20
0.604182411569838
30
0
0
SPLINE
5
EA
100
AcDbEntity
8
1
62
256
6
ByLayer
370
18
48
1
60
0
100
AcDbSpline
70
4
71
3
72
16
73
12
40
0
40
0
40
0
40
0
40
0.131320486078072
40
0.131320486078072
40
0.305056388862458
40
0.305056388862458
40
0.478792291646843
40
0.478792291646843
40
0.652528194431229
40
0.652528194431229
40
1
40
1
40
1
40
1
41
1
10
4.05500606347721
20
-2.31019954880332
30
0
41
1
10
4.05499488375597
20
-2.31002304273918
30
0
41
1
10
4.05498261703554
20
-2.3052832005157
30
0
41
1
10
4.05495354699536
20
-2.28358923653724
30
0
41
1
10
4.0549364685906
20
-2.26291063210323
30
0
41
1
10
4.05490601767997
20
-2.20640710895188
30
0
41
1
10
4.0548925295933
20
-2.17059945082624
30
0
41
1
10
4.05487174935291
20
-2.0840297476467
30
0
41
1
10
4.05486443631429
20
-2.03289816194362
30
0
41
1
10
4.05485523901925
20
-1.85846576897376
30
0
41
1
10
4.05486634853406
20
-1.71729652570508
30
0
41
1
10
4.05489528554739
20
-1.55124466840158
30
0
0
SPLINE
5
EB
100
AcDbEntity
8
1
62
256
6
ByLayer
370
18
48
1
60
0
100
AcDbSpline
70
4
71
3
72
14
73
10
40
0
40
0
40
0
40
0
40
0.25
40
0.25
40
0.5
40
0.5
40
0.75
40
0.75
40
1
40
1
40
1
40
1
41
1
10
37.1123463069546
20
0.604182411569809
30
0
41
1
10
37.0997909352627
20
0.603595560976487
30
0
41
1
10
37.0872660613678
20
0.600994057112132
30
0
41
1
10
37.0653377706433
20
0.589253820730136
30
0
41
1
10
37.0561395758867
20
0.57955406968847
30
0
41
1
10
37.0466602627209
20
0.556257356999851
30
0
41
1
10
37.0460482196057
20
0.543044294002897
30
0
41
1
10
37.0497085448695
20
0.51799788092751
30
0
41
1
10
37.0538090821167
20
0.505941046425278
30
0
41
1
10
37.059126318225
20
0.49436607694841
30
0
0
SPLINE
5
EC
100
AcDbEntity
8
1
62
256
6
ByLayer
370
18
48
1
60
0
100
AcDbSpline
70
4
71
3
72
8
73
4
40
0
40
0
40
0
40
0
40
1
40
1
40
1
40
1
41
1
10
37.6994998617278
20
1.0073181551775
30
0
41
1
10
37.7000589476561
20
1.00730880835201
30
0
41
1
10
37.7006180249063
20
1.0072994602715
30
0
41
1
10
37.7011770934647
20
1.00729011093529
30
0
0
SPLINE
5
ED
100
AcDbEntity
8
1
62
256
6
ByLayer
370
18
48
1
60
0
100
AcDbSpline
70
4
71
3
72
20
73
16
40
0
40
0
40
0
40
0
40
0.125
40
0.125
40
0.25
40
0.25
40
0.5
40
0.5
40
0.625
40
0.625
40
0.75
40
0.75
40
0.875
40
0.875
40
1
40
1
40
1
40
1
41
1
10
37.2212561672127
20
-2.27505621945124
30
0
41
1
10
37.2411527187899
20
-2.22566465568178
30
0
41
1
10
37.2611967223642
20
-2.17527871382597
30
0
41
1
10
37.3014573766321
20
-2.07334254264646
30
0
41
1
10
37.3216428366133
20
-2.02200705736354
30
0
41
1
10
37.382493649956
20
-1.86598853827871
30
0
41
1
10
37.4229812403628
20
-1.75966483087436
30
0
41
1
10
37.4836783177061
20
-1.59918328499379
30
0
41
1
10
37.5039638381432
20
-1.54534074599491
30
0
41
1
10
37.5441631877666
20
-1.43750771558419
30
0
41
1
10
37.5640722683244
20
-1.38364734440907
30
0
41
1
10
37.6036130824023
20
-1.27600830116754
30
0
41
1
10
37.6232684641814
20
-1.22222266294892
30
0
41
1
10
37.6624565323879
20
-1.11468752931941
30
0
41
1
10
37.6819031348967
20
-1.06096339195634
30
0
41
1
10
37.7011770934645
20
-1.00729011093594
30
0
0
SPLINE
5
EE
100
AcDbEntity
8
1
62
256
6
ByLayer
370
18
48
1
60
0
100
AcDbSpline
70
4
71
3
72
68
73
64
40
0
40
0
40
0
40
0
40
0.0058830083579777
40
0.0058830083579777
40
0.0452485991100581
40
0.0452485991100581
40
0.0846141898621383
40
0.0846141898621383
40
0.163345371366299
40
0.163345371366299
40
0.242076552870459
40
0.242076552870459
40
0.39953891587878
40
0.39953891587878
40
0.478270097382941
40
0.478270097382941
40
0.483190796226951
40
0.483805883582452
40
0.483805883582452
40
0.484113427260203
40
0.484113427260203
40
0.484420970937953
40
0.484420970937953
40
0.485651145648956
40
0.485651145648956
40
0.48811149507096
40
0.48811149507096
40
0.49795289275898
40
0.49795289275898
40
0.517635688135019
40
0.517635688135019
40
0.557001278887098
40
0.557001278887098
40
0.635732460391255
40
0.635732460391255
40
0.675098051143333
40
0.675098051143333
40
0.694780846519372
40
0.694780846519372
40
0.704622244207392
40
0.704622244207392
40
0.707082593629397
40
0.707082593629397
40
0.7083127683404
40
0.7083127683404
40
0.70862031201815
40
0.70862031201815
40
0.708927855695901
40
0.709542943051402
40
0.714463641895412
40
0.753829232647492
40
0.753829232647492
40
0.793194823399571
40
0.793194823399571
40
0.871926004903731
40
0.871926004903731
40
0.911291595655811
40
0.911291595655811
40
0.95065718640789
40
0.95065718640789
40
0.99002277715997
40
0.99002277715997
40
1
40
1
40
1
40
1
41
1
10
9.61187353670331
20
-0.910870781322643
30
0
41
1
10
9.59649922026182
20
-0.902094462620454
30
0
41
1
10
9.58111721956149
20
-0.893345832793045
30
0
41
1
10
9.46274593531939
20
-0.826276437744127
30
0
41
1
10
9.35939405652886
20
-0.7692227958903
30
0
41
1
10
9.15158358337368
20
-0.658456689052372
30
0
41
1
10
9.04682841571884
20
-0.604601482709569
30
0
41
1
10
8.73255297298397
20
-0.450547084241862
30
0
41
1
10
8.52368562102811
20
-0.358123644484948
30
0
41
1
10
8.10376531969874
20
-0.200217306789653
30
0
41
1
10
7.89252928022529
20
-0.134721935527182
30
0
41
1
10
7.24954688066873
20
0.0123630400869672
30
0
41
1
10
6.82759365896081
20
0.0396405063357008
30
0
41
1
10
6.17789179873162
20
-0.0198801242357831
30
0
41
1
10
5.9583674686042
20
-0.0565884664196687
30
0
41
1
10
5.7250539566333
20
-0.110781032227607
30
0
41
1
10
5.70961134629627
20
-0.114429764793755
30
0
41
1
10
5.69416564883002
20
-0.118147856888271
30
0
41
1
10
5.69159132564056
20
-0.118768817095884
30
0
41
1
10
5.69023464046961
20
-0.118855177302265
30
0
41
1
10
5.69059559938933
20
-0.120194848610765
30
0
41
1
10
5.6912235858845
20
-0.120768842929181
30
0
41
1
10
5.69404093420121
20
-0.123577057625028
30
0
41
1
10
5.69674282169251
20
-0.12556060001728
30
0
41
1
10
5.70476613020219
20
-0.131525684012701
30
0
41
1
10
5.71032153170097
20
-0.135339563219105
30
0
41
1
10
5.73828228629907
20
-0.154266688072056
30
0
41
1
10
5.76134616540219
20
-0.168853799482406
30
0
41
1
10
5.83061165677549
20
-0.21252345297097
30
0
41
1
10
5.87727959333279
20
-0.241248181127872
30
0
41
1
10
6.01758516359965
20
-0.327240692302041
30
0
41
1
10
6.11166221815029
20
-0.384224229184952
30
0
41
1
10
6.39437375114645
20
-0.555197804154403
30
0
41
1
10
6.58356859894405
20
-0.66922894423891
30
0
41
1
10
6.86630323114915
20
-0.842868281543673
30
0
41
1
10
6.96042566252507
20
-0.901116688094305
30
0
41
1
10
7.10093626681911
20
-0.989810157635532
30
0
41
1
10
7.14768903876194
20
-1.01955400437419
30
0
41
1
10
7.21722044786233
20
-1.06519345226536
30
0
41
1
10
7.24038047042009
20
-1.08046499932465
30
0
41
1
10
7.26858850679807
20
-1.100659020081
30
0
41
1
10
7.27420091280442
20
-1.10474033392993
30
0
41
1
10
7.28233748910847
20
-1.11126871244568
30
0
41
1
10
7.2851489951297
20
-1.11338706234426
30
0
41
1
10
7.28790552512919
20
-1.11679385088993
30
0
41
1
10
7.28857597463733
20
-1.11785003591345
30
0
41
1
10
7.28712037282395
20
-1.1188981342971
30
0
41
1
10
7.28493700188363
20
-1.1204700177781
30
0
41
1
10
7.27110965435921
20
-1.13042018334806
30
0
41
1
10
7.16488065984524
20
-1.2066455899955
30
0
41
1
10
7.06041155991971
20
-1.27973097686373
30
0
41
1
10
6.87501583056067
20
-1.40394263771711
30
0
41
1
10
6.78200714351465
20
-1.46348830396465
30
0
41
1
10
6.50347793988411
20
-1.62945041913531
30
0
41
1
10
6.31953582132587
20
-1.72255570586685
30
0
41
1
10
6.0377101675943
20
-1.8269207608796
30
0
41
1
10
5.94217302008627
20
-1.85595584536662
30
0
41
1
10
5.75115563123236
20
-1.90051997470144
30
0
41
1
10
5.65585530446927
20
-1.91611115185222
30
0
41
1
10
5.46475312164267
20
-1.93490636206556
30
0
41
1
10
5.3689523266566
20
-1.93811714048854
30
0
41
1
10
5.24820051844972
20
-1.9352625931632
30
0
41
1
10
5.22372579534647
20
-1.93432981732653
30
0
41
1
10
5.19921207953956
20
-1.93305745503238
30
0
0
SPLINE
5
EF
100
AcDbEntity
8
1
62
256
6
ByLayer
370
18
48
1
60
0
100
AcDbSpline
70
4
71
3
72
44
73
40
40
0
40
0
40
0
40
0
40
0.0432077446359748
40
0.0432077446359748
40
0.0864154892719495
40
0.0864154892719495
40
0.172830978543899
40
0.172830978543899
40
0.216038723179874
40
0.216038723179874
40
0.259246467815848
40
0.259246467815848
40
0.345661957087798
40
0.345661957087798
40
0.388869701723771
40
0.388869701723771
40
0.410473574041758
40
0.410473574041758
40
0.432077446359745
40
0.432077446359745
40
0.51849293563169
40
0.51849293563169
40
0.604908424903634
40
0.604908424903634
40
0.648116169539607
40
0.648116169539607
40
0.691323914175579
40
0.691323914175579
40
0.777739403447523
40
0.777739403447523
40
0.820947148083497
40
0.820947148083497
40
0.86415489271947
40
0.86415489271947
40
0.950570381991417
40
0.950570381991417
40
0.993778126627391
40
0.993778126627391
40
1
40
1
40
1
40
1
41
1
10
37.1956502068621
20
-2.30965988213541
30
0
41
1
10
37.0229995863266
20
-2.33045968910102
30
0
41
1
10
36.8504792611428
20
-2.343049670314
30
0
41
1
10
36.5046459337001
20
-2.35180702323092
30
0
41
1
10
36.3320517199487
20
-2.34793023456624
30
0
41
1
10
35.8174148873346
20
-2.31237003803892
30
0
41
1
10
35.4771913382106
20
-2.25674959685148
30
0
41
1
10
34.9645534256783
20
-2.12836267963721
30
0
41
1
10
34.7932947600891
20
-2.07807325359971
30
0
41
1
10
34.4489588907835
20
-1.96292165902619
30
0
41
1
10
34.2754462624132
20
-1.8978305259503
30
0
41
1
10
33.7594365154065
20
-1.68526803762623
30
0
41
1
10
33.4187812124302
20
-1.5197295574674
30
0
41
1
10
32.9064150879688
20
-1.24366161951141
30
0
41
1
10
32.7353929587029
20
-1.14701375496787
30
0
41
1
10
32.4777317082388
20
-0.996040488789788
30
0
41
1
10
32.3916568659134
20
-0.944715156834945
30
0
41
1
10
32.2190040192836
20
-0.840209643905013
30
0
41
1
10
32.132298203589
20
-0.786931631546736
30
0
41
1
10
31.7010338863878
20
-0.518218514020134
30
0
41
1
10
31.3600412820705
20
-0.295613977184132
30
0
41
1
10
30.6768333351203
20
0.150457040571354
30
0
41
1
10
30.33484839219
20
0.374274663786594
30
0
41
1
10
29.8158644123995
20
0.702775756364275
30
0
41
1
10
29.6434831204242
20
0.80973019579443
30
0
41
1
10
29.3003306849544
20
1.01595371880131
30
0
41
1
10
29.1293252250367
20
1.11544387019143
30
0
41
1
10
28.6172287890617
20
1.40204968957951
30
0
41
1
10
28.2758862659194
20
1.57576586618768
30
0
41
1
10
27.7586027573924
20
1.80319584187214
30
0
41
1
10
27.5850415746767
20
1.87342464690312
30
0
41
1
10
27.2408763209596
20
1.99900624332102
30
0
41
1
10
27.0694699367196
20
2.05470186853705
30
0
41
1
10
26.5567634201926
20
2.20043929257545
30
0
41
1
10
26.2155901927746
20
2.26824268035438
30
0
41
1
10
25.6999248181103
20
2.32292989245303
30
0
41
1
10
25.5264939854561
20
2.33323149437061
30
0
41
1
10
25.3289104060639
20
2.33558346602211
30
0
41
1
10
25.3040590655658
20
2.33571072030142
30
0
41
1
10
25.2792256949009
20
2.33566985184464
30
0
0
SPLINE
5
F0
100
AcDbEntity
8
1
62
256
6
ByLayer
370
18
48
1
60
0
100
AcDbSpline
70
4
71
3
72
38
73
34
40
0
40
0
40
0
40
0
40
0.0336760704754003
40
0.0336760704754003
40
0.0819922669516295
40
0.0819922669516295
40
0.130308463427859
40
0.130308463427859
40
0.226940856380318
40
0.226940856380318
40
0.275257052856547
40
0.275257052856547
40
0.323573249332777
40
0.323573249332777
40
0.420205642285239
40
0.420205642285239
40
0.46852183876147
40
0.46852183876147
40
0.5168380352377
40
0.5168380352377
40
0.613470428190161
40
0.613470428190161
40
0.661786624666392
40
0.661786624666392
40
0.710102821142622
40
0.710102821142622
40
0.80673521409508
40
0.80673521409508
40
0.85505141057131
40
0.85505141057131
40
0.90336760704754
40
0.90336760704754
40
1
40
1
40
1
40
1
41
1
10
14.8917374397347
20
-2.2565164872677
30
0
41
1
10
14.7720037764152
20
-2.27485517841373
30
0
41
1
10
14.6519765603501
20
-2.28944492148025
30
0
41
1
10
14.3585978526379
20
-2.31556940407052
30
0
41
1
10
14.184681534392
20
-2.32292337590187
30
0
41
1
10
13.8400381480755
20
-2.32130883695035
30
0
41
1
10
13.668456687204
20
-2.31243412887488
30
0
41
1
10
13.1544355011821
20
-2.26230018368838
30
0
41
1
10
12.8129608020511
20
-2.19744470724882
30
0
41
1
10
12.2958492094231
20
-2.05528008887058
30
0
41
1
10
12.1219672646887
20
-2.0000748033878
30
0
41
1
10
11.7760276803253
20
-1.87655272268191
30
0
41
1
10
11.6039808928727
20
-1.80840734390949
30
0
41
1
10
11.0890971567476
20
-1.58673569265099
30
0
41
1
10
10.7477332900985
20
-1.4157257443955
30
0
41
1
10
10.2318478745577
20
-1.13223984721552
30
0
41
1
10
10.0593338429434
20
-1.03313238029406
30
0
41
1
10
9.71202692504085
20
-0.827021342822604
30
0
41
1
10
9.53929862174158
20
-0.721344359960483
30
0
41
1
10
9.02317712360156
20
-0.399412316035125
30
0
41
1
10
8.68169599442697
20
-0.177691949054889
30
0
41
1
10
8.16667266360361
20
0.155046174025642
30
0
41
1
10
7.99461262140278
20
0.266113183225457
30
0
41
1
10
7.64865523057028
20
0.486898968124223
30
0
41
1
10
7.4746003085213
20
0.596601768039022
30
0
41
1
10
6.95703751948099
20
0.915237470836445
30
0
41
1
10
6.61502158475423
20
1.11561179644127
30
0
41
1
10
6.10045263084817
20
1.39002582639057
30
0
41
1
10
5.92872614426449
20
1.47720590508061
30
0
41
1
10
5.58387039178416
20
1.64156276822934
30
0
41
1
10
5.41007082213451
20
1.71886362626031
30
0
41
1
10
4.8895372272099
20
1.93112883781518
30
0
41
1
10
4.54403894265607
20
2.04642465852894
30
0
41
1
10
4.19620108219419
20
2.1323505370782
30
0
0
SPLINE
5
F1
100
AcDbEntity
8
1
62
256
6
ByLayer
370
18
48
1
60
0
100
AcDbSpline
70
4
71
3
72
76
73
72
40
0
40
0
40
0
40
0
40
0.0027641187727838
40
0.0027641187727838
40
0.0349060612664209
40
0.0349060612664209
40
0.0670480037600581
40
0.0670480037600581
40
0.0991899462536953
40
0.0991899462536953
40
0.131331888747333
40
0.131331888747333
40
0.16347383124097
40
0.16347383124097
40
0.195615773734607
40
0.195615773734607
40
0.211686744981426
40
0.211686744981426
40
0.227757716228244
40
0.227757716228244
40
0.25989965872188
40
0.25989965872188
40
0.292041601215516
40
0.292041601215516
40
0.324183543709153
40
0.324183543709153
40
0.356325486202789
40
0.356325486202789
40
0.388467428696425
40
0.388467428696425
40
0.420609371190061
40
0.420609371190061
40
0.452751313683697
40
0.452751313683697
40
0.484893256177334
40
0.484893256177334
40
0.51703519867097
40
0.51703519867097
40
0.549177141164606
40
0.549177141164606
40
0.581319083658242
40
0.581319083658242
40
0.613461026151878
40
0.613461026151878
40
0.629531997398696
40
0.629531997398696
40
0.645602968645514
40
0.645602968645514
40
0.67774491113915
40
0.67774491113915
40
0.709886853632787
40
0.709886853632787
40
0.742028796126423
40
0.742028796126423
40
0.774170738620059
40
0.774170738620059
40
0.806312681113695
40
0.806312681113695
40
0.838454623607331
40
0.838454623607331
40
0.870596566100967
40
0.870596566100967
40
0.902738508594603
40
0.902738508594603
40
0.93488045108824
40
0.93488045108824
40
0.967022393581876
40
0.967022393581876
40
0.999164336075512
40
0.999164336075512
40
1
40
1
40
1
40
1
41
1
10
7.03140743370435
20
2.21970921295332
30
0
41
1
10
7.04488477607103
20
2.21973613916882
30
0
41
1
10
7.05836563985761
20
2.21971814872424
30
0
41
1
10
7.22865132619484
20
2.2189256563023
30
0
41
1
10
7.38538553183548
20
2.21164274363918
30
0
41
1
10
7.69859535997082
20
2.18457137933893
30
0
41
1
10
7.85508713739381
20
2.16528919177779
30
0
41
1
10
8.16809312555239
20
2.11406765312336
30
0
41
1
10
8.32518557157817
20
2.08110791279705
30
0
41
1
10
8.63876864875743
20
2.004299960949
30
0
41
1
10
8.79536629898433
20
1.96043881979983
30
0
41
1
10
9.10820259502765
20
1.86267597890009
30
0
41
1
10
9.26485167023168
20
1.80734798118647
30
0
41
1
10
9.57900350210357
20
1.68646169948542
30
0
41
1
10
9.73576884790367
20
1.62132944691024
30
0
41
1
10
9.97049920295103
20
1.51760952619605
30
0
41
1
10
10.0486436607629
20
1.48200007170999
30
0
41
1
10
10.2051097009403
20
1.4082556622017
30
0
41
1
10
10.2834802529141
20
1.37012235891342
30
0
41
1
10
10.5189518245069
20
1.25274231547445
30
0
41
1
10
10.6762751458344
20
1.17069779556272
30
0
41
1
10
10.9896076755014
20
1.00110535968477
30
0
41
1
10
11.1458100863996
20
0.913368102715367
30
0
41
1
10
11.4593737105279
20
0.732356891582981
30
0
41
1
10
11.6169077784593
20
0.639203592956989
30
0
41
1
10
11.9301913823053
20
0.450459643996766
30
0
41
1
10
12.0858832144039
20
0.354656339667088
30
0
41
1
10
12.3968581704332
20
0.162787251535207
30
0
41
1
10
12.5520592389866
20
0.0665661945094769
30
0
41
1
10
12.862115511718
20
-0.126166265461904
30
0
41
1
10
13.0167650345367
20
-0.223020879404913
30
0
41
1
10
13.327284455305
20
-0.414382938280482
30
0
41
1
10
13.483148986718
20
-0.508877208633265
30
0
41
1
10
13.7958827611612
20
-0.69594468649484
30
0
41
1
10
13.9529638306121
20
-0.789048879798969
30
0
41
1
10
14.2664426887691
20
-0.969166948096046
30
0
41
1
10
14.4230567202896
20
-1.05554290099281
30
0
41
1
10
14.7362668104491
20
-1.2227540260472
30
0
41
1
10
14.8926897805935
20
-1.30380692910307
30
0
41
1
10
15.2065740082545
20
-1.45871020352038
30
0
41
1
10
15.363206997052
20
-1.53118667578877
30
0
41
1
10
15.676218060086
20
-1.66619121466167
30
0
41
1
10
15.8324729613019
20
-1.72949850319446
30
0
41
1
10
16.0672555006437
20
-1.81838016914855
30
0
41
1
10
16.1457093459239
20
-1.84698796130968
30
0
41
1
10
16.3025236444749
20
-1.90055822368299
30
0
41
1
10
16.3808278006849
20
-1.92557297269516
30
0
41
1
10
16.6155578315015
20
-1.99613600963511
30
0
41
1
10
16.7716942691115
20
-2.03750115714641
30
0
41
1
10
17.0842159885649
20
-2.11051570573986
30
0
41
1
10
17.241108063139
20
-2.14205410283569
30
0
41
1
10
17.5543726694303
20
-2.18959367693685
30
0
41
1
10
17.7105335073792
20
-2.20688036787112
30
0
41
1
10
18.0227809969471
20
-2.23001009250868
30
0
41
1
10
18.1791104201913
20
-2.23632756598693
30
0
41
1
10
18.492680219323
20
-2.23334797911724
30
0
41
1
10
18.6488437859051
20
-2.22484626805178
30
0
41
1
10
18.9595639647967
20
-2.19662872986481
30
0
41
1
10
19.1146537010907
20
-2.17743834074216
30
0
41
1
10
19.4243775050442
20
-2.12568240821665
30
0
41
1
10
19.5790036144897
20
-2.09307533387138
30
0
41
1
10
19.8883479077263
20
-2.01628568503648
30
0
41
1
10
20.0432827689273
20
-1.9732350793457
30
0
41
1
10
20.3543790667571
20
-1.8752589450618
30
0
41
1
10
20.5107826947236
20
-1.81997850647619
30
0
41
1
10
20.8240000645198
20
-1.69823779941603
30
0
41
1
10
20.980340784582
20
-1.6330869697926
30
0
41
1
10
21.2931080020069
20
-1.49447741382593
30
0
41
1
10
21.449452388212
20
-1.42032957846288
30
0
41
1
10
21.6100408113928
20
-1.33965760944534
30
0
41
1
10
21.6141103963988
20
-1.3376107009243
30
0
41
1
10
21.6181801888853
20
-1.33556116819352
30
0
0
SPLINE
5
F2
100
AcDbEntity
8
1
62
256
6
ByLayer
370
18
48
1
60
0
100
AcDbSpline
70
4
71
3
72
28
73
24
40
0
40
0
40
0
40
0
40
0.0037357969339339
40
0.0037357969339339
40
0.0867578138561071
40
0.0867578138561071
40
0.16977983077828
40
0.16977983077828
40
0.252801847700453
40
0.252801847700453
40
0.335823864622626
40
0.335823864622626
40
0.418845881544799
40
0.418845881544799
40
0.501867898466972
40
0.501867898466972
40
0.584889915389145
40
0.584889915389145
40
0.667911932311318
40
0.667911932311318
40
0.833955966155659
40
0.833955966155659
40
1
40
1
40
1
40
1
41
1
10
29.5364722517855
20
2.24823390464798
30
0
41
1
10
29.5434188273231
20
2.24821690181403
30
0
41
1
10
29.5503653944649
20
2.24818566142605
30
0
41
1
10
29.7116894711935
20
2.2471286362011
30
0
41
1
10
29.8663284888089
20
2.23962705334338
30
0
41
1
10
30.1758977689086
20
2.21405176260555
30
0
41
1
10
30.3306540855648
20
2.19607600374303
30
0
41
1
10
30.6416969836184
20
2.14486304621778
30
0
41
1
10
30.7987233497103
20
2.11213381865082
30
0
41
1
10
31.111676231436
20
2.03543001667208
30
0
41
1
10
31.26778144431
20
1.9912604308833
30
0
41
1
10
31.5798831113259
20
1.89196505908186
30
0
41
1
10
31.7362913470279
20
1.83713936393019
30
0
41
1
10
32.0496981146455
20
1.71773081250547
30
0
41
1
10
32.2058659710525
20
1.65331143170175
30
0
41
1
10
32.5176765072445
20
1.51410537612122
30
0
41
1
10
32.6737492052341
20
1.43981674698836
30
0
41
1
10
32.9866658551347
20
1.28344383564882
30
0
41
1
10
33.1433875518388
20
1.20124206930879
30
0
41
1
10
33.6096945668385
20
0.945783372236235
30
0
41
1
10
33.9188860726935
20
0.765391438843324
30
0
41
1
10
34.5364606109615
20
0.389147926480632
30
0
41
1
10
34.8462444900363
20
0.195161079402936
30
0
41
1
10
35.1588085550519
20
-0.0019507263287153
30
0
0
SPLINE
5
F3
100
AcDbEntity
8
1
62
256
6
ByLayer
370
18
48
1
60
0
100
AcDbSpline
70
4
71
3
72
14
73
10
40
0
40
0
40
0
40
0
40
0.25
40
0.25
40
0.5
40
0.5
40
0.75
40
0.75
40
1
40
1
40
1
40
1
41
1
10
37.2131433421789
20
-2.23406842534857
30
0
41
1
10
37.2149640455114
20
-2.23217330365131
30
0
41
1
10
37.2162196109502
20
-2.23183306135724
30
0
41
1
10
37.217262138579
20
-2.23519318508824
30
0
41
1
10
37.2170263700219
20
-2.23893131712887
30
0
41
1
10
37.2143301225985
20
-2.25192645258591
30
0
41
1
10
37.2118350162228
20
-2.26118642661029
30
0
41
1
10
37.20486230169
20
-2.28355549412609
30
0
41
1
10
37.2003812048266
20
-2.29666384048284
30
0
41
1
10
37.1956502068592
20
-2.30965988213413
30
0
0
SPLINE
5
F4
100
AcDbEntity
8
1
62
256
6
ByLayer
370
18
48
1
60
0
100
AcDbSpline
70
4
71
3
72
18
73
14
40
0
40
0
40
0
40
0
40
0.125
40
0.125
40
0.249999999999999
40
0.249999999999999
40
0.499999999999999
40
0.499999999999999
40
0.624999999999999
40
0.624999999999999
40
0.749999999999999
40
0.749999999999999
40
1
40
1
40
1
40
1
41
1
10
37.6994998617278
20
1.0073181551775
30
0
41
1
10
37.7067553266819
20
0.987967044231624
30
0
41
1
10
37.7126229404862
20
0.968352661576432
30
0
41
1
10
37.7207243375808
20
0.928406690402483
30
0
41
1
10
37.7229317406432
20
0.907870611873534
30
0
41
1
10
37.7221713070819
20
0.847853117526057
30
0
41
1
10
37.7110064799247
20
0.808497513875409
30
0
41
1
10
37.6805617872003
20
0.758094125403431
30
0
41
1
10
37.6682280702191
20
0.742492333619879
30
0
41
1
10
37.6412326466026
20
0.714317314995554
30
0
41
1
10
37.6264425523946
20
0.701519963605421
30
0
41
1
10
37.5791793972715
20
0.665953824732298
30
0
41
1
10
37.5447464220424
20
0.646555175155868
30
0
41
1
10
37.5091454042017
20
0.629619522519391
30
0
0
SPLINE
5
F5
100
AcDbEntity
8
1
62
256
6
ByLayer
370
18
48
1
60
0
100
AcDbSpline
70
4
71
3
72
8
73
4
40
0
40
0
40
0
40
0
40
1
40
1
40
1
40
1
41
1
10
37.6994998617278
20
-1.0073181551775
30
0
41
1
10
37.7000589476561
20
-1.00730880835201
30
0
41
1
10
37.7006180249062
20
-1.0072994602715
30
0
41
1
10
37.7011770934647
20
-1.00729011093529
30
0
0
SPLINE
5
F6
100
AcDbEntity
8
1
62
256
6
ByLayer
370
18
48
1
60
0
100
AcDbSpline
70
4
71
3
72
11
73
7
40
0
40
0
40
0
40
0
40
0.0027027297928601
40
0.29035861717399
40
0.702288024884595
40
1
40
1
40
1
40
1
41
1
10
12.5431248949247
20
0.0752998376917446
30
0
41
1
10
12.5431159775053
20
0.0753057330478555
30
0
41
1
10
12.5421207816529
20
0.0759582027793329
30
0
41
1
10
12.5299693768752
20
0.082549744367725
30
0
41
1
10
12.4792771227734
20
0.111335522668213
30
0
41
1
10
12.4259655096052
20
0.144591696221738
30
0
41
1
10
12.4001199867909
20
0.160872238868279
30
0
0
SPLINE
5
F7
100
AcDbEntity
8
1
62
256
6
ByLayer
370
18
48
1
60
0
100
AcDbSpline
70
4
71
3
72
24
73
20
40
0
40
0
40
0
40
0
40
0.0006264769351196
40
0.0012935998965577
40
0.0024826558794287
40
0.0045990153381901
40
0.008357054556127
40
0.0150062035975122
40
0.0267184391151313
40
0.0490554930502893
40
0.107404505370767
40
0.214923537557723
40
0.37392208163708
40
0.526107149404423
40
0.72139678840447
40
0.766610884267426
40
0.816853469766761
40
0.907753582161492
40
1
40
1
40
1
40
1
41
1
10
19.8814108010727
20
-0.549358674216251
30
0
41
1
10
19.8814176430269
20
-0.549370328569012
30
0
41
1
10
19.8814565389892
20
-0.549397588305965
30
0
41
1
10
19.8813366282739
20
-0.549427911449868
30
0
41
1
10
19.8812501785612
20
-0.54948665811412
30
0
41
1
10
19.8810960463152
20
-0.549586800177224
30
0
41
1
10
19.8810245882808
20
-0.54977352702582
30
0
41
1
10
19.8814312195694
20
-0.550122916592102
30
0
41
1
10
19.8839445751755
20
-0.550857005112135
30
0
41
1
10
19.8987704274504
20
-0.553280660173385
30
0
41
1
10
19.9495503516204
20
-0.560648471804797
30
0
41
1
10
20.0524095464604
20
-0.578182330935164
30
0
41
1
10
20.1910304955293
20
-0.617925492816738
30
0
41
1
10
20.3729768560197
20
-0.678256265604517
30
0
41
1
10
20.5413769795374
20
-0.752827725831622
30
0
41
1
10
20.6882307342249
20
-0.825917171828678
30
0
41
1
10
20.7880336811941
20
-0.877337021978747
30
0
41
1
10
20.9176122840411
20
-0.946078991874288
30
0
41
1
10
21.0202767450427
20
-1.00445286814875
30
0
41
1
10
21.0725456796971
20
-1.03497775878992
30
0
0
SPLINE
5
F8
100
AcDbEntity
8
1
62
256
6
ByLayer
370
18
48
1
60
0
100
AcDbSpline
70
4
71
3
72
10
73
6
40
0
40
0
40
0
40
0
40
0.244558724959245
40
0.559814502057665
40
1
40
1
40
1
40
1
41
1
10
23.7883824007916
20
0.0768898077004962
30
0
41
1
10
23.7893553915444
20
0.076597308152202
30
0
41
1
10
23.7848014712167
20
0.0796839258393618
30
0
41
1
10
23.725607409495
20
0.113873751233427
30
0
41
1
10
23.6537672360221
20
0.158371828765922
30
0
41
1
10
23.6002060643823
20
0.191695100249746
30
0
0
SPLINE
5
F9
100
AcDbEntity
8
1
62
256
6
ByLayer
370
18
48
1
60
0
100
AcDbSpline
70
4
71
3
72
17
73
13
40
0
40
0
40
0
40
0
40
0.0097999216209134
40
0.055270349796959
40
0.132217678053708
40
0.319758783158077
40
0.497523180400319
40
0.548274254654912
40
0.593037143265036
40
0.645635006099368
40
0.803665838620763
40
1
40
1
40
1
40
1
41
1
10
8.6267738274633
20
-0.548645780672075
30
0
41
1
10
8.6267266792735
20
-0.548681855873951
30
0
41
1
10
8.62821618255248
20
-0.549081288882235
30
0
41
1
10
8.6633969466485
20
-0.554257997432785
30
0
41
1
10
8.76863096021395
20
-0.573241954494705
30
0
41
1
10
8.92688997733461
20
-0.609849043789268
30
0
41
1
10
9.07658649443817
20
-0.663125510312682
30
0
41
1
10
9.19266818668288
20
-0.711223802658793
30
0
41
1
10
9.26117297499181
20
-0.74102398936526
30
0
41
1
10
9.39972383022484
20
-0.804031489404764
30
0
41
1
10
9.64397242933771
20
-0.927511804965064
30
0
41
1
10
9.85867279591264
20
-1.05188420427953
30
0
41
1
10
9.98131032504972
20
-1.12757039045721
30
0
0
SPLINE
5
FA
100
AcDbEntity
8
1
62
256
6
ByLayer
370
18
48
1
60
0
100
AcDbSpline
70
4
71
3
72
17
73
13
40
0
40
0
40
0
40
0
40
0.135259039912966
40
0.227348027032677
40
0.304111718434375
40
0.386482840629562
40
0.469583982559817
40
0.674208424186639
40
0.721013351316165
40
0.786708371046349
40
0.884921215035854
40
1
40
1
40
1
40
1
41
1
10
14.1913056634175
20
-2.22818051513096
30
0
41
1
10
14.3756997472707
20
-2.22835938623669
30
0
41
1
10
14.6856705694148
20
-2.22876698695666
30
0
41
1
10
15.1004787357535
20
-2.22967531946534
30
0
41
1
10
15.4430480728469
20
-2.23038744039451
30
0
41
1
10
15.7734813546573
20
-2.22970156188876
30
0
41
1
10
16.2782723955284
20
-2.2326989826075
30
0
41
1
10
16.7345798500056
20
-2.23027354698428
30
0
41
1
10
17.167124971747
20
-2.23313165134229
30
0
41
1
10
17.4545348983406
20
-2.23381639460686
30
0
41
1
10
17.8350695663815
20
-2.23295353596822
30
0
41
1
10
18.1259952867362
20
-2.23408352109661
30
0
41
1
10
18.2829602196217
20
-2.23488833900978
30
0
0
SPLINE
5
FB
100
AcDbEntity
8
1
62
256
6
ByLayer
370
18
48
1
60
0
100
AcDbSpline
70
4
71
2
72
6
73
3
40
0
40
0
40
0
40
1
40
1
40
1
41
1
10
36.72621362523
20
-2.25554529721987
30
0
41
1
10
36.954484090833
20
-2.25378399850592
30
0
41
1
10
37.1824928209149
20
-2.25713057179556
30
0
0
SPLINE
5
FC
100
AcDbEntity
8
1
62
256
6
ByLayer
370
18
48
1
60
0
100
AcDbSpline
70
4
71
3
72
17
73
13
40
0
40
0
40
0
40
0
40
0.157096639248837
40
0.272383144444455
40
0.366146535951446
40
0.44899157856772
40
0.528098452155992
40
0.610708741837334
40
0.705751146676731
40
0.813473499403725
40
0.912398385301629
40
1
40
1
40
1
40
1
41
1
10
29.5305106014468
20
2.2479876451734
30
0
41
1
10
29.3525345927106
20
2.24735224720303
30
0
41
1
10
29.0439492862436
20
2.24659600622147
30
0
41
1
10
28.62913781626
20
2.24677479752646
30
0
41
1
10
28.298446409768
20
2.24684586209938
30
0
41
1
10
28.0087458295577
20
2.24540952509514
30
0
41
1
10
27.731678862051
20
2.24511653698247
30
0
41
1
10
27.4407929561569
20
2.24546076837419
30
0
41
1
10
27.117489088623
20
2.24440048328538
30
0
41
1
10
26.7757021941326
20
2.24385112108476
30
0
41
1
10
26.4423412726264
20
2.24407809496475
30
0
41
1
10
26.2310296860289
20
2.2435475753596
30
0
41
1
10
26.1317893913488
20
2.24330960394659
30
0
0
SPLINE
5
FD
100
AcDbEntity
8
1
62
256
6
ByLayer
370
18
48
1
60
0
100
AcDbSpline
70
4
71
3
72
25
73
21
40
0
40
0
40
0
40
0
40
5.29301293132E-05
40
0.0005722203714831
40
0.0009750690541083
40
0.0016967302231035
40
0.0029927305494736
40
0.0053305023919106
40
0.0095807862363973
40
0.0174165151914411
40
0.0322163925822283
40
0.0613088160724934
40
0.120031417738035
40
0.22783695363462
40
0.34039700851486
40
0.459292932989752
40
0.562118811498691
40
0.647309969595912
40
0.792265178346
40
1
40
1
40
1
40
1
41
1
10
31.1411391301382
20
-0.54994465507599
30
0
41
1
10
31.1411358207834
20
-0.54994487301343
30
0
41
1
10
31.1411210639847
20
-0.549949392751188
30
0
41
1
10
31.1413624400923
20
-0.54998369704262
30
0
41
1
10
31.1413648303313
20
-0.550000756346691
30
0
41
1
10
31.1415137145054
20
-0.550040212391366
30
0
41
1
10
31.1417138329139
20
-0.550103590825273
30
0
41
1
10
31.1421869707044
20
-0.550227017965426
30
0
41
1
10
31.1432029619846
20
-0.550460845521201
30
0
41
1
10
31.1457051720935
20
-0.550941815480257
30
0
41
1
10
31.1523683767937
20
-0.552035722199605
30
0
41
1
10
31.1714116084155
20
-0.55506340108829
30
0
41
1
10
31.2206304420546
20
-0.564120904323261
30
0
41
1
10
31.3125332252241
20
-0.583513360677898
30
0
41
1
10
31.4328883749911
20
-0.614438472846388
30
0
41
1
10
31.5591873123087
20
-0.656302594612555
30
0
41
1
10
31.6677566083345
20
-0.700374963833212
30
0
41
1
10
31.8314320185617
20
-0.771733012475721
30
0
41
1
10
32.0702144696032
20
-0.889943495567906
30
0
41
1
10
32.269553149576
20
-1.00211568808464
30
0
41
1
10
32.3916238405796
20
-1.07539482508611
30
0
0
SPLINE
5
FE
100
AcDbEntity
8
1
62
256
6
ByLayer
370
18
48
1
60
0
100
AcDbSpline
70
4
71
3
72
15
73
11
40
0
40
0
40
0
40
0
40
0.152732372081224
40
0.27276224074401
40
0.34657419254141
40
0.41317918099747
40
0.675647094775707
40
0.80147493730736
40
0.911711086206661
40
1
40
1
40
1
40
1
41
1
10
18.2819327013707
20
2.23489653794584
30
0
41
1
10
18.1107050971132
20
2.23404567781719
30
0
41
1
10
17.8049121114937
20
2.2328292258583
30
0
41
1
10
17.4163657760675
20
2.23398166690961
30
0
41
1
10
17.1243793254011
20
2.23277524640275
30
0
41
1
10
16.6727107666137
20
2.23045493709509
30
0
41
1
10
16.1627150637292
20
2.23142285385063
30
0
41
1
10
15.6038132154626
20
2.22990989947857
30
0
41
1
10
15.240175889052
20
2.23017237597441
30
0
41
1
10
15.017616475728
20
2.22958730218383
30
0
41
1
10
14.9186396855037
20
2.22933418324911
30
0
0
SPLINE
5
FF
100
AcDbEntity
8
1
62
256
6
ByLayer
370
18
48
1
60
0
100
AcDbSpline
70
4
71
3
72
15
73
11
40
0
40
0
40
0
40
0
40
0.116392208449457
40
0.245726505527235
40
0.353315787750065
40
0.462848658455769
40
0.564272128422556
40
0.66660163885431
40
0.81794638097367
40
1
40
1
40
1
40
1
41
1
10
4.25047777152801
20
-2.21663887616444
30
0
41
1
10
4.35847394756982
20
-2.21689142700086
30
0
41
1
10
4.58647603051108
20
-2.21735015839528
30
0
41
1
10
4.91431164609162
20
-2.21778308435606
30
0
41
1
10
5.23578431332925
20
-2.217995099392
30
0
41
1
10
5.5313592001678
20
-2.21809880013106
30
0
41
1
10
5.82205114303025
20
-2.21815499693952
30
0
41
1
10
6.15154172883183
20
-2.21908714095289
30
0
41
1
10
6.55584876526723
20
-2.21940133395293
30
0
41
1
10
6.86520329224572
20
-2.21969103749331
30
0
41
1
10
7.03412731424214
20
-2.21978167456703
30
0
0
SPLINE
5
100
100
AcDbEntity
8
1
62
256
6
ByLayer
370
18
48
1
60
0
100
AcDbSpline
70
4
71
3
72
18
73
14
40
0
40
0
40
0
40
0
40
0.141378800739106
40
0.234209072351793
40
0.30574355113747
40
0.381071996539563
40
0.451037788574498
40
0.515077794589501
40
0.689916606714726
40
0.732248334252845
40
0.79080926797881
40
0.885561453271855
40
1
40
1
40
1
40
1
41
1
10
25.4411855743263
20
-2.24237616923884
30
0
41
1
10
25.6338422601378
20
-2.24248493448988
30
0
41
1
10
25.9530143980058
20
-2.24274098859291
30
0
41
1
10
26.3697138211664
20
-2.24398118943267
30
0
41
1
10
26.6963999665335
20
-2.24401397512418
30
0
41
1
10
26.9919290195332
20
-2.24386519656957
30
0
41
1
10
27.2772386874096
20
-2.24523052886903
30
0
41
1
10
27.6981795413936
20
-2.24518889923695
30
0
41
1
10
28.0814596160532
20
-2.24603729181749
30
0
41
1
10
28.4572557680267
20
-2.24695091666476
30
0
41
1
10
28.7239037020028
20
-2.24654919816504
30
0
41
1
10
29.0888364044438
20
-2.24700105421539
30
0
41
1
10
29.3739519421034
20
-2.24755368203586
30
0
41
1
10
29.5299260387068
20
-2.24799672920125
30
0
0
SPLINE
5
101
100
AcDbEntity
8
1
62
256
6
ByLayer
370
18
48
1
60
0
100
AcDbSpline
70
4
71
3
72
14
73
10
40
0
40
0
40
0
40
0
40
0.18700706327459
40
0.333541510197307
40
0.476593385869367
40
0.58427036740824
40
0.687997736288225
40
0.845237690949472
40
1
40
1
40
1
40
1
41
1
10
7.03490109159091
20
2.21978360692094
30
0
41
1
10
6.86132874312932
20
2.2197017773926
30
0
41
1
10
6.55174826107529
20
2.21944370131271
30
0
41
1
10
6.10938884561352
20
2.21898133588394
30
0
41
1
10
5.74066223791195
20
2.2180725945714
30
0
41
1
10
5.41166853701714
20
2.21807111234915
30
0
41
1
10
5.06950271971596
20
2.2179117581766
30
0
41
1
10
4.68367505038629
20
2.21751285428908
30
0
41
1
10
4.39410816291198
20
2.21695398882656
30
0
41
1
10
4.25047657459044
20
2.21661810760168
30
0
0
LINE
5
7B
100
AcDbEntity
8
SK1
62
256
6
ByLayer
370
18
48
1
60
0
100
AcDbLine
10
-36
20
-0.205836
30
0
11
-36
21
-2.1
31
0
39
0
210
0
220
0
230
1
0
LINE
5
7D
100
AcDbEntity
8
SK1
62
256
6
ByLayer
370
18
48
1
60
0
100
AcDbLine
10
-36
20
1.241001
30
0
11
-36
21
0.205836
31
0
39
0
210
0
220
0
230
1
0
LINE
5
7E
100
AcDbEntity
8
SK1
62
256
6
ByLayer
370
18
48
1
60
0
100
AcDbLine
10
-35.65
20
-0.003648
30
0
11
-35.65
21
1.250278
31
0
39
0
210
0
220
0
230
1
0
LINE
5
7F
100
AcDbEntity
8
SK1
62
256
6
ByLayer
370
18
48
1
60
0
100
AcDbLine
10
0
20
-3
30
0
11
0
21
3
31
0
39
0
210
0
220
0
230
1
0
LINE
5
80
100
AcDbEntity
8
SK1
62
256
6
ByLayer
370
13
48
1
60
0
100
AcDbLine
10
-35.75
20
1.311086
30
0
11
-35.75
21
0.135752
31
0
39
0
210
0
220
0
230
1
0
LINE
5
81
100
AcDbEntity
8
SK1
62
256
6
ByLayer
370
18
48
1
60
0
100
AcDbLine
10
-35.1
20
3
30
0
11
-35.1
21
-3
31
0
39
0
210
0
220
0
230
1
0
LINE
5
82
100
AcDbEntity
8
SK1
62
256
6
ByLayer
370
18
48
1
60
0
100
AcDbLine
10
-36
20
2.1
30
0
11
-36
21
1.241001
31
0
39
0
210
0
220
0
230
1
0
LINE
5
83
100
AcDbEntity
8
1
62
256
6
ByLayer
370
18
48
1
60
0
100
AcDbLine
10
37.954312
20
-0.102515
30
0
11
36.803439
21
-1.649296
31
0
39
0
210
0
220
0
230
1
0
LINE
5
84
100
AcDbEntity
8
1
62
256
6
ByLayer
370
18
48
1
60
0
100
AcDbLine
10
37.954312
20
-0.102515
30
0
11
37.776238
21
-0.591771
31
0
39
0
210
0
220
0
230
1
0
LINE
5
85
100
AcDbEntity
8
1
62
256
6
ByLayer
370
18
48
1
60
0
100
AcDbLine
10
37.701177
20
-1.00729
30
0
11
37.701122
21
-1.007318
31
0
39
0
210
0
220
0
230
1
0
LINE
5
86
100
AcDbEntity
8
1
62
256
6
ByLayer
370
13
48
1
60
0
100
AcDbLine
10
37.989828
20
0.054454
30
0
11
37.112346
21
0.604182
31
0
39
0
210
0
220
0
230
1
0
LINE
5
87
100
AcDbEntity
8
1
62
256
6
ByLayer
370
18
48
1
60
0
100
AcDbLine
10
37.954312
20
-0.102515
30
0
11
37.966319
21
-0.073975
31
0
39
0
210
0
220
0
230
1
0
LINE
5
88
100
AcDbEntity
8
1
62
256
6
ByLayer
370
18
48
1
60
0
100
AcDbLine
10
37.989828
20
0.054454
30
0
11
37.877565
21
0.464243
31
0
39
0
210
0
220
0
230
1
0
LINE
5
89
100
AcDbEntity
8
1
62
256
6
ByLayer
370
18
48
1
60
0
100
AcDbLine
10
0
20
-3
30
0
11
0
21
3
31
0
39
0
210
0
220
0
230
1
0
LINE
5
8A
100
AcDbEntity
8
1
62
256
6
ByLayer
370
18
48
1
60
0
100
AcDbLine
10
37.17131
20
-2.253797
30
0
11
37.179917
21
-2.25598
31
0
39
0
210
0
220
0
230
1
0
LINE
5
8B
100
AcDbEntity
8
1
62
256
6
ByLayer
370
18
48
1
60
0
100
AcDbLine
10
37.989828
20
-0.054454
30
0
11
37.877565
21
-0.464243
31
0
39
0
210
0
220
0
230
1
0
LINE
5
8C
100
AcDbEntity
8
1
62
256
6
ByLayer
370
13
48
1
60
0
100
AcDbLine
10
1.319103
20
2.306918
30
0
11
1.319103
21
-2.306918
31
0
39
0
210
0
220
0
230
1
0
LINE
5
8D
100
AcDbEntity
8
1
62
256
6
ByLayer
370
18
48
1
60
0
100
AcDbLine
10
37.538914
20
-1.243811
30
0
11
37.17131
21
-2.253797
31
0
39
0
210
0
220
0
230
1
0
LINE
5
8E
100
AcDbEntity
8
1
62
256
6
ByLayer
370
13
48
1
60
0
100
AcDbLine
10
37.966319
20
-0.073975
30
0
11
37.059126
21
0.494366
31
0
39
0
210
0
220
0
230
1
0
LINE
5
8F
100
AcDbEntity
8
1
62
256
6
ByLayer
370
13
48
1
60
0
100
AcDbLine
10
0.659072
20
2.653459
30
0
11
0.659072
21
-2.653459
31
0
39
0
210
0
220
0
230
1
0
LINE
5
90
100
AcDbEntity
8
1
62
256
6
ByLayer
370
18
48
1
60
0
100
AcDbLine
10
38
20
0.019322
30
0
11
38
21
-0.019322
31
0
39
0
210
0
220
0
230
1
0
LINE
5
91
100
AcDbEntity
8
1
62
256
6
ByLayer
370
18
48
1
60
0
100
AcDbLine
10
8.631057
20
-0.548697
30
0
11
8.631013
21
-0.548698
31
0
39
0
210
0
220
0
230
1
0
LINE
5
92
100
AcDbEntity
8
80
62
256
6
ByLayer
370
18
48
1
60
0
100
AcDbLine
10
0
20
0
30
0
11
-5
21
0
31
0
39
0
210
0
220
0
230
1
0
LINE
5
93
100
AcDbEntity
8
4
62
256
6
ByLayer
370
18
48
0.05
60
0
100
AcDbLine
10
38
20
0
30
0
11
0
21
0
31
0
39
0
210
0
220
0
230
1
0
LINE
5
95
100
AcDbEntity
8
SK4
62
256
6
ByLayer
370
18
48
0.05
60
0
100
AcDbLine
10
43
20
0
30
0
11
-41
21
0
31
0
39
0
210
0
220
0
230
1
0
LINE
5
97
100
AcDbEntity
8
SK1
62
256
6
ByLayer
370
18
48
1
60
0
100
AcDbLine
10
-36
20
-2.1
30
0
11
-35.1
21
-3
31
0
39
0
210
0
220
0
230
1
0
LINE
5
98
100
AcDbEntity
8
SK1
62
256
6
ByLayer
370
18
48
1
60
0
100
AcDbLine
10
-35.1
20
3
30
0
11
-36
21
2.1
31
0
39
0
210
0
220
0
230
1
0
LINE
5
99
100
AcDbEntity
8
SK1
62
256
6
ByLayer
370
18
48
1
60
0
100
AcDbLine
10
-35.1
20
-3
30
0
11
0
21
-3
31
0
39
0
210
0
220
0
230
1
0
LINE
5
9A
100
AcDbEntity
8
SK1
62
256
6
ByLayer
370
18
48
1
60
0
100
AcDbLine
10
0
20
3
30
0
11
-35.1
21
3
31
0
39
0
210
0
220
0
230
1
0
LINE
5
9B
100
AcDbEntity
8
1
62
256
6
ByLayer
370
18
48
1
60
0
100
AcDbLine
10
1.319103
20
-2.306918
30
0
11
4.05496
21
-2.310201
31
0
39
0
210
0
220
0
230
1
0
LINE
5
9C
100
AcDbEntity
8
1
62
256
6
ByLayer
370
18
48
1
60
0
100
AcDbLine
10
13.794368
20
-2.321888
30
0
11
14.032078
21
-2.322173
31
0
39
0
210
0
220
0
230
1
0
LINE
5
9D
100
AcDbEntity
8
1
62
256
6
ByLayer
370
18
48
1
60
0
100
AcDbLine
10
25.055531
20
-2.335401
30
0
11
25.281728
21
-2.335673
31
0
39
0
210
0
220
0
230
1
0
LINE
5
9E
100
AcDbEntity
8
1
62
256
6
ByLayer
370
18
48
1
60
0
100
AcDbLine
10
36.313139
20
-2.348911
30
0
11
36.533139
21
-2.349175
31
0
39
0
210
0
220
0
230
1
0
LINE
5
9F
100
AcDbEntity
8
1
62
256
6
ByLayer
370
18
48
1
60
0
100
AcDbLine
10
36.533103
20
2.349174
30
0
11
36.313139
21
2.348911
31
0
39
0
210
0
220
0
230
1
0
LINE
5
A0
100
AcDbEntity
8
1
62
256
6
ByLayer
370
18
48
1
60
0
100
AcDbLine
10
25.28248
20
2.335674
30
0
11
25.055531
21
2.335401
31
0
39
0
210
0
220
0
230
1
0
LINE
5
A1
100
AcDbEntity
8
1
62
256
6
ByLayer
370
18
48
1
60
0
100
AcDbLine
10
14.031357
20
2.322172
30
0
11
13.794368
21
2.321888
31
0
39
0
210
0
220
0
230
1
0
LINE
5
A2
100
AcDbEntity
8
1
62
256
6
ByLayer
370
18
48
1
60
0
100
AcDbLine
10
4.05496
20
2.310201
30
0
11
1.319103
21
2.306918
31
0
39
0
210
0
220
0
230
1
0
LINE
5
A3
100
AcDbEntity
8
81
62
256
6
ByLayer
370
18
48
1
60
0
100
AcDbLine
10
38
20
0
30
0
11
43
21
0
31
0
39
0
210
0
220
0
230
1
0
LINE
5
A4
100
AcDbEntity
8
SK2
62
256
6
ByLayer
370
13
48
1
60
0
100
AcDbLine
10
-44.625163
20
32.117107
30
0
11
-44.625163
21
-11.75
31
0
39
0
210
0
220
0
230
1
0
LINE
5
A6
100
AcDbEntity
8
SK2
62
256
6
ByLayer
370
13
48
1
60
0
100
AcDbLine
10
-37.5875
20
3
30
0
11
-46.625163
21
3
31
0
39
0
210
0
220
0
230
1
0
LINE
5
A7
100
AcDbEntity
8
SK2
62
256
6
ByLayer
370
13
48
1
60
0
100
AcDbLine
10
-37.5875
20
-3
30
0
11
-46.625163
21
-3
31
0
39
0
210
0
220
0
230
1
0
LINE
5
A8
100
AcDbEntity
8
1
62
256
6
ByLayer
370
18
48
1
60
1
100
AcDbLine
10
-44.625163
20
3
30
0
11
-45.085946
21
6.499998
31
0
39
0
210
0
220
0
230
1
0
LINE
5
A9
100
AcDbEntity
8
1
62
256
6
ByLayer
370
18
48
1
60
1
100
AcDbLine
10
-45.085946
20
6.499998
30
0
11
-44.164379
21
6.500002
31
0
39
0
210
0
220
0
230
1
0
LINE
5
AA
100
AcDbEntity
8
1
62
256
6
ByLayer
370
18
48
1
60
1
100
AcDbLine
10
-44.164379
20
6.500002
30
0
11
-44.625163
21
3
31
0
39
0
210
0
220
0
230
1
0
LINE
5
AB
100
AcDbEntity
8
1
62
256
6
ByLayer
370
18
48
1
60
1
100
AcDbLine
10
-44.625163
20
-3
30
0
11
-44.164379
21
-6.499998
31
0
39
0
210
0
220
0
230
1
0
LINE
5
AC
100
AcDbEntity
8
1
62
256
6
ByLayer
370
18
48
1
60
1
100
AcDbLine
10
-44.164379
20
-6.499998
30
0
11
-45.085946
21
-6.500002
31
0
39
0
210
0
220
0
230
1
0
LINE
5
AD
100
AcDbEntity
8
1
62
256
6
ByLayer
370
18
48
1
60
1
100
AcDbLine
10
-45.085946
20
-6.500002
30
0
11
-44.625163
21
-3
31
0
39
0
210
0
220
0
230
1
0
LINE
5
AE
100
AcDbEntity
8
2
62
256
6
ByLayer
370
13
48
1
60
0
100
AcDbLine
10
50.083343
20
30.428727
30
0
11
50.083343
21
-11.1
31
0
39
0
210
0
220
0
230
1
0
LINE
5
B0
100
AcDbEntity
8
2
62
256
6
ByLayer
370
13
48
1
60
0
100
AcDbLine
10
38.6875
20
2.35
30
0
11
52.083343
21
2.35
31
0
39
0
210
0
220
0
230
1
0
LINE
5
B1
100
AcDbEntity
8
2
62
256
6
ByLayer
370
13
48
1
60
0
100
AcDbLine
10
38.6875
20
-2.35
30
0
11
52.083343
21
-2.35
31
0
39
0
210
0
220
0
230
1
0
LINE
5
B2
100
AcDbEntity
8
1
62
256
6
ByLayer
370
18
48
1
60
1
100
AcDbLine
10
50.083343
20
2.35
30
0
11
49.622559
21
5.849998
31
0
39
0
210
0
220
0
230
1
0
LINE
5
B3
100
AcDbEntity
8
1
62
256
6
ByLayer
370
18
48
1
60
1
100
AcDbLine
10
49.622559
20
5.849998
30
0
11
50.544126
21
5.850002
31
0
39
0
210
0
220
0
230
1
0
LINE
5
B4
100
AcDbEntity
8
1
62
256
6
ByLayer
370
18
48
1
60
1
100
AcDbLine
10
50.544126
20
5.850002
30
0
11
50.083343
21
2.35
31
0
39
0
210
0
220
0
230
1
0
LINE
5
B5
100
AcDbEntity
8
1
62
256
6
ByLayer
370
18
48
1
60
1
100
AcDbLine
10
50.083343
20
-2.35
30
0
11
50.544126
21
-5.849998
31
0
39
0
210
0
220
0
230
1
0
LINE
5
B6
100
AcDbEntity
8
1
62
256
6
ByLayer
370
18
48
1
60
1
100
AcDbLine
10
50.544126
20
-5.849998
30
0
11
49.622559
21
-5.850002
31
0
39
0
210
0
220
0
230
1
0
LINE
5
B7
100
AcDbEntity
8
1
62
256
6
ByLayer
370
18
48
1
60
1
100
AcDbLine
10
49.622559
20
-5.850002
30
0
11
50.083343
21
-2.35
31
0
39
0
210
0
220
0
230
1
0
LINE
5
108
100
AcDbEntity
8
1
62
256
6
ByLayer
370
18
48
1
60
1
100
AcDbLine
10
-44.625163
20
3
30
0
11
-45.085946
21
6.499998
31
0
39
0
210
0
220
0
230
1
0
LINE
5
109
100
AcDbEntity
8
1
62
256
6
ByLayer
370
18
48
1
60
1
100
AcDbLine
10
-45.085946
20
6.499998
30
0
11
-44.164379
21
6.500002
31
0
39
0
210
0
220
0
230
1
0
LINE
5
10A
100
AcDbEntity
8
1
62
256
6
ByLayer
370
18
48
1
60
1
100
AcDbLine
10
-44.164379
20
6.500002
30
0
11
-44.625163
21
3
31
0
39
0
210
0
220
0
230
1
0
LINE
5
10C
100
AcDbEntity
8
1
62
256
6
ByLayer
370
18
48
1
60
1
100
AcDbLine
10
-44.625163
20
-3
30
0
11
-44.164379
21
-6.499998
31
0
39
0
210
0
220
0
230
1
0
LINE
5
10D
100
AcDbEntity
8
1
62
256
6
ByLayer
370
18
48
1
60
1
100
AcDbLine
10
-44.164379
20
-6.499998
30
0
11
-45.085946
21
-6.500002
31
0
39
0
210
0
220
0
230
1
0
LINE
5
10E
100
AcDbEntity
8
1
62
256
6
ByLayer
370
18
48
1
60
1
100
AcDbLine
10
-45.085946
20
-6.500002
30
0
11
-44.625163
21
-3
31
0
39
0
210
0
220
0
230
1
0
LINE
5
112
100
AcDbEntity
8
1
62
256
6
ByLayer
370
18
48
1
60
1
100
AcDbLine
10
50.083343
20
2.35
30
0
11
49.622559
21
5.849998
31
0
39
0
210
0
220
0
230
1
0
LINE
5
113
100
AcDbEntity
8
1
62
256
6
ByLayer
370
18
48
1
60
1
100
AcDbLine
10
49.622559
20
5.849998
30
0
11
50.544126
21
5.850002
31
0
39
0
210
0
220
0
230
1
0
LINE
5
114
100
AcDbEntity
8
1
62
256
6
ByLayer
370
18
48
1
60
1
100
AcDbLine
10
50.544126
20
5.850002
30
0
11
50.083343
21
2.35
31
0
39
0
210
0
220
0
230
1
0
LINE
5
116
100
AcDbEntity
8
1
62
256
6
ByLayer
370
18
48
1
60
1
100
AcDbLine
10
50.083343
20
-2.35
30
0
11
50.544126
21
-5.849998
31
0
39
0
210
0
220
0
230
1
0
LINE
5
117
100
AcDbEntity
8
1
62
256
6
ByLayer
370
18
48
1
60
1
100
AcDbLine
10
50.544126
20
-5.849998
30
0
11
49.622559
21
-5.850002
31
0
39
0
210
0
220
0
230
1
0
LINE
5
118
100
AcDbEntity
8
1
62
256
6
ByLayer
370
18
48
1
60
1
100
AcDbLine
10
49.622559
20
-5.850002
30
0
11
50.083343
21
-2.35
31
0
39
0
210
0
220
0
230
1
0
MTEXT
5
102
100
AcDbEntity
8
SK6
62
256
6
ByLayer
370
13
48
1
60
0
100
AcDbMText
10
-26.280093
20
34.890328
30
0
210
0
220
0
230
1
1
\W0.7275;860.1-0470-024A1-SM 1210
40
3.5
41
0
44
1.084337
50
0
71
7
72
5
7
iso_b_vert
0
MTEXT
5
106
100
AcDbEntity
8
SK2
62
256
6
ByLayer
370
18
48
1
60
0
100
AcDbMText
10
-46.189796
20
16.409024
30
0
210
0
220
0
230
1
1
%%c
40
3.5
41
0
44
1.084337
50
90
71
7
72
5
7
iso_b_vert
0
MTEXT
5
107
100
AcDbEntity
8
SK2
62
256
6
ByLayer
370
18
48
1
60
0
100
AcDbMText
10
-46.189796
20
21.63168
30
0
210
0
220
0
230
1
1
\W0.7317;6,000
40
3.5
41
0
44
1.084337
50
90
71
7
72
5
7
iso_b_vert
0
MTEXT
5
110
100
AcDbEntity
8
2
62
256
6
ByLayer
370
18
48
1
60
0
100
AcDbMText
10
48.518709
20
14.35211
30
0
210
0
220
0
230
1
1
%%c
40
3.5
41
0
44
1.084337
50
90
71
7
72
5
7
iso_b_vert
0
MTEXT
5
111
100
AcDbEntity
8
2
62
256
6
ByLayer
370
18
48
1
60
0
100
AcDbMText
10
48.518709
20
19.574766
30
0
210
0
220
0
230
1
1
\W0.7581;4,700
40
3.5
41
0
44
1.084337
50
90
71
7
72
5
7
iso_b_vert
0
HATCH
5
10B
100
AcDbEntity
8
SK2
62
256
6
ByLayer
370
13
48
1
60
0
100
AcDbHatch
10
0
20
0
30
0
210
0
220
0
230
1
2
ANSI31
70
0
71
0
91
1
92
5
93
3
72
1
10
-44.6251625675374
20
3
11
-45.0859463090902
21
6.49999830744682
72
1
10
-45.0859463090902
20
6.49999830744682
11
-44.1643788259847
21
6.50000169255318
72
1
10
-44.1643788259847
20
6.50000169255318
11
-44.6251625675374
21
3
97
0
75
0
76
1
52
0
41
0.0062
77
0
78
1
53
45
43
0
44
0
45
-0.0139193969876572
46
0.0139193969876572
79
0
47
0
98
1
10
0
20
0
0
HATCH
5
10F
100
AcDbEntity
8
SK2
62
256
6
ByLayer
370
13
48
1
60
0
100
AcDbHatch
10
0
20
0
30
0
210
0
220
0
230
1
2
ANSI31
70
0
71
0
91
1
92
5
93
3
72
1
10
-44.6251625675374
20
-3
11
-44.1643788259847
21
-6.49999830744682
72
1
10
-44.1643788259847
20
-6.49999830744682
11
-45.0859463090902
21
-6.50000169255318
72
1
10
-45.0859463090902
20
-6.50000169255318
11
-44.6251625675374
21
-3
97
0
75
0
76
1
52
0
41
0.0062
77
0
78
1
53
45
43
0
44
0
45
-0.0139193969876572
46
0.0139193969876572
79
0
47
0
98
1
10
0
20
0
0
HATCH
5
115
100
AcDbEntity
8
2
62
256
6
ByLayer
370
13
48
1
60
0
100
AcDbHatch
10
0
20
0
30
0
210
0
220
0
230
1
2
ANSI31
70
0
71
0
91
1
92
5
93
3
72
1
10
50.083342615295
20
2.35000000000002
11
49.6225588737423
21
5.84999830744684
72
1
10
49.6225588737423
20
5.84999830744684
11
50.5441263568478
21
5.85000169255321
72
1
10
50.5441263568478
20
5.85000169255321
11
50.083342615295
21
2.35000000000002
97
0
75
0
76
1
52
0
41
0.0062
77
0
78
1
53
45
43
0
44
0
45
-0.0139193969876572
46
0.0139193969876572
79
0
47
0
98
1
10
0
20
0
0
HATCH
5
119
100
AcDbEntity
8
2
62
256
6
ByLayer
370
13
48
1
60
0
100
AcDbHatch
10
0
20
0
30
0
210
0
220
0
230
1
2
ANSI31
70
0
71
0
91
1
92
5
93
3
72
1
10
50.083342615295
20
-2.34999999999999
11
50.5441263568478
21
-5.84999830744681
72
1
10
50.5441263568478
20
-5.84999830744681
11
49.6225588737423
21
-5.85000169255318
72
1
10
49.6225588737423
20
-5.85000169255318
11
50.083342615295
21
-2.34999999999999
97
0
75
0
76
1
52
0
41
0.0062
77
0
78
1
53
45
43
0
44
0
45
-0.0139193969876572
46
0.0139193969876572
79
0
47
0
98
1
10
0
20
0
0
DIMENSION
5
11B
100
AcDbEntity
8
SK2
62
256
6
ByLayer
370
13
48
1
60
0
100
AcDbDimension
2
_U0
10
37.1
20
-12.563398
30
0
11
18.55
21
-12.563398
31
0
70
32
71
1
72
1
41
1
210
0
220
0
230
1
3
Standard
100
AcDbAlignedDimension
13
0
23
0
33
0
14
37.1
24
-2.35
34
0
50
0
100
AcDbRotatedDimension
1001
ACAD
1000
DSTYLE
1002
{
1070
   371
1070
    13
1070
   372
1070
    13
1070
   170
1070
     0
1070
   144
1040
1.0
1070
   277
1070
     2
1070
   278
1070
    44
1070
   146
1040
1.0
1070
   345
1005
16
1070
   347
1005
16
1070
   346
1005
16
1070
   344
1005
0
1070
   343
1005
0
1070
   172
1070
     1
1070
    76
1070
     0
1070
    75
1070
     0
1070
   282
1070
     0
1070
   281
1070
     0
1070
    71
1070
     0
1070
    74
1070
     0
1070
   279
1070
     0
1070
   173
1070
     1
1070
   340
1005
103
1070
   271
1070
     2
1070
   272
1070
     2
1070
    77
1070
     1
1070
    73
1070
     1
1070
   171
1070
     3
1070
   274
1070
     4
1070
   177
1070
    35
1070
   176
1070
    35
1070
   178
1070
    35
1070
    48
1040
-0.1
1070
    41
1040
3.5
1070
   147
1040
1.75
1070
    42
1040
1.5875
1070
    44
1040
2.0
1070
   140
1040
3.5
1002
}
1001
ACAD_DSTYLE_DIM_LINETYPE
1070
   380
1005
16
1001
ACAD_DSTYLE_DIM_EXT1_LINETYPE
1070
   381
1005
16
1001
ACAD_DSTYLE_DIM_EXT2_LINETYPE
1070
   382
1005
16
0
DIMENSION
5
134
100
AcDbEntity
8
SK2
62
256
6
ByLayer
370
13
48
1
60
0
100
AcDbDimension
2
_U1
10
38
20
-31.692985
30
0
11
1
21
-31.692985
31
0
70
32
71
1
72
1
41
1
210
0
220
0
230
1
3
Standard
100
AcDbAlignedDimension
13
-36
23
-3
33
0
14
38
24
0
34
0
50
0
100
AcDbRotatedDimension
1001
ACAD
1000
DSTYLE
1002
{
1070
   371
1070
    13
1070
   372
1070
    13
1070
   170
1070
     0
1070
   144
1040
1.0
1070
   277
1070
     2
1070
   278
1070
    44
1070
   146
1040
1.0
1070
   345
1005
16
1070
   347
1005
16
1070
   346
1005
16
1070
   344
1005
0
1070
   343
1005
0
1070
   172
1070
     1
1070
    76
1070
     0
1070
    75
1070
     0
1070
   282
1070
     0
1070
   281
1070
     0
1070
    71
1070
     0
1070
    74
1070
     0
1070
   279
1070
     0
1070
   173
1070
     1
1070
   340
1005
103
1070
   271
1070
     2
1070
   272
1070
     2
1070
    77
1070
     1
1070
    73
1070
     1
1070
   171
1070
     3
1070
   274
1070
     4
1070
   177
1070
    35
1070
   176
1070
    35
1070
   178
1070
    35
1070
    48
1040
-0.1
1070
    41
1040
3.5
1070
   147
1040
1.75
1070
    42
1040
1.5875
1070
    44
1040
2.0
1070
   140
1040
3.5
1002
}
1001
ACAD_DSTYLE_DIM_LINETYPE
1070
   380
1005
16
1001
ACAD_DSTYLE_DIM_EXT1_LINETYPE
1070
   381
1005
16
1001
ACAD_DSTYLE_DIM_EXT2_LINETYPE
1070
   382
1005
16
0
DIMENSION
5
14C
100
AcDbEntity
8
SK2
62
256
6
ByLayer
370
13
48
1
60
0
100
AcDbDimension
2
_U2
10
38
20
13.959119
30
0
11
24.10845
21
13.959119
31
0
70
32
71
1
72
1
41
1
210
0
220
0
230
1
3
Standard
100
AcDbAlignedDimension
13
10.2169
23
2.35
33
0
14
38
24
0
34
0
50
0
100
AcDbRotatedDimension
1001
ACAD
1000
DSTYLE
1002
{
1070
   371
1070
    13
1070
   372
1070
    13
1070
   170
1070
     0
1070
   144
1040
1.0
1070
   277
1070
     2
1070
   278
1070
    44
1070
   146
1040
1.0
1070
   345
1005
16
1070
   347
1005
16
1070
   346
1005
16
1070
   344
1005
0
1070
   343
1005
0
1070
   172
1070
     1
1070
    76
1070
     0
1070
    75
1070
     0
1070
   282
1070
     0
1070
   281
1070
     0
1070
    71
1070
     0
1070
    74
1070
     0
1070
   279
1070
     0
1070
   173
1070
     1
1070
   340
1005
103
1070
   271
1070
     2
1070
   272
1070
     2
1070
    77
1070
     1
1070
    73
1070
     1
1070
   171
1070
     3
1070
   274
1070
     4
1070
   177
1070
    35
1070
   176
1070
    35
1070
   178
1070
    35
1070
    48
1040
-0.1
1070
    41
1040
3.5
1070
   147
1040
1.75
1070
    42
1040
1.5875
1070
    44
1040
2.0
1070
   140
1040
3.5
1002
}
1001
ACAD_DSTYLE_DIM_LINETYPE
1070
   380
1005
16
1001
ACAD_DSTYLE_DIM_EXT1_LINETYPE
1070
   381
1005
16
1001
ACAD_DSTYLE_DIM_EXT2_LINETYPE
1070
   382
1005
16
0
DIMENSION
5
164
100
AcDbEntity
8
SK2
62
256
6
ByLayer
370
13
48
1
60
0
100
AcDbDimension
2
_U3
10
37.1
20
-15.152503
30
0
11
55.583333
21
-15.152503
31
0
70
32
71
1
72
1
41
1
210
0
220
0
230
1
3
Standard
100
AcDbAlignedDimension
13
38
23
0
33
0
14
37.1
24
-2.35
34
0
50
0
100
AcDbRotatedDimension
1001
ACAD
1000
DSTYLE
1002
{
1070
   371
1070
    13
1070
   372
1070
    13
1070
   170
1070
     0
1070
   144
1040
1.0
1070
   277
1070
     2
1070
   278
1070
    44
1070
   146
1040
1.0
1070
   345
1005
16
1070
   347
1005
16
1070
   346
1005
16
1070
   344
1005
0
1070
   343
1005
0
1070
   172
1070
     1
1070
    76
1070
     0
1070
    75
1070
     0
1070
   282
1070
     0
1070
   281
1070
     0
1070
    71
1070
     0
1070
    74
1070
     0
1070
   279
1070
     0
1070
   173
1070
     1
1070
   340
1005
103
1070
   271
1070
     2
1070
   272
1070
     2
1070
    77
1070
     1
1070
    73
1070
     1
1070
   171
1070
     3
1070
   274
1070
     4
1070
   177
1070
    35
1070
   176
1070
    35
1070
   178
1070
    35
1070
    48
1040
-0.1
1070
    41
1040
3.5
1070
   147
1040
1.75
1070
    42
1040
1.5875
1070
    44
1040
2.0
1070
   140
1040
3.5
1002
}
1001
ACAD_DSTYLE_DIM_LINETYPE
1070
   380
1005
16
1001
ACAD_DSTYLE_DIM_EXT1_LINETYPE
1070
   381
1005
16
1001
ACAD_DSTYLE_DIM_EXT2_LINETYPE
1070
   382
1005
16
0
DIMENSION
5
17E
100
AcDbEntity
8
SK2
62
256
6
ByLayer
370
13
48
1
60
0
100
AcDbDimension
2
_U4
10
37.1
20
-21.343428
30
0
11
0.55
21
-21.343428
31
0
70
32
71
1
72
1
41
1
210
0
220
0
230
1
3
Standard
100
AcDbAlignedDimension
13
-36
23
-3
33
0
14
37.1
24
-2.35
34
0
50
0
100
AcDbRotatedDimension
1001
ACAD
1000
DSTYLE
1002
{
1070
   371
1070
    13
1070
   372
1070
    13
1070
   170
1070
     0
1070
   144
1040
1.0
1070
   277
1070
     2
1070
   278
1070
    44
1070
   146
1040
1.0
1070
   345
1005
16
1070
   347
1005
16
1070
   346
1005
16
1070
   344
1005
0
1070
   343
1005
0
1070
   172
1070
     1
1070
    76
1070
     0
1070
    75
1070
     0
1070
   282
1070
     0
1070
   281
1070
     0
1070
    71
1070
     0
1070
    74
1070
     0
1070
   279
1070
     0
1070
   173
1070
     1
1070
   340
1005
103
1070
   271
1070
     2
1070
   272
1070
     2
1070
    77
1070
     1
1070
    73
1070
     1
1070
   171
1070
     3
1070
   274
1070
     4
1070
   177
1070
    35
1070
   176
1070
    35
1070
   178
1070
    35
1070
    48
1040
-0.1
1070
    41
1040
3.5
1070
   147
1040
1.75
1070
    42
1040
1.5875
1070
    44
1040
2.0
1070
   140
1040
3.5
1002
}
1001
ACAD_DSTYLE_DIM_LINETYPE
1070
   380
1005
16
1001
ACAD_DSTYLE_DIM_EXT1_LINETYPE
1070
   381
1005
16
1001
ACAD_DSTYLE_DIM_EXT2_LINETYPE
1070
   382
1005
16
0
ENDSEC
0
SECTION
2
OBJECTS
0
DICTIONARY
5
206
330
0
100
AcDbDictionary
280
0
281
1
3
ACAD_GROUP
350
207
3
ACAD_MLINESTYLE
350
208
0
DICTIONARY
5
207
330
0
100
AcDbDictionary
280
0
281
1
0
DICTIONARY
5
208
330
0
100
AcDbDictionary
280
0
281
1
3
Standard
350
18
0
MLINESTYLE
5
18
330
208
100
AcDbMlineStyle
2
Standard
70
0
3

62
256
51
90
52
90
71
2
49
-0.5
62
256
6
ByLayer
49
0.5
62
256
6
ByLayer
0
RASTERVARIABLES
5
1f4
330

100
AcDbRasterVariables
90
0
70
1
71
1
72
1
0
ENDSEC
0
EOF
