0
SECTION
2
HEADER
9
$ACADVER
1
AC1015
9
$DWGCODEPAGE
3
ANSI_1252
9
$HANDSEED
5
20c
9
$ANGBASE
50
0
9
$ANGDIR
70
0
9
$ATTMODE
70
1
9
$AUNITS
70
0
9
$AUPREC
70
0
9
$CECOLOR
62
256
9
$CELTSCALE
40
1
9
$CELTYPE
6
ByLayer
9
$CELWEIGHT
370
18
9
$CLAYER
8
0
9
$CMLJUST
70
0
9
$CMLSCALE
40
1
9
$CMLSTYLE
2
Standard
9
$DIMSTYLE
2
Standard
9
$TEXTSIZE
40
0.2
9
$TEXTSTYLE
7
Standard
9
$LUNITS
70
2
9
$LUPREC
70
4
9
$EXTNAMES
290
1
9
$INSUNITS
70
4
9
$LTSCALE
40
1
9
$LWDISPLAY
290
1
9
$PDMODE
70
0
9
$PDSIZE
40
0
9
$PLINEGEN
70
0
0
ENDSEC
0
SECTION
2
CLASSES
0
CLASS
1
RASTERVARIABLES
2
AcDbRasterVariables
3
ISM
90
0
280
0
281
0
0
ENDSEC
0
SECTION
2
TABLES
0
TABLE
2
VPORT
5
202
100
AcDbSymbolTable
0
VPORT
5
1
100
AcDbSymbolTableRecord
100
AcDbViewportTableRecord
2
*Active
70
0
10
0
20
0
11
1
21
1
12
-1
22
1
13
0
23
0
14
0.5
24
0.5
15
10
25
10
16
0
26
0
36
1
17
0
27
0
37
0
0
ENDTAB
0
TABLE
2
LTYPE
5
203
100
AcDbSymbolTable
0
LTYPE
5
14
100
AcDbSymbolTableRecord
100
AcDbLinetypeTableRecord
70
0
2
ByBlock
3

72
65
73
0
40
0
0
LTYPE
5
15
100
AcDbSymbolTableRecord
100
AcDbLinetypeTableRecord
70
0
2
ByLayer
3

72
65
73
0
40
0
0
LTYPE
5
16
100
AcDbSymbolTableRecord
100
AcDbLinetypeTableRecord
70
0
2
Continuous
3
Solid line
72
65
73
0
40
0
0
LTYPE
5
6E
100
AcDbSymbolTableRecord
100
AcDbLinetypeTableRecord
70
0
2
CENTER
3
____ _ ____ _ ____ _ ____
72
65
73
4
40
47.5
49
22
74
0
49
-8.5
74
0
49
8.5
74
0
49
-8.5
74
0
0
LTYPE
5
6F
100
AcDbSymbolTableRecord
100
AcDbLinetypeTableRecord
70
0
2
DASHED
3
__ __ __ __ __ __ __ __ __
72
65
73
2
40
25.72
49
12.86
74
0
49
-12.86
74
0
0
ENDTAB
0
TABLE
2
LAYER
5
204
100
AcDbSymbolTable
0
LAYER
5
10
100
AcDbSymbolTableRecord
100
AcDbLayerTableRecord
2
0
70
0
62
7
6
Continuous
290
1
370
-3
390
0
0
LAYER
5
71
100
AcDbSymbolTableRecord
100
AcDbLayerTableRecord
2
80
70
0
62
-6
6
Continuous
290
1
370
-3
390
0
0
LAYER
5
73
100
AcDbSymbolTableRecord
100
AcDbLayerTableRecord
2
81
70
0
62
-3
6
Continuous
290
1
370
-3
390
0
0
LAYER
5
75
100
AcDbSymbolTableRecord
100
AcDbLayerTableRecord
2
1
70
0
62
4
6
Continuous
290
1
370
-3
390
0
0
LAYER
5
95
100
AcDbSymbolTableRecord
100
AcDbLayerTableRecord
2
4
70
0
62
-2
6
CENTER
290
1
370
-3
390
0
0
LAYER
5
AE
100
AcDbSymbolTableRecord
100
AcDbLayerTableRecord
2
2
70
0
62
7
6
Continuous
290
1
370
-3
390
0
0
LAYER
5
117
100
AcDbSymbolTableRecord
100
AcDbLayerTableRecord
2
Defpoints
70
0
62
7
6
Continuous
290
0
370
-3
390
0
0
LAYER
5
1ee
100
AcDbSymbolTableRecord
100
AcDbLayerTableRecord
2
SK1
70
0
62
4
6
Continuous
290
1
370
-3
390
0
0
LAYER
5
1ef
100
AcDbSymbolTableRecord
100
AcDbLayerTableRecord
2
SK4
70
0
62
2
6
CENTER
290
1
370
-3
390
0
0
LAYER
5
1f0
100
AcDbSymbolTableRecord
100
AcDbLayerTableRecord
2
SK2
70
0
62
7
6
Continuous
290
1
370
-3
390
0
0
LAYER
5
1f1
100
AcDbSymbolTableRecord
100
AcDbLayerTableRecord
2
SK6
70
0
62
5
6
Continuous
290
1
370
-3
390
0
0
ENDTAB
0
TABLE
2
STYLE
5
205
100
AcDbSymbolTable
0
STYLE
5
11
100
AcDbSymbolTableRecord
100
AcDbTextStyleTableRecord
2
Standard
3
txt
70
0
71
0
40
0
41
1
42
0
50
0
0
STYLE
5
FC
100
AcDbSymbolTableRecord
100
AcDbTextStyleTableRecord
2
iso_b_vert
3
simplex.shx
70
0
71
0
40
0
41
1
42
0
50
0
0
STYLE
5
FD
100
AcDbSymbolTableRecord
100
AcDbTextStyleTableRecord
2
DWGDirectTextStyle
3
simplex
70
0
71
0
40
0
41
1
42
0
50
0
0
ENDTAB
0
TABLE
2
DIMSTYLE
5
206
100
AcDbSymbolTable
100
AcDbDimStyleTable
0
DIMSTYLE
105
27
100
AcDbSymbolTableRecord
100
AcDbDimStyleTableRecord
2
Standard
70
0
3
<>
41
0.18
42
0.0625
44
0.18
140
0.18
147
0.09
73
0
74
0
77
1
271
2
275
0
278
52
280
0
340
11
0
ENDTAB
0
TABLE
2
VIEW
5
207
100
AcDbSymbolTable
0
ENDTAB
0
TABLE
2
UCS
5
208
100
AcDbSymbolTable
0
ENDTAB
0
TABLE
2
APPID
5
209
100
AcDbSymbolTable
0
APPID
5
12
100
AcDbSymbolTableRecord
100
AcDbRegAppTableRecord
2
ACAD
70
0
0
APPID
5
113
100
AcDbSymbolTableRecord
100
AcDbRegAppTableRecord
2
ACAD_DSTYLE_DIMBREAK
70
0
0
APPID
5
1AD
100
AcDbSymbolTableRecord
100
AcDbRegAppTableRecord
2
ACAD_DSTYLE_DIM_LINETYPE
70
0
0
APPID
5
1AE
100
AcDbSymbolTableRecord
100
AcDbRegAppTableRecord
2
ACAD_DSTYLE_DIM_EXT1_LINETYPE
70
0
0
APPID
5
1AF
100
AcDbSymbolTableRecord
100
AcDbRegAppTableRecord
2
ACAD_DSTYLE_DIM_EXT2_LINETYPE
70
0
0
APPID
5
1EA
100
AcDbSymbolTableRecord
100
AcDbRegAppTableRecord
2
ACAD_MLEADERVER
70
0
0
ENDTAB
0
TABLE
2
BLOCK_RECORD
5
20a
100
AcDbSymbolTable
0
BLOCK_RECORD
5
1F
100
AcDbSymbolTableRecord
100
AcDbBlockTableRecord
2
*Model_Space
340
0
70
0
0
BLOCK_RECORD
5
1B
100
AcDbSymbolTableRecord
100
AcDbBlockTableRecord
2
*Paper_Space
340
0
70
0
0
BLOCK_RECORD
5
23
100
AcDbSymbolTableRecord
100
AcDbBlockTableRecord
2
*Paper_Space0
340
0
70
0
0
BLOCK_RECORD
5
118
100
AcDbSymbolTableRecord
100
AcDbBlockTableRecord
2
*D1
340
0
70
0
0
BLOCK_RECORD
5
124
100
AcDbSymbolTableRecord
100
AcDbBlockTableRecord
2
_U0
340
0
70
0
0
BLOCK_RECORD
5
130
100
AcDbSymbolTableRecord
100
AcDbBlockTableRecord
2
*D3
340
0
70
0
0
BLOCK_RECORD
5
13C
100
AcDbSymbolTableRecord
100
AcDbBlockTableRecord
2
_U1
340
0
70
0
0
BLOCK_RECORD
5
148
100
AcDbSymbolTableRecord
100
AcDbBlockTableRecord
2
*D5
340
0
70
0
0
BLOCK_RECORD
5
154
100
AcDbSymbolTableRecord
100
AcDbBlockTableRecord
2
_U2
340
0
70
0
0
BLOCK_RECORD
5
160
100
AcDbSymbolTableRecord
100
AcDbBlockTableRecord
2
*D7
340
0
70
0
0
BLOCK_RECORD
5
16E
100
AcDbSymbolTableRecord
100
AcDbBlockTableRecord
2
_U3
340
0
70
0
0
BLOCK_RECORD
5
17A
100
AcDbSymbolTableRecord
100
AcDbBlockTableRecord
2
*D9
340
0
70
0
0
BLOCK_RECORD
5
186
100
AcDbSymbolTableRecord
100
AcDbBlockTableRecord
2
_U4
340
0
70
0
0
ENDTAB
0
ENDSEC
0
SECTION
2
BLOCKS
0
BLOCK
5
20
100
AcDbEntity
8
0
100
AcDbBlockBegin
2
*Model_Space
70
0
10
0
20
0
30
0
3
*Model_Space
0
ENDBLK
5
21
100
AcDbEntity
8
0
100
AcDbBlockEnd
0
BLOCK
5
1C
100
AcDbEntity
8
0
100
AcDbBlockBegin
2
*Paper_Space
70
0
10
0
20
0
30
0
3
*Paper_Space
0
ENDBLK
5
1D
100
AcDbEntity
8
0
100
AcDbBlockEnd
0
BLOCK
5
24
100
AcDbEntity
8
0
100
AcDbBlockBegin
2
*Paper_Space0
70
0
10
0
20
0
30
0
3
*Paper_Space0
0
ENDBLK
5
25
100
AcDbEntity
8
0
100
AcDbBlockEnd
0
BLOCK
5
119
100
AcDbEntity
8
0
100
AcDbBlockBegin
2
*D1
70
1
10
0
20
0
30
0
3
*D1
0
LINE
5
11B
100
AcDbEntity
8
0
62
256
6
ByLayer
370
-2
48
1
60
0
100
AcDbLine
10
0
20
-1.5875
30
0
11
0
21
-18.463398
31
0
39
0
210
0
220
0
230
1
0
LINE
5
11C
100
AcDbEntity
8
0
62
256
6
ByLayer
370
-2
48
1
60
0
100
AcDbLine
10
59.7
20
-7.8375
30
0
11
59.7
21
-18.463398
31
0
39
0
210
0
220
0
230
1
0
LINE
5
11D
100
AcDbEntity
8
0
62
256
6
ByLayer
370
-2
48
1
60
0
100
AcDbLine
10
3.5
20
-16.463398
30
0
11
56.2
21
-16.463398
31
0
39
0
210
0
220
0
230
1
0
SOLID
5
11E
100
AcDbEntity
8
0
62
256
6
ByLayer
370
-1
48
1
60
0
100
AcDbTrace
10
3.5
20
-15.880065
30
0
11
3.5
21
-17.046732
31
0
12
0
22
-16.463398
32
0
13
0
23
-16.463398
33
0
39
0
210
0
220
0
230
1
0
SOLID
5
11F
100
AcDbEntity
8
0
62
256
6
ByLayer
370
-1
48
1
60
0
100
AcDbTrace
10
56.2
20
-17.046732
30
0
11
56.2
21
-15.880065
31
0
12
59.7
22
-16.463398
32
0
13
59.7
23
-16.463398
33
0
39
0
210
0
220
0
230
1
0
MTEXT
5
120
100
AcDbEntity
8
0
62
256
6
ByLayer
370
18
48
1
60
0
100
AcDbMText
10
29.85
20
-9.463398
30
0
210
0
220
0
230
1
1
\A1;59.70
40
3.5
41
0
44
1
50
0
71
5
72
5
7
iso_b_vert
0
POINT
5
121
100
AcDbEntity
8
Defpoints
62
0
6
ByLayer
370
-1
48
1
60
0
100
AcDbPoint
10
0
20
0
30
0
39
0
210
0
220
0
230
1
50
360
0
POINT
5
122
100
AcDbEntity
8
Defpoints
62
0
6
ByLayer
370
-1
48
1
60
0
100
AcDbPoint
10
59.7
20
-6.25
30
0
39
0
210
0
220
0
230
1
50
360
0
POINT
5
123
100
AcDbEntity
8
Defpoints
62
0
6
ByLayer
370
-1
48
1
60
0
100
AcDbPoint
10
59.7
20
-16.463398
30
0
39
0
210
0
220
0
230
1
50
360
0
ENDBLK
5
11A
100
AcDbEntity
8
0
100
AcDbBlockEnd
0
BLOCK
5
12B
100
AcDbEntity
8
0
100
AcDbBlockBegin
2
_U0
70
0
10
0
20
0
30
0
3
_U0
0
MTEXT
5
125
100
AcDbEntity
8
SK2
62
256
6
ByLayer
370
13
48
1
60
0
100
AcDbMText
10
24.712701
20
-15.430765
30
0
210
0
220
0
230
1
1
\W0.7317;59,70
40
3.5
41
0
44
1.084337
50
0
71
7
72
5
7
iso_b_vert
0
LINE
5
126
100
AcDbEntity
8
SK2
62
256
6
ByLayer
370
13
48
1
60
0
100
AcDbLine
10
0
20
-1.5875
30
0
11
0
21
-18.463398
31
0
39
0
210
0
220
0
230
1
0
LINE
5
127
100
AcDbEntity
8
SK2
62
256
6
ByLayer
370
13
48
1
60
0
100
AcDbLine
10
59.7
20
-7.8375
30
0
11
59.7
21
-18.463398
31
0
39
0
210
0
220
0
230
1
0
LINE
5
128
100
AcDbEntity
8
SK2
62
256
6
ByLayer
370
13
48
1
60
0
100
AcDbLine
10
0
20
-16.463398
30
0
11
59.7
21
-16.463398
31
0
39
0
210
0
220
0
230
1
0
SOLID
5
129
100
AcDbEntity
8
SK2
62
256
6
ByLayer
370
18
48
1
60
0
100
AcDbTrace
10
0
20
-16.463398
30
0
11
3.499998
21
-16.002615
31
0
12
3.500002
22
-16.924182
32
0
13
3.500002
23
-16.924182
33
0
39
0
210
0
220
0
230
1
0
SOLID
5
12A
100
AcDbEntity
8
SK2
62
256
6
ByLayer
370
18
48
1
60
0
100
AcDbTrace
10
59.7
20
-16.463398
30
0
11
56.200002
21
-16.924182
31
0
12
56.199998
22
-16.002615
32
0
13
56.199998
23
-16.002615
33
0
39
0
210
0
220
0
230
1
0
ENDBLK
5
12C
100
AcDbEntity
8
0
100
AcDbBlockEnd
0
BLOCK
5
131
100
AcDbEntity
8
0
100
AcDbBlockBegin
2
*D3
70
1
10
0
20
0
30
0
3
*D3
0
LINE
5
133
100
AcDbEntity
8
0
62
256
6
ByLayer
370
-2
48
1
60
0
100
AcDbLine
10
-45
20
-8.5875
30
0
11
-45
21
-37.692985
31
0
39
0
210
0
220
0
230
1
0
LINE
5
134
100
AcDbEntity
8
0
62
256
6
ByLayer
370
-2
48
1
60
0
100
AcDbLine
10
62
20
-1.5875
30
0
11
62
21
-37.692985
31
0
39
0
210
0
220
0
230
1
0
LINE
5
135
100
AcDbEntity
8
0
62
256
6
ByLayer
370
-2
48
1
60
0
100
AcDbLine
10
-41.5
20
-35.692985
30
0
11
58.5
21
-35.692985
31
0
39
0
210
0
220
0
230
1
0
SOLID
5
136
100
AcDbEntity
8
0
62
256
6
ByLayer
370
-1
48
1
60
0
100
AcDbTrace
10
-41.5
20
-35.109652
30
0
11
-41.5
21
-36.276319
31
0
12
-45
22
-35.692985
32
0
13
-45
23
-35.692985
33
0
39
0
210
0
220
0
230
1
0
SOLID
5
137
100
AcDbEntity
8
0
62
256
6
ByLayer
370
-1
48
1
60
0
100
AcDbTrace
10
58.5
20
-36.276319
30
0
11
58.5
21
-35.109652
31
0
12
62
22
-35.692985
32
0
13
62
23
-35.692985
33
0
39
0
210
0
220
0
230
1
0
MTEXT
5
138
100
AcDbEntity
8
0
62
256
6
ByLayer
370
18
48
1
60
0
100
AcDbMText
10
8.5
20
-28.692985
30
0
210
0
220
0
230
1
1
\A1;107.00
40
3.5
41
0
44
1
50
0
71
5
72
5
7
iso_b_vert
0
POINT
5
139
100
AcDbEntity
8
Defpoints
62
0
6
ByLayer
370
-1
48
1
60
0
100
AcDbPoint
10
-45
20
-7
30
0
39
0
210
0
220
0
230
1
50
360
0
POINT
5
13A
100
AcDbEntity
8
Defpoints
62
0
6
ByLayer
370
-1
48
1
60
0
100
AcDbPoint
10
62
20
0
30
0
39
0
210
0
220
0
230
1
50
360
0
POINT
5
13B
100
AcDbEntity
8
Defpoints
62
0
6
ByLayer
370
-1
48
1
60
0
100
AcDbPoint
10
62
20
-35.692985
30
0
39
0
210
0
220
0
230
1
50
360
0
ENDBLK
5
132
100
AcDbEntity
8
0
100
AcDbBlockEnd
0
BLOCK
5
143
100
AcDbEntity
8
0
100
AcDbBlockBegin
2
_U1
70
0
10
0
20
0
30
0
3
_U1
0
MTEXT
5
13D
100
AcDbEntity
8
SK2
62
256
6
ByLayer
370
13
48
1
60
0
100
AcDbMText
10
2.492401
20
-34.660352
30
0
210
0
220
0
230
1
1
\W0.6930;107,00
40
3.5
41
0
44
1.084337
50
0
71
7
72
5
7
iso_b_vert
0
LINE
5
13E
100
AcDbEntity
8
SK2
62
256
6
ByLayer
370
13
48
1
60
0
100
AcDbLine
10
-45
20
-8.5875
30
0
11
-45
21
-37.692985
31
0
39
0
210
0
220
0
230
1
0
LINE
5
13F
100
AcDbEntity
8
SK2
62
256
6
ByLayer
370
13
48
1
60
0
100
AcDbLine
10
62
20
-1.5875
30
0
11
62
21
-37.692985
31
0
39
0
210
0
220
0
230
1
0
LINE
5
140
100
AcDbEntity
8
SK2
62
256
6
ByLayer
370
13
48
1
60
0
100
AcDbLine
10
-45
20
-35.692985
30
0
11
62
21
-35.692985
31
0
39
0
210
0
220
0
230
1
0
SOLID
5
141
100
AcDbEntity
8
SK2
62
256
6
ByLayer
370
18
48
1
60
0
100
AcDbTrace
10
-45
20
-35.692985
30
0
11
-41.500002
21
-35.232202
31
0
12
-41.499998
22
-36.153769
32
0
13
-41.499998
23
-36.153769
33
0
39
0
210
0
220
0
230
1
0
SOLID
5
142
100
AcDbEntity
8
SK2
62
256
6
ByLayer
370
18
48
1
60
0
100
AcDbTrace
10
62
20
-35.692985
30
0
11
58.500002
21
-36.153769
31
0
12
58.499998
22
-35.232202
32
0
13
58.499998
23
-35.232202
33
0
39
0
210
0
220
0
230
1
0
ENDBLK
5
144
100
AcDbEntity
8
0
100
AcDbBlockEnd
0
BLOCK
5
149
100
AcDbEntity
8
0
100
AcDbBlockBegin
2
*D5
70
1
10
0
20
0
30
0
3
*D5
0
LINE
5
14B
100
AcDbEntity
8
0
62
256
6
ByLayer
370
-2
48
1
60
0
100
AcDbLine
10
21.4151
20
7.8375
30
0
11
21.4151
21
19.859119
31
0
39
0
210
0
220
0
230
1
0
LINE
5
14C
100
AcDbEntity
8
0
62
256
6
ByLayer
370
-2
48
1
60
0
100
AcDbLine
10
62
20
1.5875
30
0
11
62
21
19.859119
31
0
39
0
210
0
220
0
230
1
0
LINE
5
14D
100
AcDbEntity
8
0
62
256
6
ByLayer
370
-2
48
1
60
0
100
AcDbLine
10
24.9151
20
17.859119
30
0
11
58.5
21
17.859119
31
0
39
0
210
0
220
0
230
1
0
SOLID
5
14E
100
AcDbEntity
8
0
62
256
6
ByLayer
370
-1
48
1
60
0
100
AcDbTrace
10
24.9151
20
18.442453
30
0
11
24.9151
21
17.275786
31
0
12
21.4151
22
17.859119
32
0
13
21.4151
23
17.859119
33
0
39
0
210
0
220
0
230
1
0
SOLID
5
14F
100
AcDbEntity
8
0
62
256
6
ByLayer
370
-1
48
1
60
0
100
AcDbTrace
10
58.5
20
17.275786
30
0
11
58.5
21
18.442453
31
0
12
62
22
17.859119
32
0
13
62
23
17.859119
33
0
39
0
210
0
220
0
230
1
0
MTEXT
5
150
100
AcDbEntity
8
0
62
256
6
ByLayer
370
18
48
1
60
0
100
AcDbMText
10
41.70755
20
24.859119
30
0
210
0
220
0
230
1
1
\A1;40.58
40
3.5
41
0
44
1
50
0
71
5
72
5
7
iso_b_vert
0
POINT
5
151
100
AcDbEntity
8
Defpoints
62
0
6
ByLayer
370
-1
48
1
60
0
100
AcDbPoint
10
21.4151
20
6.25
30
0
39
0
210
0
220
0
230
1
50
360
0
POINT
5
152
100
AcDbEntity
8
Defpoints
62
0
6
ByLayer
370
-1
48
1
60
0
100
AcDbPoint
10
62
20
0
30
0
39
0
210
0
220
0
230
1
50
360
0
POINT
5
153
100
AcDbEntity
8
Defpoints
62
0
6
ByLayer
370
-1
48
1
60
0
100
AcDbPoint
10
62
20
17.859119
30
0
39
0
210
0
220
0
230
1
50
360
0
ENDBLK
5
14A
100
AcDbEntity
8
0
100
AcDbBlockEnd
0
BLOCK
5
15B
100
AcDbEntity
8
0
100
AcDbBlockBegin
2
_U2
70
0
10
0
20
0
30
0
3
_U2
0
MTEXT
5
155
100
AcDbEntity
8
SK2
62
256
6
ByLayer
370
13
48
1
60
0
100
AcDbMText
10
36.385985
20
18.891753
30
0
210
0
220
0
230
1
1
\W0.7581;40,58
40
3.5
41
0
44
1.084337
50
0
71
7
72
5
7
iso_b_vert
0
LINE
5
156
100
AcDbEntity
8
SK2
62
256
6
ByLayer
370
13
48
1
60
0
100
AcDbLine
10
21.4151
20
7.8375
30
0
11
21.4151
21
19.859119
31
0
39
0
210
0
220
0
230
1
0
LINE
5
157
100
AcDbEntity
8
SK2
62
256
6
ByLayer
370
13
48
1
60
0
100
AcDbLine
10
62
20
1.5875
30
0
11
62
21
19.859119
31
0
39
0
210
0
220
0
230
1
0
LINE
5
158
100
AcDbEntity
8
SK2
62
256
6
ByLayer
370
13
48
1
60
0
100
AcDbLine
10
21.4151
20
17.859119
30
0
11
62
21
17.859119
31
0
39
0
210
0
220
0
230
1
0
SOLID
5
159
100
AcDbEntity
8
SK2
62
256
6
ByLayer
370
18
48
1
60
0
100
AcDbTrace
10
21.4151
20
17.859119
30
0
11
24.915098
21
18.319903
31
0
12
24.915102
22
17.398335
32
0
13
24.915102
23
17.398335
33
0
39
0
210
0
220
0
230
1
0
SOLID
5
15A
100
AcDbEntity
8
SK2
62
256
6
ByLayer
370
18
48
1
60
0
100
AcDbTrace
10
62
20
17.859119
30
0
11
58.500002
21
17.398335
31
0
12
58.499998
22
18.319903
32
0
13
58.499998
23
18.319903
33
0
39
0
210
0
220
0
230
1
0
ENDBLK
5
15C
100
AcDbEntity
8
0
100
AcDbBlockEnd
0
BLOCK
5
161
100
AcDbEntity
8
0
100
AcDbBlockBegin
2
*D7
70
1
10
0
20
0
30
0
3
*D7
0
LINE
5
163
100
AcDbEntity
8
0
62
256
6
ByLayer
370
-2
48
1
60
0
100
AcDbLine
10
62
20
-1.5875
30
0
11
62
21
-21.052503
31
0
39
0
210
0
220
0
230
1
0
LINE
5
164
100
AcDbEntity
8
0
62
256
6
ByLayer
370
-2
48
1
60
0
100
AcDbLine
10
59.7
20
-7.8375
30
0
11
59.7
21
-21.052503
31
0
39
0
210
0
220
0
230
1
0
LINE
5
165
100
AcDbEntity
8
0
62
256
6
ByLayer
370
-2
48
1
60
0
100
AcDbLine
10
62
20
-19.052503
30
0
11
90.166667
21
-19.052503
31
0
39
0
210
0
220
0
230
1
0
LINE
5
166
100
AcDbEntity
8
0
62
256
6
ByLayer
370
-2
48
1
60
0
100
AcDbLine
10
65.5
20
-19.052503
30
0
11
69
21
-19.052503
31
0
39
0
210
0
220
0
230
1
0
LINE
5
167
100
AcDbEntity
8
0
62
256
6
ByLayer
370
-2
48
1
60
0
100
AcDbLine
10
56.2
20
-19.052503
30
0
11
52.7
21
-19.052503
31
0
39
0
210
0
220
0
230
1
0
SOLID
5
168
100
AcDbEntity
8
0
62
256
6
ByLayer
370
-1
48
1
60
0
100
AcDbTrace
10
65.5
20
-18.46917
30
0
11
65.5
21
-19.635837
31
0
12
62
22
-19.052503
32
0
13
62
23
-19.052503
33
0
39
0
210
0
220
0
230
1
0
SOLID
5
169
100
AcDbEntity
8
0
62
256
6
ByLayer
370
-1
48
1
60
0
100
AcDbTrace
10
56.2
20
-19.635837
30
0
11
56.2
21
-18.46917
31
0
12
59.7
22
-19.052503
32
0
13
59.7
23
-19.052503
33
0
39
0
210
0
220
0
230
1
0
MTEXT
5
16A
100
AcDbEntity
8
0
62
256
6
ByLayer
370
18
48
1
60
0
100
AcDbMText
10
79.583333
20
-12.052503
30
0
210
0
220
0
230
1
1
\A1;2.30
40
3.5
41
0
44
1
50
0
71
5
72
5
7
iso_b_vert
0
POINT
5
16B
100
AcDbEntity
8
Defpoints
62
0
6
ByLayer
370
-1
48
1
60
0
100
AcDbPoint
10
62
20
0
30
0
39
0
210
0
220
0
230
1
50
360
0
POINT
5
16C
100
AcDbEntity
8
Defpoints
62
0
6
ByLayer
370
-1
48
1
60
0
100
AcDbPoint
10
59.7
20
-6.25
30
0
39
0
210
0
220
0
230
1
50
360
0
POINT
5
16D
100
AcDbEntity
8
Defpoints
62
0
6
ByLayer
370
-1
48
1
60
0
100
AcDbPoint
10
59.7
20
-19.052503
30
0
39
0
210
0
220
0
230
1
50
360
0
ENDBLK
5
162
100
AcDbEntity
8
0
100
AcDbBlockEnd
0
BLOCK
5
175
100
AcDbEntity
8
0
100
AcDbBlockBegin
2
_U3
70
0
10
0
20
0
30
0
3
_U3
0
MTEXT
5
16F
100
AcDbEntity
8
SK2
62
256
6
ByLayer
370
13
48
1
60
0
100
AcDbMText
10
68.15186
20
-18.01987
30
0
210
0
220
0
230
1
1
\W0.7150;2,30
40
3.5
41
0
44
1.084337
50
0
71
7
72
5
7
iso_b_vert
0
LINE
5
170
100
AcDbEntity
8
SK2
62
256
6
ByLayer
370
13
48
1
60
0
100
AcDbLine
10
62
20
-1.5875
30
0
11
62
21
-21.052503
31
0
39
0
210
0
220
0
230
1
0
LINE
5
171
100
AcDbEntity
8
SK2
62
256
6
ByLayer
370
13
48
1
60
0
100
AcDbLine
10
59.7
20
-7.8375
30
0
11
59.7
21
-21.052503
31
0
39
0
210
0
220
0
230
1
0
LINE
5
172
100
AcDbEntity
8
SK2
62
256
6
ByLayer
370
13
48
1
60
0
100
AcDbLine
10
50.95
20
-19.052503
30
0
11
75.996491
21
-19.052503
31
0
39
0
210
0
220
0
230
1
0
SOLID
5
173
100
AcDbEntity
8
SK2
62
256
6
ByLayer
370
18
48
1
60
0
100
AcDbTrace
10
62
20
-19.052503
30
0
11
65.499998
21
-18.591719
31
0
12
65.500002
22
-19.513287
32
0
13
65.500002
23
-19.513287
33
0
39
0
210
0
220
0
230
1
0
SOLID
5
174
100
AcDbEntity
8
SK2
62
256
6
ByLayer
370
18
48
1
60
0
100
AcDbTrace
10
59.7
20
-19.052503
30
0
11
56.200002
21
-19.513287
31
0
12
56.199998
22
-18.591719
32
0
13
56.199998
23
-18.591719
33
0
39
0
210
0
220
0
230
1
0
ENDBLK
5
176
100
AcDbEntity
8
0
100
AcDbBlockEnd
0
BLOCK
5
17B
100
AcDbEntity
8
0
100
AcDbBlockBegin
2
*D9
70
1
10
0
20
0
30
0
3
*D9
0
LINE
5
17D
100
AcDbEntity
8
0
62
256
6
ByLayer
370
-2
48
1
60
0
100
AcDbLine
10
-45
20
-8.5875
30
0
11
-45
21
-27.343428
31
0
39
0
210
0
220
0
230
1
0
LINE
5
17E
100
AcDbEntity
8
0
62
256
6
ByLayer
370
-2
48
1
60
0
100
AcDbLine
10
59.7
20
-7.8375
30
0
11
59.7
21
-27.343428
31
0
39
0
210
0
220
0
230
1
0
LINE
5
17F
100
AcDbEntity
8
0
62
256
6
ByLayer
370
-2
48
1
60
0
100
AcDbLine
10
-41.5
20
-25.343428
30
0
11
56.2
21
-25.343428
31
0
39
0
210
0
220
0
230
1
0
SOLID
5
180
100
AcDbEntity
8
0
62
256
6
ByLayer
370
-1
48
1
60
0
100
AcDbTrace
10
-41.5
20
-24.760095
30
0
11
-41.5
21
-25.926762
31
0
12
-45
22
-25.343428
32
0
13
-45
23
-25.343428
33
0
39
0
210
0
220
0
230
1
0
SOLID
5
181
100
AcDbEntity
8
0
62
256
6
ByLayer
370
-1
48
1
60
0
100
AcDbTrace
10
56.2
20
-25.926762
30
0
11
56.2
21
-24.760095
31
0
12
59.7
22
-25.343428
32
0
13
59.7
23
-25.343428
33
0
39
0
210
0
220
0
230
1
0
MTEXT
5
182
100
AcDbEntity
8
0
62
256
6
ByLayer
370
18
48
1
60
0
100
AcDbMText
10
7.35
20
-18.343428
30
0
210
0
220
0
230
1
1
\A1;104.70
40
3.5
41
0
44
1
50
0
71
5
72
5
7
iso_b_vert
0
POINT
5
183
100
AcDbEntity
8
Defpoints
62
0
6
ByLayer
370
-1
48
1
60
0
100
AcDbPoint
10
-45
20
-7
30
0
39
0
210
0
220
0
230
1
50
360
0
POINT
5
184
100
AcDbEntity
8
Defpoints
62
0
6
ByLayer
370
-1
48
1
60
0
100
AcDbPoint
10
59.7
20
-6.25
30
0
39
0
210
0
220
0
230
1
50
360
0
POINT
5
185
100
AcDbEntity
8
Defpoints
62
0
6
ByLayer
370
-1
48
1
60
0
100
AcDbPoint
10
59.7
20
-25.343428
30
0
39
0
210
0
220
0
230
1
50
360
0
ENDBLK
5
17C
100
AcDbEntity
8
0
100
AcDbBlockEnd
0
BLOCK
5
18D
100
AcDbEntity
8
0
100
AcDbBlockBegin
2
_U4
70
0
10
0
20
0
30
0
3
_U4
0
MTEXT
5
187
100
AcDbEntity
8
SK2
62
256
6
ByLayer
370
13
48
1
60
0
100
AcDbMText
10
1.158135
20
-24.310795
30
0
210
0
220
0
230
1
1
\W0.7145;104,70
40
3.5
41
0
44
1.084337
50
0
71
7
72
5
7
iso_b_vert
0
LINE
5
188
100
AcDbEntity
8
SK2
62
256
6
ByLayer
370
13
48
1
60
0
100
AcDbLine
10
-45
20
-8.5875
30
0
11
-45
21
-27.343428
31
0
39
0
210
0
220
0
230
1
0
LINE
5
189
100
AcDbEntity
8
SK2
62
256
6
ByLayer
370
13
48
1
60
0
100
AcDbLine
10
59.7
20
-7.8375
30
0
11
59.7
21
-27.343428
31
0
39
0
210
0
220
0
230
1
0
LINE
5
18A
100
AcDbEntity
8
SK2
62
256
6
ByLayer
370
13
48
1
60
0
100
AcDbLine
10
-45
20
-25.343428
30
0
11
59.7
21
-25.343428
31
0
39
0
210
0
220
0
230
1
0
SOLID
5
18B
100
AcDbEntity
8
SK2
62
256
6
ByLayer
370
18
48
1
60
0
100
AcDbTrace
10
-45
20
-25.343428
30
0
11
-41.500002
21
-24.882645
31
0
12
-41.499998
22
-25.804212
32
0
13
-41.499998
23
-25.804212
33
0
39
0
210
0
220
0
230
1
0
SOLID
5
18C
100
AcDbEntity
8
SK2
62
256
6
ByLayer
370
18
48
1
60
0
100
AcDbTrace
10
59.7
20
-25.343428
30
0
11
56.200002
21
-25.804212
31
0
12
56.199998
22
-24.882645
32
0
13
56.199998
23
-24.882645
33
0
39
0
210
0
220
0
230
1
0
ENDBLK
5
18E
100
AcDbEntity
8
0
100
AcDbBlockEnd
0
ENDSEC
0
SECTION
2
ENTITIES
0
ARC
5
B7
100
AcDbEntity
8
1
62
256
6
ByLayer
370
18
48
1
60
0
100
AcDbCircle
39
0
10
0
20
-6.2
30
0
40
0.799999999999997
210
0
220
0
230
1
100
AcDbArc
50
270
51
330.833316
0
ARC
5
B8
100
AcDbEntity
8
1
62
256
6
ByLayer
370
18
48
1
60
0
100
AcDbCircle
39
0
10
1.397129
20
-6.979763
30
0
40
0.800000000000002
210
0
220
0
230
1
100
AcDbArc
50
89.931245
51
150.833316
0
ARC
5
B9
100
AcDbEntity
8
1
62
256
6
ByLayer
370
18
48
1
60
0
100
AcDbCircle
39
0
10
1.397129
20
6.979763
30
0
40
0.800000000000002
210
0
220
0
230
1
100
AcDbArc
50
209.166684
51
270.068755
0
ARC
5
BA
100
AcDbEntity
8
1
62
256
6
ByLayer
370
18
48
1
60
0
100
AcDbCircle
39
0
10
0
20
6.2
30
0
40
0.799999999999997
210
0
220
0
230
1
100
AcDbArc
50
29.166684
51
90
0
ELLIPSE
5
BB
100
AcDbEntity
8
1
62
256
6
ByLayer
370
18
48
1
60
0
100
AcDbEllipse
10
62.073805
20
-0.148947
30
0
11
0.10715824804888
21
-0.326150757989903
31
0
210
0
220
0
230
1
40
0.050974
41
-2.34746928592388
42
-2.17396021289327
0
ELLIPSE
5
BC
100
AcDbEntity
8
1
62
256
6
ByLayer
370
13
48
1
60
0
100
AcDbEllipse
10
4.25022
20
-1.757127
30
0
11
0.0429931920415129
21
0.0902861309287401
31
0
210
0
220
0
230
1
40
0.128458
41
1.30401230862573
42
2.86208831244714
0
ELLIPSE
5
BD
100
AcDbEntity
8
1
62
256
6
ByLayer
370
18
48
1
60
0
100
AcDbEllipse
10
62.001047
20
-0.002731
30
0
11
2.28905425876595
21
-6.25019862173598
31
0
210
0
220
0
230
1
40
0.073902
41
2.86203823247108
42
2.92748344232138
0
ELLIPSE
5
BE
100
AcDbEntity
8
1
62
256
6
ByLayer
370
18
48
1
60
0
100
AcDbEllipse
10
52.414432
20
2.229547
30
0
11
9.14397571671595
21
-0.596547346734448
31
0
210
0
220
0
230
1
40
0.058294
41
0.0204238123136783
42
0.292707062288239
0
ELLIPSE
5
BF
100
AcDbEntity
8
1
62
256
6
ByLayer
370
18
48
1
60
0
100
AcDbEllipse
10
61.298438
20
-2.229547
30
0
11
0.292882377391503
21
0.799707144513875
31
0
210
0
220
0
230
1
40
0.073902
41
-1.40729789980564
42
-0.722600159233629
0
ELLIPSE
5
C0
100
AcDbEntity
8
1
62
256
6
ByLayer
370
13
48
1
60
0
100
AcDbEllipse
10
4.183073
20
-1.729887
30
0
11
-0.0311738022105157
21
-0.0950168093325579
31
0
210
0
220
0
230
1
40
0.506503
41
-1.67512006909857
42
-0.316889023245545
0
ELLIPSE
5
C1
100
AcDbEntity
8
1
62
256
6
ByLayer
370
18
48
1
60
0
100
AcDbEllipse
10
62.001046
20
0.00273
30
0
11
2.28905384906296
21
6.25019743668376
31
0
210
0
220
0
230
1
40
0.073902
41
-2.92748342224282
42
-2.86203820604133
0
ELLIPSE
5
C2
100
AcDbEntity
8
1
62
256
6
ByLayer
370
18
48
1
60
0
100
AcDbEllipse
10
61.298438
20
2.229547
30
0
11
0.292882377367141
21
-0.799707144456472
31
0
210
0
220
0
230
1
40
0.073902
41
0.72260015922972
42
1.40729789984664
0
ELLIPSE
5
C3
100
AcDbEntity
8
1
62
256
6
ByLayer
370
18
48
1
60
0
100
AcDbEllipse
10
62.073805
20
0.148947
30
0
11
0.10715826484139
21
0.326150803517421
31
0
210
0
220
0
230
1
40
0.050974
41
2.17396027043645
42
2.34746932585429
0
ELLIPSE
5
C4
100
AcDbEntity
8
1
62
256
6
ByLayer
370
18
48
1
60
0
100
AcDbEllipse
10
61.9518
20
-0.059378
30
0
11
0.0685673025894318
21
0.197677258988056
31
0
210
0
220
0
230
1
40
0.089621
41
-2.14968638259076
42
-1.08935094130098
0
ELLIPSE
5
C5
100
AcDbEntity
8
1
62
256
6
ByLayer
370
18
48
1
60
0
100
AcDbEllipse
10
61.888505
20
-0.012918
30
0
11
0.0325465074576168
21
0.216393606143773
31
0
210
0
220
0
230
1
40
0.489636
41
-1.31361200518342
42
-1.29082015279682
0
POINT
5
70
100
AcDbEntity
8
80
62
256
6
ByLayer
370
18
48
1
60
0
100
AcDbPoint
10
0
20
0
30
0
39
0
210
0
220
0
230
1
50
360
0
POINT
5
72
100
AcDbEntity
8
81
62
256
6
ByLayer
370
18
48
1
60
0
100
AcDbPoint
10
62
20
0
30
0
39
0
210
0
220
0
230
1
50
360
0
POINT
5
74
100
AcDbEntity
8
1
62
256
6
ByLayer
370
18
48
1
60
1
100
AcDbPoint
10
59.7
20
-6.25
30
0
39
0
210
0
220
0
230
1
50
360
0
POINT
5
76
100
AcDbEntity
8
1
62
256
6
ByLayer
370
18
48
1
60
1
100
AcDbPoint
10
-45
20
-7
30
0
39
0
210
0
220
0
230
1
50
360
0
POINT
5
77
100
AcDbEntity
8
1
62
256
6
ByLayer
370
18
48
1
60
1
100
AcDbPoint
10
21.4151
20
6.25
30
0
39
0
210
0
220
0
230
1
50
360
0
POINT
5
78
100
AcDbEntity
8
1
62
256
6
ByLayer
370
18
48
1
60
1
100
AcDbPoint
10
59.7
20
-6.25
30
0
39
0
210
0
220
0
230
1
50
360
0
POINT
5
79
100
AcDbEntity
8
1
62
256
6
ByLayer
370
18
48
1
60
1
100
AcDbPoint
10
-45
20
-7
30
0
39
0
210
0
220
0
230
1
50
360
0
POINT
5
7A
100
AcDbEntity
8
1
62
256
6
ByLayer
370
18
48
1
60
1
100
AcDbPoint
10
59.7
20
-6.25
30
0
39
0
210
0
220
0
230
1
50
360
0
SPLINE
5
C6
100
AcDbEntity
8
SK1
62
256
6
ByLayer
370
18
48
1
60
0
100
AcDbSpline
70
4
71
3
72
8
73
4
40
0
40
0
40
0
40
0
40
1
40
1
40
1
40
1
41
1
10
-45
20
3.07447731265273
30
0
41
1
10
-44.6675536759396
20
3.34194559902721
30
0
41
1
10
-44.3340714903084
20
3.60862286982902
30
0
41
1
10
-44
20
3.8748501295581
30
0
0
SPLINE
5
C7
100
AcDbEntity
8
SK1
62
256
6
ByLayer
370
18
48
1
60
0
100
AcDbSpline
70
4
71
3
72
12
73
8
40
0
40
0
40
0
40
0
40
0.499999999999996
40
0.499999999999996
40
0.749999999999998
40
0.749999999999998
40
1
40
1
40
1
40
1
41
1
10
-44
20
3.87485012955807
30
0
41
1
10
-43.9765327896066
20
3.89355154915768
30
0
41
1
10
-43.9537933335546
20
3.91794593880533
30
0
41
1
10
-43.9256395554469
20
3.95922219639931
30
0
41
1
10
-43.9170544494916
20
3.97414558003075
30
0
41
1
10
-43.9042462819584
20
4.00418578569494
30
0
41
1
10
-43.9
20
4.01966892561342
30
0
41
1
10
-43.9
20
4.03247931472561
30
0
0
SPLINE
5
C8
100
AcDbEntity
8
SK1
62
256
6
ByLayer
370
18
48
1
60
0
100
AcDbSpline
70
4
71
3
72
8
73
4
40
0
40
0
40
0
40
0
40
1
40
1
40
1
40
1
41
1
10
-44
20
5.43928095650784
30
0
41
1
10
-44.3340782032467
20
5.17304834712385
30
0
41
1
10
-44.6675617029717
20
4.90636996786219
30
0
41
1
10
-45
20
4.63890813960248
30
0
0
SPLINE
5
C9
100
AcDbEntity
8
SK1
62
256
6
ByLayer
370
18
48
1
60
0
100
AcDbSpline
70
4
71
3
72
12
73
8
40
0
40
0
40
0
40
0
40
0.249999999999999
40
0.249999999999999
40
0.499999999999997
40
0.499999999999997
40
1
40
1
40
1
40
1
41
1
10
-43.9
20
5.47175567551937
30
0
41
1
10
-43.9
20
5.47969755792244
30
0
41
1
10
-43.9041998444558
20
5.48369860627616
30
0
41
1
10
-43.9170251101741
20
5.48558078585216
30
0
41
1
10
-43.9254982498691
20
5.4836421977754
30
0
41
1
10
-43.953851178414
20
5.47242900799398
30
0
41
1
10
-43.9765383593972
20
5.45797793744651
30
0
41
1
10
-44
20
5.43928095650784
30
0
0
SPLINE
5
CA
100
AcDbEntity
8
1
62
256
6
ByLayer
370
18
48
1
60
0
100
AcDbSpline
70
4
71
3
72
28
73
24
40
0
40
0
40
0
40
0
40
0.125
40
0.125
40
0.25
40
0.25
40
0.375
40
0.375
40
0.4375
40
0.4375
40
0.5
40
0.5
40
0.625
40
0.625
40
0.75
40
0.75
40
0.8125
40
0.8125
40
0.875
40
0.875
40
0.9375
40
0.9375
40
1
40
1
40
1
40
1
41
1
10
59.9283076649752
20
6.05150254582691
30
0
41
1
10
59.9900493551244
20
5.89762184280795
30
0
41
1
10
60.051890530007
20
5.74187721467257
30
0
41
1
10
60.1757063716233
20
5.42788688305868
30
0
41
1
10
60.2376820164473
20
5.26962285428374
30
0
41
1
10
60.3618369638323
20
4.94927910805549
30
0
41
1
10
60.424004677659
20
4.78741651469846
30
0
41
1
10
60.5173606588564
20
4.54266641221579
30
0
41
1
10
60.5484899346422
20
4.46088415705745
30
0
41
1
10
60.6107994290223
20
4.2963651929665
30
0
41
1
10
60.6419799509848
20
4.21362280019017
30
0
41
1
10
60.7355916338086
20
3.96408192562271
30
0
41
1
10
60.7982635091282
20
3.79551819739481
30
0
41
1
10
60.9226232289087
20
3.45924344162012
30
0
41
1
10
60.9842356231891
20
3.29134006128464
30
0
41
1
10
61.0757289115092
20
3.03986654458237
30
0
41
1
10
61.1060646270381
20
2.95610886008359
30
0
41
1
10
61.1664553484051
20
2.78870924326444
30
0
41
1
10
61.1964823730223
20
2.70507884915375
30
0
41
1
10
61.2564302372249
20
2.53786184691154
30
0
41
1
10
61.2863624141037
20
2.45427056378509
30
0
41
1
10
61.3457623815348
20
2.28727948977718
30
0
41
1
10
61.3752892549801
20
2.20385533574114
30
0
41
1
10
61.404650835007
20
2.12049934135146
30
0
0
SPLINE
5
CB
100
AcDbEntity
8
1
62
256
6
ByLayer
370
13
48
1
60
0
100
AcDbSpline
70
4
71
3
72
28
73
24
40
0
40
0
40
0
40
0
40
0.125
40
0.125
40
0.1875
40
0.1875
40
0.25
40
0.25
40
0.375
40
0.375
40
0.5
40
0.5
40
0.5625
40
0.5625
40
0.625
40
0.625
40
0.75
40
0.75
40
0.8125
40
0.8125
40
0.875
40
0.875
40
1
40
1
40
1
40
1
41
1
10
4.25036694955477
20
-1.72799754929244
30
0
41
1
10
4.25037975351387
20
-1.43769360568132
30
0
41
1
10
4.25038836528805
20
-1.14392624761248
30
0
41
1
10
4.25039706986325
20
-0.698246533108687
30
0
41
1
10
4.25039926618553
20
-0.548844737237374
30
0
41
1
10
4.25040257145668
20
-0.248340693869096
30
0
41
1
10
4.25040368187456
20
-0.0968290588925242
30
0
41
1
10
4.25040584898173
20
0.357544472081088
30
0
41
1
10
4.25040575604945
20
0.656574328685281
30
0
41
1
10
4.25040519846695
20
1.24714919384502
30
0
41
1
10
4.25040472401548
20
1.53869395103931
30
0
41
1
10
4.25040548222151
20
1.9702153542643
30
0
41
1
10
4.25040598205962
20
2.112934442495
30
0
41
1
10
4.2504077002514
20
2.39154878380731
30
0
41
1
10
4.25040891882043
20
2.52807093622451
30
0
41
1
10
4.25041394024191
20
2.92942849743744
30
0
41
1
10
4.25041912089657
20
3.18610196683369
30
0
41
1
10
4.25043053169696
20
3.55449177260945
30
0
41
1
10
4.25043495280832
20
3.67481209544758
30
0
41
1
10
4.25044504121249
20
3.90807595288013
30
0
41
1
10
4.25045070266196
20
4.02096455014279
30
0
41
1
10
4.25046952405611
20
4.34760671488712
30
0
41
1
10
4.25048436254505
20
4.54652259413689
30
0
41
1
10
4.25050115977513
20
4.72734487189396
30
0
0
SPLINE
5
CC
100
AcDbEntity
8
1
62
256
6
ByLayer
370
18
48
1
60
0
100
AcDbSpline
70
4
71
3
72
16
73
12
40
0
40
0
40
0
40
0
40
0.181410543699015
40
0.181410543699015
40
0.599167267862354
40
0.599167267862354
40
0.808045629944022
40
0.808045629944022
40
0.912484810984854
40
0.912484810984854
40
1
40
1
40
1
40
1
41
1
10
19.6803642184622
20
-5.95194595126191
30
0
41
1
10
19.1751394336861
20
-5.95056195401139
30
0
41
1
10
18.6717378784618
20
-5.93363858364202
30
0
41
1
10
17.0126959945821
20
-5.82813887414375
30
0
41
1
10
15.8612555263595
20
-5.67443008241378
30
0
41
1
10
14.1293590094564
20
-5.33158583234908
30
0
41
1
10
13.5511466025751
20
-5.19861308215062
30
0
41
1
10
12.6809644705274
20
-4.97252220578326
30
0
41
1
10
12.390408657676
20
-4.89272839206902
30
0
41
1
10
11.855181734262
20
-4.73813959310718
30
0
41
1
10
11.610435549638
20
-4.66454358335008
30
0
41
1
10
11.3656445513347
20
-4.58813806676093
30
0
0
SPLINE
5
CD
100
AcDbEntity
8
1
62
256
6
ByLayer
370
13
48
1
60
0
100
AcDbSpline
70
4
71
3
72
12
73
8
40
0
40
0
40
0
40
0
40
0.0198536470887187
40
0.0198536470887187
40
0.509926823544359
40
0.509926823544359
40
1
40
1
40
1
40
1
41
1
10
11.3656445520219
20
-4.58813806697546
30
0
41
1
10
11.3183060160499
20
-4.57336250202275
30
0
41
1
10
11.270965804173
20
-4.55848186946071
30
0
41
1
10
10.0551498198047
20
-4.17364181090494
30
0
41
1
10
8.89618393088563
20
-3.74327509715599
30
0
41
1
10
6.57771970385025
20
-2.79440297065361
30
0
41
1
10
5.41874913011515
20
-2.27514964164055
30
0
41
1
10
4.25036694955475
20
-1.72799754929244
30
0
0
SPLINE
5
CE
100
AcDbEntity
8
1
62
256
6
ByLayer
370
18
48
1
60
0
100
AcDbSpline
70
4
71
3
72
48
73
44
40
0
40
0
40
0
40
0
40
0.0624999999999995
40
0.0624999999999995
40
0.124999999999999
40
0.124999999999999
40
0.187499999999998
40
0.187499999999998
40
0.249999999999998
40
0.249999999999998
40
0.312499999999997
40
0.312499999999997
40
0.374999999999997
40
0.374999999999997
40
0.437499999999996
40
0.437499999999996
40
0.499999999999996
40
0.499999999999996
40
0.531249999999995
40
0.531249999999995
40
0.562499999999995
40
0.562499999999995
40
0.593749999999995
40
0.593749999999995
40
0.624999999999995
40
0.624999999999995
40
0.656249999999994
40
0.656249999999994
40
0.687499999999994
40
0.687499999999994
40
0.718749999999994
40
0.718749999999994
40
0.749999999999994
40
0.749999999999994
40
0.781249999999993
40
0.781249999999993
40
0.812499999999993
40
0.812499999999993
40
0.874999999999995
40
0.874999999999995
40
0.937499999999998
40
0.937499999999998
40
1
40
1
40
1
40
1
41
1
10
61.0962780668751
20
-2.45419205516322
30
0
41
1
10
61.0706910559066
20
-2.4395828574545
30
0
41
1
10
61.0423302478877
20
-2.43337706318161
30
0
41
1
10
60.9809848175769
20
-2.43497362881809
30
0
41
1
10
60.9476927337968
20
-2.44299635239707
30
0
41
1
10
60.8788101406823
20
-2.47160730020286
30
0
41
1
10
60.8430852928991
20
-2.49210687422379
30
0
41
1
10
60.7691717149939
20
-2.5449961078177
30
0
41
1
10
60.7310891399129
20
-2.57741048205895
30
0
41
1
10
60.6548919897822
20
-2.65214771085041
30
0
41
1
10
60.6164814249203
20
-2.69466065840902
30
0
41
1
10
60.5389839059402
20
-2.79083939160193
30
0
41
1
10
60.4999360503201
20
-2.84458417242163
30
0
41
1
10
60.4242624584872
20
-2.96038681283881
30
0
41
1
10
60.3870923627786
20
-3.02315385465639
30
0
41
1
10
60.3154668125272
20
-3.15874837909061
30
0
41
1
10
60.2820020505465
20
-3.22962818998227
30
0
41
1
10
60.2360302854865
20
-3.34149512103903
30
0
41
1
10
60.2213942805646
20
-3.37984920480665
30
0
41
1
10
60.1946633472066
20
-3.4561346193783
30
0
41
1
10
60.1824416422024
20
-3.49435104041464
30
0
41
1
10
60.16047816666
20
-3.57094371060054
30
0
41
1
10
60.1506959945838
20
-3.60959876812805
30
0
41
1
10
60.1345359432277
20
-3.68412698023252
30
0
41
1
10
60.128048953307
20
-3.72031493688388
30
0
41
1
10
60.1183008119286
20
-3.79051168746955
30
0
41
1
10
60.1150407271612
20
-3.82482803054307
30
0
41
1
10
60.1120144523549
20
-3.88890321239018
30
0
41
1
10
60.1121912150081
20
-3.91884449884452
30
0
41
1
10
60.1157326426183
20
-3.97477251016741
30
0
41
1
10
60.1191466531795
20
-4.00088372680895
30
0
41
1
10
60.128790505348
20
-4.04783858947022
30
0
41
1
10
60.1350132312158
20
-4.0688812123455
30
0
41
1
10
60.1500150017061
20
-4.10652317748406
30
0
41
1
10
60.1588576735961
20
-4.12317097469682
30
0
41
1
10
60.1784535699355
20
-4.15155498206099
30
0
41
1
10
60.1892372571514
20
-4.16341551044161
30
0
41
1
10
60.2242404935555
20
-4.19272415756393
30
0
41
1
10
60.2514315169465
20
-4.20395915771076
30
0
41
1
10
60.3102142129878
20
-4.21114640146291
30
0
41
1
10
60.341748876245
20
-4.20731515243318
30
0
41
1
10
60.4086257663834
20
-4.18646249555999
30
0
41
1
10
60.444207333977
20
-4.16919588318871
30
0
41
1
10
60.4804614257536
20
-4.14613437116978
30
0
0
SPLINE
5
CF
100
AcDbEntity
8
1
62
256
6
ByLayer
370
13
48
1
60
0
100
AcDbSpline
70
4
71
3
72
14
73
10
40
0
40
0
40
0
40
0
40
0.25
40
0.25
40
0.5
40
0.5
40
0.75
40
0.75
40
1
40
1
40
1
40
1
41
1
10
4.00000106953621
20
-1.64159677306603
30
0
41
1
10
4.00005555962113
20
-1.65871767660849
30
0
41
1
10
4.00308974342371
20
-1.6763021197207
30
0
41
1
10
4.01502158171076
20
-1.70989610434916
30
0
41
1
10
4.02394925479598
20
-1.72617834547148
30
0
41
1
10
4.04723341315065
20
-1.7563911940625
30
0
41
1
10
4.06193343355145
20
-1.77071671291847
30
0
41
1
10
4.09649173414664
20
-1.79583901130306
30
0
41
1
10
4.11609973472389
20
-1.8066002382713
30
0
41
1
10
4.13845436867817
20
-1.81525299142754
30
0
0
SPLINE
5
D0
100
AcDbEntity
8
1
62
256
6
ByLayer
370
18
48
1
60
0
100
AcDbSpline
70
4
71
3
72
8
73
4
40
0
40
0
40
0
40
0
40
1
40
1
40
1
40
1
41
1
10
59.9181165796659
20
-5.98751976553945
30
0
41
1
10
59.8995636930394
20
-6.0385852260257
30
0
41
1
10
59.8809926877609
20
-6.08964346884636
30
0
41
1
10
59.862403569439
20
-6.14069449623568
30
0
0
SPLINE
5
D1
100
AcDbEntity
8
1
62
256
6
ByLayer
370
18
48
1
60
0
100
AcDbSpline
70
4
71
3
72
46
73
42
40
0
40
0
40
0
40
0
40
0.0312499999999962
40
0.0312499999999962
40
0.0624999999999925
40
0.0624999999999925
40
0.0937499999999887
40
0.0937499999999887
40
0.109374999999988
40
0.109374999999988
40
0.124999999999987
40
0.156249999999987
40
0.156249999999987
40
0.187499999999987
40
0.187499999999987
40
0.218749999999988
40
0.218749999999988
40
0.234374999999988
40
0.234374999999988
40
0.249999999999988
40
0.281249999999989
40
0.281249999999989
40
0.296874999999989
40
0.296874999999989
40
0.312499999999989
40
0.312499999999989
40
0.34374999999999
40
0.34374999999999
40
0.359374999999992
40
0.359374999999992
40
0.367187499999991
40
0.367187499999991
40
0.374999999999991
40
0.374999999999991
40
0.499999999999991
40
0.499999999999991
40
0.749999999999995
40
0.749999999999995
40
0.874999999999998
40
0.874999999999998
40
1
40
1
40
1
40
1
41
1
10
59.6003366539903
20
1.53699780096136
30
0
41
1
10
59.6301062593572
20
1.4559166843265
30
0
41
1
10
59.6612683112427
20
1.37528834803203
30
0
41
1
10
59.7251705908951
20
1.21454484920119
30
0
41
1
10
59.7578522397452
20
1.13441063862126
30
0
41
1
10
59.8254734058641
20
0.974876406112429
30
0
41
1
10
59.8604232422616
20
0.895479739643577
30
0
41
1
10
59.9144980734657
20
0.776921293580358
30
0
41
1
10
59.9331242229113
20
0.737609712949194
30
0
41
1
10
59.9691678182433
20
0.65853949696978
30
0
41
1
10
60.021361206892
20
0.539105089724643
30
0
41
1
10
60.0664302383485
20
0.416515409149582
30
0
41
1
10
60.1181643210472
20
0.249360884126617
30
0
41
1
10
60.1398988584409
20
0.163667797319391
30
0
41
1
10
60.1710360359759
20
-0.0065951335689931
30
0
41
1
10
60.1804890439836
20
-0.0917790438596739
30
0
41
1
10
60.1836268436321
20
-0.219649598734605
30
0
41
1
10
60.1828225162361
20
-0.262589588869474
30
0
41
1
10
60.177555982427
20
-0.346802783229862
30
0
41
1
10
60.1643411898054
20
-0.470488859113573
30
0
41
1
10
60.1353461395016
20
-0.58635541006683
30
0
41
1
10
60.0955489946581
20
-0.696869244400659
30
0
41
1
10
60.080882729261
20
-0.732794626272323
30
0
41
1
10
60.0468787832023
20
-0.799113135546037
30
0
41
1
10
60.0278734474808
20
-0.830119199070339
30
0
41
1
10
59.9676389163951
20
-0.919678157258318
30
0
41
1
10
59.9220316657238
20
-0.974084147298697
30
0
41
1
10
59.8484936842025
20
-1.04750781567102
30
0
41
1
10
59.8231034120166
20
-1.07067118547602
30
0
41
1
10
59.7839332515996
20
-1.10356219826252
30
0
41
1
10
59.7707067548592
20
-1.11422208253214
30
0
41
1
10
59.7438565177762
20
-1.1348310504905
30
0
41
1
10
59.7300460356117
20
-1.14441746096924
30
0
41
1
10
59.4968874112691
20
-1.3102903383371
30
0
41
1
10
59.2668157325072
20
-1.44481006550473
30
0
41
1
10
58.5508386024474
20
-1.78104359030016
30
0
41
1
10
58.0500390279529
20
-1.91151929857551
30
0
41
1
10
57.2701258795561
20
-1.99267850063296
30
0
41
1
10
57.004658995288
20
-2.00120327555268
30
0
41
1
10
56.4726106308414
20
-1.98730897403621
30
0
41
1
10
56.2054721234983
20
-1.96489853230349
30
0
41
1
10
55.9375591412137
20
-1.93174083991542
30
0
0
SPLINE
5
D2
100
AcDbEntity
8
1
62
256
6
ByLayer
370
18
48
1
60
0
100
AcDbSpline
70
4
71
3
72
12
73
8
40
0
40
0
40
0
40
0
40
0.25000000000001
40
0.25000000000001
40
0.50000000000002
40
0.50000000000002
40
1
40
1
40
1
40
1
41
1
10
4.13646088285714
20
-1.85472461237734
30
0
41
1
10
4.11591701088744
20
-1.84472700312884
30
0
41
1
10
4.09726992254528
20
-1.83229277149604
30
0
41
1
10
4.06367109698357
20
-1.80264894863009
30
0
41
1
10
4.04897193008125
20
-1.7855280457631
30
0
41
1
10
4.01321678945874
20
-1.7297993150413
30
0
41
1
10
4.00011549271969
20
-1.68605493717394
30
0
41
1
10
4.00000106944293
20
-1.64159677306998
30
0
0
SPLINE
5
D3
100
AcDbEntity
8
1
62
256
6
ByLayer
370
18
48
1
60
0
100
AcDbSpline
70
4
71
3
72
8
73
4
40
0
40
0
40
0
40
0
40
1
40
1
40
1
40
1
41
1
10
61.3962657166765
20
2.12073380713352
30
0
41
1
10
61.399060779148
20
2.12065566659652
30
0
41
1
10
61.4018558186579
20
2.12057751137823
30
0
41
1
10
61.404650835007
20
2.12049934135143
30
0
0
SPLINE
5
D4
100
AcDbEntity
8
1
62
256
6
ByLayer
370
18
48
1
60
0
100
AcDbSpline
70
4
71
3
72
64
73
60
40
0
40
0
40
0
40
0
40
0.0625000000000006
40
0.0625000000000006
40
0.125000000000001
40
0.125000000000001
40
0.187500000000002
40
0.187500000000002
40
0.250000000000002
40
0.250000000000002
40
0.375000000000002
40
0.375000000000002
40
0.500000000000002
40
0.500000000000002
40
0.625000000000002
40
0.625000000000002
40
0.687500000000001
40
0.687500000000001
40
0.718750000000002
40
0.718750000000002
40
0.734375000000002
40
0.734375000000002
40
0.736328125000002
40
0.736328125000002
40
0.738281250000002
40
0.738281250000002
40
0.740234375000002
40
0.740234375000002
40
0.742187500000002
40
0.742187500000002
40
0.750000000000002
40
0.750000000000002
40
0.781250000000002
40
0.781250000000002
40
0.812500000000002
40
0.812500000000002
40
0.828125000000002
40
0.828125000000002
40
0.843750000000002
40
0.843750000000002
40
0.859375000000002
40
0.859375000000002
40
0.867187500000002
40
0.867187500000002
40
0.875000000000002
40
0.875000000000002
40
0.890625000000002
40
0.890625000000002
40
0.906250000000002
40
0.906250000000002
40
0.921875000000001
40
0.921875000000001
40
0.937500000000001
40
0.937500000000001
40
0.96875
40
0.96875
40
0.984375
40
0.984375
40
1
40
1
40
1
40
1
41
1
10
24.8493642862991
20
5.43173123706356
30
0
41
1
10
24.314059704064
20
5.56473125143341
30
0
41
1
10
23.7735154164
20
5.67495775054891
30
0
41
1
10
22.6824841903267
20
5.85919715354848
30
0
41
1
10
22.1319775405857
20
5.93312411765845
30
0
41
1
10
21.0207914272797
20
6.05118929451646
30
0
41
1
10
20.4590600050888
20
6.09532059399186
30
0
41
1
10
19.3330172474641
20
6.15899370161401
30
0
41
1
10
18.7680908577998
20
6.17864378235245
30
0
41
1
10
17.0666576610218
20
6.21000144540881
30
0
41
1
10
15.923440914251
20
6.19425764911159
30
0
41
1
10
13.615179301274
20
6.13309573509471
30
0
41
1
10
12.4501455245623
20
6.08783279033401
30
0
41
1
10
10.0958929631304
20
6.00433890951228
30
0
41
1
10
8.90672959062931
20
5.96627766905314
30
0
41
1
10
7.10357865899886
20
5.93266557928317
30
0
41
1
10
6.50044456065507
20
5.92529635496157
30
0
41
1
10
5.59622141053353
20
5.92098903199184
30
0
41
1
10
5.29466396579627
20
5.920665288571
30
0
41
1
10
4.84244262175281
20
5.92187849382762
30
0
41
1
10
4.69169558975477
20
5.92256546005495
30
0
41
1
10
4.52216974072957
20
5.92365431336461
30
0
41
1
10
4.50331908490367
20
5.92374247731772
30
0
41
1
10
4.46602221467489
20
5.92484206292841
30
0
41
1
10
4.44752711833897
20
5.92574192313481
30
0
41
1
10
4.41094336960134
20
5.92845579426304
30
0
41
1
10
4.39256675615286
20
5.93029926672932
30
0
41
1
10
4.35866124296874
20
5.93523853444265
30
0
41
1
10
4.34178180235028
20
5.93772575463407
30
0
41
1
10
4.25741489277772
20
5.95008121423666
30
0
41
1
10
4.19037775065405
20
5.95988494124006
30
0
41
1
10
3.85765845315467
20
6.00837460764043
30
0
41
1
10
3.59825140498572
20
6.04571212697695
30
0
41
1
10
3.11105082658963
20
6.1111973522012
30
0
41
1
10
2.88211157513001
20
6.13966345502189
30
0
41
1
10
2.57451656988493
20
6.16827389267633
30
0
41
1
10
2.47778961723236
20
6.17537072363567
30
0
41
1
10
2.30695594130208
20
6.18202402031176
30
0
41
1
10
2.23202638840627
20
6.18169089075408
30
0
41
1
10
2.10911471527973
20
6.17078146450385
30
0
41
1
10
2.06340852667716
20
6.16033992613464
30
0
41
1
10
2.02056167216085
20
6.13601619941443
30
0
41
1
10
2.01055823093068
20
6.12646059743213
30
0
41
1
10
1.99951921718636
20
6.10420963912651
30
0
41
1
10
1.99858344111462
20
6.09153386360981
30
0
41
1
10
2.00896407240489
20
6.04986699483692
30
0
41
1
10
2.03320523026994
20
6.01693999392299
30
0
41
1
10
2.11181927197805
20
5.94146575527822
30
0
41
1
10
2.16508944958275
20
5.89995996446936
30
0
41
1
10
2.29178673528696
20
5.81146358977423
30
0
41
1
10
2.36539907292865
20
5.7643419560317
30
0
41
1
10
2.52886480707417
20
5.66516306814981
30
0
41
1
10
2.61720361437884
20
5.61402199609401
30
0
41
1
10
2.89658230389148
20
5.45693173704962
30
0
41
1
10
3.10193752502397
20
5.34723145857757
30
0
41
1
10
3.42839703686255
20
5.17673189679573
30
0
41
1
10
3.54055831432259
20
5.11880392948538
30
0
41
1
10
3.76780525067426
20
5.00232115952215
30
0
41
1
10
3.88317845214567
20
4.94361610404081
30
0
41
1
10
4.00000095309699
20
4.88446459681307
30
0
0
SPLINE
5
D5
100
AcDbEntity
8
1
62
256
6
ByLayer
370
18
48
1
60
0
100
AcDbSpline
70
4
71
3
72
8
73
4
40
0
40
0
40
0
40
0
40
1
40
1
40
1
40
1
41
1
10
59.8062926516388
20
-5.99839785495078
30
0
41
1
10
59.8363021210309
20
-6.00676146916024
30
0
41
1
10
59.8800077772093
20
-5.97639972151273
30
0
41
1
10
59.9370465811753
20
-5.90833908870195
30
0
0
SPLINE
5
D6
100
AcDbEntity
8
1
62
256
6
ByLayer
370
13
48
1
60
0
100
AcDbSpline
70
4
71
3
72
8
73
4
40
0
40
0
40
0
40
0
40
1
40
1
40
1
40
1
41
1
10
4.25036694955475
20
-1.72799754929244
30
0
41
1
10
4.21148992616114
20
-1.71706721435973
30
0
41
1
10
4.17355552167601
20
-1.70904985013087
30
0
41
1
10
4.13845436867817
20
-1.70428904184823
30
0
0
SPLINE
5
D7
100
AcDbEntity
8
1
62
256
6
ByLayer
370
18
48
1
60
0
100
AcDbSpline
70
4
71
3
72
12
73
8
40
0
40
0
40
0
40
0
40
0.194443743259491
40
0.194443743259491
40
0.699492486949687
40
0.699492486949687
40
1
40
1
40
1
40
1
41
1
10
57.7854242948862
20
-5.99756235230046
30
0
41
1
10
57.3377259395766
20
-5.99645433598121
30
0
41
1
10
56.891545688628
20
-5.98307886564572
30
0
41
1
10
55.2900609319503
20
-5.89197534427518
30
0
41
1
10
54.1402320372596
20
-5.74553765953152
30
0
41
1
10
52.3026412766083
20
-5.39138647916116
30
0
41
1
10
51.6162944155291
20
-5.23267324044267
30
0
41
1
10
50.927159566493
20
-5.04893396073339
30
0
0
SPLINE
5
D8
100
AcDbEntity
8
1
62
256
6
ByLayer
370
13
48
1
60
0
100
AcDbSpline
70
4
71
3
72
28
73
24
40
0
40
0
40
0
40
0
40
0.0820074585414872
40
0.0820074585414872
40
0.132630215356832
40
0.132630215356832
40
0.183252972172177
40
0.183252972172177
40
0.284498485802865
40
0.284498485802865
40
0.48698951306424
40
0.48698951306424
40
0.588235026694929
40
0.588235026694929
40
0.689480540325618
40
0.689480540325618
40
0.790726053956306
40
0.790726053956306
40
0.841348810771651
40
0.841348810771651
40
0.891971567586997
40
0.891971567586997
40
1
40
1
40
1
40
1
41
1
10
50.9271595664939
20
-5.04893396073362
30
0
41
1
10
50.4580981155239
20
-4.92387133581897
30
0
41
1
10
49.987745023162
20
-4.78721444618211
30
0
41
1
10
49.223965960599
20
-4.54825109242279
30
0
41
1
10
48.9319333224193
20
-4.45283007067607
30
0
41
1
10
48.3501660278034
20
-4.25522051176182
30
0
41
1
10
48.05993921637
20
-4.15288197937022
30
0
41
1
10
47.1907869825989
20
-3.83604677194458
30
0
41
1
10
46.613342228122
20
-3.61181348750514
30
0
41
1
10
44.8834995947691
20
-2.9062877835517
30
0
41
1
10
43.7339587005383
20
-2.39145848954857
30
0
41
1
10
42.0012243844782
20
-1.57848666730936
30
0
41
1
10
41.4223143243766
20
-1.30057516997337
30
0
41
1
10
40.2594289352621
20
-0.735429737446765
30
0
41
1
10
39.6744988162998
20
-0.44787961835712
30
0
41
1
10
38.5085599429967
20
0.126308062875097
30
0
41
1
10
37.9263177969656
20
0.41362371089545
30
0
41
1
10
37.0521793606197
20
0.841130168529702
30
0
41
1
10
36.7606754626958
20
0.983063977864219
30
0
41
1
10
36.1771101035088
20
1.26516866736949
30
0
41
1
10
35.8849086157188
20
1.40539810204274
30
0
41
1
10
34.9706055405159
20
1.83994474245807
30
0
41
1
10
34.3492424020499
20
2.12912144887957
30
0
41
1
10
33.7276050373507
20
2.40880123012329
30
0
0
SPLINE
5
D9
100
AcDbEntity
8
1
62
256
6
ByLayer
370
18
48
1
60
0
100
AcDbSpline
70
4
71
3
72
16
73
12
40
0
40
0
40
0
40
0
40
0.0569015312337334
40
0.0569015312337334
40
0.2579671379346
40
0.2579671379346
40
0.459032744635466
40
0.459032744635466
40
0.861163958037195
40
0.861163958037195
40
1
40
1
40
1
40
1
41
1
10
38.568873627364
20
-0.0135243234230984
30
0
41
1
10
38.7338623270867
20
-0.0961551970841015
30
0
41
1
10
38.898882131509
20
-0.178801653587641
30
0
41
1
10
39.6472821878913
20
-0.553295660488999
30
0
41
1
10
40.2325791946716
20
-0.845347013703417
30
0
41
1
10
41.3959821019113
20
-1.41840872582932
30
0
41
1
10
41.9750970753083
20
-1.69984655769593
30
0
41
1
10
43.7083183044198
20
-2.52211542377927
30
0
41
1
10
44.8581090271945
20
-3.04132325023903
30
0
41
1
10
46.4100015775609
20
-3.67752500248235
30
0
41
1
10
46.8086975276215
20
-3.83536789469568
30
0
41
1
10
47.2082038313588
20
-3.98708793057074
30
0
0
SPLINE
5
DA
100
AcDbEntity
8
1
62
256
6
ByLayer
370
13
48
1
60
0
100
AcDbSpline
70
4
71
3
72
22
73
18
40
0
40
0
40
0
40
0
40
0.0429919746826188
40
0.0429919746826188
40
0.112446160213965
40
0.112446160213965
40
0.181900345745311
40
0.181900345745311
40
0.459717087870695
40
0.459717087870695
40
0.73753382999608
40
0.73753382999608
40
0.876442201058772
40
0.876442201058772
40
0.945896386590118
40
0.945896386590118
40
1
40
1
40
1
40
1
41
1
10
47.2082038311647
20
-3.98708793049698
30
0
41
1
10
47.3872719106718
20
-4.055092403
30
0
41
1
10
47.5665027936598
20
-4.12186676777017
30
0
41
1
10
48.0358035368945
20
-4.29313664166503
30
0
41
1
10
48.3262017091337
20
-4.39553624317119
30
0
41
1
10
48.9083533587872
20
-4.59303397495512
30
0
41
1
10
49.200625362047
20
-4.68828801552618
30
0
41
1
10
50.658912908583
20
-5.14271591826045
30
0
41
1
10
51.8136599561217
20
-5.43653238955037
30
0
41
1
10
54.1184488210556
20
-5.8703179379423
30
0
41
1
10
55.2685172102819
20
-6.00982478439812
30
0
41
1
10
57.0038084447422
20
-6.09573118920466
30
0
41
1
10
57.5839924700938
20
-6.10382576877345
30
0
41
1
10
58.4586223573402
20
-6.08408985073004
30
0
41
1
10
58.7508367176598
20
-6.07218313535384
30
0
41
1
10
59.2700087619576
20
-6.04158407268687
30
0
41
1
10
59.4973085533372
20
-6.02473427809562
30
0
41
1
10
59.7246249884317
20
-6.00500036872955
30
0
0
SPLINE
5
DB
100
AcDbEntity
8
1
62
256
6
ByLayer
370
18
48
1
60
0
100
AcDbSpline
70
4
71
3
72
64
73
60
40
0
40
0
40
0
40
0
40
0.0431230070624213
40
0.0431230070624213
40
0.0862460141248426
40
0.0862460141248426
40
0.129369021187264
40
0.129369021187264
40
0.172492028249685
40
0.172492028249685
40
0.258738042374527
40
0.258738042374527
40
0.280299545905737
40
0.280299545905737
40
0.301861049436948
40
0.301861049436948
40
0.344984056499367
40
0.344984056499367
40
0.366545560030578
40
0.366545560030578
40
0.388107063561788
40
0.388107063561788
40
0.431230070624208
40
0.431230070624208
40
0.474353077686629
40
0.474353077686629
40
0.495914581217839
40
0.495914581217839
40
0.517476084749049
40
0.517476084749049
40
0.560599091811469
40
0.560599091811469
40
0.582160595342679
40
0.582160595342679
40
0.603722098873889
40
0.603722098873889
40
0.689968112998731
40
0.689968112998731
40
0.711529616529941
40
0.711529616529941
40
0.733091120061151
40
0.733091120061151
40
0.776214127123571
40
0.776214127123571
40
0.797775630654781
40
0.797775630654781
40
0.81933713418599
40
0.81933713418599
40
0.86246014124841
40
0.86246014124841
40
0.90558314831083
40
0.90558314831083
40
0.92714465184204
40
0.92714465184204
40
0.94870615537325
40
0.94870615537325
40
0.991829162435671
40
0.991829162435671
40
1
40
1
40
1
40
1
41
1
10
59.862403569449
20
-6.14069449623935
30
0
41
1
10
59.2817144188822
20
-6.1957982592744
30
0
41
1
10
58.7013338263432
20
-6.22959848083943
30
0
41
1
10
57.5389667647851
20
-6.25424147023469
30
0
41
1
10
56.9589829479486
20
-6.24502198138222
30
0
41
1
10
55.8002276240778
20
-6.18406020143289
30
0
41
1
10
55.2211807032992
20
-6.13233828707351
30
0
41
1
10
54.061406935603
20
-5.98712229330783
30
0
41
1
10
53.4796392212784
20
-5.89341893966116
30
0
41
1
10
51.7389369163848
20
-5.55337565903915
30
0
41
1
10
50.5826519665272
20
-5.24810908192003
30
0
41
1
10
49.129910742218
20
-4.78063543381339
30
0
41
1
10
48.8391656933962
20
-4.68288938412991
30
0
41
1
10
48.2587176440149
20
-4.4798905964054
30
0
41
1
10
47.9687707849967
20
-4.37456082603811
30
0
41
1
10
47.0993044801036
20
-4.04775341223845
30
0
41
1
10
46.5201218215951
20
-3.81550506152379
30
0
41
1
10
45.6501097668448
20
-3.44850673296287
30
0
41
1
10
45.3599121676064
20
-3.32305091460168
30
0
41
1
10
44.7788399981004
20
-3.06633388715375
30
0
41
1
10
44.487986079544
20
-2.93507588734656
30
0
41
1
10
43.6170926038223
20
-2.53482900376792
30
0
41
1
10
43.0376054556006
20
-2.25901813536129
30
0
41
1
10
41.8783922620974
20
-1.69398132984071
30
0
41
1
10
41.2986755460954
20
-1.4047383994363
30
0
41
1
10
40.4271084507917
20
-0.964189991663488
30
0
41
1
10
40.1361618217777
20
-0.816174185621207
30
0
41
1
10
39.5553381125682
20
-0.51965584021201
30
0
41
1
10
39.2652086639146
20
-0.371024247256884
30
0
41
1
10
38.3952651477081
20
0.0751997578207693
30
0
41
1
10
37.8158659644788
20
0.373062314674002
30
0
41
1
10
36.9457549498461
20
0.816789806620022
30
0
41
1
10
36.6555535198802
20
0.964196309257517
30
0
41
1
10
36.0745006090056
20
1.25737554756571
30
0
41
1
10
35.7834668663485
20
1.40322886342562
30
0
41
1
10
34.3309343307523
20
2.12445852939672
30
0
41
1
10
33.1738925633217
20
2.67735357658489
30
0
41
1
10
31.7211442892921
20
3.31552407506999
30
0
41
1
10
31.4300574457915
20
3.4406430490593
30
0
41
1
10
30.8488650104636
20
3.68437995653164
30
0
41
1
10
30.5585998139775
20
3.80304126446634
30
0
41
1
10
29.68828943453
20
4.14865983958032
30
0
41
1
10
29.1086765747415
20
4.36517084842802
30
0
41
1
10
28.2383258571483
20
4.66655340003069
30
0
41
1
10
27.9480710391256
20
4.76314182498189
30
0
41
1
10
27.3670537668823
20
4.94823005661362
30
0
41
1
10
27.0760037459389
20
5.03676615341323
30
0
41
1
10
26.2039314683314
20
5.28864988817017
30
0
41
1
10
25.6237921628215
20
5.43836898527141
30
0
41
1
10
24.4636209217916
20
5.69944097741396
30
0
41
1
10
23.8837605526663
20
5.8109235585726
30
0
41
1
10
23.0121868604884
20
5.94780886106866
30
0
41
1
10
22.7210955026307
20
5.98840818550602
30
0
41
1
10
22.1394487065213
20
6.05912373419412
30
0
41
1
10
21.8489743832208
20
6.08924053044964
30
0
41
1
10
20.9781161595377
20
6.16376468085898
30
0
41
1
10
20.3982963920462
20
6.19233926778409
30
0
41
1
10
19.7080075290984
20
6.20100388429498
30
0
41
1
10
19.5980136488829
20
6.2016185346036
30
0
41
1
10
19.4879882740711
20
6.2014674464051
30
0
0
SPLINE
5
DC
100
AcDbEntity
8
1
62
256
6
ByLayer
370
18
48
1
60
0
100
AcDbSpline
70
4
71
3
72
22
73
18
40
0
40
0
40
0
40
0
40
0.125000000000001
40
0.125000000000001
40
0.250000000000001
40
0.250000000000001
40
0.375000000000002
40
0.375000000000002
40
0.437500000000001
40
0.437500000000001
40
0.5
40
0.5
40
0.750000000000001
40
0.750000000000001
40
0.875000000000001
40
0.875000000000001
40
1
40
1
40
1
40
1
41
1
10
4.25050116284964
20
4.72734487189877
30
0
41
1
10
4.50299202069661
20
4.59750870152473
30
0
41
1
10
4.76300058907972
20
4.46569408393316
30
0
41
1
10
5.29337267242252
20
4.19845812673771
30
0
41
1
10
5.56379592952351
20
4.06303716752279
30
0
41
1
10
6.11264940147225
20
3.78899614752351
30
0
41
1
10
6.39111232596585
20
3.65036785556021
30
0
41
1
10
6.81403424147112
20
3.44014412029662
30
0
41
1
10
6.95601895845712
20
3.36962341476817
30
0
41
1
10
7.24035334299532
20
3.22857511764664
30
0
41
1
10
7.38281320651473
20
3.15799647862221
30
0
41
1
10
8.09664694388704
20
2.80457178952864
30
0
41
1
10
8.67253024166982
20
2.52000875719091
30
0
41
1
10
9.54302725372654
20
2.09423117023033
30
0
41
1
10
9.83433289908487
20
1.95248297029855
30
0
41
1
10
10.4193637546425
20
1.67003430870145
30
0
41
1
10
10.7130307741232
20
1.52942953563758
30
0
41
1
10
11.0080812210381
20
1.38962935762902
30
0
0
SPLINE
5
DD
100
AcDbEntity
8
1
62
256
6
ByLayer
370
18
48
1
60
0
100
AcDbSpline
70
4
71
3
72
89
73
85
40
0
40
0
40
0
40
0
40
0.0475964458001318
40
0.0475964458001318
40
0.12058173832587
40
0.12058173832587
40
0.157074384588739
40
0.157074384588739
40
0.193567030851608
40
0.193567030851608
40
0.266552323377346
40
0.266552323377346
40
0.412522908428822
40
0.412522908428822
40
0.449015554691691
40
0.449015554691691
40
0.48550820095456
40
0.48550820095456
40
0.522000847217429
40
0.522000847217429
40
0.526562428000287
40
0.528843218391717
40
0.529983613587431
40
0.529983613587431
40
0.530126162986896
40
0.530126162986896
40
0.53026871238636
40
0.53026871238636
40
0.530553811185289
40
0.530553811185289
40
0.531124008783146
40
0.531124008783146
40
0.533404799174576
40
0.533404799174576
40
0.535685589566006
40
0.535685589566006
40
0.540247170348867
40
0.540247170348867
40
0.558493493480307
40
0.558493493480307
40
0.594986139743189
40
0.594986139743189
40
0.63147878600607
40
0.63147878600607
40
0.704464078531833
40
0.704464078531833
40
0.722710401663273
40
0.722710401663273
40
0.731833563228994
40
0.731833563228994
40
0.736395144011854
40
0.736395144011854
40
0.740956724794714
40
0.740956724794714
40
0.742097119990429
40
0.742097119990429
40
0.742667317588287
40
0.742667317588287
40
0.743237515186144
40
0.743237515186144
40
0.743380064585609
40
0.743380064585609
40
0.743522613985073
40
0.743522613985073
40
0.743807712784002
40
0.744377910381859
40
0.745518305577574
40
0.750079886360435
40
0.759203047926155
40
0.777449371057597
40
0.777449371057597
40
0.81394201732048
40
0.81394201732048
40
0.850434663583362
40
0.850434663583362
40
0.923419956109127
40
0.923419956109127
40
0.95991260237201
40
0.95991260237201
40
0.978158925503452
40
0.978158925503452
40
0.996405248634893
40
0.996405248634893
40
1
40
1
40
1
40
1
41
1
10
24.8493170422316
20
5.43176520822578
30
0
41
1
10
24.5109510943796
20
5.37088962305421
30
0
41
1
10
24.1721398160345
20
5.30339860201886
30
0
41
1
10
23.3120282651041
20
5.11536718367717
30
0
41
1
10
22.7897866986719
20
4.98572609334914
30
0
41
1
10
22.0021104438929
20
4.76842765058205
30
0
41
1
10
21.7388275930956
20
4.6922052920967
30
0
41
1
10
21.2104474938329
20
4.53253139807327
30
0
41
1
10
20.9451890623965
20
4.44901537161354
30
0
41
1
10
20.1519035638017
20
4.19031000423979
30
0
41
1
10
19.624514869548
20
4.00639804550178
30
0
41
1
10
18.0425327749139
20
3.43011025646825
30
0
41
1
10
16.9881232159657
20
3.01306931874643
30
0
41
1
10
15.6555206217859
20
2.48750315631949
30
0
41
1
10
15.3882694038118
20
2.38218862827028
30
0
41
1
10
14.8519292119572
20
2.17211951819402
30
0
41
1
10
14.5825796275668
20
2.06726472478229
30
0
41
1
10
14.0428801328851
20
1.85956250371538
30
0
41
1
10
13.7729320785618
20
1.75686931643543
30
0
41
1
10
13.4690430594096
20
1.64320779885125
30
0
41
1
10
13.4183924936292
20
1.62430374956469
30
0
41
1
10
13.3592955663867
20
1.60232073126255
30
0
41
1
10
13.3339675970573
20
1.59291518849372
30
0
41
1
10
13.3244695166291
20
1.58939009557787
30
0
41
1
10
13.3231280559909
20
1.58921889005686
30
0
41
1
10
13.3219879026234
20
1.58746707067158
30
0
41
1
10
13.3226269092277
20
1.58641144777337
30
0
41
1
10
13.3243455184231
20
1.58396439620029
30
0
41
1
10
13.3258911906002
20
1.58260788368494
30
0
41
1
10
13.3305710316013
20
1.57864949015169
30
0
41
1
10
13.3339400024232
20
1.57627096506641
30
0
41
1
10
13.3510394287895
20
1.56464534814722
30
0
41
1
10
13.3655668722814
20
1.55633801812186
30
0
41
1
10
13.3946647299688
20
1.53988218774109
30
0
41
1
10
13.4093792013952
20
1.53186746548374
30
0
41
1
10
13.4537149036821
20
1.50811858762577
30
0
41
1
10
13.483538384086
20
1.49268608944337
30
0
41
1
10
13.6331693068637
20
1.41634046139737
30
0
41
1
10
13.7543879868763
20
1.35767878023469
30
0
41
1
10
14.1186428253282
20
1.18349969919578
30
0
41
1
10
14.3628817915802
20
1.07053880313273
30
0
41
1
10
14.852193053787
20
0.847886181749715
30
0
41
1
10
15.0974071116063
20
0.73838432253882
30
0
41
1
10
15.8335291590222
20
0.414211501578421
30
0
41
1
10
16.3242750290833
20
0.202804760990659
30
0
41
1
10
16.9342313322337
20
-0.0583261614434036
30
0
41
1
10
17.0560489872002
20
-0.110391622690088
30
0
41
1
10
17.2380229280309
20
-0.18853866018344
30
0
41
1
10
17.2985526627395
20
-0.214589284735666
30
0
41
1
10
17.388867240386
20
-0.25383203649659
30
0
41
1
10
17.4188945301489
20
-0.266940629101271
30
0
41
1
10
17.4785971253673
20
-0.293317767050951
30
0
41
1
10
17.5083731848139
20
-0.306541703868106
30
0
41
1
10
17.5446091294803
20
-0.323519154811947
30
0
41
1
10
17.551802451029
20
-0.326938110929518
30
0
41
1
10
17.5623558124633
20
-0.332172973281729
30
0
41
1
10
17.5658332909407
20
-0.333933272066247
30
0
41
1
10
17.572549486535
20
-0.337527388197458
30
0
41
1
10
17.5761391892086
20
-0.339327673607471
30
0
41
1
10
17.5790124875274
20
-0.34188700581413
30
0
41
1
10
17.5795346030979
20
-0.342571649627757
30
0
41
1
10
17.5778623477194
20
-0.342913823840576
30
0
41
1
10
17.5768227257617
20
-0.342911645365717
30
0
41
1
10
17.5739864725029
20
-0.343145053651739
30
0
41
1
10
17.5683139549514
20
-0.343609978721759
30
0
41
1
10
17.5550780132448
20
-0.344681560115845
30
0
41
1
10
17.5134791263887
20
-0.347966095907253
30
0
41
1
10
17.415147690496
20
-0.355073137513813
30
0
41
1
10
17.2033708616893
20
-0.366977082258444
30
0
41
1
10
17.0217670761902
20
-0.371316737931068
30
0
41
1
10
16.6588861828732
20
-0.372148251205658
30
0
41
1
10
16.4171658267107
20
-0.362253189567383
30
0
41
1
10
15.9325168189604
20
-0.321611945672743
30
0
41
1
10
15.6891621589172
20
-0.290750615905381
30
0
41
1
10
14.9616702298562
20
-0.16842582755578
30
0
41
1
10
14.4781550671718
20
-0.0471249829302565
30
0
41
1
10
13.7452158766258
20
0.187444172829231
30
0
41
1
10
13.4996255316883
20
0.274386067074659
30
0
41
1
10
13.1281641578768
20
0.416859545678165
30
0
41
1
10
13.0038507297001
20
0.466360434176693
30
0
41
1
10
12.7559475451904
20
0.568356430309137
30
0
41
1
10
12.6321178579231
20
0.620941308195597
30
0
41
1
10
12.4839446764019
20
0.68560360303681
30
0
41
1
10
12.4595585720709
20
0.696301431312207
30
0
41
1
10
12.4351732883318
20
0.707053519354929
30
0
0
SPLINE
5
DE
100
AcDbEntity
8
1
62
256
6
ByLayer
370
18
48
1
60
0
100
AcDbSpline
70
4
71
3
72
14
73
10
40
0
40
0
40
0
40
0
40
0.25
40
0.25
40
0.5
40
0.5
40
0.75
40
0.75
40
1
40
1
40
1
40
1
41
1
10
59.9370465811753
20
-5.90833908870195
30
0
41
1
10
59.9390578037244
20
-5.90593922983578
30
0
41
1
10
59.9403935149272
20
-5.90542674882269
30
0
41
1
10
59.9413114198833
20
-5.9092648559992
30
0
41
1
10
59.9408293926043
20
-5.91368622684215
30
0
41
1
10
59.9376026797769
20
-5.92793014969251
30
0
41
1
10
59.9347965092072
20
-5.93791937851947
30
0
41
1
10
59.9274332892352
20
-5.9611556223677
30
0
41
1
10
59.9228980393429
20
-5.97435914826679
30
0
41
1
10
59.9181165796648
20
-5.98751976554266
30
0
0
SPLINE
5
DF
100
AcDbEntity
8
1
62
256
6
ByLayer
370
18
48
1
60
0
100
AcDbSpline
70
4
71
3
72
38
73
34
40
0
40
0
40
0
40
0
40
0.0637040018848919
40
0.0637040018848919
40
0.135726770970669
40
0.135726770970669
40
0.207749540056446
40
0.207749540056446
40
0.279772309142222
40
0.279772309142222
40
0.351795078227999
40
0.351795078227999
40
0.423817847313776
40
0.423817847313776
40
0.459829231856664
40
0.459829231856664
40
0.495840616399553
40
0.495840616399553
40
0.56786338548533
40
0.56786338548533
40
0.639886154571107
40
0.639886154571107
40
0.675897539113995
40
0.675897539113995
40
0.711908923656884
40
0.711908923656884
40
0.783931692742663
40
0.783931692742663
40
0.855954461828442
40
0.855954461828442
40
0.927977230914221
40
0.927977230914221
40
1
40
1
40
1
40
1
41
1
10
44.7336162361226
20
3.37347399909086
30
0
41
1
10
45.0571226002464
20
3.51306687478441
30
0
41
1
10
45.3797536778379
20
3.64933530866088
30
0
41
1
10
46.0661547295817
20
3.93107082559698
30
0
41
1
10
46.4305519784945
20
4.07425052094254
30
0
41
1
10
47.1587853152113
20
4.34959419278727
30
0
41
1
10
47.522448009447
20
4.48198319105958
30
0
41
1
10
48.2493701395999
20
4.73525794676522
30
0
41
1
10
48.6134909408599
20
4.85500598316798
30
0
41
1
10
49.3426439867417
20
5.08140711858405
30
0
41
1
10
49.7076144561658
20
5.1881381888121
30
0
41
1
10
50.4378659274523
20
5.38885093701174
30
0
41
1
10
50.8041004056701
20
5.48178131563569
30
0
41
1
10
51.3553516494376
20
5.60984549095895
30
0
41
1
10
51.539370222519
20
5.65069125000713
30
0
41
1
10
51.9078645045602
20
5.72872697766098
30
0
41
1
10
52.0924449194143
20
5.76594553854133
30
0
41
1
10
52.6442577331448
20
5.87156885687378
30
0
41
1
10
53.011034405954
20
5.93355699447301
30
0
41
1
10
53.7433944560804
20
6.04061382858254
30
0
41
1
10
54.108738737268
20
6.08587123730464
30
0
41
1
10
54.6550465756476
20
6.14156494101874
30
0
41
1
10
54.8367958792743
20
6.15810309888224
30
0
41
1
10
55.2004590534941
20
6.18684393076282
30
0
41
1
10
55.3823094850134
20
6.19908090586696
30
0
41
1
10
55.927751953211
20
6.22952996389171
30
0
41
1
10
56.2912259520535
20
6.24151048719924
30
0
41
1
10
57.0171044962832
20
6.2487945390057
30
0
41
1
10
57.3795988739861
20
6.24399003287778
30
0
41
1
10
58.10645823748
20
6.21774158081539
30
0
41
1
10
58.4703768675702
20
6.19633290659323
30
0
41
1
10
59.198607495617
20
6.13660286949903
30
0
41
1
10
59.5626574139667
20
6.09807399682524
30
0
41
1
10
59.9283076649613
20
6.05150254583759
30
0
0
SPLINE
5
E0
100
AcDbEntity
8
1
62
256
6
ByLayer
370
18
48
1
60
0
100
AcDbSpline
70
4
71
3
72
8
73
4
40
0
40
0
40
0
40
0
40
1
40
1
40
1
40
1
41
1
10
4.00000106943429
20
-1.6415967686556
30
0
41
1
10
4.00000074960903
20
-1.64147251086115
30
0
41
1
10
4.00000058978944
20
-1.64134825156927
30
0
41
1
10
4.00000058979975
20
-1.64122399135442
30
0
0
SPLINE
5
E1
100
AcDbEntity
8
1
62
256
6
ByLayer
370
13
48
1
60
0
100
AcDbSpline
70
4
71
3
72
14
73
10
40
0
40
0
40
0
40
0
40
0.25
40
0.25
40
0.5
40
0.5
40
0.75
40
0.75
40
1
40
1
40
1
40
1
41
1
10
4.00000058979978
20
-1.64122396958621
30
0
41
1
10
4.00003406069501
20
-1.64763765040612
30
0
41
1
10
4.00304446892528
20
-1.65416986416383
30
0
41
1
10
4.01494350974414
20
-1.66653579228387
30
0
41
1
10
4.02386390230333
20
-1.67247358548471
30
0
41
1
10
4.04715113277351
20
-1.68339905799044
30
0
41
1
10
4.06186291843972
20
-1.68853012071003
30
0
41
1
10
4.09645762390699
20
-1.6974640628917
30
0
41
1
10
4.11608624082999
20
-1.70125522787816
30
0
41
1
10
4.13845436867817
20
-1.70428904184823
30
0
0
SPLINE
5
E2
100
AcDbEntity
8
1
62
256
6
ByLayer
370
18
48
1
60
0
100
AcDbSpline
70
4
71
3
72
18
73
14
40
0
40
0
40
0
40
0
40
0.125000000000016
40
0.125000000000016
40
0.250000000000031
40
0.250000000000031
40
0.375000000000047
40
0.375000000000047
40
0.500000000000063
40
0.500000000000063
40
0.750000000000031
40
0.750000000000031
40
1
40
1
40
1
40
1
41
1
10
61.3962657166765
20
2.12073380713352
30
0
41
1
10
61.4024217638465
20
2.1037362027916
30
0
41
1
10
61.4063629086838
20
2.08647102661126
30
0
41
1
10
61.4087892973429
20
2.05126566345254
30
0
41
1
10
61.4071094519823
20
2.03336731904145
30
0
41
1
10
61.3982961706132
20
1.9996732858807
30
0
41
1
10
61.3911050193165
20
1.98344943117505
30
0
41
1
10
61.3733070340653
20
1.95387584945078
30
0
41
1
10
61.3625623188845
20
1.94014046056864
30
0
41
1
10
61.3270872332508
20
1.90205561141664
30
0
41
1
10
61.2997591718148
20
1.88103631905889
30
0
41
1
10
61.2414405471145
20
1.8432876817169
30
0
41
1
10
61.2107332704111
20
1.82692171383027
30
0
41
1
10
61.1795145213951
20
1.81217916248471
30
0
0
SPLINE
5
E3
100
AcDbEntity
8
1
62
256
6
ByLayer
370
18
48
1
60
0
100
AcDbSpline
70
4
71
3
72
8
73
4
40
0
40
0
40
0
40
0
40
1
40
1
40
1
40
1
41
1
10
61.1795145213951
20
1.81217916248471
30
0
41
1
10
60.6910381570031
20
1.78295179989004
30
0
41
1
10
60.1996009119413
20
1.76373633139627
30
0
41
1
10
59.7076854301753
20
1.74899338870068
30
0
0
SPLINE
5
E4
100
AcDbEntity
8
1
62
256
6
ByLayer
370
13
48
1
60
0
100
AcDbSpline
70
4
71
3
72
8
73
4
40
0
40
0
40
0
40
0
40
1
40
1
40
1
40
1
41
1
10
4.13646088285719
20
-1.85472461237731
30
0
41
1
10
4.13712090888009
20
-1.84157231912491
30
0
41
1
10
4.13778540403055
20
-1.82841515950085
30
0
41
1
10
4.13845436867814
20
-1.81525299142754
30
0
0
SPLINE
5
E5
100
AcDbEntity
8
1
62
256
6
ByLayer
370
18
48
1
60
0
100
AcDbSpline
70
4
71
3
72
70
73
66
40
0
40
0
40
0
40
0
40
0.0415069131046946
40
0.0415069131046946
40
0.0623437193415498
40
0.0623437193415498
40
0.0831805255784051
40
0.0831805255784051
40
0.124854138052116
40
0.124854138052116
40
0.145690944288971
40
0.145690944288971
40
0.166527750525826
40
0.166527750525826
40
0.208201362999538
40
0.208201362999538
40
0.249874975473249
40
0.249874975473249
40
0.270711781710105
40
0.270711781710105
40
0.291548587946961
40
0.291548587946961
40
0.333222200420672
40
0.333222200420672
40
0.374895812894384
40
0.374895812894384
40
0.395732619131239
40
0.395732619131239
40
0.416569425368094
40
0.416569425368094
40
0.458243037841804
40
0.458243037841804
40
0.479079844078658
40
0.479079844078658
40
0.499916650315513
40
0.499916650315513
40
0.520753456552367
40
0.520753456552367
40
0.541590262789221
40
0.541590262789221
40
0.583263875262929
40
0.583263875262929
40
0.604100681499783
40
0.604100681499783
40
0.624937487736637
40
0.624937487736637
40
0.666611100210345
40
0.666611100210345
40
0.708284712684052
40
0.708284712684052
40
0.74995832515776
40
0.74995832515776
40
0.770795131394614
40
0.770795131394614
40
0.791631937631467
40
0.791631937631467
40
0.833305550105174
40
0.833305550105174
40
0.874979162578881
40
0.874979162578881
40
0.916652775052587
40
0.916652775052587
40
0.958326387526294
40
0.958326387526294
40
1
40
1
40
1
40
1
41
1
10
44.7060165737972
20
-3.36721240831903
30
0
41
1
10
44.2403423323999
20
-3.55691431146727
30
0
41
1
10
43.7746217098688
20
-3.73886853048472
30
0
41
1
10
43.075398716272
20
-3.99852738532579
30
0
41
1
10
42.8417127718884
20
-4.08292998621442
30
0
41
1
10
42.3739213220834
20
-4.24771664284285
30
0
41
1
10
42.1398274054197
20
-4.32792116262578
30
0
41
1
10
41.436772800584
20
-4.56146256652713
30
0
41
1
10
40.9677004825922
20
-4.70772465658237
30
0
41
1
10
40.2662937907926
20
-4.91091283740622
30
0
41
1
10
40.0325492809547
20
-4.97566451116211
30
0
41
1
10
39.5651474796728
20
-5.09796343011726
30
0
41
1
10
39.3314335959526
20
-5.15579588577785
30
0
41
1
10
38.6301676669111
20
-5.32307105616553
30
0
41
1
10
38.1628724456228
20
-5.42400753464025
30
0
41
1
10
37.2263727236569
20
-5.6016844325126
30
0
41
1
10
36.7567624935163
20
-5.67869765699302
30
0
41
1
10
36.0549919819173
20
-5.77199214781291
30
0
41
1
10
35.821386385839
20
-5.79976867390721
30
0
41
1
10
35.3539160190964
20
-5.84969792159336
30
0
41
1
10
35.1201845942006
20
-5.87139248700654
30
0
41
1
10
34.4189975590951
20
-5.92541375618194
30
0
41
1
10
33.9517586503014
20
-5.948022711052
30
0
41
1
10
33.0161152941559
20
-5.96930674438389
30
0
41
1
10
32.5468155787412
20
-5.96726559583993
30
0
41
1
10
31.8441571307739
20
-5.94395972595859
30
0
41
1
10
31.6102260601598
20
-5.93286655136751
30
0
41
1
10
31.1429030862482
20
-5.90202999619686
30
0
41
1
10
30.9092833593337
20
-5.88282872123389
30
0
41
1
10
30.2081825022299
20
-5.81729975405341
30
0
41
1
10
29.7406632532496
20
-5.76229192773664
30
0
41
1
10
29.0392956007453
20
-5.66039105205567
30
0
41
1
10
28.8054051996391
20
-5.62329672432762
30
0
41
1
10
28.3371455281643
20
-5.54293242716238
30
0
41
1
10
28.1025936939039
20
-5.49957174306013
30
0
41
1
10
27.6339103544593
20
-5.40442534289292
30
0
41
1
10
27.3997694145443
20
-5.35379820615995
30
0
41
1
10
26.9318047121021
20
-5.24769908985309
30
0
41
1
10
26.6980872045746
20
-5.19188198254295
30
0
41
1
10
25.9966462559747
20
-5.01674426454429
30
0
41
1
10
25.5288814496384
20
-4.88961526589426
30
0
41
1
10
24.8273657755958
20
-4.68213113878883
30
0
41
1
10
24.5935446331772
20
-4.61001813450821
30
0
41
1
10
24.12551115026
20
-4.45908056080467
30
0
41
1
10
23.891273261629
20
-4.38126750148396
30
0
41
1
10
23.1877167233756
20
-4.1416736526661
30
0
41
1
10
22.7190927783377
20
-3.9727524168668
30
0
41
1
10
21.7838119823061
20
-3.61782007105882
30
0
41
1
10
21.3161189618876
20
-3.4328422686493
30
0
41
1
10
20.3805443123285
20
-3.04772859230772
30
0
41
1
10
19.9129534741438
20
-2.84752743931338
30
0
41
1
10
19.209938982167
20
-2.53704489609589
30
0
41
1
10
18.9752169533459
20
-2.43170327969767
30
0
41
1
10
18.506140618379
20
-2.21963554330691
30
0
41
1
10
18.2717091964878
20
-2.11266402909192
30
0
41
1
10
17.5689773515049
20
-1.78814208462063
30
0
41
1
10
17.1010957378362
20
-1.56727733768727
30
0
41
1
10
16.1642539518681
20
-1.12037378614031
30
0
41
1
10
15.6959001078011
20
-0.89285252499306
30
0
41
1
10
14.7575389415116
20
-0.434557970761347
30
0
41
1
10
14.2883885872101
20
-0.204723045342718
30
0
41
1
10
13.3513186427641
20
0.254243868207624
30
0
41
1
10
12.8834834096274
20
0.484312086911757
30
0
41
1
10
11.9465512910427
20
0.93998434598987
30
0
41
1
10
11.4775647518737
20
1.16584382626479
30
0
41
1
10
11.00808116263
20
1.38962937040378
30
0
0
SPLINE
5
E6
100
AcDbEntity
8
1
62
256
6
ByLayer
370
18
48
1
60
0
100
AcDbSpline
70
4
71
3
72
10
73
6
40
0
40
0
40
0
40
0
40
0.766283379917954
40
0.766283379917954
40
1
40
1
40
1
40
1
41
1
10
59.8624035694373
20
6.14069449624046
30
0
41
1
10
59.2817918965974
20
6.19579090712423
30
0
41
1
10
58.7009654962661
20
6.2296111981849
30
0
41
1
10
57.9427417144675
20
6.24567966254278
30
0
41
1
10
57.7656647659718
20
6.24743331025164
30
0
41
1
10
57.5886872963513
20
6.24719242873988
30
0
0
SPLINE
5
E7
100
AcDbEntity
8
1
62
256
6
ByLayer
370
18
48
1
60
0
100
AcDbSpline
70
4
71
3
72
32
73
28
40
0
40
0
40
0
40
0
40
0.0268313841908546
40
0.0268313841908546
40
0.0731727468484351
40
0.0731727468484351
40
0.165855472163594
40
0.165855472163594
40
0.212196834821173
40
0.212196834821173
40
0.258538197478751
40
0.258538197478751
40
0.443903648109065
40
0.443903648109065
40
0.490245010766643
40
0.490245010766643
40
0.536586373424222
40
0.536586373424222
40
0.629269098739378
40
0.629269098739378
40
0.675610461396956
40
0.675610461396956
40
0.721951824054533
40
0.721951824054533
40
0.814634549369688
40
0.814634549369688
40
1
40
1
40
1
40
1
41
1
10
22.9335463969389
20
-5.95740211920679
30
0
41
1
10
22.7650941956217
20
-5.98134044846745
30
0
41
1
10
22.5966195855161
20
-6.00355509059619
30
0
41
1
10
22.1376571078188
20
-6.05931828122436
30
0
41
1
10
21.8472978771595
20
-6.08940328506827
30
0
41
1
10
20.9766637478806
20
-6.16385023816889
30
0
41
1
10
20.3968320446974
20
-6.19239764844653
30
0
41
1
10
19.5260780450365
20
-6.20326740764079
30
0
41
1
10
19.2356624809779
20
-6.20156912040304
30
0
41
1
10
18.6542617503349
20
-6.18747500008712
30
0
41
1
10
18.3630536303882
20
-6.17505592946094
30
0
41
1
10
16.9093468894367
20
-6.08650033243401
30
0
41
1
10
15.7511765231815
20
-5.93106429769523
30
0
41
1
10
14.2976737722597
20
-5.63727410987033
30
0
41
1
10
14.0063900360616
20
-5.57351031032863
30
0
41
1
10
13.4246617779882
20
-5.43665691073949
30
0
41
1
10
13.1341362518666
20
-5.36355733653758
30
0
41
1
10
12.2630603807345
20
-5.13081038855532
30
0
41
1
10
11.6829925437772
20
-4.9577326152077
30
0
41
1
10
10.8120246685447
20
-4.67343175660471
30
0
41
1
10
10.5215784279162
20
-4.57452618060989
30
0
41
1
10
9.94016000607331
20
-4.36875678953507
30
0
41
1
10
9.64889473620508
20
-4.26177205730215
30
0
41
1
10
8.77624847427521
20
-3.93064330414836
30
0
41
1
10
8.19619063654093
20
-3.69640440010517
30
0
41
1
10
6.45762164912128
20
-2.95922186936178
30
0
41
1
10
5.30091542664954
20
-2.42140267256187
30
0
41
1
10
4.13646088285719
20
-1.85472461237734
30
0
0
SPLINE
5
E8
100
AcDbEntity
8
1
62
256
6
ByLayer
370
18
48
1
60
0
100
AcDbSpline
70
4
71
3
72
12
73
8
40
0
40
0
40
0
40
0
40
0.487562279601802
40
0.487562279601802
40
0.975124559203605
40
0.975124559203605
40
1
40
1
40
1
40
1
41
1
10
4.20569592952856
20
-1.84238587300112
30
0
41
1
10
5.37503873244225
20
-2.39655484111986
30
0
41
1
10
6.53465581940756
20
-2.92102701223612
30
0
41
1
10
8.8543063125384
20
-3.87658312100166
30
0
41
1
10
10.0138057730698
20
-4.30847423935427
30
0
41
1
10
11.2426968464303
20
-4.6967794614697
30
0
41
1
10
11.3023559261908
20
-4.71546060452991
30
0
41
1
10
11.3620096845531
20
-4.73396888823541
30
0
0
SPLINE
5
E9
100
AcDbEntity
8
1
62
256
6
ByLayer
370
13
48
1
60
0
100
AcDbSpline
70
4
71
3
72
20
73
16
40
0
40
0
40
0
40
0
40
0.0689829956319181
40
0.0689829956319181
40
0.155653732016521
40
0.155653732016521
40
0.328995204785727
40
0.328995204785727
40
0.675678150324142
40
0.675678150324142
40
0.849019623093349
40
0.849019623093349
40
0.935690359477952
40
0.935690359477952
40
1
40
1
40
1
40
1
41
1
10
11.3620093549216
20
-4.73396878596336
30
0
41
1
10
11.5946613047531
20
-4.8061518060625
30
0
41
1
10
11.8272323147999
20
-4.8757055836912
30
0
41
1
10
12.3504969971141
20
-5.02612989300781
30
0
41
1
10
12.641191139427
20
-5.10545256708883
30
0
41
1
10
13.5117469852322
20
-5.32977371979033
30
0
41
1
10
14.0901471907109
20
-5.46108624885503
30
0
41
1
10
15.822548712151
20
-5.79760526592733
30
0
41
1
10
16.9742634505282
20
-5.94532222261421
30
0
41
1
10
18.710027235998
20
-6.04435201269644
30
0
41
1
10
19.2900812074147
20
-6.05702449942757
30
0
41
1
10
20.164163588106
20
-6.04440868706183
30
0
41
1
10
20.4566575137846
20
-6.03489944299287
30
0
41
1
10
20.9653832468033
20
-6.00920555710027
30
0
41
1
10
21.1816628344647
20
-5.99539651198916
30
0
41
1
10
21.3975959028027
20
-5.97877348927409
30
0
0
SPLINE
5
EA
100
AcDbEntity
8
1
62
256
6
ByLayer
370
18
48
1
60
0
100
AcDbSpline
70
4
71
3
72
72
73
68
40
0
40
0
40
0
40
0
40
0.0684955486985161
40
0.0684955486985161
40
0.102743323047774
40
0.102743323047774
40
0.136991097397032
40
0.136991097397032
40
0.17123887174629
40
0.17123887174629
40
0.205486646095548
40
0.205486646095548
40
0.222610533270177
40
0.222610533270177
40
0.239734420444805
40
0.239734420444805
40
0.273982194794063
40
0.273982194794063
40
0.291106081968693
40
0.291106081968693
40
0.308229969143322
40
0.308229969143322
40
0.34247774349258
40
0.34247774349258
40
0.376725517841838
40
0.376725517841838
40
0.410973292191096
40
0.410973292191096
40
0.445221066540354
40
0.445221066540354
40
0.479468840889612
40
0.479468840889612
40
0.51371661523887
40
0.51371661523887
40
0.547964389588128
40
0.547964389588128
40
0.582212163937386
40
0.582212163937386
40
0.616459938286644
40
0.616459938286644
40
0.650707712635902
40
0.650707712635902
40
0.68495548698516
40
0.68495548698516
40
0.719203261334418
40
0.719203261334418
40
0.753451035683677
40
0.753451035683677
40
0.787698810032935
40
0.787698810032935
40
0.821946584382193
40
0.821946584382193
40
0.839070471556822
40
0.839070471556822
40
0.856194358731451
40
0.856194358731451
40
0.890442133080709
40
0.890442133080709
40
0.924689907429967
40
0.924689907429967
40
0.941813794604596
40
0.941813794604596
40
0.958937681779226
40
0.958937681779226
40
0.993185456128485
40
0.993185456128485
40
1
40
1
40
1
40
1
41
1
10
24.8492735291185
20
5.43175737972405
30
0
41
1
10
25.586873502118
20
5.24866581829497
30
0
41
1
10
26.3221520042183
20
5.03964495459553
30
0
41
1
10
27.4175883610578
20
4.68377760737317
30
0
41
1
10
27.7823448125033
20
4.55910080867571
30
0
41
1
10
28.5118281361876
20
4.29893839293212
30
0
41
1
10
28.876299463057
20
4.16312043611762
30
0
41
1
10
29.6039628414247
20
3.87877082729361
30
0
41
1
10
29.967789961145
20
3.73116684880188
30
0
41
1
10
30.6968405182043
20
3.42746505001051
30
0
41
1
10
31.0617623278679
20
3.27091137900518
30
0
41
1
10
31.6092884725791
20
3.02811321040022
30
0
41
1
10
31.7917287451795
20
2.94567688209452
30
0
41
1
10
32.157284708134
20
2.77922533209778
30
0
41
1
10
32.3403924974631
20
2.69520503491498
30
0
41
1
10
32.8905348135766
20
2.44047381960991
30
0
41
1
10
33.2583741413997
20
2.2670866655881
30
0
41
1
10
33.8112113462818
20
2.00038810548111
30
0
41
1
10
33.9957288068264
20
1.91019738704327
30
0
41
1
10
34.3639142829746
20
1.72924965951552
30
0
41
1
10
34.5478539276849
20
1.63857252227291
30
0
41
1
10
35.0991182736524
20
1.36573093969545
30
0
41
1
10
35.4658469030627
20
1.18267111297996
30
0
41
1
10
36.197169928116
20
0.813057221203906
30
0
41
1
10
36.5614570591548
20
0.625890056577788
30
0
41
1
10
37.2906601255632
20
0.253614842847156
30
0
41
1
10
37.6552033791949
20
0.0677534660544268
30
0
41
1
10
38.3833754861804
20
-0.305016333137928
30
0
41
1
10
38.7466289063523
20
-0.492668699274873
30
0
41
1
10
39.4748261575913
20
-0.863818174813929
30
0
41
1
10
39.8394846559711
20
-1.04788826514869
30
0
41
1
10
40.5693128415282
20
-1.41422511835313
30
0
41
1
10
40.9340507389921
20
-1.59734197309811
30
0
41
1
10
41.666009398387
20
-1.95785540697011
30
0
41
1
10
42.03329269362
20
-2.13513413797506
30
0
41
1
10
42.7696338453899
20
-2.48536890677477
30
0
41
1
10
43.1388081029688
20
-2.65920736922857
30
0
41
1
10
43.8738478638712
20
-2.99654937352761
30
0
41
1
10
44.2408179222596
20
-3.15982993594022
30
0
41
1
10
44.9728533052968
20
-3.47740893460892
30
0
41
1
10
45.3376837861335
20
-3.63206758644995
30
0
41
1
10
46.06615472958
20
-3.93107082559627
30
0
41
1
10
46.4305519784928
20
-4.07425052094183
30
0
41
1
10
47.1587853152095
20
-4.34959419278658
30
0
41
1
10
47.5224480094452
20
-4.48198319105893
30
0
41
1
10
48.249370139598
20
-4.73525794676453
30
0
41
1
10
48.6134909408581
20
-4.85500598316736
30
0
41
1
10
49.3426439867397
20
-5.08140711858346
30
0
41
1
10
49.7076144561638
20
-5.18813818881154
30
0
41
1
10
50.4378659274503
20
-5.38885093701117
30
0
41
1
10
50.804100405668
20
-5.48178131563517
30
0
41
1
10
51.3553516494354
20
-5.60984549095843
30
0
41
1
10
51.5393702225167
20
-5.65069125000662
30
0
41
1
10
51.9078645045579
20
-5.72872697766053
30
0
41
1
10
52.092444919412
20
-5.76594553854088
30
0
41
1
10
52.6442577331425
20
-5.87156885687335
30
0
41
1
10
53.0110344059517
20
-5.93355699447264
30
0
41
1
10
53.7433944560781
20
-6.04061382858222
30
0
41
1
10
54.1087387372656
20
-6.08587123730436
30
0
41
1
10
54.6550465756451
20
-6.14156494101852
30
0
41
1
10
54.8367958792718
20
-6.15810309888201
30
0
41
1
10
55.2004590534916
20
-6.18684393076265
30
0
41
1
10
55.3823094850109
20
-6.19908090586679
30
0
41
1
10
55.9277519532084
20
-6.22952996389159
30
0
41
1
10
56.2912259520509
20
-6.24151048719918
30
0
41
1
10
56.7263820510842
20
-6.24587719509333
30
0
41
1
10
56.7985812636848
20
-6.24626746088219
30
0
41
1
10
56.8707737351044
20
-6.24632430948887
30
0
0
SPLINE
5
EB
100
AcDbEntity
8
1
62
256
6
ByLayer
370
13
48
1
60
0
100
AcDbSpline
70
4
71
3
72
8
73
4
40
0
40
0
40
0
40
0
40
1
40
1
40
1
40
1
41
1
10
4.13845436867817
20
-1.81525299142754
30
0
41
1
10
4.15968905815848
20
-1.82218167009614
30
0
41
1
10
4.18244921086384
20
-1.83136890683647
30
0
41
1
10
4.20569592952859
20
-1.84238587300112
30
0
0
SPLINE
5
EC
100
AcDbEntity
8
1
62
256
6
ByLayer
370
18
48
1
60
0
100
AcDbSpline
70
4
71
3
72
26
73
22
40
0
40
0
40
0
40
0
40
0.0625000000000001
40
0.0625000000000001
40
0.125
40
0.125
40
0.25
40
0.25
40
0.375000000000001
40
0.375000000000001
40
0.500000000000001
40
0.500000000000001
40
0.562500000000001
40
0.562500000000001
40
0.625000000000001
40
0.625000000000001
40
0.75
40
0.75
40
0.875
40
0.875
40
1
40
1
40
1
40
1
41
1
10
4.00000058979978
20
-1.64122396958621
30
0
41
1
10
4.00000060208515
20
-1.49356160132595
30
0
41
1
10
4.00000061322112
20
-1.34405001545747
30
0
41
1
10
4.00000063297546
20
-1.04472189375937
30
0
41
1
10
4.00000064161927
20
-0.894703893250153
30
0
41
1
10
4.00000066426068
20
-0.443610284557877
30
0
41
1
10
4.00000067493642
20
-0.141500579769058
30
0
41
1
10
4.00000069086249
20
0.465498497103482
30
0
41
1
10
4.00000069615481
20
0.772351699311713
30
0
41
1
10
4.00000070535768
20
1.37061389249448
30
0
41
1
10
4.00000070934357
20
1.6638441298484
30
0
41
1
10
4.00000071752709
20
2.09491403802795
30
0
41
1
10
4.00000072061852
20
2.23713557765296
30
0
41
1
10
4.00000072802888
20
2.51858205476131
30
0
41
1
10
4.00000073236833
20
2.65822028827819
30
0
41
1
10
4.00000074772811
20
3.06613319774749
30
0
41
1
10
4.00000076112241
20
3.32529490015116
30
0
41
1
10
4.00000079724759
20
3.81870606569277
30
0
41
1
10
4.00000081996848
20
4.05295742739713
30
0
41
1
10
4.00000087784991
20
4.49554615150163
30
0
41
1
10
4.00000091245587
20
4.69910677821122
30
0
41
1
10
4.00000095309701
20
4.88446459682177
30
0
0
SPLINE
5
ED
100
AcDbEntity
8
1
62
256
6
ByLayer
370
18
48
1
60
0
100
AcDbSpline
70
4
71
3
72
16
73
12
40
0
40
0
40
0
40
0
40
0.249999999999995
40
0.249999999999995
40
0.499999999999991
40
0.499999999999991
40
0.624999999999991
40
0.624999999999991
40
0.749999999999992
40
0.749999999999992
40
1
40
1
40
1
40
1
41
1
10
58.7959146271949
20
-4.5932799765369
30
0
41
1
10
58.5310719701201
20
-4.4329903561563
30
0
41
1
10
58.271411326724
20
-4.25950015457249
30
0
41
1
10
57.7634365001344
20
-3.8836159548182
30
0
41
1
10
57.5151140723469
20
-3.68124295879872
30
0
41
1
10
57.1526127234633
20
-3.35225472705369
30
0
41
1
10
57.0334505702903
20
-3.2383336993652
30
0
41
1
10
56.7988495246789
20
-3.00100706739039
30
0
41
1
10
56.6830371943094
20
-2.87717675360716
30
0
41
1
10
56.3446331230845
20
-2.49257501416622
30
0
41
1
10
56.1328496781019
20
-2.22113321602589
30
0
41
1
10
55.9375591412137
20
-1.93174083991542
30
0
0
SPLINE
5
EE
100
AcDbEntity
8
1
62
256
6
ByLayer
370
18
48
1
60
0
100
AcDbSpline
70
4
71
3
72
14
73
10
40
0
40
0
40
0
40
0
40
0.25
40
0.25
40
0.5
40
0.5
40
0.75
40
0.75
40
1
40
1
40
1
40
1
41
1
10
59.7076854301753
20
1.74899338870065
30
0
41
1
10
59.6835558220177
20
1.74827021278216
30
0
41
1
10
59.659441793899
20
1.74318301795469
30
0
41
1
10
59.6181855542825
20
1.71992067281826
30
0
41
1
10
59.6014500951577
20
1.70090811031699
30
0
41
1
10
59.5834737369036
20
1.65634396510916
30
0
41
1
10
59.581500900289
20
1.63166420404298
30
0
41
1
10
59.5858088128456
20
1.583439282375
30
0
41
1
10
59.5919468991928
20
1.55984831170554
30
0
41
1
10
59.6003366539904
20
1.53699780096133
30
0
0
SPLINE
5
EF
100
AcDbEntity
8
1
62
256
6
ByLayer
370
18
48
1
60
0
100
AcDbSpline
70
4
71
3
72
16
73
12
40
0
40
0
40
0
40
0
40
0.249999999999999
40
0.249999999999999
40
0.499999999999998
40
0.499999999999998
40
0.624999999999999
40
0.624999999999999
40
0.749999999999999
40
0.749999999999999
40
1
40
1
40
1
40
1
41
1
10
4.00000095309707
20
4.88446459681123
30
0
41
1
10
4.00006082663322
20
4.88085705384867
30
0
41
1
10
4.00398882163455
20
4.87538377007979
30
0
41
1
10
4.02370605764563
20
4.85845868764932
30
0
41
1
10
4.0398763779919
20
4.84683184611379
30
0
41
1
10
4.07657044552815
20
4.82369761505637
30
0
41
1
10
4.09101483407864
20
4.81496108828466
30
0
41
1
10
4.12207026308457
20
4.79680891820899
30
0
41
1
10
4.13898212264883
20
4.78721441056675
30
0
41
1
10
4.18911346134396
20
4.75941496692349
30
0
41
1
10
4.22129926505147
20
4.74236110896419
30
0
41
1
10
4.2505011597753
20
4.72734487347984
30
0
0
SPLINE
5
F0
100
AcDbEntity
8
1
62
256
6
ByLayer
370
18
48
1
60
0
100
AcDbSpline
70
4
71
3
72
32
73
28
40
0
40
0
40
0
40
0
40
0.0625000000000003
40
0.0625000000000003
40
0.125000000000001
40
0.125000000000001
40
0.187500000000001
40
0.187500000000001
40
0.250000000000001
40
0.250000000000001
40
0.312500000000002
40
0.312500000000002
40
0.375000000000002
40
0.375000000000002
40
0.499999999999998
40
0.499999999999998
40
0.624999999999994
40
0.624999999999994
40
0.687499999999995
40
0.687499999999995
40
0.749999999999996
40
0.749999999999996
40
0.812499999999997
40
0.812499999999997
40
0.874999999999998
40
0.874999999999998
40
1
40
1
40
1
40
1
41
1
10
61.096278066875
20
-2.45419205516254
30
0
41
1
10
61.096758836215
20
-2.46418844204422
30
0
41
1
10
61.0956665532181
20
-2.47815052213736
30
0
41
1
10
61.090316327225
20
-2.51405536806377
30
0
41
1
10
61.0859996930488
20
-2.53625115010374
30
0
41
1
10
61.0741925163144
20
-2.58812956924675
30
0
41
1
10
61.0667943836419
20
-2.61747250353369
30
0
41
1
10
61.0490604133883
20
-2.68284879859357
30
0
41
1
10
61.0385894497784
20
-2.71931529249252
30
0
41
1
10
61.0154277655628
20
-2.79639847304006
30
0
41
1
10
61.0027248023463
20
-2.83710542836806
30
0
41
1
10
60.9751560968884
20
-2.92269286903394
30
0
41
1
10
60.9602604894346
20
-2.9676341375378
30
0
41
1
10
60.9140787680599
20
-3.10357364542381
30
0
41
1
10
60.8802709825511
20
-3.19871057285857
30
0
41
1
10
60.8117436057434
20
-3.38446284640222
30
0
41
1
10
60.7763192639942
20
-3.47700420354121
30
0
41
1
10
60.7247883256563
20
-3.60702423374752
30
0
41
1
10
60.7078107267677
20
-3.64908988211684
30
0
41
1
10
60.6742482237495
20
-3.73071122919984
30
0
41
1
10
60.6576489152806
20
-3.77028677963673
30
0
41
1
10
60.6257545304696
20
-3.84476865917827
30
0
41
1
10
60.6103377064162
20
-3.87997491123952
30
0
41
1
10
60.580558691164
20
-3.94634145655129
30
0
41
1
10
60.5661171524948
20
-3.97766759049304
30
0
41
1
10
60.5250467005439
20
-4.06399931584639
30
0
41
1
10
60.5009680350597
20
-4.11085460128669
30
0
41
1
10
60.4804614257525
20
-4.14613437117134
30
0
0
SPLINE
5
F1
100
AcDbEntity
8
1
62
256
6
ByLayer
370
18
48
1
60
0
100
AcDbSpline
70
4
71
3
72
18
73
14
40
0
40
0
40
0
40
0
40
0.25
40
0.25
40
0.375
40
0.375
40
0.5
40
0.5
40
0.750000000000001
40
0.750000000000001
40
0.875000000000001
40
0.875000000000001
40
1
40
1
40
1
40
1
41
1
10
59.8062926516408
20
-5.99839785495095
30
0
41
1
10
59.6767578652928
20
-5.99129892711153
30
0
41
1
10
59.5559979455515
20
-5.95809132898987
30
0
41
1
10
59.3891725382585
20
-5.86568876149994
30
0
41
1
10
59.3357954880988
20
-5.8275223363311
30
0
41
1
10
59.2361118427945
20
-5.73781162028959
30
0
41
1
10
59.1895602023474
20
-5.68619534367696
30
0
41
1
10
59.0598197337113
20
-5.51097353646259
30
0
41
1
10
58.9864625317391
20
-5.36716522670272
30
0
41
1
10
58.8976636371431
20
-5.10781353492047
30
0
41
1
10
58.87154284182
20
-5.01355894475989
30
0
41
1
10
58.8276182093555
20
-4.81280973141122
30
0
41
1
10
58.8097147851398
20
-4.70619767474923
30
0
41
1
10
58.7959146271947
20
-4.5932799765369
30
0
0
SPLINE
5
F2
100
AcDbEntity
8
1
62
256
6
ByLayer
370
18
48
1
60
0
100
AcDbSpline
70
4
71
3
72
50
73
46
40
0
40
0
40
0
40
0
40
0.0119488868922386
40
0.0119488868922386
40
0.0737020814614752
40
0.0737020814614752
40
0.104578678746093
40
0.104578678746093
40
0.13545527603071
40
0.13545527603071
40
0.197208470599945
40
0.197208470599945
40
0.25896166516918
40
0.25896166516918
40
0.289838262453799
40
0.289838262453799
40
0.320714859738417
40
0.320714859738417
40
0.382468054307653
40
0.382468054307653
40
0.413344651592271
40
0.413344651592271
40
0.444221248876888
40
0.444221248876888
40
0.505974443446122
40
0.505974443446122
40
0.567727638015355
40
0.567727638015355
40
0.598604235299973
40
0.598604235299973
40
0.62948083258459
40
0.62948083258459
40
0.691234027153825
40
0.691234027153825
40
0.75298722172306
40
0.75298722172306
40
0.814740416292295
40
0.814740416292295
40
0.87649361086153
40
0.87649361086153
40
0.938246805430765
40
0.938246805430765
40
0.969123402715383
40
0.969123402715383
40
1
40
1
40
1
40
1
41
1
10
33.2062264833141
20
5.96348756699715
30
0
41
1
10
33.2968809575211
20
5.96240308445525
30
0
41
1
10
33.3875557870466
20
5.96083670535754
30
0
41
1
10
33.9469809840909
20
5.94823351473696
30
0
41
1
10
34.4155613452507
20
5.92561804643776
30
0
41
1
10
35.1174326608272
20
5.87163443754937
30
0
41
1
10
35.3512563444245
20
5.8499575844433
30
0
41
1
10
35.8186711221605
20
5.80008281467752
30
0
41
1
10
36.0521476360233
20
5.77233834931187
30
0
41
1
10
36.7531441710357
20
5.67924191138488
30
0
41
1
10
37.2210921637731
20
5.60259682478133
30
0
41
1
10
38.1579678480777
20
5.4250265485806
30
0
41
1
10
38.6269606740384
20
5.32379869006638
30
0
41
1
10
39.3291555834668
20
5.15635778302666
30
0
41
1
10
39.563096177876
20
5.0984801230249
30
0
41
1
10
40.0306792068209
20
4.97617370598454
30
0
41
1
10
40.2643644168911
20
4.91145379305957
30
0
41
1
10
40.9652196167567
20
4.70847900440509
30
0
41
1
10
41.43291036462
20
4.56268465225205
30
0
41
1
10
42.1351627543155
20
4.32950071508915
30
0
41
1
10
42.3693446510035
20
4.24930225542172
30
0
41
1
10
42.83799403835
20
4.08426608969663
30
0
41
1
10
43.0722521830012
20
3.99967625038201
30
0
41
1
10
43.7743410997842
20
3.73901160613127
30
0
41
1
10
44.2420635952192
20
3.55624834676456
30
0
41
1
10
45.1765486471746
20
3.17549607640916
30
0
41
1
10
45.6435762677692
20
2.97703890081024
30
0
41
1
10
46.3451241521432
20
2.67158614343157
30
0
41
1
10
46.5790500007955
20
2.56821158688717
30
0
41
1
10
47.0472802952161
20
2.35794293599281
30
0
41
1
10
47.2817357080871
20
2.25099773815444
30
0
41
1
10
47.9842075675742
20
1.92696426150033
30
0
41
1
10
48.4520342811131
20
1.70716102694621
30
0
41
1
10
49.3869669515797
20
1.2609606184696
30
0
41
1
10
49.8536398949115
20
1.03381788347065
30
0
41
1
10
50.788620363289
20
0.576925373474836
30
0
41
1
10
51.2566368711703
20
0.346582592882981
30
0
41
1
10
52.1939304496988
20
-0.116709405763913
30
0
41
1
10
52.6617684818505
20
-0.34803313042417
30
0
41
1
10
53.597597444888
20
-0.806929256385729
30
0
41
1
10
54.0649765870944
20
-1.0357437639251
30
0
41
1
10
54.7664363116254
20
-1.37589693543484
30
0
41
1
10
55.0003696185038
20
-1.48867717512184
30
0
41
1
10
55.4688544428068
20
-1.71174322865409
30
0
41
1
10
55.7033911839087
20
-1.8223182677803
30
0
41
1
10
55.9375591412024
20
-1.93174083991016
30
0
0
SPLINE
5
F3
100
AcDbEntity
8
1
62
256
6
ByLayer
370
18
48
1
60
0
100
AcDbSpline
70
4
71
3
72
36
73
32
40
0
40
0
40
0
40
0
40
0.153539780126417
40
0.153539780126417
40
0.38503485788262
40
0.38503485788262
40
0.616529935638822
40
0.616529935638822
40
0.732277474516924
40
0.732277474516924
40
0.790151243955975
40
0.790151243955975
40
0.8190881286755
40
0.8190881286755
40
0.822705239265441
40
0.822705239265441
40
0.826322349855382
40
0.826322349855382
40
0.829939460445323
40
0.829939460445323
40
0.833556571035263
40
0.833556571035263
40
0.848025013395027
40
0.848025013395027
40
0.905898782834083
40
0.905898782834083
40
0.963772552273138
40
0.963772552273138
40
0.992709436992665
40
0.992709436992665
40
1
40
1
40
1
40
1
41
1
10
17.0519279526265
20
-6.19858065379478
30
0
41
1
10
16.2954701583627
20
-6.19771557625077
30
0
41
1
10
15.5347907045113
20
-6.18395960032146
30
0
41
1
10
13.6151793012734
20
-6.13309573509468
30
0
41
1
10
12.4501455245617
20
-6.08783279033398
30
0
41
1
10
10.0958929631296
20
-6.00433890951226
30
0
41
1
10
8.9067295906284
20
-5.96627766905311
30
0
41
1
10
7.10357865899783
20
-5.93266557928317
30
0
41
1
10
6.50044456065399
20
-5.92529635496155
30
0
41
1
10
5.59622141053245
20
-5.92098903199181
30
0
41
1
10
5.29466396579514
20
-5.920665288571
30
0
41
1
10
4.84244262175162
20
-5.92187849382762
30
0
41
1
10
4.69169558975361
20
-5.92256546005495
30
0
41
1
10
4.52216974072837
20
-5.92365431336461
30
0
41
1
10
4.5033190849025
20
-5.92374247731769
30
0
41
1
10
4.46602221467373
20
-5.92484206292843
30
0
41
1
10
4.44752711833772
20
-5.92574192313486
30
0
41
1
10
4.41094336960015
20
-5.92845579426319
30
0
41
1
10
4.39256675615161
20
-5.93029926672946
30
0
41
1
10
4.35866124296768
20
-5.93523853444285
30
0
41
1
10
4.34178180234917
20
-5.93772575463424
30
0
41
1
10
4.25741489277664
20
-5.95008121423683
30
0
41
1
10
4.19037775065306
20
-5.95988494124018
30
0
41
1
10
3.85765845315379
20
-6.00837460764055
30
0
41
1
10
3.59825140498481
20
-6.04571212697709
30
0
41
1
10
3.11105082658887
20
-6.11119735220134
30
0
41
1
10
2.8821115751293
20
-6.13966345502197
30
0
41
1
10
2.57451656988439
20
-6.16827389267638
30
0
41
1
10
2.47778961723185
20
-6.1753707236357
30
0
41
1
10
2.37085225813578
20
-6.17953551123947
30
0
41
1
10
2.34999744176176
20
-6.18014133761025
30
0
41
1
10
2.32985609191368
20
-6.18049147253871
30
0
0
SPLINE
5
F4
100
AcDbEntity
8
1
62
256
6
ByLayer
370
18
48
1
60
0
100
AcDbSpline
70
4
71
3
72
28
73
24
40
0
40
0
40
0
40
0
40
0.125000000000001
40
0.125000000000001
40
0.250000000000003
40
0.250000000000003
40
0.375000000000004
40
0.375000000000004
40
0.437500000000004
40
0.437500000000004
40
0.500000000000005
40
0.500000000000005
40
0.625000000000005
40
0.625000000000005
40
0.750000000000006
40
0.750000000000006
40
0.812500000000005
40
0.812500000000005
40
0.875000000000003
40
0.875000000000003
40
0.937500000000002
40
0.937500000000002
40
1
40
1
40
1
40
1
41
1
10
59.9283076649676
20
-6.05150254584578
30
0
41
1
10
59.9900493551172
20
-5.8976218428262
30
0
41
1
10
60.0518905300002
20
-5.74187721469016
30
0
41
1
10
60.175706371617
20
-5.42788688307485
30
0
41
1
10
60.2376820164413
20
-5.26962285429917
30
0
41
1
10
60.3618369638269
20
-4.94927910806953
30
0
41
1
10
60.4240046776539
20
-4.78741651471171
30
0
41
1
10
60.5173606588517
20
-4.54266641222793
30
0
41
1
10
60.5484899346379
20
-4.46088415706919
30
0
41
1
10
60.6107994290183
20
-4.2963651929775
30
0
41
1
10
60.6419799509807
20
-4.21362280020077
30
0
41
1
10
60.7355916338051
20
-3.96408192563212
30
0
41
1
10
60.798263509125
20
-3.7955181974034
30
0
41
1
10
60.9226232289061
20
-3.45924344162697
30
0
41
1
10
60.9842356231869
20
-3.29134006129064
30
0
41
1
10
61.0757289115074
20
-3.03986654458706
30
0
41
1
10
61.1060646270365
20
-2.95610886008788
30
0
41
1
10
61.1664553484038
20
-2.78870924326785
30
0
41
1
10
61.1964823730212
20
-2.70507884915674
30
0
41
1
10
61.2564302372242
20
-2.53786184691367
30
0
41
1
10
61.2863624141031
20
-2.45427056378676
30
0
41
1
10
61.3457623815345
20
-2.287279489778
30
0
41
1
10
61.37528925498
20
-2.20385533574157
30
0
41
1
10
61.404650835007
20
-2.12049934135143
30
0
0
SPLINE
5
F5
100
AcDbEntity
8
1
62
256
6
ByLayer
370
18
48
1
60
0
100
AcDbSpline
70
4
71
3
72
11
73
7
40
0
40
0
40
0
40
0
40
0.326286695987066
40
0.637376376829798
40
0.935271954129742
40
1
40
1
40
1
40
1
41
1
10
12.4584765413852
20
0.696795191516827
30
0
41
1
10
12.4262445695064
20
0.710999398529907
30
0
41
1
10
12.3615985555831
20
0.740080308868869
30
0
41
1
10
12.2615116714177
20
0.786949242162564
30
0
41
1
10
12.1866608122595
20
0.822817708405069
30
0
41
1
10
12.143692255318
20
0.843835856600691
30
0
41
1
10
12.135962829403
20
0.847627231925458
30
0
0
SPLINE
5
F6
100
AcDbEntity
8
1
62
256
6
ByLayer
370
18
48
1
60
0
100
AcDbSpline
70
4
71
3
72
25
73
21
40
0
40
0
40
0
40
0
40
0.0004252197344469
40
0.0058557829728875
40
0.0119311298688049
40
0.0449015425740184
40
0.075787781626519
40
0.135873527353937
40
0.258435688665215
40
0.371344191903525
40
0.485391751163358
40
0.598039823148731
40
0.638503180896894
40
0.682004647981739
40
0.726941332122767
40
0.766672309876283
40
0.801407698929073
40
0.850695023631699
40
0.924679239530199
40
1
40
1
40
1
40
1
41
1
10
38.5082900059267
20
-1.42138175473974
30
0
41
1
10
38.5082860415267
20
-1.4213895473911
30
0
41
1
10
38.5082732967956
20
-1.4214988689186
30
0
41
1
10
38.5093519736221
20
-1.42177071864219
30
0
41
1
10
38.5475507218829
20
-1.42581639226947
30
0
41
1
10
38.6827040587046
20
-1.4400524533342
30
0
41
1
10
38.8945646881933
20
-1.46583940059222
30
0
41
1
10
39.274757579246
20
-1.51844535605747
30
0
41
1
10
39.7949970650981
20
-1.61062209953863
30
0
41
1
10
40.3626549354452
20
-1.73706736894243
30
0
41
1
10
40.9531023330383
20
-1.89616823936413
30
0
41
1
10
41.4507584111514
20
-2.05021550112457
30
0
41
1
10
41.8279940834911
20
-2.17703472255559
30
0
41
1
10
42.0692223952925
20
-2.26115998504261
30
0
41
1
10
42.3043171311368
20
-2.34687902986934
30
0
41
1
10
42.5255393762422
20
-2.43079077819902
30
0
41
1
10
42.7540863551675
20
-2.5200387380506
30
0
41
1
10
43.0593182877394
20
-2.64305363606056
30
0
41
1
10
43.4481118763168
20
-2.80622867952417
30
0
41
1
10
43.7424400352366
20
-2.936448714329
30
0
41
1
10
43.8916626188682
20
-3.0040825652178
30
0
0
SPLINE
5
F7
100
AcDbEntity
8
1
62
256
6
ByLayer
370
18
48
1
60
0
100
AcDbSpline
70
4
71
3
72
33
73
29
40
0
40
0
40
0
40
0
40
0.0491872693967992
40
0.0917661321147453
40
0.128456567854089
40
0.15821469438049
40
0.192657587691888
40
0.24224369071931
40
0.28087366019518
40
0.313521524652203
40
0.361968742791749
40
0.406078832939432
40
0.44712296078659
40
0.502428440655749
40
0.556601361280853
40
0.594511665677495
40
0.627001585574378
40
0.660050509903488
40
0.694525010914216
40
0.736017885913878
40
0.787214500392546
40
0.838103363116944
40
0.867630143082808
40
0.895802389633711
40
0.927609961282733
40
0.962188776076743
40
0.998761760541676
40
1
40
1
40
1
40
1
41
1
10
19.6401156696
20
-5.95191415757336
30
0
41
1
10
19.8582547999301
20
-5.95149743390832
30
0
41
1
10
20.2668470579088
20
-5.95120778127384
30
0
41
1
10
20.8538132219776
20
-5.95276536510508
30
0
41
1
10
21.3380809358059
20
-5.95393251799513
30
0
41
1
10
21.7972289892769
20
-5.95414572690677
30
0
41
1
10
22.3130026035997
20
-5.95464365674303
30
0
41
1
10
22.8697406099461
20
-5.95520979870452
30
0
41
1
10
23.4181185169775
20
-5.95583743470755
30
0
41
1
10
23.9613692427544
20
-5.95628651705343
30
0
41
1
10
24.5294751932615
20
-5.95790549275193
30
0
41
1
10
25.1356931056748
20
-5.95819037162801
30
0
41
1
10
25.7730116839133
20
-5.95819972204899
30
0
41
1
10
26.4560063672182
20
-5.95822908752353
30
0
41
1
10
27.1247778857572
20
-5.95860380832443
30
0
41
1
10
27.690025500573
20
-5.96029445943472
30
0
41
1
10
28.1594127352164
20
-5.96213156769241
30
0
41
1
10
28.6132327047366
20
-5.96173271478585
30
0
41
1
10
29.1078498959225
20
-5.96161460176853
30
0
41
1
10
29.6850481596871
20
-5.96154139959529
30
0
41
1
10
30.3356123517412
20
-5.96164587105187
30
0
41
1
10
30.9358398265771
20
-5.96360290416951
30
0
41
1
10
31.4206639641211
20
-5.96531003397951
30
0
41
1
10
31.8282667689287
20
-5.96521170534714
30
0
41
1
10
32.2548228775151
20
-5.96574229887767
30
0
41
1
10
32.7142171149248
20
-5.96549126256804
30
0
41
1
10
33.0348024913792
20
-5.96457201442493
30
0
41
1
10
33.2026754106341
20
-5.96345047658673
30
0
41
1
10
33.2081727793662
20
-5.96341329018372
30
0
0
SPLINE
5
F8
100
AcDbEntity
8
1
62
256
6
ByLayer
370
18
48
1
60
0
100
AcDbSpline
70
4
71
3
72
12
73
8
40
0
40
0
40
0
40
0
40
0.143899232135557
40
0.374716222200468
40
0.559680337872796
40
0.770370053529629
40
1
40
1
40
1
40
1
41
1
10
50.6528016326674
20
0.656900377535919
30
0
41
1
10
50.6534057616244
20
0.656742162401599
30
0
41
1
10
50.6490983244494
20
0.65878834887539
30
0
41
1
10
50.599940683936
20
0.679334191771858
30
0
41
1
10
50.5110181904048
20
0.718365066451838
30
0
41
1
10
50.374947680794
20
0.780068881011999
30
0
41
1
10
50.2676921500071
20
0.831818374352366
30
0
41
1
10
50.206390102096
20
0.861901644362916
30
0
0
SPLINE
5
F9
100
AcDbEntity
8
1
62
256
6
ByLayer
370
18
48
1
60
0
100
AcDbSpline
70
4
71
3
72
13
73
9
40
0
40
0
40
0
40
0
40
0.260170824756202
40
0.374440067135293
40
0.486516585888472
40
0.674899686054963
40
0.919163137968718
40
1
40
1
40
1
40
1
41
1
10
57.7548570303643
20
-5.99758009068262
30
0
41
1
10
57.9221532113315
20
-5.99645960887867
30
0
41
1
10
58.1698182718769
20
-5.99567908553803
30
0
41
1
10
58.5147759933481
20
-5.99514466011226
30
0
41
1
10
58.7981222341064
20
-5.99730819448234
30
0
41
1
10
59.1757905419011
20
-5.99855233379009
30
0
41
1
10
59.5343183980002
20
-5.9984745253839
30
0
41
1
10
59.7617645912588
20
-6.00003288306226
30
0
41
1
10
59.8183673117629
20
-6.0004613443453
30
0
0
SPLINE
5
FA
100
AcDbEntity
8
1
62
256
6
ByLayer
370
18
48
1
60
0
100
AcDbSpline
70
4
71
3
72
25
73
21
40
0
40
0
40
0
40
0
40
0.0244573774554119
40
0.0921986441382232
40
0.152215813977741
40
0.183040682872151
40
0.218753245048058
40
0.269297702398223
40
0.322701969549453
40
0.386379260739162
40
0.436986591172234
40
0.484204824374364
40
0.530110961554335
40
0.583501976366821
40
0.675472559562649
40
0.758706641391814
40
0.828178166832602
40
0.908606577719778
40
0.980162927272069
40
1
40
1
40
1
40
1
41
1
10
33.2104884285362
20
5.96309758921512
30
0
41
1
10
33.1281104346442
20
5.9636960522846
30
0
41
1
10
32.8169811571106
20
5.96563705542002
30
0
41
1
10
32.3035862816005
20
5.9657533778749
30
0
41
1
10
31.7558185930453
20
5.9652587855615
30
0
41
1
10
31.3217038778585
20
5.96512767062649
30
0
41
1
10
30.9222912269854
20
5.96346046578557
30
0
41
1
10
30.4392837860261
20
5.9619262236327
30
0
41
1
10
29.8616094601984
20
5.96157028094714
30
0
41
1
10
29.2831425961746
20
5.96157075161199
30
0
41
1
10
28.7261784586263
20
5.96166516356479
30
0
41
1
10
28.2304626315337
20
5.96218997102372
30
0
41
1
10
27.7251643358421
20
5.96050125609739
30
0
41
1
10
27.0655150479939
20
5.95835522215205
30
0
41
1
10
26.2771274051482
20
5.95822161559445
30
0
41
1
10
25.4332786744317
20
5.9581818200455
30
0
41
1
10
24.6292429240005
20
5.95818119302055
30
0
41
1
10
23.8654646073257
20
5.95604053380347
30
0
41
1
10
23.2729370363664
20
5.95566141149195
30
0
41
1
10
22.9576771028761
20
5.95533687463535
30
0
41
1
10
22.8892514840589
20
5.95526345612126
30
0
0
LINE
5
7B
100
AcDbEntity
8
SK1
62
256
6
ByLayer
370
18
48
1
60
0
100
AcDbLine
10
-45
20
3.074477
30
0
11
-45
21
-5.1
31
0
39
0
210
0
220
0
230
1
0
LINE
5
7D
100
AcDbEntity
8
SK1
62
256
6
ByLayer
370
18
48
1
60
0
100
AcDbLine
10
-45
20
5.1
30
0
11
-45
21
4.638908
31
0
39
0
210
0
220
0
230
1
0
LINE
5
7E
100
AcDbEntity
8
SK1
62
256
6
ByLayer
370
18
48
1
60
0
100
AcDbLine
10
-43.9
20
4.032479
30
0
11
-43.9
21
5.471756
31
0
39
0
210
0
220
0
230
1
0
LINE
5
7F
100
AcDbEntity
8
SK1
62
256
6
ByLayer
370
18
48
1
60
0
100
AcDbLine
10
-45
20
4.638908
30
0
11
-45
21
3.074417
31
0
39
0
210
0
220
0
230
1
0
LINE
5
80
100
AcDbEntity
8
SK1
62
256
6
ByLayer
370
18
48
1
60
0
100
AcDbLine
10
-43.1
20
7
30
0
11
-43.1
21
-7
31
0
39
0
210
0
220
0
230
1
0
LINE
5
81
100
AcDbEntity
8
SK1
62
256
6
ByLayer
370
13
48
1
60
0
100
AcDbLine
10
-44
20
5.439281
30
0
11
-44
21
3.874798
31
0
39
0
210
0
220
0
230
1
0
LINE
5
82
100
AcDbEntity
8
SK1
62
256
6
ByLayer
370
18
48
1
60
0
100
AcDbLine
10
0
20
-7
30
0
11
0
21
7
31
0
39
0
210
0
220
0
230
1
0
LINE
5
83
100
AcDbEntity
8
1
62
256
6
ByLayer
370
13
48
1
60
0
100
AcDbLine
10
0.698564
20
6.589882
30
0
11
0.698564
21
-6.589882
31
0
39
0
210
0
220
0
230
1
0
LINE
5
84
100
AcDbEntity
8
1
62
256
6
ByLayer
370
18
48
1
60
0
100
AcDbLine
10
62
20
0.028764
30
0
11
62
21
-0.028764
31
0
39
0
210
0
220
0
230
1
0
LINE
5
85
100
AcDbEntity
8
1
62
256
6
ByLayer
370
18
48
1
60
0
100
AcDbLine
10
61.999328
20
-0.031563
30
0
11
62
21
-0.028764
31
0
39
0
210
0
220
0
230
1
0
LINE
5
86
100
AcDbEntity
8
1
62
256
6
ByLayer
370
18
48
1
60
0
100
AcDbLine
10
61.986839
20
-0.075759
30
0
11
61.557211
21
-1.64401
31
0
39
0
210
0
220
0
230
1
0
LINE
5
87
100
AcDbEntity
8
1
62
256
6
ByLayer
370
18
48
1
60
0
100
AcDbLine
10
62
20
0.028764
30
0
11
61.999328
21
0.031563
31
0
39
0
210
0
220
0
230
1
0
LINE
5
88
100
AcDbEntity
8
1
62
256
6
ByLayer
370
18
48
1
60
0
100
AcDbLine
10
61.986839
20
0.075759
30
0
11
61.557211
21
1.64401
31
0
39
0
210
0
220
0
230
1
0
LINE
5
89
100
AcDbEntity
8
1
62
256
6
ByLayer
370
18
48
1
60
0
100
AcDbLine
10
61.908931
20
-0.221447
30
0
11
58.795915
21
-4.59328
31
0
39
0
210
0
220
0
230
1
0
LINE
5
8A
100
AcDbEntity
8
1
62
256
6
ByLayer
370
18
48
1
60
0
100
AcDbLine
10
62
20
0.028764
30
0
11
61.999253
21
0.026712
31
0
39
0
210
0
220
0
230
1
0
LINE
5
8B
100
AcDbEntity
8
1
62
256
6
ByLayer
370
18
48
1
60
0
100
AcDbLine
10
61.908931
20
-0.221447
30
0
11
61.929117
21
-0.17267
31
0
39
0
210
0
220
0
230
1
0
LINE
5
8C
100
AcDbEntity
8
1
62
256
6
ByLayer
370
18
48
1
60
0
100
AcDbLine
10
0
20
-7
30
0
11
0
21
7
31
0
39
0
210
0
220
0
230
1
0
LINE
5
8D
100
AcDbEntity
8
1
62
256
6
ByLayer
370
13
48
1
60
0
100
AcDbLine
10
1.398089
20
6.179764
30
0
11
1.398089
21
-6.179764
31
0
39
0
210
0
220
0
230
1
0
LINE
5
8E
100
AcDbEntity
8
1
62
256
6
ByLayer
370
18
48
1
60
0
100
AcDbLine
10
60.480461
20
-4.146134
30
0
11
59.806293
21
-5.998398
31
0
39
0
210
0
220
0
230
1
0
LINE
5
8F
100
AcDbEntity
8
1
62
256
6
ByLayer
370
18
48
1
60
0
100
AcDbLine
10
61.404651
20
-2.120499
30
0
11
61.404422
21
-2.120734
31
0
39
0
210
0
220
0
230
1
0
LINE
5
90
100
AcDbEntity
8
1
62
256
6
ByLayer
370
18
48
1
60
0
100
AcDbLine
10
61.908931
20
-0.221447
30
0
11
61.096278
21
-2.454192
31
0
39
0
210
0
220
0
230
1
0
LINE
5
91
100
AcDbEntity
8
1
62
256
6
ByLayer
370
13
48
1
60
0
100
AcDbLine
10
61.929117
20
-0.17267
30
0
11
59.600337
21
1.536998
31
0
39
0
210
0
220
0
230
1
0
LINE
5
92
100
AcDbEntity
8
1
62
256
6
ByLayer
370
13
48
1
60
0
100
AcDbLine
10
61.986839
20
0.075759
30
0
11
59.707685
21
1.748993
31
0
39
0
210
0
220
0
230
1
0
LINE
5
93
100
AcDbEntity
8
80
62
256
6
ByLayer
370
18
48
1
60
0
100
AcDbLine
10
0
20
0
30
0
11
-5
21
0
31
0
39
0
210
0
220
0
230
1
0
LINE
5
94
100
AcDbEntity
8
4
62
256
6
ByLayer
370
18
48
0.05
60
0
100
AcDbLine
10
62
20
0
30
0
11
0
21
0
31
0
39
0
210
0
220
0
230
1
0
LINE
5
96
100
AcDbEntity
8
SK4
62
256
6
ByLayer
370
18
48
0.05
60
0
100
AcDbLine
10
67
20
0
30
0
11
-50
21
0
31
0
39
0
210
0
220
0
230
1
0
LINE
5
98
100
AcDbEntity
8
1
62
256
6
ByLayer
370
18
48
1
60
0
100
AcDbLine
10
17.029406
20
-6.198521
30
0
11
19.491403
21
-6.201476
31
0
39
0
210
0
220
0
230
1
0
LINE
5
99
100
AcDbEntity
8
1
62
256
6
ByLayer
370
18
48
1
60
0
100
AcDbLine
10
19.49176
20
6.201476
30
0
11
17.029406
21
6.198521
31
0
39
0
210
0
220
0
230
1
0
LINE
5
9A
100
AcDbEntity
8
SK1
62
256
6
ByLayer
370
18
48
1
60
0
100
AcDbLine
10
-45
20
-5.1
30
0
11
-43.1
21
-7
31
0
39
0
210
0
220
0
230
1
0
LINE
5
9B
100
AcDbEntity
8
SK1
62
256
6
ByLayer
370
18
48
1
60
0
100
AcDbLine
10
-43.1
20
7
30
0
11
-45
21
5.1
31
0
39
0
210
0
220
0
230
1
0
LINE
5
9C
100
AcDbEntity
8
SK1
62
256
6
ByLayer
370
18
48
1
60
0
100
AcDbLine
10
-43.1
20
-7
30
0
11
0
21
-7
31
0
39
0
210
0
220
0
230
1
0
LINE
5
9D
100
AcDbEntity
8
SK1
62
256
6
ByLayer
370
18
48
1
60
0
100
AcDbLine
10
0
20
7
30
0
11
-43.1
21
7
31
0
39
0
210
0
220
0
230
1
0
LINE
5
9E
100
AcDbEntity
8
1
62
256
6
ByLayer
370
18
48
1
60
0
100
AcDbLine
10
1.398089
20
-6.179764
30
0
11
2.31611
21
-6.180865
31
0
39
0
210
0
220
0
230
1
0
LINE
5
9F
100
AcDbEntity
8
1
62
256
6
ByLayer
370
18
48
1
60
0
100
AcDbLine
10
56.860551
20
-6.246319
30
0
11
57.592955
21
-6.247198
31
0
39
0
210
0
220
0
230
1
0
LINE
5
A0
100
AcDbEntity
8
1
62
256
6
ByLayer
370
18
48
1
60
0
100
AcDbLine
10
57.592807
20
6.247197
30
0
11
56.860551
21
6.246319
31
0
39
0
210
0
220
0
230
1
0
LINE
5
A1
100
AcDbEntity
8
1
62
256
6
ByLayer
370
18
48
1
60
0
100
AcDbLine
10
2.31611
20
6.180865
30
0
11
1.398089
21
6.179764
31
0
39
0
210
0
220
0
230
1
0
LINE
5
A2
100
AcDbEntity
8
81
62
256
6
ByLayer
370
18
48
1
60
0
100
AcDbLine
10
62
20
0
30
0
11
67
21
0
31
0
39
0
210
0
220
0
230
1
0
LINE
5
A3
100
AcDbEntity
8
SK2
62
256
6
ByLayer
370
13
48
1
60
0
100
AcDbLine
10
-53.625163
20
-7
30
0
11
-53.625163
21
38.225706
31
0
39
0
210
0
220
0
230
1
0
LINE
5
A5
100
AcDbEntity
8
SK2
62
256
6
ByLayer
370
13
48
1
60
0
100
AcDbLine
10
-46.5875
20
7
30
0
11
-55.625163
21
7
31
0
39
0
210
0
220
0
230
1
0
LINE
5
A6
100
AcDbEntity
8
SK2
62
256
6
ByLayer
370
13
48
1
60
0
100
AcDbLine
10
-46.5875
20
-7
30
0
11
-55.625163
21
-7
31
0
39
0
210
0
220
0
230
1
0
LINE
5
A7
100
AcDbEntity
8
1
62
256
6
ByLayer
370
18
48
1
60
1
100
AcDbLine
10
-53.625163
20
7
30
0
11
-53.164379
21
3.500002
31
0
39
0
210
0
220
0
230
1
0
LINE
5
A8
100
AcDbEntity
8
1
62
256
6
ByLayer
370
18
48
1
60
1
100
AcDbLine
10
-53.164379
20
3.500002
30
0
11
-54.085946
21
3.499998
31
0
39
0
210
0
220
0
230
1
0
LINE
5
A9
100
AcDbEntity
8
1
62
256
6
ByLayer
370
18
48
1
60
1
100
AcDbLine
10
-54.085946
20
3.499998
30
0
11
-53.625163
21
7
31
0
39
0
210
0
220
0
230
1
0
LINE
5
AA
100
AcDbEntity
8
1
62
256
6
ByLayer
370
18
48
1
60
1
100
AcDbLine
10
-53.625163
20
-7
30
0
11
-54.085946
21
-3.500002
31
0
39
0
210
0
220
0
230
1
0
LINE
5
AB
100
AcDbEntity
8
1
62
256
6
ByLayer
370
18
48
1
60
1
100
AcDbLine
10
-54.085946
20
-3.500002
30
0
11
-53.164379
21
-3.499998
31
0
39
0
210
0
220
0
230
1
0
LINE
5
AC
100
AcDbEntity
8
1
62
256
6
ByLayer
370
18
48
1
60
1
100
AcDbLine
10
-53.164379
20
-3.499998
30
0
11
-53.625163
21
-7
31
0
39
0
210
0
220
0
230
1
0
LINE
5
AD
100
AcDbEntity
8
2
62
256
6
ByLayer
370
13
48
1
60
0
100
AcDbLine
10
74.083343
20
-6.25
30
0
11
74.083343
21
35.700259
31
0
39
0
210
0
220
0
230
1
0
LINE
5
AF
100
AcDbEntity
8
2
62
256
6
ByLayer
370
13
48
1
60
0
100
AcDbLine
10
61.2875
20
6.25
30
0
11
76.083343
21
6.25
31
0
39
0
210
0
220
0
230
1
0
LINE
5
B0
100
AcDbEntity
8
2
62
256
6
ByLayer
370
13
48
1
60
0
100
AcDbLine
10
61.2875
20
-6.25
30
0
11
76.083343
21
-6.25
31
0
39
0
210
0
220
0
230
1
0
LINE
5
B1
100
AcDbEntity
8
1
62
256
6
ByLayer
370
18
48
1
60
1
100
AcDbLine
10
74.083343
20
6.25
30
0
11
74.544126
21
2.750002
31
0
39
0
210
0
220
0
230
1
0
LINE
5
B2
100
AcDbEntity
8
1
62
256
6
ByLayer
370
18
48
1
60
1
100
AcDbLine
10
74.544126
20
2.750002
30
0
11
73.622559
21
2.749998
31
0
39
0
210
0
220
0
230
1
0
LINE
5
B3
100
AcDbEntity
8
1
62
256
6
ByLayer
370
18
48
1
60
1
100
AcDbLine
10
73.622559
20
2.749998
30
0
11
74.083343
21
6.25
31
0
39
0
210
0
220
0
230
1
0
LINE
5
B4
100
AcDbEntity
8
1
62
256
6
ByLayer
370
18
48
1
60
1
100
AcDbLine
10
74.083343
20
-6.25
30
0
11
73.622559
21
-2.750002
31
0
39
0
210
0
220
0
230
1
0
LINE
5
B5
100
AcDbEntity
8
1
62
256
6
ByLayer
370
18
48
1
60
1
100
AcDbLine
10
73.622559
20
-2.750002
30
0
11
74.544126
21
-2.749998
31
0
39
0
210
0
220
0
230
1
0
LINE
5
B6
100
AcDbEntity
8
1
62
256
6
ByLayer
370
18
48
1
60
1
100
AcDbLine
10
74.544126
20
-2.749998
30
0
11
74.083343
21
-6.25
31
0
39
0
210
0
220
0
230
1
0
LINE
5
101
100
AcDbEntity
8
1
62
256
6
ByLayer
370
18
48
1
60
1
100
AcDbLine
10
-53.625163
20
7
30
0
11
-53.164379
21
3.500002
31
0
39
0
210
0
220
0
230
1
0
LINE
5
102
100
AcDbEntity
8
1
62
256
6
ByLayer
370
18
48
1
60
1
100
AcDbLine
10
-53.164379
20
3.500002
30
0
11
-54.085946
21
3.499998
31
0
39
0
210
0
220
0
230
1
0
LINE
5
103
100
AcDbEntity
8
1
62
256
6
ByLayer
370
18
48
1
60
1
100
AcDbLine
10
-54.085946
20
3.499998
30
0
11
-53.625163
21
7
31
0
39
0
210
0
220
0
230
1
0
LINE
5
105
100
AcDbEntity
8
1
62
256
6
ByLayer
370
18
48
1
60
1
100
AcDbLine
10
-53.625163
20
-7
30
0
11
-54.085946
21
-3.500002
31
0
39
0
210
0
220
0
230
1
0
LINE
5
106
100
AcDbEntity
8
1
62
256
6
ByLayer
370
18
48
1
60
1
100
AcDbLine
10
-54.085946
20
-3.500002
30
0
11
-53.164379
21
-3.499998
31
0
39
0
210
0
220
0
230
1
0
LINE
5
107
100
AcDbEntity
8
1
62
256
6
ByLayer
370
18
48
1
60
1
100
AcDbLine
10
-53.164379
20
-3.499998
30
0
11
-53.625163
21
-7
31
0
39
0
210
0
220
0
230
1
0
LINE
5
10B
100
AcDbEntity
8
1
62
256
6
ByLayer
370
18
48
1
60
1
100
AcDbLine
10
74.083343
20
6.25
30
0
11
74.544126
21
2.750002
31
0
39
0
210
0
220
0
230
1
0
LINE
5
10C
100
AcDbEntity
8
1
62
256
6
ByLayer
370
18
48
1
60
1
100
AcDbLine
10
74.544126
20
2.750002
30
0
11
73.622559
21
2.749998
31
0
39
0
210
0
220
0
230
1
0
LINE
5
10D
100
AcDbEntity
8
1
62
256
6
ByLayer
370
18
48
1
60
1
100
AcDbLine
10
73.622559
20
2.749998
30
0
11
74.083343
21
6.25
31
0
39
0
210
0
220
0
230
1
0
LINE
5
10F
100
AcDbEntity
8
1
62
256
6
ByLayer
370
18
48
1
60
1
100
AcDbLine
10
74.083343
20
-6.25
30
0
11
73.622559
21
-2.750002
31
0
39
0
210
0
220
0
230
1
0
LINE
5
110
100
AcDbEntity
8
1
62
256
6
ByLayer
370
18
48
1
60
1
100
AcDbLine
10
73.622559
20
-2.750002
30
0
11
74.544126
21
-2.749998
31
0
39
0
210
0
220
0
230
1
0
LINE
5
111
100
AcDbEntity
8
1
62
256
6
ByLayer
370
18
48
1
60
1
100
AcDbLine
10
74.544126
20
-2.749998
30
0
11
74.083343
21
-6.25
31
0
39
0
210
0
220
0
230
1
0
MTEXT
5
FB
100
AcDbEntity
8
SK6
62
256
6
ByLayer
370
13
48
1
60
0
100
AcDbMText
10
-17.974126
20
38.790328
30
0
210
0
220
0
230
1
1
\W0.7074;860.1-1250-039A1-SM 1210
40
3.5
41
0
44
1.084337
50
0
71
7
72
5
7
iso_b_vert
0
MTEXT
5
FF
100
AcDbEntity
8
SK2
62
256
6
ByLayer
370
18
48
1
60
0
100
AcDbMText
10
-55.189796
20
20.409024
30
0
210
0
220
0
230
1
1
%%c
40
3.5
41
0
44
1.084337
50
90
71
7
72
5
7
iso_b_vert
0
MTEXT
5
100
100
AcDbEntity
8
SK2
62
256
6
ByLayer
370
18
48
1
60
0
100
AcDbMText
10
-55.189796
20
25.63168
30
0
210
0
220
0
230
1
1
\W0.7145;14,000
40
3.5
41
0
44
1.084337
50
90
71
7
72
5
7
iso_b_vert
0
MTEXT
5
109
100
AcDbEntity
8
2
62
256
6
ByLayer
370
18
48
1
60
0
100
AcDbMText
10
72.518709
20
18.25211
30
0
210
0
220
0
230
1
1
%%c
40
3.5
41
0
44
1.084337
50
90
71
7
72
5
7
iso_b_vert
0
MTEXT
5
10A
100
AcDbEntity
8
2
62
256
6
ByLayer
370
18
48
1
60
0
100
AcDbMText
10
72.518709
20
23.474766
30
0
210
0
220
0
230
1
1
\W0.6930;12,500
40
3.5
41
0
44
1.084337
50
90
71
7
72
5
7
iso_b_vert
0
HATCH
5
104
100
AcDbEntity
8
SK2
62
256
6
ByLayer
370
13
48
1
60
0
100
AcDbHatch
10
0
20
0
30
0
210
0
220
0
230
1
2
ANSI31
70
0
71
0
91
1
92
5
93
3
72
1
10
-53.6251625675374
20
7
11
-53.1643788259847
21
3.50000169255318
72
1
10
-53.1643788259847
20
3.50000169255318
11
-54.0859463090902
21
3.49999830744682
72
1
10
-54.0859463090902
20
3.49999830744682
11
-53.6251625675374
21
7
97
0
75
0
76
1
52
0
41
0.0062
77
0
78
1
53
45
43
0
44
0
45
-0.0139193969876572
46
0.0139193969876572
79
0
47
0
98
1
10
0
20
0
0
HATCH
5
108
100
AcDbEntity
8
SK2
62
256
6
ByLayer
370
13
48
1
60
0
100
AcDbHatch
10
0
20
0
30
0
210
0
220
0
230
1
2
ANSI31
70
0
71
0
91
1
92
5
93
3
72
1
10
-53.6251625675374
20
-7
11
-54.0859463090902
21
-3.50000169255318
72
1
10
-54.0859463090902
20
-3.50000169255318
11
-53.1643788259847
21
-3.49999830744682
72
1
10
-53.1643788259847
20
-3.49999830744682
11
-53.6251625675374
21
-7
97
0
75
0
76
1
52
0
41
0.0062
77
0
78
1
53
45
43
0
44
0
45
-0.0139193969876572
46
0.0139193969876572
79
0
47
0
98
1
10
0
20
0
0
HATCH
5
10E
100
AcDbEntity
8
2
62
256
6
ByLayer
370
13
48
1
60
0
100
AcDbHatch
10
0
20
0
30
0
210
0
220
0
230
1
2
ANSI31
70
0
71
0
91
1
92
5
93
3
72
1
10
74.083342615295
20
6.25
11
74.5441263568478
21
2.75000169255318
72
1
10
74.5441263568478
20
2.75000169255318
11
73.6225588737423
21
2.74999830744682
72
1
10
73.6225588737423
20
2.74999830744682
11
74.083342615295
21
6.25
97
0
75
0
76
1
52
0
41
0.0062
77
0
78
1
53
45
43
0
44
0
45
-0.0139193969876572
46
0.0139193969876572
79
0
47
0
98
1
10
0
20
0
0
HATCH
5
112
100
AcDbEntity
8
2
62
256
6
ByLayer
370
13
48
1
60
0
100
AcDbHatch
10
0
20
0
30
0
210
0
220
0
230
1
2
ANSI31
70
0
71
0
91
1
92
5
93
3
72
1
10
74.083342615295
20
-6.25
11
73.6225588737423
21
-2.75000169255318
72
1
10
73.6225588737423
20
-2.75000169255318
11
74.5441263568478
21
-2.74999830744682
72
1
10
74.5441263568478
20
-2.74999830744682
11
74.083342615295
21
-6.25
97
0
75
0
76
1
52
0
41
0.0062
77
0
78
1
53
45
43
0
44
0
45
-0.0139193969876572
46
0.0139193969876572
79
0
47
0
98
1
10
0
20
0
0
DIMENSION
5
114
100
AcDbEntity
8
SK2
62
256
6
ByLayer
370
13
48
1
60
0
100
AcDbDimension
2
_U0
10
59.7
20
-16.463398
30
0
11
29.85
21
-16.463398
31
0
70
32
71
1
72
1
41
1
210
0
220
0
230
1
3
Standard
100
AcDbAlignedDimension
13
0
23
0
33
0
14
59.7
24
-6.25
34
0
50
0
100
AcDbRotatedDimension
1001
ACAD
1000
DSTYLE
1002
{
1070
   371
1070
    13
1070
   372
1070
    13
1070
   170
1070
     0
1070
   144
1040
1.0
1070
   277
1070
     2
1070
   278
1070
    44
1070
   146
1040
1.0
1070
   345
1005
16
1070
   347
1005
16
1070
   346
1005
16
1070
   344
1005
0
1070
   343
1005
0
1070
   172
1070
     1
1070
    76
1070
     0
1070
    75
1070
     0
1070
   282
1070
     0
1070
   281
1070
     0
1070
    71
1070
     0
1070
    74
1070
     0
1070
   279
1070
     0
1070
   173
1070
     1
1070
   340
1005
FC
1070
   271
1070
     2
1070
   272
1070
     2
1070
    77
1070
     1
1070
    73
1070
     1
1070
   171
1070
     3
1070
   274
1070
     4
1070
   177
1070
    35
1070
   176
1070
    35
1070
   178
1070
    35
1070
    48
1040
-0.1
1070
    41
1040
3.5
1070
   147
1040
1.75
1070
    42
1040
1.5875
1070
    44
1040
2.0
1070
   140
1040
3.5
1002
}
1001
ACAD_DSTYLE_DIM_LINETYPE
1070
   380
1005
16
1001
ACAD_DSTYLE_DIM_EXT1_LINETYPE
1070
   381
1005
16
1001
ACAD_DSTYLE_DIM_EXT2_LINETYPE
1070
   382
1005
16
0
DIMENSION
5
12D
100
AcDbEntity
8
SK2
62
256
6
ByLayer
370
13
48
1
60
0
100
AcDbDimension
2
_U1
10
62
20
-35.692985
30
0
11
8.5
21
-35.692985
31
0
70
32
71
1
72
1
41
1
210
0
220
0
230
1
3
Standard
100
AcDbAlignedDimension
13
-45
23
-7
33
0
14
62
24
0
34
0
50
0
100
AcDbRotatedDimension
1001
ACAD
1000
DSTYLE
1002
{
1070
   371
1070
    13
1070
   372
1070
    13
1070
   170
1070
     0
1070
   144
1040
1.0
1070
   277
1070
     2
1070
   278
1070
    44
1070
   146
1040
1.0
1070
   345
1005
16
1070
   347
1005
16
1070
   346
1005
16
1070
   344
1005
0
1070
   343
1005
0
1070
   172
1070
     1
1070
    76
1070
     0
1070
    75
1070
     0
1070
   282
1070
     0
1070
   281
1070
     0
1070
    71
1070
     0
1070
    74
1070
     0
1070
   279
1070
     0
1070
   173
1070
     1
1070
   340
1005
FC
1070
   271
1070
     2
1070
   272
1070
     2
1070
    77
1070
     1
1070
    73
1070
     1
1070
   171
1070
     3
1070
   274
1070
     4
1070
   177
1070
    35
1070
   176
1070
    35
1070
   178
1070
    35
1070
    48
1040
-0.1
1070
    41
1040
3.5
1070
   147
1040
1.75
1070
    42
1040
1.5875
1070
    44
1040
2.0
1070
   140
1040
3.5
1002
}
1001
ACAD_DSTYLE_DIM_LINETYPE
1070
   380
1005
16
1001
ACAD_DSTYLE_DIM_EXT1_LINETYPE
1070
   381
1005
16
1001
ACAD_DSTYLE_DIM_EXT2_LINETYPE
1070
   382
1005
16
0
DIMENSION
5
145
100
AcDbEntity
8
SK2
62
256
6
ByLayer
370
13
48
1
60
0
100
AcDbDimension
2
_U2
10
62
20
17.859119
30
0
11
41.70755
21
17.859119
31
0
70
32
71
1
72
1
41
1
210
0
220
0
230
1
3
Standard
100
AcDbAlignedDimension
13
21.4151
23
6.25
33
0
14
62
24
0
34
0
50
0
100
AcDbRotatedDimension
1001
ACAD
1000
DSTYLE
1002
{
1070
   371
1070
    13
1070
   372
1070
    13
1070
   170
1070
     0
1070
   144
1040
1.0
1070
   277
1070
     2
1070
   278
1070
    44
1070
   146
1040
1.0
1070
   345
1005
16
1070
   347
1005
16
1070
   346
1005
16
1070
   344
1005
0
1070
   343
1005
0
1070
   172
1070
     1
1070
    76
1070
     0
1070
    75
1070
     0
1070
   282
1070
     0
1070
   281
1070
     0
1070
    71
1070
     0
1070
    74
1070
     0
1070
   279
1070
     0
1070
   173
1070
     1
1070
   340
1005
FC
1070
   271
1070
     2
1070
   272
1070
     2
1070
    77
1070
     1
1070
    73
1070
     1
1070
   171
1070
     3
1070
   274
1070
     4
1070
   177
1070
    35
1070
   176
1070
    35
1070
   178
1070
    35
1070
    48
1040
-0.1
1070
    41
1040
3.5
1070
   147
1040
1.75
1070
    42
1040
1.5875
1070
    44
1040
2.0
1070
   140
1040
3.5
1002
}
1001
ACAD_DSTYLE_DIM_LINETYPE
1070
   380
1005
16
1001
ACAD_DSTYLE_DIM_EXT1_LINETYPE
1070
   381
1005
16
1001
ACAD_DSTYLE_DIM_EXT2_LINETYPE
1070
   382
1005
16
0
DIMENSION
5
15D
100
AcDbEntity
8
SK2
62
256
6
ByLayer
370
13
48
1
60
0
100
AcDbDimension
2
_U3
10
59.7
20
-19.052503
30
0
11
79.583333
21
-19.052503
31
0
70
32
71
1
72
1
41
1
210
0
220
0
230
1
3
Standard
100
AcDbAlignedDimension
13
62
23
0
33
0
14
59.7
24
-6.25
34
0
50
0
100
AcDbRotatedDimension
1001
ACAD
1000
DSTYLE
1002
{
1070
   371
1070
    13
1070
   372
1070
    13
1070
   170
1070
     0
1070
   144
1040
1.0
1070
   277
1070
     2
1070
   278
1070
    44
1070
   146
1040
1.0
1070
   345
1005
16
1070
   347
1005
16
1070
   346
1005
16
1070
   344
1005
0
1070
   343
1005
0
1070
   172
1070
     1
1070
    76
1070
     0
1070
    75
1070
     0
1070
   282
1070
     0
1070
   281
1070
     0
1070
    71
1070
     0
1070
    74
1070
     0
1070
   279
1070
     0
1070
   173
1070
     1
1070
   340
1005
FC
1070
   271
1070
     2
1070
   272
1070
     2
1070
    77
1070
     1
1070
    73
1070
     1
1070
   171
1070
     3
1070
   274
1070
     4
1070
   177
1070
    35
1070
   176
1070
    35
1070
   178
1070
    35
1070
    48
1040
-0.1
1070
    41
1040
3.5
1070
   147
1040
1.75
1070
    42
1040
1.5875
1070
    44
1040
2.0
1070
   140
1040
3.5
1002
}
1001
ACAD_DSTYLE_DIM_LINETYPE
1070
   380
1005
16
1001
ACAD_DSTYLE_DIM_EXT1_LINETYPE
1070
   381
1005
16
1001
ACAD_DSTYLE_DIM_EXT2_LINETYPE
1070
   382
1005
16
0
DIMENSION
5
177
100
AcDbEntity
8
SK2
62
256
6
ByLayer
370
13
48
1
60
0
100
AcDbDimension
2
_U4
10
59.7
20
-25.343428
30
0
11
7.35
21
-25.343428
31
0
70
32
71
1
72
1
41
1
210
0
220
0
230
1
3
Standard
100
AcDbAlignedDimension
13
-45
23
-7
33
0
14
59.7
24
-6.25
34
0
50
0
100
AcDbRotatedDimension
1001
ACAD
1000
DSTYLE
1002
{
1070
   371
1070
    13
1070
   372
1070
    13
1070
   170
1070
     0
1070
   144
1040
1.0
1070
   277
1070
     2
1070
   278
1070
    44
1070
   146
1040
1.0
1070
   345
1005
16
1070
   347
1005
16
1070
   346
1005
16
1070
   344
1005
0
1070
   343
1005
0
1070
   172
1070
     1
1070
    76
1070
     0
1070
    75
1070
     0
1070
   282
1070
     0
1070
   281
1070
     0
1070
    71
1070
     0
1070
    74
1070
     0
1070
   279
1070
     0
1070
   173
1070
     1
1070
   340
1005
FC
1070
   271
1070
     2
1070
   272
1070
     2
1070
    77
1070
     1
1070
    73
1070
     1
1070
   171
1070
     3
1070
   274
1070
     4
1070
   177
1070
    35
1070
   176
1070
    35
1070
   178
1070
    35
1070
    48
1040
-0.1
1070
    41
1040
3.5
1070
   147
1040
1.75
1070
    42
1040
1.5875
1070
    44
1040
2.0
1070
   140
1040
3.5
1002
}
1001
ACAD_DSTYLE_DIM_LINETYPE
1070
   380
1005
16
1001
ACAD_DSTYLE_DIM_EXT1_LINETYPE
1070
   381
1005
16
1001
ACAD_DSTYLE_DIM_EXT2_LINETYPE
1070
   382
1005
16
0
ENDSEC
0
SECTION
2
OBJECTS
0
DICTIONARY
5
1ff
330
0
100
AcDbDictionary
280
0
281
1
3
ACAD_GROUP
350
200
3
ACAD_MLINESTYLE
350
201
0
DICTIONARY
5
200
330
0
100
AcDbDictionary
280
0
281
1
0
DICTIONARY
5
201
330
0
100
AcDbDictionary
280
0
281
1
3
Standard
350
18
0
MLINESTYLE
5
18
330
201
100
AcDbMlineStyle
2
Standard
70
0
3

62
256
51
90
52
90
71
2
49
-0.5
62
256
6
ByLayer
49
0.5
62
256
6
ByLayer
0
RASTERVARIABLES
5
1ed
330

100
AcDbRasterVariables
90
0
70
1
71
1
72
1
0
ENDSEC
0
EOF
