0
SECTION
2
HEADER
9
$ACADVER
1
AC1015
9
$DWGCODEPAGE
3
ANSI_1252
9
$HANDSEED
5
20c
9
$ANGBASE
50
0
9
$ANGDIR
70
0
9
$ATTMODE
70
1
9
$AUNITS
70
0
9
$AUPREC
70
0
9
$CECOLOR
62
256
9
$CELTSCALE
40
1
9
$CELTYPE
6
ByLayer
9
$CELWEIGHT
370
18
9
$CLAYER
8
0
9
$CMLJUST
70
0
9
$CMLSCALE
40
1
9
$CMLSTYLE
2
Standard
9
$DIMSTYLE
2
Standard
9
$TEXTSIZE
40
0.2
9
$TEXTSTYLE
7
Standard
9
$LUNITS
70
2
9
$LUPREC
70
4
9
$EXTNAMES
290
1
9
$INSUNITS
70
4
9
$LTSCALE
40
1
9
$LWDISPLAY
290
1
9
$PDMODE
70
0
9
$PDSIZE
40
0
9
$PLINEGEN
70
0
0
ENDSEC
0
SECTION
2
CLASSES
0
CLASS
1
RASTERVARIABLES
2
AcDbRasterVariables
3
ISM
90
0
280
0
281
0
0
ENDSEC
0
SECTION
2
TABLES
0
TABLE
2
VPORT
5
202
100
AcDbSymbolTable
0
VPORT
5
1
100
AcDbSymbolTableRecord
100
AcDbViewportTableRecord
2
*Active
70
0
10
0
20
0
11
1
21
1
12
-1
22
1
13
0
23
0
14
0.5
24
0.5
15
10
25
10
16
0
26
0
36
1
17
0
27
0
37
0
0
ENDTAB
0
TABLE
2
LTYPE
5
203
100
AcDbSymbolTable
0
LTYPE
5
14
100
AcDbSymbolTableRecord
100
AcDbLinetypeTableRecord
70
0
2
ByBlock
3

72
65
73
0
40
0
0
LTYPE
5
15
100
AcDbSymbolTableRecord
100
AcDbLinetypeTableRecord
70
0
2
ByLayer
3

72
65
73
0
40
0
0
LTYPE
5
16
100
AcDbSymbolTableRecord
100
AcDbLinetypeTableRecord
70
0
2
Continuous
3
Solid line
72
65
73
0
40
0
0
LTYPE
5
6E
100
AcDbSymbolTableRecord
100
AcDbLinetypeTableRecord
70
0
2
CENTER
3
____ _ ____ _ ____ _ ____
72
65
73
4
40
47.5
49
22
74
0
49
-8.5
74
0
49
8.5
74
0
49
-8.5
74
0
0
LTYPE
5
6F
100
AcDbSymbolTableRecord
100
AcDbLinetypeTableRecord
70
0
2
DASHED
3
__ __ __ __ __ __ __ __ __
72
65
73
2
40
25.72
49
12.86
74
0
49
-12.86
74
0
0
ENDTAB
0
TABLE
2
LAYER
5
204
100
AcDbSymbolTable
0
LAYER
5
10
100
AcDbSymbolTableRecord
100
AcDbLayerTableRecord
2
0
70
0
62
7
6
Continuous
290
1
370
-3
390
0
0
LAYER
5
71
100
AcDbSymbolTableRecord
100
AcDbLayerTableRecord
2
80
70
0
62
-6
6
Continuous
290
1
370
-3
390
0
0
LAYER
5
73
100
AcDbSymbolTableRecord
100
AcDbLayerTableRecord
2
81
70
0
62
-3
6
Continuous
290
1
370
-3
390
0
0
LAYER
5
75
100
AcDbSymbolTableRecord
100
AcDbLayerTableRecord
2
1
70
0
62
4
6
Continuous
290
1
370
-3
390
0
0
LAYER
5
92
100
AcDbSymbolTableRecord
100
AcDbLayerTableRecord
2
4
70
0
62
-2
6
CENTER
290
1
370
-3
390
0
0
LAYER
5
AB
100
AcDbSymbolTableRecord
100
AcDbLayerTableRecord
2
2
70
0
62
7
6
Continuous
290
1
370
-3
390
0
0
LAYER
5
117
100
AcDbSymbolTableRecord
100
AcDbLayerTableRecord
2
Defpoints
70
0
62
7
6
Continuous
290
0
370
-3
390
0
0
LAYER
5
1ee
100
AcDbSymbolTableRecord
100
AcDbLayerTableRecord
2
SK1
70
0
62
4
6
Continuous
290
1
370
-3
390
0
0
LAYER
5
1ef
100
AcDbSymbolTableRecord
100
AcDbLayerTableRecord
2
SK4
70
0
62
2
6
CENTER
290
1
370
-3
390
0
0
LAYER
5
1f0
100
AcDbSymbolTableRecord
100
AcDbLayerTableRecord
2
SK2
70
0
62
7
6
Continuous
290
1
370
-3
390
0
0
LAYER
5
1f1
100
AcDbSymbolTableRecord
100
AcDbLayerTableRecord
2
SK6
70
0
62
5
6
Continuous
290
1
370
-3
390
0
0
ENDTAB
0
TABLE
2
STYLE
5
205
100
AcDbSymbolTable
0
STYLE
5
11
100
AcDbSymbolTableRecord
100
AcDbTextStyleTableRecord
2
Standard
3
txt
70
0
71
0
40
0
41
1
42
0
50
0
0
STYLE
5
FC
100
AcDbSymbolTableRecord
100
AcDbTextStyleTableRecord
2
iso_b_vert
3
simplex.shx
70
0
71
0
40
0
41
1
42
0
50
0
0
STYLE
5
FD
100
AcDbSymbolTableRecord
100
AcDbTextStyleTableRecord
2
DWGDirectTextStyle
3
simplex
70
0
71
0
40
0
41
1
42
0
50
0
0
ENDTAB
0
TABLE
2
DIMSTYLE
5
206
100
AcDbSymbolTable
100
AcDbDimStyleTable
0
DIMSTYLE
105
27
100
AcDbSymbolTableRecord
100
AcDbDimStyleTableRecord
2
Standard
70
0
3
<>
41
0.18
42
0.0625
44
0.18
140
0.18
147
0.09
73
0
74
0
77
1
271
2
275
0
278
52
280
0
340
11
0
ENDTAB
0
TABLE
2
VIEW
5
207
100
AcDbSymbolTable
0
ENDTAB
0
TABLE
2
UCS
5
208
100
AcDbSymbolTable
0
ENDTAB
0
TABLE
2
APPID
5
209
100
AcDbSymbolTable
0
APPID
5
12
100
AcDbSymbolTableRecord
100
AcDbRegAppTableRecord
2
ACAD
70
0
0
APPID
5
113
100
AcDbSymbolTableRecord
100
AcDbRegAppTableRecord
2
ACAD_DSTYLE_DIMBREAK
70
0
0
APPID
5
1AD
100
AcDbSymbolTableRecord
100
AcDbRegAppTableRecord
2
ACAD_DSTYLE_DIM_LINETYPE
70
0
0
APPID
5
1AE
100
AcDbSymbolTableRecord
100
AcDbRegAppTableRecord
2
ACAD_DSTYLE_DIM_EXT1_LINETYPE
70
0
0
APPID
5
1AF
100
AcDbSymbolTableRecord
100
AcDbRegAppTableRecord
2
ACAD_DSTYLE_DIM_EXT2_LINETYPE
70
0
0
APPID
5
1EA
100
AcDbSymbolTableRecord
100
AcDbRegAppTableRecord
2
ACAD_MLEADERVER
70
0
0
ENDTAB
0
TABLE
2
BLOCK_RECORD
5
20a
100
AcDbSymbolTable
0
BLOCK_RECORD
5
1F
100
AcDbSymbolTableRecord
100
AcDbBlockTableRecord
2
*Model_Space
340
0
70
0
0
BLOCK_RECORD
5
1B
100
AcDbSymbolTableRecord
100
AcDbBlockTableRecord
2
*Paper_Space
340
0
70
0
0
BLOCK_RECORD
5
23
100
AcDbSymbolTableRecord
100
AcDbBlockTableRecord
2
*Paper_Space0
340
0
70
0
0
BLOCK_RECORD
5
118
100
AcDbSymbolTableRecord
100
AcDbBlockTableRecord
2
*D1
340
0
70
0
0
BLOCK_RECORD
5
124
100
AcDbSymbolTableRecord
100
AcDbBlockTableRecord
2
_U0
340
0
70
0
0
BLOCK_RECORD
5
130
100
AcDbSymbolTableRecord
100
AcDbBlockTableRecord
2
*D3
340
0
70
0
0
BLOCK_RECORD
5
13C
100
AcDbSymbolTableRecord
100
AcDbBlockTableRecord
2
_U1
340
0
70
0
0
BLOCK_RECORD
5
148
100
AcDbSymbolTableRecord
100
AcDbBlockTableRecord
2
*D5
340
0
70
0
0
BLOCK_RECORD
5
154
100
AcDbSymbolTableRecord
100
AcDbBlockTableRecord
2
_U2
340
0
70
0
0
BLOCK_RECORD
5
160
100
AcDbSymbolTableRecord
100
AcDbBlockTableRecord
2
*D7
340
0
70
0
0
BLOCK_RECORD
5
16E
100
AcDbSymbolTableRecord
100
AcDbBlockTableRecord
2
_U3
340
0
70
0
0
BLOCK_RECORD
5
17A
100
AcDbSymbolTableRecord
100
AcDbBlockTableRecord
2
*D9
340
0
70
0
0
BLOCK_RECORD
5
186
100
AcDbSymbolTableRecord
100
AcDbBlockTableRecord
2
_U4
340
0
70
0
0
ENDTAB
0
ENDSEC
0
SECTION
2
BLOCKS
0
BLOCK
5
20
100
AcDbEntity
8
0
100
AcDbBlockBegin
2
*Model_Space
70
0
10
0
20
0
30
0
3
*Model_Space
0
ENDBLK
5
21
100
AcDbEntity
8
0
100
AcDbBlockEnd
0
BLOCK
5
1C
100
AcDbEntity
8
0
100
AcDbBlockBegin
2
*Paper_Space
70
0
10
0
20
0
30
0
3
*Paper_Space
0
ENDBLK
5
1D
100
AcDbEntity
8
0
100
AcDbBlockEnd
0
BLOCK
5
24
100
AcDbEntity
8
0
100
AcDbBlockBegin
2
*Paper_Space0
70
0
10
0
20
0
30
0
3
*Paper_Space0
0
ENDBLK
5
25
100
AcDbEntity
8
0
100
AcDbBlockEnd
0
BLOCK
5
119
100
AcDbEntity
8
0
100
AcDbBlockBegin
2
*D1
70
1
10
0
20
0
30
0
3
*D1
0
LINE
5
11B
100
AcDbEntity
8
0
62
256
6
ByLayer
370
-2
48
1
60
0
100
AcDbLine
10
0
20
-1.5875
30
0
11
0
21
-17.373398
31
0
39
0
210
0
220
0
230
1
0
LINE
5
11C
100
AcDbEntity
8
0
62
256
6
ByLayer
370
-2
48
1
60
0
100
AcDbLine
10
55.1
20
-6.7475
30
0
11
55.1
21
-17.373398
31
0
39
0
210
0
220
0
230
1
0
LINE
5
11D
100
AcDbEntity
8
0
62
256
6
ByLayer
370
-2
48
1
60
0
100
AcDbLine
10
3.5
20
-15.373398
30
0
11
51.6
21
-15.373398
31
0
39
0
210
0
220
0
230
1
0
SOLID
5
11E
100
AcDbEntity
8
0
62
256
6
ByLayer
370
-1
48
1
60
0
100
AcDbTrace
10
3.5
20
-14.790065
30
0
11
3.5
21
-15.956732
31
0
12
0
22
-15.373398
32
0
13
0
23
-15.373398
33
0
39
0
210
0
220
0
230
1
0
SOLID
5
11F
100
AcDbEntity
8
0
62
256
6
ByLayer
370
-1
48
1
60
0
100
AcDbTrace
10
51.6
20
-15.956732
30
0
11
51.6
21
-14.790065
31
0
12
55.1
22
-15.373398
32
0
13
55.1
23
-15.373398
33
0
39
0
210
0
220
0
230
1
0
MTEXT
5
120
100
AcDbEntity
8
0
62
256
6
ByLayer
370
18
48
1
60
0
100
AcDbMText
10
27.55
20
-8.373398
30
0
210
0
220
0
230
1
1
\A1;55.10
40
3.5
41
0
44
1
50
0
71
5
72
5
7
iso_b_vert
0
POINT
5
121
100
AcDbEntity
8
Defpoints
62
0
6
ByLayer
370
-1
48
1
60
0
100
AcDbPoint
10
0
20
0
30
0
39
0
210
0
220
0
230
1
50
360
0
POINT
5
122
100
AcDbEntity
8
Defpoints
62
0
6
ByLayer
370
-1
48
1
60
0
100
AcDbPoint
10
55.1
20
-5.16
30
0
39
0
210
0
220
0
230
1
50
360
0
POINT
5
123
100
AcDbEntity
8
Defpoints
62
0
6
ByLayer
370
-1
48
1
60
0
100
AcDbPoint
10
55.1
20
-15.373398
30
0
39
0
210
0
220
0
230
1
50
360
0
ENDBLK
5
11A
100
AcDbEntity
8
0
100
AcDbBlockEnd
0
BLOCK
5
12B
100
AcDbEntity
8
0
100
AcDbBlockBegin
2
_U0
70
0
10
0
20
0
30
0
3
_U0
0
MTEXT
5
125
100
AcDbEntity
8
SK2
62
256
6
ByLayer
370
13
48
1
60
0
100
AcDbMText
10
22.850135
20
-14.340765
30
0
210
0
220
0
230
1
1
\W0.6713;55,10
40
3.5
41
0
44
1.084337
50
0
71
7
72
5
7
iso_b_vert
0
LINE
5
126
100
AcDbEntity
8
SK2
62
256
6
ByLayer
370
13
48
1
60
0
100
AcDbLine
10
0
20
-1.5875
30
0
11
0
21
-17.373398
31
0
39
0
210
0
220
0
230
1
0
LINE
5
127
100
AcDbEntity
8
SK2
62
256
6
ByLayer
370
13
48
1
60
0
100
AcDbLine
10
55.1
20
-6.7475
30
0
11
55.1
21
-17.373398
31
0
39
0
210
0
220
0
230
1
0
LINE
5
128
100
AcDbEntity
8
SK2
62
256
6
ByLayer
370
13
48
1
60
0
100
AcDbLine
10
0
20
-15.373398
30
0
11
55.1
21
-15.373398
31
0
39
0
210
0
220
0
230
1
0
SOLID
5
129
100
AcDbEntity
8
SK2
62
256
6
ByLayer
370
18
48
1
60
0
100
AcDbTrace
10
0
20
-15.373398
30
0
11
3.499998
21
-14.912615
31
0
12
3.500002
22
-15.834182
32
0
13
3.500002
23
-15.834182
33
0
39
0
210
0
220
0
230
1
0
SOLID
5
12A
100
AcDbEntity
8
SK2
62
256
6
ByLayer
370
18
48
1
60
0
100
AcDbTrace
10
55.1
20
-15.373398
30
0
11
51.600002
21
-15.834182
31
0
12
51.599998
22
-14.912615
32
0
13
51.599998
23
-14.912615
33
0
39
0
210
0
220
0
230
1
0
ENDBLK
5
12C
100
AcDbEntity
8
0
100
AcDbBlockEnd
0
BLOCK
5
131
100
AcDbEntity
8
0
100
AcDbBlockBegin
2
*D3
70
1
10
0
20
0
30
0
3
*D3
0
LINE
5
133
100
AcDbEntity
8
0
62
256
6
ByLayer
370
-2
48
1
60
0
100
AcDbLine
10
-45
20
-7.5875
30
0
11
-45
21
-36.692985
31
0
39
0
210
0
220
0
230
1
0
LINE
5
134
100
AcDbEntity
8
0
62
256
6
ByLayer
370
-2
48
1
60
0
100
AcDbLine
10
57
20
-1.5875
30
0
11
57
21
-36.692985
31
0
39
0
210
0
220
0
230
1
0
LINE
5
135
100
AcDbEntity
8
0
62
256
6
ByLayer
370
-2
48
1
60
0
100
AcDbLine
10
-41.5
20
-34.692985
30
0
11
53.5
21
-34.692985
31
0
39
0
210
0
220
0
230
1
0
SOLID
5
136
100
AcDbEntity
8
0
62
256
6
ByLayer
370
-1
48
1
60
0
100
AcDbTrace
10
-41.5
20
-34.109652
30
0
11
-41.5
21
-35.276319
31
0
12
-45
22
-34.692985
32
0
13
-45
23
-34.692985
33
0
39
0
210
0
220
0
230
1
0
SOLID
5
137
100
AcDbEntity
8
0
62
256
6
ByLayer
370
-1
48
1
60
0
100
AcDbTrace
10
53.5
20
-35.276319
30
0
11
53.5
21
-34.109652
31
0
12
57
22
-34.692985
32
0
13
57
23
-34.692985
33
0
39
0
210
0
220
0
230
1
0
MTEXT
5
138
100
AcDbEntity
8
0
62
256
6
ByLayer
370
18
48
1
60
0
100
AcDbMText
10
6
20
-27.692985
30
0
210
0
220
0
230
1
1
\A1;102.00
40
3.5
41
0
44
1
50
0
71
5
72
5
7
iso_b_vert
0
POINT
5
139
100
AcDbEntity
8
Defpoints
62
0
6
ByLayer
370
-1
48
1
60
0
100
AcDbPoint
10
-45
20
-6
30
0
39
0
210
0
220
0
230
1
50
360
0
POINT
5
13A
100
AcDbEntity
8
Defpoints
62
0
6
ByLayer
370
-1
48
1
60
0
100
AcDbPoint
10
57
20
0
30
0
39
0
210
0
220
0
230
1
50
360
0
POINT
5
13B
100
AcDbEntity
8
Defpoints
62
0
6
ByLayer
370
-1
48
1
60
0
100
AcDbPoint
10
57
20
-34.692985
30
0
39
0
210
0
220
0
230
1
50
360
0
ENDBLK
5
132
100
AcDbEntity
8
0
100
AcDbBlockEnd
0
BLOCK
5
143
100
AcDbEntity
8
0
100
AcDbBlockBegin
2
_U1
70
0
10
0
20
0
30
0
3
_U1
0
MTEXT
5
13D
100
AcDbEntity
8
SK2
62
256
6
ByLayer
370
13
48
1
60
0
100
AcDbMText
10
-0.007599
20
-33.660352
30
0
210
0
220
0
230
1
1
\W0.6930;102,00
40
3.5
41
0
44
1.084337
50
0
71
7
72
5
7
iso_b_vert
0
LINE
5
13E
100
AcDbEntity
8
SK2
62
256
6
ByLayer
370
13
48
1
60
0
100
AcDbLine
10
-45
20
-7.5875
30
0
11
-45
21
-36.692985
31
0
39
0
210
0
220
0
230
1
0
LINE
5
13F
100
AcDbEntity
8
SK2
62
256
6
ByLayer
370
13
48
1
60
0
100
AcDbLine
10
57
20
-1.5875
30
0
11
57
21
-36.692985
31
0
39
0
210
0
220
0
230
1
0
LINE
5
140
100
AcDbEntity
8
SK2
62
256
6
ByLayer
370
13
48
1
60
0
100
AcDbLine
10
-45
20
-34.692985
30
0
11
57
21
-34.692985
31
0
39
0
210
0
220
0
230
1
0
SOLID
5
141
100
AcDbEntity
8
SK2
62
256
6
ByLayer
370
18
48
1
60
0
100
AcDbTrace
10
-45
20
-34.692985
30
0
11
-41.500002
21
-34.232202
31
0
12
-41.499998
22
-35.153769
32
0
13
-41.499998
23
-35.153769
33
0
39
0
210
0
220
0
230
1
0
SOLID
5
142
100
AcDbEntity
8
SK2
62
256
6
ByLayer
370
18
48
1
60
0
100
AcDbTrace
10
57
20
-34.692985
30
0
11
53.500002
21
-35.153769
31
0
12
53.499998
22
-34.232202
32
0
13
53.499998
23
-34.232202
33
0
39
0
210
0
220
0
230
1
0
ENDBLK
5
144
100
AcDbEntity
8
0
100
AcDbBlockEnd
0
BLOCK
5
149
100
AcDbEntity
8
0
100
AcDbBlockBegin
2
*D5
70
1
10
0
20
0
30
0
3
*D5
0
LINE
5
14B
100
AcDbEntity
8
0
62
256
6
ByLayer
370
-2
48
1
60
0
100
AcDbLine
10
18.7686
20
6.7475
30
0
11
18.7686
21
18.769119
31
0
39
0
210
0
220
0
230
1
0
LINE
5
14C
100
AcDbEntity
8
0
62
256
6
ByLayer
370
-2
48
1
60
0
100
AcDbLine
10
57
20
1.5875
30
0
11
57
21
18.769119
31
0
39
0
210
0
220
0
230
1
0
LINE
5
14D
100
AcDbEntity
8
0
62
256
6
ByLayer
370
-2
48
1
60
0
100
AcDbLine
10
22.2686
20
16.769119
30
0
11
53.5
21
16.769119
31
0
39
0
210
0
220
0
230
1
0
SOLID
5
14E
100
AcDbEntity
8
0
62
256
6
ByLayer
370
-1
48
1
60
0
100
AcDbTrace
10
22.2686
20
17.352453
30
0
11
22.2686
21
16.185786
31
0
12
18.7686
22
16.769119
32
0
13
18.7686
23
16.769119
33
0
39
0
210
0
220
0
230
1
0
SOLID
5
14F
100
AcDbEntity
8
0
62
256
6
ByLayer
370
-1
48
1
60
0
100
AcDbTrace
10
53.5
20
16.185786
30
0
11
53.5
21
17.352453
31
0
12
57
22
16.769119
32
0
13
57
23
16.769119
33
0
39
0
210
0
220
0
230
1
0
MTEXT
5
150
100
AcDbEntity
8
0
62
256
6
ByLayer
370
18
48
1
60
0
100
AcDbMText
10
37.8843
20
23.769119
30
0
210
0
220
0
230
1
1
\A1;38.23
40
3.5
41
0
44
1
50
0
71
5
72
5
7
iso_b_vert
0
POINT
5
151
100
AcDbEntity
8
Defpoints
62
0
6
ByLayer
370
-1
48
1
60
0
100
AcDbPoint
10
18.7686
20
5.16
30
0
39
0
210
0
220
0
230
1
50
360
0
POINT
5
152
100
AcDbEntity
8
Defpoints
62
0
6
ByLayer
370
-1
48
1
60
0
100
AcDbPoint
10
57
20
0
30
0
39
0
210
0
220
0
230
1
50
360
0
POINT
5
153
100
AcDbEntity
8
Defpoints
62
0
6
ByLayer
370
-1
48
1
60
0
100
AcDbPoint
10
57
20
16.769119
30
0
39
0
210
0
220
0
230
1
50
360
0
ENDBLK
5
14A
100
AcDbEntity
8
0
100
AcDbBlockEnd
0
BLOCK
5
15B
100
AcDbEntity
8
0
100
AcDbBlockBegin
2
_U2
70
0
10
0
20
0
30
0
3
_U2
0
MTEXT
5
155
100
AcDbEntity
8
SK2
62
256
6
ByLayer
370
13
48
1
60
0
100
AcDbMText
10
32.747001
20
17.801753
30
0
210
0
220
0
230
1
1
\W0.7317;38,23
40
3.5
41
0
44
1.084337
50
0
71
7
72
5
7
iso_b_vert
0
LINE
5
156
100
AcDbEntity
8
SK2
62
256
6
ByLayer
370
13
48
1
60
0
100
AcDbLine
10
18.7686
20
6.7475
30
0
11
18.7686
21
18.769119
31
0
39
0
210
0
220
0
230
1
0
LINE
5
157
100
AcDbEntity
8
SK2
62
256
6
ByLayer
370
13
48
1
60
0
100
AcDbLine
10
57
20
1.5875
30
0
11
57
21
18.769119
31
0
39
0
210
0
220
0
230
1
0
LINE
5
158
100
AcDbEntity
8
SK2
62
256
6
ByLayer
370
13
48
1
60
0
100
AcDbLine
10
18.7686
20
16.769119
30
0
11
57
21
16.769119
31
0
39
0
210
0
220
0
230
1
0
SOLID
5
159
100
AcDbEntity
8
SK2
62
256
6
ByLayer
370
18
48
1
60
0
100
AcDbTrace
10
18.7686
20
16.769119
30
0
11
22.268598
21
17.229903
31
0
12
22.268602
22
16.308335
32
0
13
22.268602
23
16.308335
33
0
39
0
210
0
220
0
230
1
0
SOLID
5
15A
100
AcDbEntity
8
SK2
62
256
6
ByLayer
370
18
48
1
60
0
100
AcDbTrace
10
57
20
16.769119
30
0
11
53.500002
21
16.308335
31
0
12
53.499998
22
17.229903
32
0
13
53.499998
23
17.229903
33
0
39
0
210
0
220
0
230
1
0
ENDBLK
5
15C
100
AcDbEntity
8
0
100
AcDbBlockEnd
0
BLOCK
5
161
100
AcDbEntity
8
0
100
AcDbBlockBegin
2
*D7
70
1
10
0
20
0
30
0
3
*D7
0
LINE
5
163
100
AcDbEntity
8
0
62
256
6
ByLayer
370
-2
48
1
60
0
100
AcDbLine
10
57
20
-1.5875
30
0
11
57
21
-19.962503
31
0
39
0
210
0
220
0
230
1
0
LINE
5
164
100
AcDbEntity
8
0
62
256
6
ByLayer
370
-2
48
1
60
0
100
AcDbLine
10
55.1
20
-6.7475
30
0
11
55.1
21
-19.962503
31
0
39
0
210
0
220
0
230
1
0
LINE
5
165
100
AcDbEntity
8
0
62
256
6
ByLayer
370
-2
48
1
60
0
100
AcDbLine
10
57
20
-17.962503
30
0
11
84.666667
21
-17.962503
31
0
39
0
210
0
220
0
230
1
0
LINE
5
166
100
AcDbEntity
8
0
62
256
6
ByLayer
370
-2
48
1
60
0
100
AcDbLine
10
60.5
20
-17.962503
30
0
11
64
21
-17.962503
31
0
39
0
210
0
220
0
230
1
0
LINE
5
167
100
AcDbEntity
8
0
62
256
6
ByLayer
370
-2
48
1
60
0
100
AcDbLine
10
51.6
20
-17.962503
30
0
11
48.1
21
-17.962503
31
0
39
0
210
0
220
0
230
1
0
SOLID
5
168
100
AcDbEntity
8
0
62
256
6
ByLayer
370
-1
48
1
60
0
100
AcDbTrace
10
60.5
20
-17.37917
30
0
11
60.5
21
-18.545837
31
0
12
57
22
-17.962503
32
0
13
57
23
-17.962503
33
0
39
0
210
0
220
0
230
1
0
SOLID
5
169
100
AcDbEntity
8
0
62
256
6
ByLayer
370
-1
48
1
60
0
100
AcDbTrace
10
51.6
20
-18.545837
30
0
11
51.6
21
-17.37917
31
0
12
55.1
22
-17.962503
32
0
13
55.1
23
-17.962503
33
0
39
0
210
0
220
0
230
1
0
MTEXT
5
16A
100
AcDbEntity
8
0
62
256
6
ByLayer
370
18
48
1
60
0
100
AcDbMText
10
74.333333
20
-10.962503
30
0
210
0
220
0
230
1
1
\A1;1.90
40
3.5
41
0
44
1
50
0
71
5
72
5
7
iso_b_vert
0
POINT
5
16B
100
AcDbEntity
8
Defpoints
62
0
6
ByLayer
370
-1
48
1
60
0
100
AcDbPoint
10
57
20
0
30
0
39
0
210
0
220
0
230
1
50
360
0
POINT
5
16C
100
AcDbEntity
8
Defpoints
62
0
6
ByLayer
370
-1
48
1
60
0
100
AcDbPoint
10
55.1
20
-5.16
30
0
39
0
210
0
220
0
230
1
50
360
0
POINT
5
16D
100
AcDbEntity
8
Defpoints
62
0
6
ByLayer
370
-1
48
1
60
0
100
AcDbPoint
10
55.1
20
-17.962503
30
0
39
0
210
0
220
0
230
1
50
360
0
ENDBLK
5
162
100
AcDbEntity
8
0
100
AcDbBlockEnd
0
BLOCK
5
175
100
AcDbEntity
8
0
100
AcDbBlockBegin
2
_U3
70
0
10
0
20
0
30
0
3
_U3
0
MTEXT
5
16F
100
AcDbEntity
8
SK2
62
256
6
ByLayer
370
13
48
1
60
0
100
AcDbMText
10
63.589293
20
-16.92987
30
0
210
0
220
0
230
1
1
\W0.6367;1,90
40
3.5
41
0
44
1.084337
50
0
71
7
72
5
7
iso_b_vert
0
LINE
5
170
100
AcDbEntity
8
SK2
62
256
6
ByLayer
370
13
48
1
60
0
100
AcDbLine
10
57
20
-1.5875
30
0
11
57
21
-19.962503
31
0
39
0
210
0
220
0
230
1
0
LINE
5
171
100
AcDbEntity
8
SK2
62
256
6
ByLayer
370
13
48
1
60
0
100
AcDbLine
10
55.1
20
-6.7475
30
0
11
55.1
21
-19.962503
31
0
39
0
210
0
220
0
230
1
0
LINE
5
172
100
AcDbEntity
8
SK2
62
256
6
ByLayer
370
13
48
1
60
0
100
AcDbLine
10
46.35
20
-17.962503
30
0
11
70.559058
21
-17.962503
31
0
39
0
210
0
220
0
230
1
0
SOLID
5
173
100
AcDbEntity
8
SK2
62
256
6
ByLayer
370
18
48
1
60
0
100
AcDbTrace
10
57
20
-17.962503
30
0
11
60.499998
21
-17.501719
31
0
12
60.500002
22
-18.423287
32
0
13
60.500002
23
-18.423287
33
0
39
0
210
0
220
0
230
1
0
SOLID
5
174
100
AcDbEntity
8
SK2
62
256
6
ByLayer
370
18
48
1
60
0
100
AcDbTrace
10
55.1
20
-17.962503
30
0
11
51.600002
21
-18.423287
31
0
12
51.599998
22
-17.501719
32
0
13
51.599998
23
-17.501719
33
0
39
0
210
0
220
0
230
1
0
ENDBLK
5
176
100
AcDbEntity
8
0
100
AcDbBlockEnd
0
BLOCK
5
17B
100
AcDbEntity
8
0
100
AcDbBlockBegin
2
*D9
70
1
10
0
20
0
30
0
3
*D9
0
LINE
5
17D
100
AcDbEntity
8
0
62
256
6
ByLayer
370
-2
48
1
60
0
100
AcDbLine
10
-45
20
-7.5875
30
0
11
-45
21
-26.343428
31
0
39
0
210
0
220
0
230
1
0
LINE
5
17E
100
AcDbEntity
8
0
62
256
6
ByLayer
370
-2
48
1
60
0
100
AcDbLine
10
55.1
20
-6.7475
30
0
11
55.1
21
-26.343428
31
0
39
0
210
0
220
0
230
1
0
LINE
5
17F
100
AcDbEntity
8
0
62
256
6
ByLayer
370
-2
48
1
60
0
100
AcDbLine
10
-41.5
20
-24.343428
30
0
11
51.6
21
-24.343428
31
0
39
0
210
0
220
0
230
1
0
SOLID
5
180
100
AcDbEntity
8
0
62
256
6
ByLayer
370
-1
48
1
60
0
100
AcDbTrace
10
-41.5
20
-23.760095
30
0
11
-41.5
21
-24.926762
31
0
12
-45
22
-24.343428
32
0
13
-45
23
-24.343428
33
0
39
0
210
0
220
0
230
1
0
SOLID
5
181
100
AcDbEntity
8
0
62
256
6
ByLayer
370
-1
48
1
60
0
100
AcDbTrace
10
51.6
20
-24.926762
30
0
11
51.6
21
-23.760095
31
0
12
55.1
22
-24.343428
32
0
13
55.1
23
-24.343428
33
0
39
0
210
0
220
0
230
1
0
MTEXT
5
182
100
AcDbEntity
8
0
62
256
6
ByLayer
370
18
48
1
60
0
100
AcDbMText
10
5.05
20
-17.343428
30
0
210
0
220
0
230
1
1
\A1;100.10
40
3.5
41
0
44
1
50
0
71
5
72
5
7
iso_b_vert
0
POINT
5
183
100
AcDbEntity
8
Defpoints
62
0
6
ByLayer
370
-1
48
1
60
0
100
AcDbPoint
10
-45
20
-6
30
0
39
0
210
0
220
0
230
1
50
360
0
POINT
5
184
100
AcDbEntity
8
Defpoints
62
0
6
ByLayer
370
-1
48
1
60
0
100
AcDbPoint
10
55.1
20
-5.16
30
0
39
0
210
0
220
0
230
1
50
360
0
POINT
5
185
100
AcDbEntity
8
Defpoints
62
0
6
ByLayer
370
-1
48
1
60
0
100
AcDbPoint
10
55.1
20
-24.343428
30
0
39
0
210
0
220
0
230
1
50
360
0
ENDBLK
5
17C
100
AcDbEntity
8
0
100
AcDbBlockEnd
0
BLOCK
5
18D
100
AcDbEntity
8
0
100
AcDbBlockBegin
2
_U4
70
0
10
0
20
0
30
0
3
_U4
0
MTEXT
5
187
100
AcDbEntity
8
SK2
62
256
6
ByLayer
370
13
48
1
60
0
100
AcDbMText
10
-0.520165
20
-23.310795
30
0
210
0
220
0
230
1
1
\W0.6440;100,10
40
3.5
41
0
44
1.084337
50
0
71
7
72
5
7
iso_b_vert
0
LINE
5
188
100
AcDbEntity
8
SK2
62
256
6
ByLayer
370
13
48
1
60
0
100
AcDbLine
10
-45
20
-7.5875
30
0
11
-45
21
-26.343428
31
0
39
0
210
0
220
0
230
1
0
LINE
5
189
100
AcDbEntity
8
SK2
62
256
6
ByLayer
370
13
48
1
60
0
100
AcDbLine
10
55.1
20
-6.7475
30
0
11
55.1
21
-26.343428
31
0
39
0
210
0
220
0
230
1
0
LINE
5
18A
100
AcDbEntity
8
SK2
62
256
6
ByLayer
370
13
48
1
60
0
100
AcDbLine
10
-45
20
-24.343428
30
0
11
55.1
21
-24.343428
31
0
39
0
210
0
220
0
230
1
0
SOLID
5
18B
100
AcDbEntity
8
SK2
62
256
6
ByLayer
370
18
48
1
60
0
100
AcDbTrace
10
-45
20
-24.343428
30
0
11
-41.500002
21
-23.882645
31
0
12
-41.499998
22
-24.804212
32
0
13
-41.499998
23
-24.804212
33
0
39
0
210
0
220
0
230
1
0
SOLID
5
18C
100
AcDbEntity
8
SK2
62
256
6
ByLayer
370
18
48
1
60
0
100
AcDbTrace
10
55.1
20
-24.343428
30
0
11
51.600002
21
-24.804212
31
0
12
51.599998
22
-23.882645
32
0
13
51.599998
23
-23.882645
33
0
39
0
210
0
220
0
230
1
0
ENDBLK
5
18E
100
AcDbEntity
8
0
100
AcDbBlockEnd
0
ENDSEC
0
SECTION
2
ENTITIES
0
ARC
5
B4
100
AcDbEntity
8
1
62
256
6
ByLayer
370
18
48
1
60
0
100
AcDbCircle
39
0
10
1.440987
20
-5.895382
30
0
40
0.799999999999999
210
0
220
0
230
1
100
AcDbArc
50
89.931245
51
154.239271
0
ARC
5
B5
100
AcDbEntity
8
1
62
256
6
ByLayer
370
18
48
1
60
0
100
AcDbCircle
39
0
10
0
20
-5.2
30
0
40
0.800000000000005
210
0
220
0
230
1
100
AcDbArc
50
270
51
334.239271
0
ARC
5
B6
100
AcDbEntity
8
1
62
256
6
ByLayer
370
18
48
1
60
0
100
AcDbCircle
39
0
10
1.440987
20
5.895382
30
0
40
0.799999999999999
210
0
220
0
230
1
100
AcDbArc
50
205.760729
51
270.068755
0
ARC
5
B7
100
AcDbEntity
8
1
62
256
6
ByLayer
370
18
48
1
60
0
100
AcDbCircle
39
0
10
0
20
5.2
30
0
40
0.800000000000005
210
0
220
0
230
1
100
AcDbArc
50
25.760729
51
90
0
ELLIPSE
5
B8
100
AcDbEntity
8
1
62
256
6
ByLayer
370
18
48
1
60
0
100
AcDbEllipse
10
57.072806
20
0.14761
30
0
11
0.107158245299537
21
0.326150750529209
31
0
210
0
220
0
230
1
40
0.050974
41
2.15296222326302
42
2.34746927878388
0
ELLIPSE
5
B9
100
AcDbEntity
8
1
62
256
6
ByLayer
370
18
48
1
60
0
100
AcDbEllipse
10
57.072806
20
-0.14761
30
0
11
0.107158233605374
21
-0.326150718811851
31
0
210
0
220
0
230
1
40
0.050974
41
-2.34746925001973
42
-2.15296218087625
0
ELLIPSE
5
BA
100
AcDbEntity
8
1
62
256
6
ByLayer
370
18
48
1
60
0
100
AcDbEllipse
10
56.379794
20
-1.930267
30
0
11
0.292882377470088
21
0.799707144697316
31
0
210
0
220
0
230
1
40
0.073902
41
-1.44075325853564
42
-0.722703075131273
0
ELLIPSE
5
BB
100
AcDbEntity
8
1
62
256
6
ByLayer
370
13
48
1
60
0
100
AcDbEllipse
10
4.250235
20
0.14072
30
0
11
0.04327364751043
21
0.0901520461838946
31
0
210
0
220
0
230
1
40
0.013566
41
3.13265110528012
42
-1.59543083628014
0
ELLIPSE
5
BC
100
AcDbEntity
8
1
62
256
6
ByLayer
370
13
48
1
60
0
100
AcDbEllipse
10
4.184916
20
0.172314
30
0
11
-0.0439449279482434
21
-0.0898267404931499
31
0
210
0
220
0
230
1
40
0.385478
41
-1.35058602793171
42
0.0158902918982721
0
ELLIPSE
5
BD
100
AcDbEntity
8
1
62
256
6
ByLayer
370
18
48
1
60
0
100
AcDbEllipse
10
47.495788
20
1.930267
30
0
11
9.14397571655069
21
-0.596547346725959
31
0
210
0
220
0
230
1
40
0.058294
41
0.0205267282318412
42
0.305363400533164
0
ELLIPSE
5
BE
100
AcDbEntity
8
1
62
256
6
ByLayer
370
18
48
1
60
0
100
AcDbEllipse
10
56.379794
20
1.930267
30
0
11
0.292882377353942
21
-0.799707144426106
31
0
210
0
220
0
230
1
40
0.073902
41
0.722703075155488
42
1.44075325876867
0
ELLIPSE
5
BF
100
AcDbEntity
8
1
62
256
6
ByLayer
370
18
48
1
60
0
100
AcDbEllipse
10
57.000864
20
0.002254
30
0
11
1.88984307277088
21
5.16016362563815
31
0
210
0
220
0
230
1
40
0.073902
41
-2.92727016565564
42
-2.8617683087293
0
ELLIPSE
5
C0
100
AcDbEntity
8
1
62
256
6
ByLayer
370
18
48
1
60
0
100
AcDbEllipse
10
57.000864
20
-0.002255
30
0
11
1.88984319117998
21
-5.16016396802539
31
0
210
0
220
0
230
1
40
0.073902
41
2.86176831799064
42
2.92727017269194
0
ELLIPSE
5
C1
100
AcDbEntity
8
1
62
256
6
ByLayer
370
18
48
1
60
0
100
AcDbEllipse
10
56.952453
20
-0.059253
30
0
11
0.0685673025882041
21
0.197677258984488
31
0
210
0
220
0
230
1
40
0.089621
41
-2.14968638260397
42
-1.08755637887666
0
POINT
5
70
100
AcDbEntity
8
80
62
256
6
ByLayer
370
18
48
1
60
0
100
AcDbPoint
10
0
20
0
30
0
39
0
210
0
220
0
230
1
50
360
0
POINT
5
72
100
AcDbEntity
8
81
62
256
6
ByLayer
370
18
48
1
60
0
100
AcDbPoint
10
57
20
0
30
0
39
0
210
0
220
0
230
1
50
360
0
POINT
5
74
100
AcDbEntity
8
1
62
256
6
ByLayer
370
18
48
1
60
1
100
AcDbPoint
10
55.1
20
-5.16
30
0
39
0
210
0
220
0
230
1
50
360
0
POINT
5
76
100
AcDbEntity
8
1
62
256
6
ByLayer
370
18
48
1
60
1
100
AcDbPoint
10
-45
20
-6
30
0
39
0
210
0
220
0
230
1
50
360
0
POINT
5
77
100
AcDbEntity
8
1
62
256
6
ByLayer
370
18
48
1
60
1
100
AcDbPoint
10
18.7686
20
5.16
30
0
39
0
210
0
220
0
230
1
50
360
0
POINT
5
78
100
AcDbEntity
8
1
62
256
6
ByLayer
370
18
48
1
60
1
100
AcDbPoint
10
55.1
20
-5.16
30
0
39
0
210
0
220
0
230
1
50
360
0
POINT
5
79
100
AcDbEntity
8
1
62
256
6
ByLayer
370
18
48
1
60
1
100
AcDbPoint
10
-45
20
-6
30
0
39
0
210
0
220
0
230
1
50
360
0
POINT
5
7A
100
AcDbEntity
8
1
62
256
6
ByLayer
370
18
48
1
60
1
100
AcDbPoint
10
55.1
20
-5.16
30
0
39
0
210
0
220
0
230
1
50
360
0
SPLINE
5
C2
100
AcDbEntity
8
SK1
62
256
6
ByLayer
370
18
48
1
60
0
100
AcDbSpline
70
4
71
3
72
12
73
8
40
0
40
0
40
0
40
0
40
0.250000000000002
40
0.250000000000002
40
0.500000000000004
40
0.500000000000004
40
1
40
1
40
1
40
1
41
1
10
-44.15
20
-4.53908679743475
30
0
41
1
10
-44.15
20
-4.53112779128642
30
0
41
1
10
-44.1541941749322
20
-4.51957963898417
30
0
41
1
10
-44.1670526877135
20
-4.49462137012821
30
0
41
1
10
-44.175534353051
20
-4.48136352350755
30
0
41
1
10
-44.2039198806883
20
-4.44184170341526
30
0
41
1
10
-44.2265892999413
20
-4.41591646901344
30
0
41
1
10
-44.25
20
-4.39321814512286
30
0
0
SPLINE
5
C3
100
AcDbEntity
8
SK1
62
256
6
ByLayer
370
18
48
1
60
0
100
AcDbSpline
70
4
71
3
72
8
73
4
40
0
40
0
40
0
40
0
40
1
40
1
40
1
40
1
41
1
10
-44.25
20
-4.39321814512286
30
0
41
1
10
-44.5004607764222
20
-4.15037876779263
30
0
41
1
10
-44.750543195514
20
-3.90719251328255
30
0
41
1
10
-45
20
-3.66343269665873
30
0
0
SPLINE
5
C4
100
AcDbEntity
8
SK1
62
256
6
ByLayer
370
18
48
1
60
0
100
AcDbSpline
70
4
71
3
72
8
73
4
40
0
40
0
40
0
40
0
40
1
40
1
40
1
40
1
41
1
10
-45
20
-4.28567002738353
30
0
41
1
10
-44.7505376619712
20
-4.52943525117749
30
0
41
1
10
-44.5004560637861
20
-4.77262066775037
30
0
41
1
10
-44.25
20
-5.01545547584766
30
0
0
SPLINE
5
C5
100
AcDbEntity
8
SK1
62
256
6
ByLayer
370
18
48
1
60
0
100
AcDbSpline
70
4
71
3
72
12
73
8
40
0
40
0
40
0
40
0
40
0.499999999999996
40
0.499999999999996
40
0.749999999999998
40
0.749999999999998
40
1
40
1
40
1
40
1
41
1
10
-44.25
20
-5.01545547584769
30
0
41
1
10
-44.2265845479658
20
-5.03815840711349
30
0
41
1
10
-44.2038584068652
20
-5.05926007051352
30
0
41
1
10
-44.1756851307021
20
-5.08349735860457
30
0
41
1
10
-44.1670829075058
20
-5.09049061953453
30
0
41
1
10
-44.1542477010067
20
-5.09949778358185
30
0
41
1
10
-44.15
20
-5.10145890324418
30
0
41
1
10
-44.15
20
-5.09910039508708
30
0
0
SPLINE
5
C6
100
AcDbEntity
8
1
62
256
6
ByLayer
370
18
48
1
60
0
100
AcDbSpline
70
4
71
3
72
14
73
10
40
0
40
0
40
0
40
0
40
0.25
40
0.25
40
0.5
40
0.5
40
0.75
40
0.75
40
1
40
1
40
1
40
1
41
1
10
4.00396544927443
20
4.77412319480837
30
0
41
1
10
4.0083342520241
20
4.75847959191503
30
0
41
1
10
4.01659060134656
20
4.74115678844672
30
0
41
1
10
4.04367514806944
20
4.70428594731405
30
0
41
1
10
4.06281417569895
20
4.68456228300337
30
0
41
1
10
4.11201669762531
20
4.64686023926137
30
0
41
1
10
4.14073242327694
20
4.6300528459289
30
0
41
1
10
4.19765143615788
20
4.60377331775493
30
0
41
1
10
4.22496977349775
20
4.59440151072937
30
0
41
1
10
4.25067459887848
20
4.58762870072738
30
0
0
SPLINE
5
C7
100
AcDbEntity
8
1
62
256
6
ByLayer
370
13
48
1
60
0
100
AcDbSpline
70
4
71
3
72
8
73
4
40
0
40
0
40
0
40
0
40
1
40
1
40
1
40
1
41
1
10
4.25039131456342
20
0.137912783389396
30
0
41
1
10
4.21263876011415
20
0.148567165173574
30
0
41
1
10
4.17581263708655
20
0.15910767620494
30
0
41
1
10
4.14152656224283
20
0.169223261754837
30
0
0
SPLINE
5
C8
100
AcDbEntity
8
1
62
256
6
ByLayer
370
18
48
1
60
0
100
AcDbSpline
70
4
71
3
72
50
73
46
40
0
40
0
40
0
40
0
40
0.0625000000000004
40
0.0625000000000004
40
0.125000000000001
40
0.125000000000001
40
0.187500000000001
40
0.187500000000001
40
0.250000000000002
40
0.250000000000002
40
0.312500000000002
40
0.312500000000002
40
0.375000000000003
40
0.375000000000003
40
0.437500000000003
40
0.437500000000003
40
0.468750000000004
40
0.468750000000004
40
0.500000000000004
40
0.500000000000004
40
0.531250000000004
40
0.531250000000004
40
0.562500000000005
40
0.562500000000005
40
0.593750000000005
40
0.593750000000005
40
0.625000000000006
40
0.625000000000006
40
0.656250000000006
40
0.656250000000006
40
0.687500000000006
40
0.687500000000006
40
0.718750000000007
40
0.718750000000007
40
0.750000000000007
40
0.750000000000007
40
0.781250000000008
40
0.781250000000008
40
0.812500000000008
40
0.812500000000008
40
0.875000000000005
40
0.875000000000005
40
0.937500000000003
40
0.937500000000003
40
1
40
1
40
1
40
1
41
1
10
56.1516361601204
20
-2.30209694396046
30
0
41
1
10
56.1268809849649
20
-2.28915725050777
30
0
41
1
10
56.0996445739912
20
-2.28408527165084
30
0
41
1
10
56.0411095125517
20
-2.28682221010601
30
0
41
1
10
56.0095282756793
20
-2.29480407135429
30
0
41
1
10
55.9438518734847
20
-2.322517597667
30
0
41
1
10
55.909924015579
20
-2.34207961254742
30
0
41
1
10
55.8400075576962
20
-2.39199332596573
30
0
41
1
10
55.8037499636686
20
-2.42265531904431
30
0
41
1
10
55.7312662584921
20
-2.49324182118562
30
0
41
1
10
55.694861501147
20
-2.53322519632701
30
0
41
1
10
55.6217053988675
20
-2.62317040780286
30
0
41
1
10
55.5845617176748
20
-2.67373792525242
30
0
41
1
10
55.5122665247878
20
-2.78330438390398
30
0
41
1
10
55.477083428789
20
-2.84218031267497
30
0
41
1
10
55.4260552651461
20
-2.93790510877349
30
0
41
1
10
55.4093213158741
20
-2.9711348917316
30
0
41
1
10
55.3774106530723
20
-3.03860108731487
30
0
41
1
10
55.362121672937
20
-3.07303594272321
30
0
41
1
10
55.3330151910271
20
-3.14345531841087
30
0
41
1
10
55.3190937645362
20
-3.17973859609307
30
0
41
1
10
55.2934998610403
20
-3.25256472776312
30
0
41
1
10
55.281879125528
20
-3.28890397426045
30
0
41
1
10
55.261131576616
20
-3.36142594868906
30
0
41
1
10
55.2519323270023
20
-3.39796082636963
30
0
41
1
10
55.2367032366809
20
-3.46903760139975
30
0
41
1
10
55.2306899701623
20
-3.50336314796104
30
0
41
1
10
55.2218230758859
20
-3.56962106653754
30
0
41
1
10
55.2189632997181
20
-3.60183299957078
30
0
41
1
10
55.2165783916654
20
-3.66233361169952
30
0
41
1
10
55.2170246017498
20
-3.69045114354105
30
0
41
1
10
55.2209418071935
20
-3.74274935157402
30
0
41
1
10
55.2244611562741
20
-3.76708597952057
30
0
41
1
10
55.2341769391426
20
-3.8108647953008
30
0
41
1
10
55.2403503056741
20
-3.83039389722916
30
0
41
1
10
55.255062854204
20
-3.86520721012374
30
0
41
1
10
55.2636715806382
20
-3.88056207468924
30
0
41
1
10
55.2827040281494
20
-3.90672871639836
30
0
41
1
10
55.293125805596
20
-3.91760565682671
30
0
41
1
10
55.3268042937668
20
-3.94435682697477
30
0
41
1
10
55.3527248006187
20
-3.9544276271059
30
0
41
1
10
55.408944663946
20
-3.96046297581486
30
0
41
1
10
55.4389754337056
20
-3.95655480467062
30
0
41
1
10
55.502403930625
20
-3.93659843521203
30
0
41
1
10
55.53611376426
20
-3.92030584245708
30
0
41
1
10
55.5705808642242
20
-3.89853324889054
30
0
0
SPLINE
5
C9
100
AcDbEntity
8
1
62
256
6
ByLayer
370
18
48
1
60
0
100
AcDbSpline
70
4
71
3
72
26
73
22
40
0
40
0
40
0
40
0
40
0.124999999999996
40
0.124999999999996
40
0.187499999999996
40
0.187499999999996
40
0.249999999999996
40
0.249999999999996
40
0.374999999999996
40
0.374999999999996
40
0.499999999999997
40
0.499999999999997
40
0.624999999999997
40
0.624999999999997
40
0.687499999999998
40
0.687499999999998
40
0.749999999999998
40
0.749999999999998
40
0.874999999999999
40
0.874999999999999
40
1
40
1
40
1
40
1
41
1
10
55.2898505540738
20
4.99577224119926
30
0
41
1
10
55.3392794540168
20
4.87273272668011
30
0
41
1
10
55.3887988851239
20
4.74831062647459
30
0
41
1
10
55.4631767400915
20
4.5601700097198
30
0
41
1
10
55.4879820814796
20
4.49726216502324
30
0
41
1
10
55.5376503324523
20
4.37056729810851
30
0
41
1
10
55.5625101871028
20
4.30682693063378
30
0
41
1
10
55.6371567440562
20
4.11458271571004
30
0
41
1
10
55.6870113964171
20
3.98504113966834
30
0
41
1
10
55.786824109368
20
3.72437874425231
30
0
41
1
10
55.8368149983588
20
3.59275657180677
30
0
41
1
10
55.936974031879
20
3.32680519257679
30
0
41
1
10
55.9872769341067
20
3.19206664148169
30
0
41
1
10
56.0622726298731
20
2.98998549689068
30
0
41
1
10
56.0872595032654
20
2.92262848772015
30
0
41
1
10
56.1368800831462
20
2.78801633559672
30
0
41
1
10
56.1615591871824
20
2.72074809833498
30
0
41
1
10
56.2352382759779
20
2.51904671122048
30
0
41
1
10
56.2838991200873
20
2.38471138190204
30
0
41
1
10
56.3807595375102
20
2.11617377058838
30
0
41
1
10
56.4288052495659
20
1.98201586779243
30
0
41
1
10
56.476428828876
20
1.84797972347852
30
0
0
SPLINE
5
CA
100
AcDbEntity
8
1
62
256
6
ByLayer
370
18
48
1
60
0
100
AcDbSpline
70
4
71
3
72
10
73
6
40
0
40
0
40
0
40
0
40
0.471638194476791
40
0.471638194476791
40
1
40
1
40
1
40
1
41
1
10
5.61123208051956
20
-4.18584626169348
30
0
41
1
10
5.39148886196512
20
-4.25659912871143
30
0
41
1
10
5.17299934376817
20
-4.32452387130959
30
0
41
1
10
4.71768113021628
20
-4.46007104871731
30
0
41
1
10
4.48128893028866
20
-4.52686551606422
30
0
41
1
10
4.25067460182618
20
-4.58762869995073
30
0
0
SPLINE
5
CB
100
AcDbEntity
8
1
62
256
6
ByLayer
370
18
48
1
60
0
100
AcDbSpline
70
4
71
3
72
24
73
20
40
0
40
0
40
0
40
0
40
0.0925435976874944
40
0.0925435976874944
40
0.185087195374989
40
0.185087195374989
40
0.231358994218735
40
0.231358994218735
40
0.277630793062481
40
0.277630793062481
40
0.370174390749972
40
0.370174390749972
40
0.555261586124956
40
0.555261586124956
40
0.740348781499941
40
0.740348781499941
40
0.925435976874925
40
0.925435976874925
40
1
40
1
40
1
40
1
41
1
10
22.1837438905528
20
5.00409837595049
30
0
41
1
10
21.7093098853002
20
5.05336855055896
30
0
41
1
10
21.2303501803026
20
5.08434999960403
30
0
41
1
10
20.2639084765262
20
5.11827673497015
30
0
41
1
10
19.7764077404101
20
5.12114819519707
30
0
41
1
10
19.0386324162967
20
5.10906155005745
30
0
41
1
10
18.7913763019394
20
5.10227889992183
30
0
41
1
10
18.2963132627577
20
5.0840091962414
30
0
41
1
10
18.0484155413814
20
5.07252601868802
30
0
41
1
10
17.3035132435715
20
5.03216007022237
30
0
41
1
10
16.8052976476883
20
4.99737225700409
30
0
41
1
10
15.3049665540728
20
4.8778306456893
30
0
41
1
10
14.2971141073515
20
4.77806993035634
30
0
41
1
10
12.2626236503001
20
4.57921753271131
30
0
41
1
10
11.2359957571294
20
4.48025775470816
30
0
41
1
10
9.16195916028366
20
4.31635089808111
30
0
41
1
10
8.11460384357517
20
4.25148010242401
30
0
41
1
10
6.62977476689815
20
4.19981970658586
30
0
41
1
10
6.20316178490378
20
4.18959778595752
30
0
41
1
10
5.77644292153471
20
4.18419701257417
30
0
0
SPLINE
5
CC
100
AcDbEntity
8
1
62
256
6
ByLayer
370
18
48
1
60
0
100
AcDbSpline
70
4
71
3
72
16
73
12
40
0
40
0
40
0
40
0
40
0.0612598941343921
40
0.0612598941343921
40
0.217716578445325
40
0.217716578445325
40
0.374173262756258
40
0.374173262756258
40
0.68708663137813
40
0.68708663137813
40
1
40
1
40
1
40
1
41
1
10
2.22026050690044
20
5.09601798116768
30
0
41
1
10
2.24427039766849
20
5.09656773399573
30
0
41
1
10
2.26971956147361
20
5.09643350848532
30
0
41
1
10
2.36443142897645
20
5.0937854119463
30
0
41
1
10
2.44059909252766
20
5.08790276692159
30
0
41
1
10
2.60530783337936
20
5.06970414700712
30
0
41
1
10
2.69319654268079
20
5.05744276973314
30
0
41
1
10
2.96642020187679
20
5.01356246608557
30
0
41
1
10
3.16242048534698
20
4.97481128971973
30
0
41
1
10
3.5718825192337
20
4.88383080358264
30
0
41
1
10
3.78633886200734
20
4.83127446824406
30
0
41
1
10
4.00396544927421
20
4.77412319480891
30
0
0
SPLINE
5
CD
100
AcDbEntity
8
1
62
256
6
ByLayer
370
18
48
1
60
0
100
AcDbSpline
70
4
71
3
72
10
73
6
40
0
40
0
40
0
40
0
40
0.900590808914212
40
0.900590808914212
40
1
40
1
40
1
40
1
41
1
10
4.01051795316508
20
0.237162325064474
30
0
41
1
10
4.02004055141586
20
0.205082122986255
30
0
41
1
10
4.03594595730129
20
0.174676716342219
30
0
41
1
10
4.06040459943355
20
0.145060673612306
30
0
41
1
10
4.0629104915929
20
0.142162851548079
30
0
41
1
10
4.06548969689945
20
0.139315139275311
30
0
0
SPLINE
5
CE
100
AcDbEntity
8
1
62
256
6
ByLayer
370
18
48
1
60
0
100
AcDbSpline
70
4
71
3
72
14
73
10
40
0
40
0
40
0
40
0
40
0.25
40
0.25
40
0.5
40
0.5
40
0.75
40
0.75
40
1
40
1
40
1
40
1
41
1
10
4.25067459887859
20
-4.58762870072738
30
0
41
1
10
4.2249685595452
20
-4.59440183058635
30
0
41
1
10
4.19734618866795
20
-4.60390449137427
30
0
41
1
10
4.14078666987152
20
-4.63003760291269
30
0
41
1
10
4.11207067521084
20
-4.64683086556454
30
0
41
1
10
4.06293899406259
20
-4.68445469563554
30
0
41
1
10
4.04372586002472
20
-4.70423781087243
30
0
41
1
10
4.01667843794917
20
-4.74101642226063
30
0
41
1
10
4.00836042528317
20
-4.75838587194232
30
0
41
1
10
4.00396544927438
20
-4.7741231948084
30
0
0
SPLINE
5
CF
100
AcDbEntity
8
1
62
256
6
ByLayer
370
13
48
1
60
0
100
AcDbSpline
70
4
71
3
72
12
73
8
40
0
40
0
40
0
40
0
40
0.5
40
0.5
40
0.75
40
0.75
40
1
40
1
40
1
40
1
41
1
10
4.00390311956235
20
0.281798590088215
30
0
41
1
10
4.01056802198721
20
0.258335831827026
30
0
41
1
10
4.0257707944881
20
0.235924766690431
30
0
41
1
10
4.06042468032081
20
0.206826880545492
30
0
41
1
10
4.07424319828689
20
0.197685452662142
30
0
41
1
10
4.10527506764845
20
0.1817276509897
30
0
41
1
10
4.12244773517475
20
0.174852179858846
30
0
41
1
10
4.14152656224283
20
0.169223261754865
30
0
0
SPLINE
5
D0
100
AcDbEntity
8
1
62
256
6
ByLayer
370
18
48
1
60
0
100
AcDbSpline
70
4
71
3
72
8
73
4
40
0
40
0
40
0
40
0
40
1
40
1
40
1
40
1
41
1
10
55.187237619163
20
-4.95176015859704
30
0
41
1
10
55.2115410393397
20
-4.96012454390976
30
0
41
1
10
55.2472193544296
20
-4.93636294890308
30
0
41
1
10
55.2939822686806
20
-4.88129525241442
30
0
0
SPLINE
5
D1
100
AcDbEntity
8
1
62
256
6
ByLayer
370
18
48
1
60
0
100
AcDbSpline
70
4
71
3
72
14
73
10
40
0
40
0
40
0
40
0
40
0.423493370278496
40
0.423493370278496
40
0.860986539780081
40
0.860986539780081
40
0.970359832155477
40
0.970359832155477
40
1
40
1
40
1
40
1
41
1
10
4.30981238948783
20
0.0011909197623652
30
0
41
1
10
5.34667976111177
20
-0.496663099556997
30
0
41
1
10
6.37428194357651
20
-0.990614432594015
30
0
41
1
10
8.46230574325764
20
-1.95087294455374
30
0
41
1
10
9.5224441823988
20
-2.41618017404241
30
0
41
1
10
10.8585003892549
20
-2.94569723598508
30
0
41
1
10
11.1265954551798
20
-3.04916108746167
30
0
41
1
10
11.4671269364401
20
-3.17664487554964
30
0
41
1
10
11.539680643187
20
-3.20357970414113
30
0
41
1
10
11.6121835742758
20
-3.23026375968451
30
0
0
SPLINE
5
D2
100
AcDbEntity
8
1
62
256
6
ByLayer
370
13
48
1
60
0
100
AcDbSpline
70
4
71
3
72
18
73
14
40
0
40
0
40
0
40
0
40
0.0536543141681592
40
0.0536543141681592
40
0.200854089048286
40
0.200854089048286
40
0.495253638808538
40
0.495253638808538
40
0.642453413688665
40
0.642453413688665
40
0.789653188568791
40
0.789653188568791
40
1
40
1
40
1
40
1
41
1
10
11.6121835742758
20
-3.23026375968451
30
0
41
1
10
11.807219083645
20
-3.30204483510852
30
0
41
1
10
12.0018871653843
20
-3.37201124283683
30
0
41
1
10
12.7294635222936
20
-3.62686171110258
30
0
41
1
10
13.2605282566414
20
-3.79925826782212
30
0
41
1
10
14.8504359622583
20
-4.26901587590646
30
0
41
1
10
15.9056472232241
20
-4.5196312269168
30
0
41
1
10
17.4958146936622
20
-4.78641565575649
30
0
41
1
10
18.0270926792074
20
-4.85720690049703
30
0
41
1
10
19.0941279886247
20
-4.96059066546442
30
0
41
1
10
19.6314616558577
20
-4.99314230346641
30
0
41
1
10
20.9273113850445
20
-5.0231332401161
30
0
41
1
10
21.6848318811328
20
-5.00018641004357
30
0
41
1
10
22.4408418711118
20
-4.93811134988988
30
0
0
SPLINE
5
D3
100
AcDbEntity
8
1
62
256
6
ByLayer
370
18
48
1
60
0
100
AcDbSpline
70
4
71
3
72
8
73
4
40
0
40
0
40
0
40
0
40
1
40
1
40
1
40
1
41
1
10
56.4742607806375
20
-1.84802567254761
30
0
41
1
10
56.4749834652606
20
-1.84801035709532
30
0
41
1
10
56.4757061480068
20
-1.84799504073948
30
0
41
1
10
56.476428828876
20
-1.84797972348014
30
0
0
SPLINE
5
D4
100
AcDbEntity
8
1
62
256
6
ByLayer
370
18
48
1
60
0
100
AcDbSpline
70
4
71
3
72
12
73
8
40
0
40
0
40
0
40
0
40
0.234364838987931
40
0.234364838987931
40
0.761027250868505
40
0.761027250868505
40
1
40
1
40
1
40
1
41
1
10
53.5140136532535
20
-4.95159336772713
30
0
41
1
10
53.0393702917704
20
-4.95093221294371
30
0
41
1
10
52.5666839497511
20
-4.93477038385103
30
0
41
1
10
51.0356251845683
20
-4.83354303701896
30
0
41
1
10
49.9817748349039
20
-4.68736501621311
30
0
41
1
10
48.4456498594181
20
-4.37295398260565
30
0
41
1
10
47.9655717761779
20
-4.26049515092802
30
0
41
1
10
47.48396686464
20
-4.13442450131501
30
0
0
SPLINE
5
D5
100
AcDbEntity
8
1
62
256
6
ByLayer
370
13
48
1
60
0
100
AcDbSpline
70
4
71
3
72
28
73
24
40
0
40
0
40
0
40
0
40
0.0095939983424822
40
0.0095939983424822
40
0.0614531076661112
40
0.0614531076661112
40
0.11331221698974
40
0.11331221698974
40
0.320748654284256
40
0.320748654284256
40
0.528185091578772
40
0.528185091578772
40
0.580044200902399
40
0.580044200902399
40
0.631903310226027
40
0.631903310226027
40
0.735621528873285
40
0.735621528873285
40
0.839339747520543
40
0.839339747520543
40
0.943057966167801
40
0.943057966167801
40
1
40
1
40
1
40
1
41
1
10
47.483965897233
20
-4.13442424807499
30
0
41
1
10
47.4348763024247
20
-4.12157396804878
30
0
41
1
10
47.3857708445387
20
-4.10858226725409
30
0
41
1
10
47.0711244471824
20
-4.02446459567173
30
0
41
1
10
46.805135000341
20
-3.94933212484816
30
0
41
1
10
46.2719443475745
20
-3.791063315152
30
0
41
1
10
46.0042814705521
20
-3.7077758138239
30
0
41
1
10
44.6684142094571
20
-3.27411854543197
30
0
41
1
10
43.6101901147901
20
-2.87384920776773
30
0
41
1
10
41.4974785971351
20
-1.99900319075857
30
0
41
1
10
40.4426434213812
20
-1.52505149628462
30
0
41
1
10
39.1152569039552
20
-0.908180298090429
30
0
41
1
10
38.8493295401602
20
-0.783590565048712
30
0
41
1
10
38.3162334103286
20
-0.532714944678645
30
0
41
1
10
38.0488052387824
20
-0.406329883370432
30
0
41
1
10
37.2461023090263
20
-0.0260073901157796
30
0
41
1
10
36.7123790767621
20
0.228024323464155
30
0
41
1
10
35.6452905101553
20
0.731843736026065
30
0
41
1
10
35.1119107578433
20
0.981603724555214
30
0
41
1
10
34.0432731310625
20
1.47216713637297
30
0
41
1
10
33.5074224030433
20
1.71308950306761
30
0
41
1
10
32.6800694445821
20
2.07312013658159
30
0
41
1
10
32.3870770704504
20
2.19823151678625
30
0
41
1
10
32.0941424492979
20
2.32051735349452
30
0
0
SPLINE
5
D6
100
AcDbEntity
8
1
62
256
6
ByLayer
370
18
48
1
60
0
100
AcDbSpline
70
4
71
3
72
50
73
46
40
0
40
0
40
0
40
0
40
0.0312499999999986
40
0.0312499999999986
40
0.0624999999999972
40
0.0624999999999972
40
0.124999999999994
40
0.124999999999994
40
0.132812499999995
40
0.132812499999995
40
0.140624999999995
40
0.140624999999995
40
0.156249999999996
40
0.156249999999996
40
0.187499999999995
40
0.187499999999995
40
0.218749999999994
40
0.218749999999994
40
0.234374999999993
40
0.234374999999993
40
0.249999999999993
40
0.249999999999993
40
0.265624999999992
40
0.265624999999992
40
0.281249999999991
40
0.281249999999991
40
0.31249999999999
40
0.31249999999999
40
0.343749999999989
40
0.343749999999989
40
0.374999999999988
40
0.374999999999988
40
0.406249999999987
40
0.406249999999987
40
0.437499999999986
40
0.437499999999986
40
0.499999999999988
40
0.499999999999988
40
0.624999999999991
40
0.624999999999991
40
0.749999999999994
40
0.749999999999994
40
0.874999999999997
40
0.874999999999997
40
1
40
1
40
1
40
1
41
1
10
54.9599328631866
20
1.27360470829515
30
0
41
1
10
54.9837865336669
20
1.20436969942804
30
0
41
1
10
55.008806415731
20
1.13547840813706
30
0
41
1
10
55.0609120873565
20
0.998304710535649
30
0
41
1
10
55.0882626690866
20
0.930100346429327
30
0
41
1
10
55.1688327374889
20
0.725050559464762
30
0
41
1
10
55.2280870789263
20
0.589452963579049
30
0
41
1
10
55.3001198658335
20
0.440361625160307
30
0
41
1
10
55.3081917539192
20
0.423839882982264
30
0
41
1
10
55.3244526515641
20
0.390878385441965
30
0
41
1
10
55.3328475890556
20
0.374578508397121
30
0
41
1
10
55.3568654001611
20
0.324879964725852
30
0
41
1
10
55.3721381466703
20
0.291259469340616
30
0
41
1
10
55.4161929517529
20
0.18951708404731
30
0
41
1
10
55.4430462530986
20
0.120032553511066
30
0
41
1
10
55.4895672157832
20
-0.0200703544679754
30
0
41
1
10
55.5093091395156
20
-0.0908805649113731
30
0
41
1
10
55.5325348764661
20
-0.198473231978994
30
0
41
1
10
55.53920388741
20
-0.234568819266542
30
0
41
1
10
55.5501113735034
20
-0.307284124728483
30
0
41
1
10
55.5545411326073
20
-0.344063671923436
30
0
41
1
10
55.559602341572
20
-0.417558923527565
30
0
41
1
10
55.5597021784103
20
-0.453581574683852
30
0
41
1
10
55.5571459099181
20
-0.524804919289863
30
0
41
1
10
55.554278701577
20
-0.559942651423427
30
0
41
1
10
55.5408259516906
20
-0.663909003433929
30
0
41
1
10
55.5251557514533
20
-0.731460766664981
30
0
41
1
10
55.4829036637405
20
-0.856629959064946
30
0
41
1
10
55.4559585324348
20
-0.91556086105831
30
0
41
1
10
55.3915747056863
20
-1.0225914805462
30
0
41
1
10
55.3547753021377
20
-1.0701257622444
30
0
41
1
10
55.273962126184
20
-1.15582928288813
30
0
41
1
10
55.2296711294004
20
-1.19369353472666
30
0
41
1
10
55.1367453624208
20
-1.25994961242895
30
0
41
1
10
55.0876990651498
20
-1.28804750494427
30
0
41
1
10
54.9395356982778
20
-1.36899367490071
30
0
41
1
10
54.8387234985071
20
-1.41840376337763
30
0
41
1
10
54.5320214232734
20
-1.55236628085723
30
0
41
1
10
54.3220628433843
20
-1.62263878299046
30
0
41
1
10
53.8922853436102
20
-1.72899767193647
30
0
41
1
10
53.6715975094002
20
-1.76522632987354
30
0
41
1
10
53.2276271913394
20
-1.80720129472817
30
0
41
1
10
53.0040175853589
20
-1.81295558944012
30
0
41
1
10
52.5542591471832
20
-1.80065268438389
30
0
41
1
10
52.3281181397544
20
-1.7826688610576
30
0
41
1
10
52.1012164998303
20
-1.75755223626652
30
0
0
SPLINE
5
D7
100
AcDbEntity
8
1
62
256
6
ByLayer
370
18
48
1
60
0
100
AcDbSpline
70
4
71
3
72
22
73
18
40
0
40
0
40
0
40
0
40
0.0861928684365466
40
0.0861928684365466
40
0.231809012050784
40
0.231809012050784
40
0.377425155665021
40
0.377425155665021
40
0.523041299279257
40
0.523041299279257
40
0.814273586507731
40
0.814273586507731
40
0.887081658314849
40
0.887081658314849
40
0.959889730121968
40
0.959889730121968
40
1
40
1
40
1
40
1
41
1
10
22.183682201291
20
5.00412894486561
30
0
41
1
10
21.9051189914472
20
4.92671219307928
30
0
41
1
10
21.6261967614954
20
4.84557992747585
30
0
41
1
10
20.8746354164889
20
4.61745621796732
30
0
41
1
10
20.401015186611
20
4.46361292995647
30
0
41
1
10
19.4484509981272
20
4.13717816844388
30
0
41
1
10
18.9682156887034
20
3.96407713063343
30
0
41
1
10
18.012667740075
20
3.60871881028808
30
0
41
1
10
17.5360714104668
20
3.42608831704385
30
0
41
1
10
16.1058669401806
20
2.87374042927473
30
0
41
1
10
15.1518680435659
20
2.49946005251618
30
0
41
1
10
13.9442408037925
20
2.06289396318579
30
0
41
1
10
13.7019558636542
20
1.977156341193
30
0
41
1
10
13.2154953516259
20
1.80984231459948
30
0
41
1
10
12.9716642914099
20
1.72839339923502
30
0
41
1
10
12.593906682618
20
1.60673854064086
30
0
41
1
10
12.4597077194983
20
1.56440564122087
30
0
41
1
10
12.3254644193054
20
1.52302402476957
30
0
0
SPLINE
5
D8
100
AcDbEntity
8
1
62
256
6
ByLayer
370
18
48
1
60
0
100
AcDbSpline
70
4
71
3
72
30
73
26
40
0
40
0
40
0
40
0
40
0.307748047965875
40
0.307748047965875
40
0.443464956887862
40
0.443464956887862
40
0.511323411348857
40
0.511323411348857
40
0.519805718156482
40
0.519805718156482
40
0.524046871560294
40
0.524046871560294
40
0.5261674482622
40
0.5261674482622
40
0.528288024964106
40
0.528288024964106
40
0.530408601666011
40
0.530408601666011
40
0.532529178367917
40
0.536770331771729
40
0.545252638579356
40
0.579181865809859
40
0.850615683653882
40
0.850615683653882
40
1
40
1
40
1
40
1
41
1
10
15.0380484534053
20
0.31947055687462
30
0
41
1
10
15.1645093411295
20
0.285388132713962
30
0
41
1
10
15.290658190084
20
0.251710328670015
30
0
41
1
10
15.4714785726936
20
0.203813327603569
30
0
41
1
10
15.526706048617
20
0.189239176319319
30
0
41
1
10
15.6085871719349
20
0.167588093453418
30
0
41
1
10
15.6359970772681
20
0.160374294514838
30
0
41
1
10
15.6651882482229
20
0.152474260914232
30
0
41
1
10
15.6684028691064
20
0.151599910988608
30
0
41
1
10
15.6730678616993
20
0.150308140711701
30
0
41
1
10
15.674598911206
20
0.149880641050913
30
0
41
1
10
15.6767489117908
20
0.149262282124084
30
0
41
1
10
15.6774466540242
20
0.149058707055076
30
0
41
1
10
15.6786803776409
20
0.148679161180951
30
0
41
1
10
15.6794693369175
20
0.148439272472672
30
0
41
1
10
15.6788366146612
20
0.148457323432382
30
0
41
1
10
15.6776366682835
20
0.14871159830696
30
0
41
1
10
15.675949948559
20
0.149026390910592
30
0
41
1
10
15.6734198551078
20
0.1494989897474
30
0
41
1
10
15.6675162105049
20
0.150604588596366
30
0
41
1
10
15.6489612686483
20
0.15409735785741
30
0
41
1
10
15.52412633984
20
0.177997215480246
30
0
41
1
10
15.4025445819757
20
0.204079079036518
30
0
41
1
10
15.2349449322682
20
0.243356129727942
30
0
41
1
10
15.1754463869777
20
0.257948390839687
30
0
41
1
10
15.1159284165981
20
0.273179092150201
30
0
0
SPLINE
5
D9
100
AcDbEntity
8
1
62
256
6
ByLayer
370
18
48
1
60
0
100
AcDbSpline
70
4
71
3
72
16
73
12
40
0
40
0
40
0
40
0
40
0.125
40
0.125
40
0.25
40
0.25
40
0.5
40
0.5
40
0.75
40
0.75
40
1
40
1
40
1
40
1
41
1
10
56.4742607806375
20
1.84802567254761
30
0
41
1
10
56.4808301893342
20
1.82951988570054
30
0
41
1
10
56.4848544703957
20
1.81069028719733
30
0
41
1
10
56.4865940818631
20
1.77221337361792
30
0
41
1
10
56.4841273873156
20
1.75289679383783
30
0
41
1
10
56.4674981047984
20
1.69830501084499
30
0
41
1
10
56.4445477080943
20
1.66664647516032
30
0
41
1
10
56.3909546272646
20
1.61387552003549
30
0
41
1
10
56.3601073824463
20
1.59197801266305
30
0
41
1
10
56.2952282173549
20
1.55317368906734
30
0
41
1
10
56.2615625321392
20
1.53658509039272
30
0
41
1
10
56.2271979524497
20
1.52157065625045
30
0
0
SPLINE
5
DA
100
AcDbEntity
8
1
62
256
6
ByLayer
370
18
48
1
60
0
100
AcDbSpline
70
4
71
3
72
8
73
4
40
0
40
0
40
0
40
0
40
1
40
1
40
1
40
1
41
1
10
56.4742607806375
20
1.84802567254761
30
0
41
1
10
56.4749834652606
20
1.84801035709532
30
0
41
1
10
56.4757061480068
20
1.84799504073948
30
0
41
1
10
56.476428828876
20
1.84797972348014
30
0
0
SPLINE
5
DB
100
AcDbEntity
8
1
62
256
6
ByLayer
370
18
48
1
60
0
100
AcDbSpline
70
4
71
3
72
52
73
48
40
0
40
0
40
0
40
0
40
0.0461339646865731
40
0.0461339646865731
40
0.0922679293731462
40
0.0922679293731462
40
0.138401894059719
40
0.138401894059719
40
0.184535858746292
40
0.184535858746292
40
0.276803788119439
40
0.276803788119439
40
0.369071717492585
40
0.369071717492585
40
0.415205682179158
40
0.415205682179158
40
0.461339646865732
40
0.461339646865732
40
0.507473611552305
40
0.507473611552305
40
0.553607576238879
40
0.553607576238879
40
0.599741540925453
40
0.599741540925453
40
0.622808523268739
40
0.622808523268739
40
0.645875505612026
40
0.645875505612026
40
0.692009470298601
40
0.692009470298601
40
0.715076452641887
40
0.715076452641887
40
0.738143434985174
40
0.738143434985174
40
0.830411364358319
40
0.830411364358319
40
0.853478346701605
40
0.853478346701605
40
0.876545329044891
40
0.876545329044891
40
0.922679293731463
40
0.922679293731463
40
0.945746276074749
40
0.945746276074749
40
0.968813258418035
40
0.968813258418035
40
1
40
1
40
1
40
1
41
1
10
55.235365536985
20
-5.06955253430368
30
0
41
1
10
54.7028076416211
20
-5.11828791893748
30
0
41
1
10
54.170616409874
20
-5.14685581191989
30
0
41
1
10
53.1047198866157
20
-5.1633526502269
30
0
41
1
10
52.5723145162864
20
-5.15122017378721
30
0
41
1
10
51.5093595278084
20
-5.08683449926011
30
0
41
1
10
50.9782719066631
20
-5.03460143556188
30
0
41
1
10
49.9145002140031
20
-4.89093820370985
30
0
41
1
10
49.3808497330967
20
-4.79930593705549
30
0
41
1
10
47.7844497979812
20
-4.46959709906841
30
0
41
1
10
46.7238578514369
20
-4.17698303129868
30
0
41
1
10
44.5908416690508
20
-3.46700692511459
30
0
41
1
10
43.5297963053164
20
-3.05399973193522
30
0
41
1
10
41.933089158017
20
-2.3706488952719
30
0
41
1
10
41.3992477742263
20
-2.13204295364679
30
0
41
1
10
40.3348881230741
20
-1.64167649790349
30
0
41
1
10
39.8035285919039
20
-1.38953841634341
30
0
41
1
10
38.74004416243
20
-0.876059486015066
30
0
41
1
10
38.2073873254192
20
-0.614571183195693
30
0
41
1
10
37.1408701372417
20
-0.0884659135604977
30
0
41
1
10
36.6089932720353
20
0.175227272175761
30
0
41
1
10
35.5455138410331
20
0.698843840828033
30
0
41
1
10
35.0139063746568
20
0.958757784189686
30
0
41
1
10
34.2148985841381
20
1.34216122523137
30
0
41
1
10
33.9480556083398
20
1.46901343002293
30
0
41
1
10
33.4148767053458
20
1.71921046984846
30
0
41
1
10
33.1486056820457
20
1.84254665295475
30
0
41
1
10
32.3503246272147
20
2.20649602825497
30
0
41
1
10
31.818784699377
20
2.44092990832974
30
0
41
1
10
31.0206471696738
20
2.77705510045973
30
0
41
1
10
30.7544800284131
20
2.88653885435309
30
0
41
1
10
30.2216052470349
20
3.09985459910584
30
0
41
1
10
29.954644525981
20
3.20374898125209
30
0
41
1
10
28.6218643832298
20
3.70599704397395
30
0
41
1
10
27.5603274393074
20
4.05303313840289
30
0
41
1
10
26.2276266823133
20
4.40292226502521
30
0
41
1
10
25.960589332591
20
4.46870343032745
30
0
41
1
10
25.4274633740716
20
4.59102587404766
30
0
41
1
10
25.1611754986808
20
4.64762512357819
30
0
41
1
10
24.362685069081
20
4.80343004711219
30
0
41
1
10
23.8310411555595
20
4.88877182090306
30
0
41
1
10
23.0325317401936
20
4.98754788028907
30
0
41
1
10
22.7661797214284
20
5.01560173326806
30
0
41
1
10
22.2328106545692
20
5.06179624287918
30
0
41
1
10
21.9657348484692
20
5.07992919854328
30
0
41
1
10
21.3387998500666
20
5.11066931148673
30
0
41
1
10
20.9789390754337
20
5.11912456449016
30
0
41
1
10
20.6191898535722
20
5.11838483989985
30
0
0
SPLINE
5
DC
100
AcDbEntity
8
1
62
256
6
ByLayer
370
18
48
1
60
0
100
AcDbSpline
70
4
71
3
72
38
73
34
40
0
40
0
40
0
40
0
40
0.0530668715841216
40
0.0530668715841216
40
0.131977965618778
40
0.131977965618778
40
0.210889059653435
40
0.210889059653435
40
0.289800153688092
40
0.289800153688092
40
0.329255700705421
40
0.329255700705421
40
0.36871124772275
40
0.36871124772275
40
0.447622341757406
40
0.447622341757406
40
0.526533435792063
40
0.526533435792063
40
0.60544452982672
40
0.60544452982672
40
0.684355623861377
40
0.684355623861377
40
0.763266717896034
40
0.763266717896034
40
0.802722264913363
40
0.802722264913363
40
0.842177811930691
40
0.842177811930691
40
0.921088905965345
40
0.921088905965345
40
0.960544452982673
40
0.960544452982673
40
1
40
1
40
1
40
1
41
1
10
42.1803356310355
20
2.74984023449937
30
0
41
1
10
42.4108768265457
20
2.84662823442883
30
0
41
1
10
42.641307490405
20
2.9416045987042
30
0
41
1
10
43.2153906389985
20
3.17108640411445
30
0
41
1
10
43.5592007009984
20
3.30294195321619
30
0
41
1
10
44.2472866800157
20
3.5569429891367
30
0
41
1
10
44.5912156983418
20
3.6795577595328
30
0
41
1
10
45.282210761128
20
3.91081097917657
30
0
41
1
10
45.6289337957404
20
4.02003037011067
30
0
41
1
10
46.1502430274345
20
4.17495459868181
30
0
41
1
10
46.3241050233628
20
4.22516872159852
30
0
41
1
10
46.6708242802427
20
4.32170213500856
30
0
41
1
10
46.8440002972685
20
4.36796103513655
30
0
41
1
10
47.3630696072211
20
4.50077011463964
30
0
41
1
10
47.7083862905794
20
4.5815270094688
30
0
41
1
10
48.3969165755111
20
4.72828233666434
30
0
41
1
10
48.7399460873388
20
4.7943134029955
30
0
41
1
10
49.4267750688712
20
4.90931843598804
30
0
41
1
10
49.7701250087891
20
4.95874394586369
30
0
41
1
10
50.4558232352107
20
5.041878231114
30
0
41
1
10
50.7982013098152
20
5.07544765637471
30
0
41
1
10
51.4849008171101
20
5.1255073247292
30
0
41
1
10
51.8287723562955
20
5.14225165094976
30
0
41
1
10
52.3448717948537
20
5.15482599258919
30
0
41
1
10
52.5168556604962
20
5.15691399100453
30
0
41
1
10
52.8614795236046
20
5.15679526040378
30
0
41
1
10
53.0341479755387
20
5.15460410478204
30
0
41
1
10
53.5530366486238
20
5.14167356994528
30
0
41
1
10
53.900417235666
20
5.12459565452895
30
0
41
1
10
54.4217071750441
20
5.08581554740616
30
0
41
1
10
54.5952002805183
20
5.0706865776983
30
0
41
1
10
54.9424139950435
20
5.03630841183642
30
0
41
1
10
55.116123503516
20
5.01707007567174
30
0
41
1
10
55.2898505540573
20
4.99577224121069
30
0
0
SPLINE
5
DD
100
AcDbEntity
8
1
62
256
6
ByLayer
370
18
48
1
60
0
100
AcDbSpline
70
4
71
3
72
14
73
10
40
0
40
0
40
0
40
0
40
0.25
40
0.25
40
0.5
40
0.5
40
0.75
40
0.75
40
1
40
1
40
1
40
1
41
1
10
55.2939822686807
20
-4.88129525241442
30
0
41
1
10
55.2959637439847
20
-4.8789618802885
30
0
41
1
10
55.2972632702047
20
-4.87853636487702
30
0
41
1
10
55.298096233477
20
-4.8825599341327
30
0
41
1
10
55.2975684551816
20
-4.88708007334225
30
0
41
1
10
55.2942830091148
20
-4.90142367230169
30
0
41
1
10
55.2914667418641
20
-4.91141008139266
30
0
41
1
10
55.2841340098971
20
-4.93453425456292
30
0
41
1
10
55.2796377172292
20
-4.94763428223803
30
0
41
1
10
55.2748911883291
20
-4.96071626999907
30
0
0
SPLINE
5
DE
100
AcDbEntity
8
1
62
256
6
ByLayer
370
18
48
1
60
0
100
AcDbSpline
70
4
71
3
72
18
73
14
40
0
40
0
40
0
40
0
40
0.249999999999997
40
0.249999999999997
40
0.374999999999997
40
0.374999999999997
40
0.499999999999997
40
0.499999999999997
40
0.749999999999997
40
0.749999999999997
40
0.874999999999999
40
0.874999999999999
40
1
40
1
40
1
40
1
41
1
10
55.1872376191638
20
-4.95176015859707
30
0
41
1
10
55.0818998402931
20
-4.94478669945599
30
0
41
1
10
54.9837002714821
20
-4.91670691498729
30
0
41
1
10
54.8480240362054
20
-4.84021989597781
30
0
41
1
10
54.8045889693108
20
-4.80876890786351
30
0
41
1
10
54.7234041476912
20
-4.73503815576066
30
0
41
1
10
54.6854791097395
20
-4.69271786720219
30
0
41
1
10
54.5797328651993
20
-4.54933755738557
30
0
41
1
10
54.5198756881208
20
-4.43199069267007
30
0
41
1
10
54.4472260254257
20
-4.2209261977541
30
0
41
1
10
54.4258064212916
20
-4.1442960163416
30
0
41
1
10
54.3896165197974
20
-3.98090513849741
30
0
41
1
10
54.3747988336342
20
-3.89417554089323
30
0
41
1
10
54.3632908374159
20
-3.80236197647943
30
0
0
SPLINE
5
DF
100
AcDbEntity
8
1
62
256
6
ByLayer
370
18
48
1
60
0
100
AcDbSpline
70
4
71
3
72
26
73
22
40
0
40
0
40
0
40
0
40
0.124999999999994
40
0.124999999999994
40
0.187499999999993
40
0.187499999999993
40
0.249999999999992
40
0.249999999999992
40
0.374999999999993
40
0.374999999999993
40
0.499999999999994
40
0.499999999999994
40
0.624999999999995
40
0.624999999999995
40
0.687499999999996
40
0.687499999999996
40
0.749999999999997
40
0.749999999999997
40
0.874999999999998
40
0.874999999999998
40
1
40
1
40
1
40
1
41
1
10
55.2898505540738
20
-4.99577224119929
30
0
41
1
10
55.3392794540168
20
-4.87273272668017
30
0
41
1
10
55.3887988851239
20
-4.74831062647468
30
0
41
1
10
55.4631767400915
20
-4.56017000971986
30
0
41
1
10
55.4879820814796
20
-4.49726216502333
30
0
41
1
10
55.5376503324523
20
-4.37056729810857
30
0
41
1
10
55.5625101871028
20
-4.30682693063383
30
0
41
1
10
55.6371567440562
20
-4.1145827157101
30
0
41
1
10
55.6870113964171
20
-3.98504113966837
30
0
41
1
10
55.786824109368
20
-3.72437874425233
30
0
41
1
10
55.836814998359
20
-3.59275657180677
30
0
41
1
10
55.936974031879
20
-3.32680519257673
30
0
41
1
10
55.9872769341068
20
-3.19206664148157
30
0
41
1
10
56.0622726298731
20
-2.98998549689063
30
0
41
1
10
56.0872595032654
20
-2.92262848772012
30
0
41
1
10
56.1368800831462
20
-2.78801633559672
30
0
41
1
10
56.1615591871824
20
-2.72074809833504
30
0
41
1
10
56.2352382759779
20
-2.51904671122054
30
0
41
1
10
56.2838991200872
20
-2.38471138190209
30
0
41
1
10
56.3807595375101
20
-2.11617377058843
30
0
41
1
10
56.4288052495659
20
-1.98201586779246
30
0
41
1
10
56.476428828876
20
-1.84797972347852
30
0
0
SPLINE
5
E0
100
AcDbEntity
8
1
62
256
6
ByLayer
370
18
48
1
60
0
100
AcDbSpline
70
4
71
3
72
74
73
70
40
0
40
0
40
0
40
0
40
0.0339512446183211
40
0.0339512446183211
40
0.0679024892366421
40
0.0679024892366421
40
0.101853733854963
40
0.101853733854963
40
0.135804978473284
40
0.135804978473284
40
0.169756223091605
40
0.169756223091605
40
0.203707467709926
40
0.203707467709926
40
0.237658712328248
40
0.237658712328248
40
0.254634334637408
40
0.254634334637408
40
0.271609956946568
40
0.271609956946568
40
0.305561201564889
40
0.305561201564889
40
0.322536823874048
40
0.322536823874048
40
0.339512446183209
40
0.339512446183209
40
0.373463690801529
40
0.373463690801529
40
0.407414935419849
40
0.407414935419849
40
0.441366180038169
40
0.441366180038169
40
0.458341802347329
40
0.458341802347329
40
0.47531742465649
40
0.47531742465649
40
0.509268669274811
40
0.509268669274811
40
0.543219913893132
40
0.543219913893132
40
0.577171158511453
40
0.577171158511453
40
0.611122403129774
40
0.611122403129774
40
0.645073647748095
40
0.645073647748095
40
0.679024892366416
40
0.679024892366416
40
0.712976136984737
40
0.712976136984737
40
0.746927381603058
40
0.746927381603058
40
0.780878626221379
40
0.780878626221379
40
0.797854248530539
40
0.797854248530539
40
0.814829870839699
40
0.814829870839699
40
0.848781115458019
40
0.848781115458019
40
0.882732360076339
40
0.882732360076339
40
0.916683604694659
40
0.916683604694659
40
0.950634849312979
40
0.950634849312979
40
0.984586093931299
40
0.984586093931299
40
1
40
1
40
1
40
1
41
1
10
22.1836242531266
20
5.00411284017903
30
0
41
1
10
22.5314037674887
20
4.96800003083652
30
0
41
1
10
22.8786156255809
20
4.92389024622543
30
0
41
1
10
23.5711622801508
20
4.81993502065805
30
0
41
1
10
23.916400083022
20
4.76000025941678
30
0
41
1
10
24.6046755405088
20
4.62397784475746
30
0
41
1
10
24.9488589634771
20
4.54888321929752
30
0
41
1
10
25.6365907075007
20
4.38426534134911
30
0
41
1
10
25.9798648216877
20
4.29441632554833
30
0
41
1
10
26.6660296084925
20
4.10026655017441
30
0
41
1
10
27.0097270159155
20
3.99697101342849
30
0
41
1
10
27.6977177603329
20
3.77732931412547
30
0
41
1
10
28.0417658724751
20
3.66060579402364
30
0
41
1
10
28.7308454019712
20
3.4142204339324
30
0
41
1
10
29.0767374516744
20
3.28594059504115
30
0
41
1
10
29.5968852774359
20
3.08475983558151
30
0
41
1
10
29.7704927817575
20
3.01624204698538
30
0
41
1
10
30.1180466556085
20
2.87601118813561
30
0
41
1
10
30.2920122211417
20
2.80416435962826
30
0
41
1
10
30.812773019968
20
2.58643842756749
30
0
41
1
10
31.1593404765135
20
2.43823428200397
30
0
41
1
10
31.6776942564766
20
2.21032300900114
30
0
41
1
10
31.850235290855
20
2.13342771772426
30
0
41
1
10
32.1947426821922
20
1.97761337707533
30
0
41
1
10
32.3666187447615
20
1.89851533264681
30
0
41
1
10
32.8824258514031
20
1.66021582028878
30
0
41
1
10
33.2263664782436
20
1.4996995296637
30
0
41
1
10
33.9134475174871
20
1.17356784087227
30
0
41
1
10
34.2561704090262
20
1.0070884627753
30
0
41
1
10
34.9425413897352
20
0.672459452698348
30
0
41
1
10
35.2863638927932
20
0.50469185447804
30
0
41
1
10
35.8024621124518
20
0.251146788830624
30
0
41
1
10
35.9745607622641
20
0.16632506797049
30
0
41
1
10
36.3188070021292
20
-0.0041231514035189
30
0
41
1
10
36.4909265578069
20
-0.0898125826659282
30
0
41
1
10
37.0085511805782
20
-0.345561143692748
30
0
41
1
10
37.354926338304
20
-0.515124364327647
30
0
41
1
10
38.0493636803758
20
-0.854353579648688
30
0
41
1
10
38.3972978518565
20
-1.02503742045894
30
0
41
1
10
39.0904055730051
20
-1.35835705753126
30
0
41
1
10
39.4362743670861
20
-1.5217385909923
30
0
41
1
10
40.1259890106648
20
-1.84347844294621
30
0
41
1
10
40.4694077149628
20
-2.00262039882483
30
0
41
1
10
41.1566073580248
20
-2.31117892903697
30
0
41
1
10
41.500210180343
20
-2.46100935769033
30
0
41
1
10
42.1865269582753
20
-2.75347750272962
30
0
41
1
10
42.5288892353742
20
-2.89666695476055
30
0
41
1
10
43.2153906389982
20
-3.17108640411442
30
0
41
1
10
43.5592007009982
20
-3.30294195321613
30
0
41
1
10
44.2472866800155
20
-3.55694298913664
30
0
41
1
10
44.5912156983416
20
-3.67955775953271
30
0
41
1
10
45.2822107611278
20
-3.91081097917652
30
0
41
1
10
45.6289337957403
20
-4.02003037011065
30
0
41
1
10
46.1502430274342
20
-4.17495459868175
30
0
41
1
10
46.3241050233626
20
-4.22516872159846
30
0
41
1
10
46.6708242802424
20
-4.32170213500851
30
0
41
1
10
46.8440002972684
20
-4.36796103513646
30
0
41
1
10
47.363069607221
20
-4.50077011463961
30
0
41
1
10
47.7083862905792
20
-4.58152700946874
30
0
41
1
10
48.3969165755109
20
-4.72828233666428
30
0
41
1
10
48.7399460873387
20
-4.79431340299547
30
0
41
1
10
49.426775068871
20
-4.90931843598801
30
0
41
1
10
49.7701250087888
20
-4.95874394586363
30
0
41
1
10
50.4558232352105
20
-5.04187823111397
30
0
41
1
10
50.798201309815
20
-5.07544765637468
30
0
41
1
10
51.4849008171099
20
-5.1255073247292
30
0
41
1
10
51.8287723562953
20
-5.14225165094976
30
0
41
1
10
52.3290451610251
20
-5.15444038957185
30
0
41
1
10
52.4852110431324
20
-5.15651200672949
30
0
41
1
10
52.6416187838241
20
-5.15681652129436
30
0
0
SPLINE
5
E1
100
AcDbEntity
8
1
62
256
6
ByLayer
370
18
48
1
60
0
100
AcDbSpline
70
4
71
3
72
28
73
24
40
0
40
0
40
0
40
0
40
0.125
40
0.125
40
0.25
40
0.25
40
0.3125
40
0.3125
40
0.375
40
0.375
40
0.5
40
0.5
40
0.625
40
0.625
40
0.6875
40
0.6875
40
0.75
40
0.75
40
0.875
40
0.875
40
0.9375
40
0.9375
40
1
40
1
40
1
40
1
41
1
10
4.00390311956534
20
0.281798590092308
30
0
41
1
10
4.00390769406846
20
0.529081611535844
30
0
41
1
10
4.00391157144159
20
0.775641049030241
30
0
41
1
10
4.00391819387471
20
1.25631107745522
30
0
41
1
10
4.00392096480471
20
1.49172057848526
30
0
41
1
10
4.00392463314947
20
1.83747844399198
30
0
41
1
10
4.00392577423253
20
1.95150031133545
30
0
41
1
10
4.00392794386315
20
2.17702940877013
30
0
41
1
10
4.00392897485222
20
2.28882461955709
30
0
41
1
10
4.0039319291981
20
2.61516853851842
30
0
41
1
10
4.00393373275961
20
2.82230929004138
30
0
41
1
10
4.00393739226243
20
3.21626744241047
30
0
41
1
10
4.00393924704699
20
3.40308614943044
30
0
41
1
10
4.00394230423171
20
3.66749178735512
30
0
41
1
10
4.00394336292061
20
3.75242245068995
30
0
41
1
10
4.00394556853198
20
3.91449038293371
30
0
41
1
10
4.00394671823682
20
3.99187442149344
30
0
41
1
10
4.00395033924136
20
4.21324248955492
30
0
41
1
10
4.00395298507257
20
4.34649839580422
30
0
41
1
10
4.00395737517419
20
4.52454413542543
30
0
41
1
10
4.00395891353153
20
4.58040975482555
30
0
41
1
10
4.00396210745302
20
4.68377670191759
30
0
41
1
10
4.00396375554385
20
4.73108266507896
30
0
41
1
10
4.00396544927438
20
4.77412319480842
30
0
0
SPLINE
5
E2
100
AcDbEntity
8
1
62
256
6
ByLayer
370
18
48
1
60
0
100
AcDbSpline
70
4
71
3
72
14
73
10
40
0
40
0
40
0
40
0
40
0.500000000000004
40
0.500000000000004
40
0.750000000000006
40
0.750000000000006
40
0.875000000000003
40
0.875000000000003
40
1
40
1
40
1
40
1
41
1
10
54.3632908374159
20
-3.8023619764794
30
0
41
1
10
53.9483890174836
20
-3.5523790935496
30
0
41
1
10
53.5485144722622
20
-3.26390662871933
30
0
41
1
10
52.977008969787
20
-2.7586965455483
30
0
41
1
10
52.7912868787333
20
-2.57805075748928
30
0
41
1
10
52.5215728709204
20
-2.28436544416428
30
0
41
1
10
52.4336126138132
20
-2.18311997617721
30
0
41
1
10
52.2633626367622
20
-1.97502735488152
30
0
41
1
10
52.1808560432196
20
-1.86794950812887
30
0
41
1
10
52.1012164998303
20
-1.75755223626652
30
0
0
SPLINE
5
E3
100
AcDbEntity
8
1
62
256
6
ByLayer
370
18
48
1
60
0
100
AcDbSpline
70
4
71
3
72
10
73
6
40
0
40
0
40
0
40
0
40
0.819000653825412
40
0.819000653825412
40
1
40
1
40
1
40
1
41
1
10
55.2353655369849
20
5.06955253430368
30
0
41
1
10
54.7032306266189
20
5.11824921077684
30
0
41
1
10
54.1712816450106
20
5.14682538409508
30
0
41
1
10
53.5207052491506
20
5.15691889217979
30
0
41
1
10
53.403021533296
20
5.15775207252949
30
0
41
1
10
53.2853957053615
20
5.15759491938164
30
0
0
SPLINE
5
E4
100
AcDbEntity
8
1
62
256
6
ByLayer
370
18
48
1
60
0
100
AcDbSpline
70
4
71
3
72
28
73
24
40
0
40
0
40
0
40
0
40
0.0064991267147574
40
0.0064991267147574
40
0.0892908661551945
40
0.0892908661551945
40
0.172082605595631
40
0.172082605595631
40
0.254874345036069
40
0.254874345036069
40
0.337666084476505
40
0.337666084476505
40
0.420457823916943
40
0.420457823916943
40
0.50324956335738
40
0.50324956335738
40
0.586041302797817
40
0.586041302797817
40
0.668833042238254
40
0.668833042238254
40
0.834416521119127
40
0.834416521119127
40
1
40
1
40
1
40
1
41
1
10
23.4425262744742
20
-4.93635578923818
30
0
41
1
10
23.4007578998961
20
-4.94179855500909
30
0
41
1
10
23.3589850669108
20
-4.94712194935883
30
0
41
1
10
22.7850018902759
20
-5.01861295151187
30
0
41
1
10
22.2509994057931
20
-5.06544982102827
30
0
41
1
10
21.1858758001618
20
-5.1186422392131
30
0
41
1
10
20.6543093586799
20
-5.12512462459225
30
0
41
1
10
19.5905328335155
20
-5.09791573562595
30
0
41
1
10
19.0584380649061
20
-5.06421569676328
30
0
41
1
10
17.9912440956789
20
-4.95688614427439
30
0
41
1
10
17.4588310617392
20
-4.88359700201732
30
0
41
1
10
16.3949121630894
20
-4.69945417191931
30
0
41
1
10
15.8632954275936
20
-4.58856825542941
30
0
41
1
10
14.7981079214163
20
-4.33130515352599
30
0
41
1
10
14.2639143703461
20
-4.18468318538521
30
0
41
1
10
13.1987284044015
20
-3.86085655128591
30
0
41
1
10
12.6670085191488
20
-3.68334441844684
30
0
41
1
10
11.6028886078104
20
-3.30049703040919
30
0
41
1
10
11.0699204887003
20
-3.09520515887209
30
0
41
1
10
9.46880691584536
20
-2.4446825899204
30
0
41
1
10
8.40592373966581
20
-1.96713986772878
30
0
41
1
10
6.2703223072719
20
-0.962149489992868
30
0
41
1
10
5.20752917127285
20
-0.439095998087339
30
0
41
1
10
4.13989787828461
20
0.0845274309760384
30
0
0
SPLINE
5
E5
100
AcDbEntity
8
1
62
256
6
ByLayer
370
18
48
1
60
0
100
AcDbSpline
70
4
71
3
72
8
73
4
40
0
40
0
40
0
40
0
40
1
40
1
40
1
40
1
41
1
10
56.2271979524496
20
1.52157065625042
30
0
41
1
10
55.8441439637087
20
1.50292331010584
30
0
41
1
10
55.4595774294404
20
1.48988952942688
30
0
41
1
10
55.0748630091073
20
1.48003445350363
30
0
0
SPLINE
5
E6
100
AcDbEntity
8
1
62
256
6
ByLayer
370
13
48
1
60
0
100
AcDbSpline
70
4
71
3
72
26
73
22
40
0
40
0
40
0
40
0
40
0.125
40
0.125
40
0.25
40
0.25
40
0.375
40
0.375
40
0.4375
40
0.4375
40
0.5
40
0.5
40
0.625
40
0.625
40
0.75
40
0.75
40
0.875
40
0.875
40
0.9375
40
0.9375
40
1
40
1
40
1
40
1
41
1
10
4.25039131456342
20
0.137912783389396
30
0
41
1
10
4.25041315391394
20
0.381686978058326
30
0
41
1
10
4.25043104340602
20
0.622924213476693
30
0
41
1
10
4.25046127043603
20
1.10040832982079
30
0
41
1
10
4.25047363568007
20
1.33780111144574
30
0
41
1
10
4.2504945335661
20
1.79531866451296
30
0
41
1
10
4.25050316913291
20
2.01680245398663
30
0
41
1
10
4.25051514437172
20
2.33821231320107
30
0
41
1
10
4.25051897023849
20
2.44353900884167
30
0
41
1
10
4.25052655598961
20
2.65049859984654
30
0
41
1
10
4.25053033022786
20
2.75248569687633
30
0
41
1
10
4.25054176294012
20
3.04824076257643
30
0
41
1
10
4.25054958629272
20
3.23297446371947
30
0
41
1
10
4.25056724782806
20
3.57823639085649
30
0
41
1
10
4.2505770811976
20
3.73876617064158
30
0
41
1
10
4.25059993797149
20
4.03466671633933
30
0
41
1
10
4.25061280008325
20
4.16775003115043
30
0
41
1
10
4.25063445215804
20
4.34400286219497
30
0
41
1
10
4.25064206644819
20
4.39887456040501
30
0
41
1
10
4.25065787920852
20
4.49965471494389
30
0
41
1
10
4.25066609918446
20
4.54575240862471
30
0
41
1
10
4.25067459887836
20
4.58762869993114
30
0
0
SPLINE
5
E7
100
AcDbEntity
8
1
62
256
6
ByLayer
370
18
48
1
60
0
100
AcDbSpline
70
4
71
3
72
14
73
10
40
0
40
0
40
0
40
0
40
0.25
40
0.25
40
0.5
40
0.5
40
0.75
40
0.75
40
1
40
1
40
1
40
1
41
1
10
55.0748630091073
20
1.48003445350363
30
0
41
1
10
55.0509965017343
20
1.47942307469964
30
0
41
1
10
55.0271079353104
20
1.47470396386265
30
0
41
1
10
54.9854915508884
20
1.45307046613129
30
0
41
1
10
54.9679526782399
20
1.4354457351094
30
0
41
1
10
54.9474194259078
20
1.3921800385055
30
0
41
1
10
54.9442147353629
20
1.36779256819875
30
0
41
1
10
54.9466121586042
20
1.32009178708068
30
0
41
1
10
54.9520786370351
20
1.29640151089623
30
0
41
1
10
54.9599328631867
20
1.2736047082951
30
0
0
SPLINE
5
E8
100
AcDbEntity
8
1
62
256
6
ByLayer
370
18
48
1
60
0
100
AcDbSpline
70
4
71
3
72
16
73
12
40
0
40
0
40
0
40
0
40
0.0855301536821229
40
0.0855301536821229
40
0.263717970726039
40
0.263717970726039
40
0.620093604813871
40
0.620093604813871
40
0.976469238901704
40
0.976469238901704
40
1
40
1
40
1
40
1
41
1
10
36.9845458053882
20
-0.010696952987189
30
0
41
1
10
37.241065588905
20
-0.134875444238929
30
0
41
1
10
37.4977820762756
20
-0.259153019451077
30
0
41
1
10
38.290361910855
20
-0.641757573239005
30
0
41
1
10
38.8239257605439
20
-0.89791220249333
30
0
41
1
10
40.4173863249093
20
-1.64993183823108
30
0
41
1
10
41.4723830677922
20
-2.12984133049838
30
0
41
1
10
43.5857097703783
20
-3.01236000397549
30
0
41
1
10
44.6443313088024
20
-3.41443753908058
30
0
41
1
10
45.7844951510518
20
-3.78385579961142
30
0
41
1
10
45.8551440606413
20
-3.80648519066881
30
0
41
1
10
45.9257943667717
20
-3.82885018978848
30
0
0
SPLINE
5
E9
100
AcDbEntity
8
1
62
256
6
ByLayer
370
13
48
1
60
0
100
AcDbSpline
70
4
71
3
72
20
73
16
40
0
40
0
40
0
40
0
40
0.0627040832000042
40
0.0627040832000042
40
0.147912802909096
40
0.147912802909096
40
0.318330242327279
40
0.318330242327279
40
0.659165121163642
40
0.659165121163642
40
0.829582560581823
40
0.829582560581823
40
0.914791280290911
40
0.914791280290911
40
1
40
1
40
1
40
1
41
1
10
45.9257943667183
20
-3.82885018977154
30
0
41
1
10
46.1226454765242
20
-3.89116520493104
30
0
41
1
10
46.3195074281282
20
-3.95142766015786
30
0
41
1
10
46.7824983044726
20
-4.08809419722462
30
0
41
1
10
47.0485901066211
20
-4.1626785707416
30
0
41
1
10
47.8454187719558
20
-4.37357301739704
30
0
41
1
10
48.3746230846361
20
-4.49717506174443
30
0
41
1
10
49.9600211013607
20
-4.81423858708752
30
0
41
1
10
51.0140436502215
20
-4.95341158016842
30
0
41
1
10
52.6041293299672
20
-5.04531701255846
30
0
41
1
10
53.1357193591828
20
-5.05656061234103
30
0
41
1
10
53.9371266463854
20
-5.04326999404958
30
0
41
1
10
54.2049913394143
20
-5.03379494933375
30
0
41
1
10
54.7399836952126
20
-5.00478922005723
30
0
41
1
10
55.0074127530854
20
-4.98491966867346
30
0
41
1
10
55.2748911883033
20
-4.96071627000083
30
0
0
SPLINE
5
EA
100
AcDbEntity
8
1
62
256
6
ByLayer
370
18
48
1
60
0
100
AcDbSpline
70
4
71
3
72
8
73
4
40
0
40
0
40
0
40
0
40
1
40
1
40
1
40
1
41
1
10
55.2748911883255
20
-4.96071627000893
30
0
41
1
10
55.2617269714112
20
-4.99699838862227
30
0
41
1
10
55.2485517536732
20
-5.03327714319624
30
0
41
1
10
55.235365536985
20
-5.06955253430368
30
0
0
SPLINE
5
EB
100
AcDbEntity
8
1
62
256
6
ByLayer
370
18
48
1
60
0
100
AcDbSpline
70
4
71
3
72
46
73
42
40
0
40
0
40
0
40
0
40
0.0224784986249986
40
0.0224784986249986
40
0.0550625486708331
40
0.0550625486708331
40
0.0876465987166671
40
0.0876465987166671
40
0.152814698808336
40
0.152814698808336
40
0.217982798900004
40
0.217982798900004
40
0.283150898991673
40
0.283150898991673
40
0.315734949037506
40
0.315734949037506
40
0.34831899908334
40
0.34831899908334
40
0.413487099175007
40
0.413487099175007
40
0.446071149220841
40
0.446071149220841
40
0.478655199266674
40
0.478655199266674
40
0.543823299358339
40
0.543823299358339
40
0.608991399450005
40
0.608991399450005
40
0.67415949954167
40
0.67415949954167
40
0.739327599633335
40
0.739327599633335
40
0.804495699725001
40
0.804495699725001
40
0.869663799816666
40
0.869663799816666
40
0.9022478498625
40
0.9022478498625
40
0.934831899908333
40
0.934831899908333
40
1
40
1
40
1
40
1
41
1
10
32.055760695215
20
4.92345606227951
30
0
41
1
10
32.2058685890088
20
4.92303270182146
30
0
41
1
10
32.3559580271469
20
4.92109298221979
30
0
41
1
10
32.7236735820039
20
4.9126673492049
30
0
41
1
10
32.9413933483364
20
4.90448880418879
30
0
41
1
10
33.376958980733
20
4.88241431398768
30
0
41
1
10
33.5947746859607
20
4.8687064468979
30
0
41
1
10
34.2486057494484
20
4.81661684905632
30
0
41
1
10
34.6852859775349
20
4.76792065894597
30
0
41
1
10
35.5568915977074
20
4.64847685024748
30
0
41
1
10
35.9918927357
20
4.57433764773671
30
0
41
1
10
36.8619902849067
20
4.4031198798335
30
0
41
1
10
37.2975346668832
20
4.3064519486243
30
0
41
1
10
37.951260846611
20
4.1451294458482
30
0
41
1
10
38.169311270737
20
4.08903772568684
30
0
41
1
10
38.6054040440084
20
3.97098098986447
30
0
41
1
10
38.8232059275883
20
3.90868402277294
30
0
41
1
10
39.4764824811883
20
3.71433361821528
30
0
41
1
10
39.9114658477617
20
3.57472898976613
30
0
41
1
10
40.5634497207301
20
3.35174864689017
30
0
41
1
10
40.780936175311
20
3.27551855188881
30
0
41
1
10
41.2160439413521
20
3.11915807573803
30
0
41
1
10
41.4336496131761
20
3.03914758784163
30
0
41
1
10
42.0868829645857
20
2.79170119295247
30
0
41
1
10
42.5232278900205
20
2.61704736162403
30
0
41
1
10
43.3942316332171
20
2.25789952128645
30
0
41
1
10
43.8293396414707
20
2.07227934804575
30
0
41
1
10
44.6984853168032
20
1.69014485922204
30
0
41
1
10
45.1335353786789
20
1.49472711044999
30
0
41
1
10
46.0047786707815
20
1.09536051432337
30
0
41
1
10
46.441115029441
20
0.891204019646096
30
0
41
1
10
47.3120680314836
20
0.481563083634114
30
0
41
1
10
47.7471502091808
20
0.275661449712402
30
0
41
1
10
48.616427575416
20
-0.138687334768349
30
0
41
1
10
49.0514743627763
20
-0.345322949123926
30
0
41
1
10
49.7049369191321
20
-0.65378284086475
30
0
41
1
10
49.9228926968566
20
-0.756517023628049
30
0
41
1
10
50.3588640394068
20
-0.961405828885177
30
0
41
1
10
50.5766636126959
20
-1.06354398831246
30
0
41
1
10
51.2299775274591
20
-1.36660381852442
30
0
41
1
10
51.6656200977954
20
-1.5638292492784
30
0
41
1
10
52.1012164998303
20
-1.75755223626652
30
0
0
SPLINE
5
EC
100
AcDbEntity
8
1
62
256
6
ByLayer
370
18
48
1
60
0
100
AcDbSpline
70
4
71
3
72
14
73
10
40
0
40
0
40
0
40
0
40
0.147520080971036
40
0.147520080971036
40
0.39991909677978
40
0.39991909677978
40
0.652318112588523
40
0.652318112588523
40
1
40
1
40
1
40
1
41
1
10
21.1334583717199
20
-4.91100650736291
30
0
41
1
10
20.8231512200346
20
-4.91438983120872
30
0
41
1
10
20.5122792141094
20
-4.91120672121363
30
0
41
1
10
19.6673923182812
20
-4.88452786523351
30
0
41
1
10
19.1304426392847
20
-4.84790007696145
30
0
41
1
10
18.0640213416748
20
-4.7374279961808
30
0
41
1
10
17.5329816378489
20
-4.66358878594403
30
0
41
1
10
16.2731958604087
20
-4.44603335461721
30
0
41
1
10
15.5455175587967
20
-4.28644520681604
30
0
41
1
10
14.8170397755056
20
-4.09666160368516
30
0
0
SPLINE
5
ED
100
AcDbEntity
8
1
62
256
6
ByLayer
370
13
48
1
60
0
100
AcDbSpline
70
4
71
3
72
18
73
14
40
0
40
0
40
0
40
0
40
0.0939965191447234
40
0.0939965191447234
40
0.244997099287271
40
0.244997099287271
40
0.320497389358545
40
0.320497389358545
40
0.395997679429819
40
0.395997679429819
40
0.69799883971491
40
0.69799883971491
40
1
40
1
40
1
40
1
41
1
10
14.8170397753687
20
-4.09666160364944
30
0
41
1
10
14.4878433904586
20
-4.01089910340559
30
0
41
1
10
14.1584837432119
20
-3.9189703823219
30
0
41
1
10
13.2988702634849
20
-3.66409501131517
30
0
41
1
10
12.7679751970674
20
-3.49175252742029
30
0
41
1
10
11.9685396605483
20
-3.21253354116533
30
0
41
1
10
11.7014984855666
20
-3.11604765073906
30
0
41
1
10
11.1659986361127
20
-2.91663938223621
30
0
41
1
10
10.898104598818
20
-2.81391896737901
30
0
41
1
10
9.56288610010867
20
-2.28871128641887
30
0
41
1
10
8.50317072059906
20
-1.82887444821318
30
0
41
1
10
6.38220868846153
20
-0.867633028554252
30
0
41
1
10
5.32121155523814
20
-0.365770171300397
30
0
41
1
10
4.25039131456344
20
0.137912783389396
30
0
0
SPLINE
5
EE
100
AcDbEntity
8
1
62
256
6
ByLayer
370
18
48
1
60
0
100
AcDbSpline
70
4
71
3
72
8
73
4
40
0
40
0
40
0
40
0
40
1
40
1
40
1
40
1
41
1
10
4.01051795316525
20
0.237162325064048
30
0
41
1
10
4.00615196412465
20
0.251724789357041
30
0
41
1
10
4.00390283835131
20
0.266597155941241
30
0
41
1
10
4.00390311956534
20
0.281798590097651
30
0
0
SPLINE
5
EF
100
AcDbEntity
8
1
62
256
6
ByLayer
370
18
48
1
60
0
100
AcDbSpline
70
4
71
3
72
10
73
6
40
0
40
0
40
0
40
0
40
0.5
40
0.5
40
1
40
1
40
1
40
1
41
1
10
4.13989787828456
20
0.0845274309760669
30
0
41
1
10
4.10879168809828
20
0.0997835686308974
30
0
41
1
10
4.08138091869318
20
0.121234427178223
30
0
41
1
10
4.0370442298435
20
0.17357443840902
30
0
41
1
10
4.02031881516999
20
0.204472205679821
30
0
41
1
10
4.01051795316462
20
0.237162325066208
30
0
0
SPLINE
5
F0
100
AcDbEntity
8
1
62
256
6
ByLayer
370
18
48
1
60
0
100
AcDbSpline
70
4
71
3
72
30
73
26
40
0
40
0
40
0
40
0
40
0.0625000000000002
40
0.0625000000000002
40
0.125
40
0.125
40
0.187500000000001
40
0.187500000000001
40
0.250000000000001
40
0.250000000000001
40
0.312500000000001
40
0.312500000000001
40
0.375000000000001
40
0.375000000000001
40
0.500000000000001
40
0.500000000000001
40
0.625000000000001
40
0.625000000000001
40
0.750000000000001
40
0.750000000000001
40
0.812500000000001
40
0.812500000000001
40
0.875000000000001
40
0.875000000000001
40
1
40
1
40
1
40
1
41
1
10
56.1516361601204
20
-2.30209694396066
30
0
41
1
10
56.1523310587138
20
-2.31093962476598
30
0
41
1
10
56.1515337182263
20
-2.32355905475703
30
0
41
1
10
56.1469153205602
20
-2.35645072298408
30
0
41
1
10
56.1430374467339
20
-2.3769710310265
30
0
41
1
10
56.1322341174896
20
-2.42520436211484
30
0
41
1
10
56.1253905013568
20
-2.45262170866411
30
0
41
1
10
56.1088509534967
20
-2.51398545897061
30
0
41
1
10
56.0990274417561
20
-2.54833883763689
30
0
41
1
10
56.0772389147752
20
-2.62104412881729
30
0
41
1
10
56.0652493561908
20
-2.65952808996974
30
0
41
1
10
56.0391506717395
20
-2.740620441169
30
0
41
1
10
56.025056746532
20
-2.78315293541957
30
0
41
1
10
55.9812944321774
20
-2.91195456945343
30
0
41
1
10
55.9492018561031
20
-3.0021943255081
30
0
41
1
10
55.8842188006325
20
-3.17815536906014
30
0
41
1
10
55.8506335880592
20
-3.26577536221063
30
0
41
1
10
55.7855842936693
20
-3.42968194014173
30
0
41
1
10
55.7533414198931
20
-3.50793977352137
30
0
41
1
10
55.7081385112449
20
-3.61336152923386
30
0
41
1
10
55.693550580123
20
-3.64663509321804
30
0
41
1
10
55.6653345720993
20
-3.70944645049806
30
0
41
1
10
55.651617083803
20
-3.73916763644709
30
0
41
1
10
55.6128648858093
20
-3.82055979615578
30
0
41
1
10
55.5900661727845
20
-3.86493897846876
30
0
41
1
10
55.5705808642243
20
-3.89853324889034
30
0
0
SPLINE
5
F1
100
AcDbEntity
8
1
62
256
6
ByLayer
370
18
48
1
60
0
100
AcDbSpline
70
4
71
3
72
20
73
16
40
0
40
0
40
0
40
0
40
0.125
40
0.125
40
0.25
40
0.25
40
0.375
40
0.375
40
0.5
40
0.5
40
0.75
40
0.75
40
0.875
40
0.875
40
1
40
1
40
1
40
1
41
1
10
4.25067460187134
20
4.58762869993882
30
0
41
1
10
4.48072443841357
20
4.52701425063628
30
0
41
1
10
4.71575126889971
20
4.46060604244221
30
0
41
1
10
5.19285055986856
20
4.31865308241558
30
0
41
1
10
5.43495836101704
20
4.2430820764871
30
0
41
1
10
5.92475123060433
20
4.08426358359773
30
0
41
1
10
6.17245043192659
20
4.00100450814
30
0
41
1
10
6.67253468277434
20
3.82800656928725
30
0
41
1
10
6.92528216380165
20
3.73814921654821
30
0
41
1
10
7.68608467435664
20
3.46086580347364
30
0
41
1
10
8.19746245439015
20
3.26543767295667
30
0
41
1
10
8.97079303181712
20
2.96160680528209
30
0
41
1
10
9.22964838983947
20
2.85846323889859
30
0
41
1
10
9.74960882734291
20
2.64958882319638
30
0
41
1
10
10.0108277128433
20
2.54388567814988
30
0
41
1
10
10.2724880889797
20
2.43754316768047
30
0
0
SPLINE
5
F2
100
AcDbEntity
8
1
62
256
6
ByLayer
370
18
48
1
60
0
100
AcDbSpline
70
4
71
3
72
72
73
68
40
0
40
0
40
0
40
0
40
0.0163340364973836
40
0.0163340364973836
40
0.0368270774036883
40
0.0368270774036883
40
0.057320118309993
40
0.057320118309993
40
0.0983062001226036
40
0.0983062001226036
40
0.118799241028908
40
0.118799241028908
40
0.139292281935213
40
0.139292281935213
40
0.180278363747822
40
0.180278363747822
40
0.200771404654127
40
0.200771404654127
40
0.221264445560432
40
0.221264445560432
40
0.262250527373042
40
0.262250527373042
40
0.282743568279347
40
0.282743568279347
40
0.303236609185652
40
0.303236609185652
40
0.323729650091957
40
0.323729650091957
40
0.344222690998261
40
0.344222690998261
40
0.364715731904566
40
0.364715731904566
40
0.385208772810871
40
0.385208772810871
40
0.42619485462348
40
0.42619485462348
40
0.446687895529785
40
0.446687895529785
40
0.46718093643609
40
0.46718093643609
40
0.508167018248699
40
0.508167018248699
40
0.549153100061308
40
0.549153100061308
40
0.569646140967613
40
0.569646140967613
40
0.590139181873917
40
0.590139181873917
40
0.631125263686525
40
0.631125263686525
40
0.672111345499134
40
0.672111345499134
40
0.713097427311742
40
0.713097427311742
40
0.75408350912435
40
0.75408350912435
40
0.795069590936959
40
0.795069590936959
40
0.836055672749567
40
0.836055672749567
40
0.877041754562175
40
0.877041754562175
40
0.918027836374783
40
0.918027836374783
40
0.959013918187392
40
0.959013918187392
40
1
40
1
40
1
40
1
41
1
10
42.171680519272
20
-2.75539365034607
30
0
41
1
10
41.9982964243078
20
-2.82377652801139
30
0
41
1
10
41.8249703196313
20
-2.89091298631874
30
0
41
1
10
41.434146170138
20
-3.03896119333507
30
0
41
1
10
41.2166405839506
20
-3.11894025671043
30
0
41
1
10
40.7814999567689
20
-3.27531935144921
30
0
41
1
10
40.5638716646118
20
-3.3516034615713
30
0
41
1
10
39.9110684352626
20
-3.57486666368888
30
0
41
1
10
39.4743782206293
20
-3.71500099112251
30
0
41
1
10
38.820306384705
20
-3.90952577496543
30
0
41
1
10
38.6026008220037
20
-3.97176210884251
30
0
41
1
10
38.1675690916941
20
-4.08948687998978
30
0
41
1
10
37.9501937800385
20
-4.14539775301949
30
0
41
1
10
37.297796176462
20
-4.30637742725668
30
0
41
1
10
36.86263563449
20
-4.40298433682335
30
0
41
1
10
36.2098565230917
20
-4.53145100871237
30
0
41
1
10
35.9922336399905
20
-4.57148150087158
30
0
41
1
10
35.556304934699
20
-4.64500828487928
30
0
41
1
10
35.3379074571911
20
-4.67849854964649
30
0
41
1
10
34.683775803184
20
-4.76810276602723
30
0
41
1
10
34.2487320088808
20
-4.8165847238954
30
0
41
1
10
33.5962744323696
20
-4.86859795822591
30
0
41
1
10
33.3787692744677
20
-4.88230532017349
30
0
41
1
10
32.9436099208123
20
-4.9043935573101
30
0
41
1
10
32.725977925535
20
-4.91259273605328
30
0
41
1
10
32.2906932160728
20
-4.92261001144564
30
0
41
1
10
32.0730864350041
20
-4.92447851965809
30
0
41
1
10
31.6372021760669
20
-4.92176286873539
30
0
41
1
10
31.4188378553274
20
-4.91719430999339
30
0
41
1
10
30.9825332869488
20
-4.90154890620116
30
0
41
1
10
30.7646823304314
20
-4.89003422876618
30
0
41
1
10
30.3294665402194
20
-4.85927794666966
30
0
41
1
10
30.1120144145274
20
-4.84052028151584
30
0
41
1
10
29.4595768796027
20
-4.77669089020335
30
0
41
1
10
29.0244083626409
20
-4.72295020702799
30
0
41
1
10
28.3714947303387
20
-4.62355005139992
30
0
41
1
10
28.1539254797403
20
-4.58725067410447
30
0
41
1
10
27.7181724846377
20
-4.50841835490306
30
0
41
1
10
27.4998530941975
20
-4.46531115660611
30
0
41
1
10
26.8452921672581
20
-4.32687353333051
30
0
41
1
10
26.4097767026554
20
-4.22426052187112
30
0
41
1
10
25.5392960714813
20
-3.99818330764867
30
0
41
1
10
25.103967591456
20
-3.87535735908102
30
0
41
1
10
24.4506967842579
20
-3.67501857727086
30
0
41
1
10
24.2329973420938
20
-3.60441440707572
30
0
41
1
10
23.7970467043082
20
-3.45952053331493
30
0
41
1
10
23.5786502669127
20
-3.38525117889566
30
0
41
1
10
22.9237375349439
20
-3.1561089971967
30
0
41
1
10
22.4881003547147
20
-2.99462023922547
30
0
41
1
10
21.6174443372495
20
-2.65779768893677
30
0
41
1
10
21.1821390044947
20
-2.48215651331461
30
0
41
1
10
20.3108780333917
20
-2.11825689983326
30
0
41
1
10
19.8749424886271
20
-1.92931126337697
30
0
41
1
10
19.0014552505297
20
-1.54198411592992
30
0
41
1
10
18.5652983376496
20
-1.34521365408631
30
0
41
1
10
17.6940248531703
20
-0.944842850989744
30
0
41
1
10
17.2585121394566
20
-0.742085159693147
30
0
41
1
10
16.3867266881715
20
-0.332890671239795
30
0
41
1
10
15.950596526924
20
-0.125591112596965
30
0
41
1
10
15.0764556181278
20
0.286511437588871
30
0
41
1
10
14.6398104850918
20
0.491871508288142
30
0
41
1
10
13.7670553933589
20
0.900058950099293
30
0
41
1
10
13.3304086882428
20
1.1019557410917
30
0
41
1
10
12.4559897082169
20
1.49872327840796
30
0
41
1
10
12.0197158839481
20
1.69439990705399
30
0
41
1
10
11.146511969607
20
2.07442898240751
30
0
41
1
10
10.7096066093607
20
2.25884601607541
30
0
41
1
10
10.2724732706191
20
2.437528280164
30
0
0
SPLINE
5
F3
100
AcDbEntity
8
1
62
256
6
ByLayer
370
18
48
1
60
0
100
AcDbSpline
70
4
71
3
72
64
73
60
40
0
40
0
40
0
40
0
40
0.0223633336920631
40
0.0223633336920631
40
0.0572789289173427
40
0.0572789289173427
40
0.0921945241426224
40
0.0921945241426224
40
0.162025714593183
40
0.162025714593183
40
0.301688095494305
40
0.301688095494305
40
0.441350476395427
40
0.441350476395427
40
0.581012857296549
40
0.581012857296549
40
0.720675238197671
40
0.720675238197671
40
0.722857462899252
40
0.722857462899252
40
0.725039687600832
40
0.725039687600832
40
0.727221912302413
40
0.727221912302413
40
0.729404137003994
40
0.729404137003994
40
0.733768586407155
40
0.733768586407155
40
0.738133035810316
40
0.738133035810316
40
0.755590833422961
40
0.755590833422961
40
0.773048631035606
40
0.773048631035606
40
0.790506428648251
40
0.790506428648251
40
0.807964226260896
40
0.807964226260896
40
0.816693125067219
40
0.816693125067219
40
0.825422023873542
40
0.825422023873542
40
0.842879821486188
40
0.842879821486188
40
0.85160872029251
40
0.85160872029251
40
0.860337619098833
40
0.860337619098833
40
0.877795416711479
40
0.877795416711479
40
0.895253214324125
40
0.895253214324125
40
0.912711011936771
40
0.912711011936771
40
0.930168809549417
40
0.930168809549417
40
0.965084404774708
40
0.965084404774708
40
1
40
1
40
1
40
1
41
1
10
19.7557644493114
20
-5.11736534118378
30
0
41
1
10
19.5991400291848
20
-5.11713051367181
30
0
41
1
10
19.4420718161424
20
-5.11567091838657
30
0
41
1
10
19.0386324163183
20
-5.10906155005796
30
0
41
1
10
18.7913763019628
20
-5.10227889992254
30
0
41
1
10
18.2963132627844
20
-5.08400919624253
30
0
41
1
10
18.0484155414098
20
-5.07252601868939
30
0
41
1
10
17.303513243605
20
-5.03216007022448
30
0
41
1
10
16.8052976477252
20
-4.99737225700679
30
0
41
1
10
15.30496655412
20
-4.87783064569362
30
0
41
1
10
14.2971141074059
20
-4.77806993036171
30
0
41
1
10
12.262623650369
20
-4.57921753271799
30
0
41
1
10
11.2359957572056
20
-4.48025775471513
30
0
41
1
10
9.16195916037498
20
-4.31635089808739
30
0
41
1
10
8.11460384367425
20
-4.25148010242935
30
0
41
1
10
5.99774222446914
20
-4.1778299356148
30
0
41
1
10
4.93798842558974
20
-4.16943076530657
30
0
41
1
10
3.86202289881061
20
-4.19299763364106
30
0
41
1
10
3.84547094973331
20
-4.1933677631649
30
0
41
1
10
3.81236978876794
20
-4.19412314102451
30
0
41
1
10
3.79579204432272
20
-4.19434862045674
30
0
41
1
10
3.76291199358033
20
-4.19634255305326
30
0
41
1
10
3.74658265594152
20
-4.19795968109054
30
0
41
1
10
3.71423443693968
20
-4.20292125159591
30
0
41
1
10
3.69779560662298
20
-4.20634061312589
30
0
41
1
10
3.65301935094715
20
-4.22058366588004
30
0
41
1
10
3.62368476287347
20
-4.23043119665277
30
0
41
1
10
3.56493618821571
20
-4.24990118380808
30
0
41
1
10
3.53570825099109
20
-4.25967733874518
30
0
41
1
10
3.39033567632475
20
-4.30876342034395
30
0
41
1
10
3.27647399838284
20
-4.34868900907512
30
0
41
1
10
3.05479143185582
20
-4.42984493441091
30
0
41
1
10
2.94657420004663
20
-4.47123143208302
30
0
41
1
10
2.7398478272998
20
-4.55455432050834
30
0
41
1
10
2.6417814767014
20
-4.59629542549524
30
0
41
1
10
2.4592241855355
20
-4.67948300969852
30
0
41
1
10
2.37468099493773
20
-4.72093738238038
30
0
41
1
10
2.26178385217509
20
-4.78234380532442
30
0
41
1
10
2.22656930510828
20
-4.80265851568012
30
0
41
1
10
2.1632110593878
20
-4.84191870037986
30
0
41
1
10
2.13484788481608
20
-4.86097963175328
30
0
41
1
10
2.0607819529699
20
-4.91612607709487
30
0
41
1
10
2.02623119975959
20
-4.95045861705125
30
0
41
1
10
2.00256803805812
20
-4.99368919306235
30
0
41
1
10
1.99914109909491
20
-5.00685076434169
30
0
41
1
10
2.00113372941073
20
-5.03059705118056
30
0
41
1
10
2.00664302481474
20
-5.04124237593052
30
0
41
1
10
2.0356741271427
20
-5.06862811994671
30
0
41
1
10
2.0712285133778
20
-5.08094152624315
30
0
41
1
10
2.16807395456351
20
-5.09550970864316
30
0
41
1
10
2.22830670330521
20
-5.097591391327
30
0
41
1
10
2.36443142894692
20
-5.0937854119482
30
0
41
1
10
2.4405990924972
20
-5.08790276692426
30
0
41
1
10
2.60530783334542
20
-5.06970414701152
30
0
41
1
10
2.69319654265269
20
-5.05744276973732
30
0
41
1
10
2.96642020185689
20
-5.01356246608944
30
0
41
1
10
3.16242048533087
20
-4.97481128972308
30
0
41
1
10
3.57188251922119
20
-4.88383080358565
30
0
41
1
10
3.78633886199802
20
-4.83127446824651
30
0
41
1
10
4.00396544927418
20
-4.77412319480891
30
0
0
SPLINE
5
F4
100
AcDbEntity
8
1
62
256
6
ByLayer
370
18
48
1
60
0
100
AcDbSpline
70
4
71
3
72
18
73
14
40
0
40
0
40
0
40
0
40
0.148401849225145
40
0.254039665371489
40
0.343162537293874
40
0.407017319413333
40
0.467439379219259
40
0.526578421336923
40
0.608763706404227
40
0.709893094801319
40
0.792819044279916
40
0.885160135649019
40
1
40
1
40
1
40
1
41
1
10
15.1767691891342
20
0.257831177860936
30
0
41
1
10
15.1733814158681
20
0.258830575942341
30
0
41
1
10
15.1686427555186
20
0.260203821004467
30
0
41
1
10
15.1596856537401
20
0.263236364644968
30
0
41
1
10
15.1613115966555
20
0.262350123797575
30
0
41
1
10
15.1651968299874
20
0.260563725359333
30
0
41
1
10
15.1659521100185
20
0.259475662901906
30
0
41
1
10
15.1608622675074
20
0.262061961404044
30
0
41
1
10
15.1352417840602
20
0.272031785482255
30
0
41
1
10
15.0661020057265
20
0.299936470398109
30
0
41
1
10
14.9627899488202
20
0.343940150384839
30
0
41
1
10
14.8369924410297
20
0.399519014339575
30
0
41
1
10
14.7322724785643
20
0.448255617930983
30
0
41
1
10
14.6696756464823
20
0.477943462592037
30
0
0
SPLINE
5
F5
100
AcDbEntity
8
1
62
256
6
ByLayer
370
18
48
1
60
0
100
AcDbSpline
70
4
71
3
72
24
73
20
40
0
40
0
40
0
40
0
40
0.0040174117248559
40
0.0211920791694528
40
0.0701590127394764
40
0.136720004607853
40
0.206683395425524
40
0.28626557278904
40
0.373517420545657
40
0.466915663908948
40
0.549060577301676
40
0.634480623780348
40
0.734014727077499
40
0.78272638447977
40
0.822832327778048
40
0.852550119044815
40
0.895473901760494
40
0.951441937044579
40
1
40
1
40
1
40
1
41
1
10
36.9445351001081
20
-1.2331558937006
30
0
41
1
10
36.9444769680809
20
-1.23321445682049
30
0
41
1
10
36.9524796577759
20
-1.23401324400453
30
0
41
1
10
37.0502545806309
20
-1.24113536430929
30
0
41
1
10
37.2312691047141
20
-1.2569694671092
30
0
41
1
10
37.5015885831913
20
-1.28744618774653
30
0
41
1
10
37.793238737321
20
-1.32895963472606
30
0
41
1
10
38.1296085051086
20
-1.38815640630546
30
0
41
1
10
38.5701805636508
20
-1.48039184447043
30
0
41
1
10
38.9652552753683
20
-1.57520849721618
30
0
41
1
10
39.3730372929026
20
-1.68953779688508
30
0
41
1
10
39.8152765161348
20
-1.82641749812018
30
0
41
1
10
40.2141504963187
20
-1.96244797098888
30
0
41
1
10
40.5397229247677
20
-2.08100724584836
30
0
41
1
10
40.7473979147779
20
-2.15921936610343
30
0
41
1
10
40.9450852423695
20
-2.23552613471378
30
0
41
1
10
41.1704576796112
20
-2.32477504464055
30
0
41
1
10
41.4290380374341
20
-2.4305729971629
30
0
41
1
10
41.612428234452
20
-2.50864321831355
30
0
41
1
10
41.697645713074
20
-2.54553864539582
30
0
0
SPLINE
5
F6
100
AcDbEntity
8
1
62
256
6
ByLayer
370
18
48
1
60
0
100
AcDbSpline
70
4
71
3
72
27
73
23
40
0
40
0
40
0
40
0
40
0.0674535305673178
40
0.120827764261463
40
0.1541634927767
40
0.18074861840956
40
0.211325719481075
40
0.279927300379967
40
0.344357025464113
40
0.411812566383268
40
0.471570921001793
40
0.54526141109177
40
0.604771015912342
40
0.662602847543302
40
0.712893440809949
40
0.75886672007479
40
0.817415356873956
40
0.859010695467323
40
0.896823911589132
40
0.930843199495772
40
0.971936551671315
40
1
40
1
40
1
40
1
41
1
10
20.8703567547728
20
-4.91226807912076
30
0
41
1
10
21.1218297787358
20
-4.9125593253739
30
0
41
1
10
21.5722284697297
20
-4.91304600612423
30
0
41
1
10
22.1471097000196
20
-4.91359278437596
30
0
41
1
10
22.5690986859846
20
-4.91394539855517
30
0
41
1
10
22.9062762025968
20
-4.91423147537623
30
0
41
1
10
23.3752756782561
20
-4.91476620147193
30
0
41
1
10
23.9848190602993
20
-4.91535684849157
30
0
41
1
10
24.7322960579074
20
-4.91724819850998
30
0
41
1
10
25.4468808005573
20
-4.9171368411553
30
0
41
1
10
26.1951358825702
20
-4.91712991455037
30
0
41
1
10
26.9145927316375
20
-4.91746681247574
30
0
41
1
10
27.626519316113
20
-4.92047938096613
30
0
41
1
10
28.2515976495827
20
-4.92043526779199
30
0
41
1
10
28.8259509575612
20
-4.92025223903929
30
0
41
1
10
29.402524592415
20
-4.91999228408736
30
0
41
1
10
29.9475234162755
20
-4.92036404293123
30
0
41
1
10
30.4614642664432
20
-4.92268473181951
30
0
41
1
10
30.884149956754
20
-4.92436531289923
30
0
41
1
10
31.3048347392727
20
-4.92397306484418
30
0
41
1
10
31.6895445042568
20
-4.92366443607588
30
0
41
1
10
31.9473497048129
20
-4.92354381387335
30
0
41
1
10
32.0519727673138
20
-4.92350565906429
30
0
0
SPLINE
5
F7
100
AcDbEntity
8
1
62
256
6
ByLayer
370
18
48
1
60
0
100
AcDbSpline
70
4
71
3
72
22
73
18
40
0
40
0
40
0
40
0
40
0.0453528964247088
40
0.0986805761972285
40
0.147237691560953
40
0.234936079779191
40
0.318232133517416
40
0.376458358035378
40
0.441197805412994
40
0.515191368861479
40
0.591188085481283
40
0.683115733504013
40
0.757441784044852
40
0.839575078740023
40
0.933847946501237
40
0.979756429661975
40
1
40
1
40
1
40
1
41
1
10
32.0520892074659
20
4.92350535634444
30
0
41
1
10
31.9220224949982
20
4.92355794149225
30
0
41
1
10
31.6390455310443
20
4.9236803385507
30
0
41
1
10
31.2168332248913
20
4.92413408241506
30
0
41
1
10
30.6735093874533
20
4.9241495405758
30
0
41
1
10
30.0443886690375
20
4.92030446425451
30
0
41
1
10
29.3867257473794
20
4.91999953756144
30
0
41
1
10
28.7958982294795
20
4.92026357108691
30
0
41
1
10
28.2311565276923
20
4.92044523352146
30
0
41
1
10
27.6152687558861
20
4.92043525372969
30
0
41
1
10
26.9217620452077
20
4.91750737020419
30
0
41
1
10
26.2270319320702
20
4.9171331149202
30
0
41
1
10
25.5153529955757
20
4.91714622381153
30
0
41
1
10
24.7963130543799
20
4.91724218274601
30
0
41
1
10
24.1587149368454
20
4.91577866455987
30
0
41
1
10
23.6988467611651
20
4.91511348413559
30
0
41
1
10
23.5092222231204
20
4.91489747469726
30
0
41
1
10
23.451189750077
20
4.91483363974348
30
0
0
SPLINE
5
F8
100
AcDbEntity
8
1
62
256
6
ByLayer
370
18
48
1
60
0
100
AcDbSpline
70
4
71
3
72
13
73
9
40
0
40
0
40
0
40
0
40
0.0416521668188377
40
0.268793304879534
40
0.462013316964604
40
0.551397826280534
40
0.685170833075759
40
1
40
1
40
1
40
1
41
1
10
47.8367048031705
20
0.252595067303219
30
0
41
1
10
47.8369466179147
20
0.252527452455354
30
0
41
1
10
47.8357579778295
20
0.253094810668216
30
0
41
1
10
47.795033315907
20
0.268160867305028
30
0
41
1
10
47.7288161498841
20
0.29455894980569
30
0
41
1
10
47.6482949060574
20
0.328365747027391
30
0
41
1
10
47.5178316190787
20
0.385152029519617
30
0
41
1
10
47.3953306649133
20
0.441941797686468
30
0
41
1
10
47.2991454297669
20
0.487863061657435
30
0
0
SPLINE
5
F9
100
AcDbEntity
8
1
62
256
6
ByLayer
370
18
48
1
60
0
100
AcDbSpline
70
4
71
2
72
6
73
3
40
0
40
0
40
0
40
1
40
1
40
1
41
1
10
53.468058183806
20
-4.95157342806593
30
0
41
1
10
54.3335900530047
20
-4.95031393341961
30
0
41
1
10
55.1997199741169
20
-4.95515789957472
30
0
0
SPLINE
5
FA
100
AcDbEntity
8
1
62
256
6
ByLayer
370
18
48
1
60
0
100
AcDbSpline
70
4
71
1
72
4
73
2
40
0
40
0
40
1
40
1
41
1
10
36.967942144391
20
-0.0026481509789846
30
0
41
1
10
36.967928560828
20
-0.0026415057780298
30
0
0
LINE
5
7B
100
AcDbEntity
8
SK1
62
256
6
ByLayer
370
18
48
1
60
0
100
AcDbLine
10
-45
20
4.3
30
0
11
-45
21
-3.663433
31
0
39
0
210
0
220
0
230
1
0
LINE
5
7D
100
AcDbEntity
8
SK1
62
256
6
ByLayer
370
18
48
1
60
0
100
AcDbLine
10
-45
20
-4.3
30
0
11
-45
21
-4.28567
31
0
39
0
210
0
220
0
230
1
0
LINE
5
7E
100
AcDbEntity
8
SK1
62
256
6
ByLayer
370
18
48
1
60
0
100
AcDbLine
10
-44.15
20
-5.0991
30
0
11
-44.15
21
-4.539087
31
0
39
0
210
0
220
0
230
1
0
LINE
5
7F
100
AcDbEntity
8
SK1
62
256
6
ByLayer
370
18
48
1
60
0
100
AcDbLine
10
0
20
-6
30
0
11
0
21
6
31
0
39
0
210
0
220
0
230
1
0
LINE
5
80
100
AcDbEntity
8
SK1
62
256
6
ByLayer
370
13
48
1
60
0
100
AcDbLine
10
-44.25
20
-4.39316
30
0
11
-44.25
21
-5.015455
31
0
39
0
210
0
220
0
230
1
0
LINE
5
81
100
AcDbEntity
8
SK1
62
256
6
ByLayer
370
18
48
1
60
0
100
AcDbLine
10
-43.3
20
6
30
0
11
-43.3
21
-6
31
0
39
0
210
0
220
0
230
1
0
LINE
5
82
100
AcDbEntity
8
SK1
62
256
6
ByLayer
370
18
48
1
60
0
100
AcDbLine
10
-45
20
-3.663341
30
0
11
-45
21
-4.28567
31
0
39
0
210
0
220
0
230
1
0
LINE
5
83
100
AcDbEntity
8
1
62
256
6
ByLayer
370
18
48
1
60
0
100
AcDbLine
10
55.570581
20
-3.898533
30
0
11
55.187238
21
-4.95176
31
0
39
0
210
0
220
0
230
1
0
LINE
5
84
100
AcDbEntity
8
1
62
256
6
ByLayer
370
13
48
1
60
0
100
AcDbLine
10
0.720493
20
5.547691
30
0
11
0.720493
21
-5.547691
31
0
39
0
210
0
220
0
230
1
0
LINE
5
85
100
AcDbEntity
8
1
62
256
6
ByLayer
370
13
48
1
60
0
100
AcDbLine
10
1.441947
20
5.095383
30
0
11
1.441947
21
-5.095383
31
0
39
0
210
0
220
0
230
1
0
LINE
5
86
100
AcDbEntity
8
1
62
256
6
ByLayer
370
13
48
1
60
0
100
AcDbLine
10
56.929769
20
-0.172546
30
0
11
54.959933
21
1.273605
31
0
39
0
210
0
220
0
230
1
0
LINE
5
87
100
AcDbEntity
8
1
62
256
6
ByLayer
370
18
48
1
60
0
100
AcDbLine
10
57
20
0.027156
30
0
11
57
21
-0.027156
31
0
39
0
210
0
220
0
230
1
0
LINE
5
88
100
AcDbEntity
8
1
62
256
6
ByLayer
370
18
48
1
60
0
100
AcDbLine
10
56.98584
20
0.077096
30
0
11
56.638551
21
1.344787
31
0
39
0
210
0
220
0
230
1
0
LINE
5
89
100
AcDbEntity
8
1
62
256
6
ByLayer
370
18
48
1
60
0
100
AcDbLine
10
56.98584
20
-0.077096
30
0
11
56.638551
21
-1.344787
31
0
39
0
210
0
220
0
230
1
0
LINE
5
8A
100
AcDbEntity
8
1
62
256
6
ByLayer
370
18
48
1
60
0
100
AcDbLine
10
56.904546
20
-0.233494
30
0
11
56.929769
21
-0.172546
31
0
39
0
210
0
220
0
230
1
0
LINE
5
8B
100
AcDbEntity
8
1
62
256
6
ByLayer
370
18
48
1
60
0
100
AcDbLine
10
0
20
-6
30
0
11
0
21
6
31
0
39
0
210
0
220
0
230
1
0
LINE
5
8C
100
AcDbEntity
8
1
62
256
6
ByLayer
370
18
48
1
60
0
100
AcDbLine
10
56.476429
20
-1.84798
30
0
11
56.476375
21
-1.848026
31
0
39
0
210
0
220
0
230
1
0
LINE
5
8D
100
AcDbEntity
8
1
62
256
6
ByLayer
370
13
48
1
60
0
100
AcDbLine
10
56.98584
20
0.077096
30
0
11
55.074863
21
1.480034
31
0
39
0
210
0
220
0
230
1
0
LINE
5
8E
100
AcDbEntity
8
1
62
256
6
ByLayer
370
18
48
1
60
0
100
AcDbLine
10
56.904546
20
-0.233494
30
0
11
56.151636
21
-2.302097
31
0
39
0
210
0
220
0
230
1
0
LINE
5
8F
100
AcDbEntity
8
1
62
256
6
ByLayer
370
18
48
1
60
0
100
AcDbLine
10
56.904546
20
-0.233494
30
0
11
54.363291
21
-3.802362
31
0
39
0
210
0
220
0
230
1
0
LINE
5
90
100
AcDbEntity
8
80
62
256
6
ByLayer
370
18
48
1
60
0
100
AcDbLine
10
0
20
0
30
0
11
-5
21
0
31
0
39
0
210
0
220
0
230
1
0
LINE
5
91
100
AcDbEntity
8
4
62
256
6
ByLayer
370
18
48
0.05
60
0
100
AcDbLine
10
57
20
0
30
0
11
0
21
0
31
0
39
0
210
0
220
0
230
1
0
LINE
5
93
100
AcDbEntity
8
SK4
62
256
6
ByLayer
370
18
48
0.05
60
0
100
AcDbLine
10
62
20
0
30
0
11
-50
21
0
31
0
39
0
210
0
220
0
230
1
0
LINE
5
95
100
AcDbEntity
8
SK1
62
256
6
ByLayer
370
18
48
1
60
0
100
AcDbLine
10
-43.3
20
-6
30
0
11
0
21
-6
31
0
39
0
210
0
220
0
230
1
0
LINE
5
96
100
AcDbEntity
8
SK1
62
256
6
ByLayer
370
18
48
1
60
0
100
AcDbLine
10
0
20
6
30
0
11
-43.3
21
6
31
0
39
0
210
0
220
0
230
1
0
LINE
5
97
100
AcDbEntity
8
SK1
62
256
6
ByLayer
370
18
48
1
60
0
100
AcDbLine
10
-45
20
-4.3
30
0
11
-43.3
21
-6
31
0
39
0
210
0
220
0
230
1
0
LINE
5
98
100
AcDbEntity
8
SK1
62
256
6
ByLayer
370
18
48
1
60
0
100
AcDbLine
10
-43.3
20
6
30
0
11
-45
21
4.3
31
0
39
0
210
0
220
0
230
1
0
LINE
5
99
100
AcDbEntity
8
1
62
256
6
ByLayer
370
18
48
1
60
0
100
AcDbLine
10
1.441947
20
-5.095383
30
0
11
2.257204
21
-5.096361
31
0
39
0
210
0
220
0
230
1
0
LINE
5
9A
100
AcDbEntity
8
1
62
256
6
ByLayer
370
18
48
1
60
0
100
AcDbLine
10
19.739215
20
-5.11734
30
0
11
20.636898
21
-5.118417
31
0
39
0
210
0
220
0
230
1
0
LINE
5
9B
100
AcDbEntity
8
1
62
256
6
ByLayer
370
18
48
1
60
0
100
AcDbLine
10
52.658296
20
-5.156842
30
0
11
53.28854
21
-5.157599
31
0
39
0
210
0
220
0
230
1
0
LINE
5
9C
100
AcDbEntity
8
1
62
256
6
ByLayer
370
18
48
1
60
0
100
AcDbLine
10
53.288646
20
5.157599
30
0
11
52.658296
21
5.156842
31
0
39
0
210
0
220
0
230
1
0
LINE
5
9D
100
AcDbEntity
8
1
62
256
6
ByLayer
370
18
48
1
60
0
100
AcDbLine
10
20.636673
20
5.118416
30
0
11
19.739215
21
5.11734
31
0
39
0
210
0
220
0
230
1
0
LINE
5
9E
100
AcDbEntity
8
1
62
256
6
ByLayer
370
18
48
1
60
0
100
AcDbLine
10
2.257204
20
5.096361
30
0
11
1.441947
21
5.095383
31
0
39
0
210
0
220
0
230
1
0
LINE
5
9F
100
AcDbEntity
8
81
62
256
6
ByLayer
370
18
48
1
60
0
100
AcDbLine
10
57
20
0
30
0
11
62
21
0
31
0
39
0
210
0
220
0
230
1
0
LINE
5
A0
100
AcDbEntity
8
SK2
62
256
6
ByLayer
370
13
48
1
60
0
100
AcDbLine
10
-53.625163
20
-6
30
0
11
-53.625163
21
36.857173
31
0
39
0
210
0
220
0
230
1
0
LINE
5
A2
100
AcDbEntity
8
SK2
62
256
6
ByLayer
370
13
48
1
60
0
100
AcDbLine
10
-46.5875
20
6
30
0
11
-55.625163
21
6
31
0
39
0
210
0
220
0
230
1
0
LINE
5
A3
100
AcDbEntity
8
SK2
62
256
6
ByLayer
370
13
48
1
60
0
100
AcDbLine
10
-46.5875
20
-6
30
0
11
-55.625163
21
-6
31
0
39
0
210
0
220
0
230
1
0
LINE
5
A4
100
AcDbEntity
8
1
62
256
6
ByLayer
370
18
48
1
60
1
100
AcDbLine
10
-53.625163
20
6
30
0
11
-53.164379
21
2.500002
31
0
39
0
210
0
220
0
230
1
0
LINE
5
A5
100
AcDbEntity
8
1
62
256
6
ByLayer
370
18
48
1
60
1
100
AcDbLine
10
-53.164379
20
2.500002
30
0
11
-54.085946
21
2.499998
31
0
39
0
210
0
220
0
230
1
0
LINE
5
A6
100
AcDbEntity
8
1
62
256
6
ByLayer
370
18
48
1
60
1
100
AcDbLine
10
-54.085946
20
2.499998
30
0
11
-53.625163
21
6
31
0
39
0
210
0
220
0
230
1
0
LINE
5
A7
100
AcDbEntity
8
1
62
256
6
ByLayer
370
18
48
1
60
1
100
AcDbLine
10
-53.625163
20
-6
30
0
11
-54.085946
21
-2.500002
31
0
39
0
210
0
220
0
230
1
0
LINE
5
A8
100
AcDbEntity
8
1
62
256
6
ByLayer
370
18
48
1
60
1
100
AcDbLine
10
-54.085946
20
-2.500002
30
0
11
-53.164379
21
-2.499998
31
0
39
0
210
0
220
0
230
1
0
LINE
5
A9
100
AcDbEntity
8
1
62
256
6
ByLayer
370
18
48
1
60
1
100
AcDbLine
10
-53.164379
20
-2.499998
30
0
11
-53.625163
21
-6
31
0
39
0
210
0
220
0
230
1
0
LINE
5
AA
100
AcDbEntity
8
2
62
256
6
ByLayer
370
13
48
1
60
0
100
AcDbLine
10
69.083343
20
-5.16
30
0
11
69.083343
21
34.610259
31
0
39
0
210
0
220
0
230
1
0
LINE
5
AC
100
AcDbEntity
8
2
62
256
6
ByLayer
370
13
48
1
60
0
100
AcDbLine
10
56.6875
20
5.16
30
0
11
71.083343
21
5.16
31
0
39
0
210
0
220
0
230
1
0
LINE
5
AD
100
AcDbEntity
8
2
62
256
6
ByLayer
370
13
48
1
60
0
100
AcDbLine
10
56.6875
20
-5.16
30
0
11
71.083343
21
-5.16
31
0
39
0
210
0
220
0
230
1
0
LINE
5
AE
100
AcDbEntity
8
1
62
256
6
ByLayer
370
18
48
1
60
1
100
AcDbLine
10
69.083343
20
5.16
30
0
11
69.544126
21
1.660002
31
0
39
0
210
0
220
0
230
1
0
LINE
5
AF
100
AcDbEntity
8
1
62
256
6
ByLayer
370
18
48
1
60
1
100
AcDbLine
10
69.544126
20
1.660002
30
0
11
68.622559
21
1.659998
31
0
39
0
210
0
220
0
230
1
0
LINE
5
B0
100
AcDbEntity
8
1
62
256
6
ByLayer
370
18
48
1
60
1
100
AcDbLine
10
68.622559
20
1.659998
30
0
11
69.083343
21
5.16
31
0
39
0
210
0
220
0
230
1
0
LINE
5
B1
100
AcDbEntity
8
1
62
256
6
ByLayer
370
18
48
1
60
1
100
AcDbLine
10
69.083343
20
-5.16
30
0
11
68.622559
21
-1.660002
31
0
39
0
210
0
220
0
230
1
0
LINE
5
B2
100
AcDbEntity
8
1
62
256
6
ByLayer
370
18
48
1
60
1
100
AcDbLine
10
68.622559
20
-1.660002
30
0
11
69.544126
21
-1.659998
31
0
39
0
210
0
220
0
230
1
0
LINE
5
B3
100
AcDbEntity
8
1
62
256
6
ByLayer
370
18
48
1
60
1
100
AcDbLine
10
69.544126
20
-1.659998
30
0
11
69.083343
21
-5.16
31
0
39
0
210
0
220
0
230
1
0
LINE
5
101
100
AcDbEntity
8
1
62
256
6
ByLayer
370
18
48
1
60
1
100
AcDbLine
10
-53.625163
20
6
30
0
11
-53.164379
21
2.500002
31
0
39
0
210
0
220
0
230
1
0
LINE
5
102
100
AcDbEntity
8
1
62
256
6
ByLayer
370
18
48
1
60
1
100
AcDbLine
10
-53.164379
20
2.500002
30
0
11
-54.085946
21
2.499998
31
0
39
0
210
0
220
0
230
1
0
LINE
5
103
100
AcDbEntity
8
1
62
256
6
ByLayer
370
18
48
1
60
1
100
AcDbLine
10
-54.085946
20
2.499998
30
0
11
-53.625163
21
6
31
0
39
0
210
0
220
0
230
1
0
LINE
5
105
100
AcDbEntity
8
1
62
256
6
ByLayer
370
18
48
1
60
1
100
AcDbLine
10
-53.625163
20
-6
30
0
11
-54.085946
21
-2.500002
31
0
39
0
210
0
220
0
230
1
0
LINE
5
106
100
AcDbEntity
8
1
62
256
6
ByLayer
370
18
48
1
60
1
100
AcDbLine
10
-54.085946
20
-2.500002
30
0
11
-53.164379
21
-2.499998
31
0
39
0
210
0
220
0
230
1
0
LINE
5
107
100
AcDbEntity
8
1
62
256
6
ByLayer
370
18
48
1
60
1
100
AcDbLine
10
-53.164379
20
-2.499998
30
0
11
-53.625163
21
-6
31
0
39
0
210
0
220
0
230
1
0
LINE
5
10B
100
AcDbEntity
8
1
62
256
6
ByLayer
370
18
48
1
60
1
100
AcDbLine
10
69.083343
20
5.16
30
0
11
69.544126
21
1.660002
31
0
39
0
210
0
220
0
230
1
0
LINE
5
10C
100
AcDbEntity
8
1
62
256
6
ByLayer
370
18
48
1
60
1
100
AcDbLine
10
69.544126
20
1.660002
30
0
11
68.622559
21
1.659998
31
0
39
0
210
0
220
0
230
1
0
LINE
5
10D
100
AcDbEntity
8
1
62
256
6
ByLayer
370
18
48
1
60
1
100
AcDbLine
10
68.622559
20
1.659998
30
0
11
69.083343
21
5.16
31
0
39
0
210
0
220
0
230
1
0
LINE
5
10F
100
AcDbEntity
8
1
62
256
6
ByLayer
370
18
48
1
60
1
100
AcDbLine
10
69.083343
20
-5.16
30
0
11
68.622559
21
-1.660002
31
0
39
0
210
0
220
0
230
1
0
LINE
5
110
100
AcDbEntity
8
1
62
256
6
ByLayer
370
18
48
1
60
1
100
AcDbLine
10
68.622559
20
-1.660002
30
0
11
69.544126
21
-1.659998
31
0
39
0
210
0
220
0
230
1
0
LINE
5
111
100
AcDbEntity
8
1
62
256
6
ByLayer
370
18
48
1
60
1
100
AcDbLine
10
69.544126
20
-1.659998
30
0
11
69.083343
21
-5.16
31
0
39
0
210
0
220
0
230
1
0
MTEXT
5
FB
100
AcDbEntity
8
SK6
62
256
6
ByLayer
370
13
48
1
60
0
100
AcDbMText
10
-20.474126
20
37.700328
30
0
210
0
220
0
230
1
1
\W0.7074;860.1-1032-032A1-SM 1210
40
3.5
41
0
44
1.084337
50
0
71
7
72
5
7
iso_b_vert
0
MTEXT
5
FF
100
AcDbEntity
8
SK2
62
256
6
ByLayer
370
18
48
1
60
0
100
AcDbMText
10
-55.189796
20
19.409024
30
0
210
0
220
0
230
1
1
%%c
40
3.5
41
0
44
1.084337
50
90
71
7
72
5
7
iso_b_vert
0
MTEXT
5
100
100
AcDbEntity
8
SK2
62
256
6
ByLayer
370
18
48
1
60
0
100
AcDbMText
10
-55.189796
20
24.63168
30
0
210
0
220
0
230
1
1
\W0.6930;12,000
40
3.5
41
0
44
1.084337
50
90
71
7
72
5
7
iso_b_vert
0
MTEXT
5
109
100
AcDbEntity
8
2
62
256
6
ByLayer
370
18
48
1
60
0
100
AcDbMText
10
67.518709
20
17.16211
30
0
210
0
220
0
230
1
1
%%c
40
3.5
41
0
44
1.084337
50
90
71
7
72
5
7
iso_b_vert
0
MTEXT
5
10A
100
AcDbEntity
8
2
62
256
6
ByLayer
370
18
48
1
60
0
100
AcDbMText
10
67.518709
20
22.384766
30
0
210
0
220
0
230
1
1
\W0.6930;10,320
40
3.5
41
0
44
1.084337
50
90
71
7
72
5
7
iso_b_vert
0
HATCH
5
104
100
AcDbEntity
8
SK2
62
256
6
ByLayer
370
13
48
1
60
0
100
AcDbHatch
10
0
20
0
30
0
210
0
220
0
230
1
2
ANSI31
70
0
71
0
91
1
92
5
93
3
72
1
10
-53.6251625675374
20
6
11
-53.1643788259847
21
2.50000169255318
72
1
10
-53.1643788259847
20
2.50000169255318
11
-54.0859463090902
21
2.49999830744682
72
1
10
-54.0859463090902
20
2.49999830744682
11
-53.6251625675374
21
6
97
0
75
0
76
1
52
0
41
0.0062
77
0
78
1
53
45
43
0
44
0
45
-0.0139193969876572
46
0.0139193969876572
79
0
47
0
98
1
10
0
20
0
0
HATCH
5
108
100
AcDbEntity
8
SK2
62
256
6
ByLayer
370
13
48
1
60
0
100
AcDbHatch
10
0
20
0
30
0
210
0
220
0
230
1
2
ANSI31
70
0
71
0
91
1
92
5
93
3
72
1
10
-53.6251625675374
20
-6
11
-54.0859463090902
21
-2.50000169255318
72
1
10
-54.0859463090902
20
-2.50000169255318
11
-53.1643788259847
21
-2.49999830744682
72
1
10
-53.1643788259847
20
-2.49999830744682
11
-53.6251625675374
21
-6
97
0
75
0
76
1
52
0
41
0.0062
77
0
78
1
53
45
43
0
44
0
45
-0.0139193969876572
46
0.0139193969876572
79
0
47
0
98
1
10
0
20
0
0
HATCH
5
10E
100
AcDbEntity
8
2
62
256
6
ByLayer
370
13
48
1
60
0
100
AcDbHatch
10
0
20
0
30
0
210
0
220
0
230
1
2
ANSI31
70
0
71
0
91
1
92
5
93
3
72
1
10
69.083342615295
20
5.16
11
69.5441263568477
21
1.66000169255318
72
1
10
69.5441263568477
20
1.66000169255318
11
68.6225588737422
21
1.65999830744681
72
1
10
68.6225588737422
20
1.65999830744681
11
69.083342615295
21
5.16
97
0
75
0
76
1
52
0
41
0.0062
77
0
78
1
53
45
43
0
44
0
45
-0.0139193969876572
46
0.0139193969876572
79
0
47
0
98
1
10
0
20
0
0
HATCH
5
112
100
AcDbEntity
8
2
62
256
6
ByLayer
370
13
48
1
60
0
100
AcDbHatch
10
0
20
0
30
0
210
0
220
0
230
1
2
ANSI31
70
0
71
0
91
1
92
5
93
3
72
1
10
69.083342615295
20
-5.16
11
68.6225588737422
21
-1.66000169255318
72
1
10
68.6225588737422
20
-1.66000169255318
11
69.5441263568477
21
-1.65999830744681
72
1
10
69.5441263568477
20
-1.65999830744681
11
69.083342615295
21
-5.16
97
0
75
0
76
1
52
0
41
0.0062
77
0
78
1
53
45
43
0
44
0
45
-0.0139193969876572
46
0.0139193969876572
79
0
47
0
98
1
10
0
20
0
0
DIMENSION
5
114
100
AcDbEntity
8
SK2
62
256
6
ByLayer
370
13
48
1
60
0
100
AcDbDimension
2
_U0
10
55.1
20
-15.373398
30
0
11
27.55
21
-15.373398
31
0
70
32
71
1
72
1
41
1
210
0
220
0
230
1
3
Standard
100
AcDbAlignedDimension
13
0
23
0
33
0
14
55.1
24
-5.16
34
0
50
0
100
AcDbRotatedDimension
1001
ACAD
1000
DSTYLE
1002
{
1070
   371
1070
    13
1070
   372
1070
    13
1070
   170
1070
     0
1070
   144
1040
1.0
1070
   277
1070
     2
1070
   278
1070
    44
1070
   146
1040
1.0
1070
   345
1005
16
1070
   347
1005
16
1070
   346
1005
16
1070
   344
1005
0
1070
   343
1005
0
1070
   172
1070
     1
1070
    76
1070
     0
1070
    75
1070
     0
1070
   282
1070
     0
1070
   281
1070
     0
1070
    71
1070
     0
1070
    74
1070
     0
1070
   279
1070
     0
1070
   173
1070
     1
1070
   340
1005
FC
1070
   271
1070
     2
1070
   272
1070
     2
1070
    77
1070
     1
1070
    73
1070
     1
1070
   171
1070
     3
1070
   274
1070
     4
1070
   177
1070
    35
1070
   176
1070
    35
1070
   178
1070
    35
1070
    48
1040
-0.1
1070
    41
1040
3.5
1070
   147
1040
1.75
1070
    42
1040
1.5875
1070
    44
1040
2.0
1070
   140
1040
3.5
1002
}
1001
ACAD_DSTYLE_DIM_LINETYPE
1070
   380
1005
16
1001
ACAD_DSTYLE_DIM_EXT1_LINETYPE
1070
   381
1005
16
1001
ACAD_DSTYLE_DIM_EXT2_LINETYPE
1070
   382
1005
16
0
DIMENSION
5
12D
100
AcDbEntity
8
SK2
62
256
6
ByLayer
370
13
48
1
60
0
100
AcDbDimension
2
_U1
10
57
20
-34.692985
30
0
11
6
21
-34.692985
31
0
70
32
71
1
72
1
41
1
210
0
220
0
230
1
3
Standard
100
AcDbAlignedDimension
13
-45
23
-6
33
0
14
57
24
0
34
0
50
0
100
AcDbRotatedDimension
1001
ACAD
1000
DSTYLE
1002
{
1070
   371
1070
    13
1070
   372
1070
    13
1070
   170
1070
     0
1070
   144
1040
1.0
1070
   277
1070
     2
1070
   278
1070
    44
1070
   146
1040
1.0
1070
   345
1005
16
1070
   347
1005
16
1070
   346
1005
16
1070
   344
1005
0
1070
   343
1005
0
1070
   172
1070
     1
1070
    76
1070
     0
1070
    75
1070
     0
1070
   282
1070
     0
1070
   281
1070
     0
1070
    71
1070
     0
1070
    74
1070
     0
1070
   279
1070
     0
1070
   173
1070
     1
1070
   340
1005
FC
1070
   271
1070
     2
1070
   272
1070
     2
1070
    77
1070
     1
1070
    73
1070
     1
1070
   171
1070
     3
1070
   274
1070
     4
1070
   177
1070
    35
1070
   176
1070
    35
1070
   178
1070
    35
1070
    48
1040
-0.1
1070
    41
1040
3.5
1070
   147
1040
1.75
1070
    42
1040
1.5875
1070
    44
1040
2.0
1070
   140
1040
3.5
1002
}
1001
ACAD_DSTYLE_DIM_LINETYPE
1070
   380
1005
16
1001
ACAD_DSTYLE_DIM_EXT1_LINETYPE
1070
   381
1005
16
1001
ACAD_DSTYLE_DIM_EXT2_LINETYPE
1070
   382
1005
16
0
DIMENSION
5
145
100
AcDbEntity
8
SK2
62
256
6
ByLayer
370
13
48
1
60
0
100
AcDbDimension
2
_U2
10
57
20
16.769119
30
0
11
37.8843
21
16.769119
31
0
70
32
71
1
72
1
41
1
210
0
220
0
230
1
3
Standard
100
AcDbAlignedDimension
13
18.7686
23
5.16
33
0
14
57
24
0
34
0
50
0
100
AcDbRotatedDimension
1001
ACAD
1000
DSTYLE
1002
{
1070
   371
1070
    13
1070
   372
1070
    13
1070
   170
1070
     0
1070
   144
1040
1.0
1070
   277
1070
     2
1070
   278
1070
    44
1070
   146
1040
1.0
1070
   345
1005
16
1070
   347
1005
16
1070
   346
1005
16
1070
   344
1005
0
1070
   343
1005
0
1070
   172
1070
     1
1070
    76
1070
     0
1070
    75
1070
     0
1070
   282
1070
     0
1070
   281
1070
     0
1070
    71
1070
     0
1070
    74
1070
     0
1070
   279
1070
     0
1070
   173
1070
     1
1070
   340
1005
FC
1070
   271
1070
     2
1070
   272
1070
     2
1070
    77
1070
     1
1070
    73
1070
     1
1070
   171
1070
     3
1070
   274
1070
     4
1070
   177
1070
    35
1070
   176
1070
    35
1070
   178
1070
    35
1070
    48
1040
-0.1
1070
    41
1040
3.5
1070
   147
1040
1.75
1070
    42
1040
1.5875
1070
    44
1040
2.0
1070
   140
1040
3.5
1002
}
1001
ACAD_DSTYLE_DIM_LINETYPE
1070
   380
1005
16
1001
ACAD_DSTYLE_DIM_EXT1_LINETYPE
1070
   381
1005
16
1001
ACAD_DSTYLE_DIM_EXT2_LINETYPE
1070
   382
1005
16
0
DIMENSION
5
15D
100
AcDbEntity
8
SK2
62
256
6
ByLayer
370
13
48
1
60
0
100
AcDbDimension
2
_U3
10
55.1
20
-17.962503
30
0
11
74.333333
21
-17.962503
31
0
70
32
71
1
72
1
41
1
210
0
220
0
230
1
3
Standard
100
AcDbAlignedDimension
13
57
23
0
33
0
14
55.1
24
-5.16
34
0
50
0
100
AcDbRotatedDimension
1001
ACAD
1000
DSTYLE
1002
{
1070
   371
1070
    13
1070
   372
1070
    13
1070
   170
1070
     0
1070
   144
1040
1.0
1070
   277
1070
     2
1070
   278
1070
    44
1070
   146
1040
1.0
1070
   345
1005
16
1070
   347
1005
16
1070
   346
1005
16
1070
   344
1005
0
1070
   343
1005
0
1070
   172
1070
     1
1070
    76
1070
     0
1070
    75
1070
     0
1070
   282
1070
     0
1070
   281
1070
     0
1070
    71
1070
     0
1070
    74
1070
     0
1070
   279
1070
     0
1070
   173
1070
     1
1070
   340
1005
FC
1070
   271
1070
     2
1070
   272
1070
     2
1070
    77
1070
     1
1070
    73
1070
     1
1070
   171
1070
     3
1070
   274
1070
     4
1070
   177
1070
    35
1070
   176
1070
    35
1070
   178
1070
    35
1070
    48
1040
-0.1
1070
    41
1040
3.5
1070
   147
1040
1.75
1070
    42
1040
1.5875
1070
    44
1040
2.0
1070
   140
1040
3.5
1002
}
1001
ACAD_DSTYLE_DIM_LINETYPE
1070
   380
1005
16
1001
ACAD_DSTYLE_DIM_EXT1_LINETYPE
1070
   381
1005
16
1001
ACAD_DSTYLE_DIM_EXT2_LINETYPE
1070
   382
1005
16
0
DIMENSION
5
177
100
AcDbEntity
8
SK2
62
256
6
ByLayer
370
13
48
1
60
0
100
AcDbDimension
2
_U4
10
55.1
20
-24.343428
30
0
11
5.05
21
-24.343428
31
0
70
32
71
1
72
1
41
1
210
0
220
0
230
1
3
Standard
100
AcDbAlignedDimension
13
-45
23
-6
33
0
14
55.1
24
-5.16
34
0
50
0
100
AcDbRotatedDimension
1001
ACAD
1000
DSTYLE
1002
{
1070
   371
1070
    13
1070
   372
1070
    13
1070
   170
1070
     0
1070
   144
1040
1.0
1070
   277
1070
     2
1070
   278
1070
    44
1070
   146
1040
1.0
1070
   345
1005
16
1070
   347
1005
16
1070
   346
1005
16
1070
   344
1005
0
1070
   343
1005
0
1070
   172
1070
     1
1070
    76
1070
     0
1070
    75
1070
     0
1070
   282
1070
     0
1070
   281
1070
     0
1070
    71
1070
     0
1070
    74
1070
     0
1070
   279
1070
     0
1070
   173
1070
     1
1070
   340
1005
FC
1070
   271
1070
     2
1070
   272
1070
     2
1070
    77
1070
     1
1070
    73
1070
     1
1070
   171
1070
     3
1070
   274
1070
     4
1070
   177
1070
    35
1070
   176
1070
    35
1070
   178
1070
    35
1070
    48
1040
-0.1
1070
    41
1040
3.5
1070
   147
1040
1.75
1070
    42
1040
1.5875
1070
    44
1040
2.0
1070
   140
1040
3.5
1002
}
1001
ACAD_DSTYLE_DIM_LINETYPE
1070
   380
1005
16
1001
ACAD_DSTYLE_DIM_EXT1_LINETYPE
1070
   381
1005
16
1001
ACAD_DSTYLE_DIM_EXT2_LINETYPE
1070
   382
1005
16
0
ENDSEC
0
SECTION
2
OBJECTS
0
DICTIONARY
5
1ff
330
0
100
AcDbDictionary
280
0
281
1
3
ACAD_GROUP
350
200
3
ACAD_MLINESTYLE
350
201
0
DICTIONARY
5
200
330
0
100
AcDbDictionary
280
0
281
1
0
DICTIONARY
5
201
330
0
100
AcDbDictionary
280
0
281
1
3
Standard
350
18
0
MLINESTYLE
5
18
330
201
100
AcDbMlineStyle
2
Standard
70
0
3

62
256
51
90
52
90
71
2
49
-0.5
62
256
6
ByLayer
49
0.5
62
256
6
ByLayer
0
RASTERVARIABLES
5
1ed
330

100
AcDbRasterVariables
90
0
70
1
71
1
72
1
0
ENDSEC
0
EOF
