0
SECTION
2
HEADER
9
$ACADVER
1
AC1015
9
$DWGCODEPAGE
3
ANSI_1252
9
$HANDSEED
5
20b
9
$ANGBASE
50
0
9
$ANGDIR
70
0
9
$ATTMODE
70
1
9
$AUNITS
70
0
9
$AUPREC
70
0
9
$CECOLOR
62
256
9
$CELTSCALE
40
1
9
$CELTYPE
6
ByLayer
9
$CELWEIGHT
370
18
9
$CLAYER
8
0
9
$CMLJUST
70
0
9
$CMLSCALE
40
1
9
$CMLSTYLE
2
Standard
9
$DIMSTYLE
2
Standard
9
$TEXTSIZE
40
0.2
9
$TEXTSTYLE
7
Standard
9
$LUNITS
70
2
9
$LUPREC
70
4
9
$EXTNAMES
290
1
9
$INSUNITS
70
4
9
$LTSCALE
40
1
9
$LWDISPLAY
290
1
9
$PDMODE
70
0
9
$PDSIZE
40
0
9
$PLINEGEN
70
0
0
ENDSEC
0
SECTION
2
CLASSES
0
CLASS
1
RASTERVARIABLES
2
AcDbRasterVariables
3
ISM
90
0
280
0
281
0
0
ENDSEC
0
SECTION
2
TABLES
0
TABLE
2
VPORT
5
201
100
AcDbSymbolTable
0
VPORT
5
1
100
AcDbSymbolTableRecord
100
AcDbViewportTableRecord
2
*Active
70
0
10
0
20
0
11
1
21
1
12
-1
22
1
13
0
23
0
14
0.5
24
0.5
15
10
25
10
16
0
26
0
36
1
17
0
27
0
37
0
0
ENDTAB
0
TABLE
2
LTYPE
5
202
100
AcDbSymbolTable
0
LTYPE
5
14
100
AcDbSymbolTableRecord
100
AcDbLinetypeTableRecord
70
0
2
ByBlock
3

72
65
73
0
40
0
0
LTYPE
5
15
100
AcDbSymbolTableRecord
100
AcDbLinetypeTableRecord
70
0
2
ByLayer
3

72
65
73
0
40
0
0
LTYPE
5
16
100
AcDbSymbolTableRecord
100
AcDbLinetypeTableRecord
70
0
2
Continuous
3
Solid line
72
65
73
0
40
0
0
LTYPE
5
6E
100
AcDbSymbolTableRecord
100
AcDbLinetypeTableRecord
70
0
2
CENTER
3
____ _ ____ _ ____ _ ____
72
65
73
4
40
47.5
49
22
74
0
49
-8.5
74
0
49
8.5
74
0
49
-8.5
74
0
0
LTYPE
5
6F
100
AcDbSymbolTableRecord
100
AcDbLinetypeTableRecord
70
0
2
DASHED
3
__ __ __ __ __ __ __ __ __
72
65
73
2
40
25.72
49
12.86
74
0
49
-12.86
74
0
0
ENDTAB
0
TABLE
2
LAYER
5
203
100
AcDbSymbolTable
0
LAYER
5
10
100
AcDbSymbolTableRecord
100
AcDbLayerTableRecord
2
0
70
0
62
7
6
Continuous
290
1
370
-3
390
0
0
LAYER
5
71
100
AcDbSymbolTableRecord
100
AcDbLayerTableRecord
2
80
70
0
62
-6
6
Continuous
290
1
370
-3
390
0
0
LAYER
5
73
100
AcDbSymbolTableRecord
100
AcDbLayerTableRecord
2
81
70
0
62
-3
6
Continuous
290
1
370
-3
390
0
0
LAYER
5
75
100
AcDbSymbolTableRecord
100
AcDbLayerTableRecord
2
1
70
0
62
4
6
Continuous
290
1
370
-3
390
0
0
LAYER
5
95
100
AcDbSymbolTableRecord
100
AcDbLayerTableRecord
2
4
70
0
62
-2
6
CENTER
290
1
370
-3
390
0
0
LAYER
5
AC
100
AcDbSymbolTableRecord
100
AcDbLayerTableRecord
2
2
70
0
62
7
6
Continuous
290
1
370
-3
390
0
0
LAYER
5
116
100
AcDbSymbolTableRecord
100
AcDbLayerTableRecord
2
Defpoints
70
0
62
7
6
Continuous
290
0
370
-3
390
0
0
LAYER
5
1ed
100
AcDbSymbolTableRecord
100
AcDbLayerTableRecord
2
SK1
70
0
62
4
6
Continuous
290
1
370
-3
390
0
0
LAYER
5
1ee
100
AcDbSymbolTableRecord
100
AcDbLayerTableRecord
2
SK4
70
0
62
2
6
CENTER
290
1
370
-3
390
0
0
LAYER
5
1ef
100
AcDbSymbolTableRecord
100
AcDbLayerTableRecord
2
SK2
70
0
62
7
6
Continuous
290
1
370
-3
390
0
0
LAYER
5
1f0
100
AcDbSymbolTableRecord
100
AcDbLayerTableRecord
2
SK6
70
0
62
5
6
Continuous
290
1
370
-3
390
0
0
ENDTAB
0
TABLE
2
STYLE
5
204
100
AcDbSymbolTable
0
STYLE
5
11
100
AcDbSymbolTableRecord
100
AcDbTextStyleTableRecord
2
Standard
3
txt
70
0
71
0
40
0
41
1
42
0
50
0
0
STYLE
5
FB
100
AcDbSymbolTableRecord
100
AcDbTextStyleTableRecord
2
iso_b_vert
3
simplex.shx
70
0
71
0
40
0
41
1
42
0
50
0
0
STYLE
5
FC
100
AcDbSymbolTableRecord
100
AcDbTextStyleTableRecord
2
DWGDirectTextStyle
3
simplex
70
0
71
0
40
0
41
1
42
0
50
0
0
ENDTAB
0
TABLE
2
DIMSTYLE
5
205
100
AcDbSymbolTable
100
AcDbDimStyleTable
0
DIMSTYLE
105
27
100
AcDbSymbolTableRecord
100
AcDbDimStyleTableRecord
2
Standard
70
0
3
<>
41
0.18
42
0.0625
44
0.18
140
0.18
147
0.09
73
0
74
0
77
1
271
2
275
0
278
52
280
0
340
11
0
ENDTAB
0
TABLE
2
VIEW
5
206
100
AcDbSymbolTable
0
ENDTAB
0
TABLE
2
UCS
5
207
100
AcDbSymbolTable
0
ENDTAB
0
TABLE
2
APPID
5
208
100
AcDbSymbolTable
0
APPID
5
12
100
AcDbSymbolTableRecord
100
AcDbRegAppTableRecord
2
ACAD
70
0
0
APPID
5
112
100
AcDbSymbolTableRecord
100
AcDbRegAppTableRecord
2
ACAD_DSTYLE_DIMBREAK
70
0
0
APPID
5
1AC
100
AcDbSymbolTableRecord
100
AcDbRegAppTableRecord
2
ACAD_DSTYLE_DIM_LINETYPE
70
0
0
APPID
5
1AD
100
AcDbSymbolTableRecord
100
AcDbRegAppTableRecord
2
ACAD_DSTYLE_DIM_EXT1_LINETYPE
70
0
0
APPID
5
1AE
100
AcDbSymbolTableRecord
100
AcDbRegAppTableRecord
2
ACAD_DSTYLE_DIM_EXT2_LINETYPE
70
0
0
APPID
5
1E9
100
AcDbSymbolTableRecord
100
AcDbRegAppTableRecord
2
ACAD_MLEADERVER
70
0
0
ENDTAB
0
TABLE
2
BLOCK_RECORD
5
209
100
AcDbSymbolTable
0
BLOCK_RECORD
5
1F
100
AcDbSymbolTableRecord
100
AcDbBlockTableRecord
2
*Model_Space
340
0
70
0
0
BLOCK_RECORD
5
1B
100
AcDbSymbolTableRecord
100
AcDbBlockTableRecord
2
*Paper_Space
340
0
70
0
0
BLOCK_RECORD
5
23
100
AcDbSymbolTableRecord
100
AcDbBlockTableRecord
2
*Paper_Space0
340
0
70
0
0
BLOCK_RECORD
5
117
100
AcDbSymbolTableRecord
100
AcDbBlockTableRecord
2
*D1
340
0
70
0
0
BLOCK_RECORD
5
123
100
AcDbSymbolTableRecord
100
AcDbBlockTableRecord
2
_U0
340
0
70
0
0
BLOCK_RECORD
5
12F
100
AcDbSymbolTableRecord
100
AcDbBlockTableRecord
2
*D3
340
0
70
0
0
BLOCK_RECORD
5
13B
100
AcDbSymbolTableRecord
100
AcDbBlockTableRecord
2
_U1
340
0
70
0
0
BLOCK_RECORD
5
147
100
AcDbSymbolTableRecord
100
AcDbBlockTableRecord
2
*D5
340
0
70
0
0
BLOCK_RECORD
5
153
100
AcDbSymbolTableRecord
100
AcDbBlockTableRecord
2
_U2
340
0
70
0
0
BLOCK_RECORD
5
15F
100
AcDbSymbolTableRecord
100
AcDbBlockTableRecord
2
*D7
340
0
70
0
0
BLOCK_RECORD
5
16D
100
AcDbSymbolTableRecord
100
AcDbBlockTableRecord
2
_U3
340
0
70
0
0
BLOCK_RECORD
5
179
100
AcDbSymbolTableRecord
100
AcDbBlockTableRecord
2
*D9
340
0
70
0
0
BLOCK_RECORD
5
185
100
AcDbSymbolTableRecord
100
AcDbBlockTableRecord
2
_U4
340
0
70
0
0
ENDTAB
0
ENDSEC
0
SECTION
2
BLOCKS
0
BLOCK
5
20
100
AcDbEntity
8
0
100
AcDbBlockBegin
2
*Model_Space
70
0
10
0
20
0
30
0
3
*Model_Space
0
ENDBLK
5
21
100
AcDbEntity
8
0
100
AcDbBlockEnd
0
BLOCK
5
1C
100
AcDbEntity
8
0
100
AcDbBlockBegin
2
*Paper_Space
70
0
10
0
20
0
30
0
3
*Paper_Space
0
ENDBLK
5
1D
100
AcDbEntity
8
0
100
AcDbBlockEnd
0
BLOCK
5
24
100
AcDbEntity
8
0
100
AcDbBlockBegin
2
*Paper_Space0
70
0
10
0
20
0
30
0
3
*Paper_Space0
0
ENDBLK
5
25
100
AcDbEntity
8
0
100
AcDbBlockEnd
0
BLOCK
5
118
100
AcDbEntity
8
0
100
AcDbBlockBegin
2
*D1
70
1
10
0
20
0
30
0
3
*D1
0
LINE
5
11A
100
AcDbEntity
8
0
62
256
6
ByLayer
370
-2
48
1
60
0
100
AcDbLine
10
0
20
-1.5875
30
0
11
0
21
-16.978398
31
0
39
0
210
0
220
0
230
1
0
LINE
5
11B
100
AcDbEntity
8
0
62
256
6
ByLayer
370
-2
48
1
60
0
100
AcDbLine
10
47.3
20
-6.3525
30
0
11
47.3
21
-16.978398
31
0
39
0
210
0
220
0
230
1
0
LINE
5
11C
100
AcDbEntity
8
0
62
256
6
ByLayer
370
-2
48
1
60
0
100
AcDbLine
10
3.5
20
-14.978398
30
0
11
43.8
21
-14.978398
31
0
39
0
210
0
220
0
230
1
0
SOLID
5
11D
100
AcDbEntity
8
0
62
256
6
ByLayer
370
-1
48
1
60
0
100
AcDbTrace
10
3.5
20
-14.395065
30
0
11
3.5
21
-15.561732
31
0
12
0
22
-14.978398
32
0
13
0
23
-14.978398
33
0
39
0
210
0
220
0
230
1
0
SOLID
5
11E
100
AcDbEntity
8
0
62
256
6
ByLayer
370
-1
48
1
60
0
100
AcDbTrace
10
43.8
20
-15.561732
30
0
11
43.8
21
-14.395065
31
0
12
47.3
22
-14.978398
32
0
13
47.3
23
-14.978398
33
0
39
0
210
0
220
0
230
1
0
MTEXT
5
11F
100
AcDbEntity
8
0
62
256
6
ByLayer
370
18
48
1
60
0
100
AcDbMText
10
23.65
20
-7.978398
30
0
210
0
220
0
230
1
1
\A1;47.30
40
3.5
41
0
44
1
50
0
71
5
72
5
7
iso_b_vert
0
POINT
5
120
100
AcDbEntity
8
Defpoints
62
0
6
ByLayer
370
-1
48
1
60
0
100
AcDbPoint
10
0
20
0
30
0
39
0
210
0
220
0
230
1
50
360
0
POINT
5
121
100
AcDbEntity
8
Defpoints
62
0
6
ByLayer
370
-1
48
1
60
0
100
AcDbPoint
10
47.3
20
-4.765
30
0
39
0
210
0
220
0
230
1
50
360
0
POINT
5
122
100
AcDbEntity
8
Defpoints
62
0
6
ByLayer
370
-1
48
1
60
0
100
AcDbPoint
10
47.3
20
-14.978398
30
0
39
0
210
0
220
0
230
1
50
360
0
ENDBLK
5
119
100
AcDbEntity
8
0
100
AcDbBlockEnd
0
BLOCK
5
12A
100
AcDbEntity
8
0
100
AcDbBlockBegin
2
_U0
70
0
10
0
20
0
30
0
3
_U0
0
MTEXT
5
124
100
AcDbEntity
8
SK2
62
256
6
ByLayer
370
13
48
1
60
0
100
AcDbMText
10
18.328435
20
-13.945765
30
0
210
0
220
0
230
1
1
\W0.7581;47,30
40
3.5
41
0
44
1.084337
50
0
71
7
72
5
7
iso_b_vert
0
LINE
5
125
100
AcDbEntity
8
SK2
62
256
6
ByLayer
370
13
48
1
60
0
100
AcDbLine
10
0
20
-1.5875
30
0
11
0
21
-16.978398
31
0
39
0
210
0
220
0
230
1
0
LINE
5
126
100
AcDbEntity
8
SK2
62
256
6
ByLayer
370
13
48
1
60
0
100
AcDbLine
10
47.3
20
-6.3525
30
0
11
47.3
21
-16.978398
31
0
39
0
210
0
220
0
230
1
0
LINE
5
127
100
AcDbEntity
8
SK2
62
256
6
ByLayer
370
13
48
1
60
0
100
AcDbLine
10
0
20
-14.978398
30
0
11
47.3
21
-14.978398
31
0
39
0
210
0
220
0
230
1
0
SOLID
5
128
100
AcDbEntity
8
SK2
62
256
6
ByLayer
370
18
48
1
60
0
100
AcDbTrace
10
0
20
-14.978398
30
0
11
3.499998
21
-14.517615
31
0
12
3.500002
22
-15.439182
32
0
13
3.500002
23
-15.439182
33
0
39
0
210
0
220
0
230
1
0
SOLID
5
129
100
AcDbEntity
8
SK2
62
256
6
ByLayer
370
18
48
1
60
0
100
AcDbTrace
10
47.3
20
-14.978398
30
0
11
43.800002
21
-15.439182
31
0
12
43.799998
22
-14.517615
32
0
13
43.799998
23
-14.517615
33
0
39
0
210
0
220
0
230
1
0
ENDBLK
5
12B
100
AcDbEntity
8
0
100
AcDbBlockEnd
0
BLOCK
5
130
100
AcDbEntity
8
0
100
AcDbBlockBegin
2
*D3
70
1
10
0
20
0
30
0
3
*D3
0
LINE
5
132
100
AcDbEntity
8
0
62
256
6
ByLayer
370
-2
48
1
60
0
100
AcDbLine
10
-40
20
-6.5875
30
0
11
-40
21
-35.692985
31
0
39
0
210
0
220
0
230
1
0
LINE
5
133
100
AcDbEntity
8
0
62
256
6
ByLayer
370
-2
48
1
60
0
100
AcDbLine
10
49
20
-1.5875
30
0
11
49
21
-35.692985
31
0
39
0
210
0
220
0
230
1
0
LINE
5
134
100
AcDbEntity
8
0
62
256
6
ByLayer
370
-2
48
1
60
0
100
AcDbLine
10
-36.5
20
-33.692985
30
0
11
45.5
21
-33.692985
31
0
39
0
210
0
220
0
230
1
0
SOLID
5
135
100
AcDbEntity
8
0
62
256
6
ByLayer
370
-1
48
1
60
0
100
AcDbTrace
10
-36.5
20
-33.109652
30
0
11
-36.5
21
-34.276319
31
0
12
-40
22
-33.692985
32
0
13
-40
23
-33.692985
33
0
39
0
210
0
220
0
230
1
0
SOLID
5
136
100
AcDbEntity
8
0
62
256
6
ByLayer
370
-1
48
1
60
0
100
AcDbTrace
10
45.5
20
-34.276319
30
0
11
45.5
21
-33.109652
31
0
12
49
22
-33.692985
32
0
13
49
23
-33.692985
33
0
39
0
210
0
220
0
230
1
0
MTEXT
5
137
100
AcDbEntity
8
0
62
256
6
ByLayer
370
18
48
1
60
0
100
AcDbMText
10
4.5
20
-26.692985
30
0
210
0
220
0
230
1
1
\A1;89.00
40
3.5
41
0
44
1
50
0
71
5
72
5
7
iso_b_vert
0
POINT
5
138
100
AcDbEntity
8
Defpoints
62
0
6
ByLayer
370
-1
48
1
60
0
100
AcDbPoint
10
-40
20
-5
30
0
39
0
210
0
220
0
230
1
50
360
0
POINT
5
139
100
AcDbEntity
8
Defpoints
62
0
6
ByLayer
370
-1
48
1
60
0
100
AcDbPoint
10
49
20
0
30
0
39
0
210
0
220
0
230
1
50
360
0
POINT
5
13A
100
AcDbEntity
8
Defpoints
62
0
6
ByLayer
370
-1
48
1
60
0
100
AcDbPoint
10
49
20
-33.692985
30
0
39
0
210
0
220
0
230
1
50
360
0
ENDBLK
5
131
100
AcDbEntity
8
0
100
AcDbBlockEnd
0
BLOCK
5
142
100
AcDbEntity
8
0
100
AcDbBlockBegin
2
_U1
70
0
10
0
20
0
30
0
3
_U1
0
MTEXT
5
13C
100
AcDbEntity
8
SK2
62
256
6
ByLayer
370
13
48
1
60
0
100
AcDbMText
10
-0.637299
20
-32.660352
30
0
210
0
220
0
230
1
1
\W0.7317;89,00
40
3.5
41
0
44
1.084337
50
0
71
7
72
5
7
iso_b_vert
0
LINE
5
13D
100
AcDbEntity
8
SK2
62
256
6
ByLayer
370
13
48
1
60
0
100
AcDbLine
10
-40
20
-6.5875
30
0
11
-40
21
-35.692985
31
0
39
0
210
0
220
0
230
1
0
LINE
5
13E
100
AcDbEntity
8
SK2
62
256
6
ByLayer
370
13
48
1
60
0
100
AcDbLine
10
49
20
-1.5875
30
0
11
49
21
-35.692985
31
0
39
0
210
0
220
0
230
1
0
LINE
5
13F
100
AcDbEntity
8
SK2
62
256
6
ByLayer
370
13
48
1
60
0
100
AcDbLine
10
-40
20
-33.692985
30
0
11
49
21
-33.692985
31
0
39
0
210
0
220
0
230
1
0
SOLID
5
140
100
AcDbEntity
8
SK2
62
256
6
ByLayer
370
18
48
1
60
0
100
AcDbTrace
10
-40
20
-33.692985
30
0
11
-36.500002
21
-33.232202
31
0
12
-36.499998
22
-34.153769
32
0
13
-36.499998
23
-34.153769
33
0
39
0
210
0
220
0
230
1
0
SOLID
5
141
100
AcDbEntity
8
SK2
62
256
6
ByLayer
370
18
48
1
60
0
100
AcDbTrace
10
49
20
-33.692985
30
0
11
45.500002
21
-34.153769
31
0
12
45.499998
22
-33.232202
32
0
13
45.499998
23
-33.232202
33
0
39
0
210
0
220
0
230
1
0
ENDBLK
5
143
100
AcDbEntity
8
0
100
AcDbBlockEnd
0
BLOCK
5
148
100
AcDbEntity
8
0
100
AcDbBlockBegin
2
*D5
70
1
10
0
20
0
30
0
3
*D5
0
LINE
5
14A
100
AcDbEntity
8
0
62
256
6
ByLayer
370
-2
48
1
60
0
100
AcDbLine
10
16.6569
20
6.3525
30
0
11
16.6569
21
18.374119
31
0
39
0
210
0
220
0
230
1
0
LINE
5
14B
100
AcDbEntity
8
0
62
256
6
ByLayer
370
-2
48
1
60
0
100
AcDbLine
10
49
20
1.5875
30
0
11
49
21
18.374119
31
0
39
0
210
0
220
0
230
1
0
LINE
5
14C
100
AcDbEntity
8
0
62
256
6
ByLayer
370
-2
48
1
60
0
100
AcDbLine
10
20.1569
20
16.374119
30
0
11
45.5
21
16.374119
31
0
39
0
210
0
220
0
230
1
0
SOLID
5
14D
100
AcDbEntity
8
0
62
256
6
ByLayer
370
-1
48
1
60
0
100
AcDbTrace
10
20.1569
20
16.957453
30
0
11
20.1569
21
15.790786
31
0
12
16.6569
22
16.374119
32
0
13
16.6569
23
16.374119
33
0
39
0
210
0
220
0
230
1
0
SOLID
5
14E
100
AcDbEntity
8
0
62
256
6
ByLayer
370
-1
48
1
60
0
100
AcDbTrace
10
45.5
20
15.790786
30
0
11
45.5
21
16.957453
31
0
12
49
22
16.374119
32
0
13
49
23
16.374119
33
0
39
0
210
0
220
0
230
1
0
MTEXT
5
14F
100
AcDbEntity
8
0
62
256
6
ByLayer
370
18
48
1
60
0
100
AcDbMText
10
32.82845
20
23.374119
30
0
210
0
220
0
230
1
1
\A1;32.34
40
3.5
41
0
44
1
50
0
71
5
72
5
7
iso_b_vert
0
POINT
5
150
100
AcDbEntity
8
Defpoints
62
0
6
ByLayer
370
-1
48
1
60
0
100
AcDbPoint
10
16.6569
20
4.765
30
0
39
0
210
0
220
0
230
1
50
360
0
POINT
5
151
100
AcDbEntity
8
Defpoints
62
0
6
ByLayer
370
-1
48
1
60
0
100
AcDbPoint
10
49
20
0
30
0
39
0
210
0
220
0
230
1
50
360
0
POINT
5
152
100
AcDbEntity
8
Defpoints
62
0
6
ByLayer
370
-1
48
1
60
0
100
AcDbPoint
10
49
20
16.374119
30
0
39
0
210
0
220
0
230
1
50
360
0
ENDBLK
5
149
100
AcDbEntity
8
0
100
AcDbBlockEnd
0
BLOCK
5
15A
100
AcDbEntity
8
0
100
AcDbBlockBegin
2
_U2
70
0
10
0
20
0
30
0
3
_U2
0
MTEXT
5
154
100
AcDbEntity
8
SK2
62
256
6
ByLayer
370
13
48
1
60
0
100
AcDbMText
10
27.506885
20
17.406753
30
0
210
0
220
0
230
1
1
\W0.7495;32,34
40
3.5
41
0
44
1.084337
50
0
71
7
72
5
7
iso_b_vert
0
LINE
5
155
100
AcDbEntity
8
SK2
62
256
6
ByLayer
370
13
48
1
60
0
100
AcDbLine
10
16.6569
20
6.3525
30
0
11
16.6569
21
18.374119
31
0
39
0
210
0
220
0
230
1
0
LINE
5
156
100
AcDbEntity
8
SK2
62
256
6
ByLayer
370
13
48
1
60
0
100
AcDbLine
10
49
20
1.5875
30
0
11
49
21
18.374119
31
0
39
0
210
0
220
0
230
1
0
LINE
5
157
100
AcDbEntity
8
SK2
62
256
6
ByLayer
370
13
48
1
60
0
100
AcDbLine
10
16.6569
20
16.374119
30
0
11
49
21
16.374119
31
0
39
0
210
0
220
0
230
1
0
SOLID
5
158
100
AcDbEntity
8
SK2
62
256
6
ByLayer
370
18
48
1
60
0
100
AcDbTrace
10
16.6569
20
16.374119
30
0
11
20.156898
21
16.834903
31
0
12
20.156902
22
15.913335
32
0
13
20.156902
23
15.913335
33
0
39
0
210
0
220
0
230
1
0
SOLID
5
159
100
AcDbEntity
8
SK2
62
256
6
ByLayer
370
18
48
1
60
0
100
AcDbTrace
10
49
20
16.374119
30
0
11
45.500002
21
15.913335
31
0
12
45.499998
22
16.834903
32
0
13
45.499998
23
16.834903
33
0
39
0
210
0
220
0
230
1
0
ENDBLK
5
15B
100
AcDbEntity
8
0
100
AcDbBlockEnd
0
BLOCK
5
160
100
AcDbEntity
8
0
100
AcDbBlockBegin
2
*D7
70
1
10
0
20
0
30
0
3
*D7
0
LINE
5
162
100
AcDbEntity
8
0
62
256
6
ByLayer
370
-2
48
1
60
0
100
AcDbLine
10
49
20
-1.5875
30
0
11
49
21
-19.567503
31
0
39
0
210
0
220
0
230
1
0
LINE
5
163
100
AcDbEntity
8
0
62
256
6
ByLayer
370
-2
48
1
60
0
100
AcDbLine
10
47.3
20
-6.3525
30
0
11
47.3
21
-19.567503
31
0
39
0
210
0
220
0
230
1
0
LINE
5
164
100
AcDbEntity
8
0
62
256
6
ByLayer
370
-2
48
1
60
0
100
AcDbLine
10
49
20
-17.567503
30
0
11
76.666667
21
-17.567503
31
0
39
0
210
0
220
0
230
1
0
LINE
5
165
100
AcDbEntity
8
0
62
256
6
ByLayer
370
-2
48
1
60
0
100
AcDbLine
10
52.5
20
-17.567503
30
0
11
56
21
-17.567503
31
0
39
0
210
0
220
0
230
1
0
LINE
5
166
100
AcDbEntity
8
0
62
256
6
ByLayer
370
-2
48
1
60
0
100
AcDbLine
10
43.8
20
-17.567503
30
0
11
40.3
21
-17.567503
31
0
39
0
210
0
220
0
230
1
0
SOLID
5
167
100
AcDbEntity
8
0
62
256
6
ByLayer
370
-1
48
1
60
0
100
AcDbTrace
10
52.5
20
-16.98417
30
0
11
52.5
21
-18.150837
31
0
12
49
22
-17.567503
32
0
13
49
23
-17.567503
33
0
39
0
210
0
220
0
230
1
0
SOLID
5
168
100
AcDbEntity
8
0
62
256
6
ByLayer
370
-1
48
1
60
0
100
AcDbTrace
10
43.8
20
-18.150837
30
0
11
43.8
21
-16.98417
31
0
12
47.3
22
-17.567503
32
0
13
47.3
23
-17.567503
33
0
39
0
210
0
220
0
230
1
0
MTEXT
5
169
100
AcDbEntity
8
0
62
256
6
ByLayer
370
18
48
1
60
0
100
AcDbMText
10
66.333333
20
-10.567503
30
0
210
0
220
0
230
1
1
\A1;1.70
40
3.5
41
0
44
1
50
0
71
5
72
5
7
iso_b_vert
0
POINT
5
16A
100
AcDbEntity
8
Defpoints
62
0
6
ByLayer
370
-1
48
1
60
0
100
AcDbPoint
10
49
20
0
30
0
39
0
210
0
220
0
230
1
50
360
0
POINT
5
16B
100
AcDbEntity
8
Defpoints
62
0
6
ByLayer
370
-1
48
1
60
0
100
AcDbPoint
10
47.3
20
-4.765
30
0
39
0
210
0
220
0
230
1
50
360
0
POINT
5
16C
100
AcDbEntity
8
Defpoints
62
0
6
ByLayer
370
-1
48
1
60
0
100
AcDbPoint
10
47.3
20
-17.567503
30
0
39
0
210
0
220
0
230
1
50
360
0
ENDBLK
5
161
100
AcDbEntity
8
0
100
AcDbBlockEnd
0
BLOCK
5
174
100
AcDbEntity
8
0
100
AcDbBlockBegin
2
_U3
70
0
10
0
20
0
30
0
3
_U3
0
MTEXT
5
16E
100
AcDbEntity
8
SK2
62
256
6
ByLayer
370
13
48
1
60
0
100
AcDbMText
10
55.589293
20
-16.53487
30
0
210
0
220
0
230
1
1
\W0.6367;1,70
40
3.5
41
0
44
1.084337
50
0
71
7
72
5
7
iso_b_vert
0
LINE
5
16F
100
AcDbEntity
8
SK2
62
256
6
ByLayer
370
13
48
1
60
0
100
AcDbLine
10
49
20
-1.5875
30
0
11
49
21
-19.567503
31
0
39
0
210
0
220
0
230
1
0
LINE
5
170
100
AcDbEntity
8
SK2
62
256
6
ByLayer
370
13
48
1
60
0
100
AcDbLine
10
47.3
20
-6.3525
30
0
11
47.3
21
-19.567503
31
0
39
0
210
0
220
0
230
1
0
LINE
5
171
100
AcDbEntity
8
SK2
62
256
6
ByLayer
370
13
48
1
60
0
100
AcDbLine
10
38.55
20
-17.567503
30
0
11
62.559058
21
-17.567503
31
0
39
0
210
0
220
0
230
1
0
SOLID
5
172
100
AcDbEntity
8
SK2
62
256
6
ByLayer
370
18
48
1
60
0
100
AcDbTrace
10
49
20
-17.567503
30
0
11
52.499998
21
-17.106719
31
0
12
52.500002
22
-18.028287
32
0
13
52.500002
23
-18.028287
33
0
39
0
210
0
220
0
230
1
0
SOLID
5
173
100
AcDbEntity
8
SK2
62
256
6
ByLayer
370
18
48
1
60
0
100
AcDbTrace
10
47.3
20
-17.567503
30
0
11
43.800002
21
-18.028287
31
0
12
43.799998
22
-17.106719
32
0
13
43.799998
23
-17.106719
33
0
39
0
210
0
220
0
230
1
0
ENDBLK
5
175
100
AcDbEntity
8
0
100
AcDbBlockEnd
0
BLOCK
5
17A
100
AcDbEntity
8
0
100
AcDbBlockBegin
2
*D9
70
1
10
0
20
0
30
0
3
*D9
0
LINE
5
17C
100
AcDbEntity
8
0
62
256
6
ByLayer
370
-2
48
1
60
0
100
AcDbLine
10
-40
20
-6.5875
30
0
11
-40
21
-25.343428
31
0
39
0
210
0
220
0
230
1
0
LINE
5
17D
100
AcDbEntity
8
0
62
256
6
ByLayer
370
-2
48
1
60
0
100
AcDbLine
10
47.3
20
-6.3525
30
0
11
47.3
21
-25.343428
31
0
39
0
210
0
220
0
230
1
0
LINE
5
17E
100
AcDbEntity
8
0
62
256
6
ByLayer
370
-2
48
1
60
0
100
AcDbLine
10
-36.5
20
-23.343428
30
0
11
43.8
21
-23.343428
31
0
39
0
210
0
220
0
230
1
0
SOLID
5
17F
100
AcDbEntity
8
0
62
256
6
ByLayer
370
-1
48
1
60
0
100
AcDbTrace
10
-36.5
20
-22.760095
30
0
11
-36.5
21
-23.926762
31
0
12
-40
22
-23.343428
32
0
13
-40
23
-23.343428
33
0
39
0
210
0
220
0
230
1
0
SOLID
5
180
100
AcDbEntity
8
0
62
256
6
ByLayer
370
-1
48
1
60
0
100
AcDbTrace
10
43.8
20
-23.926762
30
0
11
43.8
21
-22.760095
31
0
12
47.3
22
-23.343428
32
0
13
47.3
23
-23.343428
33
0
39
0
210
0
220
0
230
1
0
MTEXT
5
181
100
AcDbEntity
8
0
62
256
6
ByLayer
370
18
48
1
60
0
100
AcDbMText
10
3.65
20
-16.343428
30
0
210
0
220
0
230
1
1
\A1;87.30
40
3.5
41
0
44
1
50
0
71
5
72
5
7
iso_b_vert
0
POINT
5
182
100
AcDbEntity
8
Defpoints
62
0
6
ByLayer
370
-1
48
1
60
0
100
AcDbPoint
10
-40
20
-5
30
0
39
0
210
0
220
0
230
1
50
360
0
POINT
5
183
100
AcDbEntity
8
Defpoints
62
0
6
ByLayer
370
-1
48
1
60
0
100
AcDbPoint
10
47.3
20
-4.765
30
0
39
0
210
0
220
0
230
1
50
360
0
POINT
5
184
100
AcDbEntity
8
Defpoints
62
0
6
ByLayer
370
-1
48
1
60
0
100
AcDbPoint
10
47.3
20
-23.343428
30
0
39
0
210
0
220
0
230
1
50
360
0
ENDBLK
5
17B
100
AcDbEntity
8
0
100
AcDbBlockEnd
0
BLOCK
5
18C
100
AcDbEntity
8
0
100
AcDbBlockBegin
2
_U4
70
0
10
0
20
0
30
0
3
_U4
0
MTEXT
5
186
100
AcDbEntity
8
SK2
62
256
6
ByLayer
370
13
48
1
60
0
100
AcDbMText
10
-1.487299
20
-22.310795
30
0
210
0
220
0
230
1
1
\W0.7317;87,30
40
3.5
41
0
44
1.084337
50
0
71
7
72
5
7
iso_b_vert
0
LINE
5
187
100
AcDbEntity
8
SK2
62
256
6
ByLayer
370
13
48
1
60
0
100
AcDbLine
10
-40
20
-6.5875
30
0
11
-40
21
-25.343428
31
0
39
0
210
0
220
0
230
1
0
LINE
5
188
100
AcDbEntity
8
SK2
62
256
6
ByLayer
370
13
48
1
60
0
100
AcDbLine
10
47.3
20
-6.3525
30
0
11
47.3
21
-25.343428
31
0
39
0
210
0
220
0
230
1
0
LINE
5
189
100
AcDbEntity
8
SK2
62
256
6
ByLayer
370
13
48
1
60
0
100
AcDbLine
10
-40
20
-23.343428
30
0
11
47.3
21
-23.343428
31
0
39
0
210
0
220
0
230
1
0
SOLID
5
18A
100
AcDbEntity
8
SK2
62
256
6
ByLayer
370
18
48
1
60
0
100
AcDbTrace
10
-40
20
-23.343428
30
0
11
-36.500002
21
-22.882645
31
0
12
-36.499998
22
-23.804212
32
0
13
-36.499998
23
-23.804212
33
0
39
0
210
0
220
0
230
1
0
SOLID
5
18B
100
AcDbEntity
8
SK2
62
256
6
ByLayer
370
18
48
1
60
0
100
AcDbTrace
10
47.3
20
-23.343428
30
0
11
43.800002
21
-23.804212
31
0
12
43.799998
22
-22.882645
32
0
13
43.799998
23
-22.882645
33
0
39
0
210
0
220
0
230
1
0
ENDBLK
5
18D
100
AcDbEntity
8
0
100
AcDbBlockEnd
0
ENDSEC
0
SECTION
2
ENTITIES
0
ARC
5
B5
100
AcDbEntity
8
1
62
256
6
ByLayer
370
18
48
1
60
0
100
AcDbCircle
39
0
10
0.919781
20
-5.5092
30
0
40
0.799999999999999
210
0
220
0
230
1
100
AcDbArc
50
89.931245
51
125.090026
0
ARC
5
B6
100
AcDbEntity
8
1
62
256
6
ByLayer
370
18
48
1
60
0
100
AcDbCircle
39
0
10
0.919781
20
5.5092
30
0
40
0.799999999999999
210
0
220
0
230
1
100
AcDbArc
50
234.909974
51
270.068755
0
ARC
5
B7
100
AcDbEntity
8
1
62
256
6
ByLayer
370
18
48
1
60
0
100
AcDbCircle
39
0
10
0
20
-4.2
30
0
40
0.8
210
0
220
0
230
1
100
AcDbArc
50
270
51
305.090026
0
ARC
5
B8
100
AcDbEntity
8
1
62
256
6
ByLayer
370
18
48
1
60
0
100
AcDbCircle
39
0
10
0
20
4.2
30
0
40
0.8
210
0
220
0
230
1
100
AcDbArc
50
54.909974
51
90
0
ELLIPSE
5
B9
100
AcDbEntity
8
1
62
256
6
ByLayer
370
18
48
1
60
0
100
AcDbEllipse
10
48.42163
20
1.775245
30
0
11
0.292882377410862
21
-0.799707144559002
31
0
210
0
220
0
230
1
40
0.073902
41
0.722796815539166
42
1.44413989523818
0
ELLIPSE
5
BA
100
AcDbEntity
8
1
62
256
6
ByLayer
370
18
48
1
60
0
100
AcDbEllipse
10
49.071817
20
-0.146312
30
0
11
0.107158238324041
21
-0.326150731624175
31
0
210
0
220
0
230
1
40
0.050974
41
-2.34746926255025
42
-2.14072981203873
0
ELLIPSE
5
BB
100
AcDbEntity
8
1
62
256
6
ByLayer
370
18
48
1
60
0
100
AcDbEllipse
10
39.537625
20
1.775245
30
0
11
9.14397571656892
21
-0.596547346727956
31
0
210
0
220
0
230
1
40
0.058294
41
0.0206204686278707
42
0.302489999753133
0
ELLIPSE
5
BC
100
AcDbEntity
8
1
62
256
6
ByLayer
370
18
48
1
60
0
100
AcDbEllipse
10
49.000798
20
0.002082
30
0
11
1.74517490276535
21
4.76515124338643
31
0
210
0
220
0
230
1
40
0.073902
41
-2.92788967209643
42
-2.86205218909294
0
ELLIPSE
5
BD
100
AcDbEntity
8
1
62
256
6
ByLayer
370
13
48
1
60
0
100
AcDbEllipse
10
4.250239
20
0.487391
30
0
11
0.0468686553349861
21
0.0883364542365737
31
0
210
0
220
0
230
1
40
0.050995
41
3.06538155617995
42
-1.6632346895312
0
ELLIPSE
5
BE
100
AcDbEntity
8
1
62
256
6
ByLayer
370
18
48
1
60
0
100
AcDbEllipse
10
48.42163
20
-1.775245
30
0
11
0.292882377317232
21
0.799707144340278
31
0
210
0
220
0
230
1
40
0.073902
41
-1.44413989542522
42
-0.722796815556047
0
ELLIPSE
5
BF
100
AcDbEntity
8
1
62
256
6
ByLayer
370
13
48
1
60
0
100
AcDbEllipse
10
4.179173
20
0.526768
30
0
11
-0.0503589566948274
21
-0.0863943023619527
31
0
210
0
220
0
230
1
40
0.377997
41
-1.2406676991901
42
0.0256830847940223
0
ELLIPSE
5
C0
100
AcDbEntity
8
1
62
256
6
ByLayer
370
18
48
1
60
0
100
AcDbEllipse
10
49.000798
20
-0.002082
30
0
11
1.74517494159524
21
-4.76515135590404
31
0
210
0
220
0
230
1
40
0.073902
41
2.86205219237975
42
2.92788967458576
0
ELLIPSE
5
C1
100
AcDbEntity
8
1
62
256
6
ByLayer
370
18
48
1
60
0
100
AcDbEllipse
10
49.071817
20
0.146312
30
0
11
0.1071582371343
21
0.326150728399164
31
0
210
0
220
0
230
1
40
0.050974
41
2.14072980772347
42
2.3474692597231
0
ELLIPSE
5
C2
100
AcDbEntity
8
1
62
256
6
ByLayer
370
18
48
1
60
0
100
AcDbEllipse
10
48.953098
20
-0.059155
30
0
11
0.0685673025872362
21
0.197677258981385
31
0
210
0
220
0
230
1
40
0.089621
41
-2.14968638260795
42
-1.09978876522078
0
POINT
5
70
100
AcDbEntity
8
80
62
256
6
ByLayer
370
18
48
1
60
0
100
AcDbPoint
10
0
20
0
30
0
39
0
210
0
220
0
230
1
50
360
0
POINT
5
72
100
AcDbEntity
8
81
62
256
6
ByLayer
370
18
48
1
60
0
100
AcDbPoint
10
49
20
0
30
0
39
0
210
0
220
0
230
1
50
360
0
POINT
5
74
100
AcDbEntity
8
1
62
256
6
ByLayer
370
18
48
1
60
1
100
AcDbPoint
10
47.3
20
-4.765
30
0
39
0
210
0
220
0
230
1
50
360
0
POINT
5
76
100
AcDbEntity
8
1
62
256
6
ByLayer
370
18
48
1
60
1
100
AcDbPoint
10
-40
20
-5
30
0
39
0
210
0
220
0
230
1
50
360
0
POINT
5
77
100
AcDbEntity
8
1
62
256
6
ByLayer
370
18
48
1
60
1
100
AcDbPoint
10
16.6569
20
4.765
30
0
39
0
210
0
220
0
230
1
50
360
0
POINT
5
78
100
AcDbEntity
8
1
62
256
6
ByLayer
370
18
48
1
60
1
100
AcDbPoint
10
47.3
20
-4.765
30
0
39
0
210
0
220
0
230
1
50
360
0
POINT
5
79
100
AcDbEntity
8
1
62
256
6
ByLayer
370
18
48
1
60
1
100
AcDbPoint
10
-40
20
-5
30
0
39
0
210
0
220
0
230
1
50
360
0
POINT
5
7A
100
AcDbEntity
8
1
62
256
6
ByLayer
370
18
48
1
60
1
100
AcDbPoint
10
47.3
20
-4.765
30
0
39
0
210
0
220
0
230
1
50
360
0
SPLINE
5
C3
100
AcDbEntity
8
SK1
62
256
6
ByLayer
370
18
48
1
60
0
100
AcDbSpline
70
4
71
3
72
12
73
8
40
0
40
0
40
0
40
0
40
0.5
40
0.5
40
0.75
40
0.75
40
1
40
1
40
1
40
1
41
1
10
-39.35
20
-3.66774466550896
30
0
41
1
10
-39.3264213677977
20
-3.68463068112155
30
0
41
1
10
-39.3036992467059
20
-3.69648891474597
30
0
41
1
10
-39.2756046028624
20
-3.70312028513521
30
0
41
1
10
-39.2670500056163
20
-3.70344077681332
30
0
41
1
10
-39.2542658313663
20
-3.69818800130838
30
0
41
1
10
-39.25
20
-3.69237536774671
30
0
41
1
10
-39.25
20
-3.68283771381863
30
0
0
SPLINE
5
C4
100
AcDbEntity
8
SK1
62
256
6
ByLayer
370
18
48
1
60
0
100
AcDbSpline
70
4
71
3
72
12
73
8
40
0
40
0
40
0
40
0
40
0.250000000000002
40
0.250000000000002
40
0.500000000000004
40
0.500000000000004
40
1
40
1
40
1
40
1
41
1
10
-39.25
20
-2.3920699219785
30
0
41
1
10
-39.25
20
-2.37772630620719
30
0
41
1
10
-39.2542331907051
20
-2.3613241565256
30
0
41
1
10
-39.2670221927524
20
-2.33006346986642
30
0
41
1
10
-39.2754822149468
20
-2.31508981277824
30
0
41
1
10
-39.3037500831724
20
-2.27367663469144
30
0
41
1
10
-39.3264281370761
20
-2.25043939787372
30
0
41
1
10
-39.35
20
-2.23355823013097
30
0
0
SPLINE
5
C5
100
AcDbEntity
8
SK1
62
256
6
ByLayer
370
18
48
1
60
0
100
AcDbSpline
70
4
71
3
72
8
73
4
40
0
40
0
40
0
40
0
40
1
40
1
40
1
40
1
41
1
10
-39.35
20
-2.233558230131
30
0
41
1
10
-39.5672238350105
20
-2.07799173933756
30
0
41
1
10
-39.7839917756392
20
-1.92212304440929
30
0
41
1
10
-40
20
-1.76575074731639
30
0
0
SPLINE
5
C6
100
AcDbEntity
8
SK1
62
256
6
ByLayer
370
18
48
1
60
0
100
AcDbSpline
70
4
71
3
72
8
73
4
40
0
40
0
40
0
40
0
40
1
40
1
40
1
40
1
41
1
10
-40
20
-3.19993718269433
30
0
41
1
10
-39.783983100006
20
-3.3563157602365
30
0
41
1
10
-39.5672164529963
20
-3.51218346140078
30
0
41
1
10
-39.35
20
-3.66774466550893
30
0
0
SPLINE
5
C7
100
AcDbEntity
8
1
62
256
6
ByLayer
370
18
48
1
60
0
100
AcDbSpline
70
4
71
3
72
24
73
20
40
0
40
0
40
0
40
0
40
0.125000000000001
40
0.125000000000001
40
0.187500000000001
40
0.187500000000001
40
0.250000000000001
40
0.250000000000001
40
0.375000000000001
40
0.375000000000001
40
0.500000000000001
40
0.500000000000001
40
0.625000000000001
40
0.625000000000001
40
0.75
40
0.75
40
0.875
40
0.875
40
1
40
1
40
1
40
1
41
1
10
47.4205303147249
20
4.61368216750242
30
0
41
1
10
47.4663499270143
20
4.49911788449143
30
0
41
1
10
47.512230066207
20
4.38326164984895
30
0
41
1
10
47.5811084829202
20
4.20823484505553
30
0
41
1
10
47.6040765979872
20
4.14970809490421
30
0
41
1
10
47.6500520837345
20
4.031816680373
30
0
41
1
10
47.6730561137645
20
3.9725233224417
30
0
41
1
10
47.7421085363093
20
3.79378234914768
30
0
41
1
10
47.7881911931779
20
3.67360335839626
30
0
41
1
10
47.8804282423994
20
3.43171417719123
30
0
41
1
10
47.9266031089615
20
3.30956696309883
30
0
41
1
10
48.0190537126713
20
3.0631194441313
30
0
41
1
10
48.0653985508452
20
2.9385475934227
30
0
41
1
10
48.1578248434391
20
2.68937546084953
30
0
41
1
10
48.203540098812
20
2.56493104518424
30
0
41
1
10
48.2942061144235
20
2.3162597137227
30
0
41
1
10
48.3392739492738
20
2.19199949004576
30
0
41
1
10
48.4288569935173
20
1.94363626535966
30
0
41
1
10
48.4733328418446
20
1.8195444626254
30
0
41
1
10
48.5174137268269
20
1.69556502748114
30
0
0
SPLINE
5
C8
100
AcDbEntity
8
1
62
256
6
ByLayer
370
13
48
1
60
0
100
AcDbSpline
70
4
71
3
72
26
73
22
40
0
40
0
40
0
40
0
40
0.125
40
0.125
40
0.25
40
0.25
40
0.375000000000001
40
0.375000000000001
40
0.437500000000001
40
0.437500000000001
40
0.500000000000001
40
0.500000000000001
40
0.625
40
0.625
40
0.75
40
0.75
40
0.875
40
0.875
40
0.9375
40
0.9375
40
1
40
1
40
1
40
1
41
1
10
4.25039790532122
20
0.476856913618889
30
0
41
1
10
4.25041326364595
20
0.703458215653541
30
0
41
1
10
4.25042355939263
20
0.926315501212599
30
0
41
1
10
4.25043720948895
20
1.36467090039846
30
0
41
1
10
4.25044053960997
20
1.58126069720913
30
0
41
1
10
4.25044327420315
20
1.99576064894825
30
0
41
1
10
4.25044274007632
20
2.19490788460666
30
0
41
1
10
4.25044142959689
20
2.48158386918809
30
0
41
1
10
4.25044090441247
20
2.5751267640245
30
0
41
1
10
4.2504400397016
20
2.75809670012779
30
0
41
1
10
4.25043970121925
20
2.8478089883962
30
0
41
1
10
4.25043949106617
20
3.10650757916281
30
0
41
1
10
4.25044043400115
20
3.26626878420106
30
0
41
1
10
4.250446576966
20
3.56103613066557
30
0
41
1
10
4.25045177054744
20
3.6960444168655
30
0
41
1
10
4.25046800807465
20
3.94026523299075
30
0
41
1
10
4.25047891660901
20
4.04726250676916
30
0
41
1
10
4.25049978864257
20
4.18490275610242
30
0
41
1
10
4.25050748409836
20
4.22685321383042
30
0
41
1
10
4.25052414879835
20
4.30224000099687
30
0
41
1
10
4.25053313627331
20
4.33580459495312
30
0
41
1
10
4.25054272522002
20
4.36529298466596
30
0
0
SPLINE
5
C9
100
AcDbEntity
8
1
62
256
6
ByLayer
370
18
48
1
60
0
100
AcDbSpline
70
4
71
3
72
18
73
14
40
0
40
0
40
0
40
0
40
0.125
40
0.125
40
0.25
40
0.25
40
0.375
40
0.375
40
0.5
40
0.5
40
0.75
40
0.75
40
1
40
1
40
1
40
1
41
1
10
48.5114566318445
20
1.69569881583166
30
0
41
1
10
48.5179900146005
20
1.67731270557516
30
0
41
1
10
48.5222472806539
20
1.65861663637415
30
0
41
1
10
48.5250017098658
20
1.62042013760282
30
0
41
1
10
48.523324098618
20
1.601138939842
30
0
41
1
10
48.514127949855
20
1.56479243040442
30
0
41
1
10
48.506483013127
20
1.54716347110551
30
0
41
1
10
48.4873496719096
20
1.51511805629522
30
0
41
1
10
48.4757931387945
20
1.50034982253206
30
0
41
1
10
48.4372726129304
20
1.45929389318618
30
0
41
1
10
48.4075614319687
20
1.43693842397508
30
0
41
1
10
48.3441712731568
20
1.39706075557461
30
0
41
1
10
48.3107371374288
20
1.37990902735609
30
0
41
1
10
48.2768022074259
20
1.36457395597262
30
0
0
SPLINE
5
CA
100
AcDbEntity
8
1
62
256
6
ByLayer
370
18
48
1
60
0
100
AcDbSpline
70
4
71
3
72
10
73
6
40
0
40
0
40
0
40
0
40
0.5
40
0.5
40
1
40
1
40
1
40
1
41
1
10
4.01987869940973
20
0.567920093354701
30
0
41
1
10
4.03048079396041
20
0.541688522288723
30
0
41
1
10
4.04498691018762
20
0.517302725165649
30
0
41
1
10
4.08304653950569
20
0.472780263356554
30
0
41
1
10
4.10552301036554
20
0.453894470836161
30
0
41
1
10
4.13195508094213
20
0.439011960477103
30
0
0
SPLINE
5
CB
100
AcDbEntity
8
1
62
256
6
ByLayer
370
18
48
1
60
0
100
AcDbSpline
70
4
71
3
72
8
73
4
40
0
40
0
40
0
40
0
40
1
40
1
40
1
40
1
41
1
10
48.5114566318445
20
1.69569881583166
30
0
41
1
10
48.5134423512603
20
1.69565422855843
30
0
41
1
10
48.5154280496199
20
1.69560963245505
30
0
41
1
10
48.5174137268269
20
1.69556502748111
30
0
0
SPLINE
5
CC
100
AcDbEntity
8
1
62
256
6
ByLayer
370
18
48
1
60
0
100
AcDbSpline
70
4
71
3
72
8
73
4
40
0
40
0
40
0
40
0
40
1
40
1
40
1
40
1
41
1
10
47.3252967147893
20
-4.57244591081397
30
0
41
1
10
47.3474669833503
20
-4.58078884545725
30
0
41
1
10
47.3801109778005
20
-4.55956425345025
30
0
41
1
10
47.4229614990426
20
-4.50952644290612
30
0
0
SPLINE
5
CD
100
AcDbEntity
8
1
62
256
6
ByLayer
370
18
48
1
60
0
100
AcDbSpline
70
4
71
3
72
8
73
4
40
0
40
0
40
0
40
0
40
1
40
1
40
1
40
1
41
1
10
4.13049636587951
20
0.446737113631713
30
0
41
1
10
4.08090994434744
20
0.473595767840919
30
0
41
1
10
4.04192020647619
20
0.516364257023895
30
0
41
1
10
4.01987869941019
20
0.567920093354246
30
0
0
SPLINE
5
CE
100
AcDbEntity
8
1
62
256
6
ByLayer
370
18
48
1
60
0
100
AcDbSpline
70
4
71
3
72
14
73
10
40
0
40
0
40
0
40
0
40
0.25
40
0.25
40
0.5
40
0.5
40
0.75
40
0.75
40
1
40
1
40
1
40
1
41
1
10
47.2934666233086
20
1.3201199722524
30
0
41
1
10
47.2698845529458
20
1.31934518974316
30
0
41
1
10
47.2463279550386
20
1.31453849561061
30
0
41
1
10
47.2050274000159
20
1.29333165453821
30
0
41
1
10
47.1874520696285
20
1.27644828357273
30
0
41
1
10
47.1656712493354
20
1.23403495302458
30
0
41
1
10
47.1616753772034
20
1.2100002956322
30
0
41
1
10
47.1626582521551
20
1.16278612389215
30
0
41
1
10
47.1674996622975
20
1.13913830664919
30
0
41
1
10
47.174838382768
20
1.11640517342374
30
0
0
SPLINE
5
CF
100
AcDbEntity
8
1
62
256
6
ByLayer
370
18
48
1
60
0
100
AcDbSpline
70
4
71
3
72
8
73
4
40
0
40
0
40
0
40
0
40
1
40
1
40
1
40
1
41
1
10
47.4040114422435
20
-4.58885200318537
30
0
41
1
10
47.3926851491374
20
-4.6199152000292
30
0
41
1
10
47.3813500639303
20
-4.65097293382817
30
0
41
1
10
47.3700061908311
20
-4.68202520719754
30
0
0
SPLINE
5
D0
100
AcDbEntity
8
1
62
256
6
ByLayer
370
18
48
1
60
0
100
AcDbSpline
70
4
71
3
72
24
73
20
40
0
40
0
40
0
40
0
40
0.125000000000001
40
0.125000000000001
40
0.187500000000001
40
0.187500000000001
40
0.250000000000001
40
0.250000000000001
40
0.375000000000001
40
0.375000000000001
40
0.500000000000001
40
0.500000000000001
40
0.625000000000001
40
0.625000000000001
40
0.75
40
0.75
40
0.875
40
0.875
40
1
40
1
40
1
40
1
41
1
10
47.4205303147249
20
-4.61368216750245
30
0
41
1
10
47.4663499270143
20
-4.4991178844914
30
0
41
1
10
47.5122300662071
20
-4.38326164984892
30
0
41
1
10
47.5811084829203
20
-4.2082348450555
30
0
41
1
10
47.6040765979872
20
-4.14970809490416
30
0
41
1
10
47.6500520837345
20
-4.03181668037297
30
0
41
1
10
47.6730561137645
20
-3.97252332244165
30
0
41
1
10
47.7421085363093
20
-3.79378234914762
30
0
41
1
10
47.7881911931779
20
-3.67360335839621
30
0
41
1
10
47.8804282423994
20
-3.43171417719123
30
0
41
1
10
47.9266031089614
20
-3.30956696309886
30
0
41
1
10
48.0190537126713
20
-3.06311944413133
30
0
41
1
10
48.0653985508452
20
-2.93854759342278
30
0
41
1
10
48.1578248434391
20
-2.68937546084953
30
0
41
1
10
48.203540098812
20
-2.56493104518421
30
0
41
1
10
48.2942061144235
20
-2.31625971372264
30
0
41
1
10
48.339273949274
20
-2.19199949004567
30
0
41
1
10
48.4288569935173
20
-1.9436362653596
30
0
41
1
10
48.4733328418446
20
-1.81954446262537
30
0
41
1
10
48.5174137268269
20
-1.69556502748114
30
0
0
SPLINE
5
D1
100
AcDbEntity
8
1
62
256
6
ByLayer
370
18
48
1
60
0
100
AcDbSpline
70
4
71
3
72
10
73
6
40
0
40
0
40
0
40
0
40
0.83466266775357
40
0.83466266775357
40
1
40
1
40
1
40
1
41
1
10
47.3700061908311
20
4.68202520719754
30
0
41
1
10
46.9199278780887
20
4.72759786147609
30
0
41
1
10
46.4701688986662
20
4.75399428762941
30
0
41
1
10
45.9303267653863
20
4.76247128572129
30
0
41
1
10
45.8410728101136
20
4.7631116693951
30
0
41
1
10
45.7518286153444
20
4.76299336184917
30
0
0
SPLINE
5
D2
100
AcDbEntity
8
1
62
256
6
ByLayer
370
18
48
1
60
0
100
AcDbSpline
70
4
71
3
72
34
73
30
40
0
40
0
40
0
40
0
40
0.0329201648350769
40
0.0329201648350769
40
0.113510151098821
40
0.113510151098821
40
0.153805144230692
40
0.153805144230692
40
0.194100137362563
40
0.194100137362563
40
0.274690123626307
40
0.274690123626307
40
0.355280109890051
40
0.355280109890051
40
0.435870096153794
40
0.435870096153794
40
0.516460082417538
40
0.516460082417538
40
0.597050068681282
40
0.597050068681282
40
0.637345061813154
40
0.637345061813154
40
0.677640054945026
40
0.677640054945026
40
0.758230041208769
40
0.758230041208769
40
0.838820027472513
40
0.838820027472513
40
1
40
1
40
1
40
1
41
1
10
20.9095337003602
20
-4.55886380438449
30
0
41
1
10
20.7256159236019
20
-4.58569608106791
30
0
41
1
10
20.5418009798999
20
-4.60942853040063
30
0
41
1
10
19.9080195823114
20
-4.68042820152129
30
0
41
1
10
19.4580255577385
20
-4.71201357836986
30
0
41
1
10
18.7812471042784
20
-4.73058806402256
30
0
41
1
10
18.5553576986322
20
-4.73196407860544
30
0
41
1
10
18.1045222618029
20
-4.72509009487399
30
0
41
1
10
17.8793432054881
20
-4.71684970356264
30
0
41
1
10
17.2040215474763
20
-4.67785332316188
30
0
41
1
10
16.7542075175549
20
-4.6327920722733
30
0
41
1
10
15.8527032202235
20
-4.50526934801007
30
0
41
1
10
15.4006296926095
20
-4.42274100811539
30
0
41
1
10
14.4996891259458
20
-4.22300417522823
30
0
41
1
10
14.0498917058534
20
-4.1056881486071
30
0
41
1
10
13.1488927944612
20
-3.83857313892341
30
0
41
1
10
12.6968322627928
20
-3.68838269923057
30
0
41
1
10
11.795015891822
20
-3.36022141813118
30
0
41
1
10
11.3450589901553
20
-3.18209771552839
30
0
41
1
10
10.6696155558366
20
-2.89646050353855
30
0
41
1
10
10.4443520260909
20
-2.79821825069854
30
0
41
1
10
9.99328966345058
20
-2.59610752547607
30
0
41
1
10
9.76726425605182
20
-2.49213075401511
30
0
41
1
10
9.09003278110001
20
-2.17340010767819
30
0
41
1
10
8.63967684781514
20
-1.95170802799319
30
0
41
1
10
7.73875190901884
20
-1.49409712054066
30
0
41
1
10
7.28776879820276
20
-1.25817376919255
30
0
41
1
10
5.93241768529091
20
-0.537192095301236
30
0
41
1
10
5.03402603143067
20
-0.0426628088673624
30
0
41
1
10
4.13049636587957
20
0.446737113631684
30
0
0
SPLINE
5
D3
100
AcDbEntity
8
1
62
256
6
ByLayer
370
18
48
1
60
0
100
AcDbSpline
70
4
71
3
72
32
73
28
40
0
40
0
40
0
40
0
40
0.0228012279593426
40
0.0228012279593426
40
0.104234458962731
40
0.104234458962731
40
0.185667689966119
40
0.185667689966119
40
0.267100920969507
40
0.267100920969507
40
0.348534151972895
40
0.348534151972895
40
0.429967382976283
40
0.429967382976283
40
0.511400613979671
40
0.511400613979671
40
0.592833844983059
40
0.592833844983059
40
0.674267075986447
40
0.674267075986447
40
0.755700306989836
40
0.755700306989836
40
0.837133537993224
40
0.837133537993224
40
0.918566768996612
40
0.918566768996612
40
1
40
1
40
1
40
1
41
1
10
36.6519829857169
20
2.6087297441081
30
0
41
1
10
36.733761566483
20
2.64638871418902
30
0
41
1
10
36.8156193705187
20
2.68369572084083
30
0
41
1
10
37.1903576991979
20
2.85235705920252
30
0
41
1
10
37.4844412007398
20
2.97940757875651
30
0
41
1
10
38.0739103407111
20
3.22455767849729
30
0
41
1
10
38.3667695711675
20
3.34221815867278
30
0
41
1
10
38.9521194532292
20
3.56325044898398
30
0
41
1
10
39.2443111277124
20
3.6671390119275
30
0
41
1
10
39.8269026928725
20
3.86285350450405
30
0
41
1
10
40.1170457610047
20
3.95485766146845
30
0
41
1
10
40.6983823077136
20
4.12370009029161
30
0
41
1
10
40.9891703358262
20
4.2010453806115
30
0
41
1
10
41.5703560874754
20
4.34210849370965
30
0
41
1
10
41.8604921007326
20
4.40593160382673
30
0
41
1
10
42.443212446032
20
4.51762698422505
30
0
41
1
10
42.7353755092531
20
4.56589148490244
30
0
41
1
10
43.3205019332229
20
4.64743270332349
30
0
41
1
10
43.6134050187134
20
4.68063225869349
30
0
41
1
10
44.202894394985
20
4.73042376386914
30
0
41
1
10
44.4969342167438
20
4.74708836392438
30
0
41
1
10
45.0829709757166
20
4.76421692065563
30
0
41
1
10
45.3749080805279
20
4.76456810770708
30
0
41
1
10
45.9597213283878
20
4.74910761039263
30
0
41
1
10
46.2521166244082
20
4.73337319228531
30
0
41
1
10
46.8360135326698
20
4.68557931626788
30
0
41
1
10
47.1277480364058
20
4.65347991232935
30
0
41
1
10
47.4205303147138
20
4.61368216750395
30
0
0
SPLINE
5
D4
100
AcDbEntity
8
1
62
256
6
ByLayer
370
18
48
1
60
0
100
AcDbSpline
70
4
71
3
72
12
73
8
40
0
40
0
40
0
40
0
40
0.242474165739406
40
0.242474165739406
40
0.770452899697827
40
0.770452899697827
40
1
40
1
40
1
40
1
41
1
10
45.9634382468414
20
-4.57280727920835
30
0
41
1
10
45.551865666277
20
-4.57228160416179
30
0
41
1
10
45.1413218028931
20
-4.55623498716398
30
0
41
1
10
43.8374094991634
20
-4.45698912679629
30
0
41
1
10
42.9444857242203
20
-4.31675446292982
30
0
41
1
10
41.6514360601297
20
-4.01674427219092
30
0
41
1
10
41.2568283133782
20
-3.91247193801794
30
0
41
1
10
40.8642265145407
20
-3.79712421508006
30
0
0
SPLINE
5
D5
100
AcDbEntity
8
1
62
256
6
ByLayer
370
13
48
1
60
0
100
AcDbSpline
70
4
71
3
72
26
73
22
40
0
40
0
40
0
40
0
40
0.0132745389274301
40
0.0132745389274301
40
0.115019791668501
40
0.115019791668501
40
0.318510297150642
40
0.318510297150642
40
0.420255549891712
40
0.420255549891712
40
0.471128176262247
40
0.471128176262247
40
0.522000802632781
40
0.522000802632781
40
0.725491308114917
40
0.725491308114917
40
0.928981813597053
40
0.928981813597053
40
0.979854439967589
40
0.979854439967589
40
1
40
1
40
1
40
1
41
1
10
40.8642265145591
20
-3.79712421508543
30
0
41
1
10
40.805318796548
20
-3.77981693030952
30
0
41
1
10
40.7464562391138
20
-3.7622603015993
30
0
41
1
10
40.2369618391216
20
-3.6080439775761
30
0
41
1
10
39.7886889225508
20
-3.45711010977479
30
0
41
1
10
38.447586387383
20
-2.96621785218792
30
0
41
1
10
37.5581820874772
20
-2.58855090472741
30
0
41
1
10
36.2181001009869
20
-1.9668489177279
30
0
41
1
10
35.7702944563587
20
-1.75055013208436
30
0
41
1
10
35.0952882420058
20
-1.41533255971007
30
0
41
1
10
34.8697444042244
20
-1.30176928699871
30
0
41
1
10
34.4172520611261
20
-1.07152247360395
30
0
41
1
10
34.1904053741288
20
-0.954883433424101
30
0
41
1
10
33.0613837881687
20
-0.370160798125141
30
0
41
1
10
32.1671242083155
20
0.105948835763087
30
0
41
1
10
30.378187417365
20
1.03945952942243
30
0
41
1
10
29.4834309457505
20
1.49666751912292
30
0
41
1
10
28.3533001350132
20
2.03455849803427
30
0
41
1
10
28.1263930598256
20
2.14056871716269
30
0
41
1
10
27.8101151448461
20
2.28504948974015
30
0
41
1
10
27.7204272375775
20
2.32565348540581
30
0
41
1
10
27.6307598383385
20
2.36586111890159
30
0
0
SPLINE
5
D6
100
AcDbEntity
8
1
62
256
6
ByLayer
370
18
48
1
60
0
100
AcDbSpline
70
4
71
3
72
14
73
10
40
0
40
0
40
0
40
0
40
0.25
40
0.25
40
0.5
40
0.5
40
0.75
40
0.75
40
1
40
1
40
1
40
1
41
1
10
4.00731238057469
20
4.5553827916693
30
0
41
1
10
4.01342718728534
20
4.53551425057665
30
0
41
1
10
4.02366611269045
20
4.51443083107498
30
0
41
1
10
4.05472207122568
20
4.47172316844649
30
0
41
1
10
4.07548373216798
20
4.45065192493848
30
0
41
1
10
4.12296967146594
20
4.41459491483226
30
0
41
1
10
4.14964658847015
20
4.39958273198278
30
0
41
1
10
4.20165889178327
20
4.37737732359398
30
0
41
1
10
4.22659386010776
20
4.37005043655614
30
0
41
1
10
4.25054272522016
20
4.3652929851051
30
0
0
SPLINE
5
D7
100
AcDbEntity
8
1
62
256
6
ByLayer
370
18
48
1
60
0
100
AcDbSpline
70
4
71
3
72
62
73
58
40
0
40
0
40
0
40
0
40
0.0568106358771862
40
0.0568106358771862
40
0.191551973609022
40
0.191551973609022
40
0.326293311340858
40
0.326293311340858
40
0.461034649072694
40
0.461034649072694
40
0.528405317938612
40
0.528405317938612
40
0.595775986804529
40
0.595775986804529
40
0.663146655670447
40
0.663146655670447
40
0.696831990103407
40
0.696831990103407
40
0.698937323505467
40
0.698937323505467
40
0.701042656907526
40
0.701042656907526
40
0.705253323711646
40
0.705253323711646
40
0.713674657319885
40
0.713674657319885
40
0.730517324536363
40
0.730517324536363
40
0.74735999175284
40
0.74735999175284
40
0.764202658969317
40
0.764202658969317
40
0.781045326185795
40
0.781045326185795
40
0.797887993402272
40
0.797887993402272
40
0.81473066061875
40
0.81473066061875
40
0.831573327835227
40
0.831573327835227
40
0.848415995051705
40
0.848415995051705
40
0.865258662268182
40
0.865258662268182
40
0.873679995876421
40
0.873679995876421
40
0.88210132948466
40
0.88210132948466
40
0.898943996701137
40
0.898943996701137
40
0.915786663917615
40
0.915786663917615
40
0.932629331134092
40
0.932629331134092
40
0.966314665567046
40
0.966314665567046
40
1
40
1
40
1
40
1
41
1
10
17.9010876442653
20
-4.72956125248518
30
0
41
1
10
17.5386998775337
20
-4.72865717006945
30
0
41
1
10
17.173174503466
20
-4.71780957031208
30
0
41
1
10
15.9301707935526
20
-4.65375436740581
30
0
41
1
10
15.0499989815351
20
-4.56359363017708
30
0
41
1
10
13.2696867212228
20
-4.34313812356754
30
0
41
1
10
12.3694735502336
20
-4.21286668832568
30
0
41
1
10
10.5427033721715
20
-3.95958002971477
30
0
41
1
10
9.61616688589362
20
-3.83680831431934
30
0
41
1
10
8.20416614772853
20
-3.68809792200059
30
0
41
1
10
7.72912792226202
20
-3.64431419956767
30
0
41
1
10
6.77759531799791
20
-3.5725192127814
30
0
41
1
10
6.30055456878333
20
-3.54442680631371
30
0
41
1
10
5.34382192804125
20
-3.50615683380161
30
0
41
1
10
4.8646154149875
20
-3.49600183806609
30
0
41
1
10
4.14563907926961
20
-3.49523109384899
30
0
41
1
10
3.90598166616547
20
-3.49737702081597
30
0
41
1
10
3.65146714502146
20
-3.50225228455088
30
0
41
1
10
3.6364960157357
20
-3.5025486004744
30
0
41
1
10
3.60655438457738
20
-3.50316031899146
30
0
41
1
10
3.59157780545553
20
-3.50328997089059
30
0
41
1
10
3.54673684441465
20
-3.50639333716759
30
0
41
1
10
3.51757425492849
20
-3.51112515527044
30
0
41
1
10
3.4426447180374
20
-3.53988614442073
30
0
41
1
10
3.39311988731504
20
-3.55950022870638
30
0
41
1
10
3.24584833609919
20
-3.61888951386123
30
0
41
1
10
3.14977773527934
20
-3.65943289828687
30
0
41
1
10
2.96274461664154
20
-3.74258124788341
30
0
41
1
10
2.87177339936747
20
-3.78518457978888
30
0
41
1
10
2.69626347798291
20
-3.87270162248069
30
0
41
1
10
2.61203591422688
20
-3.91748875599873
30
0
41
1
10
2.45511428366061
20
-4.00782178803624
30
0
41
1
10
2.38204389313933
20
-4.05354076723114
30
0
41
1
10
2.2498450067917
20
-4.1459559609755
30
0
41
1
10
2.19022750062382
20
-4.19317992101281
30
0
41
1
10
2.093837430017
20
-4.28456247331954
30
0
41
1
10
2.05658585252576
20
-4.32892535591373
30
0
41
1
10
2.00792600006287
20
-4.41386264896764
30
0
41
1
10
1.99755603992003
20
-4.45279123490096
30
0
41
1
10
2.00340266394878
20
-4.52272477931371
30
0
41
1
10
2.02005207622011
20
-4.55399644539742
30
0
41
1
10
2.07500945142135
20
-4.60632479519219
30
0
41
1
10
2.11313215634647
20
-4.62786241846663
30
0
41
1
10
2.18300789894343
20
-4.65431257541002
30
0
41
1
10
2.20846754340272
20
-4.66214392389332
30
0
41
1
10
2.26231444360195
20
-4.6757910271553
30
0
41
1
10
2.29079762217725
20
-4.6816478940307
30
0
41
1
10
2.38026120946347
20
-4.69666126734563
30
0
41
1
10
2.44522393712828
20
-4.70327695512867
30
0
41
1
10
2.58334461309624
20
-4.71098517585605
30
0
41
1
10
2.65670358279567
20
-4.71206516443957
30
0
41
1
10
2.80924332779446
20
-4.70952017083673
30
0
41
1
10
2.88792883957524
20
-4.70591740478281
30
0
41
1
10
3.12965182175856
20
-4.68931094471591
30
0
41
1
10
3.29827357992093
20
-4.67057145919543
30
0
41
1
10
3.64569621677106
20
-4.62136491898104
30
0
41
1
10
3.82455886201925
20
-4.59085120432854
30
0
41
1
10
4.00731238057242
20
-4.55538279166976
30
0
0
SPLINE
5
D8
100
AcDbEntity
8
1
62
256
6
ByLayer
370
18
48
1
60
0
100
AcDbSpline
70
4
71
3
72
44
73
40
40
0
40
0
40
0
40
0
40
0.0346857496688118
40
0.0346857496688118
40
0.10363676754961
40
0.10363676754961
40
0.13811227649001
40
0.13811227649001
40
0.17258778543041
40
0.17258778543041
40
0.24153880331121
40
0.24153880331121
40
0.27601431225161
40
0.27601431225161
40
0.31048982119201
40
0.31048982119201
40
0.379440839072811
40
0.379440839072811
40
0.448391856953611
40
0.448391856953611
40
0.482867365894011
40
0.482867365894011
40
0.517342874834411
40
0.517342874834411
40
0.586293892715209
40
0.586293892715209
40
0.655244910596007
40
0.655244910596007
40
0.724195928476805
40
0.724195928476805
40
0.793146946357604
40
0.793146946357604
40
0.862097964238402
40
0.862097964238402
40
0.9310489821192
40
0.9310489821192
40
0.9655244910596
40
0.9655244910596
40
1
40
1
40
1
40
1
41
1
10
28.4529192164533
20
4.54841345944825
30
0
41
1
10
28.6349481908871
20
4.54747137760248
30
0
41
1
10
28.816872905761
20
4.54369989743398
30
0
41
1
10
29.3602447850716
20
4.52431099750913
30
0
41
1
10
29.7211976661088
20
4.49829827254229
30
0
41
1
10
30.2632200270657
20
4.4429323978232
30
0
41
1
10
30.4440205706471
20
4.42189035973877
30
0
41
1
10
30.806114998186
20
4.37258471717988
30
0
41
1
10
30.9874843064554
20
4.34460255609625
30
0
41
1
10
31.5309742207583
20
4.25243713280338
30
0
41
1
10
31.8923730089336
20
4.17993020619537
30
0
41
1
10
32.4347052358555
20
4.05648838887052
30
0
41
1
10
32.6154330964544
20
4.01275317384398
30
0
41
1
10
32.9767522114254
20
3.92093714670577
30
0
41
1
10
33.1573381602792
20
3.87266675235063
30
0
41
1
10
33.6996489959536
20
3.71762325964531
30
0
41
1
10
34.0626200520418
20
3.60286959728819
30
0
41
1
10
34.7870993831858
20
3.35667211272096
30
0
41
1
10
35.1483327038408
20
3.22456134662829
30
0
41
1
10
35.6906171167513
20
3.01629528540258
30
0
41
1
10
35.8713573602472
20
2.94490078438793
30
0
41
1
10
36.2328711530259
20
2.79730972894589
30
0
41
1
10
36.413624510804
20
2.72128597357735
30
0
41
1
10
36.9563153431566
20
2.48823561290598
30
0
41
1
10
37.3193302493062
20
2.32567119222068
30
0
41
1
10
38.0435182743872
20
1.99036066185471
30
0
41
1
10
38.4045659547265
20
1.81714931415627
30
0
41
1
10
39.1275002301922
20
1.46204688761011
30
0
41
1
10
39.4891472452888
20
1.28017539403771
30
0
41
1
10
40.2131418064707
20
0.909421083216188
30
0
41
1
10
40.5759713245786
20
0.721083797735218
30
0
41
1
10
41.2976079264597
20
0.344280554111691
30
0
41
1
10
41.6564917426826
20
0.154230451233616
30
0
41
1
10
42.3733376462909
20
-0.22369772522228
30
0
41
1
10
42.7313535627692
20
-0.411577789089108
30
0
41
1
10
43.2676171115189
20
-0.692501693667623
30
0
41
1
10
43.4462632461963
20
-0.786003450733091
30
0
41
1
10
43.8036863168531
20
-0.971555054869157
30
0
41
1
10
43.9824950205985
20
-1.06354715944033
30
0
41
1
10
44.1614975760085
20
-1.15469967461749
30
0
0
SPLINE
5
D9
100
AcDbEntity
8
1
62
256
6
ByLayer
370
18
48
1
60
0
100
AcDbSpline
70
4
71
3
72
20
73
16
40
0
40
0
40
0
40
0
40
0.107215611437685
40
0.107215611437685
40
0.21443122287537
40
0.21443122287537
40
0.428862445750739
40
0.428862445750739
40
0.643293668626107
40
0.643293668626107
40
0.857724891501475
40
0.857724891501475
40
0.964940502939159
40
0.964940502939159
40
1
40
1
40
1
40
1
41
1
10
19.3750738346638
20
4.67193757440754
30
0
41
1
10
18.9552989150013
20
4.70787703168887
30
0
41
1
10
18.5312107379902
20
4.72563807134577
30
0
41
1
10
17.6744805200407
20
4.73240830567667
30
0
41
1
10
17.2416998229103
20
4.72134085763349
30
0
41
1
10
15.9301707935522
20
4.65375436740581
30
0
41
1
10
15.0499989815346
20
4.56359363017705
30
0
41
1
10
13.269686721222
20
4.34313812356746
30
0
41
1
10
12.3694735502328
20
4.21286668832559
30
0
41
1
10
10.5427033721704
20
3.95958002971463
30
0
41
1
10
9.6161668858924
20
3.8368083143192
30
0
41
1
10
8.20416614772714
20
3.68809792200045
30
0
41
1
10
7.72912792226055
20
3.64431419956753
30
0
41
1
10
7.0977860742953
20
3.59667822847297
30
0
41
1
10
6.94207425317137
20
3.58577434053626
30
0
41
1
10
6.78622436916456
20
3.57574533457273
30
0
0
SPLINE
5
DA
100
AcDbEntity
8
1
62
256
6
ByLayer
370
18
48
1
60
0
100
AcDbSpline
70
4
71
3
72
14
73
10
40
0
40
0
40
0
40
0
40
0.0234558358222069
40
0.0234558358222069
40
0.218764668657763
40
0.218764668657763
40
0.609382334328882
40
0.609382334328882
40
1
40
1
40
1
40
1
41
1
10
2.70562266106808
20
4.71114861287316
30
0
41
1
10
2.71469600578044
20
4.71106438144329
30
0
41
1
10
2.72381373844448
20
4.7109454895849
30
0
41
1
10
2.80924332779622
20
4.70952017083667
30
0
41
1
10
2.88792883957706
20
4.70591740478272
30
0
41
1
10
3.12965182176046
20
4.68931094471574
30
0
41
1
10
3.29827357992286
20
4.67057145919523
30
0
41
1
10
3.64569621677319
20
4.62136491898073
30
0
41
1
10
3.82455886202143
20
4.59085120432817
30
0
41
1
10
4.00731238057472
20
4.5553827916693
30
0
0
SPLINE
5
DB
100
AcDbEntity
8
1
62
256
6
ByLayer
370
18
48
1
60
0
100
AcDbSpline
70
4
71
3
72
14
73
10
40
0
40
0
40
0
40
0
40
0.0427487009390484
40
0.0427487009390484
40
0.521374350469525
40
0.521374350469525
40
0.760687175234762
40
0.760687175234762
40
1
40
1
40
1
40
1
41
1
10
6.91967788026625
20
-3.60303081351961
30
0
41
1
10
6.88065823071787
20
-3.61680938486785
30
0
41
1
10
6.84167366948296
20
-3.63047992798221
30
0
41
1
10
6.36663266334679
20
-3.79586541967822
30
0
41
1
10
5.93483104002507
20
-3.93408846699774
30
0
41
1
10
5.29475166162752
20
-4.11721404765581
30
0
41
1
10
5.08270726480401
20
-4.17409883625714
30
0
41
1
10
4.66202993903619
20
-4.27800948212618
30
0
41
1
10
4.45394372630204
20
-4.32488729642515
30
0
41
1
10
4.25054272575989
20
-4.36529298499789
30
0
0
SPLINE
5
DC
100
AcDbEntity
8
1
62
256
6
ByLayer
370
18
48
1
60
0
100
AcDbSpline
70
4
71
3
72
8
73
4
40
0
40
0
40
0
40
0
40
1
40
1
40
1
40
1
41
1
10
4.01987869941016
20
0.567920093353592
30
0
41
1
10
4.01165681863543
20
0.587151352736925
30
0
41
1
10
4.00726009890246
20
0.607458901915351
30
0
41
1
10
4.00726053888656
20
0.628335727815482
30
0
0
SPLINE
5
DD
100
AcDbEntity
8
1
62
256
6
ByLayer
370
18
48
1
60
0
100
AcDbSpline
70
4
71
3
72
14
73
10
40
0
40
0
40
0
40
0
40
0.25
40
0.25
40
0.5
40
0.5
40
0.75
40
0.75
40
1
40
1
40
1
40
1
41
1
10
47.4229614990443
20
-4.50952644290416
30
0
41
1
10
47.4249502481334
20
-4.50720412225883
30
0
41
1
10
47.4262821976257
20
-4.50670857735633
30
0
41
1
10
47.4272368847585
20
-4.51047136796893
30
0
41
1
10
47.4268004101808
20
-4.51478249956344
30
0
41
1
10
47.4236217942672
20
-4.52896636292493
30
0
41
1
10
47.4208370696814
20
-4.53891777604261
30
0
41
1
10
47.4133988625671
20
-4.56237482685228
30
0
41
1
10
47.4088263005697
20
-4.57564689798795
30
0
41
1
10
47.4040114422435
20
-4.58885200318539
30
0
0
SPLINE
5
DE
100
AcDbEntity
8
1
62
256
6
ByLayer
370
18
48
1
60
0
100
AcDbSpline
70
4
71
3
72
20
73
16
40
0
40
0
40
0
40
0
40
0.0839071520021473
40
0.0839071520021473
40
0.258003183756648
40
0.258003183756648
40
0.606195247265646
40
0.606195247265646
40
0.780291279020145
40
0.780291279020145
40
0.867339294897394
40
0.867339294897394
40
0.954387310774643
40
0.954387310774643
40
1
40
1
40
1
40
1
41
1
10
4.90950242717977
20
0.0230603617613383
30
0
41
1
10
5.12836480033005
20
-0.0937767802823828
30
0
41
1
10
5.3469112249854
20
-0.210512453747072
30
0
41
1
10
6.01670633084768
20
-0.567483386211677
30
0
41
1
10
6.46657633775123
20
-0.805816623744363
30
0
41
1
10
7.81328625619022
20
-1.50693186041806
30
0
41
1
10
8.70700346937829
20
-1.95627120133207
30
0
41
1
10
10.0563708158903
20
-2.5763105450873
30
0
41
1
10
10.5075085787316
20
-2.77418937457512
30
0
41
1
10
11.1880389427804
20
-3.05462469395738
30
0
41
1
10
11.4152572665855
20
-3.14523482767848
30
0
41
1
10
11.8677499944932
20
-3.3189464811654
30
0
41
1
10
12.0934445539886
20
-3.40223816878662
30
0
41
1
10
12.4367116734905
20
-3.52357447752257
30
0
41
1
10
12.5546154169524
20
-3.56428908286429
30
0
41
1
10
12.6724195984919
20
-3.60397785527027
30
0
0
SPLINE
5
DF
100
AcDbEntity
8
1
62
256
6
ByLayer
370
13
48
1
60
0
100
AcDbSpline
70
4
71
3
72
16
73
12
40
0
40
0
40
0
40
0
40
0.307965283361454
40
0.307965283361454
40
0.485160222303269
40
0.485160222303269
40
0.573757691774175
40
0.573757691774175
40
0.662355161245083
40
0.662355161245083
40
1
40
1
40
1
40
1
41
1
10
12.6724195984859
20
-3.60397785526828
30
0
41
1
10
13.4538932660918
20
-3.86725994024675
30
0
41
1
10
14.2309856582423
20
-4.08539970020144
30
0
41
1
10
15.4584675158987
20
-4.3480879116041
30
0
41
1
10
15.9074896824603
20
-4.42707032004583
30
0
41
1
10
16.5836222129791
20
-4.51868632383773
30
0
41
1
10
16.8094425601279
20
-4.5447482188911
30
0
41
1
10
17.2623779518863
20
-4.58763134038989
30
0
41
1
10
17.4898534216324
20
-4.60446407726187
30
0
41
1
10
18.5794936980396
20
-4.66208499243118
30
0
41
1
10
19.4336079236309
20
-4.63840191369607
30
0
41
1
10
20.286912422983
20
-4.54832518365441
30
0
0
SPLINE
5
E0
100
AcDbEntity
8
1
62
256
6
ByLayer
370
13
48
1
60
0
100
AcDbSpline
70
4
71
3
72
8
73
4
40
0
40
0
40
0
40
0
40
1
40
1
40
1
40
1
41
1
10
4.25039790532119
20
0.476856913618889
30
0
41
1
10
4.20910018006686
20
0.489716361058697
30
0
41
1
10
4.16876920810114
20
0.503218941045958
30
0
41
1
10
4.13195508094213
20
0.516769756197647
30
0
0
SPLINE
5
E1
100
AcDbEntity
8
1
62
256
6
ByLayer
370
18
48
1
60
0
100
AcDbSpline
70
4
71
3
72
30
73
26
40
0
40
0
40
0
40
0
40
0.0625000000000005
40
0.0625000000000005
40
0.125000000000001
40
0.125000000000001
40
0.187500000000001
40
0.187500000000001
40
0.250000000000002
40
0.250000000000002
40
0.312500000000002
40
0.312500000000002
40
0.375000000000003
40
0.375000000000003
40
0.499999999999997
40
0.499999999999997
40
0.624999999999991
40
0.624999999999991
40
0.687499999999992
40
0.687499999999992
40
0.749999999999994
40
0.749999999999994
40
0.874999999999997
40
0.874999999999997
40
1
40
1
40
1
40
1
41
1
10
48.3528021867735
20
-1.74939782817043
30
0
41
1
10
48.3531491803611
20
-1.75661035345163
30
0
41
1
10
48.3523639597043
20
-1.76667727171247
30
0
41
1
10
48.3485143049203
20
-1.79255716818381
30
0
41
1
10
48.3454081450115
20
-1.80855038475715
30
0
41
1
10
48.3369069358138
20
-1.84594119313982
30
0
41
1
10
48.331579319317
20
-1.86708941720488
30
0
41
1
10
48.3188063294089
20
-1.9142089097754
30
0
41
1
10
48.3112630287122
20
-1.94049467249729
30
0
41
1
10
48.29456894742
20
-1.99607906455714
30
0
41
1
10
48.2854121026085
20
-2.02543351836903
30
0
41
1
10
48.2655374914748
20
-2.08715372413195
30
0
41
1
10
48.2547932921176
20
-2.11957814648898
30
0
41
1
10
48.2214809736336
20
-2.21765422858576
30
0
41
1
10
48.1970902342573
20
-2.28629752419516
30
0
41
1
10
48.147643007879
20
-2.42033192710017
30
0
41
1
10
48.1220823978396
20
-2.48710089101809
30
0
41
1
10
48.0849013664051
20
-2.58090120160088
30
0
41
1
10
48.072652692754
20
-2.61124461741608
30
0
41
1
10
48.0484407787554
20
-2.67011386462724
30
0
41
1
10
48.0364665078907
20
-2.69865552512368
30
0
41
1
10
48.0019580418425
20
-2.77921925518172
30
0
41
1
10
47.9803219237013
20
-2.82743544200593
30
0
41
1
10
47.9408398210725
20
-2.91039014063836
30
0
41
1
10
47.9234816357653
20
-2.94414768590931
30
0
41
1
10
47.9086987600255
20
-2.96956196506349
30
0
0
SPLINE
5
E2
100
AcDbEntity
8
1
62
256
6
ByLayer
370
18
48
1
60
0
100
AcDbSpline
70
4
71
3
72
18
73
14
40
0
40
0
40
0
40
0
40
0.125
40
0.125
40
0.25
40
0.25
40
0.375
40
0.375
40
0.5
40
0.5
40
0.75
40
0.75
40
1
40
1
40
1
40
1
41
1
10
4.25054272740766
20
4.36529298467065
30
0
41
1
10
4.45370820895857
20
4.3249340820079
30
0
41
1
10
4.66039929487133
20
4.27837362783711
30
0
41
1
10
5.07896615706068
20
4.17506106339351
30
0
41
1
10
5.2908613355338
20
4.11828810549895
30
0
41
1
10
5.71886577544203
20
3.99591411897387
30
0
41
1
10
5.93498239842535
20
3.93030625181632
30
0
41
1
10
6.3708759419759
20
3.79134319189805
30
0
41
1
10
6.59078834665996
20
3.71790019007255
30
0
41
1
10
7.2502906460449
20
3.48806675374547
30
0
41
1
10
7.69149446651275
20
3.32187206443029
30
0
41
1
10
8.57819200220237
20
2.97022804971007
30
0
41
1
10
9.02369211030131
20
2.78497780965191
30
0
41
1
10
9.47254366440436
20
2.59356721752306
30
0
0
SPLINE
5
E3
100
AcDbEntity
8
1
62
256
6
ByLayer
370
18
48
1
60
0
100
AcDbSpline
70
4
71
3
72
22
73
18
40
0
40
0
40
0
40
0
40
0.0276378602996861
40
0.0276378602996861
40
0.0868199385322884
40
0.0868199385322884
40
0.323548251462703
40
0.323548251462703
40
0.560276564393118
40
0.560276564393118
40
0.619458642625721
40
0.619458642625721
40
0.678640720858325
40
0.678640720858325
40
0.797004877323532
40
0.797004877323532
40
1
40
1
40
1
40
1
41
1
10
24.1405825907032
20
-3.69774024731856
30
0
41
1
10
24.0347749193269
20
-3.72992970752446
30
0
41
1
10
23.9289408920842
20
-3.7612980700064
30
0
41
1
10
23.5963633782583
20
-3.85723798738249
30
0
41
1
10
23.369605679792
20
-3.91876816440848
30
0
41
1
10
22.2401311948684
20
-4.2052175003499
30
0
41
1
10
21.345129127805
20
-4.36637853996234
30
0
41
1
10
19.5549299682303
20
-4.54614727135521
30
0
41
1
10
18.6593788293085
20
-4.56442022916536
30
0
41
1
10
17.5278708425037
20
-4.49394009720839
30
0
41
1
10
17.3006298450824
20
-4.4750953439187
30
0
41
1
10
16.8481052073269
20
-4.42848256875916
30
0
41
1
10
16.6224704965513
20
-4.40069183727761
30
0
41
1
10
15.9468617372827
20
-4.30427610953086
30
0
41
1
10
15.4981369246855
20
-4.22261495967155
30
0
41
1
10
14.2816421174417
20
-3.95622599632972
30
0
41
1
10
13.5151302978384
20
-3.73948794548392
30
0
41
1
10
12.7445670467235
20
-3.48037895956054
30
0
0
SPLINE
5
E4
100
AcDbEntity
8
1
62
256
6
ByLayer
370
13
48
1
60
0
100
AcDbSpline
70
4
71
3
72
20
73
16
40
0
40
0
40
0
40
0
40
0.0453452993829733
40
0.0453452993829733
40
0.124899857767725
40
0.124899857767725
40
0.204454416152477
40
0.204454416152477
40
0.363563532921982
40
0.363563532921982
40
0.68178176646099
40
0.68178176646099
40
0.840890883230495
40
0.840890883230495
40
1
40
1
40
1
40
1
41
1
10
12.7445670470102
20
-3.48037895965692
30
0
41
1
10
12.6165168927542
20
-3.43732091663802
30
0
41
1
10
12.4883548585835
20
-3.39309280407841
30
0
41
1
10
12.1349595538032
20
-3.26812433143701
30
0
41
1
10
11.9094210063646
20
-3.18499606505944
30
0
41
1
10
11.4572770448512
20
-3.0119262894188
30
0
41
1
10
11.2302655198748
20
-2.9217972857017
30
0
41
1
10
10.5503981564061
20
-2.64322406041845
30
0
41
1
10
10.0996173125796
20
-2.44709119154132
30
0
41
1
10
8.75115413885925
20
-1.83377290659456
30
0
41
1
10
7.85781374902407
20
-1.3909161844698
30
0
41
1
10
6.51187206041476
20
-0.702279108356095
30
0
41
1
10
6.06227890607886
20
-0.46858964364975
30
0
41
1
10
5.159072215572
20
0.0030295614776605
30
0
41
1
10
4.70448448063831
20
0.241146129982639
30
0
41
1
10
4.25039790532122
20
0.476856913618889
30
0
0
SPLINE
5
E5
100
AcDbEntity
8
1
62
256
6
ByLayer
370
13
48
1
60
0
100
AcDbSpline
70
4
71
3
72
10
73
6
40
0
40
0
40
0
40
0
40
0.5
40
0.5
40
1
40
1
40
1
40
1
41
1
10
4.00726053888229
20
0.628335727825487
30
0
41
1
10
4.01529321495582
20
0.605439781172606
30
0
41
1
10
4.02985227256392
20
0.583796844186992
30
0
41
1
10
4.0717687802177
20
0.545450697444352
30
0
41
1
10
4.099047865611
20
0.528882486460134
30
0
41
1
10
4.13195508094213
20
0.516769756197647
30
0
0
SPLINE
5
E6
100
AcDbEntity
8
1
62
256
6
ByLayer
370
18
48
1
60
0
100
AcDbSpline
70
4
71
3
72
8
73
4
40
0
40
0
40
0
40
0
40
1
40
1
40
1
40
1
41
1
10
48.2768022074259
20
1.36457395597259
30
0
41
1
10
47.9498594004718
20
1.34474024965431
30
0
41
1
10
47.6219161119806
20
1.3309110908894
30
0
41
1
10
47.2934666233086
20
1.3201199722524
30
0
0
SPLINE
5
E7
100
AcDbEntity
8
1
62
256
6
ByLayer
370
18
48
1
60
0
100
AcDbSpline
70
4
71
3
72
40
73
36
40
0
40
0
40
0
40
0
40
0.0079022277113574
40
0.0079022277113574
40
0.0740420791972691
40
0.0740420791972691
40
0.140181930683181
40
0.140181930683181
40
0.206321782169092
40
0.206321782169092
40
0.272461633655004
40
0.272461633655004
40
0.338601485140915
40
0.338601485140915
40
0.404741336626827
40
0.404741336626827
40
0.470881188112738
40
0.470881188112738
40
0.53702103959865
40
0.53702103959865
40
0.570090965341603
40
0.570090965341603
40
0.603160891084557
40
0.603160891084557
40
0.669300742570464
40
0.669300742570464
40
0.735440594056371
40
0.735440594056371
40
0.801580445542278
40
0.801580445542278
40
0.867720297028186
40
0.867720297028186
40
0.933860148514093
40
0.933860148514093
40
1
40
1
40
1
40
1
41
1
10
48.2995834564659
20
-1.73472179233047
30
0
41
1
10
48.2969918091176
20
-1.73463451214238
30
0
41
1
10
48.2943766451541
20
-1.73462088750085
30
0
41
1
10
48.2696586362889
20
-1.73516592797108
30
0
41
1
10
48.2457413092527
20
-1.74081902324752
30
0
41
1
10
48.1959746559379
20
-1.76129962464086
30
0
41
1
10
48.1702187899288
20
-1.77600342275673
30
0
41
1
10
48.1170543452497
20
-1.81386551296961
30
0
41
1
10
48.0894843852259
20
-1.83723254562042
30
0
41
1
10
48.0344121214928
20
-1.89110654315996
30
0
41
1
10
48.0067221904008
20
-1.9217059586353
30
0
41
1
10
47.9510143093776
20
-1.99071589314832
30
0
41
1
10
47.9227507425912
20
-2.02953926760961
30
0
41
1
10
47.8680098382139
20
-2.11323129276244
30
0
41
1
10
47.8413365554918
20
-2.15825343372393
30
0
41
1
10
47.7896798362738
20
-2.25599622918395
30
0
41
1
10
47.7653417352484
20
-2.30756492436072
30
0
41
1
10
47.7212681860457
20
-2.41488157702057
30
0
41
1
10
47.7014756587752
20
-2.47100574509224
30
0
41
1
10
47.6778055492806
20
-2.55371290458294
30
0
41
1
10
47.6707763408081
20
-2.58153107737559
30
0
41
1
10
47.6591004721973
20
-2.63553726957639
30
0
41
1
10
47.6544409228707
20
-2.66167162605404
30
0
41
1
10
47.6439729198794
20
-2.73748654606385
30
0
41
1
10
47.6418379009663
20
-2.78466883493922
30
0
41
1
10
47.6469912107121
20
-2.86520731991695
30
0
41
1
10
47.6542425131801
20
-2.89943641953943
30
0
41
1
10
47.6758546909965
20
-2.95370063170475
30
0
41
1
10
47.6903587034761
20
-2.97423632753922
30
0
41
1
10
47.724001729792
20
-3.00252170569686
30
0
41
1
10
47.7434971273983
20
-3.01067289823447
30
0
41
1
10
47.7859979671284
20
-3.01603614602513
30
0
41
1
10
47.8087486239468
20
-3.01333082537258
30
0
41
1
10
47.8568781274933
20
-2.99848306599739
30
0
41
1
10
47.8824994864756
20
-2.98614793992036
30
0
41
1
10
47.9086987600252
20
-2.96956196506377
30
0
0
SPLINE
5
E8
100
AcDbEntity
8
1
62
256
6
ByLayer
370
18
48
1
60
0
100
AcDbSpline
70
4
71
3
72
52
73
48
40
0
40
0
40
0
40
0
40
0.0468712899700074
40
0.0468712899700074
40
0.0937425799400149
40
0.0937425799400149
40
0.140613869910022
40
0.140613869910022
40
0.18748515988003
40
0.18748515988003
40
0.234356449850037
40
0.234356449850037
40
0.281227739820045
40
0.281227739820045
40
0.328099029790052
40
0.328099029790052
40
0.37497031976006
40
0.37497031976006
40
0.398405964745064
40
0.398405964745064
40
0.421841609730068
40
0.421841609730068
40
0.468712899700077
40
0.468712899700077
40
0.515584189670085
40
0.515584189670085
40
0.562455479640094
40
0.562455479640094
40
0.609326769610102
40
0.609326769610102
40
0.632762414595107
40
0.632762414595107
40
0.656198059580112
40
0.656198059580112
40
0.70306934955012
40
0.70306934955012
40
0.749940639520129
40
0.749940639520129
40
0.796811929490137
40
0.796811929490137
40
0.820247574475141
40
0.820247574475141
40
0.843683219460145
40
0.843683219460145
40
0.937425799400162
40
0.937425799400162
40
1
40
1
40
1
40
1
41
1
10
47.3700061908311
20
-4.68202520719754
30
0
41
1
10
46.9197022228613
20
-4.72762071018346
30
0
41
1
10
46.4698794431854
20
-4.75400433559426
30
0
41
1
10
45.5689015056153
20
-4.7681411458135
30
0
41
1
10
45.1178419936811
20
-4.75581806625917
30
0
41
1
10
44.2173146038801
20
-4.69282894855377
30
0
41
1
10
43.7667027396598
20
-4.6421275642293
30
0
41
1
10
42.8651183472433
20
-4.50341343195271
30
0
41
1
10
42.4151009480327
20
-4.41562492412271
30
0
41
1
10
41.5142383329136
20
-4.20478959376408
30
0
41
1
10
41.0630072577151
20
-4.08158413459921
30
0
41
1
10
40.1631789893601
20
-3.80417936930127
30
0
41
1
10
39.7139138272454
20
-3.64976144505764
30
0
41
1
10
38.8142245301665
20
-3.31230827827991
30
0
41
1
10
38.3628322309953
20
-3.12888507929978
30
0
41
1
10
37.4620719357267
20
-2.73928380879059
30
0
41
1
10
37.0126450841188
20
-2.53302528114833
30
0
41
1
10
36.3380958622611
20
-2.20930497918405
30
0
41
1
10
36.1131778193231
20
-2.09900854544304
30
0
41
1
10
35.6628068785276
20
-1.87427214943133
30
0
41
1
10
35.4371322136094
20
-1.75970920117672
30
0
41
1
10
34.7607984507086
20
-1.41126501134269
30
0
41
1
10
34.3111161096211
20
-1.17300194097501
30
0
41
1
10
33.411684013852
20
-0.688994155225487
30
0
41
1
10
32.9618985527728
20
-0.443313832930556
30
0
41
1
10
32.0597332411261
20
0.0509788701068032
30
0
41
1
10
31.6092463569264
20
0.298511357861258
30
0
41
1
10
30.7095074170396
20
0.788186889159789
30
0
41
1
10
30.2598422298571
20
1.03057304308302
30
0
41
1
10
29.5838965858449
20
1.38729171586806
30
0
41
1
10
29.3581067484021
20
1.50516108658965
30
0
41
1
10
28.907200062857
20
1.7371289155173
30
0
41
1
10
28.6820264497697
20
1.85128838517684
30
0
41
1
10
28.0069263891593
20
2.18761700587996
30
0
41
1
10
27.5573165136472
20
2.4034604257607
30
0
41
1
10
26.6565590353928
20
2.81447383749151
30
0
41
1
10
26.2047382592016
20
3.01007634177705
30
0
41
1
10
25.3039224907698
20
3.37395233894097
30
0
41
1
10
24.8542346324302
20
3.54244959564144
30
0
41
1
10
24.1789314968849
20
3.77282349988448
30
0
41
1
10
23.9537202393674
20
3.84590825770732
30
0
41
1
10
23.5028136863299
20
3.98432804796713
30
0
41
1
10
23.2769306329086
20
4.04968869881452
30
0
41
1
10
22.1497234782281
20
4.35483749121937
30
0
41
1
10
21.2515497712219
20
4.53044561812874
30
0
41
1
10
19.745748786733
20
4.69825022954018
30
0
41
1
10
19.1452911144056
20
4.73138640727254
30
0
41
1
10
18.5442119821067
20
4.73034307311821
30
0
0
SPLINE
5
E9
100
AcDbEntity
8
1
62
256
6
ByLayer
370
18
48
1
60
0
100
AcDbSpline
70
4
71
3
72
66
73
62
40
0
40
0
40
0
40
0
40
0.0677980217518002
40
0.0677980217518002
40
0.1016970326277
40
0.1016970326277
40
0.1355960435036
40
0.1355960435036
40
0.1694950543795
40
0.1694950543795
40
0.2033940652554
40
0.2033940652554
40
0.237293076131301
40
0.237293076131301
40
0.271192087007201
40
0.271192087007201
40
0.305091097883101
40
0.305091097883101
40
0.338990108759001
40
0.338990108759001
40
0.372889119634901
40
0.372889119634901
40
0.406788130510801
40
0.406788130510801
40
0.440687141386701
40
0.440687141386701
40
0.457636646824651
40
0.457636646824651
40
0.474586152262601
40
0.474586152262601
40
0.508485163138501
40
0.508485163138501
40
0.542384174014402
40
0.542384174014402
40
0.576283184890302
40
0.576283184890302
40
0.610182195766202
40
0.610182195766202
40
0.644081206642102
40
0.644081206642102
40
0.677980217518002
40
0.677980217518002
40
0.711879228393902
40
0.711879228393902
40
0.745778239269802
40
0.745778239269802
40
0.779677250145702
40
0.779677250145702
40
0.813576261021602
40
0.813576261021602
40
0.847475271897502
40
0.847475271897502
40
0.881374282773402
40
0.881374282773402
40
0.915273293649303
40
0.915273293649303
40
0.949172304525203
40
0.949172304525203
40
0.983071315401103
40
0.983071315401103
40
1
40
1
40
1
40
1
41
1
10
19.3748588371275
20
4.67195894909648
30
0
41
1
10
19.9639580770981
20
4.62147506448153
30
0
41
1
10
20.5509045882869
20
4.53997458000359
30
0
41
1
10
21.4246974762639
20
4.37118812955643
30
0
41
1
10
21.7161079027925
20
4.30790239456914
30
0
41
1
10
22.2985206638202
20
4.1671520595375
30
0
41
1
10
22.5892555515762
20
4.08942259656291
30
0
41
1
10
23.1705642173257
20
3.91969464720975
30
0
41
1
10
23.4619552824244
20
3.82855125071853
30
0
41
1
10
24.0456133333633
20
3.6332085518525
30
0
41
1
10
24.3376453918953
20
3.52869694032012
30
0
41
1
10
24.9229570998982
20
3.3065715376371
30
0
41
1
10
25.2172448574434
20
3.1901445730966
30
0
41
1
10
25.8074129252227
20
2.94550704600834
30
0
41
1
10
26.1008454953443
20
2.81763999514229
30
0
41
1
10
26.68606360767
20
2.55339894699998
30
0
41
1
10
26.9784125588463
20
2.41794746775909
30
0
41
1
10
27.5617944629287
20
2.13925343330209
30
0
41
1
10
27.8524786915841
20
1.99540280774471
30
0
41
1
10
28.4337895379081
20
1.70195358195514
30
0
41
1
10
28.7248757839095
20
1.55317732710836
30
0
41
1
10
29.3069793048992
20
1.24996136583698
30
0
41
1
10
29.5975961690199
20
1.09477004345371
30
0
41
1
10
30.1803906364924
20
0.781530552158188
30
0
41
1
10
30.4728132128328
20
0.623971902647412
30
0
41
1
10
30.9124019877908
20
0.385109548240337
30
0
41
1
10
31.0590972522564
20
0.305077422433442
30
0
41
1
10
31.3527464179002
20
0.144015951681268
30
0
41
1
10
31.4997688206809
20
0.0628413892393951
30
0
41
1
10
31.9416838431847
20
-0.179490316162401
30
0
41
1
10
32.2356114912113
20
-0.339398718569242
30
0
41
1
10
32.8212561692877
20
-0.657737854889149
30
0
41
1
10
33.1125433848324
20
-0.816944180770037
30
0
41
1
10
33.6951448404666
20
-1.12965298773568
30
0
41
1
10
33.9863642224108
20
-1.28337204511271
30
0
41
1
10
34.5679681596585
20
-1.5868211690379
30
0
41
1
10
34.8579186770136
20
-1.73728180675587
30
0
41
1
10
35.4392831765308
20
-2.03011594375383
30
0
41
1
10
35.7305826276398
20
-2.17272930730527
30
0
41
1
10
36.3135435675265
20
-2.45179605942451
30
0
41
1
10
36.6048286296597
20
-2.58882352403921
30
0
41
1
10
37.1903576991982
20
-2.85235705920272
30
0
41
1
10
37.4844412007402
20
-2.97940757875668
30
0
41
1
10
38.0739103407115
20
-3.22455767849743
30
0
41
1
10
38.3667695711679
20
-3.34221815867295
30
0
41
1
10
38.9521194532296
20
-3.56325044898415
30
0
41
1
10
39.2443111277128
20
-3.66713901192764
30
0
41
1
10
39.826902692873
20
-3.86285350450419
30
0
41
1
10
40.1170457610052
20
-3.95485766146859
30
0
41
1
10
40.6983823077141
20
-4.12370009029172
30
0
41
1
10
40.9891703358266
20
-4.20104538061162
30
0
41
1
10
41.5703560874759
20
-4.34210849370976
30
0
41
1
10
41.8604921007331
20
-4.40593160382684
30
0
41
1
10
42.4432124460325
20
-4.51762698422513
30
0
41
1
10
42.7353755092536
20
-4.56589148490249
30
0
41
1
10
43.3205019332235
20
-4.64743270332357
30
0
41
1
10
43.613405018714
20
-4.68063225869355
30
0
41
1
10
44.2028943949854
20
-4.7304237638692
30
0
41
1
10
44.4969342167444
20
-4.74708836392441
30
0
41
1
10
44.9362818135098
20
-4.75992952127623
30
0
41
1
10
45.0823413758333
20
-4.76215816883237
30
0
41
1
10
45.228324418927
20
-4.76235498133624
30
0
0
SPLINE
5
EA
100
AcDbEntity
8
1
62
256
6
ByLayer
370
18
48
1
60
0
100
AcDbSpline
70
4
71
3
72
44
73
40
40
0
40
0
40
0
40
0
40
0.0312499999999979
40
0.0312499999999979
40
0.0468749999999969
40
0.0468749999999969
40
0.0624999999999958
40
0.0624999999999958
40
0.12499999999999
40
0.12499999999999
40
0.156249999999988
40
0.156249999999988
40
0.187499999999986
40
0.187499999999986
40
0.218749999999984
40
0.218749999999984
40
0.234374999999983
40
0.234374999999983
40
0.249999999999982
40
0.249999999999982
40
0.28124999999998
40
0.28124999999998
40
0.312499999999979
40
0.312499999999979
40
0.343749999999977
40
0.343749999999977
40
0.374999999999975
40
0.374999999999975
40
0.406249999999973
40
0.406249999999973
40
0.437499999999971
40
0.437499999999971
40
0.499999999999972
40
0.499999999999972
40
0.624999999999978
40
0.624999999999978
40
0.749999999999984
40
0.749999999999984
40
1
40
1
40
1
40
1
41
1
10
47.1748383827652
20
1.11640517343236
30
0
41
1
10
47.1965391380652
20
1.04918280635684
30
0
41
1
10
47.2192464291447
20
0.982223384179491
30
0
41
1
10
47.2545308643684
20
0.882330321515354
30
0
41
1
10
47.2664181434211
20
0.849085791126186
30
0
41
1
10
47.2896632197347
20
0.782372997382851
30
0
41
1
10
47.3015199825263
20
0.749115572322523
30
0
41
1
10
47.3623955113467
20
0.583501027440377
30
0
41
1
10
47.4161303267837
20
0.45322603251708
30
0
41
1
10
47.5023485644261
20
0.261215252492576
30
0
41
1
10
47.5281617211717
20
0.195540301563
30
0
41
1
10
47.5740099332668
20
0.0619739445041603
30
0
41
1
10
47.5938970521618
20
-0.0060063397675947
30
0
41
1
10
47.6255704735165
20
-0.142661159368771
30
0
41
1
10
47.637471402515
20
-0.211591365615703
30
0
41
1
10
47.6478311463475
20
-0.316134081057868
30
0
41
1
10
47.6501334483733
20
-0.350931004988666
30
0
41
1
10
47.651170152998
20
-0.419337993263724
30
0
41
1
10
47.6492295990225
20
-0.452881641896795
30
0
41
1
10
47.6391818620159
20
-0.552378523981986
30
0
41
1
10
47.625835367328
20
-0.61741491055173
30
0
41
1
10
47.5878780485097
20
-0.737741363279213
30
0
41
1
10
47.5631845005027
20
-0.794437159527405
30
0
41
1
10
47.5038451911227
20
-0.897736457168605
30
0
41
1
10
47.4694889245387
20
-0.943449419854602
30
0
41
1
10
47.3930652936631
20
-1.02510744298144
30
0
41
1
10
47.3510785654233
20
-1.0611002066243
30
0
41
1
10
47.262599191492
20
-1.1227050112648
30
0
41
1
10
47.2158230803697
20
-1.14875928057415
30
0
41
1
10
47.1198040682893
20
-1.19410784861401
30
0
41
1
10
47.0705483350247
20
-1.21349855990658
30
0
41
1
10
46.9222967946149
20
-1.26971721437928
30
0
41
1
10
46.8216922210222
20
-1.3019195941082
30
0
41
1
10
46.516567988274
20
-1.38290977894121
30
0
41
1
10
46.3077198397604
20
-1.41650016403966
30
0
41
1
10
45.8836438604746
20
-1.44694764381367
30
0
41
1
10
45.6693753992326
20
-1.44385628695193
30
0
41
1
10
45.0211326438477
20
-1.38784154001848
30
0
41
1
10
44.5908005650517
20
-1.28866010093981
30
0
41
1
10
44.1614975760084
20
-1.15469967461746
30
0
0
SPLINE
5
EB
100
AcDbEntity
8
1
62
256
6
ByLayer
370
18
48
1
60
0
100
AcDbSpline
70
4
71
3
72
24
73
20
40
0
40
0
40
0
40
0
40
0.0856535738153981
40
0.0856535738153981
40
0.244271072236873
40
0.244271072236873
40
0.32357982144761
40
0.32357982144761
40
0.402888570658348
40
0.402888570658348
40
0.561506069079823
40
0.561506069079823
40
0.720123567501298
40
0.720123567501298
40
0.799432316712036
40
0.799432316712036
40
0.878741065922773
40
0.878741065922773
40
1
40
1
40
1
40
1
41
1
10
19.3749643435099
20
4.67198939983342
30
0
41
1
10
19.1567262437
20
4.6090031580847
30
0
41
1
10
18.9381603541842
20
4.54236649113366
30
0
41
1
10
18.3134270476043
20
4.34164312127882
30
0
41
1
10
17.9060553057705
20
4.19842354521884
30
0
41
1
10
17.2899755763884
20
3.96555042174822
30
0
41
1
10
17.0837744331949
20
3.88493249531231
30
0
41
1
10
16.6730820475265
20
3.71991215777115
30
0
41
1
10
16.4681148961625
20
3.63533507365264
30
0
41
1
10
15.8536852090319
20
3.37683421658059
30
0
41
1
10
15.4447078450871
20
3.19809791343377
30
0
41
1
10
14.624025265864
20
2.83682589791405
30
0
41
1
10
14.2123107274326
20
2.65431425715434
30
0
41
1
10
13.5894299848963
20
2.38530147730128
30
0
41
1
10
13.3806302896882
20
2.29631002907166
30
0
41
1
10
12.9619828653947
20
2.12177835191858
30
0
41
1
10
12.7528841653184
20
2.03654921812006
30
0
41
1
10
12.223971494196
20
1.82761315880862
30
0
41
1
10
11.9040948011454
20
1.70741020494509
30
0
41
1
10
11.5831871720782
20
1.5952385557141
30
0
0
SPLINE
5
EC
100
AcDbEntity
8
1
62
256
6
ByLayer
370
18
48
1
60
0
100
AcDbSpline
70
4
71
3
72
74
73
70
40
0
40
0
40
0
40
0
40
0.0034479882442534
40
0.0034479882442534
40
0.0233790284793685
40
0.0233790284793685
40
0.0433100687144836
40
0.0433100687144836
40
0.0831721491847139
40
0.0831721491847139
40
0.123034229654944
40
0.123034229654944
40
0.142965269890059
40
0.142965269890059
40
0.162896310125173
40
0.162896310125173
40
0.182827350360288
40
0.182827350360288
40
0.202758390595402
40
0.202758390595402
40
0.222689430830517
40
0.222689430830517
40
0.242620471065631
40
0.242620471065631
40
0.28248255153586
40
0.28248255153586
40
0.322344632006089
40
0.322344632006089
40
0.362206712476318
40
0.362206712476318
40
0.402068792946547
40
0.402068792946547
40
0.441930873416776
40
0.441930873416776
40
0.461861913651891
40
0.461861913651891
40
0.481792953887005
40
0.481792953887005
40
0.521655034357235
40
0.521655034357235
40
0.541586074592351
40
0.541586074592351
40
0.561517114827466
40
0.561517114827466
40
0.581448155062581
40
0.581448155062581
40
0.601379195297696
40
0.601379195297696
40
0.641241275767926
40
0.641241275767926
40
0.681103356238156
40
0.681103356238156
40
0.720965436708387
40
0.720965436708387
40
0.760827517178617
40
0.760827517178617
40
0.800689597648847
40
0.800689597648847
40
0.840551678119077
40
0.840551678119077
40
0.860482718354192
40
0.860482718354192
40
0.880413758589307
40
0.880413758589307
40
0.920275839059538
40
0.920275839059538
40
0.960137919529769
40
0.960137919529769
40
1
40
1
40
1
40
1
41
1
10
36.6899699113285
20
-2.60246026518917
30
0
41
1
10
36.6589185553277
20
-2.61589432998841
30
0
41
1
10
36.6278626882341
20
-2.62928214544513
30
0
41
1
10
36.4172564187212
20
-2.7197400833748
30
0
41
1
10
36.2375317129606
20
-2.79536355021693
30
0
41
1
10
35.8773174432647
20
-2.94250973267634
30
0
41
1
10
35.6968121558085
20
-3.01387391547414
30
0
41
1
10
35.1542162930263
20
-3.22238393439105
30
0
41
1
10
34.7910786624613
20
-3.35525285698577
30
0
41
1
10
34.0665594234425
20
-3.60159715517128
30
0
41
1
10
33.7046688244831
20
-3.71607816611461
30
0
41
1
10
33.1622737412699
20
-3.87130955084405
30
0
41
1
10
32.981486763144
20
-3.91969858142028
30
0
41
1
10
32.6195443073418
20
-4.01174305701468
30
0
41
1
10
32.4384018785615
20
-4.05561734306013
30
0
41
1
10
32.075767982459
20
-4.13821627278207
30
0
41
1
10
31.8941421730294
20
-4.17705143205973
30
0
41
1
10
31.5314766239831
20
-4.24945346830103
30
0
41
1
10
31.3504598548871
20
-4.28304103028012
30
0
41
1
10
30.9883535144875
20
-4.3444629850041
30
0
41
1
10
30.8073407583913
20
-4.37240205660174
30
0
41
1
10
30.4453955214399
20
-4.42171877414631
30
0
41
1
10
30.264510863923
20
-4.44279034207401
30
0
41
1
10
29.7219002552689
20
-4.49824681460069
30
0
41
1
10
29.3600844052079
20
-4.52435207444856
30
0
41
1
10
28.634205974036
20
-4.55018241217761
30
0
41
1
10
28.2713778762172
20
-4.55224473337427
30
0
41
1
10
27.547286418985
20
-4.5331854710596
30
0
41
1
10
27.1851519928139
20
-4.51254546060355
30
0
41
1
10
26.4610793455555
20
-4.44539753669025
30
0
41
1
10
26.0987444799643
20
-4.39704606545919
30
0
41
1
10
25.3723054722858
20
-4.28264894276725
30
0
41
1
10
25.0097336607714
20
-4.21514069020165
30
0
41
1
10
24.4668503911769
20
-4.09705227162405
30
0
41
1
10
24.2858596923282
20
-4.0551616340037
30
0
41
1
10
23.9237422499731
20
-3.96527783082033
30
0
41
1
10
23.7425861915019
20
-3.91700194828783
30
0
41
1
10
23.1989956988112
20
-3.76517113072083
30
0
41
1
10
22.836033424513
20
-3.65453897015283
30
0
41
1
10
22.2916271017284
20
-3.47538786095001
30
0
41
1
10
22.1102779154639
20
-3.41354720686374
30
0
41
1
10
21.74782342496
20
-3.28557590100564
30
0
41
1
10
21.5667028479462
20
-3.21964199945026
30
0
41
1
10
21.2048592256304
20
-3.08212792701323
30
0
41
1
10
21.0239865800963
20
-3.01046829128171
30
0
41
1
10
20.6618416127051
20
-2.86490703386716
30
0
41
1
10
20.4806335389308
20
-2.79060475386876
30
0
41
1
10
19.936696948387
20
-2.56184771097546
30
0
41
1
10
19.5730997861759
20
-2.40116299827252
30
0
41
1
10
18.8491379919911
20
-2.07083454093737
30
0
41
1
10
18.4884213933751
20
-1.90072387458846
30
0
41
1
10
17.7692032364078
20
-1.55171912577438
30
0
41
1
10
17.4106720465191
20
-1.37279326832021
30
0
41
1
10
16.6934268840041
20
-1.00974672511333
30
0
41
1
10
16.3351677169346
20
-0.825648732861566
30
0
41
1
10
15.6182360695046
20
-0.453474744401376
30
0
41
1
10
15.2592405929953
20
-0.266065458559609
30
0
41
1
10
14.5395176085796
20
0.110806708674517
30
0
41
1
10
14.1789467192113
20
0.300630124411072
30
0
41
1
10
13.6353654343749
20
0.583056244720609
30
0
41
1
10
13.4535451110225
20
0.677076701576908
30
0
41
1
10
13.0905559488238
20
0.864326891376777
30
0
41
1
10
12.9093881552077
20
0.957465813809364
30
0
41
1
10
12.3664598506801
20
1.23435506401586
30
0
41
1
10
12.005147021072
20
1.41515534251312
30
0
41
1
10
11.2824721014754
20
1.7680418307466
30
0
41
1
10
10.9216107979811
20
1.94131227530565
30
0
41
1
10
10.1982247598313
20
2.27613314846369
30
0
41
1
10
9.83576750398004
20
2.43784062047297
30
0
41
1
10
9.47255955414869
20
2.59348474427423
30
0
0
SPLINE
5
ED
100
AcDbEntity
8
1
62
256
6
ByLayer
370
18
48
1
60
0
100
AcDbSpline
70
4
71
3
72
18
73
14
40
0
40
0
40
0
40
0
40
0.25
40
0.25
40
0.375
40
0.375
40
0.5
40
0.5
40
0.75
40
0.75
40
0.875
40
0.875
40
1
40
1
40
1
40
1
41
1
10
47.3252967147898
20
-4.572445910814
30
0
41
1
10
47.2288754355931
20
-4.56554064947142
30
0
41
1
10
47.1389826615207
20
-4.53940121724344
30
0
41
1
10
47.0147606695159
20
-4.46891194565833
30
0
41
1
10
46.9749744536324
20
-4.43998809892079
30
0
41
1
10
46.9005537692891
20
-4.37224770808399
30
0
41
1
10
46.8657800485204
20
-4.33341100951986
30
0
41
1
10
46.7687863473798
20
-4.20196553696115
30
0
41
1
10
46.7138359655384
20
-4.09453932603191
30
0
41
1
10
46.6470068290297
20
-3.90161019213656
30
0
41
1
10
46.6272738374209
20
-3.83162187631245
30
0
41
1
10
46.5938030137357
20
-3.68218512473899
30
0
41
1
10
46.5800535361429
20
-3.60288132141685
30
0
41
1
10
46.5693171800362
20
-3.51895033977343
30
0
0
SPLINE
5
EE
100
AcDbEntity
8
1
62
256
6
ByLayer
370
18
48
1
60
0
100
AcDbSpline
70
4
71
3
72
26
73
22
40
0
40
0
40
0
40
0
40
0.125
40
0.125
40
0.250000000000001
40
0.250000000000001
40
0.312500000000001
40
0.312500000000001
40
0.375000000000001
40
0.375000000000001
40
0.500000000000001
40
0.500000000000001
40
0.625000000000001
40
0.625000000000001
40
0.75
40
0.75
40
0.875
40
0.875
40
0.9375
40
0.9375
40
1
40
1
40
1
40
1
41
1
10
4.00726053888656
20
0.628335727828585
30
0
41
1
10
4.00726540619922
20
0.859285019312864
30
0
41
1
10
4.00726897012652
20
1.08835924506826
30
0
41
1
10
4.00727416053942
20
1.53193810238883
30
0
41
1
10
4.00727581687948
20
1.74763164185367
30
0
41
1
10
4.00727751777114
20
2.06208086368176
30
0
41
1
10
4.00727795342394
20
2.16537607460606
30
0
41
1
10
4.00727866118157
20
2.36885806358134
30
0
41
1
10
4.00727893363043
20
2.4693021942245
30
0
41
1
10
4.00727964372263
20
2.76113879068814
30
0
41
1
10
4.00727998527236
20
2.94455853101721
30
0
41
1
10
4.00728112676222
20
3.28966811985859
30
0
41
1
10
4.00728192439595
20
3.45135980490991
30
0
41
1
10
4.0072845829998
20
3.75212429530859
30
0
41
1
10
4.00728641999211
20
3.88780861191785
30
0
41
1
10
4.00729142576691
20
4.12979238664872
30
0
41
1
10
4.00729459531198
20
4.2363009260261
30
0
41
1
10
4.00730048052529
20
4.37387722443279
30
0
41
1
10
4.00730264000111
20
4.4161709879684
30
0
41
1
10
4.00730727859229
20
4.49211155026796
30
0
41
1
10
4.00730975691624
20
4.52582589937367
30
0
41
1
10
4.00731238057469
20
4.5553827916693
30
0
0
SPLINE
5
EF
100
AcDbEntity
8
1
62
256
6
ByLayer
370
18
48
1
60
0
100
AcDbSpline
70
4
71
3
72
18
73
14
40
0
40
0
40
0
40
0
40
0.238622850713847
40
0.238622850713847
40
0.330189546655174
40
0.330189546655174
40
0.4217562425965
40
0.4217562425965
40
0.60488963447915
40
0.60488963447915
40
0.971156418244454
40
0.971156418244454
40
1
40
1
40
1
40
1
41
1
10
32.180921418992
20
-0.015042918934995
30
0
41
1
10
32.7646388470912
20
-0.328915981692944
30
0
41
1
10
33.3496907111959
20
-0.643555898809637
30
0
41
1
10
34.1647851460003
20
-1.07299984622517
30
0
41
1
10
34.3919115970367
20
-1.19170183942617
30
0
41
1
10
34.8447233206834
20
-1.42569726442329
30
0
41
1
10
35.0704040913386
20
-1.54099524041033
30
0
41
1
10
35.7457556472702
20
-1.88101497819105
30
0
41
1
10
36.1937279325489
20
-2.09993792231546
30
0
41
1
10
37.5343210053736
20
-2.72779588873934
30
0
41
1
10
38.4239771323727
20
-3.10736387039984
30
0
41
1
10
39.3890385634228
20
-3.46002631114561
30
0
41
1
10
39.4595216017538
20
-3.48544274492235
30
0
41
1
10
39.5300416491295
20
-3.51052359295852
30
0
0
SPLINE
5
F0
100
AcDbEntity
8
1
62
256
6
ByLayer
370
13
48
1
60
0
100
AcDbSpline
70
4
71
3
72
20
73
16
40
0
40
0
40
0
40
0
40
0.144202013100697
40
0.144202013100697
40
0.229781811790626
40
0.229781811790626
40
0.315361610480555
40
0.315361610480555
40
0.657680805240276
40
0.657680805240276
40
0.828840402620138
40
0.828840402620138
40
0.914420201310069
40
0.914420201310069
40
1
40
1
40
1
40
1
41
1
10
39.5300407066044
20
-3.51052325774427
30
0
41
1
10
39.9072661782197
20
-3.64468561658026
30
0
41
1
10
40.2855506217951
20
-3.76924556440628
30
0
41
1
10
40.8911790923307
20
-3.95067284813598
30
0
41
1
10
41.1175847899311
20
-4.01454108571258
30
0
41
1
10
41.5709537710501
20
-4.13414324801096
30
0
41
1
10
41.7969146544266
20
-4.18960771288442
30
0
41
1
10
42.924061370653
20
-4.44474323855218
30
0
41
1
10
43.8171177969392
20
-4.57770984613046
30
0
41
1
10
45.1578330554096
20
-4.66616740445352
30
0
41
1
10
45.6049648166024
20
-4.67721306117667
30
0
41
1
10
46.2776670480222
20
-4.66547942299076
30
0
41
1
10
46.5022349221732
20
-4.65684928026727
30
0
41
1
10
46.952331385906
20
-4.63003612085103
30
0
41
1
10
47.177916810416
20
-4.61144743732271
30
0
41
1
10
47.4040114422435
20
-4.58885200318539
30
0
0
SPLINE
5
F1
100
AcDbEntity
8
1
62
256
6
ByLayer
370
18
48
1
60
0
100
AcDbSpline
70
4
71
3
72
16
73
12
40
0
40
0
40
0
40
0
40
0.250000000000004
40
0.250000000000004
40
0.500000000000007
40
0.500000000000007
40
0.625000000000005
40
0.625000000000005
40
0.750000000000004
40
0.750000000000004
40
1
40
1
40
1
40
1
41
1
10
46.5693171800363
20
-3.5189503397734
30
0
41
1
10
46.3413092478328
20
-3.38217878474472
30
0
41
1
10
46.1182500544544
20
-3.23267065899631
30
0
41
1
10
45.6831095510573
20
-2.90540062553561
30
0
41
1
10
45.4710154186568
20
-2.72767171879102
30
0
41
1
10
45.1628605715956
20
-2.43537648247764
30
0
41
1
10
45.0618169405996
20
-2.33363468629685
30
0
41
1
10
44.8635608686219
20
-2.12029075895325
30
0
41
1
10
44.7667755417584
20
-2.00908211058564
30
0
41
1
10
44.4879707540698
20
-1.66478426239129
30
0
41
1
10
44.3158796213817
20
-1.41972209566902
30
0
41
1
10
44.1614975760084
20
-1.15469967461746
30
0
0
SPLINE
5
F2
100
AcDbEntity
8
1
62
256
6
ByLayer
370
18
48
1
60
0
100
AcDbSpline
70
4
71
3
72
14
73
10
40
0
40
0
40
0
40
0
40
0.25
40
0.25
40
0.5
40
0.5
40
0.75
40
0.75
40
1
40
1
40
1
40
1
41
1
10
4.25054272522019
20
-4.36529298510513
30
0
41
1
10
4.22658559729999
20
-4.37005207796614
30
0
41
1
10
4.20154244244634
20
-4.37741720073402
30
0
41
1
10
4.14953941928098
20
-4.39963836581461
30
0
41
1
10
4.12297001419179
20
-4.41460363915229
30
0
41
1
10
4.07561086299427
20
-4.45054643159025
30
0
41
1
10
4.05479375404312
20
-4.47163408473853
30
0
41
1
10
4.02365681912613
20
-4.51443413707588
30
0
41
1
10
4.01344445254725
20
-4.53545815141419
30
0
41
1
10
4.00731238057841
20
-4.55538279165719
30
0
0
SPLINE
5
F3
100
AcDbEntity
8
1
62
256
6
ByLayer
370
18
48
1
60
0
100
AcDbSpline
70
4
71
3
72
11
73
7
40
0
40
0
40
0
40
0
40
0.0651321829581023
40
0.220823942995914
40
0.437386337872559
40
1
40
1
40
1
40
1
41
1
10
41.8172333447826
20
0.0738312288643215
30
0
41
1
10
41.8177123308022
20
0.0736352572569672
30
0
41
1
10
41.8172148320379
20
0.0739452292889666
30
0
41
1
10
41.7971386422944
20
0.0833649608651115
30
0
41
1
10
41.7179104655025
20
0.122897901177765
30
0
41
1
10
41.6296375354471
20
0.16873454994888
30
0
41
1
10
41.5496414834747
20
0.210926852576989
30
0
0
SPLINE
5
F4
100
AcDbEntity
8
1
62
256
6
ByLayer
370
18
48
1
60
0
100
AcDbSpline
70
4
71
3
72
24
73
20
40
0
40
0
40
0
40
0
40
0.0897774742507925
40
0.164502868556402
40
0.240189700854981
40
0.30808041448015
40
0.36597404552283
40
0.43064747996421
40
0.513787377193876
40
0.575914216626257
40
0.622418514964105
40
0.66968101797834
40
0.723439881278135
40
0.788210655305326
40
0.830727281608862
40
0.864244398324604
40
0.891591670732541
40
0.936456355833
40
1
40
1
40
1
40
1
41
1
10
18.7002676097077
20
-4.5399988965946
30
0
41
1
10
18.9876000092286
20
-4.5400311535297
30
0
41
1
10
19.5142344059876
20
-4.54026598035227
30
0
41
1
10
20.2827419191174
20
-4.54169317663025
30
0
41
1
10
20.9830274548103
20
-4.54225735169334
30
0
41
1
10
21.6291670127852
20
-4.54373169051618
30
0
41
1
10
22.2400415947464
20
-4.54362942242267
30
0
41
1
10
22.8997972003926
20
-4.54359189358712
30
0
41
1
10
23.5731545197736
20
-4.54449858789354
30
0
41
1
10
24.1882126085487
20
-4.54669035487268
30
0
41
1
10
24.6882174713973
20
-4.54624719215619
30
0
41
1
10
25.1613810684061
20
-4.54605661874976
30
0
41
1
10
25.6931315001494
20
-4.54592279533526
30
0
41
1
10
26.2096626431931
20
-4.54716005107693
30
0
41
1
10
26.661254456785
20
-4.54963557530468
30
0
41
1
10
26.9928024477636
20
-4.54955055477484
30
0
41
1
10
27.3315362329914
20
-4.5491043396145
30
0
41
1
10
27.7670944463358
20
-4.54865793725043
30
0
41
1
10
28.1147318003002
20
-4.5485620776997
30
0
41
1
10
28.3185314901624
20
-4.54858447654669
30
0
0
SPLINE
5
F5
100
AcDbEntity
8
1
62
256
6
ByLayer
370
18
48
1
60
0
100
AcDbSpline
70
4
71
3
72
22
73
18
40
0
40
0
40
0
40
0
40
0.0010793383775544
40
0.0144690998817152
40
0.0604737161733669
40
0.113300487041977
40
0.185608024342952
40
0.266172471317089
40
0.357777107929782
40
0.465668884534064
40
0.558259264556503
40
0.648602143982966
40
0.743876053254826
40
0.791905006536509
40
0.831530707136808
40
0.901281330262118
40
1
40
1
40
1
40
1
41
1
10
32.4924763273682
20
-1.14878631534026
30
0
41
1
10
32.4924616884407
20
-1.14879864508913
30
0
41
1
10
32.4929973801721
20
-1.14900572381737
30
0
41
1
10
32.530174778205
20
-1.15188607908448
30
0
41
1
10
32.6421405159739
20
-1.16135779571198
30
0
41
1
10
32.8117069345847
20
-1.17967586794305
30
0
41
1
10
33.0271560023407
20
-1.20998184258258
30
0
41
1
10
33.2158184314766
20
-1.24366753612904
30
0
41
1
10
33.4598606010958
20
-1.29793560791416
30
0
41
1
10
33.7781365095666
20
-1.38343453349737
30
0
41
1
10
34.0598753503343
20
-1.46981456812978
30
0
41
1
10
34.3760964158572
20
-1.58209113423476
30
0
41
1
10
34.6649361992074
20
-1.6948248680022
30
0
41
1
10
34.899540759477
20
-1.79262540399304
30
0
41
1
10
35.1096857580513
20
-1.88299016790319
30
0
41
1
10
35.3853508404234
20
-2.00624341789276
30
0
41
1
10
35.6096794488744
20
-2.1130089647134
30
0
41
1
10
35.7411409638775
20
-2.17774123176287
30
0
0
SPLINE
5
F6
100
AcDbEntity
8
1
62
256
6
ByLayer
370
18
48
1
60
0
100
AcDbSpline
70
4
71
3
72
10
73
6
40
0
40
0
40
0
40
0
40
0.242533339064212
40
0.609281573186185
40
1
40
1
40
1
40
1
41
1
10
14.6249827259916
20
0.0701012607285634
30
0
41
1
10
14.6258470983128
20
0.0697653559049911
30
0
41
1
10
14.6181698625375
20
0.0736717155447479
30
0
41
1
10
14.5322700225898
20
0.115739993344306
30
0
41
1
10
14.4508111907199
20
0.158142973302404
30
0
41
1
10
14.3998627340171
20
0.184819057440507
30
0
0
SPLINE
5
F7
100
AcDbEntity
8
1
62
256
6
ByLayer
370
18
48
1
60
0
100
AcDbSpline
70
4
71
2
72
6
73
3
40
0
40
0
40
0
40
1
40
1
40
1
41
1
10
45.9114706716546
20
-4.57278595119234
30
0
41
1
10
46.624126474478
20
-4.57148346134369
30
0
41
1
10
47.3375766259002
20
-4.57584270349267
30
0
0
SPLINE
5
F8
100
AcDbEntity
8
1
62
256
6
ByLayer
370
18
48
1
60
0
100
AcDbSpline
70
4
71
3
72
22
73
18
40
0
40
0
40
0
40
0
40
0.0032662218226536
40
0.0875490274578752
40
0.154344773717328
40
0.215731332502393
40
0.272199918059429
40
0.323219416390631
40
0.405941953440442
40
0.518959906721715
40
0.612761181082961
40
0.672058453846543
40
0.729876630344969
40
0.80339044090252
40
0.887013315355517
40
0.960633044475079
40
1
40
1
40
1
40
1
41
1
10
28.447675774298
20
4.54841457946128
30
0
41
1
10
28.4394917980752
20
4.54839075430621
30
0
41
1
10
28.2201200080571
20
4.54776997538991
30
0
41
1
10
27.8314836016386
20
4.54843901089441
30
0
41
1
10
27.2999309699792
20
4.54909128880965
30
0
41
1
10
26.8363452024499
20
4.54999115701611
30
0
41
1
10
26.412284179409
20
4.54835727283415
30
0
41
1
10
25.9346659949817
20
4.54615396085356
30
0
41
1
10
25.3150439198245
20
4.54588045174145
30
0
41
1
10
24.5879936054027
20
4.54653654347285
30
0
41
1
10
23.9197678964355
20
4.54610237062707
30
0
41
1
10
23.3901501461221
20
4.5440143765471
30
0
41
1
10
22.9114752362099
20
4.54371967850898
30
0
41
1
10
22.3717273981726
20
4.54361861454473
30
0
41
1
10
21.7922783664308
20
4.54368068239785
30
0
41
1
10
21.298606857619
20
4.54317630968407
30
0
41
1
10
21.0148684971604
20
4.54250658229032
30
0
41
1
10
20.9160231132526
20
4.54231549762903
30
0
0
SPLINE
5
F9
100
AcDbEntity
8
1
62
256
6
ByLayer
370
18
48
1
60
0
100
AcDbSpline
70
4
71
1
72
4
73
2
40
0
40
0
40
1
40
1
41
1
10
32.1565542675833
20
-0.0019809490123919
30
0
41
1
10
32.1565398155864
20
-0.0019692569406971
30
0
0
LINE
5
7B
100
AcDbEntity
8
SK1
62
256
6
ByLayer
370
18
48
1
60
0
100
AcDbLine
10
-39.25
20
-3.682838
30
0
11
-39.25
21
-2.39207
31
0
39
0
210
0
220
0
230
1
0
LINE
5
7D
100
AcDbEntity
8
SK1
62
256
6
ByLayer
370
18
48
1
60
0
100
AcDbLine
10
-40
20
-3.7
30
0
11
-40
21
-3.199937
31
0
39
0
210
0
220
0
230
1
0
LINE
5
7E
100
AcDbEntity
8
SK1
62
256
6
ByLayer
370
18
48
1
60
0
100
AcDbLine
10
0
20
-5
30
0
11
0
21
5
31
0
39
0
210
0
220
0
230
1
0
LINE
5
7F
100
AcDbEntity
8
SK1
62
256
6
ByLayer
370
18
48
1
60
0
100
AcDbLine
10
-40
20
-1.765707
30
0
11
-40
21
-3.199937
31
0
39
0
210
0
220
0
230
1
0
LINE
5
80
100
AcDbEntity
8
SK1
62
256
6
ByLayer
370
18
48
1
60
0
100
AcDbLine
10
-40
20
3.7
30
0
11
-40
21
-1.765751
31
0
39
0
210
0
220
0
230
1
0
LINE
5
81
100
AcDbEntity
8
SK1
62
256
6
ByLayer
370
18
48
1
60
0
100
AcDbLine
10
-38.7
20
5
30
0
11
-38.7
21
-5
31
0
39
0
210
0
220
0
230
1
0
LINE
5
82
100
AcDbEntity
8
SK1
62
256
6
ByLayer
370
13
48
1
60
0
100
AcDbLine
10
-39.35
20
-2.233544
30
0
11
-39.35
21
-3.667745
31
0
39
0
210
0
220
0
230
1
0
LINE
5
83
100
AcDbEntity
8
1
62
256
6
ByLayer
370
18
48
1
60
0
100
AcDbLine
10
47.908699
20
-2.969562
30
0
11
47.325297
21
-4.572446
31
0
39
0
210
0
220
0
230
1
0
LINE
5
84
100
AcDbEntity
8
1
62
256
6
ByLayer
370
18
48
1
60
0
100
AcDbLine
10
48.984851
20
0.078394
30
0
11
48.680374
21
1.189815
31
0
39
0
210
0
220
0
230
1
0
LINE
5
85
100
AcDbEntity
8
1
62
256
6
ByLayer
370
18
48
1
60
0
100
AcDbLine
10
49
20
0.025072
30
0
11
49
21
-0.025072
31
0
39
0
210
0
220
0
230
1
0
LINE
5
86
100
AcDbEntity
8
1
62
256
6
ByLayer
370
13
48
1
60
0
100
AcDbLine
10
48.930415
20
-0.172447
30
0
11
47.174838
21
1.116405
31
0
39
0
210
0
220
0
230
1
0
LINE
5
87
100
AcDbEntity
8
1
62
256
6
ByLayer
370
18
48
1
60
0
100
AcDbLine
10
48.900134
20
-0.245617
30
0
11
48.930415
21
-0.172447
31
0
39
0
210
0
220
0
230
1
0
LINE
5
88
100
AcDbEntity
8
1
62
256
6
ByLayer
370
18
48
1
60
0
100
AcDbLine
10
0
20
-5
30
0
11
0
21
5
31
0
39
0
210
0
220
0
230
1
0
LINE
5
89
100
AcDbEntity
8
1
62
256
6
ByLayer
370
13
48
1
60
0
100
AcDbLine
10
0.920741
20
4.7092
30
0
11
0.920741
21
-4.7092
31
0
39
0
210
0
220
0
230
1
0
LINE
5
8A
100
AcDbEntity
8
1
62
256
6
ByLayer
370
13
48
1
60
0
100
AcDbLine
10
0.45989
20
4.8546
30
0
11
0.45989
21
-4.8546
31
0
39
0
210
0
220
0
230
1
0
LINE
5
8B
100
AcDbEntity
8
1
62
256
6
ByLayer
370
18
48
1
60
0
100
AcDbLine
10
48.984851
20
-0.078394
30
0
11
48.680374
21
-1.189815
31
0
39
0
210
0
220
0
230
1
0
LINE
5
8C
100
AcDbEntity
8
1
62
256
6
ByLayer
370
13
48
1
60
0
100
AcDbLine
10
48.984851
20
0.078394
30
0
11
47.293467
21
1.32012
31
0
39
0
210
0
220
0
230
1
0
LINE
5
8D
100
AcDbEntity
8
1
62
256
6
ByLayer
370
18
48
1
60
0
100
AcDbLine
10
48.900134
20
-0.245617
30
0
11
48.352802
21
-1.749398
31
0
39
0
210
0
220
0
230
1
0
LINE
5
8E
100
AcDbEntity
8
1
62
256
6
ByLayer
370
18
48
1
60
0
100
AcDbLine
10
48.517414
20
-1.695565
30
0
11
48.517253
21
-1.695699
31
0
39
0
210
0
220
0
230
1
0
LINE
5
8F
100
AcDbEntity
8
1
62
256
6
ByLayer
370
18
48
1
60
0
100
AcDbLine
10
48.900134
20
-0.245617
30
0
11
46.569317
21
-3.51895
31
0
39
0
210
0
220
0
230
1
0
LINE
5
90
100
AcDbEntity
8
1
62
256
6
ByLayer
370
18
48
1
60
0
100
AcDbLine
10
4.903119
20
0.026554
30
0
11
4.903111
21
0.026941
31
0
39
0
210
0
220
0
230
1
0
LINE
5
91
100
AcDbEntity
8
80
62
256
6
ByLayer
370
18
48
1
60
0
100
AcDbLine
10
0
20
0
30
0
11
-5
21
0
31
0
39
0
210
0
220
0
230
1
0
LINE
5
92
100
AcDbEntity
8
SK4
62
256
6
ByLayer
370
18
48
0.05
60
0
100
AcDbLine
10
54
20
0
30
0
11
-45
21
0
31
0
39
0
210
0
220
0
230
1
0
LINE
5
94
100
AcDbEntity
8
4
62
256
6
ByLayer
370
18
48
0.05
60
0
100
AcDbLine
10
49
20
0
30
0
11
0
21
0
31
0
39
0
210
0
220
0
230
1
0
LINE
5
96
100
AcDbEntity
8
SK1
62
256
6
ByLayer
370
18
48
1
60
0
100
AcDbLine
10
-40
20
-3.7
30
0
11
-38.7
21
-5
31
0
39
0
210
0
220
0
230
1
0
LINE
5
97
100
AcDbEntity
8
SK1
62
256
6
ByLayer
370
18
48
1
60
0
100
AcDbLine
10
-38.7
20
5
30
0
11
-40
21
3.7
31
0
39
0
210
0
220
0
230
1
0
LINE
5
98
100
AcDbEntity
8
SK1
62
256
6
ByLayer
370
18
48
1
60
0
100
AcDbLine
10
-38.7
20
-5
30
0
11
0
21
-5
31
0
39
0
210
0
220
0
230
1
0
LINE
5
99
100
AcDbEntity
8
SK1
62
256
6
ByLayer
370
18
48
1
60
0
100
AcDbLine
10
0
20
5
30
0
11
-38.7
21
5
31
0
39
0
210
0
220
0
230
1
0
LINE
5
9A
100
AcDbEntity
8
1
62
256
6
ByLayer
370
18
48
1
60
0
100
AcDbLine
10
0.920741
20
-4.7092
30
0
11
2.672387
21
-4.711302
31
0
39
0
210
0
220
0
230
1
0
LINE
5
9B
100
AcDbEntity
8
1
62
256
6
ByLayer
370
18
48
1
60
0
100
AcDbLine
10
17.919339
20
-4.729599
30
0
11
18.552859
21
-4.730359
31
0
39
0
210
0
220
0
230
1
0
LINE
5
9C
100
AcDbEntity
8
1
62
256
6
ByLayer
370
18
48
1
60
0
100
AcDbLine
10
45.230451
20
-4.762372
30
0
11
45.752831
21
-4.762999
31
0
39
0
210
0
220
0
230
1
0
LINE
5
9D
100
AcDbEntity
8
1
62
256
6
ByLayer
370
18
48
1
60
0
100
AcDbLine
10
45.753476
20
4.763
30
0
11
45.230451
21
4.762372
31
0
39
0
210
0
220
0
230
1
0
LINE
5
9E
100
AcDbEntity
8
1
62
256
6
ByLayer
370
18
48
1
60
0
100
AcDbLine
10
18.552856
20
4.730359
30
0
11
17.919339
21
4.729599
31
0
39
0
210
0
220
0
230
1
0
LINE
5
9F
100
AcDbEntity
8
1
62
256
6
ByLayer
370
18
48
1
60
0
100
AcDbLine
10
2.672387
20
4.711302
30
0
11
0.920741
21
4.7092
31
0
39
0
210
0
220
0
230
1
0
LINE
5
A0
100
AcDbEntity
8
81
62
256
6
ByLayer
370
18
48
1
60
0
100
AcDbLine
10
49
20
0
30
0
11
54
21
0
31
0
39
0
210
0
220
0
230
1
0
LINE
5
A1
100
AcDbEntity
8
SK2
62
256
6
ByLayer
370
13
48
1
60
0
100
AcDbLine
10
-48.625163
20
-5
30
0
11
-48.625163
21
35.857173
31
0
39
0
210
0
220
0
230
1
0
LINE
5
A3
100
AcDbEntity
8
SK2
62
256
6
ByLayer
370
13
48
1
60
0
100
AcDbLine
10
-41.5875
20
5
30
0
11
-50.625163
21
5
31
0
39
0
210
0
220
0
230
1
0
LINE
5
A4
100
AcDbEntity
8
SK2
62
256
6
ByLayer
370
13
48
1
60
0
100
AcDbLine
10
-41.5875
20
-5
30
0
11
-50.625163
21
-5
31
0
39
0
210
0
220
0
230
1
0
LINE
5
A5
100
AcDbEntity
8
1
62
256
6
ByLayer
370
18
48
1
60
1
100
AcDbLine
10
-48.625163
20
5
30
0
11
-48.164379
21
1.500002
31
0
39
0
210
0
220
0
230
1
0
LINE
5
A6
100
AcDbEntity
8
1
62
256
6
ByLayer
370
18
48
1
60
1
100
AcDbLine
10
-48.164379
20
1.500002
30
0
11
-49.085946
21
1.499998
31
0
39
0
210
0
220
0
230
1
0
LINE
5
A7
100
AcDbEntity
8
1
62
256
6
ByLayer
370
18
48
1
60
1
100
AcDbLine
10
-49.085946
20
1.499998
30
0
11
-48.625163
21
5
31
0
39
0
210
0
220
0
230
1
0
LINE
5
A8
100
AcDbEntity
8
1
62
256
6
ByLayer
370
18
48
1
60
1
100
AcDbLine
10
-48.625163
20
-5
30
0
11
-49.085946
21
-1.500002
31
0
39
0
210
0
220
0
230
1
0
LINE
5
A9
100
AcDbEntity
8
1
62
256
6
ByLayer
370
18
48
1
60
1
100
AcDbLine
10
-49.085946
20
-1.500002
30
0
11
-48.164379
21
-1.499998
31
0
39
0
210
0
220
0
230
1
0
LINE
5
AA
100
AcDbEntity
8
1
62
256
6
ByLayer
370
18
48
1
60
1
100
AcDbLine
10
-48.164379
20
-1.499998
30
0
11
-48.625163
21
-5
31
0
39
0
210
0
220
0
230
1
0
LINE
5
AB
100
AcDbEntity
8
2
62
256
6
ByLayer
370
13
48
1
60
0
100
AcDbLine
10
61.083343
20
-4.765
30
0
11
61.083343
21
32.475193
31
0
39
0
210
0
220
0
230
1
0
LINE
5
AD
100
AcDbEntity
8
2
62
256
6
ByLayer
370
13
48
1
60
0
100
AcDbLine
10
48.8875
20
4.765
30
0
11
63.083343
21
4.765
31
0
39
0
210
0
220
0
230
1
0
LINE
5
AE
100
AcDbEntity
8
2
62
256
6
ByLayer
370
13
48
1
60
0
100
AcDbLine
10
48.8875
20
-4.765
30
0
11
63.083343
21
-4.765
31
0
39
0
210
0
220
0
230
1
0
LINE
5
AF
100
AcDbEntity
8
1
62
256
6
ByLayer
370
18
48
1
60
1
100
AcDbLine
10
61.083343
20
4.765
30
0
11
61.544126
21
1.265002
31
0
39
0
210
0
220
0
230
1
0
LINE
5
B0
100
AcDbEntity
8
1
62
256
6
ByLayer
370
18
48
1
60
1
100
AcDbLine
10
61.544126
20
1.265002
30
0
11
60.622559
21
1.264998
31
0
39
0
210
0
220
0
230
1
0
LINE
5
B1
100
AcDbEntity
8
1
62
256
6
ByLayer
370
18
48
1
60
1
100
AcDbLine
10
60.622559
20
1.264998
30
0
11
61.083343
21
4.765
31
0
39
0
210
0
220
0
230
1
0
LINE
5
B2
100
AcDbEntity
8
1
62
256
6
ByLayer
370
18
48
1
60
1
100
AcDbLine
10
61.083343
20
-4.765
30
0
11
60.622559
21
-1.265002
31
0
39
0
210
0
220
0
230
1
0
LINE
5
B3
100
AcDbEntity
8
1
62
256
6
ByLayer
370
18
48
1
60
1
100
AcDbLine
10
60.622559
20
-1.265002
30
0
11
61.544126
21
-1.264998
31
0
39
0
210
0
220
0
230
1
0
LINE
5
B4
100
AcDbEntity
8
1
62
256
6
ByLayer
370
18
48
1
60
1
100
AcDbLine
10
61.544126
20
-1.264998
30
0
11
61.083343
21
-4.765
31
0
39
0
210
0
220
0
230
1
0
LINE
5
100
100
AcDbEntity
8
1
62
256
6
ByLayer
370
18
48
1
60
1
100
AcDbLine
10
-48.625163
20
5
30
0
11
-48.164379
21
1.500002
31
0
39
0
210
0
220
0
230
1
0
LINE
5
101
100
AcDbEntity
8
1
62
256
6
ByLayer
370
18
48
1
60
1
100
AcDbLine
10
-48.164379
20
1.500002
30
0
11
-49.085946
21
1.499998
31
0
39
0
210
0
220
0
230
1
0
LINE
5
102
100
AcDbEntity
8
1
62
256
6
ByLayer
370
18
48
1
60
1
100
AcDbLine
10
-49.085946
20
1.499998
30
0
11
-48.625163
21
5
31
0
39
0
210
0
220
0
230
1
0
LINE
5
104
100
AcDbEntity
8
1
62
256
6
ByLayer
370
18
48
1
60
1
100
AcDbLine
10
-48.625163
20
-5
30
0
11
-49.085946
21
-1.500002
31
0
39
0
210
0
220
0
230
1
0
LINE
5
105
100
AcDbEntity
8
1
62
256
6
ByLayer
370
18
48
1
60
1
100
AcDbLine
10
-49.085946
20
-1.500002
30
0
11
-48.164379
21
-1.499998
31
0
39
0
210
0
220
0
230
1
0
LINE
5
106
100
AcDbEntity
8
1
62
256
6
ByLayer
370
18
48
1
60
1
100
AcDbLine
10
-48.164379
20
-1.499998
30
0
11
-48.625163
21
-5
31
0
39
0
210
0
220
0
230
1
0
LINE
5
10A
100
AcDbEntity
8
1
62
256
6
ByLayer
370
18
48
1
60
1
100
AcDbLine
10
61.083343
20
4.765
30
0
11
61.544126
21
1.265002
31
0
39
0
210
0
220
0
230
1
0
LINE
5
10B
100
AcDbEntity
8
1
62
256
6
ByLayer
370
18
48
1
60
1
100
AcDbLine
10
61.544126
20
1.265002
30
0
11
60.622559
21
1.264998
31
0
39
0
210
0
220
0
230
1
0
LINE
5
10C
100
AcDbEntity
8
1
62
256
6
ByLayer
370
18
48
1
60
1
100
AcDbLine
10
60.622559
20
1.264998
30
0
11
61.083343
21
4.765
31
0
39
0
210
0
220
0
230
1
0
LINE
5
10E
100
AcDbEntity
8
1
62
256
6
ByLayer
370
18
48
1
60
1
100
AcDbLine
10
61.083343
20
-4.765
30
0
11
60.622559
21
-1.265002
31
0
39
0
210
0
220
0
230
1
0
LINE
5
10F
100
AcDbEntity
8
1
62
256
6
ByLayer
370
18
48
1
60
1
100
AcDbLine
10
60.622559
20
-1.265002
30
0
11
61.544126
21
-1.264998
31
0
39
0
210
0
220
0
230
1
0
LINE
5
110
100
AcDbEntity
8
1
62
256
6
ByLayer
370
18
48
1
60
1
100
AcDbLine
10
61.544126
20
-1.264998
30
0
11
61.083343
21
-4.765
31
0
39
0
210
0
220
0
230
1
0
MTEXT
5
FA
100
AcDbEntity
8
SK6
62
256
6
ByLayer
370
13
48
1
60
0
100
AcDbMText
10
-22.41156
20
37.305328
30
0
210
0
220
0
230
1
1
\W0.7181;860.1-0953-030A1-SM 1210
40
3.5
41
0
44
1.084337
50
0
71
7
72
5
7
iso_b_vert
0
MTEXT
5
FE
100
AcDbEntity
8
SK2
62
256
6
ByLayer
370
18
48
1
60
0
100
AcDbMText
10
-50.189796
20
18.409024
30
0
210
0
220
0
230
1
1
%%c
40
3.5
41
0
44
1.084337
50
90
71
7
72
5
7
iso_b_vert
0
MTEXT
5
FF
100
AcDbEntity
8
SK2
62
256
6
ByLayer
370
18
48
1
60
0
100
AcDbMText
10
-50.189796
20
23.63168
30
0
210
0
220
0
230
1
1
\W0.6930;10,000
40
3.5
41
0
44
1.084337
50
90
71
7
72
5
7
iso_b_vert
0
MTEXT
5
108
100
AcDbEntity
8
2
62
256
6
ByLayer
370
18
48
1
60
0
100
AcDbMText
10
59.518709
20
16.76711
30
0
210
0
220
0
230
1
1
%%c
40
3.5
41
0
44
1.084337
50
90
71
7
72
5
7
iso_b_vert
0
MTEXT
5
109
100
AcDbEntity
8
2
62
256
6
ByLayer
370
18
48
1
60
0
100
AcDbMText
10
59.518709
20
21.989766
30
0
210
0
220
0
230
1
1
\W0.7317;9,530
40
3.5
41
0
44
1.084337
50
90
71
7
72
5
7
iso_b_vert
0
HATCH
5
103
100
AcDbEntity
8
SK2
62
256
6
ByLayer
370
13
48
1
60
0
100
AcDbHatch
10
0
20
0
30
0
210
0
220
0
230
1
2
ANSI31
70
0
71
0
91
1
92
5
93
3
72
1
10
-48.6251625675374
20
5
11
-48.1643788259847
21
1.50000169255318
72
1
10
-48.1643788259847
20
1.50000169255318
11
-49.0859463090902
21
1.49999830744682
72
1
10
-49.0859463090902
20
1.49999830744682
11
-48.6251625675374
21
5
97
0
75
0
76
1
52
0
41
0.0062
77
0
78
1
53
45
43
0
44
0
45
-0.0139193969876572
46
0.0139193969876572
79
0
47
0
98
1
10
0
20
0
0
HATCH
5
107
100
AcDbEntity
8
SK2
62
256
6
ByLayer
370
13
48
1
60
0
100
AcDbHatch
10
0
20
0
30
0
210
0
220
0
230
1
2
ANSI31
70
0
71
0
91
1
92
5
93
3
72
1
10
-48.6251625675374
20
-5
11
-49.0859463090902
21
-1.50000169255318
72
1
10
-49.0859463090902
20
-1.50000169255318
11
-48.1643788259847
21
-1.49999830744682
72
1
10
-48.1643788259847
20
-1.49999830744682
11
-48.6251625675374
21
-5
97
0
75
0
76
1
52
0
41
0.0062
77
0
78
1
53
45
43
0
44
0
45
-0.0139193969876572
46
0.0139193969876572
79
0
47
0
98
1
10
0
20
0
0
HATCH
5
10D
100
AcDbEntity
8
2
62
256
6
ByLayer
370
13
48
1
60
0
100
AcDbHatch
10
0
20
0
30
0
210
0
220
0
230
1
2
ANSI31
70
0
71
0
91
1
92
5
93
3
72
1
10
61.083342615295
20
4.76500000000001
11
61.5441263568478
21
1.2650016925532
72
1
10
61.5441263568478
20
1.2650016925532
11
60.6225588737423
21
1.26499830744683
72
1
10
60.6225588737423
20
1.26499830744683
11
61.083342615295
21
4.76500000000001
97
0
75
0
76
1
52
0
41
0.0062
77
0
78
1
53
45
43
0
44
0
45
-0.0139193969876572
46
0.0139193969876572
79
0
47
0
98
1
10
0
20
0
0
HATCH
5
111
100
AcDbEntity
8
2
62
256
6
ByLayer
370
13
48
1
60
0
100
AcDbHatch
10
0
20
0
30
0
210
0
220
0
230
1
2
ANSI31
70
0
71
0
91
1
92
5
93
3
72
1
10
61.083342615295
20
-4.76499999999999
11
60.6225588737423
21
-1.26500169255317
72
1
10
60.6225588737423
20
-1.26500169255317
11
61.5441263568478
21
-1.2649983074468
72
1
10
61.5441263568478
20
-1.2649983074468
11
61.083342615295
21
-4.76499999999999
97
0
75
0
76
1
52
0
41
0.0062
77
0
78
1
53
45
43
0
44
0
45
-0.0139193969876572
46
0.0139193969876572
79
0
47
0
98
1
10
0
20
0
0
DIMENSION
5
113
100
AcDbEntity
8
SK2
62
256
6
ByLayer
370
13
48
1
60
0
100
AcDbDimension
2
_U0
10
47.3
20
-14.978398
30
0
11
23.65
21
-14.978398
31
0
70
32
71
1
72
1
41
1
210
0
220
0
230
1
3
Standard
100
AcDbAlignedDimension
13
0
23
0
33
0
14
47.3
24
-4.765
34
0
50
0
100
AcDbRotatedDimension
1001
ACAD
1000
DSTYLE
1002
{
1070
   371
1070
    13
1070
   372
1070
    13
1070
   170
1070
     0
1070
   144
1040
1.0
1070
   277
1070
     2
1070
   278
1070
    44
1070
   146
1040
1.0
1070
   345
1005
16
1070
   347
1005
16
1070
   346
1005
16
1070
   344
1005
0
1070
   343
1005
0
1070
   172
1070
     1
1070
    76
1070
     0
1070
    75
1070
     0
1070
   282
1070
     0
1070
   281
1070
     0
1070
    71
1070
     0
1070
    74
1070
     0
1070
   279
1070
     0
1070
   173
1070
     1
1070
   340
1005
FB
1070
   271
1070
     2
1070
   272
1070
     2
1070
    77
1070
     1
1070
    73
1070
     1
1070
   171
1070
     3
1070
   274
1070
     4
1070
   177
1070
    35
1070
   176
1070
    35
1070
   178
1070
    35
1070
    48
1040
-0.1
1070
    41
1040
3.5
1070
   147
1040
1.75
1070
    42
1040
1.5875
1070
    44
1040
2.0
1070
   140
1040
3.5
1002
}
1001
ACAD_DSTYLE_DIM_LINETYPE
1070
   380
1005
16
1001
ACAD_DSTYLE_DIM_EXT1_LINETYPE
1070
   381
1005
16
1001
ACAD_DSTYLE_DIM_EXT2_LINETYPE
1070
   382
1005
16
0
DIMENSION
5
12C
100
AcDbEntity
8
SK2
62
256
6
ByLayer
370
13
48
1
60
0
100
AcDbDimension
2
_U1
10
49
20
-33.692985
30
0
11
4.5
21
-33.692985
31
0
70
32
71
1
72
1
41
1
210
0
220
0
230
1
3
Standard
100
AcDbAlignedDimension
13
-40
23
-5
33
0
14
49
24
0
34
0
50
0
100
AcDbRotatedDimension
1001
ACAD
1000
DSTYLE
1002
{
1070
   371
1070
    13
1070
   372
1070
    13
1070
   170
1070
     0
1070
   144
1040
1.0
1070
   277
1070
     2
1070
   278
1070
    44
1070
   146
1040
1.0
1070
   345
1005
16
1070
   347
1005
16
1070
   346
1005
16
1070
   344
1005
0
1070
   343
1005
0
1070
   172
1070
     1
1070
    76
1070
     0
1070
    75
1070
     0
1070
   282
1070
     0
1070
   281
1070
     0
1070
    71
1070
     0
1070
    74
1070
     0
1070
   279
1070
     0
1070
   173
1070
     1
1070
   340
1005
FB
1070
   271
1070
     2
1070
   272
1070
     2
1070
    77
1070
     1
1070
    73
1070
     1
1070
   171
1070
     3
1070
   274
1070
     4
1070
   177
1070
    35
1070
   176
1070
    35
1070
   178
1070
    35
1070
    48
1040
-0.1
1070
    41
1040
3.5
1070
   147
1040
1.75
1070
    42
1040
1.5875
1070
    44
1040
2.0
1070
   140
1040
3.5
1002
}
1001
ACAD_DSTYLE_DIM_LINETYPE
1070
   380
1005
16
1001
ACAD_DSTYLE_DIM_EXT1_LINETYPE
1070
   381
1005
16
1001
ACAD_DSTYLE_DIM_EXT2_LINETYPE
1070
   382
1005
16
0
DIMENSION
5
144
100
AcDbEntity
8
SK2
62
256
6
ByLayer
370
13
48
1
60
0
100
AcDbDimension
2
_U2
10
49
20
16.374119
30
0
11
32.82845
21
16.374119
31
0
70
32
71
1
72
1
41
1
210
0
220
0
230
1
3
Standard
100
AcDbAlignedDimension
13
16.6569
23
4.765
33
0
14
49
24
0
34
0
50
0
100
AcDbRotatedDimension
1001
ACAD
1000
DSTYLE
1002
{
1070
   371
1070
    13
1070
   372
1070
    13
1070
   170
1070
     0
1070
   144
1040
1.0
1070
   277
1070
     2
1070
   278
1070
    44
1070
   146
1040
1.0
1070
   345
1005
16
1070
   347
1005
16
1070
   346
1005
16
1070
   344
1005
0
1070
   343
1005
0
1070
   172
1070
     1
1070
    76
1070
     0
1070
    75
1070
     0
1070
   282
1070
     0
1070
   281
1070
     0
1070
    71
1070
     0
1070
    74
1070
     0
1070
   279
1070
     0
1070
   173
1070
     1
1070
   340
1005
FB
1070
   271
1070
     2
1070
   272
1070
     2
1070
    77
1070
     1
1070
    73
1070
     1
1070
   171
1070
     3
1070
   274
1070
     4
1070
   177
1070
    35
1070
   176
1070
    35
1070
   178
1070
    35
1070
    48
1040
-0.1
1070
    41
1040
3.5
1070
   147
1040
1.75
1070
    42
1040
1.5875
1070
    44
1040
2.0
1070
   140
1040
3.5
1002
}
1001
ACAD_DSTYLE_DIM_LINETYPE
1070
   380
1005
16
1001
ACAD_DSTYLE_DIM_EXT1_LINETYPE
1070
   381
1005
16
1001
ACAD_DSTYLE_DIM_EXT2_LINETYPE
1070
   382
1005
16
0
DIMENSION
5
15C
100
AcDbEntity
8
SK2
62
256
6
ByLayer
370
13
48
1
60
0
100
AcDbDimension
2
_U3
10
47.3
20
-17.567503
30
0
11
66.333333
21
-17.567503
31
0
70
32
71
1
72
1
41
1
210
0
220
0
230
1
3
Standard
100
AcDbAlignedDimension
13
49
23
0
33
0
14
47.3
24
-4.765
34
0
50
0
100
AcDbRotatedDimension
1001
ACAD
1000
DSTYLE
1002
{
1070
   371
1070
    13
1070
   372
1070
    13
1070
   170
1070
     0
1070
   144
1040
1.0
1070
   277
1070
     2
1070
   278
1070
    44
1070
   146
1040
1.0
1070
   345
1005
16
1070
   347
1005
16
1070
   346
1005
16
1070
   344
1005
0
1070
   343
1005
0
1070
   172
1070
     1
1070
    76
1070
     0
1070
    75
1070
     0
1070
   282
1070
     0
1070
   281
1070
     0
1070
    71
1070
     0
1070
    74
1070
     0
1070
   279
1070
     0
1070
   173
1070
     1
1070
   340
1005
FB
1070
   271
1070
     2
1070
   272
1070
     2
1070
    77
1070
     1
1070
    73
1070
     1
1070
   171
1070
     3
1070
   274
1070
     4
1070
   177
1070
    35
1070
   176
1070
    35
1070
   178
1070
    35
1070
    48
1040
-0.1
1070
    41
1040
3.5
1070
   147
1040
1.75
1070
    42
1040
1.5875
1070
    44
1040
2.0
1070
   140
1040
3.5
1002
}
1001
ACAD_DSTYLE_DIM_LINETYPE
1070
   380
1005
16
1001
ACAD_DSTYLE_DIM_EXT1_LINETYPE
1070
   381
1005
16
1001
ACAD_DSTYLE_DIM_EXT2_LINETYPE
1070
   382
1005
16
0
DIMENSION
5
176
100
AcDbEntity
8
SK2
62
256
6
ByLayer
370
13
48
1
60
0
100
AcDbDimension
2
_U4
10
47.3
20
-23.343428
30
0
11
3.65
21
-23.343428
31
0
70
32
71
1
72
1
41
1
210
0
220
0
230
1
3
Standard
100
AcDbAlignedDimension
13
-40
23
-5
33
0
14
47.3
24
-4.765
34
0
50
0
100
AcDbRotatedDimension
1001
ACAD
1000
DSTYLE
1002
{
1070
   371
1070
    13
1070
   372
1070
    13
1070
   170
1070
     0
1070
   144
1040
1.0
1070
   277
1070
     2
1070
   278
1070
    44
1070
   146
1040
1.0
1070
   345
1005
16
1070
   347
1005
16
1070
   346
1005
16
1070
   344
1005
0
1070
   343
1005
0
1070
   172
1070
     1
1070
    76
1070
     0
1070
    75
1070
     0
1070
   282
1070
     0
1070
   281
1070
     0
1070
    71
1070
     0
1070
    74
1070
     0
1070
   279
1070
     0
1070
   173
1070
     1
1070
   340
1005
FB
1070
   271
1070
     2
1070
   272
1070
     2
1070
    77
1070
     1
1070
    73
1070
     1
1070
   171
1070
     3
1070
   274
1070
     4
1070
   177
1070
    35
1070
   176
1070
    35
1070
   178
1070
    35
1070
    48
1040
-0.1
1070
    41
1040
3.5
1070
   147
1040
1.75
1070
    42
1040
1.5875
1070
    44
1040
2.0
1070
   140
1040
3.5
1002
}
1001
ACAD_DSTYLE_DIM_LINETYPE
1070
   380
1005
16
1001
ACAD_DSTYLE_DIM_EXT1_LINETYPE
1070
   381
1005
16
1001
ACAD_DSTYLE_DIM_EXT2_LINETYPE
1070
   382
1005
16
0
ENDSEC
0
SECTION
2
OBJECTS
0
DICTIONARY
5
1fe
330
0
100
AcDbDictionary
280
0
281
1
3
ACAD_GROUP
350
1ff
3
ACAD_MLINESTYLE
350
200
0
DICTIONARY
5
1ff
330
0
100
AcDbDictionary
280
0
281
1
0
DICTIONARY
5
200
330
0
100
AcDbDictionary
280
0
281
1
3
Standard
350
18
0
MLINESTYLE
5
18
330
200
100
AcDbMlineStyle
2
Standard
70
0
3

62
256
51
90
52
90
71
2
49
-0.5
62
256
6
ByLayer
49
0.5
62
256
6
ByLayer
0
RASTERVARIABLES
5
1ec
330

100
AcDbRasterVariables
90
0
70
1
71
1
72
1
0
ENDSEC
0
EOF
