0
SECTION
2
HEADER
9
$ACADVER
1
AC1015
9
$DWGCODEPAGE
3
ANSI_1252
9
$HANDSEED
5
20c
9
$ANGBASE
50
0
9
$ANGDIR
70
0
9
$ATTMODE
70
1
9
$AUNITS
70
0
9
$AUPREC
70
0
9
$CECOLOR
62
256
9
$CELTSCALE
40
1
9
$CELTYPE
6
ByLayer
9
$CELWEIGHT
370
18
9
$CLAYER
8
0
9
$CMLJUST
70
0
9
$CMLSCALE
40
1
9
$CMLSTYLE
2
Standard
9
$DIMSTYLE
2
Standard
9
$TEXTSIZE
40
0.2
9
$TEXTSTYLE
7
Standard
9
$LUNITS
70
2
9
$LUPREC
70
4
9
$EXTNAMES
290
1
9
$INSUNITS
70
4
9
$LTSCALE
40
1
9
$LWDISPLAY
290
1
9
$PDMODE
70
0
9
$PDSIZE
40
0
9
$PLINEGEN
70
0
0
ENDSEC
0
SECTION
2
CLASSES
0
CLASS
1
RASTERVARIABLES
2
AcDbRasterVariables
3
ISM
90
0
280
0
281
0
0
ENDSEC
0
SECTION
2
TABLES
0
TABLE
2
VPORT
5
202
100
AcDbSymbolTable
0
VPORT
5
1
100
AcDbSymbolTableRecord
100
AcDbViewportTableRecord
2
*Active
70
0
10
0
20
0
11
1
21
1
12
-1
22
1
13
0
23
0
14
0.5
24
0.5
15
10
25
10
16
0
26
0
36
1
17
0
27
0
37
0
0
ENDTAB
0
TABLE
2
LTYPE
5
203
100
AcDbSymbolTable
0
LTYPE
5
14
100
AcDbSymbolTableRecord
100
AcDbLinetypeTableRecord
70
0
2
ByBlock
3

72
65
73
0
40
0
0
LTYPE
5
15
100
AcDbSymbolTableRecord
100
AcDbLinetypeTableRecord
70
0
2
ByLayer
3

72
65
73
0
40
0
0
LTYPE
5
16
100
AcDbSymbolTableRecord
100
AcDbLinetypeTableRecord
70
0
2
Continuous
3
Solid line
72
65
73
0
40
0
0
LTYPE
5
6E
100
AcDbSymbolTableRecord
100
AcDbLinetypeTableRecord
70
0
2
CENTER
3
____ _ ____ _ ____ _ ____
72
65
73
4
40
47.5
49
22
74
0
49
-8.5
74
0
49
8.5
74
0
49
-8.5
74
0
0
LTYPE
5
6F
100
AcDbSymbolTableRecord
100
AcDbLinetypeTableRecord
70
0
2
DASHED
3
__ __ __ __ __ __ __ __ __
72
65
73
2
40
25.72
49
12.86
74
0
49
-12.86
74
0
0
ENDTAB
0
TABLE
2
LAYER
5
204
100
AcDbSymbolTable
0
LAYER
5
10
100
AcDbSymbolTableRecord
100
AcDbLayerTableRecord
2
0
70
0
62
7
6
Continuous
290
1
370
-3
390
0
0
LAYER
5
71
100
AcDbSymbolTableRecord
100
AcDbLayerTableRecord
2
80
70
0
62
-6
6
Continuous
290
1
370
-3
390
0
0
LAYER
5
73
100
AcDbSymbolTableRecord
100
AcDbLayerTableRecord
2
81
70
0
62
-3
6
Continuous
290
1
370
-3
390
0
0
LAYER
5
75
100
AcDbSymbolTableRecord
100
AcDbLayerTableRecord
2
1
70
0
62
4
6
Continuous
290
1
370
-3
390
0
0
LAYER
5
92
100
AcDbSymbolTableRecord
100
AcDbLayerTableRecord
2
4
70
0
62
-2
6
CENTER
290
1
370
-3
390
0
0
LAYER
5
AB
100
AcDbSymbolTableRecord
100
AcDbLayerTableRecord
2
2
70
0
62
7
6
Continuous
290
1
370
-3
390
0
0
LAYER
5
117
100
AcDbSymbolTableRecord
100
AcDbLayerTableRecord
2
Defpoints
70
0
62
7
6
Continuous
290
0
370
-3
390
0
0
LAYER
5
1ee
100
AcDbSymbolTableRecord
100
AcDbLayerTableRecord
2
SK1
70
0
62
4
6
Continuous
290
1
370
-3
390
0
0
LAYER
5
1ef
100
AcDbSymbolTableRecord
100
AcDbLayerTableRecord
2
SK4
70
0
62
2
6
CENTER
290
1
370
-3
390
0
0
LAYER
5
1f0
100
AcDbSymbolTableRecord
100
AcDbLayerTableRecord
2
SK2
70
0
62
7
6
Continuous
290
1
370
-3
390
0
0
LAYER
5
1f1
100
AcDbSymbolTableRecord
100
AcDbLayerTableRecord
2
SK6
70
0
62
5
6
Continuous
290
1
370
-3
390
0
0
ENDTAB
0
TABLE
2
STYLE
5
205
100
AcDbSymbolTable
0
STYLE
5
11
100
AcDbSymbolTableRecord
100
AcDbTextStyleTableRecord
2
Standard
3
txt
70
0
71
0
40
0
41
1
42
0
50
0
0
STYLE
5
FC
100
AcDbSymbolTableRecord
100
AcDbTextStyleTableRecord
2
iso_b_vert
3
simplex.shx
70
0
71
0
40
0
41
1
42
0
50
0
0
STYLE
5
FD
100
AcDbSymbolTableRecord
100
AcDbTextStyleTableRecord
2
DWGDirectTextStyle
3
simplex
70
0
71
0
40
0
41
1
42
0
50
0
0
ENDTAB
0
TABLE
2
DIMSTYLE
5
206
100
AcDbSymbolTable
100
AcDbDimStyleTable
0
DIMSTYLE
105
27
100
AcDbSymbolTableRecord
100
AcDbDimStyleTableRecord
2
Standard
70
0
3
<>
41
0.18
42
0.0625
44
0.18
140
0.18
147
0.09
73
0
74
0
77
1
271
2
275
0
278
52
280
0
340
11
0
ENDTAB
0
TABLE
2
VIEW
5
207
100
AcDbSymbolTable
0
ENDTAB
0
TABLE
2
UCS
5
208
100
AcDbSymbolTable
0
ENDTAB
0
TABLE
2
APPID
5
209
100
AcDbSymbolTable
0
APPID
5
12
100
AcDbSymbolTableRecord
100
AcDbRegAppTableRecord
2
ACAD
70
0
0
APPID
5
113
100
AcDbSymbolTableRecord
100
AcDbRegAppTableRecord
2
ACAD_DSTYLE_DIMBREAK
70
0
0
APPID
5
1AD
100
AcDbSymbolTableRecord
100
AcDbRegAppTableRecord
2
ACAD_DSTYLE_DIM_LINETYPE
70
0
0
APPID
5
1AE
100
AcDbSymbolTableRecord
100
AcDbRegAppTableRecord
2
ACAD_DSTYLE_DIM_EXT1_LINETYPE
70
0
0
APPID
5
1AF
100
AcDbSymbolTableRecord
100
AcDbRegAppTableRecord
2
ACAD_DSTYLE_DIM_EXT2_LINETYPE
70
0
0
APPID
5
1EA
100
AcDbSymbolTableRecord
100
AcDbRegAppTableRecord
2
ACAD_MLEADERVER
70
0
0
ENDTAB
0
TABLE
2
BLOCK_RECORD
5
20a
100
AcDbSymbolTable
0
BLOCK_RECORD
5
1F
100
AcDbSymbolTableRecord
100
AcDbBlockTableRecord
2
*Model_Space
340
0
70
0
0
BLOCK_RECORD
5
1B
100
AcDbSymbolTableRecord
100
AcDbBlockTableRecord
2
*Paper_Space
340
0
70
0
0
BLOCK_RECORD
5
23
100
AcDbSymbolTableRecord
100
AcDbBlockTableRecord
2
*Paper_Space0
340
0
70
0
0
BLOCK_RECORD
5
118
100
AcDbSymbolTableRecord
100
AcDbBlockTableRecord
2
*D1
340
0
70
0
0
BLOCK_RECORD
5
124
100
AcDbSymbolTableRecord
100
AcDbBlockTableRecord
2
_U0
340
0
70
0
0
BLOCK_RECORD
5
130
100
AcDbSymbolTableRecord
100
AcDbBlockTableRecord
2
*D3
340
0
70
0
0
BLOCK_RECORD
5
13C
100
AcDbSymbolTableRecord
100
AcDbBlockTableRecord
2
_U1
340
0
70
0
0
BLOCK_RECORD
5
148
100
AcDbSymbolTableRecord
100
AcDbBlockTableRecord
2
*D5
340
0
70
0
0
BLOCK_RECORD
5
154
100
AcDbSymbolTableRecord
100
AcDbBlockTableRecord
2
_U2
340
0
70
0
0
BLOCK_RECORD
5
160
100
AcDbSymbolTableRecord
100
AcDbBlockTableRecord
2
*D7
340
0
70
0
0
BLOCK_RECORD
5
16E
100
AcDbSymbolTableRecord
100
AcDbBlockTableRecord
2
_U3
340
0
70
0
0
BLOCK_RECORD
5
17A
100
AcDbSymbolTableRecord
100
AcDbBlockTableRecord
2
*D9
340
0
70
0
0
BLOCK_RECORD
5
186
100
AcDbSymbolTableRecord
100
AcDbBlockTableRecord
2
_U4
340
0
70
0
0
ENDTAB
0
ENDSEC
0
SECTION
2
BLOCKS
0
BLOCK
5
20
100
AcDbEntity
8
0
100
AcDbBlockBegin
2
*Model_Space
70
0
10
0
20
0
30
0
3
*Model_Space
0
ENDBLK
5
21
100
AcDbEntity
8
0
100
AcDbBlockEnd
0
BLOCK
5
1C
100
AcDbEntity
8
0
100
AcDbBlockBegin
2
*Paper_Space
70
0
10
0
20
0
30
0
3
*Paper_Space
0
ENDBLK
5
1D
100
AcDbEntity
8
0
100
AcDbBlockEnd
0
BLOCK
5
24
100
AcDbEntity
8
0
100
AcDbBlockBegin
2
*Paper_Space0
70
0
10
0
20
0
30
0
3
*Paper_Space0
0
ENDBLK
5
25
100
AcDbEntity
8
0
100
AcDbBlockEnd
0
BLOCK
5
119
100
AcDbEntity
8
0
100
AcDbBlockBegin
2
*D1
70
1
10
0
20
0
30
0
3
*D1
0
LINE
5
11B
100
AcDbEntity
8
0
62
256
6
ByLayer
370
-2
48
1
60
0
100
AcDbLine
10
0
20
-1.5875
30
0
11
0
21
-17.263398
31
0
39
0
210
0
220
0
230
1
0
LINE
5
11C
100
AcDbEntity
8
0
62
256
6
ByLayer
370
-2
48
1
60
0
100
AcDbLine
10
55.2
20
-6.6375
30
0
11
55.2
21
-17.263398
31
0
39
0
210
0
220
0
230
1
0
LINE
5
11D
100
AcDbEntity
8
0
62
256
6
ByLayer
370
-2
48
1
60
0
100
AcDbLine
10
3.5
20
-15.263398
30
0
11
51.7
21
-15.263398
31
0
39
0
210
0
220
0
230
1
0
SOLID
5
11E
100
AcDbEntity
8
0
62
256
6
ByLayer
370
-1
48
1
60
0
100
AcDbTrace
10
3.5
20
-14.680065
30
0
11
3.5
21
-15.846732
31
0
12
0
22
-15.263398
32
0
13
0
23
-15.263398
33
0
39
0
210
0
220
0
230
1
0
SOLID
5
11F
100
AcDbEntity
8
0
62
256
6
ByLayer
370
-1
48
1
60
0
100
AcDbTrace
10
51.7
20
-15.846732
30
0
11
51.7
21
-14.680065
31
0
12
55.2
22
-15.263398
32
0
13
55.2
23
-15.263398
33
0
39
0
210
0
220
0
230
1
0
MTEXT
5
120
100
AcDbEntity
8
0
62
256
6
ByLayer
370
18
48
1
60
0
100
AcDbMText
10
27.6
20
-8.263398
30
0
210
0
220
0
230
1
1
\A1;55.20
40
3.5
41
0
44
1
50
0
71
5
72
5
7
iso_b_vert
0
POINT
5
121
100
AcDbEntity
8
Defpoints
62
0
6
ByLayer
370
-1
48
1
60
0
100
AcDbPoint
10
0
20
0
30
0
39
0
210
0
220
0
230
1
50
360
0
POINT
5
122
100
AcDbEntity
8
Defpoints
62
0
6
ByLayer
370
-1
48
1
60
0
100
AcDbPoint
10
55.2
20
-5.05
30
0
39
0
210
0
220
0
230
1
50
360
0
POINT
5
123
100
AcDbEntity
8
Defpoints
62
0
6
ByLayer
370
-1
48
1
60
0
100
AcDbPoint
10
55.2
20
-15.263398
30
0
39
0
210
0
220
0
230
1
50
360
0
ENDBLK
5
11A
100
AcDbEntity
8
0
100
AcDbBlockEnd
0
BLOCK
5
12B
100
AcDbEntity
8
0
100
AcDbBlockBegin
2
_U0
70
0
10
0
20
0
30
0
3
_U0
0
MTEXT
5
125
100
AcDbEntity
8
SK2
62
256
6
ByLayer
370
13
48
1
60
0
100
AcDbMText
10
22.462701
20
-14.230765
30
0
210
0
220
0
230
1
1
\W0.7317;55,20
40
3.5
41
0
44
1.084337
50
0
71
7
72
5
7
iso_b_vert
0
LINE
5
126
100
AcDbEntity
8
SK2
62
256
6
ByLayer
370
13
48
1
60
0
100
AcDbLine
10
0
20
-1.5875
30
0
11
0
21
-17.263398
31
0
39
0
210
0
220
0
230
1
0
LINE
5
127
100
AcDbEntity
8
SK2
62
256
6
ByLayer
370
13
48
1
60
0
100
AcDbLine
10
55.2
20
-6.6375
30
0
11
55.2
21
-17.263398
31
0
39
0
210
0
220
0
230
1
0
LINE
5
128
100
AcDbEntity
8
SK2
62
256
6
ByLayer
370
13
48
1
60
0
100
AcDbLine
10
0
20
-15.263398
30
0
11
55.2
21
-15.263398
31
0
39
0
210
0
220
0
230
1
0
SOLID
5
129
100
AcDbEntity
8
SK2
62
256
6
ByLayer
370
18
48
1
60
0
100
AcDbTrace
10
0
20
-15.263398
30
0
11
3.499998
21
-14.802615
31
0
12
3.500002
22
-15.724182
32
0
13
3.500002
23
-15.724182
33
0
39
0
210
0
220
0
230
1
0
SOLID
5
12A
100
AcDbEntity
8
SK2
62
256
6
ByLayer
370
18
48
1
60
0
100
AcDbTrace
10
55.2
20
-15.263398
30
0
11
51.700002
21
-15.724182
31
0
12
51.699998
22
-14.802615
32
0
13
51.699998
23
-14.802615
33
0
39
0
210
0
220
0
230
1
0
ENDBLK
5
12C
100
AcDbEntity
8
0
100
AcDbBlockEnd
0
BLOCK
5
131
100
AcDbEntity
8
0
100
AcDbBlockBegin
2
*D3
70
1
10
0
20
0
30
0
3
*D3
0
LINE
5
133
100
AcDbEntity
8
0
62
256
6
ByLayer
370
-2
48
1
60
0
100
AcDbLine
10
-45
20
-7.5875
30
0
11
-45
21
-36.692985
31
0
39
0
210
0
220
0
230
1
0
LINE
5
134
100
AcDbEntity
8
0
62
256
6
ByLayer
370
-2
48
1
60
0
100
AcDbLine
10
57
20
-1.5875
30
0
11
57
21
-36.692985
31
0
39
0
210
0
220
0
230
1
0
LINE
5
135
100
AcDbEntity
8
0
62
256
6
ByLayer
370
-2
48
1
60
0
100
AcDbLine
10
-41.5
20
-34.692985
30
0
11
53.5
21
-34.692985
31
0
39
0
210
0
220
0
230
1
0
SOLID
5
136
100
AcDbEntity
8
0
62
256
6
ByLayer
370
-1
48
1
60
0
100
AcDbTrace
10
-41.5
20
-34.109652
30
0
11
-41.5
21
-35.276319
31
0
12
-45
22
-34.692985
32
0
13
-45
23
-34.692985
33
0
39
0
210
0
220
0
230
1
0
SOLID
5
137
100
AcDbEntity
8
0
62
256
6
ByLayer
370
-1
48
1
60
0
100
AcDbTrace
10
53.5
20
-35.276319
30
0
11
53.5
21
-34.109652
31
0
12
57
22
-34.692985
32
0
13
57
23
-34.692985
33
0
39
0
210
0
220
0
230
1
0
MTEXT
5
138
100
AcDbEntity
8
0
62
256
6
ByLayer
370
18
48
1
60
0
100
AcDbMText
10
6
20
-27.692985
30
0
210
0
220
0
230
1
1
\A1;102.00
40
3.5
41
0
44
1
50
0
71
5
72
5
7
iso_b_vert
0
POINT
5
139
100
AcDbEntity
8
Defpoints
62
0
6
ByLayer
370
-1
48
1
60
0
100
AcDbPoint
10
-45
20
-6
30
0
39
0
210
0
220
0
230
1
50
360
0
POINT
5
13A
100
AcDbEntity
8
Defpoints
62
0
6
ByLayer
370
-1
48
1
60
0
100
AcDbPoint
10
57
20
0
30
0
39
0
210
0
220
0
230
1
50
360
0
POINT
5
13B
100
AcDbEntity
8
Defpoints
62
0
6
ByLayer
370
-1
48
1
60
0
100
AcDbPoint
10
57
20
-34.692985
30
0
39
0
210
0
220
0
230
1
50
360
0
ENDBLK
5
132
100
AcDbEntity
8
0
100
AcDbBlockEnd
0
BLOCK
5
143
100
AcDbEntity
8
0
100
AcDbBlockBegin
2
_U1
70
0
10
0
20
0
30
0
3
_U1
0
MTEXT
5
13D
100
AcDbEntity
8
SK2
62
256
6
ByLayer
370
13
48
1
60
0
100
AcDbMText
10
-0.007599
20
-33.660352
30
0
210
0
220
0
230
1
1
\W0.6930;102,00
40
3.5
41
0
44
1.084337
50
0
71
7
72
5
7
iso_b_vert
0
LINE
5
13E
100
AcDbEntity
8
SK2
62
256
6
ByLayer
370
13
48
1
60
0
100
AcDbLine
10
-45
20
-7.5875
30
0
11
-45
21
-36.692985
31
0
39
0
210
0
220
0
230
1
0
LINE
5
13F
100
AcDbEntity
8
SK2
62
256
6
ByLayer
370
13
48
1
60
0
100
AcDbLine
10
57
20
-1.5875
30
0
11
57
21
-36.692985
31
0
39
0
210
0
220
0
230
1
0
LINE
5
140
100
AcDbEntity
8
SK2
62
256
6
ByLayer
370
13
48
1
60
0
100
AcDbLine
10
-45
20
-34.692985
30
0
11
57
21
-34.692985
31
0
39
0
210
0
220
0
230
1
0
SOLID
5
141
100
AcDbEntity
8
SK2
62
256
6
ByLayer
370
18
48
1
60
0
100
AcDbTrace
10
-45
20
-34.692985
30
0
11
-41.500002
21
-34.232202
31
0
12
-41.499998
22
-35.153769
32
0
13
-41.499998
23
-35.153769
33
0
39
0
210
0
220
0
230
1
0
SOLID
5
142
100
AcDbEntity
8
SK2
62
256
6
ByLayer
370
18
48
1
60
0
100
AcDbTrace
10
57
20
-34.692985
30
0
11
53.500002
21
-35.153769
31
0
12
53.499998
22
-34.232202
32
0
13
53.499998
23
-34.232202
33
0
39
0
210
0
220
0
230
1
0
ENDBLK
5
144
100
AcDbEntity
8
0
100
AcDbBlockEnd
0
BLOCK
5
149
100
AcDbEntity
8
0
100
AcDbBlockBegin
2
*D5
70
1
10
0
20
0
30
0
3
*D5
0
LINE
5
14B
100
AcDbEntity
8
0
62
256
6
ByLayer
370
-2
48
1
60
0
100
AcDbLine
10
18.7319
20
6.6375
30
0
11
18.7319
21
18.659119
31
0
39
0
210
0
220
0
230
1
0
LINE
5
14C
100
AcDbEntity
8
0
62
256
6
ByLayer
370
-2
48
1
60
0
100
AcDbLine
10
57
20
1.5875
30
0
11
57
21
18.659119
31
0
39
0
210
0
220
0
230
1
0
LINE
5
14D
100
AcDbEntity
8
0
62
256
6
ByLayer
370
-2
48
1
60
0
100
AcDbLine
10
22.2319
20
16.659119
30
0
11
53.5
21
16.659119
31
0
39
0
210
0
220
0
230
1
0
SOLID
5
14E
100
AcDbEntity
8
0
62
256
6
ByLayer
370
-1
48
1
60
0
100
AcDbTrace
10
22.2319
20
17.242453
30
0
11
22.2319
21
16.075786
31
0
12
18.7319
22
16.659119
32
0
13
18.7319
23
16.659119
33
0
39
0
210
0
220
0
230
1
0
SOLID
5
14F
100
AcDbEntity
8
0
62
256
6
ByLayer
370
-1
48
1
60
0
100
AcDbTrace
10
53.5
20
16.075786
30
0
11
53.5
21
17.242453
31
0
12
57
22
16.659119
32
0
13
57
23
16.659119
33
0
39
0
210
0
220
0
230
1
0
MTEXT
5
150
100
AcDbEntity
8
0
62
256
6
ByLayer
370
18
48
1
60
0
100
AcDbMText
10
37.86595
20
23.659119
30
0
210
0
220
0
230
1
1
\A1;38.27
40
3.5
41
0
44
1
50
0
71
5
72
5
7
iso_b_vert
0
POINT
5
151
100
AcDbEntity
8
Defpoints
62
0
6
ByLayer
370
-1
48
1
60
0
100
AcDbPoint
10
18.7319
20
5.05
30
0
39
0
210
0
220
0
230
1
50
360
0
POINT
5
152
100
AcDbEntity
8
Defpoints
62
0
6
ByLayer
370
-1
48
1
60
0
100
AcDbPoint
10
57
20
0
30
0
39
0
210
0
220
0
230
1
50
360
0
POINT
5
153
100
AcDbEntity
8
Defpoints
62
0
6
ByLayer
370
-1
48
1
60
0
100
AcDbPoint
10
57
20
16.659119
30
0
39
0
210
0
220
0
230
1
50
360
0
ENDBLK
5
14A
100
AcDbEntity
8
0
100
AcDbBlockEnd
0
BLOCK
5
15B
100
AcDbEntity
8
0
100
AcDbBlockBegin
2
_U2
70
0
10
0
20
0
30
0
3
_U2
0
MTEXT
5
155
100
AcDbEntity
8
SK2
62
256
6
ByLayer
370
13
48
1
60
0
100
AcDbMText
10
32.728651
20
17.691753
30
0
210
0
220
0
230
1
1
\W0.7317;38,27
40
3.5
41
0
44
1.084337
50
0
71
7
72
5
7
iso_b_vert
0
LINE
5
156
100
AcDbEntity
8
SK2
62
256
6
ByLayer
370
13
48
1
60
0
100
AcDbLine
10
18.7319
20
6.6375
30
0
11
18.7319
21
18.659119
31
0
39
0
210
0
220
0
230
1
0
LINE
5
157
100
AcDbEntity
8
SK2
62
256
6
ByLayer
370
13
48
1
60
0
100
AcDbLine
10
57
20
1.5875
30
0
11
57
21
18.659119
31
0
39
0
210
0
220
0
230
1
0
LINE
5
158
100
AcDbEntity
8
SK2
62
256
6
ByLayer
370
13
48
1
60
0
100
AcDbLine
10
18.7319
20
16.659119
30
0
11
57
21
16.659119
31
0
39
0
210
0
220
0
230
1
0
SOLID
5
159
100
AcDbEntity
8
SK2
62
256
6
ByLayer
370
18
48
1
60
0
100
AcDbTrace
10
18.7319
20
16.659119
30
0
11
22.231898
21
17.119903
31
0
12
22.231902
22
16.198335
32
0
13
22.231902
23
16.198335
33
0
39
0
210
0
220
0
230
1
0
SOLID
5
15A
100
AcDbEntity
8
SK2
62
256
6
ByLayer
370
18
48
1
60
0
100
AcDbTrace
10
57
20
16.659119
30
0
11
53.500002
21
16.198335
31
0
12
53.499998
22
17.119903
32
0
13
53.499998
23
17.119903
33
0
39
0
210
0
220
0
230
1
0
ENDBLK
5
15C
100
AcDbEntity
8
0
100
AcDbBlockEnd
0
BLOCK
5
161
100
AcDbEntity
8
0
100
AcDbBlockBegin
2
*D7
70
1
10
0
20
0
30
0
3
*D7
0
LINE
5
163
100
AcDbEntity
8
0
62
256
6
ByLayer
370
-2
48
1
60
0
100
AcDbLine
10
57
20
-1.5875
30
0
11
57
21
-19.852503
31
0
39
0
210
0
220
0
230
1
0
LINE
5
164
100
AcDbEntity
8
0
62
256
6
ByLayer
370
-2
48
1
60
0
100
AcDbLine
10
55.2
20
-6.6375
30
0
11
55.2
21
-19.852503
31
0
39
0
210
0
220
0
230
1
0
LINE
5
165
100
AcDbEntity
8
0
62
256
6
ByLayer
370
-2
48
1
60
0
100
AcDbLine
10
57
20
-17.852503
30
0
11
84.666667
21
-17.852503
31
0
39
0
210
0
220
0
230
1
0
LINE
5
166
100
AcDbEntity
8
0
62
256
6
ByLayer
370
-2
48
1
60
0
100
AcDbLine
10
60.5
20
-17.852503
30
0
11
64
21
-17.852503
31
0
39
0
210
0
220
0
230
1
0
LINE
5
167
100
AcDbEntity
8
0
62
256
6
ByLayer
370
-2
48
1
60
0
100
AcDbLine
10
51.7
20
-17.852503
30
0
11
48.2
21
-17.852503
31
0
39
0
210
0
220
0
230
1
0
SOLID
5
168
100
AcDbEntity
8
0
62
256
6
ByLayer
370
-1
48
1
60
0
100
AcDbTrace
10
60.5
20
-17.26917
30
0
11
60.5
21
-18.435837
31
0
12
57
22
-17.852503
32
0
13
57
23
-17.852503
33
0
39
0
210
0
220
0
230
1
0
SOLID
5
169
100
AcDbEntity
8
0
62
256
6
ByLayer
370
-1
48
1
60
0
100
AcDbTrace
10
51.7
20
-18.435837
30
0
11
51.7
21
-17.26917
31
0
12
55.2
22
-17.852503
32
0
13
55.2
23
-17.852503
33
0
39
0
210
0
220
0
230
1
0
MTEXT
5
16A
100
AcDbEntity
8
0
62
256
6
ByLayer
370
18
48
1
60
0
100
AcDbMText
10
74.333333
20
-10.852503
30
0
210
0
220
0
230
1
1
\A1;1.80
40
3.5
41
0
44
1
50
0
71
5
72
5
7
iso_b_vert
0
POINT
5
16B
100
AcDbEntity
8
Defpoints
62
0
6
ByLayer
370
-1
48
1
60
0
100
AcDbPoint
10
57
20
0
30
0
39
0
210
0
220
0
230
1
50
360
0
POINT
5
16C
100
AcDbEntity
8
Defpoints
62
0
6
ByLayer
370
-1
48
1
60
0
100
AcDbPoint
10
55.2
20
-5.05
30
0
39
0
210
0
220
0
230
1
50
360
0
POINT
5
16D
100
AcDbEntity
8
Defpoints
62
0
6
ByLayer
370
-1
48
1
60
0
100
AcDbPoint
10
55.2
20
-17.852503
30
0
39
0
210
0
220
0
230
1
50
360
0
ENDBLK
5
162
100
AcDbEntity
8
0
100
AcDbBlockEnd
0
BLOCK
5
175
100
AcDbEntity
8
0
100
AcDbBlockBegin
2
_U3
70
0
10
0
20
0
30
0
3
_U3
0
MTEXT
5
16F
100
AcDbEntity
8
SK2
62
256
6
ByLayer
370
13
48
1
60
0
100
AcDbMText
10
63.589293
20
-16.81987
30
0
210
0
220
0
230
1
1
\W0.6367;1,80
40
3.5
41
0
44
1.084337
50
0
71
7
72
5
7
iso_b_vert
0
LINE
5
170
100
AcDbEntity
8
SK2
62
256
6
ByLayer
370
13
48
1
60
0
100
AcDbLine
10
57
20
-1.5875
30
0
11
57
21
-19.852503
31
0
39
0
210
0
220
0
230
1
0
LINE
5
171
100
AcDbEntity
8
SK2
62
256
6
ByLayer
370
13
48
1
60
0
100
AcDbLine
10
55.2
20
-6.6375
30
0
11
55.2
21
-19.852503
31
0
39
0
210
0
220
0
230
1
0
LINE
5
172
100
AcDbEntity
8
SK2
62
256
6
ByLayer
370
13
48
1
60
0
100
AcDbLine
10
46.45
20
-17.852503
30
0
11
70.559058
21
-17.852503
31
0
39
0
210
0
220
0
230
1
0
SOLID
5
173
100
AcDbEntity
8
SK2
62
256
6
ByLayer
370
18
48
1
60
0
100
AcDbTrace
10
57
20
-17.852503
30
0
11
60.499998
21
-17.391719
31
0
12
60.500002
22
-18.313287
32
0
13
60.500002
23
-18.313287
33
0
39
0
210
0
220
0
230
1
0
SOLID
5
174
100
AcDbEntity
8
SK2
62
256
6
ByLayer
370
18
48
1
60
0
100
AcDbTrace
10
55.2
20
-17.852503
30
0
11
51.700002
21
-18.313287
31
0
12
51.699998
22
-17.391719
32
0
13
51.699998
23
-17.391719
33
0
39
0
210
0
220
0
230
1
0
ENDBLK
5
176
100
AcDbEntity
8
0
100
AcDbBlockEnd
0
BLOCK
5
17B
100
AcDbEntity
8
0
100
AcDbBlockBegin
2
*D9
70
1
10
0
20
0
30
0
3
*D9
0
LINE
5
17D
100
AcDbEntity
8
0
62
256
6
ByLayer
370
-2
48
1
60
0
100
AcDbLine
10
-45
20
-7.5875
30
0
11
-45
21
-26.343428
31
0
39
0
210
0
220
0
230
1
0
LINE
5
17E
100
AcDbEntity
8
0
62
256
6
ByLayer
370
-2
48
1
60
0
100
AcDbLine
10
55.2
20
-6.6375
30
0
11
55.2
21
-26.343428
31
0
39
0
210
0
220
0
230
1
0
LINE
5
17F
100
AcDbEntity
8
0
62
256
6
ByLayer
370
-2
48
1
60
0
100
AcDbLine
10
-41.5
20
-24.343428
30
0
11
51.7
21
-24.343428
31
0
39
0
210
0
220
0
230
1
0
SOLID
5
180
100
AcDbEntity
8
0
62
256
6
ByLayer
370
-1
48
1
60
0
100
AcDbTrace
10
-41.5
20
-23.760095
30
0
11
-41.5
21
-24.926762
31
0
12
-45
22
-24.343428
32
0
13
-45
23
-24.343428
33
0
39
0
210
0
220
0
230
1
0
SOLID
5
181
100
AcDbEntity
8
0
62
256
6
ByLayer
370
-1
48
1
60
0
100
AcDbTrace
10
51.7
20
-24.926762
30
0
11
51.7
21
-23.760095
31
0
12
55.2
22
-24.343428
32
0
13
55.2
23
-24.343428
33
0
39
0
210
0
220
0
230
1
0
MTEXT
5
182
100
AcDbEntity
8
0
62
256
6
ByLayer
370
18
48
1
60
0
100
AcDbMText
10
5.1
20
-17.343428
30
0
210
0
220
0
230
1
1
\A1;100.20
40
3.5
41
0
44
1
50
0
71
5
72
5
7
iso_b_vert
0
POINT
5
183
100
AcDbEntity
8
Defpoints
62
0
6
ByLayer
370
-1
48
1
60
0
100
AcDbPoint
10
-45
20
-6
30
0
39
0
210
0
220
0
230
1
50
360
0
POINT
5
184
100
AcDbEntity
8
Defpoints
62
0
6
ByLayer
370
-1
48
1
60
0
100
AcDbPoint
10
55.2
20
-5.05
30
0
39
0
210
0
220
0
230
1
50
360
0
POINT
5
185
100
AcDbEntity
8
Defpoints
62
0
6
ByLayer
370
-1
48
1
60
0
100
AcDbPoint
10
55.2
20
-24.343428
30
0
39
0
210
0
220
0
230
1
50
360
0
ENDBLK
5
17C
100
AcDbEntity
8
0
100
AcDbBlockEnd
0
BLOCK
5
18D
100
AcDbEntity
8
0
100
AcDbBlockBegin
2
_U4
70
0
10
0
20
0
30
0
3
_U4
0
MTEXT
5
187
100
AcDbEntity
8
SK2
62
256
6
ByLayer
370
13
48
1
60
0
100
AcDbMText
10
-0.907599
20
-23.310795
30
0
210
0
220
0
230
1
1
\W0.6930;100,20
40
3.5
41
0
44
1.084337
50
0
71
7
72
5
7
iso_b_vert
0
LINE
5
188
100
AcDbEntity
8
SK2
62
256
6
ByLayer
370
13
48
1
60
0
100
AcDbLine
10
-45
20
-7.5875
30
0
11
-45
21
-26.343428
31
0
39
0
210
0
220
0
230
1
0
LINE
5
189
100
AcDbEntity
8
SK2
62
256
6
ByLayer
370
13
48
1
60
0
100
AcDbLine
10
55.2
20
-6.6375
30
0
11
55.2
21
-26.343428
31
0
39
0
210
0
220
0
230
1
0
LINE
5
18A
100
AcDbEntity
8
SK2
62
256
6
ByLayer
370
13
48
1
60
0
100
AcDbLine
10
-45
20
-24.343428
30
0
11
55.2
21
-24.343428
31
0
39
0
210
0
220
0
230
1
0
SOLID
5
18B
100
AcDbEntity
8
SK2
62
256
6
ByLayer
370
18
48
1
60
0
100
AcDbTrace
10
-45
20
-24.343428
30
0
11
-41.500002
21
-23.882645
31
0
12
-41.499998
22
-24.804212
32
0
13
-41.499998
23
-24.804212
33
0
39
0
210
0
220
0
230
1
0
SOLID
5
18C
100
AcDbEntity
8
SK2
62
256
6
ByLayer
370
18
48
1
60
0
100
AcDbTrace
10
55.2
20
-24.343428
30
0
11
51.700002
21
-24.804212
31
0
12
51.699998
22
-23.882645
32
0
13
51.699998
23
-23.882645
33
0
39
0
210
0
220
0
230
1
0
ENDBLK
5
18E
100
AcDbEntity
8
0
100
AcDbBlockEnd
0
ENDSEC
0
SECTION
2
ENTITIES
0
ARC
5
B4
100
AcDbEntity
8
1
62
256
6
ByLayer
370
18
48
1
60
0
100
AcDbCircle
39
0
10
1.489064
20
-5.785396
30
0
40
0.800000000000003
210
0
220
0
230
1
100
AcDbArc
50
89.931245
51
158.538705
0
ARC
5
B5
100
AcDbEntity
8
1
62
256
6
ByLayer
370
18
48
1
60
0
100
AcDbCircle
39
0
10
0
20
-5.2
30
0
40
0.799999999999996
210
0
220
0
230
1
100
AcDbArc
50
270
51
338.538705
0
ARC
5
B6
100
AcDbEntity
8
1
62
256
6
ByLayer
370
18
48
1
60
0
100
AcDbCircle
39
0
10
1.489064
20
5.785396
30
0
40
0.800000000000003
210
0
220
0
230
1
100
AcDbArc
50
201.461295
51
270.068755
0
ARC
5
B7
100
AcDbEntity
8
1
62
256
6
ByLayer
370
18
48
1
60
0
100
AcDbCircle
39
0
10
0
20
5.2
30
0
40
0.799999999999996
210
0
220
0
230
1
100
AcDbArc
50
21.461295
51
90
0
ELLIPSE
5
B8
100
AcDbEntity
8
1
62
256
6
ByLayer
370
18
48
1
60
0
100
AcDbEllipse
10
56.952453
20
-0.059253
30
0
11
0.0685673025956213
21
0.197677259006237
31
0
210
0
220
0
230
1
40
0.089621
41
-2.14968638253912
42
-1.08755637893989
0
ELLIPSE
5
B9
100
AcDbEntity
8
1
62
256
6
ByLayer
370
18
48
1
60
0
100
AcDbEllipse
10
57.000846
20
-0.002207
30
0
11
1.8495560148058
21
-5.05016098871349
31
0
210
0
220
0
230
1
40
0.073902
41
2.86181524549745
42
2.92714959998354
0
ELLIPSE
5
BA
100
AcDbEntity
8
1
62
256
6
ByLayer
370
13
48
1
60
0
100
AcDbEllipse
10
4.186042
20
0.187225
30
0
11
-0.043299152775699
21
-0.0901397990285461
31
0
210
0
220
0
230
1
40
0.378336
41
-1.35342923436354
42
0.0191405697615978
0
ELLIPSE
5
BB
100
AcDbEntity
8
1
62
256
6
ByLayer
370
18
48
1
60
0
100
AcDbEllipse
10
56.388596
20
1.898138
30
0
11
0.292882377457683
21
-0.799707144668097
31
0
210
0
220
0
230
1
40
0.073902
41
0.722713221280581
42
1.44380047680842
0
ELLIPSE
5
BC
100
AcDbEntity
8
1
62
256
6
ByLayer
370
18
48
1
60
0
100
AcDbEllipse
10
57.072806
20
0.14761
30
0
11
0.107158237729595
21
0.326150730000734
31
0
210
0
220
0
230
1
40
0.050974
41
2.15296219593306
42
2.34746926028791
0
ELLIPSE
5
BD
100
AcDbEntity
8
1
62
256
6
ByLayer
370
18
48
1
60
0
100
AcDbEllipse
10
47.50459
20
1.898138
30
0
11
9.14397571608545
21
-0.596547346699758
31
0
210
0
220
0
230
1
40
0.058294
41
0.0205368743832591
42
0.307444295268187
0
ELLIPSE
5
BE
100
AcDbEntity
8
1
62
256
6
ByLayer
370
18
48
1
60
0
100
AcDbEllipse
10
57.000846
20
0.002206
30
0
11
1.84955571908527
21
5.05016013318863
31
0
210
0
220
0
230
1
40
0.073902
41
-2.92714958202067
42
-2.86181522186441
0
ELLIPSE
5
BF
100
AcDbEntity
8
1
62
256
6
ByLayer
370
18
48
1
60
0
100
AcDbEllipse
10
57.072806
20
-0.14761
30
0
11
0.107158233125886
21
-0.326150717510336
31
0
210
0
220
0
230
1
40
0.050974
41
-2.34746924881603
42
-2.15296217911778
0
ELLIPSE
5
C0
100
AcDbEntity
8
1
62
256
6
ByLayer
370
18
48
1
60
0
100
AcDbEllipse
10
56.388596
20
-1.898138
30
0
11
0.292882377373188
21
0.799707144470999
31
0
210
0
220
0
230
1
40
0.073902
41
-1.44380047697998
42
-0.722713221300398
0
ELLIPSE
5
C1
100
AcDbEntity
8
1
62
256
6
ByLayer
370
13
48
1
60
0
100
AcDbEllipse
10
4.250237
20
0.156787
30
0
11
0.0425214668261723
21
0.0905092528913521
31
0
210
0
220
0
230
1
40
0.015025
41
3.12952160713761
42
-1.59904300186264
0
POINT
5
70
100
AcDbEntity
8
80
62
256
6
ByLayer
370
18
48
1
60
0
100
AcDbPoint
10
0
20
0
30
0
39
0
210
0
220
0
230
1
50
360
0
POINT
5
72
100
AcDbEntity
8
81
62
256
6
ByLayer
370
18
48
1
60
0
100
AcDbPoint
10
57
20
0
30
0
39
0
210
0
220
0
230
1
50
360
0
POINT
5
74
100
AcDbEntity
8
1
62
256
6
ByLayer
370
18
48
1
60
1
100
AcDbPoint
10
55.2
20
-5.05
30
0
39
0
210
0
220
0
230
1
50
360
0
POINT
5
76
100
AcDbEntity
8
1
62
256
6
ByLayer
370
18
48
1
60
1
100
AcDbPoint
10
-45
20
-6
30
0
39
0
210
0
220
0
230
1
50
360
0
POINT
5
77
100
AcDbEntity
8
1
62
256
6
ByLayer
370
18
48
1
60
1
100
AcDbPoint
10
18.7319
20
5.05
30
0
39
0
210
0
220
0
230
1
50
360
0
POINT
5
78
100
AcDbEntity
8
1
62
256
6
ByLayer
370
18
48
1
60
1
100
AcDbPoint
10
55.2
20
-5.05
30
0
39
0
210
0
220
0
230
1
50
360
0
POINT
5
79
100
AcDbEntity
8
1
62
256
6
ByLayer
370
18
48
1
60
1
100
AcDbPoint
10
-45
20
-6
30
0
39
0
210
0
220
0
230
1
50
360
0
POINT
5
7A
100
AcDbEntity
8
1
62
256
6
ByLayer
370
18
48
1
60
1
100
AcDbPoint
10
55.2
20
-5.05
30
0
39
0
210
0
220
0
230
1
50
360
0
SPLINE
5
C2
100
AcDbEntity
8
SK1
62
256
6
ByLayer
370
18
48
1
60
0
100
AcDbSpline
70
4
71
3
72
12
73
8
40
0
40
0
40
0
40
0
40
0.249999999999998
40
0.249999999999998
40
0.499999999999995
40
0.499999999999995
40
1
40
1
40
1
40
1
41
1
10
-44.15
20
-4.53908679743478
30
0
41
1
10
-44.15
20
-4.53112779128645
30
0
41
1
10
-44.1541941749322
20
-4.51957963898417
30
0
41
1
10
-44.1670526877135
20
-4.49462137012821
30
0
41
1
10
-44.175534353051
20
-4.48136352350755
30
0
41
1
10
-44.2039198806883
20
-4.44184170341526
30
0
41
1
10
-44.2265892999413
20
-4.41591646901344
30
0
41
1
10
-44.25
20
-4.39321814512286
30
0
0
SPLINE
5
C3
100
AcDbEntity
8
SK1
62
256
6
ByLayer
370
18
48
1
60
0
100
AcDbSpline
70
4
71
3
72
8
73
4
40
0
40
0
40
0
40
0
40
1
40
1
40
1
40
1
41
1
10
-44.25
20
-4.39321814512286
30
0
41
1
10
-44.5004607764222
20
-4.15037876779263
30
0
41
1
10
-44.750543195514
20
-3.90719251328255
30
0
41
1
10
-45
20
-3.66343269665873
30
0
0
SPLINE
5
C4
100
AcDbEntity
8
SK1
62
256
6
ByLayer
370
18
48
1
60
0
100
AcDbSpline
70
4
71
3
72
12
73
8
40
0
40
0
40
0
40
0
40
0.499999999999997
40
0.499999999999997
40
0.749999999999999
40
0.749999999999999
40
1
40
1
40
1
40
1
41
1
10
-44.25
20
-5.01545547584769
30
0
41
1
10
-44.2265845479658
20
-5.03815840711349
30
0
41
1
10
-44.2038584068652
20
-5.05926007051352
30
0
41
1
10
-44.1756851307021
20
-5.08349735860457
30
0
41
1
10
-44.1670829075058
20
-5.09049061953453
30
0
41
1
10
-44.1542477010067
20
-5.09949778358185
30
0
41
1
10
-44.15
20
-5.10145890324418
30
0
41
1
10
-44.15
20
-5.09910039508708
30
0
0
SPLINE
5
C5
100
AcDbEntity
8
SK1
62
256
6
ByLayer
370
18
48
1
60
0
100
AcDbSpline
70
4
71
3
72
8
73
4
40
0
40
0
40
0
40
0
40
1
40
1
40
1
40
1
41
1
10
-45
20
-4.28567002738353
30
0
41
1
10
-44.7505376619712
20
-4.52943525117749
30
0
41
1
10
-44.5004560637861
20
-4.77262066775037
30
0
41
1
10
-44.25
20
-5.01545547584766
30
0
0
SPLINE
5
C6
100
AcDbEntity
8
1
62
256
6
ByLayer
370
18
48
1
60
0
100
AcDbSpline
70
4
71
3
72
26
73
22
40
0
40
0
40
0
40
0
40
0.125
40
0.125
40
0.25
40
0.25
40
0.3125
40
0.3125
40
0.375
40
0.375
40
0.5
40
0.5
40
0.625
40
0.625
40
0.6875
40
0.6875
40
0.75
40
0.75
40
0.875
40
0.875
40
1
40
1
40
1
40
1
41
1
10
4.0047317571987
20
0.294735510829554
30
0
41
1
10
4.0047377528561
20
0.535052930979788
30
0
41
1
10
4.00474301901835
20
0.774693197472175
30
0
41
1
10
4.00475230325225
20
1.24179138663357
30
0
41
1
10
4.00475635428563
20
1.47047984683195
30
0
41
1
10
4.00476187914302
20
1.80626417425327
30
0
41
1
10
4.0047636283939
20
1.91697965031605
30
0
41
1
10
4.00476699469152
20
2.13593569450219
30
0
41
1
10
4.00476861696748
20
2.2445412830015
30
0
41
1
10
4.00477329480043
20
2.56181925659857
30
0
41
1
10
4.00477618360679
20
2.76316595038887
30
0
41
1
10
4.00478190580711
20
3.14606740874149
30
0
41
1
10
4.00478473799998
20
3.32762288304909
30
0
41
1
10
4.00478918795045
20
3.58459373062149
30
0
41
1
10
4.00479070088795
20
3.66742673088982
30
0
41
1
10
4.00479377630037
20
3.82533606273285
30
0
41
1
10
4.00479534433771
20
3.9007419198395
30
0
41
1
10
4.00480017347053
20
4.11649049790429
30
0
41
1
10
4.0048035625928
20
4.24641745129298
30
0
41
1
10
4.0048107841057
20
4.47810635943799
30
0
41
1
10
4.00481464073175
20
4.58012219484442
30
0
41
1
10
4.00481858920222
20
4.66468345257314
30
0
0
SPLINE
5
C7
100
AcDbEntity
8
1
62
256
6
ByLayer
370
18
48
1
60
0
100
AcDbSpline
70
4
71
3
72
16
73
12
40
0
40
0
40
0
40
0
40
0.124999999999991
40
0.124999999999991
40
0.249999999999981
40
0.249999999999981
40
0.499999999999988
40
0.499999999999988
40
0.749999999999994
40
0.749999999999994
40
1
40
1
40
1
40
1
41
1
10
56.4828659443299
20
1.81832131429277
30
0
41
1
10
56.4896497097341
20
1.79965192875173
30
0
41
1
10
56.4938377552397
20
1.78062901481468
30
0
41
1
10
56.4956311319128
20
1.74166881397318
30
0
41
1
10
56.4930493031218
20
1.72216065421733
30
0
41
1
10
56.4756942774734
20
1.6669841142409
30
0
41
1
10
56.4519409192399
20
1.63531707326249
30
0
41
1
10
56.3970316408885
20
1.5826859857809
30
0
41
1
10
56.3653976018043
20
1.56079779560056
30
0
41
1
10
56.2994426044
20
1.52228091911636
30
0
41
1
10
56.2652373902275
20
1.50579743936373
30
0
41
1
10
56.2303296512653
20
1.49087303012826
30
0
0
SPLINE
5
C8
100
AcDbEntity
8
1
62
256
6
ByLayer
370
18
48
1
60
0
100
AcDbSpline
70
4
71
3
72
30
73
26
40
0
40
0
40
0
40
0
40
0.0625000000000023
40
0.0625000000000023
40
0.125000000000005
40
0.125000000000005
40
0.187500000000007
40
0.187500000000007
40
0.250000000000009
40
0.250000000000009
40
0.312500000000011
40
0.312500000000011
40
0.375000000000014
40
0.375000000000014
40
0.500000000000013
40
0.500000000000013
40
0.625000000000012
40
0.625000000000012
40
0.750000000000012
40
0.750000000000012
40
0.812500000000009
40
0.812500000000009
40
0.875000000000006
40
0.875000000000006
40
1
40
1
40
1
40
1
41
1
10
56.1516361601206
20
-2.30209694396075
30
0
41
1
10
56.152331058714
20
-2.31093962476606
30
0
41
1
10
56.1515337182264
20
-2.32355905475717
30
0
41
1
10
56.1469153205603
20
-2.35645072298428
30
0
41
1
10
56.1430374467341
20
-2.3769710310267
30
0
41
1
10
56.1322341174898
20
-2.4252043621151
30
0
41
1
10
56.1253905013569
20
-2.45262170866437
30
0
41
1
10
56.1088509534968
20
-2.51398545897089
30
0
41
1
10
56.0990274417563
20
-2.54833883763715
30
0
41
1
10
56.0772389147754
20
-2.62104412881755
30
0
41
1
10
56.0652493561909
20
-2.65952808996994
30
0
41
1
10
56.0391506717396
20
-2.74062044116917
30
0
41
1
10
56.0250567465323
20
-2.78315293541974
30
0
41
1
10
55.9812944321777
20
-2.91195456945351
30
0
41
1
10
55.9492018561032
20
-3.0021943255081
30
0
41
1
10
55.8842188006327
20
-3.17815536906005
30
0
41
1
10
55.8506335880595
20
-3.26577536221049
30
0
41
1
10
55.7855842936696
20
-3.42968194014151
30
0
41
1
10
55.7533414198934
20
-3.50793977352112
30
0
41
1
10
55.7081385112452
20
-3.61336152923354
30
0
41
1
10
55.6935505801231
20
-3.6466350932177
30
0
41
1
10
55.6653345720995
20
-3.70944645049772
30
0
41
1
10
55.6516170838033
20
-3.73916763644675
30
0
41
1
10
55.6128648858096
20
-3.82055979615546
30
0
41
1
10
55.5900661727848
20
-3.86493897846844
30
0
41
1
10
55.5705808642246
20
-3.89853324889009
30
0
0
SPLINE
5
C9
100
AcDbEntity
8
1
62
256
6
ByLayer
370
13
48
1
60
0
100
AcDbSpline
70
4
71
3
72
8
73
4
40
0
40
0
40
0
40
0
40
1
40
1
40
1
40
1
41
1
10
4.25039584603806
20
0.153591923607394
30
0
41
1
10
4.21332956784238
20
0.163825592313884
30
0
41
1
10
4.17718248552913
20
0.173976431580599
30
0
41
1
10
4.14340344354133
20
0.18378145389093
30
0
0
SPLINE
5
CA
100
AcDbEntity
8
1
62
256
6
ByLayer
370
18
48
1
60
0
100
AcDbSpline
70
4
71
3
72
10
73
6
40
0
40
0
40
0
40
0
40
0.462981519561076
40
0.462981519561076
40
1
40
1
40
1
40
1
41
1
10
5.579921535637
20
-4.09562396851118
30
0
41
1
10
5.36919449078397
20
-4.16234198392152
30
0
41
1
10
5.15979608683728
20
-4.22649157155541
30
0
41
1
10
4.7149232816611
20
-4.35732185039811
30
0
41
1
10
4.48004271887288
20
-4.42297388733061
30
0
41
1
10
4.25075117605439
20
-4.48280027289974
30
0
0
SPLINE
5
CB
100
AcDbEntity
8
1
62
256
6
ByLayer
370
18
48
1
60
0
100
AcDbSpline
70
4
71
3
72
50
73
46
40
0
40
0
40
0
40
0
40
0.0624999999999995
40
0.0624999999999995
40
0.124999999999999
40
0.124999999999999
40
0.187499999999998
40
0.187499999999998
40
0.249999999999998
40
0.249999999999998
40
0.312499999999997
40
0.312499999999997
40
0.374999999999997
40
0.374999999999997
40
0.437499999999996
40
0.437499999999996
40
0.468749999999996
40
0.468749999999996
40
0.499999999999995
40
0.499999999999995
40
0.531249999999995
40
0.531249999999995
40
0.562499999999995
40
0.562499999999995
40
0.593749999999994
40
0.593749999999994
40
0.624999999999994
40
0.624999999999994
40
0.656249999999994
40
0.656249999999994
40
0.687499999999993
40
0.687499999999993
40
0.718749999999993
40
0.718749999999993
40
0.749999999999993
40
0.749999999999993
40
0.781249999999993
40
0.781249999999993
40
0.812499999999992
40
0.812499999999992
40
0.874999999999995
40
0.874999999999995
40
0.937499999999997
40
0.937499999999997
40
1
40
1
40
1
40
1
41
1
10
56.1516361601205
20
-2.30209694396049
30
0
41
1
10
56.1268782037089
20
-2.28915579672687
30
0
41
1
10
56.0996403762315
20
-2.28408493134196
30
0
41
1
10
56.0411064203042
20
-2.2868228913423
30
0
41
1
10
56.0095296094577
20
-2.29480341488082
30
0
41
1
10
55.9438488009601
20
-2.32251898784304
30
0
41
1
10
55.9099206091762
20
-2.34208189996411
30
0
41
1
10
55.8400077501598
20
-2.39199333300306
30
0
41
1
10
55.8037506072342
20
-2.42265452745033
30
0
41
1
10
55.7312617050634
20
-2.49324642031402
30
0
41
1
10
55.6948568700769
20
-2.53323071821174
30
0
41
1
10
55.6217061233615
20
-2.62316968905103
30
0
41
1
10
55.5845673264851
20
-2.67372963663686
30
0
41
1
10
55.5122649756269
20
-2.78330651995876
30
0
41
1
10
55.4770819805992
20
-2.84218336245823
30
0
41
1
10
55.4260595053295
20
-2.93789698799469
30
0
41
1
10
55.4093235843802
20
-2.97113017766134
30
0
41
1
10
55.3774102355886
20
-3.03860188791936
30
0
41
1
10
55.3621210534891
20
-3.07303745786515
30
0
41
1
10
55.3330160904576
20
-3.14345312588787
30
0
41
1
10
55.3190974293315
20
-3.17972848668978
30
0
41
1
10
55.2934999142014
20
-3.25256425795948
30
0
41
1
10
55.2818787424282
20
-3.28890531354034
30
0
41
1
10
55.261131960978
20
-3.36142460499755
30
0
41
1
10
55.2519344629052
20
-3.39795134518536
30
0
41
1
10
55.2367028706023
20
-3.46903882256726
30
0
41
1
10
55.2306895007863
20
-3.50336621015711
30
0
41
1
10
55.221822989687
20
-3.56962215590585
30
0
41
1
10
55.218963595392
20
-3.60182743163327
30
0
41
1
10
55.2165782703343
20
-3.6623347570287
30
0
41
1
10
55.2170247021014
20
-3.69045293490493
30
0
41
1
10
55.2209418259263
20
-3.7427491500795
30
0
41
1
10
55.2244607153369
20
-3.76708384566666
30
0
41
1
10
55.2341771230446
20
-3.8108657709621
30
0
41
1
10
55.2403506941988
20
-3.830394864429
30
0
41
1
10
55.255062679073
20
-3.86520674786229
30
0
41
1
10
55.2636706947091
20
-3.88056084289684
30
0
41
1
10
55.2827048007392
20
-3.90672979236695
30
0
41
1
10
55.293127125862
20
-3.91760692383599
30
0
41
1
10
55.3268058735279
20
-3.94435764513742
30
0
41
1
10
55.3527220884891
20
-3.95442730352869
30
0
41
1
10
55.4089469980893
20
-3.96046325881397
30
0
41
1
10
55.4389786550184
20
-3.9565540286705
30
0
41
1
10
55.5024047308576
20
-3.93659794590698
30
0
41
1
10
55.5361114442553
20
-3.92030730798561
30
0
41
1
10
55.5705808642245
20
-3.89853324889029
30
0
0
SPLINE
5
CC
100
AcDbEntity
8
1
62
256
6
ByLayer
370
18
48
1
60
0
100
AcDbSpline
70
4
71
3
72
72
73
68
40
0
40
0
40
0
40
0
40
0.0339466372588266
40
0.0339466372588266
40
0.0678932745176532
40
0.0678932745176532
40
0.10183991177648
40
0.10183991177648
40
0.135786549035306
40
0.135786549035306
40
0.169733186294133
40
0.169733186294133
40
0.20367982355296
40
0.20367982355296
40
0.237626460811786
40
0.237626460811786
40
0.254599779441199
40
0.254599779441199
40
0.271573098070613
40
0.271573098070613
40
0.305519735329439
40
0.305519735329439
40
0.322493053958852
40
0.322493053958852
40
0.339466372588265
40
0.339466372588265
40
0.37341300984709
40
0.37341300984709
40
0.407359647105916
40
0.407359647105916
40
0.441306284364741
40
0.441306284364741
40
0.475252921623567
40
0.475252921623567
40
0.509199558882392
40
0.509199558882392
40
0.543146196141218
40
0.543146196141218
40
0.577092833400043
40
0.577092833400043
40
0.611039470658869
40
0.611039470658869
40
0.644986107917694
40
0.644986107917694
40
0.67893274517652
40
0.67893274517652
40
0.712879382435345
40
0.712879382435345
40
0.746826019694171
40
0.746826019694171
40
0.780772656952996
40
0.780772656952996
40
0.814719294211822
40
0.814719294211822
40
0.848665931470647
40
0.848665931470647
40
0.86563925010006
40
0.86563925010006
40
0.882612568729474
40
0.882612568729474
40
0.916559205988299
40
0.916559205988299
40
0.950505843247125
40
0.950505843247125
40
0.98445248050595
40
0.98445248050595
40
1
40
1
40
1
40
1
41
1
10
22.1507983703797
20
4.90334897935361
30
0
41
1
10
22.4993505144525
20
4.8690227935096
30
0
41
1
10
22.8473320426003
20
4.82681272834338
30
0
41
1
10
23.5414370799327
20
4.72688797338066
30
0
41
1
10
23.8874586412441
20
4.66907933279225
30
0
41
1
10
24.5773484257927
20
4.53755683360993
30
0
41
1
10
24.9223280793921
20
4.46481833207457
30
0
41
1
10
25.6116082924903
20
4.30509259123102
30
0
41
1
10
25.9556318086787
20
4.21776860392617
30
0
41
1
10
26.6433367190685
20
4.02895077193145
30
0
41
1
10
26.987773386941
20
3.92841818675592
30
0
41
1
10
27.6771528282132
20
3.71444628369241
30
0
41
1
10
28.021829969448
20
3.60058769832676
30
0
41
1
10
28.7122498251861
20
3.36035608796274
30
0
41
1
10
29.0587375832621
20
3.2352126031798
30
0
41
1
10
29.5796867420455
20
3.03883479172578
30
0
41
1
10
29.75354634667
20
2.97193542225816
30
0
41
1
10
30.1015701367841
20
2.83496490202577
30
0
41
1
10
30.2759077590159
20
2.76473506500105
30
0
41
1
10
30.798287683526
20
2.55179251468894
30
0
41
1
10
31.1458748620767
20
2.40676966333453
30
0
41
1
10
31.665689736052
20
2.18362217712374
30
0
41
1
10
31.8387061794267
20
2.10831348606769
30
0
41
1
10
32.184142005862
20
1.95566695823089
30
0
41
1
10
32.3564916042287
20
1.8781867783984
30
0
41
1
10
32.8737383438838
20
1.64489044113762
30
0
41
1
10
33.2185529715381
20
1.48767629622009
30
0
41
1
10
33.907240147072
20
1.16809019049401
30
0
41
1
10
34.250690703939
20
1.00482564500084
30
0
41
1
10
34.9385928743426
20
0.677108721038337
30
0
41
1
10
35.2830618589358
20
0.51271701213642
30
0
41
1
10
35.9723199507269
20
0.181362358765284
30
0
41
1
10
36.3166886025073
20
0.0134751529522532
30
0
41
1
10
37.0078277079183
20
-0.320465408505243
30
0
41
1
10
37.35455649784
20
-0.486581975498496
30
0
41
1
10
38.0494646096066
20
-0.819054278175571
30
0
41
1
10
38.3981125457156
20
-0.986615274083988
30
0
41
1
10
39.0938989190643
20
-1.31406942756252
30
0
41
1
10
39.4409863859528
20
-1.47465402738095
30
0
41
1
10
40.1329454444493
20
-1.79100145971611
30
0
41
1
10
40.4774470094058
20
-1.94745078367046
30
0
41
1
10
41.1667549141566
20
-2.25044522339084
30
0
41
1
10
41.5112680806999
20
-2.39764361766262
30
0
41
1
10
42.1991509913929
20
-2.68510983135931
30
0
41
1
10
42.5422853077054
20
-2.82573024456028
30
0
41
1
10
43.2301584802532
20
-3.0950485618624
30
0
41
1
10
43.5745009589512
20
-3.22450164299721
30
0
41
1
10
44.2633564681294
20
-3.47397981709631
30
0
41
1
10
44.6076458532876
20
-3.59428669700068
30
0
41
1
10
45.2991457511383
20
-3.8210480310523
30
0
41
1
10
45.6459343382681
20
-3.92820955308324
30
0
41
1
10
46.3407780980321
20
-4.13101675961798
30
0
41
1
10
46.6894900186313
20
-4.22668325878254
30
0
41
1
10
47.3846988179194
20
-4.40111262425296
30
0
41
1
10
47.7314102476741
20
-4.48068924396489
30
0
41
1
10
48.2496625904356
20
-4.58918081693884
30
0
41
1
10
48.4220124138055
20
-4.62360057117513
30
0
41
1
10
48.7666804479265
20
-4.68827704299383
30
0
41
1
10
48.939008290987
20
-4.71854180757006
30
0
41
1
10
49.4558001009277
20
-4.80337155263939
30
0
41
1
10
49.8000722983769
20
-4.85200921165784
30
0
41
1
10
50.487207701015
20
-4.93386004738784
30
0
41
1
10
50.8304524479781
20
-4.96677721370676
30
0
41
1
10
51.5183265560888
20
-5.01596109791504
30
0
41
1
10
51.8625786354461
20
-5.03243628907543
30
0
41
1
10
52.3644824062708
20
-5.0444858236591
30
0
41
1
10
52.5220939092213
20
-5.04653253566948
30
0
41
1
10
52.6799866381435
20
-5.04682045872289
30
0
0
SPLINE
5
CD
100
AcDbEntity
8
1
62
256
6
ByLayer
370
13
48
1
60
0
100
AcDbSpline
70
4
71
3
72
12
73
8
40
0
40
0
40
0
40
0
40
0.499999999999978
40
0.499999999999978
40
0.749999999999989
40
0.749999999999989
40
1
40
1
40
1
40
1
41
1
10
4.00473175719546
20
0.294735510826683
30
0
41
1
10
4.01197737139216
20
0.27151190562364
30
0
41
1
10
4.02756180147031
20
0.249363584199614
30
0
41
1
10
4.06249255398143
20
0.220684694631331
30
0
41
1
10
4.07635342678239
20
0.211689970151724
30
0
41
1
10
4.10734825526052
20
0.196020310337502
30
0
41
1
10
4.12445281951943
20
0.189282240189073
30
0
41
1
10
4.14340344354133
20
0.18378145389093
30
0
0
SPLINE
5
CE
100
AcDbEntity
8
1
62
256
6
ByLayer
370
18
48
1
60
0
100
AcDbSpline
70
4
71
3
72
54
73
50
40
0
40
0
40
0
40
0
40
0.0273284181305649
40
0.0273284181305649
40
0.0597508041928803
40
0.0597508041928803
40
0.0921731902551956
40
0.0921731902551956
40
0.124595576317511
40
0.124595576317511
40
0.157017962379826
40
0.157017962379826
40
0.221862734504457
40
0.221862734504457
40
0.286707506629088
40
0.286707506629088
40
0.319129892691403
40
0.319129892691403
40
0.351552278753718
40
0.351552278753718
40
0.416397050878349
40
0.416397050878349
40
0.448819436940664
40
0.448819436940664
40
0.481241823002978
40
0.481241823002978
40
0.513664209065293
40
0.513664209065293
40
0.546086595127607
40
0.546086595127607
40
0.578508981189921
40
0.578508981189921
40
0.610931367252236
40
0.610931367252236
40
0.675776139376865
40
0.675776139376865
40
0.740620911501494
40
0.740620911501494
40
0.773043297563808
40
0.773043297563808
40
0.805465683626121
40
0.805465683626121
40
0.870310455750747
40
0.870310455750747
40
0.90273284181306
40
0.90273284181306
40
0.935155227875373
40
0.935155227875373
40
1
40
1
40
1
40
1
41
1
10
32.0233629343364
20
4.81826973645352
30
0
41
1
10
32.2077441536204
20
4.81767989849183
30
0
41
1
10
32.3920755727216
20
4.81484887094126
30
0
41
1
10
32.79520513836
20
4.80382519860373
30
0
41
1
10
33.0140202676184
20
4.79468333241968
30
0
41
1
10
33.4516722123596
20
4.77086590573842
30
0
41
1
10
33.6704857879845
20
4.75622121883885
30
0
41
1
10
34.1083244043824
20
4.71967802436694
30
0
41
1
10
34.3273839991437
20
4.69799879948732
30
0
41
1
10
34.7660318635661
20
4.64833178887454
30
0
41
1
10
34.9854936116423
20
4.62079652438206
30
0
41
1
10
35.6429682722023
20
4.52873386981821
30
0
41
1
10
36.080169853896
20
4.45283415731717
30
0
41
1
10
36.9549507528447
20
4.28006810384352
30
0
41
1
10
37.3925567657993
20
4.18266826557897
30
0
41
1
10
38.0490787697745
20
4.02077040100627
30
0
41
1
10
38.2679154977222
20
3.96475655789723
30
0
41
1
10
38.7061924737386
20
3.84619255970924
30
0
41
1
10
38.9257170045055
20
3.78363896331257
30
0
41
1
10
39.5832687415717
20
3.58884986413469
30
0
41
1
10
40.0205880517793
20
3.44878793717635
30
0
41
1
10
40.6765253087173
20
3.22664185360492
30
0
41
1
10
40.895220546541
20
3.15068850031463
30
0
41
1
10
41.3326158893665
20
2.99497592809632
30
0
41
1
10
41.5512925314379
20
2.91526265752981
30
0
41
1
10
41.9888214577184
20
2.75086782236659
30
0
41
1
10
42.2076948843647
20
2.66637031996467
30
0
41
1
10
42.6458903266063
20
2.49403149070946
30
0
41
1
10
42.8653648203324
20
2.40616972390941
30
0
41
1
10
43.3038369516407
20
2.22773627599278
30
0
41
1
10
43.522872781044
20
2.1369947781339
30
0
41
1
10
43.9605419566832
20
1.95271303792123
30
0
41
1
10
44.1790967919488
20
1.85907728500993
30
0
41
1
10
44.8348706516796
20
1.57539245484025
30
0
41
1
10
45.2722229016456
20
1.38204174353859
30
0
41
1
10
46.1472565438345
20
0.987303048272878
30
0
41
1
10
46.5853975689868
20
0.786027607443032
30
0
41
1
10
47.2431542325497
20
0.482868636700886
30
0
41
1
10
47.4622032322771
20
0.381538229629058
30
0
41
1
10
47.8998063786877
20
0.178223678576472
30
0
41
1
10
48.1183119971579
20
0.0761385922001807
30
0
41
1
10
48.7737931185193
20
-0.229548585822982
30
0
41
1
10
49.2110251910642
20
-0.431976375383044
30
0
41
1
10
49.8668675195917
20
-0.734609256776395
30
0
41
1
10
50.0854758693499
20
-0.835325506094904
30
0
41
1
10
50.5229278557688
20
-1.03593313298734
30
0
41
1
10
50.7417193880127
20
-1.13595266700509
30
0
41
1
10
51.3994730695899
20
-1.4322435916217
30
0
41
1
10
51.8374243020194
20
-1.62550537753
30
0
41
1
10
52.2744039929377
20
-1.81441771044621
30
0
0
SPLINE
5
CF
100
AcDbEntity
8
1
62
256
6
ByLayer
370
18
48
1
60
0
100
AcDbSpline
70
4
71
3
72
24
73
20
40
0
40
0
40
0
40
0
40
0.0922445389233734
40
0.0922445389233734
40
0.184489077846747
40
0.184489077846747
40
0.230611347308432
40
0.230611347308432
40
0.276733616770118
40
0.276733616770118
40
0.368978155693492
40
0.368978155693492
40
0.553467233540238
40
0.553467233540238
40
0.737956311386985
40
0.737956311386985
40
0.922445389233732
40
0.922445389233732
40
1
40
1
40
1
40
1
41
1
10
22.1509148252493
20
4.90333556942153
30
0
41
1
10
21.6685969802512
20
4.95084371970418
30
0
41
1
10
21.1816914026458
20
4.97987005442531
30
0
41
1
10
20.1992888562093
20
5.00988654731478
30
0
41
1
10
19.7037721578567
20
5.01079807783282
30
0
41
1
10
18.9539475612282
20
4.99595395649044
30
0
41
1
10
18.702715364977
20
4.98828201780751
30
0
41
1
10
18.1998872535712
20
4.96833613464057
30
0
41
1
10
17.9481081494919
20
4.95606211501976
30
0
41
1
10
17.1915700503378
20
4.91349505411958
30
0
41
1
10
16.6856083252805
20
4.87746948876963
30
0
41
1
10
15.1621137951685
20
4.75510019941839
30
0
41
1
10
14.138919765582
20
4.65465806287006
30
0
41
1
10
12.0741745320064
20
4.4574149361618
30
0
41
1
10
11.0326363596024
20
4.36074803675081
30
0
41
1
10
8.92937791379524
20
4.20419514635191
30
0
41
1
10
7.86760646330492
20
4.14437329440761
30
0
41
1
10
6.34450875265574
20
4.10058119871817
30
0
41
1
10
5.89372432408675
20
4.09272824982054
30
0
41
1
10
5.44293196022142
20
4.09028351141816
30
0
0
SPLINE
5
D0
100
AcDbEntity
8
1
62
256
6
ByLayer
370
18
48
1
60
0
100
AcDbSpline
70
4
71
3
72
16
73
12
40
0
40
0
40
0
40
0
40
0.0627612765009903
40
0.0627612765009903
40
0.375174184333992
40
0.375174184333992
40
0.531380638250492
40
0.531380638250492
40
0.687587092166993
40
0.687587092166993
40
1
40
1
40
1
40
1
41
1
10
2.27891571764957
20
4.98593916872869
30
0
41
1
10
2.30473382333062
20
4.9854014680883
30
0
41
1
10
2.33179257744246
20
4.98425966553592
30
0
41
1
10
2.49914818857309
20
4.9741828015261
30
0
41
1
10
2.66252425127169
20
4.95280166907861
30
0
41
1
10
2.92871428855867
20
4.90795500115763
30
0
41
1
10
3.02082047316759
20
4.89085140668459
30
0
41
1
10
3.20850659786143
20
4.85341895145939
30
0
41
1
10
3.30439230023336
20
4.83303673423723
30
0
41
1
10
3.59698909525548
20
4.76763070732966
30
0
41
1
10
3.7985774105608
20
4.71838542095841
30
0
41
1
10
4.00481858920222
20
4.66468345257317
30
0
0
SPLINE
5
D1
100
AcDbEntity
8
1
62
256
6
ByLayer
370
18
48
1
60
0
100
AcDbSpline
70
4
71
3
72
24
73
20
40
0
40
0
40
0
40
0
40
0.125
40
0.125
40
0.25
40
0.25
40
0.374999999999999
40
0.374999999999999
40
0.499999999999999
40
0.499999999999999
40
0.624999999999999
40
0.624999999999999
40
0.687499999999999
40
0.687499999999999
40
0.749999999999999
40
0.749999999999999
40
0.875
40
0.875
40
1
40
1
40
1
40
1
41
1
10
55.3262664380892
20
-4.88933248627703
30
0
41
1
10
55.374495122767
20
-4.76928635138816
30
0
41
1
10
55.4228114083555
20
-4.64793210755201
30
0
41
1
10
55.5195708119562
20
-4.40332968263075
30
0
41
1
10
55.568034945815
20
-4.27976768041074
30
0
41
1
10
55.665161994025
20
-4.02967536733161
30
0
41
1
10
55.713809033042
20
-3.90338211640972
30
0
41
1
10
55.8112154406664
20
-3.64911824225598
30
0
41
1
10
55.86000739319
20
-3.52066105658855
30
0
41
1
10
55.9577639756325
20
-3.26116816359797
30
0
41
1
10
56.00682136119
20
-3.12973056676498
30
0
41
1
10
56.0800962145407
20
-2.93255764769984
30
0
41
1
10
56.1044663405321
20
-2.86684856962927
30
0
41
1
10
56.1528841341996
20
-2.73551997984885
30
0
41
1
10
56.1769672702562
20
-2.66989061640425
30
0
41
1
10
56.2488717747519
20
-2.47309832687765
30
0
41
1
10
56.2963990506914
20
-2.34201708823747
30
0
41
1
10
56.39095964697
20
-2.07999181258393
30
0
41
1
10
56.4378638811344
20
-1.94908363068217
30
0
41
1
10
56.4843507531098
20
-1.81829137574079
30
0
0
SPLINE
5
D2
100
AcDbEntity
8
1
62
256
6
ByLayer
370
18
48
1
60
0
100
AcDbSpline
70
4
71
3
72
16
73
12
40
0
40
0
40
0
40
0
40
0.142942636579736
40
0.142942636579736
40
0.270007912973937
40
0.270007912973937
40
0.397073189368138
40
0.397073189368138
40
0.651203742156533
40
0.651203742156533
40
1
40
1
40
1
40
1
41
1
10
21.1140837815004
20
-4.80610439577436
30
0
41
1
10
20.8153411341916
20
-4.80849395310813
30
0
41
1
10
20.5161003387232
20
-4.80492930648029
30
0
41
1
10
19.9495565749522
20
-4.78680743434722
30
0
41
1
10
19.6823656692008
20
-4.77347094038421
30
0
41
1
10
19.1467028061805
20
-4.73729171535382
30
0
41
1
10
18.8787950021229
20
-4.71445716783316
30
0
41
1
10
18.0778217500239
20
-4.63233870681947
30
0
41
1
10
17.5460762563796
20
-4.55936029506958
30
0
41
1
10
16.2874955306303
20
-4.34519416870043
30
0
41
1
10
15.5617964966917
20
-4.18871190297889
30
0
41
1
10
14.8355986736299
20
-4.00298759884262
30
0
0
SPLINE
5
D3
100
AcDbEntity
8
1
62
256
6
ByLayer
370
13
48
1
60
0
100
AcDbSpline
70
4
71
3
72
18
73
14
40
0
40
0
40
0
40
0
40
0.0946801374280713
40
0.0946801374280713
40
0.245566781190061
40
0.245566781190061
40
0.321010103071056
40
0.321010103071056
40
0.396453424952051
40
0.396453424952051
40
0.698226712476026
40
0.698226712476026
40
1
40
1
40
1
40
1
41
1
10
14.8355986732234
20
-4.00298759873866
30
0
41
1
10
14.5035910251265
20
-3.91807700350395
30
0
41
1
10
14.1714791204997
20
-3.82705425924811
30
0
41
1
10
13.309110357263
20
-3.57594952825113
30
0
41
1
10
12.778324531764
20
-3.4068151939529
30
0
41
1
10
11.9793662958123
20
-3.13304473379765
30
0
41
1
10
11.7125361897083
20
-3.03848270016093
30
0
41
1
10
11.1775752364072
20
-2.84314194311568
30
0
41
1
10
10.9091084151334
20
-2.74222599155286
30
0
41
1
10
9.57093135889318
20
-2.22624587970006
30
0
41
1
10
8.50906965431449
20
-1.77455109443312
30
0
41
1
10
6.38440215998722
20
-0.831546216597161
30
0
41
1
10
5.32199337409745
20
-0.339513719286856
30
0
41
1
10
4.25039584603803
20
0.153591923607422
30
0
0
SPLINE
5
D4
100
AcDbEntity
8
1
62
256
6
ByLayer
370
18
48
1
60
0
100
AcDbSpline
70
4
71
3
72
16
73
12
40
0
40
0
40
0
40
0
40
0.102997247068535
40
0.102997247068535
40
0.205994494137069
40
0.205994494137069
40
0.411988988274143
40
0.411988988274143
40
0.823977976548295
40
0.823977976548295
40
1
40
1
40
1
40
1
41
1
10
55.3300584957568
20
-4.77758074306712
30
0
41
1
10
55.0623000520293
20
-4.79843432850379
30
0
41
1
10
54.7949988796345
20
-4.81472353631639
30
0
41
1
10
54.2597676348386
20
-4.83740128048288
30
0
41
1
10
53.9925644289766
20
-4.84388885131901
30
0
41
1
10
53.1930540637994
20
-4.84895714023358
30
0
41
1
10
52.6623134859453
20
-4.83317241656621
30
0
41
1
10
51.073734056547
20
-4.73014657367418
30
0
41
1
10
50.019351053709
20
-4.58700148047598
30
0
41
1
10
48.50911738552
20
-4.28419811599386
30
0
41
1
10
48.0563183321227
20
-4.18101759317449
30
0
41
1
10
47.6021271929381
20
-4.06594102891955
30
0
0
SPLINE
5
D5
100
AcDbEntity
8
1
62
256
6
ByLayer
370
13
48
1
60
0
100
AcDbSpline
70
4
71
3
72
28
73
24
40
0
40
0
40
0
40
0
40
0.0147097345208371
40
0.0147097345208371
40
0.065258126259001
40
0.065258126259001
40
0.115806517997165
40
0.115806517997165
40
0.318000084949814
40
0.318000084949814
40
0.520193651902463
40
0.520193651902463
40
0.570742043640626
40
0.570742043640626
40
0.621290435378789
40
0.621290435378789
40
0.722387218855112
40
0.722387218855112
40
0.823484002331436
40
0.823484002331436
40
0.924580785807759
40
0.924580785807759
40
1
40
1
40
1
40
1
41
1
10
47.6021274948041
20
-4.06594110540209
30
0
41
1
10
47.5247891707068
20
-4.04634620920319
30
0
41
1
10
47.4474104841008
20
-4.02640639594597
30
0
41
1
10
47.1039343728423
20
-3.93642942512042
30
0
41
1
10
46.8373736971923
20
-3.8626555558518
30
0
41
1
10
46.302956981123
20
-3.70722625362018
30
0
41
1
10
46.03496564565
20
-3.62551566590679
30
0
41
1
10
44.70036591211
20
-3.20108381914341
30
0
41
1
10
43.6421968772119
20
-2.80919221666355
30
0
41
1
10
41.5284034279877
20
-1.95216298527819
30
0
41
1
10
40.4724077342378
20
-1.48768645486223
30
0
41
1
10
39.1431832465035
20
-0.883017706194835
30
0
41
1
10
38.8768681420795
20
-0.760888160371621
30
0
41
1
10
38.3429756471603
20
-0.514950750925806
30
0
41
1
10
38.0750377189023
20
-0.390998432926466
30
0
41
1
10
37.2721704574745
20
-0.018678025343263
30
0
41
1
10
36.7382148657559
20
0.230033491645798
30
0
41
1
10
35.6704774737447
20
0.723259405377632
30
0
41
1
10
35.1366811949584
20
0.967742084476384
30
0
41
1
10
34.0671633816766
20
1.44799526043286
30
0
41
1
10
33.5310249506858
20
1.68375291820516
30
0
41
1
10
32.5979496468287
20
2.08079723560604
30
0
41
1
10
32.1996992233883
20
2.24592778021463
30
0
41
1
10
31.8014211042343
20
2.40571923079597
30
0
0
SPLINE
5
D6
100
AcDbEntity
8
1
62
256
6
ByLayer
370
18
48
1
60
0
100
AcDbSpline
70
4
71
3
72
22
73
18
40
0
40
0
40
0
40
0
40
0.0852818930817973
40
0.0852818930817973
40
0.230815996699438
40
0.230815996699438
40
0.303583048508257
40
0.303583048508257
40
0.376350100317077
40
0.376350100317077
40
0.521884203934717
40
0.521884203934717
40
0.812952411169997
40
0.812952411169997
40
0.958486514787637
40
0.958486514787637
40
1
40
1
40
1
40
1
41
1
10
22.1508547885745
20
4.90336463537045
30
0
41
1
10
21.8750873320147
20
4.82683955150287
30
0
41
1
10
21.5988849405684
20
4.74685279085264
30
0
41
1
10
20.8497260609994
20
4.52107069783403
30
0
41
1
10
20.3756275258236
20
4.36869704008708
30
0
41
1
10
19.6601998928135
20
4.12680017907007
30
0
41
1
10
19.4206838734899
20
4.04384393472765
30
0
41
1
10
18.9429000737754
20
3.87508248561952
30
0
41
1
10
18.7043522864852
20
3.78918842705676
30
0
41
1
10
17.9893308361678
20
3.52803943903967
30
0
41
1
10
17.5134877908757
20
3.34928978599984
30
0
41
1
10
16.0847768436533
20
2.80895041233217
30
0
41
1
10
15.1307611494413
20
2.44312149256729
30
0
41
1
10
13.6809990690857
20
1.93101101840611
30
0
41
1
10
13.1935646441891
20
1.76618371573528
30
0
41
1
10
12.5680884415135
20
1.56939633353306
30
0
41
1
10
12.4292451651242
20
1.52663933623836
30
0
41
1
10
12.2903449315025
20
1.48487738292869
30
0
0
SPLINE
5
D7
100
AcDbEntity
8
1
62
256
6
ByLayer
370
18
48
1
60
0
100
AcDbSpline
70
4
71
3
72
27
73
23
40
0
40
0
40
0
40
0
40
0.298708420412716
40
0.298708420412716
40
0.445945459260111
40
0.445945459260111
40
0.519563978683807
40
0.519563978683807
40
0.556373238395652
40
0.556373238395652
40
0.565575553323616
40
0.565575553323616
40
0.567876132055607
40
0.567876132055607
40
0.570176710787597
40
0.570176710787597
40
0.574777868251577
40
0.574777868251577
40
0.5931824981075
40
0.887656575802281
40
0.887656575802281
40
1
40
1
40
1
40
1
41
1
10
15.014348516027
20
0.304477189842345
30
0
41
1
10
15.1270994801257
20
0.274830008836801
30
0
41
1
10
15.2396042581086
20
0.245503916457096
30
0
41
1
10
15.406885914976
20
0.202234538460459
30
0
41
1
10
15.462007521424
20
0.18803153762795
30
0
41
1
10
15.5440803222446
20
0.166897878338688
30
0
41
1
10
15.5713630710496
20
0.159879032955274
30
0
41
1
10
15.6117183805843
20
0.149436544226006
30
0
41
1
10
15.6252101864797
20
0.145948992842449
30
0
41
1
10
15.6411800216803
20
0.141710283830747
30
0
41
1
10
15.6443715906059
20
0.140861174630686
30
0
41
1
10
15.6479001718702
20
0.139870671774929
30
0
41
1
10
15.6485814114213
20
0.139676701434951
30
0
41
1
10
15.649721960099
20
0.139326080832433
30
0
41
1
10
15.6502130840544
20
0.139138792018457
30
0
41
1
10
15.6477501781223
20
0.139588950660396
30
0
41
1
10
15.6459979481673
20
0.1399248634836
30
0
41
1
10
15.6375093676475
20
0.141519860776981
30
0
41
1
10
15.5220583759728
20
0.16335653615144
30
0
41
1
10
15.406528289571
20
0.187645628118361
30
0
41
1
10
15.2561539092167
20
0.222146842645714
30
0
41
1
10
15.2146296621972
20
0.231977797620402
30
0
41
1
10
15.1731022003105
20
0.242108180283168
30
0
0
SPLINE
5
D8
100
AcDbEntity
8
1
62
256
6
ByLayer
370
18
48
1
60
0
100
AcDbSpline
70
4
71
3
72
18
73
14
40
0
40
0
40
0
40
0
40
0.0869943215767395
40
0.0869943215767395
40
0.173127321324901
40
0.173127321324901
40
0.259260321073064
40
0.259260321073064
40
0.603792320065711
40
0.603792320065711
40
0.948324319058359
40
0.948324319058359
40
1
40
1
40
1
40
1
41
1
10
36.9707116781515
20
0.0134542147514765
30
0
41
1
10
37.2406777134884
20
-0.114494146877945
30
0
41
1
10
37.510824891592
20
-0.242563677759563
30
0
41
1
10
38.0491213869247
20
-0.497007929770234
30
0
41
1
10
38.3171986914988
20
-0.623351631616686
30
0
41
1
10
38.8513362535577
20
-0.873754755587129
30
0
41
1
10
39.1177651080556
20
-0.997972970128984
30
0
41
1
10
40.4474960303326
20
-1.61247698987495
30
0
41
1
10
41.503638724057
20
-2.08291690621942
30
0
41
1
10
43.6179748562911
20
-2.94760670494989
30
0
41
1
10
44.6764859856113
20
-3.34128593788603
30
0
41
1
10
45.9051797204643
20
-3.73130347771777
30
0
41
1
10
46.0658281314763
20
-3.78098070908399
30
0
41
1
10
46.2264471284096
20
-3.82928319356566
30
0
0
SPLINE
5
D9
100
AcDbEntity
8
1
62
256
6
ByLayer
370
13
48
1
60
0
100
AcDbSpline
70
4
71
3
72
20
73
16
40
0
40
0
40
0
40
0
40
0.0350917668678736
40
0.0350917668678736
40
0.122810697152611
40
0.122810697152611
40
0.298248557722088
40
0.298248557722088
40
0.649124278861044
40
0.649124278861044
40
0.824562139430522
40
0.824562139430522
40
0.912281069715261
40
0.912281069715261
40
1
40
1
40
1
40
1
41
1
10
46.2264471283452
20
-3.8292831935463
30
0
41
1
10
46.3335477970538
20
-3.86149126660794
30
0
41
1
10
46.4406353876279
20
-3.89308809752575
30
0
41
1
10
46.8149237016949
20
-4.00133784802651
30
0
41
1
10
47.0815940982621
20
-4.07457075890835
30
0
41
1
10
47.8800270876131
20
-4.28161885182774
30
0
41
1
10
48.4102018178498
20
-4.40292462078648
30
0
41
1
10
49.997809237163
20
-4.71378732418864
30
0
41
1
10
51.0523143807894
20
-4.84994890554881
30
0
41
1
10
52.6415193799734
20
-4.93982550853093
30
0
41
1
10
53.1725260378297
20
-4.95079162353602
30
0
41
1
10
53.9725560194506
20
-4.9378261646782
30
0
41
1
10
54.2399906438374
20
-4.92859081679055
30
0
41
1
10
54.7755516345426
20
-4.90020268821536
30
0
41
1
10
55.0432285873884
20
-4.88076249782114
30
0
41
1
10
55.3109221347523
20
-4.85705543725245
30
0
0
SPLINE
5
DA
100
AcDbEntity
8
1
62
256
6
ByLayer
370
18
48
1
60
0
100
AcDbSpline
70
4
71
3
72
14
73
10
40
0
40
0
40
0
40
0
40
0.25
40
0.25
40
0.5
40
0.5
40
0.75
40
0.75
40
1
40
1
40
1
40
1
41
1
10
4.25075117326008
20
-4.48280027362881
30
0
41
1
10
4.22527880275189
20
-4.48944648412458
30
0
41
1
10
4.19792716559323
20
-4.49875083008257
30
0
41
1
10
4.14199899630347
20
-4.52421754976396
30
0
41
1
10
4.1136189103301
20
-4.54054297108851
30
0
41
1
10
4.06495448628274
20
-4.57700051571055
30
0
41
1
10
4.04566705992676
20
-4.59627940005285
30
0
41
1
10
4.01826398109284
20
-4.63216750092121
30
0
41
1
10
4.0096033529708
20
-4.64921596731372
30
0
41
1
10
4.004818589205
20
-4.66468345256413
30
0
0
SPLINE
5
DB
100
AcDbEntity
8
1
62
256
6
ByLayer
370
18
48
1
60
0
100
AcDbSpline
70
4
71
3
72
14
73
10
40
0
40
0
40
0
40
0
40
0.5
40
0.5
40
0.75
40
0.75
40
0.875
40
0.875
40
1
40
1
40
1
40
1
41
1
10
54.4202071003825
20
-3.72243036600648
30
0
41
1
10
54.0288225128289
20
-3.48683231824853
30
0
41
1
10
53.6511519328372
20
-3.21606147058614
30
0
41
1
10
53.11009613844
20
-2.74463249071346
30
0
41
1
10
52.9340384528657
20
-2.57647589320845
30
0
41
1
10
52.6777978606395
20
-2.30411824723606
30
0
41
1
10
52.5936526954993
20
-2.2098613133422
30
0
41
1
10
52.430489124485
20
-2.01639138236538
30
0
41
1
10
52.3511986042557
20
-1.91690378666192
30
0
41
1
10
52.2744039929377
20
-1.81441771044621
30
0
0
SPLINE
5
DC
100
AcDbEntity
8
1
62
256
6
ByLayer
370
18
48
1
60
0
100
AcDbSpline
70
4
71
3
72
10
73
6
40
0
40
0
40
0
40
0
40
0.5
40
0.5
40
1
40
1
40
1
40
1
41
1
10
4.14182228351896
20
0.0992761751833768
30
0
41
1
10
4.11141022646427
20
0.113869465548021
30
0
41
1
10
4.08448362151145
20
0.134328164000863
30
0
41
1
10
4.04028642504738
20
0.184490292841502
30
0
41
1
10
4.02329763235858
20
0.214097154020294
30
0
41
1
10
4.01279166557586
20
0.245639828882105
30
0
0
SPLINE
5
DD
100
AcDbEntity
8
1
62
256
6
ByLayer
370
18
48
1
60
0
100
AcDbSpline
70
4
71
3
72
8
73
4
40
0
40
0
40
0
40
0
40
1
40
1
40
1
40
1
41
1
10
56.4828659443299
20
-1.81832131429277
30
0
41
1
10
56.4833608814137
20
-1.81831133516815
30
0
41
1
10
56.4838558176736
20
-1.81830135565105
30
0
41
1
10
56.4843507531098
20
-1.81829137574144
30
0
0
SPLINE
5
DE
100
AcDbEntity
8
1
62
256
6
ByLayer
370
18
48
1
60
0
100
AcDbSpline
70
4
71
3
72
18
73
14
40
0
40
0
40
0
40
0
40
0.125
40
0.125
40
0.25
40
0.25
40
0.375
40
0.375
40
0.5
40
0.5
40
0.75
40
0.75
40
1
40
1
40
1
40
1
41
1
10
4.25075117583808
20
4.48280027295621
30
0
41
1
10
4.4794673193343
20
4.42312401966811
30
0
41
1
10
4.71301758565062
20
4.35784521073839
30
0
41
1
10
5.18693956212616
20
4.2185455695201
30
0
41
1
10
5.42734549554143
20
4.14449970124664
30
0
41
1
10
5.91352409838964
20
3.98917195012012
30
0
41
1
10
6.15931441578991
20
3.90787210098506
30
0
41
1
10
6.65560519761732
20
3.73877736227601
30
0
41
1
10
6.90640902436732
20
3.65097715909425
30
0
41
1
10
7.66121567818089
20
3.380974217252
30
0
41
1
10
8.16859463357494
20
3.19042045441125
30
0
41
1
10
9.19126716983169
20
2.79672230826409
30
0
41
1
10
9.70741140448578
20
2.5928000678845
30
0
41
1
10
10.2263536678002
20
2.38655251751837
30
0
0
SPLINE
5
DF
100
AcDbEntity
8
1
62
256
6
ByLayer
370
18
48
1
60
0
100
AcDbSpline
70
4
71
3
72
10
73
6
40
0
40
0
40
0
40
0
40
0.819000753379089
40
0.819000753379089
40
1
40
1
40
1
40
1
41
1
10
55.2730751343859
20
4.96136722846759
30
0
41
1
10
54.7405501984683
20
5.00907462319316
30
0
41
1
10
54.2082098646812
20
5.03706540622758
30
0
41
1
10
53.5571923464229
20
5.04693882398297
30
0
41
1
10
53.4394279417453
20
5.04775199412603
30
0
41
1
10
53.3217208445569
20
5.0475945987582
30
0
0
SPLINE
5
E0
100
AcDbEntity
8
1
62
256
6
ByLayer
370
18
48
1
60
0
100
AcDbSpline
70
4
71
3
72
30
73
26
40
0
40
0
40
0
40
0
40
0.0109617732138504
40
0.0109617732138504
40
0.0933816254460294
40
0.0933816254460294
40
0.175801477678208
40
0.175801477678208
40
0.258221329910387
40
0.258221329910387
40
0.340641182142566
40
0.340641182142566
40
0.423061034374745
40
0.423061034374745
40
0.505480886606924
40
0.505480886606924
40
0.670320591071282
40
0.670320591071282
40
0.752740443303462
40
0.752740443303462
40
0.835160295535641
40
0.835160295535641
40
0.91758014776782
40
0.91758014776782
40
1
40
1
40
1
40
1
41
1
10
23.5455472119133
20
-4.82174162832681
30
0
41
1
10
23.4747806815628
20
-4.83097465192665
30
0
41
1
10
23.4040097271447
20
-4.83987219545708
30
0
41
1
10
22.8010593158542
20
-4.91279337426894
30
0
41
1
10
22.267938687432
20
-4.95808495215888
30
0
41
1
10
21.200550607217
20
-5.00920058139511
30
0
41
1
10
20.6682249950223
20
-5.01496646169474
30
0
41
1
10
19.6037896328356
20
-4.98717193861913
30
0
41
1
10
19.0717913467814
20
-4.9536006640989
30
0
41
1
10
18.0057377891708
20
-4.84757512018834
30
0
41
1
10
17.471268124546
20
-4.77505480467036
30
0
41
1
10
16.4058345311168
20
-4.59344784002687
30
0
41
1
10
15.8739137615291
20
-4.48427837103114
30
0
41
1
10
14.8091186002886
20
-4.23152141499523
30
0
41
1
10
14.2756803229878
20
-4.0877577959543
30
0
41
1
10
12.674109515491
20
-3.60980748774955
30
0
41
1
10
11.611920103767
20
-3.23026975003935
30
0
41
1
10
10.0118456691496
20
-2.59312571654783
30
0
41
1
10
9.47736373512709
20
-2.36903546384937
30
0
41
1
10
8.41073614751974
20
-1.90505871178044
30
0
41
1
10
7.87769253097082
20
-1.66496004588291
30
0
41
1
10
6.80989491023016
20
-1.17292580552882
30
0
41
1
10
6.27576802789378
20
-0.92123097277323
30
0
41
1
10
5.20920374404059
20
-0.413322175075507
30
0
41
1
10
4.67600915672909
20
-0.157054533907768
30
0
41
1
10
4.14182228351893
20
0.0992761751833768
30
0
0
SPLINE
5
E1
100
AcDbEntity
8
1
62
256
6
ByLayer
370
18
48
1
60
0
100
AcDbSpline
70
4
71
3
72
14
73
10
40
0
40
0
40
0
40
0
40
0.25
40
0.25
40
0.5
40
0.5
40
0.75
40
0.75
40
1
40
1
40
1
40
1
41
1
10
55.1095618437844
20
1.45456039584042
30
0
41
1
10
55.0856439625109
20
1.45401563710777
30
0
41
1
10
55.0616870786772
20
1.44937605199175
30
0
41
1
10
55.0199102894583
20
1.42785220918128
30
0
41
1
10
55.0022778266962
20
1.41023702234827
30
0
41
1
10
54.9817078067655
20
1.36690142651742
30
0
41
1
10
54.9785583984935
20
1.34246242390347
30
0
41
1
10
54.9811033536579
20
1.29468215166065
30
0
41
1
10
54.9866509046639
20
1.27098129715367
30
0
41
1
10
54.9945767294507
20
1.24817100554679
30
0
0
SPLINE
5
E2
100
AcDbEntity
8
1
62
256
6
ByLayer
370
18
48
1
60
0
100
AcDbSpline
70
4
71
3
72
24
73
20
40
0
40
0
40
0
40
0
40
0.125
40
0.125
40
0.25
40
0.25
40
0.375000000000001
40
0.375000000000001
40
0.500000000000001
40
0.500000000000001
40
0.625000000000001
40
0.625000000000001
40
0.687500000000001
40
0.687500000000001
40
0.750000000000001
40
0.750000000000001
40
0.875
40
0.875
40
1
40
1
40
1
40
1
41
1
10
55.3262664380891
20
4.88933248627706
30
0
41
1
10
55.374495122767
20
4.76928635138816
30
0
41
1
10
55.4228114083555
20
4.64793210755198
30
0
41
1
10
55.5195708119562
20
4.40332968263081
30
0
41
1
10
55.568034945815
20
4.27976768041077
30
0
41
1
10
55.665161994025
20
4.02967536733161
30
0
41
1
10
55.713809033042
20
3.90338211640972
30
0
41
1
10
55.8112154406664
20
3.64911824225598
30
0
41
1
10
55.8600073931901
20
3.52066105658855
30
0
41
1
10
55.9577639756325
20
3.26116816359797
30
0
41
1
10
56.0068213611901
20
3.12973056676498
30
0
41
1
10
56.0800962145407
20
2.93255764769984
30
0
41
1
10
56.1044663405321
20
2.86684856962927
30
0
41
1
10
56.1528841341995
20
2.73551997984885
30
0
41
1
10
56.1769672702563
20
2.66989061640427
30
0
41
1
10
56.2488717747519
20
2.47309832687767
30
0
41
1
10
56.2963990506915
20
2.34201708823747
30
0
41
1
10
56.39095964697
20
2.07999181258393
30
0
41
1
10
56.4378638811344
20
1.94908363068217
30
0
41
1
10
56.4843507531098
20
1.81829137574076
30
0
0
SPLINE
5
E3
100
AcDbEntity
8
1
62
256
6
ByLayer
370
18
48
1
60
0
100
AcDbSpline
70
4
71
3
72
36
73
32
40
0
40
0
40
0
40
0
40
0.0548202164467888
40
0.0548202164467888
40
0.133585198409556
40
0.133585198409556
40
0.212350180372323
40
0.212350180372323
40
0.291115162335089
40
0.291115162335089
40
0.369880144297856
40
0.369880144297856
40
0.448645126260623
40
0.448645126260623
40
0.488027617242007
40
0.488027617242007
40
0.527410108223392
40
0.527410108223392
40
0.606175090186159
40
0.606175090186159
40
0.684940072148925
40
0.684940072148925
40
0.763705054111692
40
0.763705054111692
40
0.803087545093077
40
0.803087545093077
40
0.842470036074462
40
0.842470036074462
40
0.921235018037231
40
0.921235018037231
40
1
40
1
40
1
40
1
41
1
10
42.1687083424732
20
2.67151943886833
30
0
41
1
10
42.4078526380067
20
2.77005687097665
30
0
41
1
10
42.646842951286
20
2.86666698952143
30
0
41
1
10
43.2301584802532
20
3.0950485618624
30
0
41
1
10
43.5745009589512
20
3.22450164299724
30
0
41
1
10
44.2633564681294
20
3.47397981709631
30
0
41
1
10
44.6076458532877
20
3.59428669700068
30
0
41
1
10
45.2991457511383
20
3.82104803105233
30
0
41
1
10
45.6459343382682
20
3.92820955308324
30
0
41
1
10
46.3407780980321
20
4.13101675961801
30
0
41
1
10
46.6894900186313
20
4.22668325878257
30
0
41
1
10
47.3846988179194
20
4.40111262425296
30
0
41
1
10
47.7314102476743
20
4.48068924396489
30
0
41
1
10
48.2496625904356
20
4.58918081693886
30
0
41
1
10
48.4220124138055
20
4.62360057117513
30
0
41
1
10
48.7666804479265
20
4.68827704299386
30
0
41
1
10
48.939008290987
20
4.71854180757006
30
0
41
1
10
49.4558001009278
20
4.80337155263939
30
0
41
1
10
49.800072298377
20
4.85200921165784
30
0
41
1
10
50.487207701015
20
4.93386004738787
30
0
41
1
10
50.8304524479781
20
4.96677721370679
30
0
41
1
10
51.5183265560889
20
5.01596109791501
30
0
41
1
10
51.8625786354461
20
5.03243628907543
30
0
41
1
10
52.3789409607635
20
5.04483293970509
30
0
41
1
10
52.5510012894556
20
5.04689330696974
30
0
41
1
10
52.8958648502385
20
5.04681725627097
30
0
41
1
10
53.0685891817129
20
5.04469780614735
30
0
41
1
10
53.5874585116201
20
5.03212212147773
30
0
41
1
10
53.9342834181647
20
5.0154843126617
30
0
41
1
10
54.6290316544295
20
4.96491113336768
30
0
41
1
10
54.9777945910519
20
4.93110826899868
30
0
41
1
10
55.3262664380816
20
4.88933248627435
30
0
0
SPLINE
5
E4
100
AcDbEntity
8
1
62
256
6
ByLayer
370
18
48
1
60
0
100
AcDbSpline
70
4
71
3
72
10
73
6
40
0
40
0
40
0
40
0
40
0.94140639494471
40
0.94140639494471
40
1
40
1
40
1
40
1
41
1
10
4.01279166557578
20
0.245639828882304
30
0
41
1
10
4.02299092648877
20
0.214649713171497
30
0
41
1
10
4.0391721009606
20
0.185434611275383
30
0
41
1
10
4.06252033250467
20
0.158215129887452
30
0
41
1
10
4.0639104551712
20
0.156634831820327
30
0
41
1
10
4.06532245601861
20
0.155069738885061
30
0
0
SPLINE
5
E5
100
AcDbEntity
8
1
62
256
6
ByLayer
370
18
48
1
60
0
100
AcDbSpline
70
4
71
3
72
14
73
10
40
0
40
0
40
0
40
0
40
0.25
40
0.25
40
0.5
40
0.5
40
0.75
40
0.75
40
1
40
1
40
1
40
1
41
1
10
55.3300584957569
20
-4.77758074306712
30
0
41
1
10
55.3320334835383
20
-4.77525835048385
30
0
41
1
10
55.3333220503073
20
-4.7748586630467
30
0
41
1
10
55.3341239307429
20
-4.77894779425776
30
0
41
1
10
55.3335773228669
20
-4.7835090906222
30
0
41
1
10
55.3302679692566
20
-4.79789299382173
30
0
41
1
10
55.3274480248248
20
-4.80787729695089
30
0
41
1
10
55.3201305228915
20
-4.83095168386461
30
0
41
1
10
55.3156529207472
20
-4.844005128672
30
0
41
1
10
55.310922134752
20
-4.85705543725305
30
0
0
SPLINE
5
E6
100
AcDbEntity
8
1
62
256
6
ByLayer
370
18
48
1
60
0
100
AcDbSpline
70
4
71
3
72
72
73
68
40
0
40
0
40
0
40
0
40
0.0125496969991243
40
0.0125496969991243
40
0.0331215783116415
40
0.0331215783116415
40
0.0536934596241587
40
0.0536934596241587
40
0.074265340936676
40
0.074265340936676
40
0.0948372222491931
40
0.0948372222491931
40
0.11540910356171
40
0.11540910356171
40
0.135980984874227
40
0.135980984874227
40
0.177124747499263
40
0.177124747499263
40
0.197696628811781
40
0.197696628811781
40
0.218268510124298
40
0.218268510124298
40
0.238840391436816
40
0.238840391436816
40
0.259412272749334
40
0.259412272749334
40
0.279984154061852
40
0.279984154061852
40
0.300556035374369
40
0.300556035374369
40
0.341699797999405
40
0.341699797999405
40
0.362271679311922
40
0.362271679311922
40
0.38284356062444
40
0.38284356062444
40
0.423987323249477
40
0.423987323249477
40
0.465131085874513
40
0.465131085874513
40
0.50627484849955
40
0.50627484849955
40
0.547418611124586
40
0.547418611124586
40
0.567990492437105
40
0.567990492437105
40
0.588562373749624
40
0.588562373749624
40
0.629706136374662
40
0.629706136374662
40
0.670849898999699
40
0.670849898999699
40
0.711993661624737
40
0.711993661624737
40
0.753137424249774
40
0.753137424249774
40
0.794281186874812
40
0.794281186874812
40
0.83542494949985
40
0.83542494949985
40
0.876568712124887
40
0.876568712124887
40
0.917712474749925
40
0.917712474749925
40
0.958856237374962
40
0.958856237374962
40
1
40
1
40
1
40
1
41
1
10
42.1671763749077
20
-2.68161551614696
30
0
41
1
10
42.0337341087234
20
-2.73322852235998
30
0
41
1
10
41.9003287458635
20
-2.7841308549996
30
0
41
1
10
41.5482624313806
20
-2.91637904899531
30
0
41
1
10
41.3295853319498
20
-2.99607272691477
30
0
41
1
10
40.8920571893374
20
-3.15179647717301
30
0
41
1
10
40.6732266542505
20
-3.22777912917232
30
0
41
1
10
40.2355209821763
20
-3.37597621687618
30
0
41
1
10
40.0166909612543
20
-3.44824538814512
30
0
41
1
10
39.5783660585254
20
-3.58786734162365
30
0
41
1
10
39.358786992152
20
-3.65539047075944
30
0
41
1
10
38.9201427485405
20
-3.78524769717575
30
0
41
1
10
38.7010887968353
20
-3.84761947250263
30
0
41
1
10
38.2635126801189
20
-3.96590035493543
30
0
41
1
10
38.0449226549155
20
-4.02182482835806
30
0
41
1
10
37.3889672032283
20
-4.18349357369812
30
0
41
1
10
36.9514406385546
20
-4.28082320771702
30
0
41
1
10
36.2950021517374
20
-4.41037422465456
30
0
41
1
10
36.0762489915538
20
-4.45092615620425
30
0
41
1
10
35.6381342847477
20
-4.5258413623425
30
0
41
1
10
35.4186539335727
20
-4.56019978561505
30
0
41
1
10
34.9799553149375
20
-4.62151424942823
30
0
41
1
10
34.7608340492525
20
-4.64896435143106
30
0
41
1
10
34.3229768609355
20
-4.69845280580734
30
0
41
1
10
34.1042293106935
20
-4.72005942156764
30
0
41
1
10
33.6668368848872
20
-4.75648544905539
30
0
41
1
10
33.4481519590441
20
-4.77108584308598
30
0
41
1
10
33.0106181479364
20
-4.79483966484838
30
0
41
1
10
32.7917917334613
20
-4.80395127258993
30
0
41
1
10
32.1352682456665
20
-4.82180506727266
30
0
41
1
10
31.6973728188451
20
-4.82125136057979
30
0
41
1
10
31.03898517336
20
-4.8010684600996
30
0
41
1
10
30.8197776658334
20
-4.7908311467308
30
0
41
1
10
30.3819723286577
20
-4.76251459375982
30
0
41
1
10
30.1632656945911
20
-4.74492499436778
30
0
41
1
10
29.5071613541119
20
-4.6846770235241
30
0
41
1
10
29.0696571908598
20
-4.63343258318267
30
0
41
1
10
28.1944127444307
20
-4.50623647341735
30
0
41
1
10
27.7568938058557
20
-4.43019816108745
30
0
41
1
10
26.8788601304479
20
-4.25112880484053
30
0
41
1
10
26.440604451755
20
-4.15142040037136
30
0
41
1
10
25.5650713956207
20
-3.93121259847706
30
0
41
1
10
25.1273691643124
20
-3.81129773098311
30
0
41
1
10
24.4705839396052
20
-3.61569257489396
30
0
41
1
10
24.2517201907528
20
-3.54675404675089
30
0
41
1
10
23.8136296215275
20
-3.40499659586268
30
0
41
1
10
23.5943321876786
20
-3.33238945829874
30
0
41
1
10
22.9356306560878
20
-3.10794755116802
30
0
41
1
10
22.4970425296037
20
-2.94962073370286
30
0
41
1
10
21.6212646249312
20
-2.61918059707716
30
0
41
1
10
21.1835820056159
20
-2.44669547567008
30
0
41
1
10
20.307723425255
20
-2.0895151699776
30
0
41
1
10
19.8699915750761
20
-1.90411140059257
30
0
41
1
10
18.9917133034236
20
-1.52343780434177
30
0
41
1
10
18.5525539017779
20
-1.3298493782172
30
0
41
1
10
17.6764971449283
20
-0.936149855652531
30
0
41
1
10
17.2388572674726
20
-0.73677875920518
30
0
41
1
10
16.3633380843872
20
-0.334727351795209
30
0
41
1
10
15.9258408622296
20
-0.131272168996645
30
0
41
1
10
15.0485083198563
20
0.273506247772843
30
0
41
1
10
14.608496367672
20
0.475998165297284
30
0
41
1
10
13.7316686962081
20
0.877341009987475
30
0
41
1
10
13.2940234624185
20
1.0753736553001
30
0
41
1
10
12.418635079395
20
1.46412463612208
30
0
41
1
10
11.9814388689664
20
1.65606701780561
30
0
41
1
10
11.1055567494967
20
2.02923916002391
30
0
41
1
10
10.6668872338395
20
2.2104301490505
30
0
41
1
10
10.2275164892487
20
2.38608764127915
30
0
0
SPLINE
5
E7
100
AcDbEntity
8
1
62
256
6
ByLayer
370
18
48
1
60
0
100
AcDbSpline
70
4
71
3
72
42
73
38
40
0
40
0
40
0
40
0
40
0.0625000000000016
40
0.0625000000000016
40
0.125000000000003
40
0.125000000000003
40
0.156250000000004
40
0.156250000000004
40
0.187500000000005
40
0.187500000000005
40
0.218750000000005
40
0.218750000000005
40
0.250000000000006
40
0.250000000000006
40
0.265625000000007
40
0.265625000000007
40
0.281250000000007
40
0.281250000000007
40
0.312500000000007
40
0.312500000000007
40
0.343750000000008
40
0.343750000000008
40
0.375000000000008
40
0.375000000000008
40
0.406250000000009
40
0.406250000000009
40
0.437500000000009
40
0.437500000000009
40
0.50000000000001
40
0.50000000000001
40
0.625000000000007
40
0.625000000000007
40
0.750000000000005
40
0.750000000000005
40
0.875000000000002
40
0.875000000000002
40
1
40
1
40
1
40
1
41
1
10
54.9945767294507
20
1.24817100554682
30
0
41
1
10
55.0412529204477
20
1.1138382948983
30
0
41
1
10
55.0928960913237
20
0.981112879298109
30
0
41
1
10
55.1978174933128
20
0.716191147125045
30
0
41
1
10
55.2553972186903
20
0.585386777087081
30
0
41
1
10
55.3493051568317
20
0.39161960230615
30
0
41
1
10
55.3824645237388
20
0.328253545873622
30
0
41
1
10
55.4419858275995
20
0.197123654757036
30
0
41
1
10
55.4691790601757
20
0.130279543073868
30
0
41
1
10
55.5172596394902
20
-0.0064109914472681
30
0
41
1
10
55.5380618552825
20
-0.0760558316206357
30
0
41
1
10
55.5711547597164
20
-0.215614291300085
30
0
41
1
10
55.5835936558442
20
-0.285870776919865
30
0
41
1
10
55.5946158818241
20
-0.39214274376468
30
0
41
1
10
55.5972696098065
20
-0.427806746815804
30
0
41
1
10
55.5981449027767
20
-0.499143467551903
30
0
41
1
10
55.5962812263988
20
-0.533896376592423
30
0
41
1
10
55.5867088680087
20
-0.636571356725455
30
0
41
1
10
55.5739808262242
20
-0.702858796864916
30
0
41
1
10
55.5365248650066
20
-0.829108764709815
30
0
41
1
10
55.5124616758952
20
-0.887714185204715
30
0
41
1
10
55.4542240016877
20
-0.996359542106774
30
0
41
1
10
55.4197172610076
20
-1.04610394459968
30
0
41
1
10
55.3440888787277
20
-1.13411911850594
30
0
41
1
10
55.3027815655448
20
-1.17327350390474
30
0
41
1
10
55.2144009855839
20
-1.24274013358405
30
0
41
1
10
55.1676252385033
20
-1.27225368391603
30
0
41
1
10
55.0240956318368
20
-1.3539129748799
30
0
41
1
10
54.9267098218863
20
-1.40393113881783
30
0
41
1
10
54.6295384931101
20
-1.54094091059551
30
0
41
1
10
54.4243149030463
20
-1.61479953228866
30
0
41
1
10
54.0091214870208
20
-1.72904687745267
30
0
41
1
10
53.7982663033642
20
-1.76996220029304
30
0
41
1
10
53.3709032428005
20
-1.82367514947867
30
0
41
1
10
53.1543748023288
20
-1.83637048828754
30
0
41
1
10
52.7168931975282
20
-1.8397516499152
30
0
41
1
10
52.4957233246486
20
-1.83034163268755
30
0
41
1
10
52.2744039929377
20
-1.81441771044621
30
0
0
SPLINE
5
E8
100
AcDbEntity
8
1
62
256
6
ByLayer
370
18
48
1
60
0
100
AcDbSpline
70
4
71
3
72
8
73
4
40
0
40
0
40
0
40
0
40
1
40
1
40
1
40
1
41
1
10
55.2256771114143
20
-4.84614852162218
30
0
41
1
10
55.2494181375851
20
-4.8545046107152
30
0
41
1
10
55.2843071165811
20
-4.83137989294895
30
0
41
1
10
55.3300584957569
20
-4.77758074306712
30
0
0
SPLINE
5
E9
100
AcDbEntity
8
1
62
256
6
ByLayer
370
18
48
1
60
0
100
AcDbSpline
70
4
71
3
72
8
73
4
40
0
40
0
40
0
40
0
40
1
40
1
40
1
40
1
41
1
10
56.2303296512653
20
1.49087303012826
30
0
41
1
10
55.8581746445293
20
1.47442551053504
30
0
41
1
10
55.4843294904369
20
1.4630961831825
30
0
41
1
10
55.1095618437844
20
1.45456039584042
30
0
0
SPLINE
5
EA
100
AcDbEntity
8
1
62
256
6
ByLayer
370
18
48
1
60
0
100
AcDbSpline
70
4
71
3
72
14
73
10
40
0
40
0
40
0
40
0
40
0.43103247790263
40
0.43103247790263
40
0.881432185351376
40
0.881432185351376
40
0.994032112213564
40
0.994032112213564
40
1
40
1
40
1
40
1
41
1
10
4.34600688613304
20
0.0012923994558491
30
0
41
1
10
5.3716477659739
20
-0.48077443089818
30
0
41
1
10
6.38892044366381
20
-0.959526027470787
30
0
41
1
10
8.46890322843441
20
-1.89663788261154
30
0
41
1
10
9.53120007131281
20
-2.35385056099111
30
0
41
1
10
10.8702566182218
20
-2.87417592024701
30
0
41
1
10
11.1389201587703
20
-2.97583368898421
30
0
41
1
10
11.4207441487146
20
-3.07930287456193
30
0
41
1
10
11.4349273425011
20
-3.08450166634043
30
0
41
1
10
11.4491086709716
20
-3.08969129482983
30
0
0
SPLINE
5
EB
100
AcDbEntity
8
1
62
256
6
ByLayer
370
13
48
1
60
0
100
AcDbSpline
70
4
71
3
72
20
73
16
40
0
40
0
40
0
40
0
40
0.068281857727671
40
0.068281857727671
40
0.212488472453644
40
0.212488472453644
40
0.500901701905591
40
0.500901701905591
40
0.645108316631564
40
0.645108316631564
40
0.71721162399455
40
0.71721162399455
40
0.789314931357537
40
0.789314931357537
40
1
40
1
40
1
40
1
41
1
10
11.4491077319161
20
-3.08969095118439
30
0
41
1
10
11.7024948434981
20
-3.1824174591921
30
0
41
1
10
11.9552864468909
20
-3.2722185584033
30
0
41
1
10
12.7404761013132
20
-3.54206638344786
30
0
41
1
10
13.2714100566899
20
-3.7112570190101
30
0
41
1
10
14.8614622242321
20
-4.1726252365815
30
0
41
1
10
15.9174930716275
20
-4.41927351392357
30
0
41
1
10
17.5094912913031
20
-4.68235943635554
30
0
41
1
10
18.0414794765821
20
-4.75229065640679
30
0
41
1
10
18.8429275039196
20
-4.82909038126326
30
0
41
1
10
19.1110366698861
20
-4.85002718805907
30
0
41
1
10
19.6470096799775
20
-4.88215981595241
30
0
41
1
10
19.9143370129277
20
-4.89334598619189
30
0
41
1
10
20.9604817115751
20
-4.91799368105623
30
0
41
1
10
21.7350982316037
20
-4.89485188691054
30
0
41
1
10
22.5083697378313
20
-4.83164839177343
30
0
0
SPLINE
5
EC
100
AcDbEntity
8
1
62
256
6
ByLayer
370
18
48
1
60
0
100
AcDbSpline
70
4
71
3
72
8
73
4
40
0
40
0
40
0
40
0
40
1
40
1
40
1
40
1
41
1
10
56.4828659443299
20
1.81832131429277
30
0
41
1
10
56.4833608814137
20
1.81831133516815
30
0
41
1
10
56.4838558176736
20
1.81830135565102
30
0
41
1
10
56.4843507531098
20
1.81829137574144
30
0
0
SPLINE
5
ED
100
AcDbEntity
8
1
62
256
6
ByLayer
370
18
48
1
60
0
100
AcDbSpline
70
4
71
3
72
8
73
4
40
0
40
0
40
0
40
0
40
1
40
1
40
1
40
1
41
1
10
55.3109221347523
20
-4.85705543725243
30
0
41
1
10
55.2983170293529
20
-4.89182778064932
30
0
41
1
10
55.2857011971037
20
-4.92659883488895
30
0
41
1
10
55.273075134384
20
-4.96136722847265
30
0
0
SPLINE
5
EE
100
AcDbEntity
8
1
62
256
6
ByLayer
370
18
48
1
60
0
100
AcDbSpline
70
4
71
3
72
14
73
10
40
0
40
0
40
0
40
0
40
0.25
40
0.25
40
0.5
40
0.5
40
0.75
40
0.75
40
1
40
1
40
1
40
1
41
1
10
4.00481858920227
20
4.66468345257314
30
0
41
1
10
4.00957816517194
20
4.64929739074717
30
0
41
1
10
4.01819320679596
20
4.63227371822788
30
0
41
1
10
4.04564107274928
20
4.59629995279741
30
0
41
1
10
4.06486554160855
20
4.57707543742873
30
0
41
1
10
4.11357882117383
20
4.54056473855312
30
0
41
1
10
4.14195206656069
20
4.52422993184123
30
0
41
1
10
4.19820961863832
20
4.49863124090245
30
0
41
1
10
4.22528151432607
20
4.48944577662505
30
0
41
1
10
4.25075117326014
20
4.48280027362881
30
0
0
SPLINE
5
EF
100
AcDbEntity
8
1
62
256
6
ByLayer
370
18
48
1
60
0
100
AcDbSpline
70
4
71
3
72
67
73
63
40
0
40
0
40
0
40
0
40
0.0258157509212404
40
0.0258157509212404
40
0.0606080455311934
40
0.0606080455311934
40
0.0954003401411465
40
0.0954003401411465
40
0.164984929361053
40
0.164984929361053
40
0.304154107800865
40
0.304154107800865
40
0.443323286240679
40
0.443323286240679
40
0.582492464680492
40
0.582492464680492
40
0.652077053900398
40
0.652077053900398
40
0.68686934851035
40
0.68686934851035
40
0.704265495815326
40
0.712963569467814
40
0.712963569467814
40
0.715138087880937
40
0.715138087880937
40
0.717312606294059
40
0.717312606294059
40
0.719487124707182
40
0.719487124707182
40
0.721661643120304
40
0.721661643120304
40
0.739057790425285
40
0.739057790425285
40
0.756453937730266
40
0.756453937730266
40
0.773850085035247
40
0.773850085035247
40
0.791246232340228
40
0.791246232340228
40
0.808642379645209
40
0.808642379645209
40
0.8173404532977
40
0.8173404532977
40
0.82603852695019
40
0.82603852695019
40
0.843434674255171
40
0.843434674255171
40
0.852132747907661
40
0.852132747907661
40
0.860830821560151
40
0.860830821560151
40
0.878226968865133
40
0.878226968865133
40
0.895623116170113
40
0.895623116170113
40
0.930415410780075
40
0.930415410780075
40
0.947811558085056
40
0.947811558085056
40
0.965207705390037
40
0.965207705390037
40
1
40
1
40
1
40
1
41
1
10
19.7584557529223
20
-5.00728565806119
30
0
41
1
10
19.5741994504559
20
-5.00675729624081
30
0
41
1
10
19.3893447643778
20
-5.00457342422297
30
0
41
1
10
18.9539475612296
20
-4.99595395649047
30
0
41
1
10
18.7027153649785
20
-4.98828201780756
30
0
41
1
10
18.1998872535729
20
-4.96833613464065
30
0
41
1
10
17.9481081494937
20
-4.95606211501985
30
0
41
1
10
17.1915700503399
20
-4.91349505411969
30
0
41
1
10
16.6856083252828
20
-4.8774694887698
30
0
41
1
10
15.1621137951715
20
-4.75510019941865
30
0
41
1
10
14.1389197655854
20
-4.6546580628704
30
0
41
1
10
12.0741745320108
20
-4.45741493616225
30
0
41
1
10
11.0326363596072
20
-4.3607480367512
30
0
41
1
10
8.92937791380101
20
-4.20419514635228
30
0
41
1
10
7.86760646331112
20
-4.14437329440796
30
0
41
1
10
6.25912529594166
20
-4.09812625411377
30
0
41
1
10
5.72295430194947
20
-4.08993658850119
30
0
41
1
10
4.91868079529138
20
-4.08924938353869
30
0
41
1
10
4.65058679978617
20
-4.09094678341248
30
0
41
1
10
4.24844150656219
20
-4.096423307165
30
0
41
1
10
4.04736778573223
20
-4.09989364169138
30
0
41
1
10
3.84629244910354
20
-4.1044650394351
30
0
41
1
10
3.76251083439769
20
-4.10652272347829
30
0
41
1
10
3.74575419099585
20
-4.10715265349509
30
0
41
1
10
3.71223831514513
20
-4.11017688903363
30
0
41
1
10
3.69573894571329
20
-4.11240620296005
30
0
41
1
10
3.66480634597653
20
-4.11856532641758
30
0
41
1
10
3.65063531578772
20
-4.12295253751978
30
0
41
1
10
3.62266555591384
20
-4.13206549098507
30
0
41
1
10
3.60870770767065
20
-4.13663262405871
30
0
41
1
10
3.48333619052372
20
-4.17783315705904
30
0
41
1
10
3.37341093835207
20
-4.21522760440345
30
0
41
1
10
3.15938618616599
20
-4.29091727717707
30
0
41
1
10
3.05527327445003
20
-4.32920789219878
30
0
41
1
10
2.8542295933222
20
-4.40658287928923
30
0
41
1
10
2.75728191280726
20
-4.44566837437935
30
0
41
1
10
2.57271570245274
20
-4.52449233707282
30
0
41
1
10
2.48454742190532
20
-4.5645122243549
30
0
41
1
10
2.3253436754149
20
-4.64284523717546
30
0
41
1
10
2.25391278835002
20
-4.68128676070145
30
0
41
1
10
2.16298487123532
20
-4.73704232753317
30
0
41
1
10
2.13546989767406
20
-4.75528570593389
30
0
41
1
10
2.08785431048307
20
-4.79009090145357
30
0
41
1
10
2.0675699532666
20
-4.80676069039271
30
0
41
1
10
2.01806056852681
20
-4.85428003890033
30
0
41
1
10
2.00051642707703
20
-4.88283124990599
30
0
41
1
10
1.99975888128773
20
-4.91739764157708
30
0
41
1
10
2.00357941357413
20
-4.92766308276305
30
0
41
1
10
2.01899159709052
20
-4.94571390420708
30
0
41
1
10
2.03070111865668
20
-4.95353810694761
30
0
41
1
10
2.07603696698754
20
-4.97296740578312
30
0
41
1
10
2.11945496072036
20
-4.98065362831031
30
0
41
1
10
2.22623649010373
20
-4.98759576848801
30
0
41
1
10
2.29010907301262
20
-4.98676952464814
30
0
41
1
10
2.49914818856973
20
-4.97418280152644
30
0
41
1
10
2.66252425126822
20
-4.95280166907909
30
0
41
1
10
2.92871428855506
20
-4.90795500115823
30
0
41
1
10
3.02082047316384
20
-4.89085140668533
30
0
41
1
10
3.20850659785765
20
-4.85341895146021
30
0
41
1
10
3.30439230022958
20
-4.83303673423802
30
0
41
1
10
3.59698909525164
20
-4.76763070733054
30
0
41
1
10
3.79857741055702
20
-4.71838542095935
30
0
41
1
10
4.00481858919849
20
-4.66468345257414
30
0
0
SPLINE
5
F0
100
AcDbEntity
8
1
62
256
6
ByLayer
370
18
48
1
60
0
100
AcDbSpline
70
4
71
3
72
8
73
4
40
0
40
0
40
0
40
0
40
1
40
1
40
1
40
1
41
1
10
4.01279166557575
20
0.245639828882275
30
0
41
1
10
4.00749607014959
20
0.261539102904919
30
0
41
1
10
4.00473133919786
20
0.277981257513801
30
0
41
1
10
4.00473175719873
20
0.294735510810142
30
0
0
SPLINE
5
F1
100
AcDbEntity
8
1
62
256
6
ByLayer
370
13
48
1
60
0
100
AcDbSpline
70
4
71
3
72
28
73
24
40
0
40
0
40
0
40
0
40
0.125
40
0.125
40
0.25
40
0.25
40
0.375
40
0.375
40
0.4375
40
0.4375
40
0.5
40
0.5
40
0.625
40
0.625
40
0.75
40
0.75
40
0.8125
40
0.8125
40
0.875
40
0.875
40
0.9375
40
0.9375
40
1
40
1
40
1
40
1
41
1
10
4.25039584603803
20
0.153591923607422
30
0
41
1
10
4.25042154273541
20
0.390585615340854
30
0
41
1
10
4.2504434023526
20
0.625061253793973
30
0
41
1
10
4.25048167745518
20
1.08905973654737
30
0
41
1
10
4.2504981444863
20
1.31973026527024
30
0
41
1
10
4.25052703171258
20
1.76434143688437
30
0
41
1
10
4.25053957409267
20
1.97955461590556
30
0
41
1
10
4.25055719655742
20
2.29183957923513
30
0
41
1
10
4.25056286932573
20
2.3941717448551
30
0
41
1
10
4.25057406364192
20
2.59524118655793
30
0
41
1
10
4.25057960727844
20
2.69435538035992
30
0
41
1
10
4.25059613670152
20
2.9820269161024
30
0
41
1
10
4.25060707776979
20
3.16172529814355
30
0
41
1
10
4.25063036468111
20
3.49764324474489
30
0
41
1
10
4.25064270587481
20
3.65386376949471
30
0
41
1
10
4.25066310759269
20
3.86993617711028
30
0
41
1
10
4.25067019761786
20
3.93862576846141
30
0
41
1
10
4.25068491392722
20
4.06823310684868
30
0
41
1
10
4.25069255667552
20
4.12932960342977
30
0
41
1
10
4.2507084468067
20
4.24408370022775
30
0
41
1
10
4.25071670767488
20
4.29778597451713
30
0
41
1
10
4.25073362512006
20
4.39650293740453
30
0
41
1
10
4.25074230372104
20
4.44169595557042
30
0
41
1
10
4.25075117325991
20
4.48280027294882
30
0
0
SPLINE
5
F2
100
AcDbEntity
8
1
62
256
6
ByLayer
370
18
48
1
60
0
100
AcDbSpline
70
4
71
3
72
18
73
14
40
0
40
0
40
0
40
0
40
0.250000000000003
40
0.250000000000003
40
0.375000000000002
40
0.375000000000002
40
0.500000000000001
40
0.500000000000001
40
0.749999999999999
40
0.749999999999999
40
0.875
40
0.875
40
1
40
1
40
1
40
1
41
1
10
55.2256771114087
20
-4.84614852162179
30
0
41
1
10
55.1227411140693
20
-4.839211410807
30
0
41
1
10
55.02677740148
20
-4.81167206454651
30
0
41
1
10
54.8941857563687
20
-4.73681361061625
30
0
41
1
10
54.8517351186207
20
-4.70604606789223
30
0
41
1
10
54.7723812540507
20
-4.63393391450862
30
0
41
1
10
54.735309840555
20
-4.59255209172559
30
0
41
1
10
54.6319378791509
20
-4.4523768072242
30
0
41
1
10
54.5734165173845
20
-4.33768249291526
30
0
41
1
10
54.5023672548652
20
-4.13143879702616
30
0
41
1
10
54.48141461436
20
-4.05656729711487
30
0
41
1
10
54.445994258271
20
-3.89689773565453
30
0
41
1
10
54.4314846608098
20
-3.812146459221
30
0
41
1
10
54.4202071003825
20
-3.72243036600651
30
0
0
SPLINE
5
F3
100
AcDbEntity
8
1
62
256
6
ByLayer
370
18
48
1
60
0
100
AcDbSpline
70
4
71
3
72
46
73
42
40
0
40
0
40
0
40
0
40
0.0461647890326412
40
0.0461647890326412
40
0.0923295780652824
40
0.0923295780652824
40
0.138494367097924
40
0.138494367097924
40
0.184659156130565
40
0.184659156130565
40
0.276988734195847
40
0.276988734195847
40
0.323153523228488
40
0.323153523228488
40
0.369318312261129
40
0.369318312261129
40
0.415483101293771
40
0.415483101293771
40
0.461647890326412
40
0.461647890326412
40
0.507812679359053
40
0.507812679359053
40
0.553977468391694
40
0.553977468391694
40
0.600142257424335
40
0.600142257424335
40
0.646307046456977
40
0.646307046456977
40
0.73863662452226
40
0.73863662452226
40
0.784801413554902
40
0.784801413554902
40
0.830966202587544
40
0.830966202587544
40
0.877130991620185
40
0.877130991620185
40
0.923295780652827
40
0.923295780652827
40
0.969460569685468
40
0.969460569685468
40
1
40
1
40
1
40
1
41
1
10
55.2730751343731
20
-4.96136722846876
30
0
41
1
10
54.7404389764827
20
-5.00908458725428
30
0
41
1
10
54.2081617326015
20
-5.03706286394944
30
0
41
1
10
53.1421531409827
20
-5.05323663489557
30
0
41
1
10
52.6096812883294
20
-5.04137244573269
30
0
41
1
10
51.54659615983
20
-4.97836927760628
30
0
41
1
10
51.0154543032394
20
-4.9272536939994
30
0
41
1
10
49.9517357885115
20
-4.78663561448775
30
0
41
1
10
49.4180895917455
20
-4.69696848033891
30
0
41
1
10
47.8211268783103
20
-4.37429686950981
30
0
41
1
10
46.7604617951755
20
-4.08782160993667
30
0
41
1
10
45.1613048596682
20
-3.56688796462365
30
0
41
1
10
44.6286990195077
20
-3.3786753010726
30
0
41
1
10
43.5651943035421
20
-2.97824772455658
30
0
41
1
10
43.0338547783532
20
-2.76574983322504
30
0
41
1
10
41.969705260242
20
-2.32003331819462
30
0
41
1
10
41.4358755863157
20
-2.08652398273981
30
0
41
1
10
40.3709049070273
20
-1.60637686003403
30
0
41
1
10
39.8393949932563
20
-1.3595551943109
30
0
41
1
10
38.775999031314
20
-0.857088476546181
30
0
41
1
10
38.2440817160826
20
-0.601505895400635
30
0
41
1
10
37.1774053067846
20
-0.0865377823205336
30
0
41
1
10
36.6447459183944
20
0.171912828617309
30
0
41
1
10
35.5809462250421
20
0.684412749592354
30
0
41
1
10
35.0493943567365
20
0.938674215638031
30
0
41
1
10
33.9847352903101
20
1.43858530311709
30
0
41
1
10
33.4506942114225
20
1.684552735739
30
0
41
1
10
31.852862528777
20
2.39737832700214
30
0
41
1
10
30.7912960464263
20
2.83998164542754
30
0
41
1
10
29.1906390761291
20
3.43019867578539
30
0
41
1
10
28.6579196185263
20
3.61364598137038
30
0
41
1
10
27.5936974957648
20
3.95014721889294
30
0
41
1
10
27.0620014898303
20
4.10346612267929
30
0
41
1
10
25.9969529566598
20
4.37701641305932
30
0
41
1
10
25.4626683467284
20
4.49728640115447
30
0
41
1
10
24.3969858367968
20
4.70065950093897
30
0
41
1
10
23.8651747978454
20
4.78410193714379
30
0
41
1
10
22.801010864054
20
4.91279591551807
30
0
41
1
10
22.2686131897183
20
4.95804007882057
30
0
41
1
10
21.381590901956
20
5.00053913774215
30
0
41
1
10
21.0289227074375
20
5.00879193302902
30
0
41
1
10
20.6765524257702
20
5.008415572991
30
0
0
SPLINE
5
F4
100
AcDbEntity
8
1
62
256
6
ByLayer
370
18
48
1
60
0
100
AcDbSpline
70
4
71
3
72
17
73
13
40
0
40
0
40
0
40
0
40
0.177876356526186
40
0.291398773931274
40
0.383574954836361
40
0.465105122429073
40
0.545001263082834
40
0.648196495620156
40
0.712151594266645
40
0.791078263375739
40
0.90419018094901
40
1
40
1
40
1
40
1
41
1
10
15.2217359995649
20
0.230381097081107
30
0
41
1
10
15.2156422832655
20
0.231037346624959
30
0
41
1
10
15.2025751246724
20
0.233608067371875
30
0
41
1
10
15.1214806231702
20
0.257931059897857
30
0
41
1
10
15.1349086155204
20
0.253814641667873
30
0
41
1
10
15.1366334014283
20
0.251811149988811
30
0
41
1
10
15.1100858837051
20
0.262155762656477
30
0
41
1
10
15.0592150380335
20
0.281676265201412
30
0
41
1
10
14.9841721885412
20
0.311812353019945
30
0
41
1
10
14.8797692430907
20
0.355237527149455
30
0
41
1
10
14.7375277400391
20
0.416909945467182
30
0
41
1
10
14.6246199253744
20
0.468440787136132
30
0
41
1
10
14.5700729222805
20
0.4937450610947
30
0
0
SPLINE
5
F5
100
AcDbEntity
8
1
62
256
6
ByLayer
370
18
48
1
60
0
100
AcDbSpline
70
4
71
3
72
26
73
22
40
0
40
0
40
0
40
0
40
0.0003755713956908
40
0.0029016290656545
40
0.0090453505492842
40
0.03266079349052
40
0.0669485082988935
40
0.11855678025125
40
0.200646785417132
40
0.305146863279656
40
0.394512543869449
40
0.47459851874172
40
0.572541101435727
40
0.625859996037941
40
0.676366251552421
40
0.731787952028888
40
0.802359141999336
40
0.850727772019266
40
0.889741275035447
40
0.940798586433544
40
1
40
1
40
1
40
1
41
1
10
36.9258187767822
20
-1.20882903027376
30
0
41
1
10
36.9258168711878
20
-1.20883448276717
30
0
41
1
10
36.9259091723994
20
-1.20888238089407
30
0
41
1
10
36.9286566159911
20
-1.20916476890207
30
0
41
1
10
36.9557080330795
20
-1.21112140197772
30
0
41
1
10
37.0473980625263
20
-1.21763020784877
30
0
41
1
10
37.2181089856596
20
-1.23209909654324
30
0
41
1
10
37.4769681832351
20
-1.25945335344454
30
0
41
1
10
37.8012039203133
20
-1.30223834340364
30
0
41
1
10
38.2209524759128
20
-1.37532687289095
30
0
41
1
10
38.6773051323315
20
-1.4726355233274
30
0
41
1
10
39.0875550944227
20
-1.57066616211907
30
0
41
1
10
39.466560020353
20
-1.67649795294989
30
0
41
1
10
39.8008616290023
20
-1.77847542221983
30
0
41
1
10
40.0732762064811
20
-1.86618698920648
30
0
41
1
10
40.3834290726338
20
-1.97130652348028
30
0
41
1
10
40.6905073569379
20
-2.08138509573251
30
0
41
1
10
40.9709116924859
20
-2.18637173659781
30
0
41
1
10
41.2207260850574
20
-2.28277468324029
30
0
41
1
10
41.4873774098787
20
-2.3885491718631
30
0
41
1
10
41.6826826630699
20
-2.46947843330131
30
0
41
1
10
41.7869985650664
20
-2.5136344472879
30
0
0
SPLINE
5
F6
100
AcDbEntity
8
1
62
256
6
ByLayer
370
18
48
1
60
0
100
AcDbSpline
70
4
71
3
72
27
73
23
40
0
40
0
40
0
40
0
40
0.0665180137839749
40
0.119364128588807
40
0.152636997943097
40
0.179450715162091
40
0.210344292253049
40
0.27968508290282
40
0.344495492969428
40
0.412130813303432
40
0.472219970168229
40
0.545668705373131
40
0.605440654988321
40
0.664298025894516
40
0.715384258295156
40
0.761530585595762
40
0.819184039263245
40
0.860113889267243
40
0.898088815465778
40
0.933103325286707
40
0.974965850228021
40
1
40
1
40
1
40
1
41
1
10
20.9102366261668
20
-4.80676796895227
30
0
41
1
10
21.1566520017138
20
-4.8070430824994
30
0
41
1
10
21.598782957389
20
-4.80751552770084
30
0
41
1
10
22.1643157012789
20
-4.80808182357492
30
0
41
1
10
22.5823419739721
20
-4.80846167606418
30
0
41
1
10
22.9192306987542
20
-4.80878425546041
30
0
41
1
10
23.3899724814251
20
-4.80935407178404
30
0
41
1
10
24.0010145867394
20
-4.80996605751648
30
0
41
1
10
24.7485478064053
20
-4.81186225678098
30
0
41
1
10
25.4618827128925
20
-4.81179561121479
30
0
41
1
10
26.2064100593102
20
-4.81181915997161
30
0
41
1
10
26.9225808061037
20
-4.81213138812504
30
0
41
1
10
27.6338649444027
20
-4.81512455565277
30
0
41
1
10
28.2626796025765
20
-4.81517337167895
30
0
41
1
10
28.8407775820329
20
-4.815032425569
30
0
41
1
10
29.4139792601758
20
-4.81480892655219
30
0
41
1
10
29.9503612979323
20
-4.81515126512932
30
0
41
1
10
30.4558428777371
20
-4.81729086299506
30
0
41
1
10
30.8776274140867
20
-4.81904828789322
30
0
41
1
10
31.3026615252289
20
-4.81873340543228
30
0
41
1
10
31.6802432014863
20
-4.81843553728871
30
0
41
1
10
31.9280285217543
20
-4.81834610965112
30
0
41
1
10
32.0207627010315
20
-4.81832121461255
30
0
0
SPLINE
5
F7
100
AcDbEntity
8
1
62
256
6
ByLayer
370
18
48
1
60
0
100
AcDbSpline
70
4
71
3
72
22
73
18
40
0
40
0
40
0
40
0
40
0.0420841262342733
40
0.0976836277880135
40
0.148196901131559
40
0.236621971421679
40
0.320081878211485
40
0.379603747982323
40
0.44651920011387
40
0.523105639210627
40
0.600738876389377
40
0.693921567785992
40
0.769928027488533
40
0.853720017246468
40
0.950124287499101
40
0.997285914027453
40
1
40
1
40
1
40
1
41
1
10
32.0203174830959
20
4.81832322468884
30
0
41
1
10
31.9024176798935
20
4.81835883658508
30
0
41
1
10
31.628787398819
20
4.81844539753487
30
0
41
1
10
31.213686228028
20
4.8189059761828
30
0
41
1
10
30.6691745915907
20
4.8187396835884
30
0
41
1
10
30.0466542723571
20
4.81507588864119
30
0
41
1
10
29.3980980389325
20
4.81481955400213
30
0
41
1
10
28.8107419123909
20
4.81504047675591
30
0
41
1
10
28.2420745119934
20
4.81518178007801
30
0
41
1
10
27.6224996431927
20
4.81507865836284
30
0
41
1
10
26.9296729936334
20
4.81217183222944
30
0
41
1
10
26.2382217562651
20
4.81182219352027
30
0
41
1
10
25.5301233822666
20
4.81180788346512
30
0
41
1
10
24.8123999126092
20
4.81186028486431
30
0
41
1
10
24.1754349982206
20
4.81039318440585
30
0
41
1
10
23.7657932784519
20
4.80978570486621
30
0
41
1
10
23.6261249252427
20
4.80961025020935
30
0
41
1
10
23.618524595094
20
4.8096007886156
30
0
0
SPLINE
5
F8
100
AcDbEntity
8
1
62
256
6
ByLayer
370
18
48
1
60
0
100
AcDbSpline
70
4
71
3
72
14
73
10
40
0
40
0
40
0
40
0
40
0.0553829792592202
40
0.265307288421275
40
0.437846788336366
40
0.58609452308144
40
0.726281869069448
40
0.837766127180758
40
1
40
1
40
1
40
1
41
1
10
47.8064697284913
20
0.24550948419224
30
0
41
1
10
47.8065380681333
20
0.245407480707996
30
0
41
1
10
47.805328699112
20
0.245524443668444
30
0
41
1
10
47.7863206792805
20
0.252776594115574
30
0
41
1
10
47.6996328049813
20
0.285183815742215
30
0
41
1
10
47.6048131567017
20
0.32341978879677
30
0
41
1
10
47.4984785559943
20
0.368481233745939
30
0
41
1
10
47.3617113756277
20
0.428470598276476
30
0
41
1
10
47.2644837032514
20
0.472978429008094
30
0
41
1
10
47.2032098339411
20
0.501542106130017
30
0
0
SPLINE
5
F9
100
AcDbEntity
8
1
62
256
6
ByLayer
370
18
48
1
60
0
100
AcDbSpline
70
4
71
2
72
6
73
3
40
0
40
0
40
0
40
1
40
1
40
1
41
1
10
53.5080280857185
20
-4.84598059589376
30
0
41
1
10
54.3728327104782
20
-4.84487169445327
30
0
41
1
10
55.2381757680255
20
-4.84951198003535
30
0
0
SPLINE
5
FA
100
AcDbEntity
8
1
62
256
6
ByLayer
370
18
48
1
60
0
100
AcDbSpline
70
4
71
2
72
6
73
3
40
0
40
0
40
0
40
1
40
1
40
1
41
1
10
37.0029204999111
20
-0.001811000571422
30
0
41
1
10
37.002911174772
20
-0.0018065817926072
30
0
41
1
10
37.0029018496115
20
-0.0018020696907683
30
0
0
LINE
5
7B
100
AcDbEntity
8
SK1
62
256
6
ByLayer
370
18
48
1
60
0
100
AcDbLine
10
-44.15
20
-5.0991
30
0
11
-44.15
21
-4.539087
31
0
39
0
210
0
220
0
230
1
0
LINE
5
7D
100
AcDbEntity
8
SK1
62
256
6
ByLayer
370
13
48
1
60
0
100
AcDbLine
10
-44.25
20
-4.39316
30
0
11
-44.25
21
-5.015455
31
0
39
0
210
0
220
0
230
1
0
LINE
5
7E
100
AcDbEntity
8
SK1
62
256
6
ByLayer
370
18
48
1
60
0
100
AcDbLine
10
-45
20
4.3
30
0
11
-45
21
-3.663433
31
0
39
0
210
0
220
0
230
1
0
LINE
5
7F
100
AcDbEntity
8
SK1
62
256
6
ByLayer
370
18
48
1
60
0
100
AcDbLine
10
0
20
-6
30
0
11
0
21
6
31
0
39
0
210
0
220
0
230
1
0
LINE
5
80
100
AcDbEntity
8
SK1
62
256
6
ByLayer
370
18
48
1
60
0
100
AcDbLine
10
-45
20
-4.3
30
0
11
-45
21
-4.28567
31
0
39
0
210
0
220
0
230
1
0
LINE
5
81
100
AcDbEntity
8
SK1
62
256
6
ByLayer
370
18
48
1
60
0
100
AcDbLine
10
-45
20
-3.663341
30
0
11
-45
21
-4.28567
31
0
39
0
210
0
220
0
230
1
0
LINE
5
82
100
AcDbEntity
8
SK1
62
256
6
ByLayer
370
18
48
1
60
0
100
AcDbLine
10
-43.3
20
6
30
0
11
-43.3
21
-6
31
0
39
0
210
0
220
0
230
1
0
LINE
5
83
100
AcDbEntity
8
1
62
256
6
ByLayer
370
13
48
1
60
0
100
AcDbLine
10
56.98584
20
0.077096
30
0
11
55.109562
21
1.45456
31
0
39
0
210
0
220
0
230
1
0
LINE
5
84
100
AcDbEntity
8
1
62
256
6
ByLayer
370
18
48
1
60
0
100
AcDbLine
10
55.570581
20
-3.898533
30
0
11
55.225677
21
-4.846149
31
0
39
0
210
0
220
0
230
1
0
LINE
5
85
100
AcDbEntity
8
1
62
256
6
ByLayer
370
18
48
1
60
0
100
AcDbLine
10
57
20
0.027156
30
0
11
57
21
-0.027156
31
0
39
0
210
0
220
0
230
1
0
LINE
5
86
100
AcDbEntity
8
1
62
256
6
ByLayer
370
18
48
1
60
0
100
AcDbLine
10
56.484351
20
-1.818291
30
0
11
56.484315
21
-1.818321
31
0
39
0
210
0
220
0
230
1
0
LINE
5
87
100
AcDbEntity
8
1
62
256
6
ByLayer
370
18
48
1
60
0
100
AcDbLine
10
56.904546
20
-0.233494
30
0
11
54.420207
21
-3.72243
31
0
39
0
210
0
220
0
230
1
0
LINE
5
88
100
AcDbEntity
8
1
62
256
6
ByLayer
370
18
48
1
60
0
100
AcDbLine
10
0
20
-6
30
0
11
0
21
6
31
0
39
0
210
0
220
0
230
1
0
LINE
5
89
100
AcDbEntity
8
1
62
256
6
ByLayer
370
18
48
1
60
0
100
AcDbLine
10
56.904546
20
-0.233494
30
0
11
56.929769
21
-0.172546
31
0
39
0
210
0
220
0
230
1
0
LINE
5
8A
100
AcDbEntity
8
1
62
256
6
ByLayer
370
18
48
1
60
0
100
AcDbLine
10
56.98584
20
-0.077096
30
0
11
56.647352
21
-1.312663
31
0
39
0
210
0
220
0
230
1
0
LINE
5
8B
100
AcDbEntity
8
1
62
256
6
ByLayer
370
13
48
1
60
0
100
AcDbLine
10
0.744532
20
5.492698
30
0
11
0.744532
21
-5.492698
31
0
39
0
210
0
220
0
230
1
0
LINE
5
8C
100
AcDbEntity
8
1
62
256
6
ByLayer
370
18
48
1
60
0
100
AcDbLine
10
56.904546
20
-0.233494
30
0
11
56.151636
21
-2.302097
31
0
39
0
210
0
220
0
230
1
0
LINE
5
8D
100
AcDbEntity
8
1
62
256
6
ByLayer
370
18
48
1
60
0
100
AcDbLine
10
56.98584
20
0.077096
30
0
11
56.647352
21
1.312663
31
0
39
0
210
0
220
0
230
1
0
LINE
5
8E
100
AcDbEntity
8
1
62
256
6
ByLayer
370
13
48
1
60
0
100
AcDbLine
10
56.929769
20
-0.172546
30
0
11
54.994577
21
1.248171
31
0
39
0
210
0
220
0
230
1
0
LINE
5
8F
100
AcDbEntity
8
1
62
256
6
ByLayer
370
13
48
1
60
0
100
AcDbLine
10
1.490024
20
4.985397
30
0
11
1.490024
21
-4.985397
31
0
39
0
210
0
220
0
230
1
0
LINE
5
90
100
AcDbEntity
8
80
62
256
6
ByLayer
370
18
48
1
60
0
100
AcDbLine
10
0
20
0
30
0
11
-5
21
0
31
0
39
0
210
0
220
0
230
1
0
LINE
5
91
100
AcDbEntity
8
4
62
256
6
ByLayer
370
18
48
0.05
60
0
100
AcDbLine
10
57
20
0
30
0
11
0
21
0
31
0
39
0
210
0
220
0
230
1
0
LINE
5
93
100
AcDbEntity
8
SK4
62
256
6
ByLayer
370
18
48
0.05
60
0
100
AcDbLine
10
62
20
0
30
0
11
-50
21
0
31
0
39
0
210
0
220
0
230
1
0
LINE
5
95
100
AcDbEntity
8
SK1
62
256
6
ByLayer
370
18
48
1
60
0
100
AcDbLine
10
-43.3
20
-6
30
0
11
0
21
-6
31
0
39
0
210
0
220
0
230
1
0
LINE
5
96
100
AcDbEntity
8
SK1
62
256
6
ByLayer
370
18
48
1
60
0
100
AcDbLine
10
0
20
6
30
0
11
-43.3
21
6
31
0
39
0
210
0
220
0
230
1
0
LINE
5
97
100
AcDbEntity
8
SK1
62
256
6
ByLayer
370
18
48
1
60
0
100
AcDbLine
10
-45
20
-4.3
30
0
11
-43.3
21
-6
31
0
39
0
210
0
220
0
230
1
0
LINE
5
98
100
AcDbEntity
8
SK1
62
256
6
ByLayer
370
18
48
1
60
0
100
AcDbLine
10
-43.3
20
6
30
0
11
-45
21
4.3
31
0
39
0
210
0
220
0
230
1
0
LINE
5
99
100
AcDbEntity
8
1
62
256
6
ByLayer
370
18
48
1
60
0
100
AcDbLine
10
1.490024
20
-4.985397
30
0
11
2.248533
21
-4.986307
31
0
39
0
210
0
220
0
230
1
0
LINE
5
9A
100
AcDbEntity
8
1
62
256
6
ByLayer
370
18
48
1
60
0
100
AcDbLine
10
19.784567
20
-5.00735
30
0
11
20.673241
21
-5.008417
31
0
39
0
210
0
220
0
230
1
0
LINE
5
9B
100
AcDbEntity
8
1
62
256
6
ByLayer
370
18
48
1
60
0
100
AcDbLine
10
52.693047
20
-5.04684
30
0
11
53.324949
21
-5.047599
31
0
39
0
210
0
220
0
230
1
0
LINE
5
9C
100
AcDbEntity
8
1
62
256
6
ByLayer
370
18
48
1
60
0
100
AcDbLine
10
53.325069
20
5.047599
30
0
11
52.693047
21
5.04684
31
0
39
0
210
0
220
0
230
1
0
LINE
5
9D
100
AcDbEntity
8
1
62
256
6
ByLayer
370
18
48
1
60
0
100
AcDbLine
10
20.673497
20
5.008417
30
0
11
19.784567
21
5.00735
31
0
39
0
210
0
220
0
230
1
0
LINE
5
9E
100
AcDbEntity
8
1
62
256
6
ByLayer
370
18
48
1
60
0
100
AcDbLine
10
2.248533
20
4.986307
30
0
11
1.490024
21
4.985397
31
0
39
0
210
0
220
0
230
1
0
LINE
5
9F
100
AcDbEntity
8
81
62
256
6
ByLayer
370
18
48
1
60
0
100
AcDbLine
10
57
20
0
30
0
11
62
21
0
31
0
39
0
210
0
220
0
230
1
0
LINE
5
A0
100
AcDbEntity
8
SK2
62
256
6
ByLayer
370
13
48
1
60
0
100
AcDbLine
10
-53.625163
20
-6
30
0
11
-53.625163
21
36.857173
31
0
39
0
210
0
220
0
230
1
0
LINE
5
A2
100
AcDbEntity
8
SK2
62
256
6
ByLayer
370
13
48
1
60
0
100
AcDbLine
10
-46.5875
20
6
30
0
11
-55.625163
21
6
31
0
39
0
210
0
220
0
230
1
0
LINE
5
A3
100
AcDbEntity
8
SK2
62
256
6
ByLayer
370
13
48
1
60
0
100
AcDbLine
10
-46.5875
20
-6
30
0
11
-55.625163
21
-6
31
0
39
0
210
0
220
0
230
1
0
LINE
5
A4
100
AcDbEntity
8
1
62
256
6
ByLayer
370
18
48
1
60
1
100
AcDbLine
10
-53.625163
20
6
30
0
11
-53.164379
21
2.500002
31
0
39
0
210
0
220
0
230
1
0
LINE
5
A5
100
AcDbEntity
8
1
62
256
6
ByLayer
370
18
48
1
60
1
100
AcDbLine
10
-53.164379
20
2.500002
30
0
11
-54.085946
21
2.499998
31
0
39
0
210
0
220
0
230
1
0
LINE
5
A6
100
AcDbEntity
8
1
62
256
6
ByLayer
370
18
48
1
60
1
100
AcDbLine
10
-54.085946
20
2.499998
30
0
11
-53.625163
21
6
31
0
39
0
210
0
220
0
230
1
0
LINE
5
A7
100
AcDbEntity
8
1
62
256
6
ByLayer
370
18
48
1
60
1
100
AcDbLine
10
-53.625163
20
-6
30
0
11
-54.085946
21
-2.500002
31
0
39
0
210
0
220
0
230
1
0
LINE
5
A8
100
AcDbEntity
8
1
62
256
6
ByLayer
370
18
48
1
60
1
100
AcDbLine
10
-54.085946
20
-2.500002
30
0
11
-53.164379
21
-2.499998
31
0
39
0
210
0
220
0
230
1
0
LINE
5
A9
100
AcDbEntity
8
1
62
256
6
ByLayer
370
18
48
1
60
1
100
AcDbLine
10
-53.164379
20
-2.499998
30
0
11
-53.625163
21
-6
31
0
39
0
210
0
220
0
230
1
0
LINE
5
AA
100
AcDbEntity
8
2
62
256
6
ByLayer
370
13
48
1
60
0
100
AcDbLine
10
69.083343
20
-5.05
30
0
11
69.083343
21
33.625392
31
0
39
0
210
0
220
0
230
1
0
LINE
5
AC
100
AcDbEntity
8
2
62
256
6
ByLayer
370
13
48
1
60
0
100
AcDbLine
10
56.7875
20
5.05
30
0
11
71.083343
21
5.05
31
0
39
0
210
0
220
0
230
1
0
LINE
5
AD
100
AcDbEntity
8
2
62
256
6
ByLayer
370
13
48
1
60
0
100
AcDbLine
10
56.7875
20
-5.05
30
0
11
71.083343
21
-5.05
31
0
39
0
210
0
220
0
230
1
0
LINE
5
AE
100
AcDbEntity
8
1
62
256
6
ByLayer
370
18
48
1
60
1
100
AcDbLine
10
69.083343
20
5.05
30
0
11
69.544126
21
1.550002
31
0
39
0
210
0
220
0
230
1
0
LINE
5
AF
100
AcDbEntity
8
1
62
256
6
ByLayer
370
18
48
1
60
1
100
AcDbLine
10
69.544126
20
1.550002
30
0
11
68.622559
21
1.549998
31
0
39
0
210
0
220
0
230
1
0
LINE
5
B0
100
AcDbEntity
8
1
62
256
6
ByLayer
370
18
48
1
60
1
100
AcDbLine
10
68.622559
20
1.549998
30
0
11
69.083343
21
5.05
31
0
39
0
210
0
220
0
230
1
0
LINE
5
B1
100
AcDbEntity
8
1
62
256
6
ByLayer
370
18
48
1
60
1
100
AcDbLine
10
69.083343
20
-5.05
30
0
11
68.622559
21
-1.550002
31
0
39
0
210
0
220
0
230
1
0
LINE
5
B2
100
AcDbEntity
8
1
62
256
6
ByLayer
370
18
48
1
60
1
100
AcDbLine
10
68.622559
20
-1.550002
30
0
11
69.544126
21
-1.549998
31
0
39
0
210
0
220
0
230
1
0
LINE
5
B3
100
AcDbEntity
8
1
62
256
6
ByLayer
370
18
48
1
60
1
100
AcDbLine
10
69.544126
20
-1.549998
30
0
11
69.083343
21
-5.05
31
0
39
0
210
0
220
0
230
1
0
LINE
5
101
100
AcDbEntity
8
1
62
256
6
ByLayer
370
18
48
1
60
1
100
AcDbLine
10
-53.625163
20
6
30
0
11
-53.164379
21
2.500002
31
0
39
0
210
0
220
0
230
1
0
LINE
5
102
100
AcDbEntity
8
1
62
256
6
ByLayer
370
18
48
1
60
1
100
AcDbLine
10
-53.164379
20
2.500002
30
0
11
-54.085946
21
2.499998
31
0
39
0
210
0
220
0
230
1
0
LINE
5
103
100
AcDbEntity
8
1
62
256
6
ByLayer
370
18
48
1
60
1
100
AcDbLine
10
-54.085946
20
2.499998
30
0
11
-53.625163
21
6
31
0
39
0
210
0
220
0
230
1
0
LINE
5
105
100
AcDbEntity
8
1
62
256
6
ByLayer
370
18
48
1
60
1
100
AcDbLine
10
-53.625163
20
-6
30
0
11
-54.085946
21
-2.500002
31
0
39
0
210
0
220
0
230
1
0
LINE
5
106
100
AcDbEntity
8
1
62
256
6
ByLayer
370
18
48
1
60
1
100
AcDbLine
10
-54.085946
20
-2.500002
30
0
11
-53.164379
21
-2.499998
31
0
39
0
210
0
220
0
230
1
0
LINE
5
107
100
AcDbEntity
8
1
62
256
6
ByLayer
370
18
48
1
60
1
100
AcDbLine
10
-53.164379
20
-2.499998
30
0
11
-53.625163
21
-6
31
0
39
0
210
0
220
0
230
1
0
LINE
5
10B
100
AcDbEntity
8
1
62
256
6
ByLayer
370
18
48
1
60
1
100
AcDbLine
10
69.083343
20
5.05
30
0
11
69.544126
21
1.550002
31
0
39
0
210
0
220
0
230
1
0
LINE
5
10C
100
AcDbEntity
8
1
62
256
6
ByLayer
370
18
48
1
60
1
100
AcDbLine
10
69.544126
20
1.550002
30
0
11
68.622559
21
1.549998
31
0
39
0
210
0
220
0
230
1
0
LINE
5
10D
100
AcDbEntity
8
1
62
256
6
ByLayer
370
18
48
1
60
1
100
AcDbLine
10
68.622559
20
1.549998
30
0
11
69.083343
21
5.05
31
0
39
0
210
0
220
0
230
1
0
LINE
5
10F
100
AcDbEntity
8
1
62
256
6
ByLayer
370
18
48
1
60
1
100
AcDbLine
10
69.083343
20
-5.05
30
0
11
68.622559
21
-1.550002
31
0
39
0
210
0
220
0
230
1
0
LINE
5
110
100
AcDbEntity
8
1
62
256
6
ByLayer
370
18
48
1
60
1
100
AcDbLine
10
68.622559
20
-1.550002
30
0
11
69.544126
21
-1.549998
31
0
39
0
210
0
220
0
230
1
0
LINE
5
111
100
AcDbEntity
8
1
62
256
6
ByLayer
370
18
48
1
60
1
100
AcDbLine
10
69.544126
20
-1.549998
30
0
11
69.083343
21
-5.05
31
0
39
0
210
0
220
0
230
1
0
MTEXT
5
FB
100
AcDbEntity
8
SK6
62
256
6
ByLayer
370
13
48
1
60
0
100
AcDbMText
10
-20.036693
20
37.590328
30
0
210
0
220
0
230
1
1
\W0.6966;860.1-1010-032A1-SM 1210
40
3.5
41
0
44
1.084337
50
0
71
7
72
5
7
iso_b_vert
0
MTEXT
5
FF
100
AcDbEntity
8
SK2
62
256
6
ByLayer
370
18
48
1
60
0
100
AcDbMText
10
-55.189796
20
19.409024
30
0
210
0
220
0
230
1
1
%%c
40
3.5
41
0
44
1.084337
50
90
71
7
72
5
7
iso_b_vert
0
MTEXT
5
100
100
AcDbEntity
8
SK2
62
256
6
ByLayer
370
18
48
1
60
0
100
AcDbMText
10
-55.189796
20
24.63168
30
0
210
0
220
0
230
1
1
\W0.6930;12,000
40
3.5
41
0
44
1.084337
50
90
71
7
72
5
7
iso_b_vert
0
MTEXT
5
109
100
AcDbEntity
8
2
62
256
6
ByLayer
370
18
48
1
60
0
100
AcDbMText
10
67.518709
20
17.05211
30
0
210
0
220
0
230
1
1
%%c
40
3.5
41
0
44
1.084337
50
90
71
7
72
5
7
iso_b_vert
0
MTEXT
5
10A
100
AcDbEntity
8
2
62
256
6
ByLayer
370
18
48
1
60
0
100
AcDbMText
10
67.518709
20
22.274766
30
0
210
0
220
0
230
1
1
\W0.6440;10,100
40
3.5
41
0
44
1.084337
50
90
71
7
72
5
7
iso_b_vert
0
HATCH
5
104
100
AcDbEntity
8
SK2
62
256
6
ByLayer
370
13
48
1
60
0
100
AcDbHatch
10
0
20
0
30
0
210
0
220
0
230
1
2
ANSI31
70
0
71
0
91
1
92
5
93
3
72
1
10
-53.6251625675374
20
6
11
-53.1643788259847
21
2.50000169255318
72
1
10
-53.1643788259847
20
2.50000169255318
11
-54.0859463090902
21
2.49999830744682
72
1
10
-54.0859463090902
20
2.49999830744682
11
-53.6251625675374
21
6
97
0
75
0
76
1
52
0
41
0.0062
77
0
78
1
53
45
43
0
44
0
45
-0.0139193969876572
46
0.0139193969876572
79
0
47
0
98
1
10
0
20
0
0
HATCH
5
108
100
AcDbEntity
8
SK2
62
256
6
ByLayer
370
13
48
1
60
0
100
AcDbHatch
10
0
20
0
30
0
210
0
220
0
230
1
2
ANSI31
70
0
71
0
91
1
92
5
93
3
72
1
10
-53.6251625675374
20
-6
11
-54.0859463090902
21
-2.50000169255318
72
1
10
-54.0859463090902
20
-2.50000169255318
11
-53.1643788259847
21
-2.49999830744682
72
1
10
-53.1643788259847
20
-2.49999830744682
11
-53.6251625675374
21
-6
97
0
75
0
76
1
52
0
41
0.0062
77
0
78
1
53
45
43
0
44
0
45
-0.0139193969876572
46
0.0139193969876572
79
0
47
0
98
1
10
0
20
0
0
HATCH
5
10E
100
AcDbEntity
8
2
62
256
6
ByLayer
370
13
48
1
60
0
100
AcDbHatch
10
0
20
0
30
0
210
0
220
0
230
1
2
ANSI31
70
0
71
0
91
1
92
5
93
3
72
1
10
69.083342615295
20
5.05000000000001
11
69.5441263568477
21
1.55000169255319
72
1
10
69.5441263568477
20
1.55000169255319
11
68.6225588737422
21
1.54999830744683
72
1
10
68.6225588737422
20
1.54999830744683
11
69.083342615295
21
5.05000000000001
97
0
75
0
76
1
52
0
41
0.0062
77
0
78
1
53
45
43
0
44
0
45
-0.0139193969876572
46
0.0139193969876572
79
0
47
0
98
1
10
0
20
0
0
HATCH
5
112
100
AcDbEntity
8
2
62
256
6
ByLayer
370
13
48
1
60
0
100
AcDbHatch
10
0
20
0
30
0
210
0
220
0
230
1
2
ANSI31
70
0
71
0
91
1
92
5
93
3
72
1
10
69.083342615295
20
-5.04999999999998
11
68.6225588737422
21
-1.55000169255317
72
1
10
68.6225588737422
20
-1.55000169255317
11
69.5441263568477
21
-1.5499983074468
72
1
10
69.5441263568477
20
-1.5499983074468
11
69.083342615295
21
-5.04999999999998
97
0
75
0
76
1
52
0
41
0.0062
77
0
78
1
53
45
43
0
44
0
45
-0.0139193969876572
46
0.0139193969876572
79
0
47
0
98
1
10
0
20
0
0
DIMENSION
5
114
100
AcDbEntity
8
SK2
62
256
6
ByLayer
370
13
48
1
60
0
100
AcDbDimension
2
_U0
10
55.2
20
-15.263398
30
0
11
27.6
21
-15.263398
31
0
70
32
71
1
72
1
41
1
210
0
220
0
230
1
3
Standard
100
AcDbAlignedDimension
13
0
23
0
33
0
14
55.2
24
-5.05
34
0
50
0
100
AcDbRotatedDimension
1001
ACAD
1000
DSTYLE
1002
{
1070
   371
1070
    13
1070
   372
1070
    13
1070
   170
1070
     0
1070
   144
1040
1.0
1070
   277
1070
     2
1070
   278
1070
    44
1070
   146
1040
1.0
1070
   345
1005
16
1070
   347
1005
16
1070
   346
1005
16
1070
   344
1005
0
1070
   343
1005
0
1070
   172
1070
     1
1070
    76
1070
     0
1070
    75
1070
     0
1070
   282
1070
     0
1070
   281
1070
     0
1070
    71
1070
     0
1070
    74
1070
     0
1070
   279
1070
     0
1070
   173
1070
     1
1070
   340
1005
FC
1070
   271
1070
     2
1070
   272
1070
     2
1070
    77
1070
     1
1070
    73
1070
     1
1070
   171
1070
     3
1070
   274
1070
     4
1070
   177
1070
    35
1070
   176
1070
    35
1070
   178
1070
    35
1070
    48
1040
-0.1
1070
    41
1040
3.5
1070
   147
1040
1.75
1070
    42
1040
1.5875
1070
    44
1040
2.0
1070
   140
1040
3.5
1002
}
1001
ACAD_DSTYLE_DIM_LINETYPE
1070
   380
1005
16
1001
ACAD_DSTYLE_DIM_EXT1_LINETYPE
1070
   381
1005
16
1001
ACAD_DSTYLE_DIM_EXT2_LINETYPE
1070
   382
1005
16
0
DIMENSION
5
12D
100
AcDbEntity
8
SK2
62
256
6
ByLayer
370
13
48
1
60
0
100
AcDbDimension
2
_U1
10
57
20
-34.692985
30
0
11
6
21
-34.692985
31
0
70
32
71
1
72
1
41
1
210
0
220
0
230
1
3
Standard
100
AcDbAlignedDimension
13
-45
23
-6
33
0
14
57
24
0
34
0
50
0
100
AcDbRotatedDimension
1001
ACAD
1000
DSTYLE
1002
{
1070
   371
1070
    13
1070
   372
1070
    13
1070
   170
1070
     0
1070
   144
1040
1.0
1070
   277
1070
     2
1070
   278
1070
    44
1070
   146
1040
1.0
1070
   345
1005
16
1070
   347
1005
16
1070
   346
1005
16
1070
   344
1005
0
1070
   343
1005
0
1070
   172
1070
     1
1070
    76
1070
     0
1070
    75
1070
     0
1070
   282
1070
     0
1070
   281
1070
     0
1070
    71
1070
     0
1070
    74
1070
     0
1070
   279
1070
     0
1070
   173
1070
     1
1070
   340
1005
FC
1070
   271
1070
     2
1070
   272
1070
     2
1070
    77
1070
     1
1070
    73
1070
     1
1070
   171
1070
     3
1070
   274
1070
     4
1070
   177
1070
    35
1070
   176
1070
    35
1070
   178
1070
    35
1070
    48
1040
-0.1
1070
    41
1040
3.5
1070
   147
1040
1.75
1070
    42
1040
1.5875
1070
    44
1040
2.0
1070
   140
1040
3.5
1002
}
1001
ACAD_DSTYLE_DIM_LINETYPE
1070
   380
1005
16
1001
ACAD_DSTYLE_DIM_EXT1_LINETYPE
1070
   381
1005
16
1001
ACAD_DSTYLE_DIM_EXT2_LINETYPE
1070
   382
1005
16
0
DIMENSION
5
145
100
AcDbEntity
8
SK2
62
256
6
ByLayer
370
13
48
1
60
0
100
AcDbDimension
2
_U2
10
57
20
16.659119
30
0
11
37.86595
21
16.659119
31
0
70
32
71
1
72
1
41
1
210
0
220
0
230
1
3
Standard
100
AcDbAlignedDimension
13
18.7319
23
5.05
33
0
14
57
24
0
34
0
50
0
100
AcDbRotatedDimension
1001
ACAD
1000
DSTYLE
1002
{
1070
   371
1070
    13
1070
   372
1070
    13
1070
   170
1070
     0
1070
   144
1040
1.0
1070
   277
1070
     2
1070
   278
1070
    44
1070
   146
1040
1.0
1070
   345
1005
16
1070
   347
1005
16
1070
   346
1005
16
1070
   344
1005
0
1070
   343
1005
0
1070
   172
1070
     1
1070
    76
1070
     0
1070
    75
1070
     0
1070
   282
1070
     0
1070
   281
1070
     0
1070
    71
1070
     0
1070
    74
1070
     0
1070
   279
1070
     0
1070
   173
1070
     1
1070
   340
1005
FC
1070
   271
1070
     2
1070
   272
1070
     2
1070
    77
1070
     1
1070
    73
1070
     1
1070
   171
1070
     3
1070
   274
1070
     4
1070
   177
1070
    35
1070
   176
1070
    35
1070
   178
1070
    35
1070
    48
1040
-0.1
1070
    41
1040
3.5
1070
   147
1040
1.75
1070
    42
1040
1.5875
1070
    44
1040
2.0
1070
   140
1040
3.5
1002
}
1001
ACAD_DSTYLE_DIM_LINETYPE
1070
   380
1005
16
1001
ACAD_DSTYLE_DIM_EXT1_LINETYPE
1070
   381
1005
16
1001
ACAD_DSTYLE_DIM_EXT2_LINETYPE
1070
   382
1005
16
0
DIMENSION
5
15D
100
AcDbEntity
8
SK2
62
256
6
ByLayer
370
13
48
1
60
0
100
AcDbDimension
2
_U3
10
55.2
20
-17.852503
30
0
11
74.333333
21
-17.852503
31
0
70
32
71
1
72
1
41
1
210
0
220
0
230
1
3
Standard
100
AcDbAlignedDimension
13
57
23
0
33
0
14
55.2
24
-5.05
34
0
50
0
100
AcDbRotatedDimension
1001
ACAD
1000
DSTYLE
1002
{
1070
   371
1070
    13
1070
   372
1070
    13
1070
   170
1070
     0
1070
   144
1040
1.0
1070
   277
1070
     2
1070
   278
1070
    44
1070
   146
1040
1.0
1070
   345
1005
16
1070
   347
1005
16
1070
   346
1005
16
1070
   344
1005
0
1070
   343
1005
0
1070
   172
1070
     1
1070
    76
1070
     0
1070
    75
1070
     0
1070
   282
1070
     0
1070
   281
1070
     0
1070
    71
1070
     0
1070
    74
1070
     0
1070
   279
1070
     0
1070
   173
1070
     1
1070
   340
1005
FC
1070
   271
1070
     2
1070
   272
1070
     2
1070
    77
1070
     1
1070
    73
1070
     1
1070
   171
1070
     3
1070
   274
1070
     4
1070
   177
1070
    35
1070
   176
1070
    35
1070
   178
1070
    35
1070
    48
1040
-0.1
1070
    41
1040
3.5
1070
   147
1040
1.75
1070
    42
1040
1.5875
1070
    44
1040
2.0
1070
   140
1040
3.5
1002
}
1001
ACAD_DSTYLE_DIM_LINETYPE
1070
   380
1005
16
1001
ACAD_DSTYLE_DIM_EXT1_LINETYPE
1070
   381
1005
16
1001
ACAD_DSTYLE_DIM_EXT2_LINETYPE
1070
   382
1005
16
0
DIMENSION
5
177
100
AcDbEntity
8
SK2
62
256
6
ByLayer
370
13
48
1
60
0
100
AcDbDimension
2
_U4
10
55.2
20
-24.343428
30
0
11
5.1
21
-24.343428
31
0
70
32
71
1
72
1
41
1
210
0
220
0
230
1
3
Standard
100
AcDbAlignedDimension
13
-45
23
-6
33
0
14
55.2
24
-5.05
34
0
50
0
100
AcDbRotatedDimension
1001
ACAD
1000
DSTYLE
1002
{
1070
   371
1070
    13
1070
   372
1070
    13
1070
   170
1070
     0
1070
   144
1040
1.0
1070
   277
1070
     2
1070
   278
1070
    44
1070
   146
1040
1.0
1070
   345
1005
16
1070
   347
1005
16
1070
   346
1005
16
1070
   344
1005
0
1070
   343
1005
0
1070
   172
1070
     1
1070
    76
1070
     0
1070
    75
1070
     0
1070
   282
1070
     0
1070
   281
1070
     0
1070
    71
1070
     0
1070
    74
1070
     0
1070
   279
1070
     0
1070
   173
1070
     1
1070
   340
1005
FC
1070
   271
1070
     2
1070
   272
1070
     2
1070
    77
1070
     1
1070
    73
1070
     1
1070
   171
1070
     3
1070
   274
1070
     4
1070
   177
1070
    35
1070
   176
1070
    35
1070
   178
1070
    35
1070
    48
1040
-0.1
1070
    41
1040
3.5
1070
   147
1040
1.75
1070
    42
1040
1.5875
1070
    44
1040
2.0
1070
   140
1040
3.5
1002
}
1001
ACAD_DSTYLE_DIM_LINETYPE
1070
   380
1005
16
1001
ACAD_DSTYLE_DIM_EXT1_LINETYPE
1070
   381
1005
16
1001
ACAD_DSTYLE_DIM_EXT2_LINETYPE
1070
   382
1005
16
0
ENDSEC
0
SECTION
2
OBJECTS
0
DICTIONARY
5
1ff
330
0
100
AcDbDictionary
280
0
281
1
3
ACAD_GROUP
350
200
3
ACAD_MLINESTYLE
350
201
0
DICTIONARY
5
200
330
0
100
AcDbDictionary
280
0
281
1
0
DICTIONARY
5
201
330
0
100
AcDbDictionary
280
0
281
1
3
Standard
350
18
0
MLINESTYLE
5
18
330
201
100
AcDbMlineStyle
2
Standard
70
0
3

62
256
51
90
52
90
71
2
49
-0.5
62
256
6
ByLayer
49
0.5
62
256
6
ByLayer
0
RASTERVARIABLES
5
1ed
330

100
AcDbRasterVariables
90
0
70
1
71
1
72
1
0
ENDSEC
0
EOF
