0
SECTION
2
HEADER
9
$ACADVER
1
AC1015
9
$DWGCODEPAGE
3
ANSI_1252
9
$HANDSEED
5
20b
9
$ANGBASE
50
0
9
$ANGDIR
70
0
9
$ATTMODE
70
1
9
$AUNITS
70
0
9
$AUPREC
70
0
9
$CECOLOR
62
256
9
$CELTSCALE
40
1
9
$CELTYPE
6
ByLayer
9
$CELWEIGHT
370
18
9
$CLAYER
8
0
9
$CMLJUST
70
0
9
$CMLSCALE
40
1
9
$CMLSTYLE
2
Standard
9
$DIMSTYLE
2
Standard
9
$TEXTSIZE
40
0.2
9
$TEXTSTYLE
7
Standard
9
$LUNITS
70
2
9
$LUPREC
70
4
9
$EXTNAMES
290
1
9
$INSUNITS
70
4
9
$LTSCALE
40
1
9
$LWDISPLAY
290
1
9
$PDMODE
70
0
9
$PDSIZE
40
0
9
$PLINEGEN
70
0
0
ENDSEC
0
SECTION
2
CLASSES
0
CLASS
1
RASTERVARIABLES
2
AcDbRasterVariables
3
ISM
90
0
280
0
281
0
0
ENDSEC
0
SECTION
2
TABLES
0
TABLE
2
VPORT
5
201
100
AcDbSymbolTable
0
VPORT
5
1
100
AcDbSymbolTableRecord
100
AcDbViewportTableRecord
2
*Active
70
0
10
0
20
0
11
1
21
1
12
-1
22
1
13
0
23
0
14
0.5
24
0.5
15
10
25
10
16
0
26
0
36
1
17
0
27
0
37
0
0
ENDTAB
0
TABLE
2
LTYPE
5
202
100
AcDbSymbolTable
0
LTYPE
5
14
100
AcDbSymbolTableRecord
100
AcDbLinetypeTableRecord
70
0
2
ByBlock
3

72
65
73
0
40
0
0
LTYPE
5
15
100
AcDbSymbolTableRecord
100
AcDbLinetypeTableRecord
70
0
2
ByLayer
3

72
65
73
0
40
0
0
LTYPE
5
16
100
AcDbSymbolTableRecord
100
AcDbLinetypeTableRecord
70
0
2
Continuous
3
Solid line
72
65
73
0
40
0
0
LTYPE
5
6E
100
AcDbSymbolTableRecord
100
AcDbLinetypeTableRecord
70
0
2
CENTER
3
____ _ ____ _ ____ _ ____
72
65
73
4
40
47.5
49
22
74
0
49
-8.5
74
0
49
8.5
74
0
49
-8.5
74
0
0
LTYPE
5
6F
100
AcDbSymbolTableRecord
100
AcDbLinetypeTableRecord
70
0
2
DASHED
3
__ __ __ __ __ __ __ __ __
72
65
73
2
40
25.72
49
12.86
74
0
49
-12.86
74
0
0
ENDTAB
0
TABLE
2
LAYER
5
203
100
AcDbSymbolTable
0
LAYER
5
10
100
AcDbSymbolTableRecord
100
AcDbLayerTableRecord
2
0
70
0
62
7
6
Continuous
290
1
370
-3
390
0
0
LAYER
5
71
100
AcDbSymbolTableRecord
100
AcDbLayerTableRecord
2
80
70
0
62
-6
6
Continuous
290
1
370
-3
390
0
0
LAYER
5
73
100
AcDbSymbolTableRecord
100
AcDbLayerTableRecord
2
81
70
0
62
-3
6
Continuous
290
1
370
-3
390
0
0
LAYER
5
75
100
AcDbSymbolTableRecord
100
AcDbLayerTableRecord
2
1
70
0
62
4
6
Continuous
290
1
370
-3
390
0
0
LAYER
5
94
100
AcDbSymbolTableRecord
100
AcDbLayerTableRecord
2
4
70
0
62
-2
6
CENTER
290
1
370
-3
390
0
0
LAYER
5
AB
100
AcDbSymbolTableRecord
100
AcDbLayerTableRecord
2
2
70
0
62
7
6
Continuous
290
1
370
-3
390
0
0
LAYER
5
116
100
AcDbSymbolTableRecord
100
AcDbLayerTableRecord
2
Defpoints
70
0
62
7
6
Continuous
290
0
370
-3
390
0
0
LAYER
5
1ed
100
AcDbSymbolTableRecord
100
AcDbLayerTableRecord
2
SK1
70
0
62
4
6
Continuous
290
1
370
-3
390
0
0
LAYER
5
1ee
100
AcDbSymbolTableRecord
100
AcDbLayerTableRecord
2
SK4
70
0
62
2
6
CENTER
290
1
370
-3
390
0
0
LAYER
5
1ef
100
AcDbSymbolTableRecord
100
AcDbLayerTableRecord
2
SK2
70
0
62
7
6
Continuous
290
1
370
-3
390
0
0
LAYER
5
1f0
100
AcDbSymbolTableRecord
100
AcDbLayerTableRecord
2
SK6
70
0
62
5
6
Continuous
290
1
370
-3
390
0
0
ENDTAB
0
TABLE
2
STYLE
5
204
100
AcDbSymbolTable
0
STYLE
5
11
100
AcDbSymbolTableRecord
100
AcDbTextStyleTableRecord
2
Standard
3
txt
70
0
71
0
40
0
41
1
42
0
50
0
0
STYLE
5
FB
100
AcDbSymbolTableRecord
100
AcDbTextStyleTableRecord
2
iso_b_vert
3
simplex.shx
70
0
71
0
40
0
41
1
42
0
50
0
0
STYLE
5
FC
100
AcDbSymbolTableRecord
100
AcDbTextStyleTableRecord
2
DWGDirectTextStyle
3
simplex
70
0
71
0
40
0
41
1
42
0
50
0
0
ENDTAB
0
TABLE
2
DIMSTYLE
5
205
100
AcDbSymbolTable
100
AcDbDimStyleTable
0
DIMSTYLE
105
27
100
AcDbSymbolTableRecord
100
AcDbDimStyleTableRecord
2
Standard
70
0
3
<>
41
0.18
42
0.0625
44
0.18
140
0.18
147
0.09
73
0
74
0
77
1
271
2
275
0
278
52
280
0
340
11
0
ENDTAB
0
TABLE
2
VIEW
5
206
100
AcDbSymbolTable
0
ENDTAB
0
TABLE
2
UCS
5
207
100
AcDbSymbolTable
0
ENDTAB
0
TABLE
2
APPID
5
208
100
AcDbSymbolTable
0
APPID
5
12
100
AcDbSymbolTableRecord
100
AcDbRegAppTableRecord
2
ACAD
70
0
0
APPID
5
112
100
AcDbSymbolTableRecord
100
AcDbRegAppTableRecord
2
ACAD_DSTYLE_DIMBREAK
70
0
0
APPID
5
1AC
100
AcDbSymbolTableRecord
100
AcDbRegAppTableRecord
2
ACAD_DSTYLE_DIM_LINETYPE
70
0
0
APPID
5
1AD
100
AcDbSymbolTableRecord
100
AcDbRegAppTableRecord
2
ACAD_DSTYLE_DIM_EXT1_LINETYPE
70
0
0
APPID
5
1AE
100
AcDbSymbolTableRecord
100
AcDbRegAppTableRecord
2
ACAD_DSTYLE_DIM_EXT2_LINETYPE
70
0
0
APPID
5
1E9
100
AcDbSymbolTableRecord
100
AcDbRegAppTableRecord
2
ACAD_MLEADERVER
70
0
0
ENDTAB
0
TABLE
2
BLOCK_RECORD
5
209
100
AcDbSymbolTable
0
BLOCK_RECORD
5
1F
100
AcDbSymbolTableRecord
100
AcDbBlockTableRecord
2
*Model_Space
340
0
70
0
0
BLOCK_RECORD
5
1B
100
AcDbSymbolTableRecord
100
AcDbBlockTableRecord
2
*Paper_Space
340
0
70
0
0
BLOCK_RECORD
5
23
100
AcDbSymbolTableRecord
100
AcDbBlockTableRecord
2
*Paper_Space0
340
0
70
0
0
BLOCK_RECORD
5
117
100
AcDbSymbolTableRecord
100
AcDbBlockTableRecord
2
*D1
340
0
70
0
0
BLOCK_RECORD
5
123
100
AcDbSymbolTableRecord
100
AcDbBlockTableRecord
2
_U0
340
0
70
0
0
BLOCK_RECORD
5
12F
100
AcDbSymbolTableRecord
100
AcDbBlockTableRecord
2
*D3
340
0
70
0
0
BLOCK_RECORD
5
13B
100
AcDbSymbolTableRecord
100
AcDbBlockTableRecord
2
_U1
340
0
70
0
0
BLOCK_RECORD
5
147
100
AcDbSymbolTableRecord
100
AcDbBlockTableRecord
2
*D5
340
0
70
0
0
BLOCK_RECORD
5
153
100
AcDbSymbolTableRecord
100
AcDbBlockTableRecord
2
_U2
340
0
70
0
0
BLOCK_RECORD
5
15F
100
AcDbSymbolTableRecord
100
AcDbBlockTableRecord
2
*D7
340
0
70
0
0
BLOCK_RECORD
5
16D
100
AcDbSymbolTableRecord
100
AcDbBlockTableRecord
2
_U3
340
0
70
0
0
BLOCK_RECORD
5
179
100
AcDbSymbolTableRecord
100
AcDbBlockTableRecord
2
*D9
340
0
70
0
0
BLOCK_RECORD
5
185
100
AcDbSymbolTableRecord
100
AcDbBlockTableRecord
2
_U4
340
0
70
0
0
ENDTAB
0
ENDSEC
0
SECTION
2
BLOCKS
0
BLOCK
5
20
100
AcDbEntity
8
0
100
AcDbBlockBegin
2
*Model_Space
70
0
10
0
20
0
30
0
3
*Model_Space
0
ENDBLK
5
21
100
AcDbEntity
8
0
100
AcDbBlockEnd
0
BLOCK
5
1C
100
AcDbEntity
8
0
100
AcDbBlockBegin
2
*Paper_Space
70
0
10
0
20
0
30
0
3
*Paper_Space
0
ENDBLK
5
1D
100
AcDbEntity
8
0
100
AcDbBlockEnd
0
BLOCK
5
24
100
AcDbEntity
8
0
100
AcDbBlockBegin
2
*Paper_Space0
70
0
10
0
20
0
30
0
3
*Paper_Space0
0
ENDBLK
5
25
100
AcDbEntity
8
0
100
AcDbBlockEnd
0
BLOCK
5
118
100
AcDbEntity
8
0
100
AcDbBlockBegin
2
*D1
70
1
10
0
20
0
30
0
3
*D1
0
LINE
5
11A
100
AcDbEntity
8
0
62
256
6
ByLayer
370
-2
48
1
60
0
100
AcDbLine
10
0
20
-1.5875
30
0
11
0
21
-16.538398
31
0
39
0
210
0
220
0
230
1
0
LINE
5
11B
100
AcDbEntity
8
0
62
256
6
ByLayer
370
-2
48
1
60
0
100
AcDbLine
10
47.4
20
-5.9125
30
0
11
47.4
21
-16.538398
31
0
39
0
210
0
220
0
230
1
0
LINE
5
11C
100
AcDbEntity
8
0
62
256
6
ByLayer
370
-2
48
1
60
0
100
AcDbLine
10
3.5
20
-14.538398
30
0
11
43.9
21
-14.538398
31
0
39
0
210
0
220
0
230
1
0
SOLID
5
11D
100
AcDbEntity
8
0
62
256
6
ByLayer
370
-1
48
1
60
0
100
AcDbTrace
10
3.5
20
-13.955065
30
0
11
3.5
21
-15.121732
31
0
12
0
22
-14.538398
32
0
13
0
23
-14.538398
33
0
39
0
210
0
220
0
230
1
0
SOLID
5
11E
100
AcDbEntity
8
0
62
256
6
ByLayer
370
-1
48
1
60
0
100
AcDbTrace
10
43.9
20
-15.121732
30
0
11
43.9
21
-13.955065
31
0
12
47.4
22
-14.538398
32
0
13
47.4
23
-14.538398
33
0
39
0
210
0
220
0
230
1
0
MTEXT
5
11F
100
AcDbEntity
8
0
62
256
6
ByLayer
370
18
48
1
60
0
100
AcDbMText
10
23.7
20
-7.538398
30
0
210
0
220
0
230
1
1
\A1;47.40
40
3.5
41
0
44
1
50
0
71
5
72
5
7
iso_b_vert
0
POINT
5
120
100
AcDbEntity
8
Defpoints
62
0
6
ByLayer
370
-1
48
1
60
0
100
AcDbPoint
10
0
20
0
30
0
39
0
210
0
220
0
230
1
50
360
0
POINT
5
121
100
AcDbEntity
8
Defpoints
62
0
6
ByLayer
370
-1
48
1
60
0
100
AcDbPoint
10
47.4
20
-4.325
30
0
39
0
210
0
220
0
230
1
50
360
0
POINT
5
122
100
AcDbEntity
8
Defpoints
62
0
6
ByLayer
370
-1
48
1
60
0
100
AcDbPoint
10
47.4
20
-14.538398
30
0
39
0
210
0
220
0
230
1
50
360
0
ENDBLK
5
119
100
AcDbEntity
8
0
100
AcDbBlockEnd
0
BLOCK
5
12A
100
AcDbEntity
8
0
100
AcDbBlockBegin
2
_U0
70
0
10
0
20
0
30
0
3
_U0
0
MTEXT
5
124
100
AcDbEntity
8
SK2
62
256
6
ByLayer
370
13
48
1
60
0
100
AcDbMText
10
18.194168
20
-13.505765
30
0
210
0
220
0
230
1
1
\W0.7845;47,40
40
3.5
41
0
44
1.084337
50
0
71
7
72
5
7
iso_b_vert
0
LINE
5
125
100
AcDbEntity
8
SK2
62
256
6
ByLayer
370
13
48
1
60
0
100
AcDbLine
10
0
20
-1.5875
30
0
11
0
21
-16.538398
31
0
39
0
210
0
220
0
230
1
0
LINE
5
126
100
AcDbEntity
8
SK2
62
256
6
ByLayer
370
13
48
1
60
0
100
AcDbLine
10
47.4
20
-5.9125
30
0
11
47.4
21
-16.538398
31
0
39
0
210
0
220
0
230
1
0
LINE
5
127
100
AcDbEntity
8
SK2
62
256
6
ByLayer
370
13
48
1
60
0
100
AcDbLine
10
0
20
-14.538398
30
0
11
47.4
21
-14.538398
31
0
39
0
210
0
220
0
230
1
0
SOLID
5
128
100
AcDbEntity
8
SK2
62
256
6
ByLayer
370
18
48
1
60
0
100
AcDbTrace
10
0
20
-14.538398
30
0
11
3.499998
21
-14.077615
31
0
12
3.500002
22
-14.999182
32
0
13
3.500002
23
-14.999182
33
0
39
0
210
0
220
0
230
1
0
SOLID
5
129
100
AcDbEntity
8
SK2
62
256
6
ByLayer
370
18
48
1
60
0
100
AcDbTrace
10
47.4
20
-14.538398
30
0
11
43.900002
21
-14.999182
31
0
12
43.899998
22
-14.077615
32
0
13
43.899998
23
-14.077615
33
0
39
0
210
0
220
0
230
1
0
ENDBLK
5
12B
100
AcDbEntity
8
0
100
AcDbBlockEnd
0
BLOCK
5
130
100
AcDbEntity
8
0
100
AcDbBlockBegin
2
*D3
70
1
10
0
20
0
30
0
3
*D3
0
LINE
5
132
100
AcDbEntity
8
0
62
256
6
ByLayer
370
-2
48
1
60
0
100
AcDbLine
10
-40
20
-6.5875
30
0
11
-40
21
-35.692985
31
0
39
0
210
0
220
0
230
1
0
LINE
5
133
100
AcDbEntity
8
0
62
256
6
ByLayer
370
-2
48
1
60
0
100
AcDbLine
10
49
20
-1.5875
30
0
11
49
21
-35.692985
31
0
39
0
210
0
220
0
230
1
0
LINE
5
134
100
AcDbEntity
8
0
62
256
6
ByLayer
370
-2
48
1
60
0
100
AcDbLine
10
-36.5
20
-33.692985
30
0
11
45.5
21
-33.692985
31
0
39
0
210
0
220
0
230
1
0
SOLID
5
135
100
AcDbEntity
8
0
62
256
6
ByLayer
370
-1
48
1
60
0
100
AcDbTrace
10
-36.5
20
-33.109652
30
0
11
-36.5
21
-34.276319
31
0
12
-40
22
-33.692985
32
0
13
-40
23
-33.692985
33
0
39
0
210
0
220
0
230
1
0
SOLID
5
136
100
AcDbEntity
8
0
62
256
6
ByLayer
370
-1
48
1
60
0
100
AcDbTrace
10
45.5
20
-34.276319
30
0
11
45.5
21
-33.109652
31
0
12
49
22
-33.692985
32
0
13
49
23
-33.692985
33
0
39
0
210
0
220
0
230
1
0
MTEXT
5
137
100
AcDbEntity
8
0
62
256
6
ByLayer
370
18
48
1
60
0
100
AcDbMText
10
4.5
20
-26.692985
30
0
210
0
220
0
230
1
1
\A1;89.00
40
3.5
41
0
44
1
50
0
71
5
72
5
7
iso_b_vert
0
POINT
5
138
100
AcDbEntity
8
Defpoints
62
0
6
ByLayer
370
-1
48
1
60
0
100
AcDbPoint
10
-40
20
-5
30
0
39
0
210
0
220
0
230
1
50
360
0
POINT
5
139
100
AcDbEntity
8
Defpoints
62
0
6
ByLayer
370
-1
48
1
60
0
100
AcDbPoint
10
49
20
0
30
0
39
0
210
0
220
0
230
1
50
360
0
POINT
5
13A
100
AcDbEntity
8
Defpoints
62
0
6
ByLayer
370
-1
48
1
60
0
100
AcDbPoint
10
49
20
-33.692985
30
0
39
0
210
0
220
0
230
1
50
360
0
ENDBLK
5
131
100
AcDbEntity
8
0
100
AcDbBlockEnd
0
BLOCK
5
142
100
AcDbEntity
8
0
100
AcDbBlockBegin
2
_U1
70
0
10
0
20
0
30
0
3
_U1
0
MTEXT
5
13C
100
AcDbEntity
8
SK2
62
256
6
ByLayer
370
13
48
1
60
0
100
AcDbMText
10
-0.637299
20
-32.660352
30
0
210
0
220
0
230
1
1
\W0.7317;89,00
40
3.5
41
0
44
1.084337
50
0
71
7
72
5
7
iso_b_vert
0
LINE
5
13D
100
AcDbEntity
8
SK2
62
256
6
ByLayer
370
13
48
1
60
0
100
AcDbLine
10
-40
20
-6.5875
30
0
11
-40
21
-35.692985
31
0
39
0
210
0
220
0
230
1
0
LINE
5
13E
100
AcDbEntity
8
SK2
62
256
6
ByLayer
370
13
48
1
60
0
100
AcDbLine
10
49
20
-1.5875
30
0
11
49
21
-35.692985
31
0
39
0
210
0
220
0
230
1
0
LINE
5
13F
100
AcDbEntity
8
SK2
62
256
6
ByLayer
370
13
48
1
60
0
100
AcDbLine
10
-40
20
-33.692985
30
0
11
49
21
-33.692985
31
0
39
0
210
0
220
0
230
1
0
SOLID
5
140
100
AcDbEntity
8
SK2
62
256
6
ByLayer
370
18
48
1
60
0
100
AcDbTrace
10
-40
20
-33.692985
30
0
11
-36.500002
21
-33.232202
31
0
12
-36.499998
22
-34.153769
32
0
13
-36.499998
23
-34.153769
33
0
39
0
210
0
220
0
230
1
0
SOLID
5
141
100
AcDbEntity
8
SK2
62
256
6
ByLayer
370
18
48
1
60
0
100
AcDbTrace
10
49
20
-33.692985
30
0
11
45.500002
21
-34.153769
31
0
12
45.499998
22
-33.232202
32
0
13
45.499998
23
-33.232202
33
0
39
0
210
0
220
0
230
1
0
ENDBLK
5
143
100
AcDbEntity
8
0
100
AcDbBlockEnd
0
BLOCK
5
148
100
AcDbEntity
8
0
100
AcDbBlockBegin
2
*D5
70
1
10
0
20
0
30
0
3
*D5
0
LINE
5
14A
100
AcDbEntity
8
0
62
256
6
ByLayer
370
-2
48
1
60
0
100
AcDbLine
10
16.7665
20
5.9125
30
0
11
16.7665
21
17.934119
31
0
39
0
210
0
220
0
230
1
0
LINE
5
14B
100
AcDbEntity
8
0
62
256
6
ByLayer
370
-2
48
1
60
0
100
AcDbLine
10
49
20
1.5875
30
0
11
49
21
17.934119
31
0
39
0
210
0
220
0
230
1
0
LINE
5
14C
100
AcDbEntity
8
0
62
256
6
ByLayer
370
-2
48
1
60
0
100
AcDbLine
10
20.2665
20
15.934119
30
0
11
45.5
21
15.934119
31
0
39
0
210
0
220
0
230
1
0
SOLID
5
14D
100
AcDbEntity
8
0
62
256
6
ByLayer
370
-1
48
1
60
0
100
AcDbTrace
10
20.2665
20
16.517453
30
0
11
20.2665
21
15.350786
31
0
12
16.7665
22
15.934119
32
0
13
16.7665
23
15.934119
33
0
39
0
210
0
220
0
230
1
0
SOLID
5
14E
100
AcDbEntity
8
0
62
256
6
ByLayer
370
-1
48
1
60
0
100
AcDbTrace
10
45.5
20
15.350786
30
0
11
45.5
21
16.517453
31
0
12
49
22
15.934119
32
0
13
49
23
15.934119
33
0
39
0
210
0
220
0
230
1
0
MTEXT
5
14F
100
AcDbEntity
8
0
62
256
6
ByLayer
370
18
48
1
60
0
100
AcDbMText
10
32.88325
20
22.934119
30
0
210
0
220
0
230
1
1
\A1;32.23
40
3.5
41
0
44
1
50
0
71
5
72
5
7
iso_b_vert
0
POINT
5
150
100
AcDbEntity
8
Defpoints
62
0
6
ByLayer
370
-1
48
1
60
0
100
AcDbPoint
10
16.7665
20
4.325
30
0
39
0
210
0
220
0
230
1
50
360
0
POINT
5
151
100
AcDbEntity
8
Defpoints
62
0
6
ByLayer
370
-1
48
1
60
0
100
AcDbPoint
10
49
20
0
30
0
39
0
210
0
220
0
230
1
50
360
0
POINT
5
152
100
AcDbEntity
8
Defpoints
62
0
6
ByLayer
370
-1
48
1
60
0
100
AcDbPoint
10
49
20
15.934119
30
0
39
0
210
0
220
0
230
1
50
360
0
ENDBLK
5
149
100
AcDbEntity
8
0
100
AcDbBlockEnd
0
BLOCK
5
15A
100
AcDbEntity
8
0
100
AcDbBlockBegin
2
_U2
70
0
10
0
20
0
30
0
3
_U2
0
MTEXT
5
154
100
AcDbEntity
8
SK2
62
256
6
ByLayer
370
13
48
1
60
0
100
AcDbMText
10
27.745951
20
16.966753
30
0
210
0
220
0
230
1
1
\W0.7317;32,23
40
3.5
41
0
44
1.084337
50
0
71
7
72
5
7
iso_b_vert
0
LINE
5
155
100
AcDbEntity
8
SK2
62
256
6
ByLayer
370
13
48
1
60
0
100
AcDbLine
10
16.7665
20
5.9125
30
0
11
16.7665
21
17.934119
31
0
39
0
210
0
220
0
230
1
0
LINE
5
156
100
AcDbEntity
8
SK2
62
256
6
ByLayer
370
13
48
1
60
0
100
AcDbLine
10
49
20
1.5875
30
0
11
49
21
17.934119
31
0
39
0
210
0
220
0
230
1
0
LINE
5
157
100
AcDbEntity
8
SK2
62
256
6
ByLayer
370
13
48
1
60
0
100
AcDbLine
10
16.7665
20
15.934119
30
0
11
49
21
15.934119
31
0
39
0
210
0
220
0
230
1
0
SOLID
5
158
100
AcDbEntity
8
SK2
62
256
6
ByLayer
370
18
48
1
60
0
100
AcDbTrace
10
16.7665
20
15.934119
30
0
11
20.266498
21
16.394903
31
0
12
20.266502
22
15.473335
32
0
13
20.266502
23
15.473335
33
0
39
0
210
0
220
0
230
1
0
SOLID
5
159
100
AcDbEntity
8
SK2
62
256
6
ByLayer
370
18
48
1
60
0
100
AcDbTrace
10
49
20
15.934119
30
0
11
45.500002
21
15.473335
31
0
12
45.499998
22
16.394903
32
0
13
45.499998
23
16.394903
33
0
39
0
210
0
220
0
230
1
0
ENDBLK
5
15B
100
AcDbEntity
8
0
100
AcDbBlockEnd
0
BLOCK
5
160
100
AcDbEntity
8
0
100
AcDbBlockBegin
2
*D7
70
1
10
0
20
0
30
0
3
*D7
0
LINE
5
162
100
AcDbEntity
8
0
62
256
6
ByLayer
370
-2
48
1
60
0
100
AcDbLine
10
49
20
-1.5875
30
0
11
49
21
-19.127503
31
0
39
0
210
0
220
0
230
1
0
LINE
5
163
100
AcDbEntity
8
0
62
256
6
ByLayer
370
-2
48
1
60
0
100
AcDbLine
10
47.4
20
-5.9125
30
0
11
47.4
21
-19.127503
31
0
39
0
210
0
220
0
230
1
0
LINE
5
164
100
AcDbEntity
8
0
62
256
6
ByLayer
370
-2
48
1
60
0
100
AcDbLine
10
49
20
-17.127503
30
0
11
76.666667
21
-17.127503
31
0
39
0
210
0
220
0
230
1
0
LINE
5
165
100
AcDbEntity
8
0
62
256
6
ByLayer
370
-2
48
1
60
0
100
AcDbLine
10
52.5
20
-17.127503
30
0
11
56
21
-17.127503
31
0
39
0
210
0
220
0
230
1
0
LINE
5
166
100
AcDbEntity
8
0
62
256
6
ByLayer
370
-2
48
1
60
0
100
AcDbLine
10
43.9
20
-17.127503
30
0
11
40.4
21
-17.127503
31
0
39
0
210
0
220
0
230
1
0
SOLID
5
167
100
AcDbEntity
8
0
62
256
6
ByLayer
370
-1
48
1
60
0
100
AcDbTrace
10
52.5
20
-16.54417
30
0
11
52.5
21
-17.710837
31
0
12
49
22
-17.127503
32
0
13
49
23
-17.127503
33
0
39
0
210
0
220
0
230
1
0
SOLID
5
168
100
AcDbEntity
8
0
62
256
6
ByLayer
370
-1
48
1
60
0
100
AcDbTrace
10
43.9
20
-17.710837
30
0
11
43.9
21
-16.54417
31
0
12
47.4
22
-17.127503
32
0
13
47.4
23
-17.127503
33
0
39
0
210
0
220
0
230
1
0
MTEXT
5
169
100
AcDbEntity
8
0
62
256
6
ByLayer
370
18
48
1
60
0
100
AcDbMText
10
66.333333
20
-10.127503
30
0
210
0
220
0
230
1
1
\A1;1.60
40
3.5
41
0
44
1
50
0
71
5
72
5
7
iso_b_vert
0
POINT
5
16A
100
AcDbEntity
8
Defpoints
62
0
6
ByLayer
370
-1
48
1
60
0
100
AcDbPoint
10
49
20
0
30
0
39
0
210
0
220
0
230
1
50
360
0
POINT
5
16B
100
AcDbEntity
8
Defpoints
62
0
6
ByLayer
370
-1
48
1
60
0
100
AcDbPoint
10
47.4
20
-4.325
30
0
39
0
210
0
220
0
230
1
50
360
0
POINT
5
16C
100
AcDbEntity
8
Defpoints
62
0
6
ByLayer
370
-1
48
1
60
0
100
AcDbPoint
10
47.4
20
-17.127503
30
0
39
0
210
0
220
0
230
1
50
360
0
ENDBLK
5
161
100
AcDbEntity
8
0
100
AcDbBlockEnd
0
BLOCK
5
174
100
AcDbEntity
8
0
100
AcDbBlockBegin
2
_U3
70
0
10
0
20
0
30
0
3
_U3
0
MTEXT
5
16E
100
AcDbEntity
8
SK2
62
256
6
ByLayer
370
13
48
1
60
0
100
AcDbMText
10
55.589293
20
-16.09487
30
0
210
0
220
0
230
1
1
\W0.6367;1,60
40
3.5
41
0
44
1.084337
50
0
71
7
72
5
7
iso_b_vert
0
LINE
5
16F
100
AcDbEntity
8
SK2
62
256
6
ByLayer
370
13
48
1
60
0
100
AcDbLine
10
49
20
-1.5875
30
0
11
49
21
-19.127503
31
0
39
0
210
0
220
0
230
1
0
LINE
5
170
100
AcDbEntity
8
SK2
62
256
6
ByLayer
370
13
48
1
60
0
100
AcDbLine
10
47.4
20
-5.9125
30
0
11
47.4
21
-19.127503
31
0
39
0
210
0
220
0
230
1
0
LINE
5
171
100
AcDbEntity
8
SK2
62
256
6
ByLayer
370
13
48
1
60
0
100
AcDbLine
10
38.65
20
-17.127503
30
0
11
62.559058
21
-17.127503
31
0
39
0
210
0
220
0
230
1
0
SOLID
5
172
100
AcDbEntity
8
SK2
62
256
6
ByLayer
370
18
48
1
60
0
100
AcDbTrace
10
49
20
-17.127503
30
0
11
52.499998
21
-16.666719
31
0
12
52.500002
22
-17.588287
32
0
13
52.500002
23
-17.588287
33
0
39
0
210
0
220
0
230
1
0
SOLID
5
173
100
AcDbEntity
8
SK2
62
256
6
ByLayer
370
18
48
1
60
0
100
AcDbTrace
10
47.4
20
-17.127503
30
0
11
43.900002
21
-17.588287
31
0
12
43.899998
22
-16.666719
32
0
13
43.899998
23
-16.666719
33
0
39
0
210
0
220
0
230
1
0
ENDBLK
5
175
100
AcDbEntity
8
0
100
AcDbBlockEnd
0
BLOCK
5
17A
100
AcDbEntity
8
0
100
AcDbBlockBegin
2
*D9
70
1
10
0
20
0
30
0
3
*D9
0
LINE
5
17C
100
AcDbEntity
8
0
62
256
6
ByLayer
370
-2
48
1
60
0
100
AcDbLine
10
-40
20
-6.5875
30
0
11
-40
21
-25.343428
31
0
39
0
210
0
220
0
230
1
0
LINE
5
17D
100
AcDbEntity
8
0
62
256
6
ByLayer
370
-2
48
1
60
0
100
AcDbLine
10
47.4
20
-5.9125
30
0
11
47.4
21
-25.343428
31
0
39
0
210
0
220
0
230
1
0
LINE
5
17E
100
AcDbEntity
8
0
62
256
6
ByLayer
370
-2
48
1
60
0
100
AcDbLine
10
-36.5
20
-23.343428
30
0
11
43.9
21
-23.343428
31
0
39
0
210
0
220
0
230
1
0
SOLID
5
17F
100
AcDbEntity
8
0
62
256
6
ByLayer
370
-1
48
1
60
0
100
AcDbTrace
10
-36.5
20
-22.760095
30
0
11
-36.5
21
-23.926762
31
0
12
-40
22
-23.343428
32
0
13
-40
23
-23.343428
33
0
39
0
210
0
220
0
230
1
0
SOLID
5
180
100
AcDbEntity
8
0
62
256
6
ByLayer
370
-1
48
1
60
0
100
AcDbTrace
10
43.9
20
-23.926762
30
0
11
43.9
21
-22.760095
31
0
12
47.4
22
-23.343428
32
0
13
47.4
23
-23.343428
33
0
39
0
210
0
220
0
230
1
0
MTEXT
5
181
100
AcDbEntity
8
0
62
256
6
ByLayer
370
18
48
1
60
0
100
AcDbMText
10
3.7
20
-16.343428
30
0
210
0
220
0
230
1
1
\A1;87.40
40
3.5
41
0
44
1
50
0
71
5
72
5
7
iso_b_vert
0
POINT
5
182
100
AcDbEntity
8
Defpoints
62
0
6
ByLayer
370
-1
48
1
60
0
100
AcDbPoint
10
-40
20
-5
30
0
39
0
210
0
220
0
230
1
50
360
0
POINT
5
183
100
AcDbEntity
8
Defpoints
62
0
6
ByLayer
370
-1
48
1
60
0
100
AcDbPoint
10
47.4
20
-4.325
30
0
39
0
210
0
220
0
230
1
50
360
0
POINT
5
184
100
AcDbEntity
8
Defpoints
62
0
6
ByLayer
370
-1
48
1
60
0
100
AcDbPoint
10
47.4
20
-23.343428
30
0
39
0
210
0
220
0
230
1
50
360
0
ENDBLK
5
17B
100
AcDbEntity
8
0
100
AcDbBlockEnd
0
BLOCK
5
18C
100
AcDbEntity
8
0
100
AcDbBlockBegin
2
_U4
70
0
10
0
20
0
30
0
3
_U4
0
MTEXT
5
186
100
AcDbEntity
8
SK2
62
256
6
ByLayer
370
13
48
1
60
0
100
AcDbMText
10
-1.621565
20
-22.310795
30
0
210
0
220
0
230
1
1
\W0.7581;87,40
40
3.5
41
0
44
1.084337
50
0
71
7
72
5
7
iso_b_vert
0
LINE
5
187
100
AcDbEntity
8
SK2
62
256
6
ByLayer
370
13
48
1
60
0
100
AcDbLine
10
-40
20
-6.5875
30
0
11
-40
21
-25.343428
31
0
39
0
210
0
220
0
230
1
0
LINE
5
188
100
AcDbEntity
8
SK2
62
256
6
ByLayer
370
13
48
1
60
0
100
AcDbLine
10
47.4
20
-5.9125
30
0
11
47.4
21
-25.343428
31
0
39
0
210
0
220
0
230
1
0
LINE
5
189
100
AcDbEntity
8
SK2
62
256
6
ByLayer
370
13
48
1
60
0
100
AcDbLine
10
-40
20
-23.343428
30
0
11
47.4
21
-23.343428
31
0
39
0
210
0
220
0
230
1
0
SOLID
5
18A
100
AcDbEntity
8
SK2
62
256
6
ByLayer
370
18
48
1
60
0
100
AcDbTrace
10
-40
20
-23.343428
30
0
11
-36.500002
21
-22.882645
31
0
12
-36.499998
22
-23.804212
32
0
13
-36.499998
23
-23.804212
33
0
39
0
210
0
220
0
230
1
0
SOLID
5
18B
100
AcDbEntity
8
SK2
62
256
6
ByLayer
370
18
48
1
60
0
100
AcDbTrace
10
47.4
20
-23.343428
30
0
11
43.900002
21
-23.804212
31
0
12
43.899998
22
-22.882645
32
0
13
43.899998
23
-22.882645
33
0
39
0
210
0
220
0
230
1
0
ENDBLK
5
18D
100
AcDbEntity
8
0
100
AcDbBlockEnd
0
ENDSEC
0
SECTION
2
ENTITIES
0
ARC
5
B4
100
AcDbEntity
8
1
62
256
6
ByLayer
370
18
48
1
60
0
100
AcDbCircle
39
0
10
1.343098
20
-5.069533
30
0
40
0.799999999999995
210
0
220
0
230
1
100
AcDbArc
50
89.931245
51
147.080655
0
ARC
5
B5
100
AcDbEntity
8
1
62
256
6
ByLayer
370
18
48
1
60
0
100
AcDbCircle
39
0
10
1.343098
20
5.069533
30
0
40
0.799999999999995
210
0
220
0
230
1
100
AcDbArc
50
212.919345
51
270.068755
0
ARC
5
B6
100
AcDbEntity
8
1
62
256
6
ByLayer
370
18
48
1
60
0
100
AcDbCircle
39
0
10
0
20
-4.2
30
0
40
0.8
210
0
220
0
230
1
100
AcDbArc
50
270
51
327.080655
0
ARC
5
B7
100
AcDbEntity
8
1
62
256
6
ByLayer
370
18
48
1
60
0
100
AcDbCircle
39
0
10
0
20
4.2
30
0
40
0.8
210
0
220
0
230
1
100
AcDbArc
50
32.919345
51
90
0
ELLIPSE
5
B8
100
AcDbEntity
8
1
62
256
6
ByLayer
370
18
48
1
60
0
100
AcDbEllipse
10
49.000724
20
-0.001889
30
0
11
1.5840253468168
21
-4.32513686699271
31
0
210
0
220
0
230
1
40
0.073902
41
2.86218148222844
42
2.92730550873864
0
ELLIPSE
5
B9
100
AcDbEntity
8
1
62
256
6
ByLayer
370
13
48
1
60
0
100
AcDbEllipse
10
4.250244
20
0.521207
30
0
11
0.0433473930452485
21
0.0901166106563088
31
0
210
0
220
0
230
1
40
0.055531
41
3.04906050344397
42
-1.68200866353371
0
ELLIPSE
5
BA
100
AcDbEntity
8
1
62
256
6
ByLayer
370
18
48
1
60
0
100
AcDbEllipse
10
49.071817
20
-0.146312
30
0
11
0.107158250669177
21
-0.326150765073161
31
0
210
0
220
0
230
1
40
0.050974
41
-2.34746929095801
42
-2.14072985602223
0
ELLIPSE
5
BB
100
AcDbEntity
8
1
62
256
6
ByLayer
370
18
48
1
60
0
100
AcDbEllipse
10
48.454893
20
-1.653829
30
0
11
0.292882377395595
21
0.799707144523438
31
0
210
0
220
0
230
1
40
0.073902
41
-1.45411315656778
42
-0.722855679408782
0
ELLIPSE
5
BC
100
AcDbEntity
8
1
62
256
6
ByLayer
370
13
48
1
60
0
100
AcDbEllipse
10
4.184369
20
0.554556
30
0
11
-0.0472485131511123
21
-0.0881338641216256
31
0
210
0
220
0
230
1
40
0.346979
41
-1.25468997726838
42
0.0265734078629396
0
ELLIPSE
5
BD
100
AcDbEntity
8
1
62
256
6
ByLayer
370
18
48
1
60
0
100
AcDbEllipse
10
48.953098
20
-0.059155
30
0
11
0.0685673025862714
21
0.197677258978879
31
0
210
0
220
0
230
1
40
0.089621
41
-2.14968638262124
42
-1.09978876521871
0
ELLIPSE
5
BE
100
AcDbEntity
8
1
62
256
6
ByLayer
370
18
48
1
60
0
100
AcDbEllipse
10
49.000725
20
0.001891
30
0
11
1.58402581905926
21
4.3251382327306
31
0
210
0
220
0
230
1
40
0.073902
41
-2.92730554221028
42
-2.86218152622969
0
ELLIPSE
5
BF
100
AcDbEntity
8
1
62
256
6
ByLayer
370
18
48
1
60
0
100
AcDbEllipse
10
49.071817
20
0.146312
30
0
11
0.107158245827451
21
0.32615075195424
31
0
210
0
220
0
230
1
40
0.050974
41
2.14072983857371
42
2.34746927958285
0
ELLIPSE
5
C0
100
AcDbEntity
8
1
62
256
6
ByLayer
370
18
48
1
60
0
100
AcDbEllipse
10
48.454893
20
1.653829
30
0
11
0.292882377410615
21
-0.799707144558432
31
0
210
0
220
0
230
1
40
0.073902
41
0.722855679401958
42
1.45411315653467
0
ELLIPSE
5
C1
100
AcDbEntity
8
1
62
256
6
ByLayer
370
18
48
1
60
0
100
AcDbEllipse
10
39.570887
20
1.653829
30
0
11
9.14397571608052
21
-0.596547346699135
31
0
210
0
220
0
230
1
40
0.058294
41
0.0206793324954423
42
0.310893955221428
0
POINT
5
70
100
AcDbEntity
8
80
62
256
6
ByLayer
370
18
48
1
60
0
100
AcDbPoint
10
0
20
0
30
0
39
0
210
0
220
0
230
1
50
360
0
POINT
5
72
100
AcDbEntity
8
81
62
256
6
ByLayer
370
18
48
1
60
0
100
AcDbPoint
10
49
20
0
30
0
39
0
210
0
220
0
230
1
50
360
0
POINT
5
74
100
AcDbEntity
8
1
62
256
6
ByLayer
370
18
48
1
60
1
100
AcDbPoint
10
47.4
20
-4.325
30
0
39
0
210
0
220
0
230
1
50
360
0
POINT
5
76
100
AcDbEntity
8
1
62
256
6
ByLayer
370
18
48
1
60
1
100
AcDbPoint
10
-40
20
-5
30
0
39
0
210
0
220
0
230
1
50
360
0
POINT
5
77
100
AcDbEntity
8
1
62
256
6
ByLayer
370
18
48
1
60
1
100
AcDbPoint
10
16.7665
20
4.325
30
0
39
0
210
0
220
0
230
1
50
360
0
POINT
5
78
100
AcDbEntity
8
1
62
256
6
ByLayer
370
18
48
1
60
1
100
AcDbPoint
10
47.4
20
-4.325
30
0
39
0
210
0
220
0
230
1
50
360
0
POINT
5
79
100
AcDbEntity
8
1
62
256
6
ByLayer
370
18
48
1
60
1
100
AcDbPoint
10
-40
20
-5
30
0
39
0
210
0
220
0
230
1
50
360
0
POINT
5
7A
100
AcDbEntity
8
1
62
256
6
ByLayer
370
18
48
1
60
1
100
AcDbPoint
10
47.4
20
-4.325
30
0
39
0
210
0
220
0
230
1
50
360
0
SPLINE
5
C2
100
AcDbEntity
8
SK1
62
256
6
ByLayer
370
18
48
1
60
0
100
AcDbSpline
70
4
71
3
72
8
73
4
40
0
40
0
40
0
40
0
40
1
40
1
40
1
40
1
41
1
10
-39.35
20
-2.23355823014108
30
0
41
1
10
-39.5672238350105
20
-2.07799173934723
30
0
41
1
10
-39.7839917756392
20
-1.9221230444185
30
0
41
1
10
-40
20
-1.76575074732517
30
0
0
SPLINE
5
C3
100
AcDbEntity
8
SK1
62
256
6
ByLayer
370
18
48
1
60
0
100
AcDbSpline
70
4
71
3
72
12
73
8
40
0
40
0
40
0
40
0
40
0.25
40
0.25
40
0.5
40
0.5
40
1
40
1
40
1
40
1
41
1
10
-39.25
20
-2.39206992198865
30
0
41
1
10
-39.25
20
-2.37772630621737
30
0
41
1
10
-39.2542331907051
20
-2.36132415653577
30
0
41
1
10
-39.2670221927524
20
-2.33006346987659
30
0
41
1
10
-39.2754822149468
20
-2.31508981278844
30
0
41
1
10
-39.3037500831724
20
-2.27367663470162
30
0
41
1
10
-39.3264281370761
20
-2.25043939788387
30
0
41
1
10
-39.35
20
-2.23355823014106
30
0
0
SPLINE
5
C4
100
AcDbEntity
8
SK1
62
256
6
ByLayer
370
18
48
1
60
0
100
AcDbSpline
70
4
71
3
72
12
73
8
40
0
40
0
40
0
40
0
40
0.5
40
0.5
40
0.75
40
0.75
40
1
40
1
40
1
40
1
41
1
10
-39.35
20
-3.6677446655153
30
0
41
1
10
-39.3264213677977
20
-3.68463068112794
30
0
41
1
10
-39.3036992467059
20
-3.69648891475239
30
0
41
1
10
-39.2756046028624
20
-3.70312028514178
30
0
41
1
10
-39.2670500056163
20
-3.70344077681992
30
0
41
1
10
-39.2542658313663
20
-3.69818800131506
30
0
41
1
10
-39.25
20
-3.69237536775344
30
0
41
1
10
-39.25
20
-3.68283771382539
30
0
0
SPLINE
5
C5
100
AcDbEntity
8
SK1
62
256
6
ByLayer
370
18
48
1
60
0
100
AcDbSpline
70
4
71
3
72
8
73
4
40
0
40
0
40
0
40
0
40
1
40
1
40
1
40
1
41
1
10
-40
20
-3.19993718269933
30
0
41
1
10
-39.783983100006
20
-3.35631576024196
30
0
41
1
10
-39.5672164529963
20
-3.51218346140666
30
0
41
1
10
-39.35
20
-3.66774466551524
30
0
0
SPLINE
5
C6
100
AcDbEntity
8
1
62
256
6
ByLayer
370
18
48
1
60
0
100
AcDbSpline
70
4
71
3
72
16
73
12
40
0
40
0
40
0
40
0
40
0.250000000000002
40
0.250000000000002
40
0.375000000000002
40
0.375000000000002
40
0.500000000000002
40
0.500000000000002
40
0.750000000000001
40
0.750000000000001
40
1
40
1
40
1
40
1
41
1
10
4.2507236950633
20
3.93417837608212
30
0
41
1
10
4.63785286641237
20
3.85831468817653
30
0
41
1
10
5.03638541805867
20
3.76260240725904
30
0
41
1
10
5.6444557446766
20
3.59845024624747
30
0
41
1
10
5.84894342369321
20
3.54021787242257
30
0
41
1
10
6.26099199520667
20
3.41777594600589
30
0
41
1
10
6.4688002941871
20
3.35350465647616
30
0
41
1
10
7.09383372853492
20
3.15291876603896
30
0
41
1
10
7.51323314436095
20
3.00859454140121
30
0
41
1
10
8.35777858891953
20
2.70462015464275
30
0
41
1
10
8.78357816832565
20
2.54443910892633
30
0
41
1
10
9.21138296377819
20
2.3802095193993
30
0
0
SPLINE
5
C7
100
AcDbEntity
8
1
62
256
6
ByLayer
370
18
48
1
60
0
100
AcDbSpline
70
4
71
3
72
24
73
20
40
0
40
0
40
0
40
0
40
0.125
40
0.125
40
0.25
40
0.25
40
0.375
40
0.375
40
0.5
40
0.5
40
0.5625
40
0.5625
40
0.625
40
0.625
40
0.75
40
0.75
40
0.875
40
0.875
40
1
40
1
40
1
40
1
41
1
10
47.5662822839379
20
4.18779457848083
30
0
41
1
10
47.6070305293678
20
4.08608615801853
30
0
41
1
10
47.647909297076
20
3.98332586384998
30
0
41
1
10
47.7299754273275
20
3.77531832234635
30
0
41
1
10
47.771220698558
20
3.66960439126692
30
0
41
1
10
47.8539848887559
20
3.45597121318045
30
0
41
1
10
47.895531590944
20
3.34812591449992
30
0
41
1
10
47.9783325151524
20
3.13133941310301
30
0
41
1
10
48.0196360248379
20
3.02221937494761
30
0
41
1
10
48.0814781712153
20
2.85769134657087
30
0
41
1
10
48.1020732078101
20
2.80270614871211
30
0
41
1
10
48.1432346692482
20
2.69252126982332
30
0
41
1
10
48.1638116155671
20
2.637400461261
30
0
41
1
10
48.2254529776318
20
2.47136728714284
30
0
41
1
10
48.2663319759812
20
2.36021961883927
30
0
41
1
10
48.3475305731089
20
2.13812265038882
30
0
41
1
10
48.387956109366
20
2.02702829497994
30
0
41
1
10
48.4682642022092
20
1.80469624398282
30
0
41
1
10
48.5081837766717
20
1.69336878339416
30
0
41
1
10
48.5477570970299
20
1.5821720840618
30
0
0
SPLINE
5
C8
100
AcDbEntity
8
1
62
256
6
ByLayer
370
13
48
1
60
0
100
AcDbSpline
70
4
71
3
72
10
73
6
40
0
40
0
40
0
40
0
40
0.5
40
0.5
40
1
40
1
40
1
40
1
41
1
10
4.01228785541528
20
0.647213421995332
30
0
41
1
10
4.02223231609349
20
0.625339908832672
30
0
41
1
10
4.03806100572453
20
0.604873469305943
30
0
41
1
10
4.08128170958855
20
0.568955878997144
30
0
41
1
10
4.10850076726965
20
0.553697281353408
30
0
41
1
10
4.14061600523044
20
0.542739864956502
30
0
0
SPLINE
5
C9
100
AcDbEntity
8
1
62
256
6
ByLayer
370
18
48
1
60
0
100
AcDbSpline
70
4
71
3
72
66
73
62
40
0
40
0
40
0
40
0
40
0.0662776285274335
40
0.0662776285274335
40
0.19966653873781
40
0.19966653873781
40
0.333055448948186
40
0.333055448948186
40
0.466444359158561
40
0.466444359158561
40
0.533138814263749
40
0.533138814263749
40
0.599833269368937
40
0.599833269368937
40
0.666527724474125
40
0.666527724474125
40
0.699874952026719
40
0.699874952026719
40
0.716548565803016
40
0.716548565803016
40
0.72071696924709
40
0.72071696924709
40
0.724885372691164
40
0.724885372691164
40
0.726969574413201
40
0.726969574413201
40
0.729053776135237
40
0.729053776135237
40
0.73322217957931
40
0.73322217957931
40
0.749895793355603
40
0.749895793355603
40
0.766569407131896
40
0.766569407131896
40
0.783243020908189
40
0.783243020908189
40
0.791579827796335
40
0.791579827796335
40
0.799916634684481
40
0.799916634684481
40
0.816590248460775
40
0.816590248460775
40
0.833263862237068
40
0.833263862237068
40
0.841600669125214
40
0.841600669125214
40
0.849937476013361
40
0.849937476013361
40
0.866611089789654
40
0.866611089789654
40
0.883284703565947
40
0.883284703565947
40
0.899958317342241
40
0.899958317342241
40
0.933305544894827
40
0.933305544894827
40
0.94997915867112
40
0.94997915867112
40
0.966652772447414
40
0.966652772447414
40
1
40
1
40
1
40
1
41
1
10
18.0750711000656
20
-4.28960970061874
30
0
41
1
10
17.6537118504957
20
-4.2889937441642
30
0
41
1
10
17.2283980344367
20
-4.27600330001431
30
0
41
1
10
15.9363875172426
20
-4.20808701419605
30
0
41
1
10
15.0684087244541
20
-4.12471910776509
30
0
41
1
10
13.3172237523128
20
-3.926264864762
30
0
41
1
10
12.4339709229017
20
-3.81115858995929
30
0
41
1
10
10.6480270029403
20
-3.58913082816665
30
0
41
1
10
9.74534967722161
20
-3.48238056680577
30
0
41
1
10
8.37514884032237
20
-3.35297984965041
30
0
41
1
10
7.91573219169226
20
-3.31488950743085
30
0
41
1
10
6.99135282769655
20
-3.25181693405949
30
0
41
1
10
6.52704265046907
20
-3.22690404923861
30
0
41
1
10
5.59857099661815
20
-3.19252168912928
30
0
41
1
10
5.13376954826154
20
-3.18299970470517
30
0
41
1
10
4.43568322390811
20
-3.18109244545937
30
0
41
1
10
4.20296985585048
20
-3.18251529489896
30
0
41
1
10
3.85402549869644
20
-3.18779186885146
30
0
41
1
10
3.73771719753626
20
-3.19007434207592
30
0
41
1
10
3.59237165121621
20
-3.19358506518967
30
0
41
1
10
3.56330459940639
20
-3.19432008113796
30
0
41
1
10
3.50517462628946
20
-3.19585592182187
30
0
41
1
10
3.47576297968175
20
-3.19602149215484
30
0
41
1
10
3.43328239976606
20
-3.20177750582371
30
0
41
1
10
3.41938903189089
20
-3.20443575240759
30
0
41
1
10
3.39259857239281
20
-3.21223683059418
30
0
41
1
10
3.38037144012964
20
-3.21741254035882
30
0
41
1
10
3.34266856107146
20
-3.23176793661182
30
0
41
1
10
3.31764382233934
20
-3.24140213596641
30
0
41
1
10
3.19310135266852
20
-3.28990158637893
30
0
41
1
10
3.09521141253313
20
-3.32980055393102
30
0
41
1
10
2.90584800049575
20
-3.41118593909687
30
0
41
1
10
2.81416306250793
20
-3.45274557915056
30
0
41
1
10
2.63838240407432
20
-3.53775461404732
30
0
41
1
10
2.5542625518878
20
-3.58120170155942
30
0
41
1
10
2.43571244081591
20
-3.64798450436007
30
0
41
1
10
2.39747698446885
20
-3.67051513459393
30
0
41
1
10
2.32408183995807
20
-3.71616718566634
30
0
41
1
10
2.28903213463465
20
-3.73923726631574
30
0
41
1
10
2.19152693103951
20
-3.80789865856139
30
0
41
1
10
2.13580627784612
20
-3.85348127228593
30
0
41
1
10
2.04970985750313
20
-3.94280123761976
30
0
41
1
10
2.02108726329058
20
-3.98477574200163
30
0
41
1
10
2.00153282524838
20
-4.0428361805676
30
0
41
1
10
1.99895250584251
20
-4.06151494221882
30
0
41
1
10
2.00183723245559
20
-4.09620180834881
30
0
41
1
10
2.00720823209761
20
-4.11222467839133
30
0
41
1
10
2.03404037535773
20
-4.1565635557038
30
0
41
1
10
2.06678477275554
20
-4.18129879755273
30
0
41
1
10
2.15223363205158
20
-4.22032293882592
30
0
41
1
10
2.20485776016827
20
-4.23496922283167
30
0
41
1
10
2.32474515386067
20
-4.25665050063361
30
0
41
1
10
2.39198357326583
20
-4.26359431838614
30
0
41
1
10
2.60504419951454
20
-4.27496894616613
30
0
41
1
10
2.76370001411672
20
-4.27048463501109
30
0
41
1
10
3.0164837408731
20
-4.25175396616385
30
0
41
1
10
3.10343048298219
20
-4.24342589634199
30
0
41
1
10
3.27938348232246
20
-4.22347254384252
30
0
41
1
10
3.36866812357047
20
-4.21182923205004
30
0
41
1
10
3.63969196559398
20
-4.17262201826443
30
0
41
1
10
3.82456097331769
20
-4.14081803490711
30
0
41
1
10
4.0124222566964
20
-4.1045158039056
30
0
0
SPLINE
5
CA
100
AcDbEntity
8
1
62
256
6
ByLayer
370
18
48
1
60
0
100
AcDbSpline
70
4
71
3
72
24
73
20
40
0
40
0
40
0
40
0
40
0.0817832571452708
40
0.0817832571452708
40
0.240020866507402
40
0.240020866507402
40
0.319139671188467
40
0.319139671188467
40
0.398258475869533
40
0.398258475869533
40
0.556496085231664
40
0.556496085231664
40
0.714733694593795
40
0.714733694593795
40
0.793852499274861
40
0.793852499274861
40
0.872971303955926
40
0.872971303955926
40
1
40
1
40
1
40
1
41
1
10
19.3432203286842
20
4.24990476918595
30
0
41
1
10
19.1320343169049
20
4.19010836054508
30
0
41
1
10
18.9205627573345
20
4.12767741909283
30
0
41
1
10
18.298753466178
20
3.93665129441718
30
0
41
1
10
17.8873193941303
20
3.80074325522736
30
0
41
1
10
17.2660847698428
20
3.58338136392842
30
0
41
1
10
17.0582283450823
20
3.508656239788
30
0
41
1
10
16.6439789272092
20
3.35645340894567
30
0
41
1
10
16.4371993581717
20
3.27884430335811
30
0
41
1
10
15.8174254039237
20
3.04266583879379
30
0
41
1
10
15.4050082342443
20
2.88070671041831
30
0
41
1
10
14.5788053592086
20
2.55518622612141
30
0
41
1
10
14.165012428732
20
2.39164424090347
30
0
41
1
10
13.5408777090828
20
2.15146686167156
30
0
41
1
10
13.3322568707061
20
2.07226954019501
30
0
41
1
10
12.9134468253597
20
1.91670559959533
30
0
41
1
10
12.7029231467061
20
1.84022227188649
30
0
41
1
10
12.153872060033
20
1.64683190007207
30
0
41
1
10
11.8162243092803
20
1.53391675457198
30
0
41
1
10
11.4784001826539
20
1.42916104830456
30
0
0
SPLINE
5
CB
100
AcDbEntity
8
1
62
256
6
ByLayer
370
18
48
1
60
0
100
AcDbSpline
70
4
71
3
72
24
73
20
40
0
40
0
40
0
40
0
40
0.125
40
0.125
40
0.25
40
0.25
40
0.375000000000001
40
0.375000000000001
40
0.500000000000001
40
0.500000000000001
40
0.562500000000001
40
0.562500000000001
40
0.625000000000001
40
0.625000000000001
40
0.75
40
0.75
40
0.875
40
0.875
40
1
40
1
40
1
40
1
41
1
10
47.5662822839379
20
-4.18779457848083
30
0
41
1
10
47.6070305290594
20
-4.08608615878859
30
0
41
1
10
47.6479092964579
20
-3.98332586539897
30
0
41
1
10
47.7299754260816
20
-3.77531832552188
30
0
41
1
10
47.7712206969955
20
-3.66960439527816
30
0
41
1
10
47.8539848865587
20
-3.45597121887377
30
0
41
1
10
47.8955315884322
20
-3.34812592103378
30
0
41
1
10
47.978332512022
20
-3.13133942134095
30
0
41
1
10
48.0196360213998
20
-3.02221938404875
30
0
41
1
10
48.0814781673157
20
-2.85769135696822
30
0
41
1
10
48.1020732037572
20
-2.80270615954549
30
0
41
1
10
48.1432346648868
20
-2.6925212815139
30
0
41
1
10
48.1638116110519
20
-2.63740047338462
30
0
41
1
10
48.2254529726612
20
-2.47136730060731
30
0
41
1
10
48.2663319707375
20
-2.3602196331274
30
0
41
1
10
48.3475305672869
20
-2.13812266636813
30
0
41
1
10
48.3879561032582
20
-2.02702831180571
30
0
41
1
10
48.4682641955485
20
-1.8046962625065
30
0
41
1
10
48.5081837387872
20
-1.69336888984543
30
0
41
1
10
48.5477570970298
20
-1.5821720840618
30
0
0
SPLINE
5
CC
100
AcDbEntity
8
1
62
256
6
ByLayer
370
18
48
1
60
0
100
AcDbSpline
70
4
71
3
72
14
73
10
40
0
40
0
40
0
40
0
40
0.242227164093291
40
0.242227164093291
40
0.760360098839024
40
0.760360098839024
40
0.889893332525462
40
0.889893332525462
40
1
40
1
40
1
40
1
41
1
10
46.1242393365282
20
-4.15039837931991
30
0
41
1
10
45.7033599952707
20
-4.14983804291299
30
0
41
1
10
45.2834506954102
20
-4.1345475975194
30
0
41
1
10
43.965944874822
20
-4.04128572858167
30
0
41
1
10
43.0688755252549
20
-3.91156238902036
30
0
41
1
10
41.9386314750239
20
-3.67119588175132
30
0
41
1
10
41.7121375805152
20
-3.6192229465598
30
0
41
1
10
41.2920110457033
20
-3.51607736694208
30
0
41
1
10
41.0988572764555
20
-3.46602944387723
30
0
41
1
10
40.9062054921654
20
-3.41358791389456
30
0
0
SPLINE
5
CD
100
AcDbEntity
8
1
62
256
6
ByLayer
370
13
48
1
60
0
100
AcDbSpline
70
4
71
3
72
22
73
18
40
0
40
0
40
0
40
0
40
0.0076626139389256
40
0.0076626139389256
40
0.109848780145356
40
0.109848780145356
40
0.314221112558219
40
0.314221112558219
40
0.416407278764652
40
0.416407278764652
40
0.518593444971085
40
0.518593444971085
40
0.722965777383951
40
0.722965777383951
40
0.927338109796817
40
0.927338109796817
40
1
40
1
40
1
40
1
41
1
10
40.9062054921782
20
-3.41358791389806
30
0
41
1
10
40.8722151559918
20
-3.40433544192743
30
0
41
1
10
40.8382404460836
20
-3.39500845942209
30
0
41
1
10
40.3514628215643
20
-3.26025231795626
30
0
41
1
10
39.9007263712923
20
-3.12155479343991
30
0
41
1
10
38.5517093581837
20
-2.67049594332056
30
0
41
1
10
37.6564256493584
20
-2.32336220581667
30
0
41
1
10
36.3079062197914
20
-1.75344721194068
30
0
41
1
10
35.8574345141114
20
-1.55530151192048
30
0
41
1
10
34.9527139494716
20
-1.14609229567714
30
0
41
1
10
34.4969671933196
20
-0.934537959685855
30
0
41
1
10
33.1388479688107
20
-0.295259632236792
30
0
41
1
10
32.2413296521081
20
0.138425389899652
30
0
41
1
10
30.4462907152275
20
0.987071053611686
30
0
41
1
10
29.5487378792899
20
1.4019202726077
30
0
41
1
10
28.3212674351402
20
1.92876763084567
30
0
41
1
10
27.9979300026592
20
2.06381179478814
30
0
41
1
10
27.674593609339
20
2.19421989317863
30
0
0
SPLINE
5
CE
100
AcDbEntity
8
1
62
256
6
ByLayer
370
18
48
1
60
0
100
AcDbSpline
70
4
71
3
72
16
73
12
40
0
40
0
40
0
40
0
40
0.234330287243452
40
0.234330287243452
40
0.419498292723422
40
0.419498292723422
40
0.604666298203393
40
0.604666298203393
40
0.975002309163335
40
0.975002309163335
40
1
40
1
40
1
40
1
41
1
10
32.3062822584845
20
-0.0036945825903558
30
0
41
1
10
32.875123369666
20
-0.281817289274187
30
0
41
1
10
33.4451870092869
20
-0.560649929461732
30
0
41
1
10
34.4716945447057
20
-1.05315820995486
30
0
41
1
10
34.9278810984368
20
-1.26859938043492
30
0
41
1
10
35.8330833158648
20
-1.68436622631845
30
0
41
1
10
36.2837364183278
20
-1.88520128351402
30
0
41
1
10
37.6327697323609
20
-2.46150477758312
30
0
41
1
10
38.5282820658271
20
-2.81068083883304
30
0
41
1
10
39.4888589798498
20
-3.13144239455301
30
0
41
1
10
39.5496184796986
20
-3.15150237479855
30
0
41
1
10
39.6104009905619
20
-3.17133578493167
30
0
0
SPLINE
5
CF
100
AcDbEntity
8
1
62
256
6
ByLayer
370
13
48
1
60
0
100
AcDbSpline
70
4
71
3
72
20
73
16
40
0
40
0
40
0
40
0
40
0.147485073087808
40
0.147485073087808
40
0.232736565779025
40
0.232736565779025
40
0.317988058470242
40
0.317988058470242
40
0.658994029235119
40
0.658994029235119
40
0.82949701461756
40
0.82949701461756
40
0.91474850730878
40
0.91474850730878
40
1
40
1
40
1
40
1
41
1
10
39.6104009903304
20
-3.1713357848561
30
0
41
1
10
39.9998591188953
20
-3.29841646454568
30
0
41
1
10
40.3902619607763
20
-3.41619534647924
30
0
41
1
10
41.0088969585355
20
-3.58563412216927
30
0
41
1
10
41.2364200455576
20
-3.64431877355679
30
0
41
1
10
41.6909053262077
20
-3.753974854642
30
0
41
1
10
41.9175325565003
20
-3.80487039550456
30
0
41
1
10
43.048355708787
20
-4.0391629400028
30
0
41
1
10
43.9455336292937
20
-4.16178255851759
30
0
41
1
10
45.2925589323038
20
-4.24374180951466
30
0
41
1
10
45.7417991054501
20
-4.25412635438749
30
0
41
1
10
46.4174619887738
20
-4.24374013583503
30
0
41
1
10
46.6429830020911
20
-4.23594981514694
30
0
41
1
10
47.0948780507966
20
-4.21162273934695
30
0
41
1
10
47.3212941003717
20
-4.19477446864792
30
0
41
1
10
47.5481760024627
20
-4.17414111904102
30
0
0
SPLINE
5
D0
100
AcDbEntity
8
1
62
256
6
ByLayer
370
18
48
1
60
0
100
AcDbSpline
70
4
71
3
72
68
73
64
40
0
40
0
40
0
40
0
40
0.0248464811868107
40
0.0248464811868107
40
0.0451621794954187
40
0.0451621794954187
40
0.0654778778040266
40
0.0654778778040266
40
0.106109274421244
40
0.106109274421244
40
0.126424972729852
40
0.126424972729852
40
0.146740671038461
40
0.146740671038461
40
0.187372067655676
40
0.187372067655676
40
0.228003464272892
40
0.228003464272892
40
0.268634860890108
40
0.268634860890108
40
0.309266257507324
40
0.309266257507324
40
0.349897654124539
40
0.349897654124539
40
0.390529050741755
40
0.390529050741755
40
0.431160447358971
40
0.431160447358971
40
0.451476145667579
40
0.451476145667579
40
0.471791843976187
40
0.471791843976187
40
0.512423240593402
40
0.512423240593402
40
0.553054637210619
40
0.553054637210619
40
0.573370335519227
40
0.573370335519227
40
0.593686033827836
40
0.593686033827836
40
0.634317430445053
40
0.634317430445053
40
0.654633128753661
40
0.654633128753661
40
0.674948827062269
40
0.674948827062269
40
0.695264525370877
40
0.695264525370877
40
0.715580223679485
40
0.715580223679485
40
0.756211620296702
40
0.756211620296702
40
0.796843016913918
40
0.796843016913918
40
0.837474413531135
40
0.837474413531135
40
0.878105810148351
40
0.878105810148351
40
0.918737206765567
40
0.918737206765567
40
0.959368603382784
40
0.959368603382784
40
1
40
1
40
1
40
1
41
1
10
36.6435931387138
20
-2.305119543247
30
0
41
1
10
36.4166609020096
20
-2.3951864676973
30
0
41
1
10
36.1898880122194
20
-2.48284331066617
30
0
41
1
10
35.777681006299
20
-2.63672503980746
30
0
41
1
10
35.5921700347905
20
-2.7038129197781
30
0
41
1
10
35.2208864911924
20
-2.83470361379506
30
0
41
1
10
35.0351322399545
20
-2.89839242516882
30
0
41
1
10
34.4776216099259
20
-3.0840702762695
30
0
41
1
10
34.1054305565191
20
-3.20071173662887
30
0
41
1
10
33.5482163449859
20
-3.36048469166027
30
0
41
1
10
33.3626102284773
20
-3.41123456601457
30
0
41
1
10
32.9917294989361
20
-3.5067617059274
30
0
41
1
10
32.8063830348896
20
-3.55203362222008
30
0
41
1
10
32.2500939238883
20
-3.68192525588583
30
0
41
1
10
31.8788164406523
20
-3.75895840683353
30
0
41
1
10
31.1354211794838
20
-3.89309760705882
30
0
41
1
10
30.7633560741671
20
-3.9505188968229
30
0
41
1
10
30.0208058319237
20
-4.03854254165074
30
0
41
1
10
29.6500313142933
20
-4.07232376803759
30
0
41
1
10
28.9084745592108
20
-4.11621051094065
30
0
41
1
10
28.5372682823511
20
-4.12682979421083
30
0
41
1
10
27.7938734886194
20
-4.12717224828805
30
0
41
1
10
27.4219374373635
20
-4.11626614337408
30
0
41
1
10
26.679409471412
20
-4.07093785987865
30
0
41
1
10
26.3087760180029
20
-4.03440268683448
30
0
41
1
10
25.5672472563218
20
-3.94314573656715
30
0
41
1
10
25.1960732293949
20
-3.88747518742142
30
0
41
1
10
24.6384907730857
20
-3.78788697183074
30
0
41
1
10
24.4524279491371
20
-3.75199487890174
30
0
41
1
10
24.0808896381784
20
-3.67473308930607
30
0
41
1
10
23.8952656415601
20
-3.63302275456007
30
0
41
1
10
23.3385098341486
20
-3.50090907668326
30
0
41
1
10
22.9676375742173
20
-3.40458804071969
30
0
41
1
10
22.2260142425108
20
-3.19287519703454
30
0
41
1
10
21.8548539734638
20
-3.07844234196389
30
0
41
1
10
21.2970374302926
20
-2.89237220133174
30
0
41
1
10
21.110946876987
20
-2.82724587776929
30
0
41
1
10
20.7393260001483
20
-2.6945682431635
30
0
41
1
10
20.5535275985816
20
-2.62692141888019
30
0
41
1
10
19.9962443844658
20
-2.41941591137163
30
0
41
1
10
19.6250393524826
20
-2.27470377419837
30
0
41
1
10
19.0682949919278
20
-2.04792728582726
30
0
41
1
10
18.8826595607604
20
-1.97094473132125
30
0
41
1
10
18.5109988233331
20
-1.81367778989829
30
0
41
1
10
18.3249674558948
20
-1.73334325690962
30
0
41
1
10
17.952596352765
20
-1.57092493949011
30
0
41
1
10
17.766433905133
20
-1.48862877206599
30
0
41
1
10
17.3947449610342
20
-1.32193547950428
30
0
41
1
10
17.2090086157185
20
-1.23765753629675
30
0
41
1
10
16.6517882415088
20
-0.983063602884499
30
0
41
1
10
16.2804235580284
20
-0.81112881657927
30
0
41
1
10
15.5377576940123
20
-0.462155734319111
30
0
41
1
10
15.1659720879367
20
-0.286027354678112
30
0
41
1
10
14.4207545965206
20
0.0677099801516476
30
0
41
1
10
14.0491952747534
20
0.245172782054027
30
0
41
1
10
13.3054131560794
20
0.596130559870886
30
0
41
1
10
12.9335620208726
20
0.770319764221341
30
0
41
1
10
12.1895359052293
20
1.1146042796525
30
0
41
1
10
11.8165916929171
20
1.28369714256161
30
0
41
1
10
11.07201657037
20
1.61337758541228
30
0
41
1
10
10.7004527576501
20
1.77501972457128
30
0
41
1
10
9.9564940349035
20
2.08644172991524
30
0
41
1
10
9.58412567358857
20
2.23625884096484
30
0
41
1
10
9.21141097333944
20
2.38014467086569
30
0
0
SPLINE
5
D1
100
AcDbEntity
8
1
62
256
6
ByLayer
370
18
48
1
60
0
100
AcDbSpline
70
4
71
3
72
16
73
12
40
0
40
0
40
0
40
0
40
0.125000000000009
40
0.125000000000009
40
0.250000000000019
40
0.250000000000019
40
0.500000000000013
40
0.500000000000013
40
0.750000000000006
40
0.750000000000006
40
1
40
1
40
1
40
1
41
1
10
48.5448622861326
20
1.58222591377373
30
0
41
1
10
48.5521920003978
20
1.56324758873902
30
0
41
1
10
48.5569445762756
20
1.54384038536187
30
0
41
1
10
48.5596365392294
20
1.50387126884129
30
0
41
1
10
48.5573805678821
20
1.48388820047816
30
0
41
1
10
48.5402335008004
20
1.4269459786012
30
0
41
1
10
48.5157488474486
20
1.3944795240331
30
0
41
1
10
48.4591189724846
20
1.34094594597181
30
0
41
1
10
48.4261870434593
20
1.31873227822061
30
0
41
1
10
48.3585198209716
20
1.28032092079994
30
0
41
1
10
48.3232476214959
20
1.26385343487149
30
0
41
1
10
48.2871432588849
20
1.24894231929002
30
0
0
SPLINE
5
D2
100
AcDbEntity
8
1
62
256
6
ByLayer
370
18
48
1
60
0
100
AcDbSpline
70
4
71
3
72
18
73
14
40
0
40
0
40
0
40
0
40
0.250000000000001
40
0.250000000000001
40
0.375000000000002
40
0.375000000000002
40
0.500000000000002
40
0.500000000000002
40
0.75
40
0.75
40
0.875
40
0.875
40
1
40
1
40
1
40
1
41
1
10
47.4790875990921
20
-4.14990892887545
30
0
41
1
10
47.3923139332113
20
-4.14309198407722
30
0
41
1
10
47.3114133290561
20
-4.11903234184635
30
0
41
1
10
47.1996081765388
20
-4.05491753996591
30
0
41
1
10
47.1637917411647
20
-4.02868052014608
30
0
41
1
10
47.0967610566621
20
-3.9673244227329
30
0
41
1
10
47.0654342043179
20
-3.93219647721591
30
0
41
1
10
46.9780325310823
20
-3.81343567514514
30
0
41
1
10
46.9284855679642
20
-3.71652960522579
30
0
41
1
10
46.8681466642188
20
-3.54274157581787
30
0
41
1
10
46.850314841005
20
-3.47974977375125
30
0
41
1
10
46.819989756238
20
-3.34515365574862
30
0
41
1
10
46.8075044357529
20
-3.27374444855045
30
0
41
1
10
46.7977196912796
20
-3.19818823052438
30
0
0
SPLINE
5
D3
100
AcDbEntity
8
1
62
256
6
ByLayer
370
18
48
1
60
0
100
AcDbSpline
70
4
71
3
72
30
73
26
40
0
40
0
40
0
40
0
40
0.0314774105349249
40
0.0314774105349249
40
0.112187626323681
40
0.112187626323681
40
0.192897842112437
40
0.192897842112437
40
0.273608057901194
40
0.273608057901194
40
0.35431827368995
40
0.35431827368995
40
0.435028489478706
40
0.435028489478706
40
0.515738705267463
40
0.515738705267463
40
0.677159136844975
40
0.677159136844975
40
0.757869352633731
40
0.757869352633731
40
0.838579568422488
40
0.838579568422488
40
0.919289784211244
40
0.919289784211244
40
1
40
1
40
1
40
1
41
1
10
36.6448977310343
20
2.30416191252979
30
0
41
1
10
36.7594094293396
20
2.35247591302848
30
0
41
1
10
36.8739241673964
20
2.40012025249467
30
0
41
1
10
37.2822806912959
20
2.56719848383872
30
0
41
1
10
37.5761489995944
20
2.68294049883244
30
0
41
1
10
38.1633713091295
20
2.90648948970994
30
0
41
1
10
38.457001471764
20
3.01381437940904
30
0
41
1
10
39.0463480046867
20
3.21657738737323
30
0
41
1
10
39.3408613279739
20
3.31254325380607
30
0
41
1
10
39.9281278675259
20
3.49346883322661
30
0
41
1
10
40.221487873685
20
3.57792514868228
30
0
41
1
10
40.8089864419904
20
3.73352055039294
30
0
41
1
10
41.1027859666258
20
3.80507582880802
30
0
41
1
10
41.6899954178565
20
3.93589299440762
30
0
41
1
10
41.9844229569161
20
3.99454709348842
30
0
41
1
10
42.8679769968971
20
4.14889355764004
30
0
41
1
10
43.4537983145008
20
4.22420171165484
30
0
41
1
10
44.3349719595156
20
4.29236248568532
30
0
41
1
10
44.6286701899316
20
4.30785461418495
30
0
41
1
10
45.2160692013748
20
4.32396256081546
30
0
41
1
10
45.5109560780482
20
4.32447578061374
30
0
41
1
10
46.099306601473
20
4.3107341422606
30
0
41
1
10
46.3927181460191
20
4.29641213401197
30
0
41
1
10
46.9791560150069
20
4.25292591439285
30
0
41
1
10
47.2726273146716
20
4.22394075987145
30
0
41
1
10
47.5662822839285
20
4.1877945784787
30
0
0
SPLINE
5
D4
100
AcDbEntity
8
1
62
256
6
ByLayer
370
18
48
1
60
0
100
AcDbSpline
70
4
71
3
72
40
73
36
40
0
40
0
40
0
40
0
40
0.007918074809284
40
0.007918074809284
40
0.0740568698219975
40
0.0740568698219975
40
0.140195664834711
40
0.140195664834711
40
0.206334459847424
40
0.206334459847424
40
0.272473254860138
40
0.272473254860138
40
0.338612049872851
40
0.338612049872851
40
0.404750844885565
40
0.404750844885565
40
0.470889639898278
40
0.470889639898278
40
0.537028434910991
40
0.537028434910991
40
0.57009783241735
40
0.57009783241735
40
0.603167229923708
40
0.603167229923708
40
0.669306024936424
40
0.669306024936424
40
0.735444819949139
40
0.735444819949139
40
0.801583614961854
40
0.801583614961854
40
0.867722409974569
40
0.867722409974569
40
0.933861204987285
40
0.933861204987285
40
1
40
1
40
1
40
1
41
1
10
48.2995850797213
20
-1.73472228466369
30
0
41
1
10
48.2969877846631
20
-1.73463452284554
30
0
41
1
10
48.2943671951411
20
-1.7346208296604
30
0
41
1
10
48.2696462429905
20
-1.73516843178658
30
0
41
1
10
48.2457456232277
20
-1.74081676647521
30
0
41
1
10
48.1959616895004
20
-1.76130544226751
30
0
41
1
10
48.1702048943125
20
-1.77601277067075
30
0
41
1
10
48.1170563627794
20
-1.81386462438769
30
0
41
1
10
48.0894830256339
20
-1.83723300110105
30
0
41
1
10
48.0343931548718
20
-1.89112597195555
30
0
41
1
10
48.0067045878545
20
-1.92172731237693
30
0
41
1
10
47.9510218249376
20
-1.99070703506808
30
0
41
1
10
47.9227626259971
20
-2.02952121660746
30
0
41
1
10
47.8680001818585
20
-2.1132459388879
30
0
41
1
10
47.841330317943
20
-2.15826688235637
30
0
41
1
10
47.7897090828433
20
-2.25593924452775
30
0
41
1
10
47.7653339744534
20
-2.30758385060835
30
0
41
1
10
47.7212761958377
20
-2.41486204447816
30
0
41
1
10
47.7014709210833
20
-2.47102190369384
30
0
41
1
10
47.6778068171189
20
-2.55370867239225
30
0
41
1
10
47.6707832737342
20
-2.58150025316112
30
0
41
1
10
47.6590982670812
20
-2.63554622602428
30
0
41
1
10
47.6544384483828
20
-2.66168723942121
30
0
41
1
10
47.6439731283296
20
-2.73748965433614
30
0
41
1
10
47.6418382428828
20
-2.78468169318543
30
0
41
1
10
47.6469916180795
20
-2.86520617076883
30
0
41
1
10
47.6542451744524
20
-2.89944416466017
30
0
41
1
10
47.6758542311433
20
-2.95369841383641
30
0
41
1
10
47.6903632227278
20
-2.97424199516149
30
0
41
1
10
47.7240087089228
20
-3.00252570470309
30
0
41
1
10
47.7434855736107
20
-3.01067119726056
30
0
41
1
10
47.7860067837417
20
-3.01603750157526
30
0
41
1
10
47.8087611658447
20
-3.01332791193204
30
0
41
1
10
47.8568813589202
20
-2.99848111311653
30
0
41
1
10
47.882490672441
20
-2.98615351982159
30
0
41
1
10
47.9086987600255
20
-2.96956196506361
30
0
0
SPLINE
5
D5
100
AcDbEntity
8
1
62
256
6
ByLayer
370
18
48
1
60
0
100
AcDbSpline
70
4
71
3
72
64
73
60
40
0
40
0
40
0
40
0
40
0.0338828225843709
40
0.0338828225843709
40
0.0677656451687419
40
0.0677656451687419
40
0.101648467753113
40
0.101648467753113
40
0.135531290337484
40
0.135531290337484
40
0.169414112921856
40
0.169414112921856
40
0.203296935506228
40
0.203296935506228
40
0.2371797580906
40
0.2371797580906
40
0.271062580674973
40
0.271062580674973
40
0.304945403259345
40
0.304945403259345
40
0.338828225843717
40
0.338828225843717
40
0.37271104842809
40
0.37271104842809
40
0.406593871012462
40
0.406593871012462
40
0.440476693596834
40
0.440476693596834
40
0.474359516181206
40
0.474359516181206
40
0.508242338765579
40
0.508242338765579
40
0.542125161349951
40
0.542125161349951
40
0.576007983934323
40
0.576007983934323
40
0.609890806518695
40
0.609890806518695
40
0.643773629103068
40
0.643773629103068
40
0.67765645168744
40
0.67765645168744
40
0.711539274271812
40
0.711539274271812
40
0.745422096856185
40
0.745422096856185
40
0.779304919440557
40
0.779304919440557
40
0.813187742024929
40
0.813187742024929
40
0.847070564609301
40
0.847070564609301
40
0.880953387193674
40
0.880953387193674
40
0.948719032362418
40
0.948719032362418
40
0.98260185494679
40
0.98260185494679
40
1
40
1
40
1
40
1
41
1
10
19.3431315062532
20
4.24987961934698
30
0
41
1
10
19.6375761169365
20
4.22990587765653
30
0
41
1
10
19.9321294718735
20
4.20273076458969
30
0
41
1
10
20.5207120273383
20
4.13419652956807
30
0
41
1
10
20.8146099262522
20
4.09274377189919
30
0
41
1
10
21.4017303180754
20
3.99525071767195
30
0
41
1
10
21.6958954952604
20
3.93987921035739
30
0
41
1
10
22.2847913876562
20
3.81561876437655
30
0
41
1
10
22.5795693959235
20
3.74628268759952
30
0
41
1
10
23.1682535283405
20
3.5949034538362
30
0
41
1
10
23.4625397384161
20
3.51338647291232
30
0
41
1
10
24.0507077580168
20
3.3386023647945
30
0
41
1
10
24.3442003998908
20
3.24480875008496
30
0
41
1
10
24.9315473355221
20
3.04624974805444
30
0
41
1
10
25.2259288755616
20
2.94228196989437
30
0
41
1
10
25.8151100081317
20
2.72360038028174
30
0
41
1
10
26.1097291013834
20
2.60838014546704
30
0
41
1
10
26.6978941390056
20
2.37041270916575
30
0
41
1
10
26.9920861514359
20
2.24805230757175
30
0
41
1
10
27.5799041735006
20
1.99533565497194
30
0
41
1
10
27.8731481563864
20
1.8642496962016
30
0
41
1
10
28.4609078493469
20
1.59726887240339
30
0
41
1
10
28.7554821173398
20
1.46154274617834
30
0
41
1
10
29.3450065909564
20
1.1836582077753
30
0
41
1
10
29.6389180409318
20
1.0415954698058
30
0
41
1
10
30.2267511785065
20
0.756156528255588
30
0
41
1
10
30.5208397747169
20
0.612875317694318
30
0
41
1
10
31.108382604795
20
0.323242143835898
30
0
41
1
10
31.4015699772552
20
0.176335967540382
30
0
41
1
10
31.9897997052206
20
-0.115537480464042
30
0
41
1
10
32.2849471682792
20
-0.261171902191648
30
0
41
1
10
32.8736977141612
20
-0.552648287459135
30
0
41
1
10
33.1672125023119
20
-0.698239159958121
30
0
41
1
10
33.7548802374614
20
-0.98441713994967
30
0
41
1
10
34.0488452116904
20
-1.12540533010093
30
0
41
1
10
34.6361890221671
20
-1.40482803621197
30
0
41
1
10
34.9295068351604
20
-1.54334907763231
30
0
41
1
10
35.5182649495206
20
-1.81260574234503
30
0
41
1
10
35.8134288169175
20
-1.94426769593119
30
0
41
1
10
36.4013415818606
20
-2.2015645293794
30
0
41
1
10
36.6947195806333
20
-2.32679906462869
30
0
41
1
10
37.282280691296
20
-2.56719848383875
30
0
41
1
10
37.5761489995944
20
-2.68294049883247
30
0
41
1
10
38.1633713091296
20
-2.90648948970997
30
0
41
1
10
38.4570014717641
20
-3.01381437940907
30
0
41
1
10
39.0463480046867
20
-3.21657738737326
30
0
41
1
10
39.3408613279739
20
-3.3125432538061
30
0
41
1
10
39.928127867526
20
-3.49346883322661
30
0
41
1
10
40.2214878736852
20
-3.57792514868228
30
0
41
1
10
40.8089864419905
20
-3.73352055039294
30
0
41
1
10
41.1027859666259
20
-3.80507582880804
30
0
41
1
10
41.6899954178566
20
-3.93589299440762
30
0
41
1
10
41.9844229569162
20
-3.99454709348842
30
0
41
1
10
42.8679769968972
20
-4.14889355764007
30
0
41
1
10
43.4537983145009
20
-4.22420171165484
30
0
41
1
10
44.3349719595157
20
-4.29236248568532
30
0
41
1
10
44.6286701899317
20
-4.30785461418495
30
0
41
1
10
45.0731784598841
20
-4.32004414012852
30
0
41
1
10
45.2243002881302
20
-4.32219148631532
30
0
41
1
10
45.3754780864518
20
-4.3223718428367
30
0
0
SPLINE
5
D6
100
AcDbEntity
8
1
62
256
6
ByLayer
370
18
48
1
60
0
100
AcDbSpline
70
4
71
3
72
8
73
4
40
0
40
0
40
0
40
0
40
1
40
1
40
1
40
1
41
1
10
48.5448622861326
20
1.58222591377373
30
0
41
1
10
48.545827227989
20
1.58220797253202
30
0
41
1
10
48.5467921649573
20
1.58219002929576
30
0
41
1
10
48.5477570970299
20
1.5821720840618
30
0
0
SPLINE
5
D7
100
AcDbEntity
8
1
62
256
6
ByLayer
370
18
48
1
60
0
100
AcDbSpline
70
4
71
3
72
14
73
10
40
0
40
0
40
0
40
0
40
0.25
40
0.25
40
0.5
40
0.5
40
0.75
40
0.75
40
1
40
1
40
1
40
1
41
1
10
47.426336544923
20
1.22257387088015
30
0
41
1
10
47.4025012010969
20
1.22208358294694
30
0
41
1
10
47.3786182408209
20
1.21757213038865
30
0
41
1
10
47.3367450977918
20
1.19655613898746
30
0
41
1
10
47.3189190333361
20
1.17940655229018
30
0
41
1
10
47.2975326089848
20
1.13649569957849
30
0
41
1
10
47.2939759667559
20
1.11218547141641
30
0
41
1
10
47.2958375516966
20
1.0645703015754
30
0
41
1
10
47.3011119935606
20
1.04085156760809
30
0
41
1
10
47.3088169653095
20
1.01804515156542
30
0
0
SPLINE
5
D8
100
AcDbEntity
8
1
62
256
6
ByLayer
370
18
48
1
60
0
100
AcDbSpline
70
4
71
3
72
20
73
16
40
0
40
0
40
0
40
0
40
0.105489126540086
40
0.105489126540086
40
0.210978253080173
40
0.210978253080173
40
0.421956506160345
40
0.421956506160345
40
0.632934759240518
40
0.632934759240518
40
0.84391301232069
40
0.84391301232069
40
0.949402138860777
40
0.949402138860777
40
1
40
1
40
1
40
1
41
1
10
19.343313112249
20
4.24986538815111
30
0
41
1
10
18.9271326515528
20
4.2780738672534
30
0
41
1
10
18.5069796907764
20
4.29008294336217
30
0
41
1
10
17.6590613912842
20
4.28915676266786
30
0
41
1
10
17.231095253139
20
4.27614508297495
30
0
41
1
10
15.9363875172443
20
4.2080870141962
30
0
41
1
10
15.0684087244562
20
4.12471910776532
30
0
41
1
10
13.3172237523158
20
3.9262648647624
30
0
41
1
10
12.4339709229052
20
3.81115858995972
30
0
41
1
10
10.6480270029447
20
3.58913082816719
30
0
41
1
10
9.74534967722653
20
3.48238056680631
30
0
41
1
10
8.375148840328
20
3.35297984965089
30
0
41
1
10
7.91573219169817
20
3.31488950743128
30
0
41
1
10
7.2318532217453
20
3.26822684036014
30
0
41
1
10
7.00967608388498
20
3.25462426720875
30
0
41
1
10
6.78725329790967
20
3.24266669930958
30
0
0
SPLINE
5
D9
100
AcDbEntity
8
1
62
256
6
ByLayer
370
18
48
1
60
0
100
AcDbSpline
70
4
71
3
72
14
73
10
40
0
40
0
40
0
40
0
40
0.249622142172432
40
0.249622142172432
40
0.437216606629324
40
0.437216606629324
40
0.624811071086216
40
0.624811071086216
40
1
40
1
40
1
40
1
41
1
10
2.61094659546191
20
4.27109692214546
30
0
41
1
10
2.71234598154643
20
4.27107098337831
30
0
41
1
10
2.82010047063625
20
4.26630549623715
30
0
41
1
10
3.01648374087012
20
4.25175396616413
30
0
41
1
10
3.10343048297935
20
4.2434258963423
30
0
41
1
10
3.27938348232018
20
4.2234725438428
30
0
41
1
10
3.36866812356848
20
4.21182923205026
30
0
41
1
10
3.63969196559268
20
4.17262201826463
30
0
41
1
10
3.82456097331672
20
4.14081803490728
30
0
41
1
10
4.01242225669566
20
4.10451580390571
30
0
0
SPLINE
5
DA
100
AcDbEntity
8
1
62
256
6
ByLayer
370
18
48
1
60
0
100
AcDbSpline
70
4
71
3
72
30
73
26
40
0
40
0
40
0
40
0
40
0.0624999999999984
40
0.0624999999999984
40
0.124999999999997
40
0.124999999999997
40
0.187499999999995
40
0.187499999999995
40
0.249999999999994
40
0.249999999999994
40
0.312499999999992
40
0.312499999999992
40
0.374999999999991
40
0.374999999999991
40
0.499999999999988
40
0.499999999999988
40
0.624999999999984
40
0.624999999999984
40
0.687499999999987
40
0.687499999999987
40
0.74999999999999
40
0.74999999999999
40
0.874999999999995
40
0.874999999999995
40
1
40
1
40
1
40
1
41
1
10
48.3528021867734
20
-1.74939782817074
30
0
41
1
10
48.3531491803609
20
-1.75661035345195
30
0
41
1
10
48.3523639597041
20
-1.76667727171289
30
0
41
1
10
48.3485143049201
20
-1.79255716818426
30
0
41
1
10
48.3454081450115
20
-1.80855038475764
30
0
41
1
10
48.3369069358139
20
-1.84594119314033
30
0
41
1
10
48.3315793193169
20
-1.86708941720542
30
0
41
1
10
48.3188063294089
20
-1.91420890977591
30
0
41
1
10
48.3112630287121
20
-1.94049467249781
30
0
41
1
10
48.2945689474199
20
-1.99607906455759
30
0
41
1
10
48.2854121026083
20
-2.02543351836948
30
0
41
1
10
48.2655374914748
20
-2.08715372413238
30
0
41
1
10
48.2547932921174
20
-2.11957814648937
30
0
41
1
10
48.2214809736335
20
-2.21765422858607
30
0
41
1
10
48.1970902342572
20
-2.28629752419539
30
0
41
1
10
48.147643007879
20
-2.42033192710028
30
0
41
1
10
48.1220823978395
20
-2.48710089101814
30
0
41
1
10
48.0849013664051
20
-2.58090120160085
30
0
41
1
10
48.072652692754
20
-2.61124461741599
30
0
41
1
10
48.0484407787554
20
-2.6701138646271
30
0
41
1
10
48.0364665078908
20
-2.69865552512354
30
0
41
1
10
48.0019580418427
20
-2.77921925518152
30
0
41
1
10
47.9803219237014
20
-2.82743544200568
30
0
41
1
10
47.9408398210727
20
-2.91039014063813
30
0
41
1
10
47.9234816357655
20
-2.94414768590914
30
0
41
1
10
47.9086987600257
20
-2.96956196506335
30
0
0
SPLINE
5
DB
100
AcDbEntity
8
1
62
256
6
ByLayer
370
18
48
1
60
0
100
AcDbSpline
70
4
71
3
72
48
73
44
40
0
40
0
40
0
40
0
40
0.0470166215523539
40
0.0470166215523539
40
0.0940332431047077
40
0.0940332431047077
40
0.141049864657062
40
0.141049864657062
40
0.188066486209415
40
0.188066486209415
40
0.235083107761769
40
0.235083107761769
40
0.258591418537947
40
0.258591418537947
40
0.282099729314124
40
0.282099729314124
40
0.329116350866479
40
0.329116350866479
40
0.376132972418834
40
0.376132972418834
40
0.470166215523543
40
0.470166215523543
40
0.564199458628252
40
0.564199458628252
40
0.611216080180606
40
0.611216080180606
40
0.65823270173296
40
0.65823270173296
40
0.705249323285314
40
0.705249323285314
40
0.752265944837668
40
0.752265944837668
40
0.799282566390021
40
0.799282566390021
40
0.822790877166199
40
0.822790877166199
40
0.846299187942376
40
0.846299187942376
40
0.893315809494731
40
0.893315809494731
40
0.940332431047086
40
0.940332431047086
40
1
40
1
40
1
40
1
41
1
10
47.5208987462519
20
-4.24921736954303
30
0
41
1
10
47.0690424307727
20
-4.29082167775098
30
0
41
1
10
46.6176159587939
20
-4.31487443282978
30
0
41
1
10
45.7136306033256
20
-4.32767247148979
30
0
41
1
10
45.2611203007968
20
-4.3163560803973
30
0
41
1
10
44.3575089011379
20
-4.25867964202206
30
0
41
1
10
43.9053357092828
20
-4.21229327811963
30
0
41
1
10
43.0010354512818
20
-4.08545301931676
30
0
41
1
10
42.5500023445016
20
-4.00526342621376
30
0
41
1
10
41.6481331289217
20
-3.81309852419432
30
0
41
1
10
41.1972682281914
20
-3.70113543634579
30
0
41
1
10
40.5193558280884
20
-3.51098604143652
30
0
41
1
10
40.2929397619558
20
-3.44382850399759
30
0
41
1
10
39.8409047400273
20
-3.30285709389534
30
0
41
1
10
39.6151520437307
20
-3.22901209213876
30
0
41
1
10
38.9382844109965
20
-2.99798056430925
30
0
41
1
10
38.4875132996635
20
-2.83135753512181
30
0
41
1
10
37.5847280706198
20
-2.47620424797935
30
0
41
1
10
37.1319020980157
20
-2.28717821294737
30
0
41
1
10
35.7761714977582
20
-1.6959517223076
30
0
41
1
10
34.8761210008481
20
-1.26932626176625
30
0
41
1
10
33.0657829902958
20
-0.384718121829792
30
0
41
1
10
32.1649493767313
20
0.0687026157749244
30
0
41
1
10
30.8093651540172
20
0.737654717630022
30
0
41
1
10
30.3561691986421
20
0.959040505187147
30
0
41
1
10
29.4527865554149
20
1.39080863718948
30
0
41
1
10
29.0017695035763
20
1.60148000790889
30
0
41
1
10
28.0988753017742
20
2.00824765305219
30
0
41
1
10
27.6463460137289
20
2.20461946807586
30
0
41
1
10
26.7413484860232
20
2.57757411082582
30
0
41
1
10
26.2900098259091
20
2.75381932998968
30
0
41
1
10
25.3873582793272
20
3.08234849008767
30
0
41
1
10
24.9359935126076
20
3.23456004555294
30
0
41
1
10
24.2572705841772
20
3.44250517868804
30
0
41
1
10
24.0306411379791
20
3.50846977085084
30
0
41
1
10
23.5783227782545
20
3.63287636199564
30
0
41
1
10
23.3524190072556
20
3.69135429845912
30
0
41
1
10
22.6750174016658
20
3.85518517054106
30
0
41
1
10
22.2238238026473
20
3.94892777855412
30
0
41
1
10
21.3200832354101
20
4.10364890210622
30
0
41
1
10
20.8668062397831
20
4.16475494680176
30
0
41
1
10
19.840842031514
20
4.26376631422798
30
0
41
1
10
19.268286193236
20
4.29116057062086
30
0
41
1
10
18.6949045625056
20
4.29035266261184
30
0
0
SPLINE
5
DC
100
AcDbEntity
8
1
62
256
6
ByLayer
370
18
48
1
60
0
100
AcDbSpline
70
4
71
3
72
10
73
6
40
0
40
0
40
0
40
0
40
0.834682482441514
40
0.834682482441514
40
1
40
1
40
1
40
1
41
1
10
47.5208987462519
20
4.24921736954303
30
0
41
1
10
47.0692863915263
20
4.29079921526005
30
0
41
1
10
46.6179621742594
20
4.31486150396594
30
0
41
1
10
46.076401801562
20
4.32253817865836
30
0
41
1
10
45.9868677630029
20
4.3231126480066
30
0
41
1
10
45.8973336056086
20
4.32299401834001
30
0
0
SPLINE
5
DD
100
AcDbEntity
8
1
62
256
6
ByLayer
370
18
48
1
60
0
100
AcDbSpline
70
4
71
3
72
30
73
26
40
0
40
0
40
0
40
0
40
0.0381134633069658
40
0.0381134633069658
40
0.118270674698052
40
0.118270674698052
40
0.198427886089139
40
0.198427886089139
40
0.278585097480225
40
0.278585097480225
40
0.358742308871311
40
0.358742308871311
40
0.438899520262397
40
0.438899520262397
40
0.519056731653483
40
0.519056731653483
40
0.679371154435655
40
0.679371154435655
40
0.759528365826741
40
0.759528365826741
40
0.839685577217828
40
0.839685577217828
40
0.919842788608914
40
0.919842788608914
40
1
40
1
40
1
40
1
41
1
10
21.0634217820891
20
-4.1340067669893
30
0
41
1
10
20.8487598729891
20
-4.16248675876989
30
0
41
1
10
20.6341859453063
20
-4.1871438885091
30
0
41
1
10
19.9682209600133
20
-4.25159809160087
30
0
41
1
10
19.5165935081049
20
-4.27806271230301
30
0
41
1
10
18.6107383815426
20
-4.29589415339356
30
0
41
1
10
18.1587771349037
20
-4.28718803848059
30
0
41
1
10
17.2557438376437
20
-4.23500739225619
30
0
41
1
10
16.8044748020933
20
-4.19154828757266
30
0
41
1
10
15.9002730559179
20
-4.0706393272423
30
0
41
1
10
15.4467796311605
20
-3.99309142488158
30
0
41
1
10
14.5428328288298
20
-3.80649217260168
30
0
41
1
10
14.0915950536984
20
-3.69736024726694
30
0
41
1
10
13.1882094669416
20
-3.44985382271224
30
0
41
1
10
12.7354562367148
20
-3.31122119961586
30
0
41
1
10
11.3771018190971
20
-2.856645770331
30
0
41
1
10
10.4762322520134
20
-2.50292649117688
30
0
41
1
10
9.1180199853433
20
-1.91874518401346
30
0
41
1
10
8.66483841614959
20
-1.71511603683337
30
0
41
1
10
7.76031843800197
20
-1.29631699380428
30
0
41
1
10
7.30821176053357
20
-1.08097838821857
30
0
41
1
10
6.40219498378826
20
-0.642515095068546
30
0
41
1
10
5.94928400057259
20
-0.419883780598866
30
0
41
1
10
5.04475020592866
20
0.0264040272940065
30
0
41
1
10
4.59253696537104
20
0.250078372401134
30
0
41
1
10
4.13937727184401
20
0.472248541124827
30
0
0
SPLINE
5
DE
100
AcDbEntity
8
1
62
256
6
ByLayer
370
18
48
1
60
0
100
AcDbSpline
70
4
71
3
72
8
73
4
40
0
40
0
40
0
40
0
40
1
40
1
40
1
40
1
41
1
10
4.03438384936635
20
0.569176741192081
30
0
41
1
10
4.05809471506277
20
0.526434757468365
30
0
41
1
10
4.09419871920596
20
0.48909350753263
30
0
41
1
10
4.14061600523044
20
0.465183304602135
30
0
0
SPLINE
5
DF
100
AcDbEntity
8
1
62
256
6
ByLayer
370
18
48
1
60
0
100
AcDbSpline
70
4
71
3
72
12
73
8
40
0
40
0
40
0
40
0
40
0.214284472531947
40
0.214284472531947
40
0.726982835617
40
0.726982835617
40
1
40
1
40
1
40
1
41
1
10
18.9292181790005
20
-4.11774027734549
30
0
41
1
10
18.5493842672408
20
-4.11732722622779
30
0
41
1
10
18.1708104836305
20
-4.10502309197295
30
0
41
1
10
16.8908984928771
20
-4.02396781917469
30
0
41
1
10
15.994140909668
20
-3.90054155433074
30
0
41
1
10
14.6168846243308
20
-3.61889965624036
30
0
41
1
10
14.137813099284
20
-3.50379991535863
30
0
41
1
10
13.6569819021896
20
-3.37272071741487
30
0
0
SPLINE
5
E0
100
AcDbEntity
8
1
62
256
6
ByLayer
370
13
48
1
60
0
100
AcDbSpline
70
4
71
3
72
16
73
12
40
0
40
0
40
0
40
0
40
0.13482078726399
40
0.13482078726399
40
0.423213858175993
40
0.423213858175993
40
0.711606929087996
40
0.711606929087996
40
0.855803464543998
40
0.855803464543998
40
1
40
1
40
1
40
1
41
1
10
13.6569819023093
20
-3.37272071744749
30
0
41
1
10
13.2348611980518
20
-3.2576465631854
30
0
41
1
10
12.8113843061977
20
-3.13025696554291
30
0
41
1
10
11.4751393980928
20
-2.69437976793603
30
0
41
1
10
10.5743971297904
20
-2.35064413879314
30
0
41
1
10
8.77626628412477
20
-1.60244736089331
30
0
41
1
10
7.87921407750037
20
-1.19704543367507
30
0
41
1
10
6.5245375047399
20
-0.566318839544266
30
0
41
1
10
6.0712841115334
20
-0.352270556587484
30
0
41
1
10
5.16055131119825
20
0.0792038911149007
30
0
41
1
10
4.70571684783141
20
0.295032128533251
30
0
41
1
10
4.25040608536364
20
0.508813759912329
30
0
0
SPLINE
5
E1
100
AcDbEntity
8
1
62
256
6
ByLayer
370
18
48
1
60
0
100
AcDbSpline
70
4
71
3
72
14
73
10
40
0
40
0
40
0
40
0
40
0.0648001144861068
40
0.0648001144861068
40
0.252083579660464
40
0.252083579660464
40
0.626650510009178
40
0.626650510009178
40
1
40
1
40
1
40
1
41
1
10
5.10047893825177
20
-0.0009419617542505
30
0
41
1
10
5.25810060103277
20
-0.0774064278373601
30
0
41
1
10
5.41574327310062
20
-0.153904003552697
30
0
41
1
10
6.02924847558768
20
-0.451277435216781
30
0
41
1
10
6.48281742858356
20
-0.670078784019239
30
0
41
1
10
7.83828758783361
20
-1.31353842462289
30
0
41
1
10
8.73562783743668
20
-1.72548920135759
30
0
41
1
10
10.5316135560671
20
-2.48142206692677
30
0
41
1
10
11.4299544948177
20
-2.8266534756502
30
0
41
1
10
12.3382981184298
20
-3.12327313306923
30
0
0
SPLINE
5
E2
100
AcDbEntity
8
1
62
256
6
ByLayer
370
13
48
1
60
0
100
AcDbSpline
70
4
71
3
72
18
73
14
40
0
40
0
40
0
40
0
40
0.0010782090393263
40
0.0010782090393263
40
0.332808176777098
40
0.332808176777098
40
0.664538144514868
40
0.664538144514868
40
0.830403128383754
40
0.830403128383754
40
0.99626811225264
40
0.99626811225264
40
1
40
1
40
1
40
1
41
1
10
12.3382981184411
20
-3.12327313307293
30
0
41
1
10
12.3412600996797
20
-3.12424036820011
30
0
41
1
10
12.344222187279
20
-3.12520708642848
30
0
41
1
10
13.2585555212061
20
-3.42344193778658
30
0
41
1
10
14.1594438907175
20
-3.66582399744959
30
0
41
1
10
15.9575633146526
20
-4.02469477720436
30
0
41
1
10
16.8546408806191
20
-4.14175786253594
30
0
41
1
10
18.2094748152468
20
-4.21494105420587
30
0
41
1
10
18.6630810159886
20
-4.22226741495777
30
0
41
1
10
19.5738434126272
20
-4.20185186619762
30
0
41
1
10
20.0266050046195
20
-4.17421592419646
30
0
41
1
10
20.4879352988229
20
-4.12881670780556
30
0
41
1
10
20.4980858994122
20
-4.12780929664123
30
0
41
1
10
20.5082357871629
20
-4.12679346839676
30
0
0
SPLINE
5
E3
100
AcDbEntity
8
1
62
256
6
ByLayer
370
18
48
1
60
0
100
AcDbSpline
70
4
71
3
72
12
73
8
40
0
40
0
40
0
40
0
40
0.0347200703695307
40
0.0347200703695307
40
0.517360035184765
40
0.517360035184765
40
1
40
1
40
1
40
1
41
1
10
6.76260998238044
20
-3.25907946025603
30
0
41
1
10
6.73275276985132
20
-3.2687556361484
30
0
41
1
10
6.7029197294718
20
-3.27837514492654
30
0
41
1
10
6.25874131087281
20
-3.4208545461303
30
0
41
1
10
5.8488488816935
20
-3.54322134652682
30
0
41
1
10
5.03986740248999
20
-3.7617138645339
30
0
41
1
10
4.64066608109994
20
-3.85776339715517
30
0
41
1
10
4.25072369466213
20
-3.93417837616059
30
0
0
SPLINE
5
E4
100
AcDbEntity
8
1
62
256
6
ByLayer
370
18
48
1
60
0
100
AcDbSpline
70
4
71
3
72
44
73
40
40
0
40
0
40
0
40
0
40
0.0572398796809167
40
0.0572398796809167
40
0.124579888275138
40
0.124579888275138
40
0.19191989686936
40
0.19191989686936
40
0.259259905463582
40
0.259259905463582
40
0.292929909760692
40
0.292929909760692
40
0.326599914057803
40
0.326599914057803
40
0.393939922652025
40
0.393939922652025
40
0.427609926949135
40
0.427609926949135
40
0.461279931246244
40
0.461279931246244
40
0.528619939840464
40
0.528619939840464
40
0.595959948434684
40
0.595959948434684
40
0.629629952731794
40
0.629629952731794
40
0.663299957028903
40
0.663299957028903
40
0.730639965623123
40
0.730639965623123
40
0.797979974217343
40
0.797979974217343
40
0.865319982811563
40
0.865319982811563
40
0.898989987108673
40
0.898989987108673
40
0.932659991405782
40
0.932659991405782
40
1
40
1
40
1
40
1
41
1
10
28.3297588494671
20
4.12624266357997
30
0
41
1
10
28.6456947434586
20
4.12346225556411
30
0
41
1
10
28.9621005146217
20
4.11302066231016
30
0
41
1
10
29.6503828132073
20
4.07232192922237
30
0
41
1
10
30.0217068423203
20
4.03845305004688
30
0
41
1
10
30.7641065938785
20
3.95041257362024
30
0
41
1
10
31.1347518726523
20
3.89319985127341
30
0
41
1
10
31.8774205907324
20
3.75922875072302
30
0
41
1
10
32.2496808466972
20
3.68203264363126
30
0
41
1
10
32.8075744553668
20
3.55174994725255
30
0
41
1
10
32.9933256850717
20
3.50636870975276
30
0
41
1
10
33.364658496661
20
3.41068868731509
30
0
41
1
10
33.5502719856082
20
3.35991176624043
30
0
41
1
10
34.1069581572547
20
3.20024046924888
30
0
41
1
10
34.4775799811842
20
3.08407791730866
30
0
41
1
10
35.0344392219478
20
2.89862633918057
30
0
41
1
10
35.2202135274842
20
2.83493810277162
30
0
41
1
10
35.5919894052735
20
2.7038793465463
30
0
41
1
10
35.7781110638922
20
2.63657101185913
30
0
41
1
10
36.3356298201708
20
2.42842309793477
30
0
41
1
10
36.7065139739763
20
2.28190957106628
30
0
41
1
10
37.4484049358626
20
1.97856085071376
30
0
41
1
10
37.8188814115534
20
1.82037270799307
30
0
41
1
10
38.3753743268531
20
1.57714287057155
30
0
41
1
10
38.5610250333412
20
1.49502869424666
30
0
41
1
10
38.9327008252688
20
1.32833965723015
30
0
41
1
10
39.1188305652773
20
1.24374556858405
30
0
41
1
10
39.6761988537822
20
0.987573694915
30
0
41
1
10
40.0470638940658
20
0.813854777726277
30
0
41
1
10
40.7889576741534
20
0.464079067073612
30
0
41
1
10
41.1593493148306
20
0.286781219767732
30
0
41
1
10
41.9014936350699
20
-0.0683862158858517
30
0
41
1
10
42.273885238607
20
-0.246017519336618
30
0
41
1
10
42.8313628494926
20
-0.511528177189348
30
0
41
1
10
43.0170148195999
20
-0.599828070378777
30
0
41
1
10
43.3882518548103
20
-0.77552473958167
30
0
41
1
10
43.5738506394784
20
-0.862977613018273
30
0
41
1
10
44.1307666748412
20
-1.12275008821615
30
0
41
1
10
44.5019114548695
20
-1.29322287043945
30
0
41
1
10
44.8738324845477
20
-1.45978078867668
30
0
0
SPLINE
5
E5
100
AcDbEntity
8
1
62
256
6
ByLayer
370
18
48
1
60
0
100
AcDbSpline
70
4
71
3
72
8
73
4
40
0
40
0
40
0
40
0
40
1
40
1
40
1
40
1
41
1
10
47.4790875990917
20
-4.14990892887545
30
0
41
1
10
47.499010231004
20
-4.15825976446408
30
0
41
1
10
47.5285156662666
20
-4.13957621803354
30
0
41
1
10
47.5673623451169
20
-4.09453976228653
30
0
0
SPLINE
5
E6
100
AcDbEntity
8
1
62
256
6
ByLayer
370
18
48
1
60
0
100
AcDbSpline
70
4
71
3
72
14
73
10
40
0
40
0
40
0
40
0
40
0.25
40
0.25
40
0.5
40
0.5
40
0.75
40
0.75
40
1
40
1
40
1
40
1
41
1
10
47.5673623451155
20
-4.09453976228824
30
0
41
1
10
47.5693197742392
20
-4.09227043907404
30
0
41
1
10
47.5705984115345
20
-4.09189651906763
30
0
41
1
10
47.5713990171726
20
-4.09599761135553
30
0
41
1
10
47.5708602431385
20
-4.10053952988631
30
0
41
1
10
47.5675614294218
20
-4.11490554483157
30
0
41
1
10
47.5647429080034
20
-4.12489034751056
30
0
41
1
10
47.5574117224079
20
-4.1479944858375
30
0
41
1
10
47.5529176920225
20
-4.1610803777269
30
0
41
1
10
47.5481760024609
20
-4.17414111904554
30
0
0
SPLINE
5
E7
100
AcDbEntity
8
1
62
256
6
ByLayer
370
18
48
1
60
0
100
AcDbSpline
70
4
71
3
72
8
73
4
40
0
40
0
40
0
40
0
40
1
40
1
40
1
40
1
41
1
10
4.13937727184396
20
0.472248541124856
30
0
41
1
10
4.09546182043704
20
0.493778927405913
30
0
41
1
10
4.05888240558161
20
0.527793744424883
30
0
41
1
10
4.03438384936618
20
0.569176741192393
30
0
0
SPLINE
5
E8
100
AcDbEntity
8
1
62
256
6
ByLayer
370
18
48
1
60
0
100
AcDbSpline
70
4
71
3
72
12
73
8
40
0
40
0
40
0
40
0
40
0.500000000000005
40
0.500000000000005
40
0.750000000000002
40
0.750000000000002
40
1
40
1
40
1
40
1
41
1
10
46.7977196912797
20
-3.19818823052435
30
0
41
1
10
46.444437454269
20
-2.98686323133526
30
0
41
1
10
46.1040287331976
20
-2.74227683352478
30
0
41
1
10
45.6176738387977
20
-2.31272117858708
30
0
41
1
10
45.4596529088813
20
-2.15894955962077
30
0
41
1
10
45.1537883010759
20
-1.82511128013436
30
0
41
1
10
45.0087525364664
20
-1.64802234272756
30
0
41
1
10
44.8738324845585
20
-1.45978078868154
30
0
0
SPLINE
5
E9
100
AcDbEntity
8
1
62
256
6
ByLayer
370
18
48
1
60
0
100
AcDbSpline
70
4
71
3
72
28
73
24
40
0
40
0
40
0
40
0
40
0.125
40
0.125
40
0.25
40
0.25
40
0.3125
40
0.3125
40
0.375
40
0.375
40
0.5
40
0.5
40
0.625
40
0.625
40
0.6875
40
0.6875
40
0.75
40
0.75
40
0.875
40
0.875
40
0.9375
40
0.9375
40
1
40
1
40
1
40
1
41
1
10
4.01228785541838
20
0.647213421996526
30
0
41
1
10
4.01229760356046
20
0.848778248480528
30
0
41
1
10
4.01230607922216
20
1.04875529697335
30
0
41
1
10
4.01232084348814
20
1.436073929206
30
0
41
1
10
4.01232717641184
20
1.62415883062474
30
0
41
1
10
4.01233568827431
20
1.8980379592571
30
0
41
1
10
4.012338360158
20
1.98795113606283
30
0
41
1
10
4.01234346408231
20
2.16497380173277
30
0
41
1
10
4.01234590332163
20
2.25234847563726
30
0
41
1
10
4.01235294368146
20
2.50826550124722
30
0
41
1
10
4.012357231479
20
2.66902463320568
30
0
41
1
10
4.01236570378288
20
2.97154508843994
30
0
41
1
10
4.01236988608352
20
3.11330520817225
30
0
41
1
10
4.01237650460021
20
3.31134791375584
30
0
41
1
10
4.01237877657223
20
3.37513798586104
30
0
41
1
10
4.01238342858832
20
3.49599734551131
30
0
41
1
10
4.01238581235802
20
3.55321443711677
30
0
41
1
10
4.01239319787413
20
3.71543813344502
30
0
41
1
10
4.01239843881811
20
3.81106330348757
30
0
41
1
10
4.01240692025263
20
3.93568893241854
30
0
41
1
10
4.01240984945505
20
3.97408393676002
30
0
41
1
10
4.01241592059762
20
4.04443063989584
30
0
41
1
10
4.01241906318739
20
4.07634192858873
30
0
41
1
10
4.01242225669571
20
4.10451580390568
30
0
0
SPLINE
5
EA
100
AcDbEntity
8
1
62
256
6
ByLayer
370
13
48
1
60
0
100
AcDbSpline
70
4
71
3
72
8
73
4
40
0
40
0
40
0
40
0
40
1
40
1
40
1
40
1
41
1
10
4.25040608536366
20
0.5088137599123
30
0
41
1
10
4.21231639395458
20
0.519541791591479
30
0
41
1
10
4.17515266450891
20
0.530956282436392
30
0
41
1
10
4.14061600523044
20
0.542739864956502
30
0
0
SPLINE
5
EB
100
AcDbEntity
8
1
62
256
6
ByLayer
370
18
48
1
60
0
100
AcDbSpline
70
4
71
3
72
8
73
4
40
0
40
0
40
0
40
0
40
1
40
1
40
1
40
1
41
1
10
48.5448622861326
20
-1.58222591377373
30
0
41
1
10
48.545827227989
20
-1.58220797253202
30
0
41
1
10
48.5467921649573
20
-1.58219002929576
30
0
41
1
10
48.5477570970299
20
-1.5821720840618
30
0
0
SPLINE
5
EC
100
AcDbEntity
8
1
62
256
6
ByLayer
370
18
48
1
60
0
100
AcDbSpline
70
4
71
3
72
8
73
4
40
0
40
0
40
0
40
0
40
1
40
1
40
1
40
1
41
1
10
4.03438384936615
20
0.569176741192393
30
0
41
1
10
4.02031347679963
20
0.592944434982911
30
0
41
1
10
4.01228652446525
20
0.619693035809405
30
0
41
1
10
4.01228785541841
20
0.647213422006217
30
0
0
SPLINE
5
ED
100
AcDbEntity
8
1
62
256
6
ByLayer
370
13
48
1
60
0
100
AcDbSpline
70
4
71
3
72
24
73
20
40
0
40
0
40
0
40
0
40
0.125
40
0.125
40
0.25
40
0.25
40
0.375
40
0.375
40
0.4375
40
0.4375
40
0.5
40
0.5
40
0.75
40
0.75
40
0.8125
40
0.8125
40
0.875
40
0.875
40
1
40
1
40
1
40
1
41
1
10
4.25040608536364
20
0.508813759912329
30
0
41
1
10
4.25043040814046
20
0.706899157441711
30
0
41
1
10
4.25045082877566
20
0.901552191642196
30
0
41
1
10
4.2504860797352
20
1.28411419092458
30
0
41
1
10
4.25050096671404
20
1.47309993058016
30
0
41
1
10
4.25052663974145
20
1.83520069431347
30
0
41
1
10
4.25053752456293
20
2.00914341209889
30
0
41
1
10
4.25055258725669
20
2.25954317132903
30
0
41
1
10
4.25055739450073
20
2.34125054601873
30
0
41
1
10
4.2505668331402
20
2.5010881954143
30
0
41
1
10
4.25057148166067
20
2.57949875981069
30
0
41
1
10
4.25059467169871
20
2.95878422884039
30
0
41
1
10
4.25061313067036
20
3.2187953278135
30
0
41
1
10
4.25064293838111
20
3.48990722982063
30
0
41
1
10
4.25064923351101
20
3.5414436920664
30
0
41
1
10
4.25066240954399
20
3.63770691689803
30
0
41
1
10
4.25066930592652
20
3.6825953724186
30
0
41
1
10
4.25069098572496
20
3.80754359893547
30
0
41
1
10
4.25070684561427
20
3.87803838969816
30
0
41
1
10
4.25072369355496
20
3.93417837607763
30
0
0
SPLINE
5
EE
100
AcDbEntity
8
1
62
256
6
ByLayer
370
18
48
1
60
0
100
AcDbSpline
70
4
71
3
72
8
73
4
40
0
40
0
40
0
40
0
40
1
40
1
40
1
40
1
41
1
10
48.2871432588839
20
1.2489423192909
30
0
41
1
10
48.0011221044324
20
1.23649674978466
30
0
41
1
10
47.7139905520613
20
1.22849085238761
30
0
41
1
10
47.426336544923
20
1.22257387088015
30
0
0
SPLINE
5
EF
100
AcDbEntity
8
1
62
256
6
ByLayer
370
18
48
1
60
0
100
AcDbSpline
70
4
71
3
72
14
73
10
40
0
40
0
40
0
40
0
40
0.25
40
0.25
40
0.5
40
0.5
40
0.75
40
0.75
40
1
40
1
40
1
40
1
41
1
10
4.25072369355502
20
-3.93417837637756
30
0
41
1
10
4.22763615986048
20
-3.93870272013478
30
0
41
1
10
4.20352520951067
20
-3.94558145206946
30
0
41
1
10
4.15374046854606
20
-3.96582653764415
30
0
41
1
10
4.12844126610156
20
-3.97925582361893
30
0
41
1
10
4.08298027837682
20
-4.01110362137339
30
0
41
1
10
4.06270534971546
20
-4.02965677076085
30
0
41
1
10
4.03122687431963
20
-4.06741688777277
30
0
41
1
10
4.02001166057721
20
-4.08623609797365
30
0
41
1
10
4.01242225669242
20
-4.10451580391373
30
0
0
SPLINE
5
F0
100
AcDbEntity
8
1
62
256
6
ByLayer
370
18
48
1
60
0
100
AcDbSpline
70
4
71
3
72
44
73
40
40
0
40
0
40
0
40
0
40
0.0625000000000038
40
0.0625000000000038
40
0.125000000000008
40
0.125000000000008
40
0.140625000000009
40
0.140625000000009
40
0.156250000000009
40
0.156250000000009
40
0.187500000000014
40
0.187500000000014
40
0.218750000000019
40
0.218750000000019
40
0.250000000000023
40
0.250000000000023
40
0.281250000000028
40
0.281250000000028
40
0.29687500000003
40
0.29687500000003
40
0.312500000000032
40
0.312500000000032
40
0.343750000000034
40
0.343750000000034
40
0.375000000000036
40
0.375000000000036
40
0.437500000000036
40
0.437500000000036
40
0.468750000000037
40
0.468750000000037
40
0.500000000000037
40
0.500000000000037
40
0.625000000000028
40
0.625000000000028
40
0.750000000000018
40
0.750000000000018
40
0.875000000000009
40
0.875000000000009
40
1
40
1
40
1
40
1
41
1
10
47.3088169653057
20
1.01804515157653
30
0
41
1
10
47.3489527368914
20
0.899244832143751
30
0
41
1
10
47.3897730428085
20
0.780729604925483
30
0
41
1
10
47.4805497114577
20
0.547504100146227
30
0
41
1
10
47.5299312051014
20
0.432876895021622
30
0
41
1
10
47.5941996485204
20
0.29117012927378
30
0
41
1
10
47.6072055592088
20
0.262919893015152
30
0
41
1
10
47.6335675873496
20
0.206641342186145
30
0
41
1
10
47.6467392674622
20
0.178493645863142
30
0
41
1
10
47.6841770268611
20
0.0928131068612288
30
0
41
1
10
47.7069425616446
20
0.0346794982096128
30
0
41
1
10
47.7463824312443
20
-0.0841650369999911
30
0
41
1
10
47.762960009323
20
-0.145041005408075
30
0
41
1
10
47.7878510583515
20
-0.266521636508003
30
0
41
1
10
47.7963956541708
20
-0.327502220606363
30
0
41
1
10
47.8042264271395
20
-0.450033639373771
30
0
41
1
10
47.803329349181
20
-0.511623115149405
30
0
41
1
10
47.7940514376166
20
-0.59990758778261
30
0
41
1
10
47.789719177297
20
-0.628861690290051
30
0
41
1
10
47.7770780206708
20
-0.685249155434889
30
0
41
1
10
47.7689383152896
20
-0.712872905841351
30
0
41
1
10
47.7412815032672
20
-0.79223680386491
30
0
41
1
10
47.7180311059272
20
-0.840999870998559
30
0
41
1
10
47.6633052781225
20
-0.931439780413882
30
0
41
1
10
47.6322976695876
20
-0.972413021610919
30
0
41
1
10
47.5314276291917
20
-1.08202365234948
30
0
41
1
10
47.4522409747807
20
-1.13855782865573
30
0
41
1
10
47.3260054381422
20
-1.2043261768639
30
0
41
1
10
47.2827821163602
20
-1.22330995924691
30
0
41
1
10
47.1963113038678
20
-1.26074578560181
30
0
41
1
10
47.1527477839996
20
-1.27847386035714
30
0
41
1
10
46.9333137688294
20
-1.362237903536
30
0
41
1
10
46.7518873697385
20
-1.41384262169382
30
0
41
1
10
46.3858335694487
20
-1.48776055527213
30
0
41
1
10
46.2006661341332
20
-1.51028457511731
30
0
41
1
10
45.826718710384
20
-1.53097094427866
30
0
41
1
10
45.6379369998018
20
-1.52912168008592
30
0
41
1
10
45.2575675846849
20
-1.50650060635675
30
0
41
1
10
45.0657843615144
20
-1.48613132158965
30
0
41
1
10
44.8738324845585
20
-1.45978078868154
30
0
0
SPLINE
5
F1
100
AcDbEntity
8
1
62
256
6
ByLayer
370
18
48
1
60
0
100
AcDbSpline
70
4
71
3
72
14
73
10
40
0
40
0
40
0
40
0
40
0.25
40
0.25
40
0.5
40
0.5
40
0.75
40
0.75
40
1
40
1
40
1
40
1
41
1
10
4.0124222566956
20
4.10451580390585
30
0
41
1
10
4.01998929615104
20
4.08628996454308
30
0
41
1
10
4.03124201368291
20
4.06739424755517
30
0
41
1
10
4.06272899782485
20
4.02963288884993
30
0
41
1
10
4.08296358126074
20
4.0111136646743
30
0
41
1
10
4.12848525923107
20
3.97922665902612
30
0
41
1
10
4.15377456655412
20
3.96580240246126
30
0
41
1
10
4.20374668285686
20
3.94550171120028
30
0
41
1
10
4.22764595486393
20
3.93870080065909
30
0
41
1
10
4.25072369355502
20
3.93417837637759
30
0
0
SPLINE
5
F2
100
AcDbEntity
8
1
62
256
6
ByLayer
370
18
48
1
60
0
100
AcDbSpline
70
4
71
3
72
8
73
4
40
0
40
0
40
0
40
0
40
1
40
1
40
1
40
1
41
1
10
47.5481760024625
20
-4.17414111904102
30
0
41
1
10
47.5390899866925
20
-4.19916808465098
30
0
41
1
10
47.5299974787484
20
-4.22419374727431
30
0
41
1
10
47.5208987462519
20
-4.24921736954303
30
0
0
SPLINE
5
F3
100
AcDbEntity
8
1
62
256
6
ByLayer
370
18
48
1
60
0
100
AcDbSpline
70
4
71
3
72
12
73
8
40
0
40
0
40
0
40
0
40
0.0975782183676075
40
0.384286251908923
40
0.593248454243945
40
0.774562649092442
40
1
40
1
40
1
40
1
41
1
10
14.3927210380759
20
0.0974398420102318
30
0
41
1
10
14.3931541269057
20
0.097407551355019
30
0
41
1
10
14.3901073484807
20
0.0989335535696227
30
0
41
1
10
14.3520848843224
20
0.11265912912134
30
0
41
1
10
14.25985991843
20
0.15070572545784
30
0
41
1
10
14.1050759903052
20
0.219269542934512
30
0
41
1
10
13.9792217351186
20
0.278326649554231
30
0
41
1
10
13.899830240825
20
0.316197040868246
30
0
0
SPLINE
5
F4
100
AcDbEntity
8
1
62
256
6
ByLayer
370
18
48
1
60
0
100
AcDbSpline
70
4
71
3
72
22
73
18
40
0
40
0
40
0
40
0
40
0.0021302623969949
40
0.0160900454071401
40
0.0689280946918457
40
0.129793441804387
40
0.221937307925656
40
0.342696599911003
40
0.469341312141527
40
0.597480391588656
40
0.680211708775423
40
0.768147337857537
40
0.862966499819632
40
0.884000498219849
40
0.904427970561044
40
0.946581160905867
40
1
40
1
40
1
40
1
41
1
10
32.4479374670625
20
-1.04968189566176
30
0
41
1
10
32.4479459112346
20
-1.04969671362909
30
0
41
1
10
32.4491059414231
20
-1.04987613308967
30
0
41
1
10
32.4849416300678
20
-1.05241134298146
30
0
41
1
10
32.6388974881496
20
-1.06355656836754
30
0
41
1
10
32.8702009046837
20
-1.08764762152148
30
0
41
1
10
33.1818451254124
20
-1.13036594476853
30
0
41
1
10
33.5345237417006
20
-1.19488239653015
30
0
41
1
10
33.9892741809642
20
-1.30485302472255
30
0
41
1
10
34.4358868486384
20
-1.43472897220289
30
0
41
1
10
34.7769289686604
20
-1.54904919147032
30
0
41
1
10
35.1597154179219
20
-1.68703537016796
30
0
41
1
10
35.4461094111159
20
-1.79881127564875
30
0
41
1
10
35.6442989106747
20
-1.87886835025853
30
0
41
1
10
35.7672902204252
20
-1.92922847627392
30
0
41
1
10
35.9347377737488
20
-1.99892894221699
30
0
41
1
10
36.0730171019117
20
-2.05845969459492
30
0
41
1
10
36.1499933369654
20
-2.09217012605484
30
0
0
SPLINE
5
F5
100
AcDbEntity
8
1
62
256
6
ByLayer
370
18
48
1
60
0
100
AcDbSpline
70
4
71
3
72
26
73
22
40
0
40
0
40
0
40
0
40
0.0793345794697411
40
0.136209269474942
40
0.178255609801677
40
0.212287892729519
40
0.249128379842405
40
0.289266558597543
40
0.333196272788308
40
0.380421465746296
40
0.443972857648476
40
0.49373464951654
40
0.542843742418895
40
0.606708566167035
40
0.686476644123519
40
0.746651848468251
40
0.793665388751048
40
0.842045750785355
40
0.907931180622666
40
0.989563958486945
40
1
40
1
40
1
40
1
41
1
10
18.8621933970143
20
-4.11763905784036
30
0
41
1
10
19.1123339197041
20
-4.1179782307681
30
0
41
1
10
19.5418521500732
20
-4.118463544094
30
0
41
1
10
20.104242934839
20
-4.11875884892638
30
0
41
1
10
20.5235550838106
20
-4.11901909888854
30
0
41
1
10
20.8796941173296
20
-4.11933620851727
30
0
41
1
10
21.2298962829198
20
-4.12019769467878
30
0
41
1
10
21.6113035841342
20
-4.12117190218376
30
0
41
1
10
22.0254757984696
20
-4.1215802218515
30
0
41
1
10
22.5135072241345
20
-4.12187511599382
30
0
41
1
10
23.0199270972218
20
-4.12188059975199
30
0
41
1
10
23.532298136651
20
-4.12208026582007
30
0
41
1
10
24.0456546022384
20
-4.12390349811173
30
0
41
1
10
24.6536685505555
20
-4.12406288612377
30
0
41
1
10
25.2965827292658
20
-4.12399893038349
30
0
41
1
10
25.8863821140778
20
-4.1241450024223
30
0
41
1
10
26.3770209222968
20
-4.12563028661924
30
0
41
1
10
26.8862325259424
20
-4.12794782822053
30
0
41
1
10
27.5014157084435
20
-4.12735379349064
30
0
41
1
10
28.0009878425916
20
-4.12552177994027
30
0
41
1
10
28.2897590663881
20
-4.12622041851384
30
0
41
1
10
28.3224827161357
20
-4.12630866739516
30
0
0
SPLINE
5
F6
100
AcDbEntity
8
1
62
256
6
ByLayer
370
18
48
1
60
0
100
AcDbSpline
70
4
71
2
72
6
73
3
40
0
40
0
40
0
40
1
40
1
40
1
41
1
10
46.0750846811459
20
-4.15037345435621
30
0
41
1
10
46.7829342397798
20
-4.1493720279833
30
0
41
1
10
47.4914276164166
20
-4.15331145536186
30
0
0
SPLINE
5
F7
100
AcDbEntity
8
1
62
256
6
ByLayer
370
18
48
1
60
0
100
AcDbSpline
70
4
71
3
72
22
73
18
40
0
40
0
40
0
40
0
40
0.0034922224492213
40
0.100734097968636
40
0.184345018614007
40
0.246682867791613
40
0.301235260497271
40
0.358083824549306
40
0.436214872494547
40
0.528525556578377
40
0.600667564419259
40
0.663389780920829
40
0.726612450282848
40
0.806237995762207
40
0.899610890886632
40
0.98263535472888
40
1
40
1
40
1
40
1
41
1
10
28.3326277296715
20
4.12620169940138
30
0
41
1
10
28.3242793566953
20
4.12618012616215
30
0
41
1
10
28.0834444987009
20
4.12557829787767
30
0
41
1
10
27.6373270801627
20
4.12693786917018
30
0
41
1
10
27.0559612489718
20
4.12790077739061
30
0
41
1
10
26.5731677255689
20
4.12670539726099
30
0
41
1
10
26.1551707007727
20
4.12470531198073
30
0
41
1
10
25.699079785459
20
4.12412584390449
30
0
41
1
10
25.1521613513664
20
4.12396476614572
30
0
41
1
10
24.5684226294255
20
4.12408975713157
30
0
41
1
10
24.0217745246744
20
4.12380995086224
30
0
41
1
10
23.5451174715439
20
4.1221200708174
30
0
41
1
10
23.0504498620263
20
4.12188093174299
30
0
41
1
10
22.4820381820614
20
4.12185794908646
30
0
41
1
10
21.8659582221494
20
4.12157688574311
30
0
41
1
10
21.3997214169881
20
4.12060002787922
30
0
41
1
10
21.1581417519315
20
4.12004892494124
30
0
41
1
10
21.1163551931251
20
4.1199552973724
30
0
0
SPLINE
5
F8
100
AcDbEntity
8
1
62
256
6
ByLayer
370
18
48
1
60
0
100
AcDbSpline
70
4
71
3
72
13
73
9
40
0
40
0
40
0
40
0
40
0.134521914538924
40
0.271911458819412
40
0.428475432625443
40
0.641580799910328
40
0.797776169911852
40
1
40
1
40
1
40
1
41
1
10
41.5847932638321
20
0.100310454893844
30
0
41
1
10
41.5845757945492
20
0.100518478244112
30
0
41
1
10
41.5792560035474
20
0.102710328115791
30
0
41
1
10
41.5476421147377
20
0.114755242294279
30
0
41
1
10
41.4968223592982
20
0.135362881546257
30
0
41
1
10
41.4126316594885
20
0.171353638195399
30
0
41
1
10
41.2390041268711
20
0.249727484574976
30
0
41
1
10
41.1279895448306
20
0.302160495750712
30
0
41
1
10
41.060052494345
20
0.334780215736231
30
0
0
SPLINE
5
F9
100
AcDbEntity
8
1
62
256
6
ByLayer
370
18
48
1
60
0
100
AcDbSpline
70
4
71
1
72
4
73
2
40
0
40
0
40
1
40
1
41
1
10
5.09271985754836
20
0.0028292588051215
30
0
41
1
10
5.09270862948313
20
0.0028271892409748
30
0
0
LINE
5
7B
100
AcDbEntity
8
SK1
62
256
6
ByLayer
370
18
48
1
60
0
100
AcDbLine
10
-40
20
-3.7
30
0
11
-40
21
-3.199937
31
0
39
0
210
0
220
0
230
1
0
LINE
5
7D
100
AcDbEntity
8
SK1
62
256
6
ByLayer
370
18
48
1
60
0
100
AcDbLine
10
-40
20
3.7
30
0
11
-40
21
-1.765751
31
0
39
0
210
0
220
0
230
1
0
LINE
5
7E
100
AcDbEntity
8
SK1
62
256
6
ByLayer
370
13
48
1
60
0
100
AcDbLine
10
-39.35
20
-2.233544
30
0
11
-39.35
21
-3.667745
31
0
39
0
210
0
220
0
230
1
0
LINE
5
7F
100
AcDbEntity
8
SK1
62
256
6
ByLayer
370
18
48
1
60
0
100
AcDbLine
10
-38.7
20
5
30
0
11
-38.7
21
-5
31
0
39
0
210
0
220
0
230
1
0
LINE
5
80
100
AcDbEntity
8
SK1
62
256
6
ByLayer
370
18
48
1
60
0
100
AcDbLine
10
0
20
-5
30
0
11
0
21
5
31
0
39
0
210
0
220
0
230
1
0
LINE
5
81
100
AcDbEntity
8
SK1
62
256
6
ByLayer
370
18
48
1
60
0
100
AcDbLine
10
-40
20
-1.765707
30
0
11
-40
21
-3.199937
31
0
39
0
210
0
220
0
230
1
0
LINE
5
82
100
AcDbEntity
8
SK1
62
256
6
ByLayer
370
18
48
1
60
0
100
AcDbLine
10
-39.25
20
-3.682838
30
0
11
-39.25
21
-2.39207
31
0
39
0
210
0
220
0
230
1
0
LINE
5
83
100
AcDbEntity
8
1
62
256
6
ByLayer
370
18
48
1
60
0
100
AcDbLine
10
49
20
0.025072
30
0
11
49
21
-0.025072
31
0
39
0
210
0
220
0
230
1
0
LINE
5
84
100
AcDbEntity
8
1
62
256
6
ByLayer
370
18
48
1
60
0
100
AcDbLine
10
48.984851
20
-0.078394
30
0
11
48.713627
21
-1.068432
31
0
39
0
210
0
220
0
230
1
0
LINE
5
85
100
AcDbEntity
8
1
62
256
6
ByLayer
370
18
48
1
60
0
100
AcDbLine
10
48.900134
20
-0.245617
30
0
11
48.352802
21
-1.749398
31
0
39
0
210
0
220
0
230
1
0
LINE
5
86
100
AcDbEntity
8
1
62
256
6
ByLayer
370
13
48
1
60
0
100
AcDbLine
10
1.344058
20
4.269533
30
0
11
1.344058
21
-4.269533
31
0
39
0
210
0
220
0
230
1
0
LINE
5
87
100
AcDbEntity
8
1
62
256
6
ByLayer
370
13
48
1
60
0
100
AcDbLine
10
48.984851
20
0.078394
30
0
11
47.426337
21
1.222574
31
0
39
0
210
0
220
0
230
1
0
LINE
5
88
100
AcDbEntity
8
1
62
256
6
ByLayer
370
18
48
1
60
0
100
AcDbLine
10
48.984851
20
0.078394
30
0
11
48.713627
21
1.068432
31
0
39
0
210
0
220
0
230
1
0
LINE
5
89
100
AcDbEntity
8
1
62
256
6
ByLayer
370
13
48
1
60
0
100
AcDbLine
10
48.930415
20
-0.172447
30
0
11
47.308817
21
1.018045
31
0
39
0
210
0
220
0
230
1
0
LINE
5
8A
100
AcDbEntity
8
1
62
256
6
ByLayer
370
13
48
1
60
0
100
AcDbLine
10
0.671549
20
4.634766
30
0
11
0.671549
21
-4.634766
31
0
39
0
210
0
220
0
230
1
0
LINE
5
8B
100
AcDbEntity
8
1
62
256
6
ByLayer
370
18
48
1
60
0
100
AcDbLine
10
48.900134
20
-0.245617
30
0
11
48.930415
21
-0.172447
31
0
39
0
210
0
220
0
230
1
0
LINE
5
8C
100
AcDbEntity
8
1
62
256
6
ByLayer
370
18
48
1
60
0
100
AcDbLine
10
0
20
-5
30
0
11
0
21
5
31
0
39
0
210
0
220
0
230
1
0
LINE
5
8D
100
AcDbEntity
8
1
62
256
6
ByLayer
370
18
48
1
60
0
100
AcDbLine
10
48.900134
20
-0.245617
30
0
11
46.79772
21
-3.198188
31
0
39
0
210
0
220
0
230
1
0
LINE
5
8E
100
AcDbEntity
8
1
62
256
6
ByLayer
370
18
48
1
60
0
100
AcDbLine
10
48.547757
20
-1.582172
30
0
11
48.547687
21
-1.582226
31
0
39
0
210
0
220
0
230
1
0
LINE
5
8F
100
AcDbEntity
8
1
62
256
6
ByLayer
370
18
48
1
60
0
100
AcDbLine
10
47.908699
20
-2.969562
30
0
11
47.479088
21
-4.149909
31
0
39
0
210
0
220
0
230
1
0
LINE
5
90
100
AcDbEntity
8
80
62
256
6
ByLayer
370
18
48
1
60
0
100
AcDbLine
10
0
20
0
30
0
11
-5
21
0
31
0
39
0
210
0
220
0
230
1
0
LINE
5
91
100
AcDbEntity
8
SK4
62
256
6
ByLayer
370
18
48
0.05
60
0
100
AcDbLine
10
54
20
0
30
0
11
-45
21
0
31
0
39
0
210
0
220
0
230
1
0
LINE
5
93
100
AcDbEntity
8
4
62
256
6
ByLayer
370
18
48
0.05
60
0
100
AcDbLine
10
49
20
0
30
0
11
0
21
0
31
0
39
0
210
0
220
0
230
1
0
LINE
5
95
100
AcDbEntity
8
SK1
62
256
6
ByLayer
370
18
48
1
60
0
100
AcDbLine
10
-40
20
-3.7
30
0
11
-38.7
21
-5
31
0
39
0
210
0
220
0
230
1
0
LINE
5
96
100
AcDbEntity
8
SK1
62
256
6
ByLayer
370
18
48
1
60
0
100
AcDbLine
10
-38.7
20
5
30
0
11
-40
21
3.7
31
0
39
0
210
0
220
0
230
1
0
LINE
5
97
100
AcDbEntity
8
SK1
62
256
6
ByLayer
370
18
48
1
60
0
100
AcDbLine
10
-38.7
20
-5
30
0
11
0
21
-5
31
0
39
0
210
0
220
0
230
1
0
LINE
5
98
100
AcDbEntity
8
SK1
62
256
6
ByLayer
370
18
48
1
60
0
100
AcDbLine
10
0
20
5
30
0
11
-38.7
21
5
31
0
39
0
210
0
220
0
230
1
0
LINE
5
99
100
AcDbEntity
8
1
62
256
6
ByLayer
370
18
48
1
60
0
100
AcDbLine
10
1.344058
20
-4.269533
30
0
11
2.610749
21
-4.271053
31
0
39
0
210
0
220
0
230
1
0
LINE
5
9A
100
AcDbEntity
8
1
62
256
6
ByLayer
370
18
48
1
60
0
100
AcDbLine
10
18.079448
20
-4.289616
30
0
11
18.698635
21
-4.290359
31
0
39
0
210
0
220
0
230
1
0
LINE
5
9B
100
AcDbEntity
8
1
62
256
6
ByLayer
370
18
48
1
60
0
100
AcDbLine
10
45.375165
20
-4.322371
30
0
11
45.898546
21
-4.322999
31
0
39
0
210
0
220
0
230
1
0
LINE
5
9C
100
AcDbEntity
8
1
62
256
6
ByLayer
370
18
48
1
60
0
100
AcDbLine
10
45.899232
20
4.322999
30
0
11
45.375165
21
4.322371
31
0
39
0
210
0
220
0
230
1
0
LINE
5
9D
100
AcDbEntity
8
1
62
256
6
ByLayer
370
18
48
1
60
0
100
AcDbLine
10
18.698567
20
4.290359
30
0
11
18.079448
21
4.289616
31
0
39
0
210
0
220
0
230
1
0
LINE
5
9E
100
AcDbEntity
8
1
62
256
6
ByLayer
370
18
48
1
60
0
100
AcDbLine
10
2.610749
20
4.271053
30
0
11
1.344058
21
4.269533
31
0
39
0
210
0
220
0
230
1
0
LINE
5
9F
100
AcDbEntity
8
81
62
256
6
ByLayer
370
18
48
1
60
0
100
AcDbLine
10
49
20
0
30
0
11
54
21
0
31
0
39
0
210
0
220
0
230
1
0
LINE
5
A0
100
AcDbEntity
8
SK2
62
256
6
ByLayer
370
13
48
1
60
0
100
AcDbLine
10
-48.625163
20
-5
30
0
11
-48.625163
21
35.857173
31
0
39
0
210
0
220
0
230
1
0
LINE
5
A2
100
AcDbEntity
8
SK2
62
256
6
ByLayer
370
13
48
1
60
0
100
AcDbLine
10
-41.5875
20
5
30
0
11
-50.625163
21
5
31
0
39
0
210
0
220
0
230
1
0
LINE
5
A3
100
AcDbEntity
8
SK2
62
256
6
ByLayer
370
13
48
1
60
0
100
AcDbLine
10
-41.5875
20
-5
30
0
11
-50.625163
21
-5
31
0
39
0
210
0
220
0
230
1
0
LINE
5
A4
100
AcDbEntity
8
1
62
256
6
ByLayer
370
18
48
1
60
1
100
AcDbLine
10
-48.625163
20
5
30
0
11
-48.164379
21
1.500002
31
0
39
0
210
0
220
0
230
1
0
LINE
5
A5
100
AcDbEntity
8
1
62
256
6
ByLayer
370
18
48
1
60
1
100
AcDbLine
10
-48.164379
20
1.500002
30
0
11
-49.085946
21
1.499998
31
0
39
0
210
0
220
0
230
1
0
LINE
5
A6
100
AcDbEntity
8
1
62
256
6
ByLayer
370
18
48
1
60
1
100
AcDbLine
10
-49.085946
20
1.499998
30
0
11
-48.625163
21
5
31
0
39
0
210
0
220
0
230
1
0
LINE
5
A7
100
AcDbEntity
8
1
62
256
6
ByLayer
370
18
48
1
60
1
100
AcDbLine
10
-48.625163
20
-5
30
0
11
-49.085946
21
-1.500002
31
0
39
0
210
0
220
0
230
1
0
LINE
5
A8
100
AcDbEntity
8
1
62
256
6
ByLayer
370
18
48
1
60
1
100
AcDbLine
10
-49.085946
20
-1.500002
30
0
11
-48.164379
21
-1.499998
31
0
39
0
210
0
220
0
230
1
0
LINE
5
A9
100
AcDbEntity
8
1
62
256
6
ByLayer
370
18
48
1
60
1
100
AcDbLine
10
-48.164379
20
-1.499998
30
0
11
-48.625163
21
-5
31
0
39
0
210
0
220
0
230
1
0
LINE
5
AA
100
AcDbEntity
8
2
62
256
6
ByLayer
370
13
48
1
60
0
100
AcDbLine
10
61.083343
20
-4.325
30
0
11
61.083343
21
32.035193
31
0
39
0
210
0
220
0
230
1
0
LINE
5
AC
100
AcDbEntity
8
2
62
256
6
ByLayer
370
13
48
1
60
0
100
AcDbLine
10
48.9875
20
4.325
30
0
11
63.083343
21
4.325
31
0
39
0
210
0
220
0
230
1
0
LINE
5
AD
100
AcDbEntity
8
2
62
256
6
ByLayer
370
13
48
1
60
0
100
AcDbLine
10
48.9875
20
-4.325
30
0
11
63.083343
21
-4.325
31
0
39
0
210
0
220
0
230
1
0
LINE
5
AE
100
AcDbEntity
8
1
62
256
6
ByLayer
370
18
48
1
60
1
100
AcDbLine
10
61.083343
20
4.325
30
0
11
61.544126
21
0.825002
31
0
39
0
210
0
220
0
230
1
0
LINE
5
AF
100
AcDbEntity
8
1
62
256
6
ByLayer
370
18
48
1
60
1
100
AcDbLine
10
61.544126
20
0.825002
30
0
11
60.622559
21
0.824998
31
0
39
0
210
0
220
0
230
1
0
LINE
5
B0
100
AcDbEntity
8
1
62
256
6
ByLayer
370
18
48
1
60
1
100
AcDbLine
10
60.622559
20
0.824998
30
0
11
61.083343
21
4.325
31
0
39
0
210
0
220
0
230
1
0
LINE
5
B1
100
AcDbEntity
8
1
62
256
6
ByLayer
370
18
48
1
60
1
100
AcDbLine
10
61.083343
20
-4.325
30
0
11
60.622559
21
-0.825002
31
0
39
0
210
0
220
0
230
1
0
LINE
5
B2
100
AcDbEntity
8
1
62
256
6
ByLayer
370
18
48
1
60
1
100
AcDbLine
10
60.622559
20
-0.825002
30
0
11
61.544126
21
-0.824998
31
0
39
0
210
0
220
0
230
1
0
LINE
5
B3
100
AcDbEntity
8
1
62
256
6
ByLayer
370
18
48
1
60
1
100
AcDbLine
10
61.544126
20
-0.824998
30
0
11
61.083343
21
-4.325
31
0
39
0
210
0
220
0
230
1
0
LINE
5
100
100
AcDbEntity
8
1
62
256
6
ByLayer
370
18
48
1
60
1
100
AcDbLine
10
-48.625163
20
5
30
0
11
-48.164379
21
1.500002
31
0
39
0
210
0
220
0
230
1
0
LINE
5
101
100
AcDbEntity
8
1
62
256
6
ByLayer
370
18
48
1
60
1
100
AcDbLine
10
-48.164379
20
1.500002
30
0
11
-49.085946
21
1.499998
31
0
39
0
210
0
220
0
230
1
0
LINE
5
102
100
AcDbEntity
8
1
62
256
6
ByLayer
370
18
48
1
60
1
100
AcDbLine
10
-49.085946
20
1.499998
30
0
11
-48.625163
21
5
31
0
39
0
210
0
220
0
230
1
0
LINE
5
104
100
AcDbEntity
8
1
62
256
6
ByLayer
370
18
48
1
60
1
100
AcDbLine
10
-48.625163
20
-5
30
0
11
-49.085946
21
-1.500002
31
0
39
0
210
0
220
0
230
1
0
LINE
5
105
100
AcDbEntity
8
1
62
256
6
ByLayer
370
18
48
1
60
1
100
AcDbLine
10
-49.085946
20
-1.500002
30
0
11
-48.164379
21
-1.499998
31
0
39
0
210
0
220
0
230
1
0
LINE
5
106
100
AcDbEntity
8
1
62
256
6
ByLayer
370
18
48
1
60
1
100
AcDbLine
10
-48.164379
20
-1.499998
30
0
11
-48.625163
21
-5
31
0
39
0
210
0
220
0
230
1
0
LINE
5
10A
100
AcDbEntity
8
1
62
256
6
ByLayer
370
18
48
1
60
1
100
AcDbLine
10
61.083343
20
4.325
30
0
11
61.544126
21
0.825002
31
0
39
0
210
0
220
0
230
1
0
LINE
5
10B
100
AcDbEntity
8
1
62
256
6
ByLayer
370
18
48
1
60
1
100
AcDbLine
10
61.544126
20
0.825002
30
0
11
60.622559
21
0.824998
31
0
39
0
210
0
220
0
230
1
0
LINE
5
10C
100
AcDbEntity
8
1
62
256
6
ByLayer
370
18
48
1
60
1
100
AcDbLine
10
60.622559
20
0.824998
30
0
11
61.083343
21
4.325
31
0
39
0
210
0
220
0
230
1
0
LINE
5
10E
100
AcDbEntity
8
1
62
256
6
ByLayer
370
18
48
1
60
1
100
AcDbLine
10
61.083343
20
-4.325
30
0
11
60.622559
21
-0.825002
31
0
39
0
210
0
220
0
230
1
0
LINE
5
10F
100
AcDbEntity
8
1
62
256
6
ByLayer
370
18
48
1
60
1
100
AcDbLine
10
60.622559
20
-0.825002
30
0
11
61.544126
21
-0.824998
31
0
39
0
210
0
220
0
230
1
0
LINE
5
110
100
AcDbEntity
8
1
62
256
6
ByLayer
370
18
48
1
60
1
100
AcDbLine
10
61.544126
20
-0.824998
30
0
11
61.083343
21
-4.325
31
0
39
0
210
0
220
0
230
1
0
MTEXT
5
FA
100
AcDbEntity
8
SK6
62
256
6
ByLayer
370
13
48
1
60
0
100
AcDbMText
10
-22.41156
20
36.865328
30
0
210
0
220
0
230
1
1
\W0.7181;860.1-0865-027A1-SM 1210
40
3.5
41
0
44
1.084337
50
0
71
7
72
5
7
iso_b_vert
0
MTEXT
5
FE
100
AcDbEntity
8
SK2
62
256
6
ByLayer
370
18
48
1
60
0
100
AcDbMText
10
-50.189796
20
18.409024
30
0
210
0
220
0
230
1
1
%%c
40
3.5
41
0
44
1.084337
50
90
71
7
72
5
7
iso_b_vert
0
MTEXT
5
FF
100
AcDbEntity
8
SK2
62
256
6
ByLayer
370
18
48
1
60
0
100
AcDbMText
10
-50.189796
20
23.63168
30
0
210
0
220
0
230
1
1
\W0.6930;10,000
40
3.5
41
0
44
1.084337
50
90
71
7
72
5
7
iso_b_vert
0
MTEXT
5
108
100
AcDbEntity
8
2
62
256
6
ByLayer
370
18
48
1
60
0
100
AcDbMText
10
59.518709
20
16.32711
30
0
210
0
220
0
230
1
1
%%c
40
3.5
41
0
44
1.084337
50
90
71
7
72
5
7
iso_b_vert
0
MTEXT
5
109
100
AcDbEntity
8
2
62
256
6
ByLayer
370
18
48
1
60
0
100
AcDbMText
10
59.518709
20
21.549766
30
0
210
0
220
0
230
1
1
\W0.7317;8,650
40
3.5
41
0
44
1.084337
50
90
71
7
72
5
7
iso_b_vert
0
HATCH
5
103
100
AcDbEntity
8
SK2
62
256
6
ByLayer
370
13
48
1
60
0
100
AcDbHatch
10
0
20
0
30
0
210
0
220
0
230
1
2
ANSI31
70
0
71
0
91
1
92
5
93
3
72
1
10
-48.6251625675374
20
5
11
-48.1643788259847
21
1.50000169255318
72
1
10
-48.1643788259847
20
1.50000169255318
11
-49.0859463090902
21
1.49999830744682
72
1
10
-49.0859463090902
20
1.49999830744682
11
-48.6251625675374
21
5
97
0
75
0
76
1
52
0
41
0.0062
77
0
78
1
53
45
43
0
44
0
45
-0.0139193969876572
46
0.0139193969876572
79
0
47
0
98
1
10
0
20
0
0
HATCH
5
107
100
AcDbEntity
8
SK2
62
256
6
ByLayer
370
13
48
1
60
0
100
AcDbHatch
10
0
20
0
30
0
210
0
220
0
230
1
2
ANSI31
70
0
71
0
91
1
92
5
93
3
72
1
10
-48.6251625675374
20
-5
11
-49.0859463090902
21
-1.50000169255318
72
1
10
-49.0859463090902
20
-1.50000169255318
11
-48.1643788259847
21
-1.49999830744682
72
1
10
-48.1643788259847
20
-1.49999830744682
11
-48.6251625675374
21
-5
97
0
75
0
76
1
52
0
41
0.0062
77
0
78
1
53
45
43
0
44
0
45
-0.0139193969876572
46
0.0139193969876572
79
0
47
0
98
1
10
0
20
0
0
HATCH
5
10D
100
AcDbEntity
8
2
62
256
6
ByLayer
370
13
48
1
60
0
100
AcDbHatch
10
0
20
0
30
0
210
0
220
0
230
1
2
ANSI31
70
0
71
0
91
1
92
5
93
3
72
1
10
61.083342615295
20
4.32500000000002
11
61.5441263568478
21
0.825001692553201
72
1
10
61.5441263568478
20
0.825001692553201
11
60.6225588737423
21
0.824998307446833
72
1
10
60.6225588737423
20
0.824998307446833
11
61.083342615295
21
4.32500000000002
97
0
75
0
76
1
52
0
41
0.0062
77
0
78
1
53
45
43
0
44
0
45
-0.0139193969876572
46
0.0139193969876572
79
0
47
0
98
1
10
0
20
0
0
HATCH
5
111
100
AcDbEntity
8
2
62
256
6
ByLayer
370
13
48
1
60
0
100
AcDbHatch
10
0
20
0
30
0
210
0
220
0
230
1
2
ANSI31
70
0
71
0
91
1
92
5
93
3
72
1
10
61.083342615295
20
-4.32499999999999
11
60.6225588737423
21
-0.825001692553172
72
1
10
60.6225588737423
20
-0.825001692553172
11
61.5441263568478
21
-0.824998307446805
72
1
10
61.5441263568478
20
-0.824998307446805
11
61.083342615295
21
-4.32499999999999
97
0
75
0
76
1
52
0
41
0.0062
77
0
78
1
53
45
43
0
44
0
45
-0.0139193969876572
46
0.0139193969876572
79
0
47
0
98
1
10
0
20
0
0
DIMENSION
5
113
100
AcDbEntity
8
SK2
62
256
6
ByLayer
370
13
48
1
60
0
100
AcDbDimension
2
_U0
10
47.4
20
-14.538398
30
0
11
23.7
21
-14.538398
31
0
70
32
71
1
72
1
41
1
210
0
220
0
230
1
3
Standard
100
AcDbAlignedDimension
13
0
23
0
33
0
14
47.4
24
-4.325
34
0
50
0
100
AcDbRotatedDimension
1001
ACAD
1000
DSTYLE
1002
{
1070
   371
1070
    13
1070
   372
1070
    13
1070
   170
1070
     0
1070
   144
1040
1.0
1070
   277
1070
     2
1070
   278
1070
    44
1070
   146
1040
1.0
1070
   345
1005
16
1070
   347
1005
16
1070
   346
1005
16
1070
   344
1005
0
1070
   343
1005
0
1070
   172
1070
     1
1070
    76
1070
     0
1070
    75
1070
     0
1070
   282
1070
     0
1070
   281
1070
     0
1070
    71
1070
     0
1070
    74
1070
     0
1070
   279
1070
     0
1070
   173
1070
     1
1070
   340
1005
FB
1070
   271
1070
     2
1070
   272
1070
     2
1070
    77
1070
     1
1070
    73
1070
     1
1070
   171
1070
     3
1070
   274
1070
     4
1070
   177
1070
    35
1070
   176
1070
    35
1070
   178
1070
    35
1070
    48
1040
-0.1
1070
    41
1040
3.5
1070
   147
1040
1.75
1070
    42
1040
1.5875
1070
    44
1040
2.0
1070
   140
1040
3.5
1002
}
1001
ACAD_DSTYLE_DIM_LINETYPE
1070
   380
1005
16
1001
ACAD_DSTYLE_DIM_EXT1_LINETYPE
1070
   381
1005
16
1001
ACAD_DSTYLE_DIM_EXT2_LINETYPE
1070
   382
1005
16
0
DIMENSION
5
12C
100
AcDbEntity
8
SK2
62
256
6
ByLayer
370
13
48
1
60
0
100
AcDbDimension
2
_U1
10
49
20
-33.692985
30
0
11
4.5
21
-33.692985
31
0
70
32
71
1
72
1
41
1
210
0
220
0
230
1
3
Standard
100
AcDbAlignedDimension
13
-40
23
-5
33
0
14
49
24
0
34
0
50
0
100
AcDbRotatedDimension
1001
ACAD
1000
DSTYLE
1002
{
1070
   371
1070
    13
1070
   372
1070
    13
1070
   170
1070
     0
1070
   144
1040
1.0
1070
   277
1070
     2
1070
   278
1070
    44
1070
   146
1040
1.0
1070
   345
1005
16
1070
   347
1005
16
1070
   346
1005
16
1070
   344
1005
0
1070
   343
1005
0
1070
   172
1070
     1
1070
    76
1070
     0
1070
    75
1070
     0
1070
   282
1070
     0
1070
   281
1070
     0
1070
    71
1070
     0
1070
    74
1070
     0
1070
   279
1070
     0
1070
   173
1070
     1
1070
   340
1005
FB
1070
   271
1070
     2
1070
   272
1070
     2
1070
    77
1070
     1
1070
    73
1070
     1
1070
   171
1070
     3
1070
   274
1070
     4
1070
   177
1070
    35
1070
   176
1070
    35
1070
   178
1070
    35
1070
    48
1040
-0.1
1070
    41
1040
3.5
1070
   147
1040
1.75
1070
    42
1040
1.5875
1070
    44
1040
2.0
1070
   140
1040
3.5
1002
}
1001
ACAD_DSTYLE_DIM_LINETYPE
1070
   380
1005
16
1001
ACAD_DSTYLE_DIM_EXT1_LINETYPE
1070
   381
1005
16
1001
ACAD_DSTYLE_DIM_EXT2_LINETYPE
1070
   382
1005
16
0
DIMENSION
5
144
100
AcDbEntity
8
SK2
62
256
6
ByLayer
370
13
48
1
60
0
100
AcDbDimension
2
_U2
10
49
20
15.934119
30
0
11
32.88325
21
15.934119
31
0
70
32
71
1
72
1
41
1
210
0
220
0
230
1
3
Standard
100
AcDbAlignedDimension
13
16.7665
23
4.325
33
0
14
49
24
0
34
0
50
0
100
AcDbRotatedDimension
1001
ACAD
1000
DSTYLE
1002
{
1070
   371
1070
    13
1070
   372
1070
    13
1070
   170
1070
     0
1070
   144
1040
1.0
1070
   277
1070
     2
1070
   278
1070
    44
1070
   146
1040
1.0
1070
   345
1005
16
1070
   347
1005
16
1070
   346
1005
16
1070
   344
1005
0
1070
   343
1005
0
1070
   172
1070
     1
1070
    76
1070
     0
1070
    75
1070
     0
1070
   282
1070
     0
1070
   281
1070
     0
1070
    71
1070
     0
1070
    74
1070
     0
1070
   279
1070
     0
1070
   173
1070
     1
1070
   340
1005
FB
1070
   271
1070
     2
1070
   272
1070
     2
1070
    77
1070
     1
1070
    73
1070
     1
1070
   171
1070
     3
1070
   274
1070
     4
1070
   177
1070
    35
1070
   176
1070
    35
1070
   178
1070
    35
1070
    48
1040
-0.1
1070
    41
1040
3.5
1070
   147
1040
1.75
1070
    42
1040
1.5875
1070
    44
1040
2.0
1070
   140
1040
3.5
1002
}
1001
ACAD_DSTYLE_DIM_LINETYPE
1070
   380
1005
16
1001
ACAD_DSTYLE_DIM_EXT1_LINETYPE
1070
   381
1005
16
1001
ACAD_DSTYLE_DIM_EXT2_LINETYPE
1070
   382
1005
16
0
DIMENSION
5
15C
100
AcDbEntity
8
SK2
62
256
6
ByLayer
370
13
48
1
60
0
100
AcDbDimension
2
_U3
10
47.4
20
-17.127503
30
0
11
66.333333
21
-17.127503
31
0
70
32
71
1
72
1
41
1
210
0
220
0
230
1
3
Standard
100
AcDbAlignedDimension
13
49
23
0
33
0
14
47.4
24
-4.325
34
0
50
0
100
AcDbRotatedDimension
1001
ACAD
1000
DSTYLE
1002
{
1070
   371
1070
    13
1070
   372
1070
    13
1070
   170
1070
     0
1070
   144
1040
1.0
1070
   277
1070
     2
1070
   278
1070
    44
1070
   146
1040
1.0
1070
   345
1005
16
1070
   347
1005
16
1070
   346
1005
16
1070
   344
1005
0
1070
   343
1005
0
1070
   172
1070
     1
1070
    76
1070
     0
1070
    75
1070
     0
1070
   282
1070
     0
1070
   281
1070
     0
1070
    71
1070
     0
1070
    74
1070
     0
1070
   279
1070
     0
1070
   173
1070
     1
1070
   340
1005
FB
1070
   271
1070
     2
1070
   272
1070
     2
1070
    77
1070
     1
1070
    73
1070
     1
1070
   171
1070
     3
1070
   274
1070
     4
1070
   177
1070
    35
1070
   176
1070
    35
1070
   178
1070
    35
1070
    48
1040
-0.1
1070
    41
1040
3.5
1070
   147
1040
1.75
1070
    42
1040
1.5875
1070
    44
1040
2.0
1070
   140
1040
3.5
1002
}
1001
ACAD_DSTYLE_DIM_LINETYPE
1070
   380
1005
16
1001
ACAD_DSTYLE_DIM_EXT1_LINETYPE
1070
   381
1005
16
1001
ACAD_DSTYLE_DIM_EXT2_LINETYPE
1070
   382
1005
16
0
DIMENSION
5
176
100
AcDbEntity
8
SK2
62
256
6
ByLayer
370
13
48
1
60
0
100
AcDbDimension
2
_U4
10
47.4
20
-23.343428
30
0
11
3.7
21
-23.343428
31
0
70
32
71
1
72
1
41
1
210
0
220
0
230
1
3
Standard
100
AcDbAlignedDimension
13
-40
23
-5
33
0
14
47.4
24
-4.325
34
0
50
0
100
AcDbRotatedDimension
1001
ACAD
1000
DSTYLE
1002
{
1070
   371
1070
    13
1070
   372
1070
    13
1070
   170
1070
     0
1070
   144
1040
1.0
1070
   277
1070
     2
1070
   278
1070
    44
1070
   146
1040
1.0
1070
   345
1005
16
1070
   347
1005
16
1070
   346
1005
16
1070
   344
1005
0
1070
   343
1005
0
1070
   172
1070
     1
1070
    76
1070
     0
1070
    75
1070
     0
1070
   282
1070
     0
1070
   281
1070
     0
1070
    71
1070
     0
1070
    74
1070
     0
1070
   279
1070
     0
1070
   173
1070
     1
1070
   340
1005
FB
1070
   271
1070
     2
1070
   272
1070
     2
1070
    77
1070
     1
1070
    73
1070
     1
1070
   171
1070
     3
1070
   274
1070
     4
1070
   177
1070
    35
1070
   176
1070
    35
1070
   178
1070
    35
1070
    48
1040
-0.1
1070
    41
1040
3.5
1070
   147
1040
1.75
1070
    42
1040
1.5875
1070
    44
1040
2.0
1070
   140
1040
3.5
1002
}
1001
ACAD_DSTYLE_DIM_LINETYPE
1070
   380
1005
16
1001
ACAD_DSTYLE_DIM_EXT1_LINETYPE
1070
   381
1005
16
1001
ACAD_DSTYLE_DIM_EXT2_LINETYPE
1070
   382
1005
16
0
ENDSEC
0
SECTION
2
OBJECTS
0
DICTIONARY
5
1fe
330
0
100
AcDbDictionary
280
0
281
1
3
ACAD_GROUP
350
1ff
3
ACAD_MLINESTYLE
350
200
0
DICTIONARY
5
1ff
330
0
100
AcDbDictionary
280
0
281
1
0
DICTIONARY
5
200
330
0
100
AcDbDictionary
280
0
281
1
3
Standard
350
18
0
MLINESTYLE
5
18
330
200
100
AcDbMlineStyle
2
Standard
70
0
3

62
256
51
90
52
90
71
2
49
-0.5
62
256
6
ByLayer
49
0.5
62
256
6
ByLayer
0
RASTERVARIABLES
5
1ec
330

100
AcDbRasterVariables
90
0
70
1
71
1
72
1
0
ENDSEC
0
EOF
