0
SECTION
2
HEADER
9
$ACADVER
1
AC1015
9
$DWGCODEPAGE
3
ANSI_1252
9
$HANDSEED
5
20a
9
$ANGBASE
50
0
9
$ANGDIR
70
0
9
$ATTMODE
70
1
9
$AUNITS
70
0
9
$AUPREC
70
0
9
$CECOLOR
62
256
9
$CELTSCALE
40
1
9
$CELTYPE
6
ByLayer
9
$CELWEIGHT
370
18
9
$CLAYER
8
0
9
$CMLJUST
70
0
9
$CMLSCALE
40
1
9
$CMLSTYLE
2
Standard
9
$DIMSTYLE
2
Standard
9
$TEXTSIZE
40
0.2
9
$TEXTSTYLE
7
Standard
9
$LUNITS
70
2
9
$LUPREC
70
4
9
$EXTNAMES
290
1
9
$INSUNITS
70
4
9
$LTSCALE
40
1
9
$LWDISPLAY
290
1
9
$PDMODE
70
0
9
$PDSIZE
40
0
9
$PLINEGEN
70
0
0
ENDSEC
0
SECTION
2
CLASSES
0
CLASS
1
RASTERVARIABLES
2
AcDbRasterVariables
3
ISM
90
0
280
0
281
0
0
ENDSEC
0
SECTION
2
TABLES
0
TABLE
2
VPORT
5
200
100
AcDbSymbolTable
0
VPORT
5
1
100
AcDbSymbolTableRecord
100
AcDbViewportTableRecord
2
*Active
70
0
10
0
20
0
11
1
21
1
12
-1
22
1
13
0
23
0
14
0.5
24
0.5
15
10
25
10
16
0
26
0
36
1
17
0
27
0
37
0
0
ENDTAB
0
TABLE
2
LTYPE
5
201
100
AcDbSymbolTable
0
LTYPE
5
14
100
AcDbSymbolTableRecord
100
AcDbLinetypeTableRecord
70
0
2
ByBlock
3

72
65
73
0
40
0
0
LTYPE
5
15
100
AcDbSymbolTableRecord
100
AcDbLinetypeTableRecord
70
0
2
ByLayer
3

72
65
73
0
40
0
0
LTYPE
5
16
100
AcDbSymbolTableRecord
100
AcDbLinetypeTableRecord
70
0
2
Continuous
3
Solid line
72
65
73
0
40
0
0
LTYPE
5
6E
100
AcDbSymbolTableRecord
100
AcDbLinetypeTableRecord
70
0
2
CENTER
3
____ _ ____ _ ____ _ ____
72
65
73
4
40
47.5
49
22
74
0
49
-8.5
74
0
49
8.5
74
0
49
-8.5
74
0
0
LTYPE
5
6F
100
AcDbSymbolTableRecord
100
AcDbLinetypeTableRecord
70
0
2
DASHED
3
__ __ __ __ __ __ __ __ __
72
65
73
2
40
25.72
49
12.86
74
0
49
-12.86
74
0
0
ENDTAB
0
TABLE
2
LAYER
5
202
100
AcDbSymbolTable
0
LAYER
5
10
100
AcDbSymbolTableRecord
100
AcDbLayerTableRecord
2
0
70
0
62
7
6
Continuous
290
1
370
-3
390
0
0
LAYER
5
71
100
AcDbSymbolTableRecord
100
AcDbLayerTableRecord
2
80
70
0
62
-6
6
Continuous
290
1
370
-3
390
0
0
LAYER
5
73
100
AcDbSymbolTableRecord
100
AcDbLayerTableRecord
2
81
70
0
62
-3
6
Continuous
290
1
370
-3
390
0
0
LAYER
5
75
100
AcDbSymbolTableRecord
100
AcDbLayerTableRecord
2
1
70
0
62
4
6
Continuous
290
1
370
-3
390
0
0
LAYER
5
92
100
AcDbSymbolTableRecord
100
AcDbLayerTableRecord
2
4
70
0
62
-2
6
CENTER
290
1
370
-3
390
0
0
LAYER
5
AB
100
AcDbSymbolTableRecord
100
AcDbLayerTableRecord
2
2
70
0
62
7
6
Continuous
290
1
370
-3
390
0
0
LAYER
5
115
100
AcDbSymbolTableRecord
100
AcDbLayerTableRecord
2
Defpoints
70
0
62
7
6
Continuous
290
0
370
-3
390
0
0
LAYER
5
1ec
100
AcDbSymbolTableRecord
100
AcDbLayerTableRecord
2
SK1
70
0
62
4
6
Continuous
290
1
370
-3
390
0
0
LAYER
5
1ed
100
AcDbSymbolTableRecord
100
AcDbLayerTableRecord
2
SK4
70
0
62
2
6
CENTER
290
1
370
-3
390
0
0
LAYER
5
1ee
100
AcDbSymbolTableRecord
100
AcDbLayerTableRecord
2
SK2
70
0
62
7
6
Continuous
290
1
370
-3
390
0
0
LAYER
5
1ef
100
AcDbSymbolTableRecord
100
AcDbLayerTableRecord
2
SK6
70
0
62
5
6
Continuous
290
1
370
-3
390
0
0
ENDTAB
0
TABLE
2
STYLE
5
203
100
AcDbSymbolTable
0
STYLE
5
11
100
AcDbSymbolTableRecord
100
AcDbTextStyleTableRecord
2
Standard
3
txt
70
0
71
0
40
0
41
1
42
0
50
0
0
STYLE
5
FA
100
AcDbSymbolTableRecord
100
AcDbTextStyleTableRecord
2
iso_b_vert
3
simplex.shx
70
0
71
0
40
0
41
1
42
0
50
0
0
STYLE
5
FB
100
AcDbSymbolTableRecord
100
AcDbTextStyleTableRecord
2
DWGDirectTextStyle
3
simplex
70
0
71
0
40
0
41
1
42
0
50
0
0
ENDTAB
0
TABLE
2
DIMSTYLE
5
204
100
AcDbSymbolTable
100
AcDbDimStyleTable
0
DIMSTYLE
105
27
100
AcDbSymbolTableRecord
100
AcDbDimStyleTableRecord
2
Standard
70
0
3
<>
41
0.18
42
0.0625
44
0.18
140
0.18
147
0.09
73
0
74
0
77
1
271
2
275
0
278
52
280
0
340
11
0
ENDTAB
0
TABLE
2
VIEW
5
205
100
AcDbSymbolTable
0
ENDTAB
0
TABLE
2
UCS
5
206
100
AcDbSymbolTable
0
ENDTAB
0
TABLE
2
APPID
5
207
100
AcDbSymbolTable
0
APPID
5
12
100
AcDbSymbolTableRecord
100
AcDbRegAppTableRecord
2
ACAD
70
0
0
APPID
5
111
100
AcDbSymbolTableRecord
100
AcDbRegAppTableRecord
2
ACAD_DSTYLE_DIMBREAK
70
0
0
APPID
5
1AB
100
AcDbSymbolTableRecord
100
AcDbRegAppTableRecord
2
ACAD_DSTYLE_DIM_LINETYPE
70
0
0
APPID
5
1AC
100
AcDbSymbolTableRecord
100
AcDbRegAppTableRecord
2
ACAD_DSTYLE_DIM_EXT1_LINETYPE
70
0
0
APPID
5
1AD
100
AcDbSymbolTableRecord
100
AcDbRegAppTableRecord
2
ACAD_DSTYLE_DIM_EXT2_LINETYPE
70
0
0
APPID
5
1E8
100
AcDbSymbolTableRecord
100
AcDbRegAppTableRecord
2
ACAD_MLEADERVER
70
0
0
ENDTAB
0
TABLE
2
BLOCK_RECORD
5
208
100
AcDbSymbolTable
0
BLOCK_RECORD
5
1F
100
AcDbSymbolTableRecord
100
AcDbBlockTableRecord
2
*Model_Space
340
0
70
0
0
BLOCK_RECORD
5
1B
100
AcDbSymbolTableRecord
100
AcDbBlockTableRecord
2
*Paper_Space
340
0
70
0
0
BLOCK_RECORD
5
23
100
AcDbSymbolTableRecord
100
AcDbBlockTableRecord
2
*Paper_Space0
340
0
70
0
0
BLOCK_RECORD
5
116
100
AcDbSymbolTableRecord
100
AcDbBlockTableRecord
2
*D1
340
0
70
0
0
BLOCK_RECORD
5
122
100
AcDbSymbolTableRecord
100
AcDbBlockTableRecord
2
_U0
340
0
70
0
0
BLOCK_RECORD
5
12E
100
AcDbSymbolTableRecord
100
AcDbBlockTableRecord
2
*D3
340
0
70
0
0
BLOCK_RECORD
5
13A
100
AcDbSymbolTableRecord
100
AcDbBlockTableRecord
2
_U1
340
0
70
0
0
BLOCK_RECORD
5
146
100
AcDbSymbolTableRecord
100
AcDbBlockTableRecord
2
*D5
340
0
70
0
0
BLOCK_RECORD
5
152
100
AcDbSymbolTableRecord
100
AcDbBlockTableRecord
2
_U2
340
0
70
0
0
BLOCK_RECORD
5
15E
100
AcDbSymbolTableRecord
100
AcDbBlockTableRecord
2
*D7
340
0
70
0
0
BLOCK_RECORD
5
16C
100
AcDbSymbolTableRecord
100
AcDbBlockTableRecord
2
_U3
340
0
70
0
0
BLOCK_RECORD
5
178
100
AcDbSymbolTableRecord
100
AcDbBlockTableRecord
2
*D9
340
0
70
0
0
BLOCK_RECORD
5
184
100
AcDbSymbolTableRecord
100
AcDbBlockTableRecord
2
_U4
340
0
70
0
0
ENDTAB
0
ENDSEC
0
SECTION
2
BLOCKS
0
BLOCK
5
20
100
AcDbEntity
8
0
100
AcDbBlockBegin
2
*Model_Space
70
0
10
0
20
0
30
0
3
*Model_Space
0
ENDBLK
5
21
100
AcDbEntity
8
0
100
AcDbBlockEnd
0
BLOCK
5
1C
100
AcDbEntity
8
0
100
AcDbBlockBegin
2
*Paper_Space
70
0
10
0
20
0
30
0
3
*Paper_Space
0
ENDBLK
5
1D
100
AcDbEntity
8
0
100
AcDbBlockEnd
0
BLOCK
5
24
100
AcDbEntity
8
0
100
AcDbBlockBegin
2
*Paper_Space0
70
0
10
0
20
0
30
0
3
*Paper_Space0
0
ENDBLK
5
25
100
AcDbEntity
8
0
100
AcDbBlockEnd
0
BLOCK
5
117
100
AcDbEntity
8
0
100
AcDbBlockBegin
2
*D1
70
1
10
0
20
0
30
0
3
*D1
0
LINE
5
119
100
AcDbEntity
8
0
62
256
6
ByLayer
370
-2
48
1
60
0
100
AcDbLine
10
0
20
-1.5875
30
0
11
0
21
-14.913398
31
0
39
0
210
0
220
0
230
1
0
LINE
5
11A
100
AcDbEntity
8
0
62
256
6
ByLayer
370
-2
48
1
60
0
100
AcDbLine
10
29
20
-4.2875
30
0
11
29
21
-14.913398
31
0
39
0
210
0
220
0
230
1
0
LINE
5
11B
100
AcDbEntity
8
0
62
256
6
ByLayer
370
-2
48
1
60
0
100
AcDbLine
10
3.5
20
-12.913398
30
0
11
25.5
21
-12.913398
31
0
39
0
210
0
220
0
230
1
0
SOLID
5
11C
100
AcDbEntity
8
0
62
256
6
ByLayer
370
-1
48
1
60
0
100
AcDbTrace
10
3.5
20
-12.330065
30
0
11
3.5
21
-13.496732
31
0
12
0
22
-12.913398
32
0
13
0
23
-12.913398
33
0
39
0
210
0
220
0
230
1
0
SOLID
5
11D
100
AcDbEntity
8
0
62
256
6
ByLayer
370
-1
48
1
60
0
100
AcDbTrace
10
25.5
20
-13.496732
30
0
11
25.5
21
-12.330065
31
0
12
29
22
-12.913398
32
0
13
29
23
-12.913398
33
0
39
0
210
0
220
0
230
1
0
MTEXT
5
11E
100
AcDbEntity
8
0
62
256
6
ByLayer
370
18
48
1
60
0
100
AcDbMText
10
14.5
20
-5.913398
30
0
210
0
220
0
230
1
1
\A1;29.00
40
3.5
41
0
44
1
50
0
71
5
72
5
7
iso_b_vert
0
POINT
5
11F
100
AcDbEntity
8
Defpoints
62
0
6
ByLayer
370
-1
48
1
60
0
100
AcDbPoint
10
0
20
0
30
0
39
0
210
0
220
0
230
1
50
360
0
POINT
5
120
100
AcDbEntity
8
Defpoints
62
0
6
ByLayer
370
-1
48
1
60
0
100
AcDbPoint
10
29
20
-2.7
30
0
39
0
210
0
220
0
230
1
50
360
0
POINT
5
121
100
AcDbEntity
8
Defpoints
62
0
6
ByLayer
370
-1
48
1
60
0
100
AcDbPoint
10
29
20
-12.913398
30
0
39
0
210
0
220
0
230
1
50
360
0
ENDBLK
5
118
100
AcDbEntity
8
0
100
AcDbBlockEnd
0
BLOCK
5
129
100
AcDbEntity
8
0
100
AcDbBlockBegin
2
_U0
70
0
10
0
20
0
30
0
3
_U0
0
MTEXT
5
123
100
AcDbEntity
8
SK2
62
256
6
ByLayer
370
13
48
1
60
0
100
AcDbMText
10
9.362701
20
-11.880765
30
0
210
0
220
0
230
1
1
\W0.7317;29,00
40
3.5
41
0
44
1.084337
50
0
71
7
72
5
7
iso_b_vert
0
LINE
5
124
100
AcDbEntity
8
SK2
62
256
6
ByLayer
370
13
48
1
60
0
100
AcDbLine
10
0
20
-1.5875
30
0
11
0
21
-14.913398
31
0
39
0
210
0
220
0
230
1
0
LINE
5
125
100
AcDbEntity
8
SK2
62
256
6
ByLayer
370
13
48
1
60
0
100
AcDbLine
10
29
20
-4.2875
30
0
11
29
21
-14.913398
31
0
39
0
210
0
220
0
230
1
0
LINE
5
126
100
AcDbEntity
8
SK2
62
256
6
ByLayer
370
13
48
1
60
0
100
AcDbLine
10
0
20
-12.913398
30
0
11
29
21
-12.913398
31
0
39
0
210
0
220
0
230
1
0
SOLID
5
127
100
AcDbEntity
8
SK2
62
256
6
ByLayer
370
18
48
1
60
0
100
AcDbTrace
10
0
20
-12.913398
30
0
11
3.499998
21
-12.452615
31
0
12
3.500002
22
-13.374182
32
0
13
3.500002
23
-13.374182
33
0
39
0
210
0
220
0
230
1
0
SOLID
5
128
100
AcDbEntity
8
SK2
62
256
6
ByLayer
370
18
48
1
60
0
100
AcDbTrace
10
29
20
-12.913398
30
0
11
25.500002
21
-13.374182
31
0
12
25.499998
22
-12.452615
32
0
13
25.499998
23
-12.452615
33
0
39
0
210
0
220
0
230
1
0
ENDBLK
5
12A
100
AcDbEntity
8
0
100
AcDbBlockEnd
0
BLOCK
5
12F
100
AcDbEntity
8
0
100
AcDbBlockBegin
2
*D3
70
1
10
0
20
0
30
0
3
*D3
0
LINE
5
131
100
AcDbEntity
8
0
62
256
6
ByLayer
370
-2
48
1
60
0
100
AcDbLine
10
-36
20
-4.5875
30
0
11
-36
21
-33.692985
31
0
39
0
210
0
220
0
230
1
0
LINE
5
132
100
AcDbEntity
8
0
62
256
6
ByLayer
370
-2
48
1
60
0
100
AcDbLine
10
30
20
-1.5875
30
0
11
30
21
-33.692985
31
0
39
0
210
0
220
0
230
1
0
LINE
5
133
100
AcDbEntity
8
0
62
256
6
ByLayer
370
-2
48
1
60
0
100
AcDbLine
10
-32.5
20
-31.692985
30
0
11
26.5
21
-31.692985
31
0
39
0
210
0
220
0
230
1
0
SOLID
5
134
100
AcDbEntity
8
0
62
256
6
ByLayer
370
-1
48
1
60
0
100
AcDbTrace
10
-32.5
20
-31.109652
30
0
11
-32.5
21
-32.276319
31
0
12
-36
22
-31.692985
32
0
13
-36
23
-31.692985
33
0
39
0
210
0
220
0
230
1
0
SOLID
5
135
100
AcDbEntity
8
0
62
256
6
ByLayer
370
-1
48
1
60
0
100
AcDbTrace
10
26.5
20
-32.276319
30
0
11
26.5
21
-31.109652
31
0
12
30
22
-31.692985
32
0
13
30
23
-31.692985
33
0
39
0
210
0
220
0
230
1
0
MTEXT
5
136
100
AcDbEntity
8
0
62
256
6
ByLayer
370
18
48
1
60
0
100
AcDbMText
10
-3
20
-24.692985
30
0
210
0
220
0
230
1
1
\A1;66.00
40
3.5
41
0
44
1
50
0
71
5
72
5
7
iso_b_vert
0
POINT
5
137
100
AcDbEntity
8
Defpoints
62
0
6
ByLayer
370
-1
48
1
60
0
100
AcDbPoint
10
-36
20
-3
30
0
39
0
210
0
220
0
230
1
50
360
0
POINT
5
138
100
AcDbEntity
8
Defpoints
62
0
6
ByLayer
370
-1
48
1
60
0
100
AcDbPoint
10
30
20
0
30
0
39
0
210
0
220
0
230
1
50
360
0
POINT
5
139
100
AcDbEntity
8
Defpoints
62
0
6
ByLayer
370
-1
48
1
60
0
100
AcDbPoint
10
30
20
-31.692985
30
0
39
0
210
0
220
0
230
1
50
360
0
ENDBLK
5
130
100
AcDbEntity
8
0
100
AcDbBlockEnd
0
BLOCK
5
141
100
AcDbEntity
8
0
100
AcDbBlockBegin
2
_U1
70
0
10
0
20
0
30
0
3
_U1
0
MTEXT
5
13B
100
AcDbEntity
8
SK2
62
256
6
ByLayer
370
13
48
1
60
0
100
AcDbMText
10
-8.137299
20
-30.660352
30
0
210
0
220
0
230
1
1
\W0.7317;66,00
40
3.5
41
0
44
1.084337
50
0
71
7
72
5
7
iso_b_vert
0
LINE
5
13C
100
AcDbEntity
8
SK2
62
256
6
ByLayer
370
13
48
1
60
0
100
AcDbLine
10
-36
20
-4.5875
30
0
11
-36
21
-33.692985
31
0
39
0
210
0
220
0
230
1
0
LINE
5
13D
100
AcDbEntity
8
SK2
62
256
6
ByLayer
370
13
48
1
60
0
100
AcDbLine
10
30
20
-1.5875
30
0
11
30
21
-33.692985
31
0
39
0
210
0
220
0
230
1
0
LINE
5
13E
100
AcDbEntity
8
SK2
62
256
6
ByLayer
370
13
48
1
60
0
100
AcDbLine
10
-36
20
-31.692985
30
0
11
30
21
-31.692985
31
0
39
0
210
0
220
0
230
1
0
SOLID
5
13F
100
AcDbEntity
8
SK2
62
256
6
ByLayer
370
18
48
1
60
0
100
AcDbTrace
10
-36
20
-31.692985
30
0
11
-32.500002
21
-31.232202
31
0
12
-32.499998
22
-32.153769
32
0
13
-32.499998
23
-32.153769
33
0
39
0
210
0
220
0
230
1
0
SOLID
5
140
100
AcDbEntity
8
SK2
62
256
6
ByLayer
370
18
48
1
60
0
100
AcDbTrace
10
30
20
-31.692985
30
0
11
26.500002
21
-32.153769
31
0
12
26.499998
22
-31.232202
32
0
13
26.499998
23
-31.232202
33
0
39
0
210
0
220
0
230
1
0
ENDBLK
5
142
100
AcDbEntity
8
0
100
AcDbBlockEnd
0
BLOCK
5
147
100
AcDbEntity
8
0
100
AcDbBlockBegin
2
*D5
70
1
10
0
20
0
30
0
3
*D5
0
LINE
5
149
100
AcDbEntity
8
0
62
256
6
ByLayer
370
-2
48
1
60
0
100
AcDbLine
10
12.4224
20
4.2875
30
0
11
12.4224
21
16.309119
31
0
39
0
210
0
220
0
230
1
0
LINE
5
14A
100
AcDbEntity
8
0
62
256
6
ByLayer
370
-2
48
1
60
0
100
AcDbLine
10
30
20
1.5875
30
0
11
30
21
16.309119
31
0
39
0
210
0
220
0
230
1
0
LINE
5
14B
100
AcDbEntity
8
0
62
256
6
ByLayer
370
-2
48
1
60
0
100
AcDbLine
10
15.9224
20
14.309119
30
0
11
26.5
21
14.309119
31
0
39
0
210
0
220
0
230
1
0
SOLID
5
14C
100
AcDbEntity
8
0
62
256
6
ByLayer
370
-1
48
1
60
0
100
AcDbTrace
10
15.9224
20
14.892453
30
0
11
15.9224
21
13.725786
31
0
12
12.4224
22
14.309119
32
0
13
12.4224
23
14.309119
33
0
39
0
210
0
220
0
230
1
0
SOLID
5
14D
100
AcDbEntity
8
0
62
256
6
ByLayer
370
-1
48
1
60
0
100
AcDbTrace
10
26.5
20
13.725786
30
0
11
26.5
21
14.892453
31
0
12
30
22
14.309119
32
0
13
30
23
14.309119
33
0
39
0
210
0
220
0
230
1
0
MTEXT
5
14E
100
AcDbEntity
8
0
62
256
6
ByLayer
370
18
48
1
60
0
100
AcDbMText
10
21.2112
20
21.309119
30
0
210
0
220
0
230
1
1
\A1;17.58
40
3.5
41
0
44
1
50
0
71
5
72
5
7
iso_b_vert
0
POINT
5
14F
100
AcDbEntity
8
Defpoints
62
0
6
ByLayer
370
-1
48
1
60
0
100
AcDbPoint
10
12.4224
20
2.7
30
0
39
0
210
0
220
0
230
1
50
360
0
POINT
5
150
100
AcDbEntity
8
Defpoints
62
0
6
ByLayer
370
-1
48
1
60
0
100
AcDbPoint
10
30
20
0
30
0
39
0
210
0
220
0
230
1
50
360
0
POINT
5
151
100
AcDbEntity
8
Defpoints
62
0
6
ByLayer
370
-1
48
1
60
0
100
AcDbPoint
10
30
20
14.309119
30
0
39
0
210
0
220
0
230
1
50
360
0
ENDBLK
5
148
100
AcDbEntity
8
0
100
AcDbBlockEnd
0
BLOCK
5
159
100
AcDbEntity
8
0
100
AcDbBlockBegin
2
_U2
70
0
10
0
20
0
30
0
3
_U2
0
MTEXT
5
153
100
AcDbEntity
8
SK2
62
256
6
ByLayer
370
13
48
1
60
0
100
AcDbMText
10
16.511335
20
15.341753
30
0
210
0
220
0
230
1
1
\W0.6713;17,58
40
3.5
41
0
44
1.084337
50
0
71
7
72
5
7
iso_b_vert
0
LINE
5
154
100
AcDbEntity
8
SK2
62
256
6
ByLayer
370
13
48
1
60
0
100
AcDbLine
10
12.4224
20
4.2875
30
0
11
12.4224
21
16.309119
31
0
39
0
210
0
220
0
230
1
0
LINE
5
155
100
AcDbEntity
8
SK2
62
256
6
ByLayer
370
13
48
1
60
0
100
AcDbLine
10
30
20
1.5875
30
0
11
30
21
16.309119
31
0
39
0
210
0
220
0
230
1
0
LINE
5
156
100
AcDbEntity
8
SK2
62
256
6
ByLayer
370
13
48
1
60
0
100
AcDbLine
10
12.4224
20
14.309119
30
0
11
30
21
14.309119
31
0
39
0
210
0
220
0
230
1
0
SOLID
5
157
100
AcDbEntity
8
SK2
62
256
6
ByLayer
370
18
48
1
60
0
100
AcDbTrace
10
12.4224
20
14.309119
30
0
11
15.922398
21
14.769903
31
0
12
15.922402
22
13.848335
32
0
13
15.922402
23
13.848335
33
0
39
0
210
0
220
0
230
1
0
SOLID
5
158
100
AcDbEntity
8
SK2
62
256
6
ByLayer
370
18
48
1
60
0
100
AcDbTrace
10
30
20
14.309119
30
0
11
26.500002
21
13.848335
31
0
12
26.499998
22
14.769903
32
0
13
26.499998
23
14.769903
33
0
39
0
210
0
220
0
230
1
0
ENDBLK
5
15A
100
AcDbEntity
8
0
100
AcDbBlockEnd
0
BLOCK
5
15F
100
AcDbEntity
8
0
100
AcDbBlockBegin
2
*D7
70
1
10
0
20
0
30
0
3
*D7
0
LINE
5
161
100
AcDbEntity
8
0
62
256
6
ByLayer
370
-2
48
1
60
0
100
AcDbLine
10
30
20
-1.5875
30
0
11
30
21
-17.502503
31
0
39
0
210
0
220
0
230
1
0
LINE
5
162
100
AcDbEntity
8
0
62
256
6
ByLayer
370
-2
48
1
60
0
100
AcDbLine
10
29
20
-4.2875
30
0
11
29
21
-17.502503
31
0
39
0
210
0
220
0
230
1
0
LINE
5
163
100
AcDbEntity
8
0
62
256
6
ByLayer
370
-2
48
1
60
0
100
AcDbLine
10
30
20
-15.502503
30
0
11
57.666667
21
-15.502503
31
0
39
0
210
0
220
0
230
1
0
LINE
5
164
100
AcDbEntity
8
0
62
256
6
ByLayer
370
-2
48
1
60
0
100
AcDbLine
10
33.5
20
-15.502503
30
0
11
37
21
-15.502503
31
0
39
0
210
0
220
0
230
1
0
LINE
5
165
100
AcDbEntity
8
0
62
256
6
ByLayer
370
-2
48
1
60
0
100
AcDbLine
10
25.5
20
-15.502503
30
0
11
22
21
-15.502503
31
0
39
0
210
0
220
0
230
1
0
SOLID
5
166
100
AcDbEntity
8
0
62
256
6
ByLayer
370
-1
48
1
60
0
100
AcDbTrace
10
33.5
20
-14.91917
30
0
11
33.5
21
-16.085837
31
0
12
30
22
-15.502503
32
0
13
30
23
-15.502503
33
0
39
0
210
0
220
0
230
1
0
SOLID
5
167
100
AcDbEntity
8
0
62
256
6
ByLayer
370
-1
48
1
60
0
100
AcDbTrace
10
25.5
20
-16.085837
30
0
11
25.5
21
-14.91917
31
0
12
29
22
-15.502503
32
0
13
29
23
-15.502503
33
0
39
0
210
0
220
0
230
1
0
MTEXT
5
168
100
AcDbEntity
8
0
62
256
6
ByLayer
370
18
48
1
60
0
100
AcDbMText
10
47.333333
20
-8.502503
30
0
210
0
220
0
230
1
1
\A1;1.00
40
3.5
41
0
44
1
50
0
71
5
72
5
7
iso_b_vert
0
POINT
5
169
100
AcDbEntity
8
Defpoints
62
0
6
ByLayer
370
-1
48
1
60
0
100
AcDbPoint
10
30
20
0
30
0
39
0
210
0
220
0
230
1
50
360
0
POINT
5
16A
100
AcDbEntity
8
Defpoints
62
0
6
ByLayer
370
-1
48
1
60
0
100
AcDbPoint
10
29
20
-2.7
30
0
39
0
210
0
220
0
230
1
50
360
0
POINT
5
16B
100
AcDbEntity
8
Defpoints
62
0
6
ByLayer
370
-1
48
1
60
0
100
AcDbPoint
10
29
20
-15.502503
30
0
39
0
210
0
220
0
230
1
50
360
0
ENDBLK
5
160
100
AcDbEntity
8
0
100
AcDbBlockEnd
0
BLOCK
5
173
100
AcDbEntity
8
0
100
AcDbBlockBegin
2
_U3
70
0
10
0
20
0
30
0
3
_U3
0
MTEXT
5
16D
100
AcDbEntity
8
SK2
62
256
6
ByLayer
370
13
48
1
60
0
100
AcDbMText
10
36.589293
20
-14.46987
30
0
210
0
220
0
230
1
1
\W0.6367;1,00
40
3.5
41
0
44
1.084337
50
0
71
7
72
5
7
iso_b_vert
0
LINE
5
16E
100
AcDbEntity
8
SK2
62
256
6
ByLayer
370
13
48
1
60
0
100
AcDbLine
10
30
20
-1.5875
30
0
11
30
21
-17.502503
31
0
39
0
210
0
220
0
230
1
0
LINE
5
16F
100
AcDbEntity
8
SK2
62
256
6
ByLayer
370
13
48
1
60
0
100
AcDbLine
10
29
20
-4.2875
30
0
11
29
21
-17.502503
31
0
39
0
210
0
220
0
230
1
0
LINE
5
170
100
AcDbEntity
8
SK2
62
256
6
ByLayer
370
13
48
1
60
0
100
AcDbLine
10
20.25
20
-15.502503
30
0
11
43.559058
21
-15.502503
31
0
39
0
210
0
220
0
230
1
0
SOLID
5
171
100
AcDbEntity
8
SK2
62
256
6
ByLayer
370
18
48
1
60
0
100
AcDbTrace
10
30
20
-15.502503
30
0
11
33.499998
21
-15.041719
31
0
12
33.500002
22
-15.963287
32
0
13
33.500002
23
-15.963287
33
0
39
0
210
0
220
0
230
1
0
SOLID
5
172
100
AcDbEntity
8
SK2
62
256
6
ByLayer
370
18
48
1
60
0
100
AcDbTrace
10
29
20
-15.502503
30
0
11
25.500002
21
-15.963287
31
0
12
25.499998
22
-15.041719
32
0
13
25.499998
23
-15.041719
33
0
39
0
210
0
220
0
230
1
0
ENDBLK
5
174
100
AcDbEntity
8
0
100
AcDbBlockEnd
0
BLOCK
5
179
100
AcDbEntity
8
0
100
AcDbBlockBegin
2
*D9
70
1
10
0
20
0
30
0
3
*D9
0
LINE
5
17B
100
AcDbEntity
8
0
62
256
6
ByLayer
370
-2
48
1
60
0
100
AcDbLine
10
-36
20
-4.5875
30
0
11
-36
21
-23.343428
31
0
39
0
210
0
220
0
230
1
0
LINE
5
17C
100
AcDbEntity
8
0
62
256
6
ByLayer
370
-2
48
1
60
0
100
AcDbLine
10
29
20
-4.2875
30
0
11
29
21
-23.343428
31
0
39
0
210
0
220
0
230
1
0
LINE
5
17D
100
AcDbEntity
8
0
62
256
6
ByLayer
370
-2
48
1
60
0
100
AcDbLine
10
-32.5
20
-21.343428
30
0
11
25.5
21
-21.343428
31
0
39
0
210
0
220
0
230
1
0
SOLID
5
17E
100
AcDbEntity
8
0
62
256
6
ByLayer
370
-1
48
1
60
0
100
AcDbTrace
10
-32.5
20
-20.760095
30
0
11
-32.5
21
-21.926762
31
0
12
-36
22
-21.343428
32
0
13
-36
23
-21.343428
33
0
39
0
210
0
220
0
230
1
0
SOLID
5
17F
100
AcDbEntity
8
0
62
256
6
ByLayer
370
-1
48
1
60
0
100
AcDbTrace
10
25.5
20
-21.926762
30
0
11
25.5
21
-20.760095
31
0
12
29
22
-21.343428
32
0
13
29
23
-21.343428
33
0
39
0
210
0
220
0
230
1
0
MTEXT
5
180
100
AcDbEntity
8
0
62
256
6
ByLayer
370
18
48
1
60
0
100
AcDbMText
10
-3.5
20
-14.343428
30
0
210
0
220
0
230
1
1
\A1;65.00
40
3.5
41
0
44
1
50
0
71
5
72
5
7
iso_b_vert
0
POINT
5
181
100
AcDbEntity
8
Defpoints
62
0
6
ByLayer
370
-1
48
1
60
0
100
AcDbPoint
10
-36
20
-3
30
0
39
0
210
0
220
0
230
1
50
360
0
POINT
5
182
100
AcDbEntity
8
Defpoints
62
0
6
ByLayer
370
-1
48
1
60
0
100
AcDbPoint
10
29
20
-2.7
30
0
39
0
210
0
220
0
230
1
50
360
0
POINT
5
183
100
AcDbEntity
8
Defpoints
62
0
6
ByLayer
370
-1
48
1
60
0
100
AcDbPoint
10
29
20
-21.343428
30
0
39
0
210
0
220
0
230
1
50
360
0
ENDBLK
5
17A
100
AcDbEntity
8
0
100
AcDbBlockEnd
0
BLOCK
5
18B
100
AcDbEntity
8
0
100
AcDbBlockBegin
2
_U4
70
0
10
0
20
0
30
0
3
_U4
0
MTEXT
5
185
100
AcDbEntity
8
SK2
62
256
6
ByLayer
370
13
48
1
60
0
100
AcDbMText
10
-8.637299
20
-20.310795
30
0
210
0
220
0
230
1
1
\W0.7317;65,00
40
3.5
41
0
44
1.084337
50
0
71
7
72
5
7
iso_b_vert
0
LINE
5
186
100
AcDbEntity
8
SK2
62
256
6
ByLayer
370
13
48
1
60
0
100
AcDbLine
10
-36
20
-4.5875
30
0
11
-36
21
-23.343428
31
0
39
0
210
0
220
0
230
1
0
LINE
5
187
100
AcDbEntity
8
SK2
62
256
6
ByLayer
370
13
48
1
60
0
100
AcDbLine
10
29
20
-4.2875
30
0
11
29
21
-23.343428
31
0
39
0
210
0
220
0
230
1
0
LINE
5
188
100
AcDbEntity
8
SK2
62
256
6
ByLayer
370
13
48
1
60
0
100
AcDbLine
10
-36
20
-21.343428
30
0
11
29
21
-21.343428
31
0
39
0
210
0
220
0
230
1
0
SOLID
5
189
100
AcDbEntity
8
SK2
62
256
6
ByLayer
370
18
48
1
60
0
100
AcDbTrace
10
-36
20
-21.343428
30
0
11
-32.500002
21
-20.882645
31
0
12
-32.499998
22
-21.804212
32
0
13
-32.499998
23
-21.804212
33
0
39
0
210
0
220
0
230
1
0
SOLID
5
18A
100
AcDbEntity
8
SK2
62
256
6
ByLayer
370
18
48
1
60
0
100
AcDbTrace
10
29
20
-21.343428
30
0
11
25.500002
21
-21.804212
31
0
12
25.499998
22
-20.882645
32
0
13
25.499998
23
-20.882645
33
0
39
0
210
0
220
0
230
1
0
ENDBLK
5
18C
100
AcDbEntity
8
0
100
AcDbBlockEnd
0
ENDSEC
0
SECTION
2
ENTITIES
0
ARC
5
B4
100
AcDbEntity
8
1
62
256
6
ByLayer
370
18
48
1
60
0
100
AcDbCircle
39
0
10
0.978067
20
-3.466248
30
0
40
0.800000000000001
210
0
220
0
230
1
100
AcDbArc
50
89.931245
51
127.682981
0
ARC
5
B5
100
AcDbEntity
8
1
62
256
6
ByLayer
370
18
48
1
60
0
100
AcDbCircle
39
0
10
0.978067
20
3.466248
30
0
40
0.800000000000001
210
0
220
0
230
1
100
AcDbArc
50
232.317019
51
270.068755
0
ARC
5
B6
100
AcDbEntity
8
1
62
256
6
ByLayer
370
18
48
1
60
0
100
AcDbCircle
39
0
10
0
20
-2.2
30
0
40
0.799999999999997
210
0
220
0
230
1
100
AcDbArc
50
270
51
307.682981
0
ARC
5
B7
100
AcDbEntity
8
1
62
256
6
ByLayer
370
18
48
1
60
0
100
AcDbCircle
39
0
10
0
20
2.2
30
0
40
0.799999999999997
210
0
220
0
230
1
100
AcDbArc
50
52.317019
51
90
0
ELLIPSE
5
B8
100
AcDbEntity
8
1
62
256
6
ByLayer
370
18
48
1
60
0
100
AcDbEllipse
10
29.977534
20
-0.01782
30
0
11
0.034086129827192
21
0.0966259033226781
31
0
210
0
220
0
230
1
40
0.0884
41
-2.16048506374961
42
-1.12269457795451
0
ELLIPSE
5
B9
100
AcDbEntity
8
1
62
256
6
ByLayer
370
13
48
1
60
0
100
AcDbEllipse
10
4.250308
20
-0.231629
30
0
11
0.0453995000598219
21
0.0891004230872011
31
0
210
0
220
0
230
1
40
0.038006
41
1.4918278781069
42
3.03363293783191
0
ELLIPSE
5
BA
100
AcDbEntity
8
1
62
256
6
ByLayer
370
18
48
1
60
0
100
AcDbEllipse
10
29.581576
20
-1.18794
30
0
11
0.29288237741127
21
0.799707144560336
31
0
210
0
220
0
230
1
40
0.073902
41
-1.46777973967119
42
-0.722970617015289
0
ELLIPSE
5
BB
100
AcDbEntity
8
1
62
256
6
ByLayer
370
18
48
1
60
0
100
AcDbEllipse
10
30.032376
20
0.052178
30
0
11
0.0499942226275557
21
0.149068811315446
31
0
210
0
220
0
230
1
40
0.054101
41
2.10449772444886
42
2.37570418488774
0
ELLIPSE
5
BC
100
AcDbEntity
8
1
62
256
6
ByLayer
370
18
48
1
60
0
100
AcDbEllipse
10
30.032377
20
-0.052178
30
0
11
0.0499942272832807
21
-0.14906882360988
31
0
210
0
220
0
230
1
40
0.054101
41
-2.37570420652844
42
-2.10449776248495
0
ELLIPSE
5
BD
100
AcDbEntity
8
1
62
256
6
ByLayer
370
18
48
1
60
0
100
AcDbEllipse
10
29.581576
20
1.18794
30
0
11
0.292882377358627
21
-0.799707144436883
31
0
210
0
220
0
230
1
40
0.073902
41
0.722970617018377
42
1.46777973977583
0
ELLIPSE
5
BE
100
AcDbEntity
8
1
62
256
6
ByLayer
370
18
48
1
60
0
100
AcDbEllipse
10
30.000452
20
-0.00118
30
0
11
0.988871534216773
21
-2.70008607741382
31
0
210
0
220
0
230
1
40
0.073902
41
2.86222395393493
42
2.92753026399246
0
ELLIPSE
5
BF
100
AcDbEntity
8
1
62
256
6
ByLayer
370
13
48
1
60
0
100
AcDbEllipse
10
4.181396
20
-0.198298
30
0
11
-0.0416269840290862
21
-0.0909241123170427
31
0
210
0
220
0
230
1
40
0.44723
41
-1.44027923094476
42
-0.18885329844763
0
ELLIPSE
5
C0
100
AcDbEntity
8
1
62
256
6
ByLayer
370
18
48
1
60
0
100
AcDbEllipse
10
30.000452
20
0.00118
30
0
11
0.988871607173221
21
2.70008628854011
31
0
210
0
220
0
230
1
40
0.073902
41
-2.92753027226236
42
-2.8622239648217
0
ELLIPSE
5
C1
100
AcDbEntity
8
1
62
256
6
ByLayer
370
18
48
1
60
0
100
AcDbEllipse
10
20.697571
20
1.18794
30
0
11
9.14397571540732
21
-0.596547346662629
31
0
210
0
220
0
230
1
40
0.058294
41
0.020794270107771
42
0.298685144387429
0
POINT
5
70
100
AcDbEntity
8
80
62
256
6
ByLayer
370
18
48
1
60
0
100
AcDbPoint
10
0
20
0
30
0
39
0
210
0
220
0
230
1
50
360
0
POINT
5
72
100
AcDbEntity
8
81
62
256
6
ByLayer
370
18
48
1
60
0
100
AcDbPoint
10
30
20
0
30
0
39
0
210
0
220
0
230
1
50
360
0
POINT
5
74
100
AcDbEntity
8
1
62
256
6
ByLayer
370
18
48
1
60
1
100
AcDbPoint
10
29
20
-2.7
30
0
39
0
210
0
220
0
230
1
50
360
0
POINT
5
76
100
AcDbEntity
8
1
62
256
6
ByLayer
370
18
48
1
60
1
100
AcDbPoint
10
-36
20
-3
30
0
39
0
210
0
220
0
230
1
50
360
0
POINT
5
77
100
AcDbEntity
8
1
62
256
6
ByLayer
370
18
48
1
60
1
100
AcDbPoint
10
12.4224
20
2.7
30
0
39
0
210
0
220
0
230
1
50
360
0
POINT
5
78
100
AcDbEntity
8
1
62
256
6
ByLayer
370
18
48
1
60
1
100
AcDbPoint
10
29
20
-2.7
30
0
39
0
210
0
220
0
230
1
50
360
0
POINT
5
79
100
AcDbEntity
8
1
62
256
6
ByLayer
370
18
48
1
60
1
100
AcDbPoint
10
-36
20
-3
30
0
39
0
210
0
220
0
230
1
50
360
0
POINT
5
7A
100
AcDbEntity
8
1
62
256
6
ByLayer
370
18
48
1
60
1
100
AcDbPoint
10
29
20
-2.7
30
0
39
0
210
0
220
0
230
1
50
360
0
SPLINE
5
C2
100
AcDbEntity
8
SK1
62
256
6
ByLayer
370
18
48
1
60
0
100
AcDbSpline
70
4
71
3
72
12
73
8
40
0
40
0
40
0
40
0
40
0.25
40
0.25
40
0.499999999999999
40
0.499999999999999
40
1
40
1
40
1
40
1
41
1
10
-35.65
20
-2.27046967960581
30
0
41
1
10
-35.65
20
-2.26387802732833
30
0
41
1
10
-35.6543359418175
20
-2.25318517129449
30
0
41
1
10
-35.6670061648031
20
-2.22969262956946
30
0
41
1
10
-35.6754132169202
20
-2.21664151143838
30
0
41
1
10
-35.7033957755317
20
-2.17715545365971
30
0
41
1
10
-35.7260247133437
20
-2.14977624742718
30
0
41
1
10
-35.7500000000001
20
-2.12464999331624
30
0
0
SPLINE
5
C3
100
AcDbEntity
8
SK1
62
256
6
ByLayer
370
18
48
1
60
0
100
AcDbSpline
70
4
71
3
72
8
73
4
40
0
40
0
40
0
40
0
40
1
40
1
40
1
40
1
41
1
10
-35.75
20
-2.12464999331618
30
0
41
1
10
-35.8336396431336
20
-2.03699511113487
30
0
41
1
10
-35.9170117443558
20
-1.94909840087789
30
0
41
1
10
-36
20
-1.86085473699029
30
0
0
SPLINE
5
C4
100
AcDbEntity
8
SK1
62
256
6
ByLayer
370
18
48
1
60
0
100
AcDbSpline
70
4
71
3
72
12
73
8
40
0
40
0
40
0
40
0
40
0.500000000000002
40
0.500000000000002
40
0.750000000000001
40
0.750000000000001
40
1
40
1
40
1
40
1
41
1
10
-35.75
20
2.29927493978764
30
0
41
1
10
-35.7260151107904
20
2.324411257436
30
0
41
1
10
-35.7033639221375
20
2.34992089800568
30
0
41
1
10
-35.6754777620904
20
2.38367534396681
30
0
41
1
10
-35.667028628867
20
2.39440087483854
30
0
41
1
10
-35.6543320679982
20
2.41206516591308
30
0
41
1
10
-35.65
20
2.41916149977004
30
0
41
1
10
-35.65
20
2.42181129988097
30
0
0
SPLINE
5
C5
100
AcDbEntity
8
SK1
62
256
6
ByLayer
370
18
48
1
60
0
100
AcDbSpline
70
4
71
3
72
12
73
8
40
0
40
0
40
0
40
0
40
0.500000000000002
40
0.500000000000002
40
0.750000000000001
40
0.750000000000001
40
1
40
1
40
1
40
1
41
1
10
-35.75
20
-2.29927493978764
30
0
41
1
10
-35.7260151107904
20
-2.324411257436
30
0
41
1
10
-35.7033639221375
20
-2.34992089800568
30
0
41
1
10
-35.6754777620904
20
-2.38367534396681
30
0
41
1
10
-35.667028628867
20
-2.39440087483854
30
0
41
1
10
-35.6543320679982
20
-2.41206516591308
30
0
41
1
10
-35.65
20
-2.41916149977004
30
0
41
1
10
-35.65
20
-2.42181129988097
30
0
0
SPLINE
5
C6
100
AcDbEntity
8
SK1
62
256
6
ByLayer
370
18
48
1
60
0
100
AcDbSpline
70
4
71
3
72
8
73
4
40
0
40
0
40
0
40
0
40
1
40
1
40
1
40
1
41
1
10
-36
20
-2.03547968346163
30
0
41
1
10
-35.9170130920615
20
-2.12372191429725
30
0
41
1
10
-35.8336408488576
20
-2.21161879399975
30
0
41
1
10
-35.7499999999999
20
-2.29927493978755
30
0
0
SPLINE
5
C7
100
AcDbEntity
8
SK1
62
256
6
ByLayer
370
18
48
1
60
0
100
AcDbSpline
70
4
71
3
72
8
73
4
40
0
40
0
40
0
40
0
40
1
40
1
40
1
40
1
41
1
10
-36
20
2.03547968346163
30
0
41
1
10
-35.9170130920615
20
2.12372191429725
30
0
41
1
10
-35.8336408488576
20
2.21161879399975
30
0
41
1
10
-35.7499999999999
20
2.29927493978755
30
0
0
SPLINE
5
C8
100
AcDbEntity
8
1
62
256
6
ByLayer
370
13
48
1
60
0
100
AcDbSpline
70
4
71
3
72
18
73
14
40
0
40
0
40
0
40
0
40
0.125
40
0.125
40
0.25
40
0.25
40
0.5
40
0.5
40
0.625
40
0.625
40
0.75
40
0.75
40
1
40
1
40
1
40
1
41
1
10
4.25051384168501
20
-0.222880027790467
30
0
41
1
10
4.2505601845925
20
-0.106119657080171
30
0
41
1
10
4.25060245412192
20
0.0103787243215265
30
0
41
1
10
4.25068059621202
20
0.242862597602766
30
0
41
1
10
4.25071666226026
20
0.359553665932197
30
0
41
1
10
4.25081606836488
20
0.703383338936106
30
0
41
1
10
4.25087044995178
20
0.922637739619887
30
0
41
1
10
4.25094454944073
20
1.23657311396423
30
0
41
1
10
4.25096786337701
20
1.3382691822446
30
0
41
1
10
4.25101229913213
20
1.53190130272523
30
0
41
1
10
4.25103361728918
20
1.62465166308698
30
0
41
1
10
4.25109499308624
20
1.8839412279564
30
0
41
1
10
4.25113324903657
20
2.03417424567485
30
0
41
1
10
4.25117055065544
20
2.16035297638143
30
0
0
SPLINE
5
C9
100
AcDbEntity
8
1
62
256
6
ByLayer
370
18
48
1
60
0
100
AcDbSpline
70
4
71
3
72
18
73
14
40
0
40
0
40
0
40
0
40
0.125
40
0.125
40
0.25
40
0.25
40
0.375
40
0.375
40
0.5
40
0.5
40
0.75
40
0.75
40
1
40
1
40
1
40
1
41
1
10
29.647189596224
20
-0.946327778051284
30
0
41
1
10
29.6474502836324
20
-0.955598812755966
30
0
41
1
10
29.6449542445348
20
-0.971902608052119
30
0
41
1
10
29.6343169387262
20
-1.01825680058755
30
0
41
1
10
29.6262690649211
20
-1.04781193986523
30
0
41
1
10
29.6057451478589
20
-1.11608133360775
30
0
41
1
10
29.5933109097821
20
-1.1546368508609
30
0
41
1
10
29.5661084646989
20
-1.23476613947895
30
0
41
1
10
29.5511917758028
20
-1.27678085171351
30
0
41
1
10
29.5057545157468
20
-1.40004916742401
30
0
41
1
10
29.47395385479
20
-1.48016864843919
30
0
41
1
10
29.4174626922354
20
-1.61210215537935
30
0
41
1
10
29.392558876493
20
-1.66457803739215
30
0
41
1
10
29.3745283497337
20
-1.69545839594411
30
0
0
SPLINE
5
CA
100
AcDbEntity
8
1
62
256
6
ByLayer
370
18
48
1
60
0
100
AcDbSpline
70
4
71
3
72
8
73
4
40
0
40
0
40
0
40
0
40
1
40
1
40
1
40
1
41
1
10
29.0800194360556
20
-2.64324837875165
30
0
41
1
10
29.0788595823474
20
-2.64643349563221
30
0
41
1
10
29.0776995631543
20
-2.64961854827047
30
0
41
1
10
29.0765393800379
20
-2.65280353241656
30
0
0
SPLINE
5
CB
100
AcDbEntity
8
1
62
256
6
ByLayer
370
18
48
1
60
0
100
AcDbSpline
70
4
71
3
72
10
73
6
40
0
40
0
40
0
40
0
40
0.5
40
0.5
40
1
40
1
40
1
40
1
41
1
10
4.04518028462402
20
2.28470919406772
30
0
41
1
10
4.06943430143269
20
2.2573414575829
30
0
41
1
10
4.10293248545577
20
2.23114625063954
30
0
41
1
10
4.17583679159407
20
2.18840375950583
30
0
41
1
10
4.21455384682284
20
2.17190188790252
30
0
41
1
10
4.25117055066042
20
2.16035297643913
30
0
0
SPLINE
5
CC
100
AcDbEntity
8
1
62
256
6
ByLayer
370
18
48
1
60
0
100
AcDbSpline
70
4
71
3
72
14
73
10
40
0
40
0
40
0
40
0
40
0.220254522789767
40
0.220254522789767
40
0.455067379490681
40
0.455067379490681
40
0.924693092892506
40
0.924693092892506
40
1
40
1
40
1
40
1
41
1
10
11.9846854011892
20
-2.57167918051292
30
0
41
1
10
11.7427642412679
20
-2.57166344450931
30
0
41
1
10
11.5004026944353
20
-2.56327517948159
30
0
41
1
10
10.997849047015
20
-2.52864945375612
30
0
41
1
10
10.7368547266648
20
-2.50120052916176
30
0
41
1
10
9.95514322391986
20
-2.39096086882879
30
0
41
1
10
9.43624027776454
20
-2.28043568658276
30
0
41
1
10
8.83093307267364
20
-2.11439872863571
30
0
41
1
10
8.74732858704505
20
-2.09063258930306
30
0
41
1
10
8.66380199004072
20
-2.06608922109871
30
0
0
SPLINE
5
CD
100
AcDbEntity
8
1
62
256
6
ByLayer
370
13
48
1
60
0
100
AcDbSpline
70
4
71
3
72
16
73
12
40
0
40
0
40
0
40
0
40
0.119608210849019
40
0.119608210849019
40
0.295686568679215
40
0.295686568679215
40
0.647843284339608
40
0.647843284339608
40
0.823921642169804
40
0.823921642169804
40
1
40
1
40
1
40
1
41
1
10
8.66380199015009
20
-2.06608922113085
30
0
41
1
10
8.48688609111815
20
-2.01410443775939
30
0
41
1
10
8.31031962047439
20
-1.9586328059012
30
0
41
1
10
7.87544077168255
20
-1.81390069184854
30
0
41
1
10
7.61730863761454
20
-1.72104876319918
30
0
41
1
10
6.84380836861274
20
-1.42514065602933
30
0
41
1
10
6.32942642396307
20
-1.2045556323371
30
0
41
1
10
5.55349591614345
20
-0.849892344723202
30
0
41
1
10
5.29410640061235
20
-0.727768194391189
30
0
41
1
10
4.77256631633185
20
-0.477968734925241
30
0
41
1
10
4.51146142790188
20
-0.350820650777024
30
0
41
1
10
4.25051384168503
20
-0.222880027790467
30
0
0
SPLINE
5
CE
100
AcDbEntity
8
1
62
256
6
ByLayer
370
18
48
1
60
0
100
AcDbSpline
70
4
71
3
72
14
73
10
40
0
40
0
40
0
40
0
40
0.25
40
0.25
40
0.499999999999999
40
0.499999999999999
40
0.75
40
0.75
40
1
40
1
40
1
40
1
41
1
10
29.0995345194657
20
-2.56298841593801
30
0
41
1
10
29.1014059264616
20
-2.5609535444745
30
0
41
1
10
29.1026156769385
20
-2.5607504590391
30
0
41
1
10
29.103318666251
20
-2.56509436216365
30
0
41
1
10
29.1027530026135
20
-2.56968712552438
30
0
41
1
10
29.099421216541
20
-2.58411193792963
30
0
41
1
10
29.0965970130756
20
-2.59409308326343
30
0
41
1
10
29.0892571293552
20
-2.61716937407743
30
0
41
1
10
29.0847563585542
20
-2.63024014184555
30
0
41
1
10
29.0800194360586
20
-2.64324837874329
30
0
0
SPLINE
5
CF
100
AcDbEntity
8
1
62
256
6
ByLayer
370
18
48
1
60
0
100
AcDbSpline
70
4
71
3
72
18
73
14
40
0
40
0
40
0
40
0
40
0.25
40
0.25
40
0.375
40
0.375
40
0.5
40
0.5
40
0.75
40
0.75
40
0.875
40
0.875
40
1
40
1
40
1
40
1
41
1
10
29.0489729647046
20
-2.5899144650945
30
0
41
1
10
28.9909300582017
20
-2.584040967672
30
0
41
1
10
28.9371926867171
20
-2.56560222814869
30
0
41
1
10
28.8636687388262
20
-2.51727574245513
30
0
41
1
10
28.8403677064759
20
-2.49764904848774
30
0
41
1
10
28.7972375781441
20
-2.45208696773656
30
0
41
1
10
28.7772690756072
20
-2.42607550438862
30
0
41
1
10
28.7221976231615
20
-2.33826006826828
30
0
41
1
10
28.6918813822255
20
-2.26677084793138
30
0
41
1
10
28.6569366429585
20
-2.13823177456737
30
0
41
1
10
28.647142671773
20
-2.09202626531274
30
0
41
1
10
28.6315781147553
20
-1.99424503669164
30
0
41
1
10
28.6257533890498
20
-1.94248193162727
30
0
41
1
10
28.6219108975107
20
-1.88781011865737
30
0
0
SPLINE
5
D0
100
AcDbEntity
8
1
62
256
6
ByLayer
370
18
48
1
60
0
100
AcDbSpline
70
4
71
3
72
16
73
12
40
0
40
0
40
0
40
0
40
0.125000000000005
40
0.125000000000005
40
0.25000000000001
40
0.25000000000001
40
0.500000000000007
40
0.500000000000007
40
0.750000000000004
40
0.750000000000004
40
1
40
1
40
1
40
1
41
1
10
29.6704397345742
20
1.12722435532694
30
0
41
1
10
29.6771058447145
20
1.10820168913025
30
0
41
1
10
29.6817156455629
20
1.08887204716359
30
0
41
1
10
29.6860205910268
20
1.0494698232053
30
0
41
1
10
29.6855839492139
20
1.02942662488621
30
0
41
1
10
29.6759846658598
20
0.971972772281788
30
0
41
1
10
29.6579743350872
20
0.936097689095561
30
0
41
1
10
29.6094725507714
20
0.876094407356248
30
0
41
1
10
29.5798505232961
20
0.85148882743124
30
0
41
1
10
29.5156923656866
20
0.808475904000034
30
0
41
1
10
29.4818142528384
20
0.790584969990221
30
0
41
1
10
29.4469230822187
20
0.774659282849456
30
0
0
SPLINE
5
D1
100
AcDbEntity
8
1
62
256
6
ByLayer
370
18
48
1
60
0
100
AcDbSpline
70
4
71
3
72
36
73
32
40
0
40
0
40
0
40
0
40
0.0583504456715163
40
0.0583504456715163
40
0.125611128123551
40
0.125611128123551
40
0.192871810575585
40
0.192871810575585
40
0.26013249302762
40
0.26013249302762
40
0.327393175479655
40
0.327393175479655
40
0.394653857931689
40
0.394653857931689
40
0.461914540383724
40
0.461914540383724
40
0.529175222835758
40
0.529175222835758
40
0.596435905287793
40
0.596435905287793
40
0.663696587739827
40
0.663696587739827
40
0.730957270191862
40
0.730957270191862
40
0.798217952643897
40
0.798217952643897
40
0.865478635095931
40
0.865478635095931
40
0.932739317547966
40
0.932739317547966
40
1
40
1
40
1
40
1
41
1
10
17.4764502345398
20
2.57745982582964
30
0
41
1
10
17.6663545295684
20
2.57736547382854
30
0
41
1
10
17.8567656304828
20
2.57189602286832
30
0
41
1
10
18.2657600737899
20
2.55013699426871
30
0
41
1
10
18.4841836319483
20
2.532310431383
30
0
41
1
10
18.9213873915335
20
2.48235354969643
30
0
41
1
10
19.1399682953642
20
2.45133686966332
30
0
41
1
10
19.5774893375012
20
2.37465475162068
30
0
41
1
10
19.7970826851162
20
2.32929702461894
30
0
41
1
10
20.235085195525
20
2.22732562876325
30
0
41
1
10
20.4535692835752
20
2.17070164118721
30
0
41
1
10
20.8907157140125
20
2.04723698959305
30
0
41
1
10
21.1094648402155
20
1.97934558969416
30
0
41
1
10
21.5473263425785
20
1.83234628466221
30
0
41
1
10
21.7668470678647
20
1.753704648038
30
0
41
1
10
22.2047318366671
20
1.58906379854474
30
0
41
1
10
22.423124887524
20
1.50245149257384
30
0
41
1
10
22.8603350632738
20
1.32059038844261
30
0
41
1
10
23.0792611357153
20
1.22585501620159
30
0
41
1
10
23.5173650263061
20
1.03006464884959
30
0
41
1
10
23.7366202951233
20
0.929414539127293
30
0
41
1
10
24.1741657761178
20
0.724214754235959
30
0
41
1
10
24.3925332412559
20
0.618969174700624
30
0
41
1
10
24.8296167944015
20
0.405937200001404
30
0
41
1
10
25.0484829396831
20
0.298450457040786
30
0
41
1
10
25.4866714181114
20
0.0814472935795152
30
0
41
1
10
25.7057867945137
20
-0.0278511491362963
30
0
41
1
10
26.1434846303538
20
-0.244984929682062
30
0
41
1
10
26.3620192174902
20
-0.353490764389903
30
0
41
1
10
26.7995063548345
20
-0.568045738669639
30
0
41
1
10
27.0188916526855
20
-0.674172510459726
30
0
41
1
10
27.2379397713354
20
-0.777868688182593
30
0
0
SPLINE
5
D2
100
AcDbEntity
8
1
62
256
6
ByLayer
370
13
48
1
60
0
100
AcDbSpline
70
4
71
3
72
10
73
6
40
0
40
0
40
0
40
0
40
0.5
40
0.5
40
1
40
1
40
1
40
1
41
1
10
4.04458970743323
20
-0.15233669029945
30
0
41
1
10
4.05577001593159
20
-0.160401261532797
30
0
41
1
10
4.06927273374103
20
-0.167987837079721
30
0
41
1
10
4.09976545261461
20
-0.181232949975907
30
0
41
1
10
4.11672791806163
20
-0.186949309596344
30
0
41
1
10
4.13566046100433
20
-0.191672609044872
30
0
0
SPLINE
5
D3
100
AcDbEntity
8
1
62
256
6
ByLayer
370
18
48
1
60
0
100
AcDbSpline
70
4
71
3
72
14
73
10
40
0
40
0
40
0
40
0
40
0.25
40
0.25
40
0.5
40
0.5
40
0.75
40
0.75
40
1
40
1
40
1
40
1
41
1
10
28.8776216635831
20
0.750748793962401
30
0
41
1
10
28.8646574681382
20
0.750356263721244
30
0
41
1
10
28.8516671029513
20
0.74787546105938
30
0
41
1
10
28.8292425075632
20
0.73547767000224
30
0
41
1
10
28.8203557325814
20
0.724976707930182
30
0
41
1
10
28.8126290475011
20
0.700123542763663
30
0
41
1
10
28.8132830424284
20
0.686678127337217
30
0
41
1
10
28.818842625096
20
0.661406825300389
30
0
41
1
10
28.8237825601791
20
0.649178240495274
30
0
41
1
10
28.8297940538197
20
0.637554220232232
30
0
0
SPLINE
5
D4
100
AcDbEntity
8
1
62
256
6
ByLayer
370
18
48
1
60
0
100
AcDbSpline
70
4
71
3
72
56
73
52
40
0
40
0
40
0
40
0
40
0.13054507222786
40
0.13054507222786
40
0.275454226856553
40
0.275454226856553
40
0.420363381485246
40
0.420363381485246
40
0.492817958799591
40
0.492817958799591
40
0.565272536113937
40
0.565272536113937
40
0.60149982477111
40
0.60149982477111
40
0.619613469099696
40
0.619613469099696
40
0.624141880181841
40
0.624141880181841
40
0.628670291263987
40
0.628670291263987
40
0.633198702346133
40
0.633198702346133
40
0.637727113428278
40
0.637727113428278
40
0.673954402085449
40
0.673954402085449
40
0.692068046414035
40
0.692068046414035
40
0.710181690742621
40
0.710181690742621
40
0.728295335071207
40
0.728295335071207
40
0.746408979399793
40
0.746408979399793
40
0.764522623728379
40
0.764522623728379
40
0.773579445892672
40
0.773579445892672
40
0.782636268056965
40
0.782636268056965
40
0.800749912385551
40
0.800749912385551
40
0.818863556714138
40
0.818863556714138
40
0.855090845371311
40
0.855090845371311
40
0.891318134028483
40
0.891318134028483
40
0.927545422685656
40
0.927545422685656
40
1
40
1
40
1
40
1
41
1
10
11.1870243077314
20
-2.67847638051833
30
0
41
1
10
10.6601987811319
20
-2.67688646563673
30
0
41
1
10
10.1304392142075
20
-2.64925952817276
30
0
41
1
10
9.00275039741507
20
-2.56067618256472
30
0
41
1
10
8.40368682172951
20
-2.49629605987485
30
0
41
1
10
7.19039838979515
20
-2.36164361903846
30
0
41
1
10
6.57617692014495
20
-2.2915255779493
30
0
41
1
10
5.64229921537299
20
-2.20136372599285
30
0
41
1
10
5.32893898703563
20
-2.17377699623714
30
0
41
1
10
4.70112712813969
20
-2.12616605808091
30
0
41
1
10
4.38614233042975
20
-2.10609457451358
30
0
41
1
10
3.91282465090265
20
-2.08287499487901
30
0
41
1
10
3.75491314275354
20
-2.0762769121925
30
0
41
1
10
3.51783404174145
20
-2.06820045236006
30
0
41
1
10
3.43877581205069
20
-2.06581162351546
30
0
41
1
10
3.3399317228525
20
-2.06321427281296
30
0
41
1
10
3.32016157370958
20
-2.06271422259201
30
0
41
1
10
3.28061860727018
20
-2.06175316433277
30
0
41
1
10
3.26087085092379
20
-2.06142944813291
30
0
41
1
10
3.22232442198532
20
-2.06612163698389
30
0
41
1
10
3.20421698321476
20
-2.0717585259855
30
0
41
1
10
3.16795239673604
20
-2.0816556571713
30
0
41
1
10
3.14986821626385
20
-2.08664344634914
30
0
41
1
10
2.98756372496939
20
-2.13189357169722
30
0
41
1
10
2.84645935485045
20
-2.174656915041
30
0
41
1
10
2.64504593400389
20
-2.24248168301412
30
0
41
1
10
2.57953680967753
20
-2.26573266210278
30
0
41
1
10
2.45284686947051
20
-2.31367802335629
30
0
41
1
10
2.39127601357873
20
-2.33853625948822
30
0
41
1
10
2.27630621302288
20
-2.38909149415775
30
0
41
1
10
2.22304872643392
20
-2.41469141038004
30
0
41
1
10
2.1286155849798
20
-2.46629413593487
30
0
41
1
10
2.08849191459245
20
-2.49180217318215
30
0
41
1
10
2.02879140246702
20
-2.54001672768638
30
0
41
1
10
2.00905931192932
20
-2.56324446967147
30
0
41
1
10
1.99931771139038
20
-2.59262711756327
30
0
41
1
10
1.99917246321107
20
-2.60161596170008
30
0
41
1
10
2.00487138323677
20
-2.61794790661929
30
0
41
1
10
2.01081159316362
20
-2.6253234706104
30
0
41
1
10
2.03628074831661
20
-2.64433849353591
30
0
41
1
10
2.06327467746229
20
-2.65318578978213
30
0
41
1
10
2.13182634457195
20
-2.6648083373388
30
0
41
1
10
2.17250716354849
20
-2.66743143057707
30
0
41
1
10
2.30649864970698
20
-2.66828941638178
30
0
41
1
10
2.41291251118858
20
-2.65952379449234
30
0
41
1
10
2.63694187969864
20
-2.63090996804027
30
0
41
1
10
2.75539821843526
20
-2.61101060624409
30
0
41
1
10
3.00028135913399
20
-2.56316889257644
30
0
41
1
10
3.12719569090902
20
-2.53507260500262
30
0
41
1
10
3.51390359140095
20
-2.44149467075562
30
0
41
1
10
3.77775161452652
20
-2.3673833279762
30
0
41
1
10
4.04518028462388
20
-2.28470919406774
30
0
0
SPLINE
5
D5
100
AcDbEntity
8
1
62
256
6
ByLayer
370
18
48
1
60
0
100
AcDbSpline
70
4
71
3
72
56
73
52
40
0
40
0
40
0
40
0
40
0.0350786234136499
40
0.0350786234136499
40
0.0752836807714145
40
0.0752836807714145
40
0.115488738129179
40
0.115488738129179
40
0.155693795486944
40
0.155693795486944
40
0.195898852844708
40
0.195898852844708
40
0.236103910202473
40
0.236103910202473
40
0.276308967560237
40
0.276308967560237
40
0.316514024918002
40
0.316514024918002
40
0.356719082275767
40
0.356719082275767
40
0.396924139633531
40
0.396924139633531
40
0.437129196991296
40
0.437129196991296
40
0.47733425434906
40
0.47733425434906
40
0.517539311706825
40
0.517539311706825
40
0.537641840385707
40
0.537641840385707
40
0.55774436906459
40
0.55774436906459
40
0.597949426422354
40
0.597949426422354
40
0.638154483780119
40
0.638154483780119
40
0.678359541137883
40
0.678359541137883
40
0.758769655853412
40
0.758769655853412
40
0.798974713211177
40
0.798974713211177
40
0.839179770568942
40
0.839179770568942
40
0.879384827926706
40
0.879384827926706
40
0.919589885284471
40
0.919589885284471
40
0.959794942642235
40
0.959794942642235
40
1
40
1
40
1
40
1
41
1
10
22.5600012769167
20
-1.44531828235404
30
0
41
1
10
22.3692829856524
20
-1.5237241814535
30
0
41
1
10
22.1786237023554
20
-1.59886122605974
30
0
41
1
10
21.7684943808578
20
-1.75310686873681
30
0
41
1
10
21.5489183345887
20
-1.83178542541839
30
0
41
1
10
21.1111114056353
20
-1.97881900260151
30
0
41
1
10
20.8923603873407
20
-2.04674523067709
30
0
41
1
10
20.4551454815753
20
-2.17028351923131
30
0
41
1
10
20.2366034263362
20
-2.22694646549047
30
0
41
1
10
19.7984332106156
20
-2.32900814478566
30
0
41
1
10
19.5788212319783
20
-2.37439218950254
30
0
41
1
10
19.141321607273
20
-2.45112863087925
30
0
41
1
10
18.9227294068518
20
-2.48217391027595
30
0
41
1
10
18.4854606495682
20
-2.5321906512016
30
0
41
1
10
18.2669820439794
20
-2.55005029959804
30
0
41
1
10
17.8288279524958
20
-2.57340391408107
30
0
41
1
10
17.6092640595531
20
-2.57891293450248
30
0
41
1
10
17.1718464466639
20
-2.57535330891295
30
0
41
1
10
16.9533327749476
20
-2.5661260028977
30
0
41
1
10
16.5160625724176
20
-2.53402748544846
30
0
41
1
10
16.2975048313377
20
-2.51183085843746
30
0
41
1
10
15.8593080870442
20
-2.45436836381353
30
0
41
1
10
15.6398695310518
20
-2.41871328953113
30
0
41
1
10
15.2025386300416
20
-2.33436649742248
30
0
41
1
10
14.9840273014428
20
-2.2861499780322
30
0
41
1
10
14.5465938175773
20
-2.17877740894815
30
0
41
1
10
14.3279571142104
20
-2.1192887162187
30
0
41
1
10
13.999227322536
20
-2.02072106549682
30
0
41
1
10
13.8895365896469
20
-1.98580872802262
30
0
41
1
10
13.6703910398722
20
-1.91445279758031
30
0
41
1
10
13.5608526276163
20
-1.87790015118406
30
0
41
1
10
13.2325472631382
20
-1.76457383819888
30
0
41
1
10
13.0139344034261
20
-1.68437388170776
30
0
41
1
10
12.5762007862673
20
-1.51516310506062
30
0
41
1
10
12.3573426741301
20
-1.42519194162875
30
0
41
1
10
11.9185886992702
20
-1.23922164189406
30
0
41
1
10
11.6993971369101
20
-1.14286340789283
30
0
41
1
10
11.0428386785279
20
-0.845913584477358
30
0
41
1
10
10.6054970237779
20
-0.638552449161324
30
0
41
1
10
9.94728553742229
20
-0.316578142638633
30
0
41
1
10
9.72813659482495
20
-0.208873558874444
30
0
41
1
10
9.29013548915754
20
0.0069105720394305
30
0
41
1
10
9.07150209675558
20
0.115417255920903
30
0
41
1
10
8.63350412806892
20
0.330619041304033
30
0
41
1
10
8.41419497881574
20
0.437703068804126
30
0
41
1
10
7.97515119823913
20
0.649622846501813
30
0
41
1
10
7.75592773379523
20
0.753665028976741
30
0
41
1
10
7.3179161030703
20
0.957170952979737
30
0
41
1
10
7.09931070755746
20
1.05694828871566
30
0
41
1
10
6.66133054234638
20
1.24961677669339
30
0
41
1
10
6.44204072225088
20
1.34271529336715
30
0
41
1
10
6.22244553612239
20
1.43234657630677
30
0
0
SPLINE
5
D6
100
AcDbEntity
8
1
62
256
6
ByLayer
370
18
48
1
60
0
100
AcDbSpline
70
4
71
3
72
36
73
32
40
0
40
0
40
0
40
0
40
0.125000000000009
40
0.125000000000009
40
0.187500000000008
40
0.187500000000008
40
0.250000000000008
40
0.250000000000008
40
0.312500000000007
40
0.312500000000007
40
0.375000000000007
40
0.375000000000007
40
0.437500000000006
40
0.437500000000006
40
0.500000000000005
40
0.500000000000005
40
0.562500000000005
40
0.562500000000005
40
0.625000000000004
40
0.625000000000004
40
0.687500000000003
40
0.687500000000003
40
0.750000000000003
40
0.750000000000003
40
0.812500000000002
40
0.812500000000002
40
0.875000000000001
40
0.875000000000001
40
0.937500000000001
40
0.937500000000001
40
1
40
1
40
1
40
1
41
1
10
29.647189596224
20
-0.946327778050971
30
0
41
1
10
29.6249524301654
20
-0.932492456859109
30
0
41
1
10
29.5974594232839
20
-0.933289713184934
30
0
41
1
10
29.551840286935
20
-0.951479537879294
30
0
41
1
10
29.5361061257973
20
-0.960328943197396
30
0
41
1
10
29.5036474974575
20
-0.983255518320334
30
0
41
1
10
29.4867807950349
20
-0.997492582060886
30
0
41
1
10
29.4530304724854
20
-1.03048344498376
30
0
41
1
10
29.4360834128869
20
-1.04924236417421
30
0
41
1
10
29.4020376261335
20
-1.09153496828139
30
0
41
1
10
29.3847588255132
20
-1.11535773893445
30
0
41
1
10
29.351252300654
20
-1.1668268543543
30
0
41
1
10
29.3349632877639
20
-1.19448093980364
30
0
41
1
10
29.3034924783954
20
-1.25436710687936
30
0
41
1
10
29.2885948753431
20
-1.28612525325136
30
0
41
1
10
29.2617712479941
20
-1.35181162213109
30
0
41
1
10
29.2496980860767
20
-1.38622884847317
30
0
41
1
10
29.2304633277252
20
-1.45363888685023
30
0
41
1
10
29.2231085769558
20
-1.48742534458134
30
0
41
1
10
29.2144471298065
20
-1.54934580310041
30
0
41
1
10
29.2130157203563
20
-1.57836616118297
30
0
41
1
10
29.215853842807
20
-1.62802611177514
30
0
41
1
10
29.2201100879461
20
-1.64929822340773
30
0
41
1
10
29.2329695000822
20
-1.68312014671258
30
0
41
1
10
29.2416921896482
20
-1.69607180728457
30
0
41
1
10
29.2620180529106
20
-1.71404338462642
30
0
41
1
10
29.2737384804341
20
-1.719312119665
30
0
41
1
10
29.2996633629307
20
-1.72314855042205
30
0
41
1
10
29.3135401755536
20
-1.72169550187405
30
0
41
1
10
29.342877307648
20
-1.71295105547344
30
0
41
1
10
29.3584746889932
20
-1.70555760929162
30
0
41
1
10
29.3745283497335
20
-1.69545839594443
30
0
0
SPLINE
5
D7
100
AcDbEntity
8
1
62
256
6
ByLayer
370
18
48
1
60
0
100
AcDbSpline
70
4
71
3
72
42
73
38
40
0
40
0
40
0
40
0
40
0.0898872768729638
40
0.0898872768729638
40
0.134830915309445
40
0.134830915309445
40
0.179774553745926
40
0.179774553745926
40
0.269661830618887
40
0.269661830618887
40
0.314605469055368
40
0.314605469055368
40
0.337077288273608
40
0.337077288273608
40
0.359549107491848
40
0.359549107491848
40
0.539323661237774
40
0.539323661237774
40
0.561795480456014
40
0.561795480456014
40
0.584267299674254
40
0.584267299674254
40
0.629210938110735
40
0.629210938110735
40
0.719098214983698
40
0.719098214983698
40
0.76404185342018
40
0.76404185342018
40
0.78651367263842
40
0.78651367263842
40
0.80898549185666
40
0.80898549185666
40
0.898872768729623
40
0.898872768729623
40
0.988760045602585
40
0.988760045602585
40
1
40
1
40
1
40
1
41
1
10
29.0765393800381
20
-2.65280353241727
30
0
41
1
10
28.5541774573532
20
-2.70275782167707
30
0
41
1
10
28.0338979029232
20
-2.71201022513333
30
0
41
1
10
27.2497550682674
20
-2.66499709340567
30
0
41
1
10
26.9880333957791
20
-2.63910323004856
30
0
41
1
10
26.4682466479332
20
-2.56812906269335
30
0
41
1
10
26.2093875093608
20
-2.5230416222675
30
0
41
1
10
25.4340122799744
20
-2.36076321861734
30
0
41
1
10
24.9188209212655
20
-2.21642467718883
30
0
41
1
10
24.1413881735489
20
-1.95309803193305
30
0
41
1
10
23.8815147866767
20
-1.85746928219282
30
0
41
1
10
23.4896629645294
20
-1.70327148896732
30
0
41
1
10
23.3585960005811
20
-1.65005652121519
30
0
41
1
10
23.0975944800731
20
-1.54109290975097
30
0
41
1
10
22.9674222120929
20
-1.48525101868302
30
0
41
1
10
21.7981091306555
20
-0.971760813443581
30
0
41
1
10
20.7748655933974
20
-0.437019399015355
30
0
41
1
10
19.5983612916098
20
0.170093354356055
30
0
41
1
10
19.4672725798592
20
0.237612776815496
30
0
41
1
10
19.2062555290398
20
0.371494662793253
30
0
41
1
10
19.0760786928956
20
0.437991285523253
30
0
41
1
10
18.6862806430667
20
0.635654045107344
30
0
41
1
10
18.4274118026267
20
0.765032534486465
30
0
41
1
10
17.6519494674492
20
1.14259313561004
30
0
41
1
10
17.1363301489685
20
1.37989461806552
30
0
41
1
10
16.3583155657575
20
1.7024182942657
30
0
41
1
10
16.0981313966063
20
1.80421945276137
30
0
41
1
10
15.7057025168229
20
1.94683343303114
30
0
41
1
10
15.5746117572735
20
1.9926506064445
30
0
41
1
10
15.3135818944878
20
2.08006985711751
30
0
41
1
10
15.1834020508565
20
2.12176702078599
30
0
41
1
10
14.5336821127571
20
2.3196999218909
30
0
41
1
10
14.0175778334369
20
2.44419279567543
30
0
41
1
10
12.9838654831664
20
2.61863641616659
30
0
41
1
10
12.4660370229674
20
2.66840604861323
30
0
41
1
10
11.877088654674
20
2.67877086586913
30
0
41
1
10
11.8115789136989
20
2.67928534545351
30
0
41
1
10
11.7461120863925
20
2.67916516956902
30
0
0
SPLINE
5
D8
100
AcDbEntity
8
1
62
256
6
ByLayer
370
18
48
1
60
0
100
AcDbSpline
70
4
71
3
72
8
73
4
40
0
40
0
40
0
40
0
40
1
40
1
40
1
40
1
41
1
10
4.39948714207671
20
-2.11279638390312
30
0
41
1
10
4.34998146646561
20
-2.12892456857998
30
0
41
1
10
4.30054208044922
20
-2.14478119179958
30
0
41
1
10
4.25117055070302
20
-2.16035297642566
30
0
0
SPLINE
5
D9
100
AcDbEntity
8
1
62
256
6
ByLayer
370
18
48
1
60
0
100
AcDbSpline
70
4
71
3
72
34
73
30
40
0
40
0
40
0
40
0
40
0.0056230197613734
40
0.0056230197613734
40
0.0821135567028062
40
0.0821135567028062
40
0.158604093644239
40
0.158604093644239
40
0.235094630585672
40
0.235094630585672
40
0.311585167527105
40
0.311585167527105
40
0.388075704468538
40
0.388075704468538
40
0.46456624140997
40
0.46456624140997
40
0.541056778351403
40
0.541056778351403
40
0.617547315292836
40
0.617547315292836
40
0.694037852234269
40
0.694037852234269
40
0.770528389175702
40
0.770528389175702
40
0.847018926117134
40
0.847018926117134
40
0.923509463058567
40
0.923509463058567
40
1
40
1
40
1
40
1
41
1
10
22.5622241034573
20
1.44876181961044
30
0
41
1
10
22.5745127925775
20
1.45411793279044
30
0
41
1
10
22.586803772421
20
1.45945924781907
30
0
41
1
10
22.7663265343686
20
1.53723382090547
30
0
41
1
10
22.9334346282903
20
1.60705613413083
30
0
41
1
10
23.2668271306127
20
1.74236874564622
30
0
41
1
10
23.4331925303451
20
1.80769574247972
30
0
41
1
10
23.7665508580918
20
1.93184171188062
30
0
41
1
10
23.9334537031336
20
1.99082441775843
30
0
41
1
10
24.2672129426482
20
2.10323515716976
30
0
41
1
10
24.4341446006832
20
2.15683618386333
30
0
41
1
10
24.7682365143179
20
2.2562127294446
30
0
41
1
10
24.9352424691137
20
2.30222568625652
30
0
41
1
10
25.2685614957806
20
2.38756263727922
30
0
41
1
10
25.4348747917789
20
2.42683227524745
30
0
41
1
10
25.7681378384015
20
2.49740863961279
30
0
41
1
10
25.9350785297095
20
2.52877471155986
30
0
41
1
10
26.269034171908
20
2.58402956553917
30
0
41
1
10
26.4359881370125
20
2.6079648634126
30
0
41
1
10
26.7697817492696
20
2.6472869890959
30
0
41
1
10
26.9367398057323
20
2.66280295988895
30
0
41
1
10
27.2701726785624
20
2.68580632549958
30
0
41
1
10
27.4365720213135
20
2.69325402849037
30
0
41
1
10
27.7700391833956
20
2.69976662133098
30
0
41
1
10
27.9372726298516
20
2.69888058310639
30
0
41
1
10
28.2715844414431
20
2.68882757335945
30
0
41
1
10
28.4381204029973
20
2.67959166067428
30
0
41
1
10
28.7714086143847
20
2.65299235776948
30
0
41
1
10
28.9382345208019
20
2.63571401216089
30
0
41
1
10
29.1049426376218
20
2.61437436735076
30
0
0
SPLINE
5
DA
100
AcDbEntity
8
1
62
256
6
ByLayer
370
18
48
1
60
0
100
AcDbSpline
70
4
71
3
72
22
73
18
40
0
40
0
40
0
40
0
40
0.125
40
0.125
40
0.25
40
0.25
40
0.375
40
0.375
40
0.5
40
0.5
40
0.625
40
0.625
40
0.75
40
0.75
40
0.875
40
0.875
40
1
40
1
40
1
40
1
41
1
10
29.104942637621
20
-2.61437436735267
30
0
41
1
10
29.1281438835693
20
-2.5573111950396
30
0
41
1
10
29.1514541480402
20
-2.49960738680301
30
0
41
1
10
29.1984351121386
20
-2.38208171089971
30
0
41
1
10
29.2221498911838
20
-2.32210771490088
30
0
41
1
10
29.2696983508148
20
-2.20095307672514
30
0
41
1
10
29.2934860616598
20
-2.14000697103697
30
0
41
1
10
29.3411137153022
20
-2.01668590406834
30
0
41
1
10
29.3649540690639
20
-1.95429970046394
30
0
41
1
10
29.4126623903642
20
-1.82877189167794
30
0
41
1
10
29.4365394737107
20
-1.76554993935355
30
0
41
1
10
29.4839699527055
20
-1.63875606844462
30
0
41
1
10
29.5075630773762
20
-1.57510624482944
30
0
41
1
10
29.554570280777
20
-1.44743581053109
30
0
41
1
10
29.5780585742808
20
-1.38342217830427
30
0
41
1
10
29.6246054843612
20
-1.25516698536529
30
0
41
1
10
29.647608192485
20
-1.19116835154838
30
0
41
1
10
29.6704814425972
20
-1.12723138140177
30
0
0
SPLINE
5
DB
100
AcDbEntity
8
1
62
256
6
ByLayer
370
18
48
1
60
0
100
AcDbSpline
70
4
71
3
72
38
73
34
40
0
40
0
40
0
40
0
40
0.062499999999992
40
0.062499999999992
40
0.0937499999999907
40
0.0937499999999907
40
0.124999999999989
40
0.124999999999989
40
0.187499999999987
40
0.187499999999987
40
0.218749999999988
40
0.218749999999988
40
0.249999999999988
40
0.249999999999988
40
0.281249999999989
40
0.281249999999989
40
0.31249999999999
40
0.31249999999999
40
0.374999999999991
40
0.374999999999991
40
0.406249999999995
40
0.406249999999995
40
0.437499999999998
40
0.437499999999998
40
0.499999999999999
40
0.499999999999999
40
0.624999999999999
40
0.624999999999999
40
0.749999999999999
40
0.749999999999999
40
0.875
40
0.875
40
1
40
1
40
1
40
1
41
1
10
28.8297940538241
20
0.637554220233937
30
0
41
1
10
28.8665863928082
20
0.566411353009471
30
0
41
1
10
28.9067324267393
20
0.496510827258419
30
0
41
1
10
28.9680208809542
20
0.392350876548647
30
0
41
1
10
28.9891207303437
20
0.358123034220341
30
0
41
1
10
29.0327215849971
20
0.290716359979513
30
0
41
1
10
29.054003006233
20
0.256568403613329
30
0
41
1
10
29.1146167826305
20
0.15196678901583
30
0
41
1
10
29.1512923924007
20
0.080536408500393
30
0
41
1
10
29.194170183093
20
-0.0321217518067556
30
0
41
1
10
29.2064511202435
20
-0.0710152938686974
30
0
41
1
10
29.2253110222316
20
-0.148954238878389
30
0
41
1
10
29.231864838838
20
-0.187926588545281
30
0
41
1
10
29.2379298375614
20
-0.265878333029946
30
0
41
1
10
29.2373546184898
20
-0.304407502101441
30
0
41
1
10
29.227976236735
20
-0.377249883965476
30
0
41
1
10
29.2189383564076
20
-0.412464658565767
30
0
41
1
10
29.1801095085355
20
-0.508720451543866
30
0
41
1
10
29.1386280921913
20
-0.559957980865903
30
0
41
1
10
29.0653567087162
20
-0.619731357586318
30
0
41
1
10
29.0392240476983
20
-0.636986811007574
30
0
41
1
10
28.9843220569858
20
-0.666187530665297
30
0
41
1
10
28.9565033512938
20
-0.680027661379256
30
0
41
1
10
28.8719919327939
20
-0.719263301390896
30
0
41
1
10
28.8143904849603
20
-0.742313162333488
30
0
41
1
10
28.6382441175678
20
-0.802504948169144
30
0
41
1
10
28.5157450434269
20
-0.830670416020808
30
0
41
1
10
28.2681366963331
20
-0.865374426589909
30
0
41
1
10
28.142425610434
20
-0.872216382357152
30
0
41
1
10
27.8879698400978
20
-0.869180453144224
30
0
41
1
10
27.7592201720874
20
-0.859275100933274
30
0
41
1
10
27.4993995824325
20
-0.826670682836465
30
0
41
1
10
27.3685892413074
20
-0.803701641638952
30
0
41
1
10
27.2379397713461
20
-0.777868688187681
30
0
0
SPLINE
5
DC
100
AcDbEntity
8
1
62
256
6
ByLayer
370
13
48
1
60
0
100
AcDbSpline
70
4
71
3
72
8
73
4
40
0
40
0
40
0
40
0
40
1
40
1
40
1
40
1
41
1
10
4.25051384168501
20
-0.222880027790467
30
0
41
1
10
4.21056556445302
20
-0.21112300256857
30
0
41
1
10
4.17154758726653
20
-0.200625745671573
30
0
41
1
10
4.13566046100433
20
-0.1916726090449
30
0
0
SPLINE
5
DD
100
AcDbEntity
8
1
62
256
6
ByLayer
370
18
48
1
60
0
100
AcDbSpline
70
4
71
3
72
22
73
18
40
0
40
0
40
0
40
0
40
0.125
40
0.125
40
0.25
40
0.25
40
0.375
40
0.375
40
0.499999999999999
40
0.499999999999999
40
0.624999999999999
40
0.624999999999999
40
0.75
40
0.75
40
0.875
40
0.875
40
1
40
1
40
1
40
1
41
1
10
29.104942637621
20
2.61437436735267
30
0
41
1
10
29.1281438809092
20
2.55731120158222
30
0
41
1
10
29.1514541449712
20
2.49960739448721
30
0
41
1
10
29.1984351159957
20
2.38208170124426
30
0
41
1
10
29.2221499106516
20
2.32210766545833
30
0
41
1
10
29.2696983566844
20
2.20095306160758
30
0
41
1
10
29.2934860632788
20
2.14000696688629
30
0
41
1
10
29.3411137183585
20
2.01668589611319
30
0
41
1
10
29.3649540778905
20
1.95429967741646
30
0
41
1
10
29.4126624160158
20
1.8287718240079
30
0
41
1
10
29.4365394901624
20
1.76554989557437
30
0
41
1
10
29.483969961638
20
1.6387560443649
30
0
41
1
10
29.5075630879888
20
1.57510621619812
30
0
41
1
10
29.5545703025262
20
1.4474357512689
30
0
41
1
10
29.5780586211539
20
1.38342204968299
30
0
41
1
10
29.624605499514
20
1.25516694308064
30
0
41
1
10
29.6476081985416
20
1.19116833461851
30
0
41
1
10
29.6704814425972
20
1.12723138140174
30
0
0
SPLINE
5
DE
100
AcDbEntity
8
1
62
256
6
ByLayer
370
18
48
1
60
0
100
AcDbSpline
70
4
71
3
72
10
73
6
40
0
40
0
40
0
40
0
40
0.5
40
0.5
40
1
40
1
40
1
40
1
41
1
10
4.13287538188862
20
-0.284110118811697
30
0
41
1
10
4.10844561725798
20
-0.270574502565466
30
0
41
1
10
4.08697880201461
20
-0.252309496099002
30
0
41
1
10
4.05501803185345
20
-0.207199036245896
30
0
41
1
10
4.04458046328068
20
-0.180454499968874
30
0
41
1
10
4.04458970744071
20
-0.152336690275263
30
0
0
SPLINE
5
DF
100
AcDbEntity
8
1
62
256
6
ByLayer
370
18
48
1
60
0
100
AcDbSpline
70
4
71
3
72
14
73
10
40
0
40
0
40
0
40
0
40
0.270794982901134
40
0.270794982901134
40
0.784138883372654
40
0.784138883372654
40
0.912474858490529
40
0.912474858490529
40
1
40
1
40
1
40
1
41
1
10
28.3656745294478
20
-2.59103695599319
30
0
41
1
10
28.0932859495286
20
-2.59185077847025
30
0
41
1
10
27.8215130229224
20
-2.58199412654474
30
0
41
1
10
27.034514214534
20
-2.52327970806556
30
0
41
1
10
26.5194747793025
20
-2.44719913926659
30
0
41
1
10
25.869839202313
20
-2.30712389934419
30
0
41
1
10
25.7394073336421
20
-2.27679600855322
30
0
41
1
10
25.520696697714
20
-2.22241106011674
30
0
41
1
10
25.4321754621109
20
-2.19942541326725
30
0
41
1
10
25.3437887531881
20
-2.17554265873613
30
0
0
SPLINE
5
E0
100
AcDbEntity
8
1
62
256
6
ByLayer
370
13
48
1
60
0
100
AcDbSpline
70
4
71
3
72
26
73
22
40
0
40
0
40
0
40
0
40
0.0131478403917464
40
0.0131478403917464
40
0.0958386736082457
40
0.0958386736082457
40
0.261220340041246
40
0.261220340041246
40
0.343911173257746
40
0.343911173257746
40
0.426602006474245
40
0.426602006474245
40
0.591983672907244
40
0.591983672907244
40
0.757365339340243
40
0.757365339340243
40
0.840056172556743
40
0.840056172556743
40
0.922747005773243
40
0.922747005773243
40
1
40
1
40
1
40
1
41
1
10
25.3437887531662
20
-2.17554265873019
30
0
41
1
10
25.3025761917445
20
-2.16440671419699
30
0
41
1
10
25.2613928781572
20
-2.15307572689039
30
0
41
1
10
24.9613898631042
20
-2.06908633813157
30
0
41
1
10
24.7035974110379
20
-1.98906054869681
30
0
41
1
10
23.9317691787633
20
-1.72869000283217
30
0
41
1
10
23.4193344164384
20
-1.52769352507403
30
0
41
1
10
22.6472838813929
20
-1.19639300733121
30
0
41
1
10
22.3893676865631
20
-1.08096347420439
30
0
41
1
10
21.8712633560313
20
-0.84192628977334
30
0
41
1
10
21.6100854837013
20
-0.717925134226959
30
0
41
1
10
20.8310819573726
20
-0.341309880553553
30
0
41
1
10
20.3167273851655
20
-0.0840992675000791
30
0
41
1
10
19.2891374440511
20
0.424329406979666
30
0
41
1
10
18.7758955234047
20
0.675511981710514
30
0
41
1
10
18.0004612954784
20
1.0346589221887
30
0
41
1
10
17.7408272081563
20
1.15146092365234
30
0
41
1
10
17.2193007475405
20
1.37633169946352
30
0
41
1
10
16.9588276121623
20
1.48378039954775
30
0
41
1
10
16.4545502549455
20
1.68042186312437
30
0
41
1
10
16.2114410958505
20
1.76988934303884
30
0
41
1
10
15.9684952557743
20
1.85322051163098
30
0
0
SPLINE
5
E1
100
AcDbEntity
8
1
62
256
6
ByLayer
370
18
48
1
60
0
100
AcDbSpline
70
4
71
3
72
12
73
8
40
0
40
0
40
0
40
0
40
0.250000000000018
40
0.250000000000018
40
0.500000000000036
40
0.500000000000036
40
1
40
1
40
1
40
1
41
1
10
4.25117055065763
20
-2.16035297643776
30
0
41
1
10
4.23284878518373
20
-2.16613166280601
30
0
41
1
10
4.21433665981729
20
-2.17301760807081
30
0
41
1
10
4.17687097453293
20
-2.18939651707012
30
0
41
1
10
4.15781670582231
20
-2.19898271487389
30
0
41
1
10
4.10326460372119
20
-2.23092361971376
30
0
41
1
10
4.06931630930731
20
-2.25747459748365
30
0
41
1
10
4.04518028462388
20
-2.28470919406774
30
0
0
SPLINE
5
E2
100
AcDbEntity
8
1
62
256
6
ByLayer
370
18
48
1
60
0
100
AcDbSpline
70
4
71
3
72
18
73
14
40
0
40
0
40
0
40
0
40
0.125
40
0.125
40
0.25
40
0.25
40
0.375
40
0.375
40
0.5
40
0.5
40
0.75
40
0.75
40
1
40
1
40
1
40
1
41
1
10
4.0445897074415
20
-0.15233669027495
30
0
41
1
10
4.04462952393081
20
-0.0312275307022389
30
0
41
1
10
4.04466627720362
20
0.089927069704288
30
0
41
1
10
4.04473492376712
20
0.332327769653034
30
0
41
1
10
4.04476635760571
20
0.451960676573663
30
0
41
1
10
4.04482462646632
20
0.686571296522544
30
0
41
1
10
4.04485153458762
20
0.80182270502732
30
0
41
1
10
4.04490229514633
20
1.02817591900091
30
0
41
1
10
4.04492629307109
20
1.14000333088012
30
0
41
1
10
4.04499375366592
20
1.46013041452824
30
0
41
1
10
4.04503337148424
20
1.65544082832943
30
0
41
1
10
4.04511022840455
20
2.00905859980503
30
0
41
1
10
4.04514594489228
20
2.16000681683656
30
0
41
1
10
4.04518028462391
20
2.28470919406774
30
0
0
SPLINE
5
E3
100
AcDbEntity
8
1
62
256
6
ByLayer
370
18
48
1
60
0
100
AcDbSpline
70
4
71
3
72
26
73
22
40
0
40
0
40
0
40
0
40
0.0095932637918299
40
0.0095932637918299
40
0.105525564113502
40
0.105525564113502
40
0.201457864435173
40
0.201457864435173
40
0.297390164756846
40
0.297390164756846
40
0.489254765400191
40
0.489254765400191
40
0.681119366043537
40
0.681119366043537
40
0.729085516204372
40
0.729085516204372
40
0.777051666365207
40
0.777051666365207
40
0.872983966686877
40
0.872983966686877
40
1
40
1
40
1
40
1
41
1
10
15.8071387967265
20
1.90342500421073
30
0
41
1
10
15.8331684822236
20
1.89405127251314
30
0
41
1
10
15.8592001461299
20
1.88460496739819
30
0
41
1
10
16.145575564753
20
1.77990506626804
30
0
41
1
10
16.406402072493
20
1.67742355021534
30
0
41
1
10
16.9285829726989
20
1.46013792724341
30
0
41
1
10
17.1894313227753
20
1.34574189999702
30
0
41
1
10
17.7118105083385
20
1.10729954876751
30
0
41
1
10
17.9716667164558
20
0.983987192925554
30
0
41
1
10
18.747723851796
20
0.605847910539779
30
0
41
1
10
19.2611937859244
20
0.342996738090449
30
0
41
1
10
20.2895036235708
20
-0.186022496167993
30
0
41
1
10
20.8042403944843
20
-0.452394909426886
30
0
41
1
10
21.4544513748311
20
-0.775599142093682
30
0
41
1
10
21.5850989825335
20
-0.839868060911584
30
0
41
1
10
21.8457355726528
20
-0.966421647845294
30
0
41
1
10
21.975675256434
20
-1.02868909169737
30
0
41
1
10
22.3645677533422
20
-1.21210805791975
30
0
41
1
10
22.6226599619839
20
-1.32972814988162
30
0
41
1
10
23.2211422073302
20
-1.59031131633887
30
0
41
1
10
23.5610391019119
20
-1.72917493978429
30
0
41
1
10
23.9012700440624
20
-1.85624307538762
30
0
0
SPLINE
5
E4
100
AcDbEntity
8
1
62
256
6
ByLayer
370
13
48
1
60
0
100
AcDbSpline
70
4
71
3
72
20
73
16
40
0
40
0
40
0
40
0
40
0.101256061783654
40
0.101256061783654
40
0.251046718153046
40
0.251046718153046
40
0.325942046337743
40
0.325942046337743
40
0.40083737452244
40
0.40083737452244
40
0.70041868726122
40
0.70041868726122
40
0.850209343630609
40
0.850209343630609
40
1
40
1
40
1
40
1
41
1
10
23.9012691071891
20
-1.85624272548776
30
0
41
1
10
24.0749757504416
20
-1.92111802154895
30
0
41
1
10
24.2487694683743
20
-1.98291862945499
30
0
41
1
10
24.6803380834029
20
-2.12779267975645
30
0
41
1
10
24.9384082290794
20
-2.20697995961882
30
0
41
1
10
25.3272152221625
20
-2.31367445619233
30
0
41
1
10
25.4571025504139
20
-2.34722211031524
30
0
41
1
10
25.7176121033064
20
-2.41003956708744
30
0
41
1
10
25.8482097585688
20
-2.43929030530953
30
0
41
1
10
26.4984497891486
20
-2.57330331594539
30
0
41
1
10
27.013714397088
20
-2.64245978569681
30
0
41
1
10
27.7869668908189
20
-2.68732513434375
30
0
41
1
10
28.0447231823684
20
-2.69251209268504
30
0
41
1
10
28.5612839195167
20
-2.68294729974986
30
0
41
1
10
28.8201492535302
20
-2.66768593027803
30
0
41
1
10
29.0800194360378
20
-2.64324837874526
30
0
0
SPLINE
5
E5
100
AcDbEntity
8
1
62
256
6
ByLayer
370
13
48
1
60
0
100
AcDbSpline
70
4
71
3
72
8
73
4
40
0
40
0
40
0
40
0
40
1
40
1
40
1
40
1
41
1
10
4.15269710455021
20
-0.294595359901251
30
0
41
1
10
4.16959226060081
20
-0.30252162097571
30
0
41
1
10
4.18697693162014
20
-0.310976479915638
30
0
41
1
10
4.20480816807583
20
-0.320024676973702
30
0
0
SPLINE
5
E6
100
AcDbEntity
8
1
62
256
6
ByLayer
370
18
48
1
60
0
100
AcDbSpline
70
4
71
3
72
10
73
6
40
0
40
0
40
0
40
0
40
0.5
40
0.5
40
1
40
1
40
1
40
1
41
1
10
4.25117055084107
20
2.16035297638214
30
0
41
1
10
4.57195714052884
20
2.05917685906536
30
0
41
1
10
4.89728155926517
20
1.94542373578057
30
0
41
1
10
5.55549056219104
20
1.69986078712833
30
0
41
1
10
5.88858077086113
20
1.5678463851379
30
0
41
1
10
6.22240163952725
20
1.43239295013677
30
0
0
SPLINE
5
E7
100
AcDbEntity
8
1
62
256
6
ByLayer
370
18
48
1
60
0
100
AcDbSpline
70
4
71
3
72
14
73
10
40
0
40
0
40
0
40
0
40
0.21217894449049
40
0.21217894449049
40
0.42435788898098
40
0.42435788898098
40
0.84871577796196
40
0.84871577796196
40
1
40
1
40
1
40
1
41
1
10
4.20480816807867
20
-0.320024676975152
30
0
41
1
10
4.46618885613771
20
-0.452658439003699
30
0
41
1
10
4.72773097978094
20
-0.584097433793318
30
0
41
1
10
5.25007641501293
20
-0.841582733139091
30
0
41
1
10
5.50978956763416
20
-0.967063055604029
30
0
41
1
10
6.28651018668884
20
-1.33040144222193
30
0
41
1
10
6.80119391255172
20
-1.55486421490804
30
0
41
1
10
7.50130391298922
20
-1.82504096662063
30
0
41
1
10
7.68546554650007
20
-1.89286084331917
30
0
41
1
10
7.86999189542158
20
-1.95717807517786
30
0
0
SPLINE
5
E8
100
AcDbEntity
8
1
62
256
6
ByLayer
370
13
48
1
60
0
100
AcDbSpline
70
4
71
3
72
18
73
14
40
0
40
0
40
0
40
0
40
0.0428098382056674
40
0.0428098382056674
40
0.191974715143043
40
0.191974715143043
40
0.490304469017792
40
0.490304469017792
40
0.639469345955166
40
0.639469345955166
40
0.788634222892541
40
0.788634222892541
40
1
40
1
40
1
40
1
41
1
10
7.86999207931922
20
-1.95717813927593
30
0
41
1
10
7.94426731696473
20
-1.98306700300625
30
0
41
1
10
8.01860164617824
20
-2.0083883646829
30
0
41
1
10
8.35226660335366
20
-2.119300721792
30
0
41
1
10
8.61303624206658
20
-2.19833239438785
30
0
41
1
10
9.39672170798053
20
-2.40988490734029
30
0
41
1
10
9.91624566656839
20
-2.51625277628574
30
0
41
1
10
10.6991892412576
20
-2.61736887502178
30
0
41
1
10
10.9605891526246
20
-2.64132431312558
30
0
41
1
10
11.4798074213888
20
-2.66920024570092
30
0
41
1
10
11.7383365753877
20
-2.67319848878515
30
0
41
1
10
12.362061082119
20
-2.65896510078369
30
0
41
1
10
12.7268064429092
20
-2.63082485037683
30
0
41
1
10
13.0922366851214
20
-2.58348989389253
30
0
0
SPLINE
5
E9
100
AcDbEntity
8
1
62
256
6
ByLayer
370
18
48
1
60
0
100
AcDbSpline
70
4
71
3
72
8
73
4
40
0
40
0
40
0
40
0
40
1
40
1
40
1
40
1
41
1
10
4.15269710455101
20
-0.294595359901592
30
0
41
1
10
4.14603771073462
20
-0.29120024696951
30
0
41
1
10
4.13941329343746
20
-0.287732530370363
30
0
41
1
10
4.13287538188865
20
-0.284110118811697
30
0
0
SPLINE
5
EA
100
AcDbEntity
8
1
62
256
6
ByLayer
370
18
48
1
60
0
100
AcDbSpline
70
4
71
3
72
20
73
16
40
0
40
0
40
0
40
0
40
0.103627218094205
40
0.103627218094205
40
0.207254436188411
40
0.207254436188411
40
0.414508872376824
40
0.414508872376824
40
0.621763308565237
40
0.621763308565237
40
0.82901774475365
40
0.82901774475365
40
0.932644962847857
40
0.932644962847857
40
1
40
1
40
1
40
1
41
1
10
13.0845434164167
20
2.54428335476561
30
0
41
1
10
12.8033669922546
20
2.58983888635561
30
0
41
1
10
12.5189314342877
20
2.62183204419674
30
0
41
1
10
11.9440725563772
20
2.66478512110166
30
0
41
1
10
11.6528723034492
20
2.67566376039861
30
0
41
1
10
10.7767226743816
20
2.68279234153155
30
0
41
1
10
10.1892446835292
20
2.6538788745163
30
0
41
1
10
9.00275039741518
20
2.56067618256472
30
0
41
1
10
8.40368682172962
20
2.49629605987485
30
0
41
1
10
7.19039838979532
20
2.36164361903849
30
0
41
1
10
6.57617692014512
20
2.2915255779493
30
0
41
1
10
5.64229921537318
20
2.20136372599285
30
0
41
1
10
5.32893898703583
20
2.17377699623717
30
0
41
1
10
4.81100224474653
20
2.13449858208082
30
0
41
1
10
4.60651564599232
20
2.12060312153423
30
0
41
1
10
4.40171565026299
20
2.10852068503448
30
0
0
SPLINE
5
EB
100
AcDbEntity
8
1
62
256
6
ByLayer
370
18
48
1
60
0
100
AcDbSpline
70
4
71
3
72
14
73
10
40
0
40
0
40
0
40
0
40
0.188890020507822
40
0.188890020507822
40
0.391667515380865
40
0.391667515380865
40
0.594445010253907
40
0.594445010253907
40
1
40
1
40
1
40
1
41
1
10
2.23576087901552
20
2.66770477526723
30
0
41
1
10
2.32110069663861
20
2.66706277617564
30
0
41
1
10
2.42058397915434
20
2.65854396736316
30
0
41
1
10
2.63694187969858
20
2.6309099680403
30
0
41
1
10
2.75539821843517
20
2.61101060624412
30
0
41
1
10
3.00028135913394
20
2.56316889257647
30
0
41
1
10
3.12719569090899
20
2.53507260500262
30
0
41
1
10
3.51390359140095
20
2.44149467075562
30
0
41
1
10
3.77775161452652
20
2.36738332797617
30
0
41
1
10
4.04518028462391
20
2.28470919406772
30
0
0
SPLINE
5
EC
100
AcDbEntity
8
1
62
256
6
ByLayer
370
18
48
1
60
0
100
AcDbSpline
70
4
71
3
72
8
73
4
40
0
40
0
40
0
40
0
40
1
40
1
40
1
40
1
41
1
10
29.0765393800382
20
2.65280353241727
30
0
41
1
10
28.7498143788142
20
2.68404875629511
30
0
41
1
10
28.4237924465286
20
2.69938127617601
30
0
41
1
10
28.0973550794029
20
2.69879461580803
30
0
0
SPLINE
5
ED
100
AcDbEntity
8
1
62
256
6
ByLayer
370
18
48
1
60
0
100
AcDbSpline
70
4
71
3
72
18
73
14
40
0
40
0
40
0
40
0
40
0.13591932376005
40
0.13591932376005
40
0.30873545900804
40
0.30873545900804
40
0.481551594256031
40
0.481551594256031
40
0.567959661880026
40
0.567959661880026
40
0.654367729504021
40
0.654367729504021
40
1
40
1
40
1
40
1
41
1
10
13.1688550537278
20
-2.58221678473308
30
0
41
1
10
12.7616266499486
20
-2.63813407608501
30
0
41
1
10
12.3530049279919
20
-2.67047051244518
30
0
41
1
10
11.4164685124207
20
-2.68678121929329
30
0
41
1
10
10.8981441753716
20
-2.65496024620697
30
0
41
1
10
9.86350992435678
20
-2.51522855911765
30
0
41
1
10
9.34761358293531
20
-2.40701324752402
30
0
41
1
10
8.56796934836837
20
-2.19279297493156
30
0
41
1
10
8.30713191681542
20
-2.11264903870276
30
0
41
1
10
7.78288350673898
20
-1.93585748544726
30
0
41
1
10
7.52222787914238
20
-1.84041056461146
30
0
41
1
10
6.22351834133968
20
-1.33285589009105
30
0
41
1
10
5.19972100000805
20
-0.828392348892038
30
0
41
1
10
4.15269710455021
20
-0.294595359901251
30
0
0
SPLINE
5
EE
100
AcDbEntity
8
1
62
256
6
ByLayer
370
18
48
1
60
0
100
AcDbSpline
70
4
71
3
72
18
73
14
40
0
40
0
40
0
40
0
40
0.203134773237027
40
0.203134773237027
40
0.358390280660249
40
0.358390280660249
40
0.51364578808347
40
0.51364578808347
40
0.824156802929913
40
0.824156802929913
40
0.979412310353134
40
0.979412310353134
40
1
40
1
40
1
40
1
41
1
10
13.0846998394278
20
2.54425921292275
30
0
41
1
10
12.7181358836182
20
2.473633878996
30
0
41
1
10
12.349713284461
20
2.39001790235338
30
0
41
1
10
11.6937922126188
20
2.21857156182622
30
0
41
1
10
11.4094036786859
20
2.13696929642396
30
0
41
1
10
10.8418646828563
20
1.96266652826284
30
0
41
1
10
10.5582262936344
20
1.86984902907244
30
0
41
1
10
9.70508494639463
20
1.58080624890758
30
0
41
1
10
9.13340403436416
20
1.37360449611197
30
0
41
1
10
8.2590627350032
20
1.07645640850836
30
0
41
1
10
7.9674744303465
20
0.98074062641814
30
0
41
1
10
7.63630935888045
20
0.87971897491164
30
0
41
1
10
7.59753285353616
20
0.868009047779253
30
0
41
1
10
7.55875138515481
20
0.856423670278531
30
0
0
SPLINE
5
EF
100
AcDbEntity
8
1
62
256
6
ByLayer
370
18
48
1
60
0
100
AcDbSpline
70
4
71
3
72
25
73
21
40
0
40
0
40
0
40
0
40
0.384931262502737
40
0.384931262502737
40
0.563064851704885
40
0.563064851704885
40
0.607598249005423
40
0.607598249005423
40
0.618731598330558
40
0.618731598330558
40
0.62151493566184
40
0.62151493566184
40
0.622906604327482
40
0.622906604327482
40
0.624298272993123
40
0.629864947655689
40
0.652131646305954
40
0.741198440907013
40
0.741198440907013
40
1
40
1
40
1
40
1
41
1
10
8.74911131515378
20
0.2729709387215
30
0
41
1
10
8.89161059783018
20
0.230727292886229
30
0
41
1
10
9.033835963884
20
0.188964859480336
30
0
41
1
10
9.24101260260053
20
0.128600303091929
30
0
41
1
10
9.30656502587271
20
0.109601283486626
30
0
41
1
10
9.38718943313353
20
0.0860478695749691
30
0
41
1
10
9.40334270577623
20
0.0813369511669748
30
0
41
1
10
9.42276041632164
20
0.0755174921967523
30
0
41
1
10
9.42666592341254
20
0.0743521002710565
30
0
41
1
10
9.43105918893164
20
0.0729382084156782
30
0
41
1
10
9.43211359065904
20
0.0726175472260309
30
0
41
1
10
9.43263667048299
20
0.0723221621632888
30
0
41
1
10
9.43191009109489
20
0.0724582809024241
30
0
41
1
10
9.43087081545963
20
0.0726418912187512
30
0
41
1
10
9.42827261016581
20
0.0731014103364487
30
0
41
1
10
9.41735980539937
20
0.0750417483664592
30
0
41
1
10
9.37370274614815
20
0.0829687193182451
30
0
41
1
10
9.33210798335892
20
0.0911457251280865
30
0
41
1
10
9.20208520041734
20
0.118238799784706
30
0
41
1
10
9.10532845755012
20
0.141719493657178
30
0
41
1
10
9.00844640435992
20
0.168298298111836
30
0
0
SPLINE
5
F0
100
AcDbEntity
8
1
62
256
6
ByLayer
370
18
48
1
60
0
100
AcDbSpline
70
4
71
3
72
62
73
58
40
0
40
0
40
0
40
0
40
0.0680979706680719
40
0.0680979706680719
40
0.136195941336144
40
0.136195941336144
40
0.17024492667018
40
0.17024492667018
40
0.204293912004217
40
0.204293912004217
40
0.238342897338253
40
0.238342897338253
40
0.27239188267229
40
0.27239188267229
40
0.306440868006326
40
0.306440868006326
40
0.340489853340363
40
0.340489853340363
40
0.3745388386744
40
0.3745388386744
40
0.408587824008436
40
0.408587824008436
40
0.442636809342473
40
0.442636809342473
40
0.476685794676509
40
0.476685794676509
40
0.510734780010546
40
0.510734780010546
40
0.544783765344582
40
0.544783765344582
40
0.578832750678619
40
0.578832750678619
40
0.612881736012655
40
0.612881736012655
40
0.646930721346692
40
0.646930721346692
40
0.680979706680728
40
0.680979706680728
40
0.715028692014765
40
0.715028692014765
40
0.749077677348801
40
0.749077677348801
40
0.783126662682838
40
0.783126662682838
40
0.817175648016875
40
0.817175648016875
40
0.851224633350911
40
0.851224633350911
40
0.885273618684948
40
0.885273618684948
40
0.919322604018984
40
0.919322604018984
40
0.95337158935302
40
0.95337158935302
40
0.987420574687055
40
0.987420574687055
40
1
40
1
40
1
40
1
41
1
10
13.0848137963938
20
2.5442811684355
30
0
41
1
10
13.418936598453
20
2.49002806441067
30
0
41
1
10
13.7533990814519
20
2.421290852791
30
0
41
1
10
14.4198899242308
20
2.25294568474672
30
0
41
1
10
14.7545506344299
20
2.15515583214597
30
0
41
1
10
15.2558167452602
20
1.98776248834196
30
0
41
1
10
15.422702774768
20
1.9289560576843
30
0
41
1
10
15.7566206911162
20
1.80619451732756
30
0
41
1
10
15.9234813495042
20
1.74201496384376
30
0
41
1
10
16.2567458593816
20
1.6075820126577
30
0
41
1
10
16.4234532587643
20
1.53777173158198
30
0
41
1
10
16.7577646577441
20
1.39421782051124
30
0
41
1
10
16.9252939197003
20
1.31998016829158
30
0
41
1
10
17.2592038171453
20
1.16713962485213
30
0
41
1
10
17.4259230444691
20
1.0888827405137
30
0
41
1
10
17.7596773044129
20
0.930153940619022
30
0
41
1
10
17.9265383305128
20
0.849379162336049
30
0
41
1
10
18.2598725311798
20
0.684310192562322
30
0
41
1
10
18.426531197273
20
0.600347565748621
30
0
41
1
10
18.7609589817429
20
0.431735760258761
30
0
41
1
10
18.9284721205089
20
0.346589550439433
30
0
41
1
10
19.2621615601754
20
0.174833581770002
30
0
41
1
10
19.4287352115471
20
0.0885032867398934
30
0
41
1
10
19.7623416718833
20
-0.0831113805096777
30
0
41
1
10
19.9292058915333
20
-0.168725116848691
30
0
41
1
10
20.2626560781091
20
-0.340342793850226
30
0
41
1
10
20.4292948637559
20
-0.426242904361203
30
0
41
1
10
20.7638577720248
20
-0.595392128214314
30
0
41
1
10
20.9311821047796
20
-0.678950764840636
30
0
41
1
10
21.2646989537552
20
-0.844554333451981
30
0
41
1
10
21.4311530924765
20
-0.926365393311215
30
0
41
1
10
21.7646276013948
20
-1.08588275032523
30
0
41
1
10
21.9315053877859
20
-1.16386520659481
30
0
41
1
10
22.2650982852748
20
-1.31703389196105
30
0
41
1
10
22.4318679381033
20
-1.39233645938202
30
0
41
1
10
22.7663265343686
20
-1.53723382090547
30
0
41
1
10
22.9334346282903
20
-1.60705613413083
30
0
41
1
10
23.2668271306127
20
-1.74236874564622
30
0
41
1
10
23.4331925303451
20
-1.80769574247972
30
0
41
1
10
23.7665508580918
20
-1.93184171188062
30
0
41
1
10
23.9334537031336
20
-1.9908244177584
30
0
41
1
10
24.2672129426482
20
-2.10323515716974
30
0
41
1
10
24.4341446006832
20
-2.1568361838633
30
0
41
1
10
24.7682365143179
20
-2.2562127294446
30
0
41
1
10
24.9352424691136
20
-2.30222568625649
30
0
41
1
10
25.2685614957805
20
-2.38756263727922
30
0
41
1
10
25.4348747917789
20
-2.42683227524745
30
0
41
1
10
25.7681378384015
20
-2.49740863961279
30
0
41
1
10
25.9350785297095
20
-2.52877471155986
30
0
41
1
10
26.269034171908
20
-2.58402956553914
30
0
41
1
10
26.4359881370124
20
-2.6079648634126
30
0
41
1
10
26.7697817492696
20
-2.6472869890959
30
0
41
1
10
26.9367398057323
20
-2.66280295988895
30
0
41
1
10
27.2701726785624
20
-2.68580632549958
30
0
41
1
10
27.4365720213135
20
-2.69325402849037
30
0
41
1
10
27.664905459422
20
-2.69771336627048
30
0
41
1
10
27.7265735450709
20
-2.69835100420619
30
0
41
1
10
27.7882807419929
20
-2.69842333291669
30
0
0
SPLINE
5
F1
100
AcDbEntity
8
1
62
256
6
ByLayer
370
18
48
1
60
0
100
AcDbSpline
70
4
71
3
72
12
73
8
40
0
40
0
40
0
40
0
40
0.499999999999992
40
0.499999999999992
40
0.749999999999996
40
0.749999999999996
40
1
40
1
40
1
40
1
41
1
10
28.6219108975107
20
-1.88781011865737
30
0
41
1
10
28.3729871673352
20
-1.74850801286524
30
0
41
1
10
28.1314901997205
20
-1.59028233116268
30
0
41
1
10
27.7833007095336
20
-1.3171288694306
30
0
41
1
10
27.6696157345513
20
-1.22001803223344
30
0
41
1
10
27.4481536852815
20
-1.01074287977806
30
0
41
1
10
27.3396810310963
20
-0.897755911600626
30
0
41
1
10
27.2379397713457
20
-0.77786868818805
30
0
0
SPLINE
5
F2
100
AcDbEntity
8
1
62
256
6
ByLayer
370
18
48
1
60
0
100
AcDbSpline
70
4
71
3
72
8
73
4
40
0
40
0
40
0
40
0
40
1
40
1
40
1
40
1
41
1
10
29.4469230822187
20
0.774659282849456
30
0
41
1
10
29.2580032021004
20
0.764149022891814
30
0
41
1
10
29.0679925849552
20
0.75651284958721
30
0
41
1
10
28.8776216635831
20
0.750748793962373
30
0
0
SPLINE
5
F3
100
AcDbEntity
8
1
62
256
6
ByLayer
370
18
48
1
60
0
100
AcDbSpline
70
4
71
3
72
21
73
17
40
0
40
0
40
0
40
0
40
0.112017047598787
40
0.193453467182224
40
0.245972002693956
40
0.292166575145162
40
0.339081342757997
40
0.386748713535562
40
0.435284491145821
40
0.484695241588343
40
0.688141023228867
40
0.722674825550958
40
0.75736538038323
40
0.801374564415164
40
0.899732225552341
40
1
40
1
40
1
40
1
41
1
10
11.941484602754
20
-2.5716297933366
30
0
41
1
10
12.1482079799501
20
-2.57194896770335
30
0
41
1
10
12.505230619783
20
-2.57241150980232
30
0
41
1
10
12.9592151378335
20
-2.57297090199057
30
0
41
1
10
13.2917097771667
20
-2.5730818823609
30
0
41
1
10
13.5604905980674
20
-2.57315287066825
30
0
41
1
10
13.8203177930185
20
-2.57346082672453
30
0
41
1
10
14.0844630028926
20
-2.57454558487692
30
0
41
1
10
14.3532184005194
20
-2.57470770954038
30
0
41
1
10
14.9094884086369
20
-2.57465238959219
30
0
41
1
10
15.439915073944
20
-2.57553210647524
30
0
41
1
10
15.9431730641702
20
-2.57588762192839
30
0
41
1
10
16.1521644081504
20
-2.57583474734696
30
0
41
1
10
16.4789537425809
20
-2.5756299828613
30
0
41
1
10
16.9267747600151
20
-2.57720172989318
30
0
41
1
10
17.2933710026045
20
-2.57721019352408
30
0
41
1
10
17.4784318396771
20
-2.57717516786494
30
0
0
SPLINE
5
F4
100
AcDbEntity
8
1
62
256
6
ByLayer
370
18
48
1
60
0
100
AcDbSpline
70
4
71
3
72
14
73
10
40
0
40
0
40
0
40
0
40
0.163405011113514
40
0.297279940554918
40
0.51212267644468
40
0.606461205002516
40
0.673338737588283
40
0.814092043504228
40
1
40
1
40
1
40
1
41
1
10
8.9991696985775
20
0.170669406425816
30
0
41
1
10
8.99946435627314
20
0.170546909649261
30
0
41
1
10
8.9961559160208
20
0.17158211242122
30
0
41
1
10
8.98615455677938
20
0.173904389971852
30
0
41
1
10
8.92696509435947
20
0.196747219870986
30
0
41
1
10
8.86511896362009
20
0.223761469681705
30
0
41
1
10
8.81175850291746
20
0.247565113575519
30
0
41
1
10
8.69645499497963
20
0.300082234187357
30
0
41
1
10
8.60250125629332
20
0.345685391283268
30
0
41
1
10
8.54359926473015
20
0.374831882008493
30
0
0
SPLINE
5
F5
100
AcDbEntity
8
1
62
256
6
ByLayer
370
18
48
1
60
0
100
AcDbSpline
70
4
71
2
72
6
73
3
40
0
40
0
40
0
40
1
40
1
40
1
41
1
10
28.339891656177
20
-2.59101273924489
30
0
41
1
10
28.7001694819064
20
-2.59047911707035
30
0
41
1
10
29.0600539121466
20
-2.5925965292605
30
0
0
SPLINE
5
F6
100
AcDbEntity
8
1
62
256
6
ByLayer
370
18
48
1
60
0
100
AcDbSpline
70
4
71
3
72
29
73
25
40
0
40
0
40
0
40
0
40
2.79958520303E-05
40
4.71836184228E-05
40
0.0001491775896031
40
0.0002285220187652
40
0.0003709005364665
40
0.0006273610278598
40
0.0010924188101978
40
0.0019456872831511
40
0.0222166543200632
40
0.0820811408874246
40
0.135020516785477
40
0.210068857131157
40
0.276516094731541
40
0.354981479302087
40
0.470531272158302
40
0.602872414082491
40
0.703621448100543
40
0.77591186838582
40
0.800372126583199
40
0.842164266860526
40
0.908831857398829
40
1
40
1
40
1
40
1
41
1
10
19.7892547638748
20
-0.617817825927006
30
0
41
1
10
19.7892454447041
20
-0.617817360233516
30
0
41
1
10
19.7892331179218
20
-0.617816898786828
30
0
41
1
10
19.7892166945863
20
-0.617817593572795
30
0
41
1
10
19.7893407539341
20
-0.617831868848754
30
0
41
1
10
19.7894545569323
20
-0.617846958464156
30
0
41
1
10
19.7896544544884
20
-0.617872138517782
30
0
41
1
10
19.7900024850671
20
-0.617916333474625
30
0
41
1
10
19.7906653917661
20
-0.617999234804529
30
0
41
1
10
19.8001336742489
20
-0.619163380196255
30
0
41
1
10
19.8530510154979
20
-0.6249235299438
30
0
41
1
10
19.9550757120336
20
-0.636946533911924
30
0
41
1
10
20.1124808651297
20
-0.659523777007166
30
0
41
1
10
20.2801878017629
20
-0.689031997199805
30
0
41
1
10
20.470914492471
20
-0.72736656948166
30
0
41
1
10
20.7090550618945
20
-0.781426067343858
30
0
41
1
10
21.013262804944
20
-0.865105067578412
30
0
41
1
10
21.359397497186
20
-0.975146082904018
30
0
41
1
10
21.6605018860488
20
-1.08201388424843
30
0
41
1
10
21.8559758144433
20
-1.15624231072198
30
0
41
1
10
21.9946263287054
20
-1.21080635851493
30
0
41
1
10
22.1302023123333
20
-1.26526284821094
30
0
41
1
10
22.3339336059443
20
-1.34979291069899
30
0
41
1
10
22.4951953134495
20
-1.41922480627611
30
0
41
1
10
22.5883979946907
20
-1.46025186948688
30
0
0
SPLINE
5
F7
100
AcDbEntity
8
1
62
256
6
ByLayer
370
18
48
1
60
0
100
AcDbSpline
70
4
71
3
72
13
73
9
40
0
40
0
40
0
40
0
40
0.0671056517780607
40
0.308092093430949
40
0.515332813414783
40
0.576695462293987
40
0.674830310023616
40
1
40
1
40
1
40
1
41
1
10
25.3243640380251
20
0.178379332780395
30
0
41
1
10
25.3243168850659
20
0.178447936946611
30
0
41
1
10
25.3227393152835
20
0.179167543549511
30
0
41
1
10
25.316272349381
20
0.181329625653916
30
0
41
1
10
25.2665191086468
20
0.201531151860564
30
0
41
1
10
25.1862730480606
20
0.236582625928094
30
0
41
1
10
25.0526605559762
20
0.296857923186508
30
0
41
1
10
24.9306994026818
20
0.355448353881428
30
0
41
1
10
24.8273953286295
20
0.406895957811713
30
0
0
SPLINE
5
F8
100
AcDbEntity
8
1
62
256
6
ByLayer
370
18
48
1
60
0
100
AcDbSpline
70
4
71
3
72
20
73
16
40
0
40
0
40
0
40
0
40
0.128615997003138
40
0.254786821506513
40
0.346858608197102
40
0.426529185248458
40
0.505590073152484
40
0.583793318180252
40
0.661015454058037
40
0.724398367504637
40
0.786658887002578
40
0.847805435256996
40
0.90798656240725
40
0.967243840654483
40
1
40
1
40
1
40
1
41
1
10
17.4784099357298
20
2.57717515605864
30
0
41
1
10
17.293356399987
20
2.57721017770291
30
0
41
1
10
16.926767493634
20
2.57719157653577
30
0
41
1
10
16.4277065805593
20
2.57548084869822
30
0
41
1
10
15.9990664716669
20
2.57598840146522
30
0
41
1
10
15.6382091854925
20
2.57564955872422
30
0
41
1
10
15.2973064524242
20
2.57492751120949
30
0
41
1
10
14.9599261261613
20
2.57464009408386
30
0
41
1
10
14.6451028747271
20
2.57473159257205
30
0
41
1
10
14.3532184132454
20
2.57469497943507
30
0
41
1
10
14.084462999587
20
2.57454890451024
30
0
41
1
10
13.8203177938935
20
2.5734599594233
30
0
41
1
10
13.5604905978494
20
2.57315309633176
30
0
41
1
10
13.3415117550716
20
2.57309502178984
30
0
41
1
10
13.2091225297083
20
2.57305334322726
30
0
41
1
10
13.1619928575704
20
2.57303415204601
30
0
0
LINE
5
7B
100
AcDbEntity
8
SK1
62
256
6
ByLayer
370
18
48
1
60
0
100
AcDbLine
10
-35.65
20
-2.45
30
0
11
-35.65
21
-2.27047
31
0
39
0
210
0
220
0
230
1
0
LINE
5
7D
100
AcDbEntity
8
SK1
62
256
6
ByLayer
370
18
48
1
60
0
100
AcDbLine
10
0
20
-3
30
0
11
0
21
3
31
0
39
0
210
0
220
0
230
1
0
LINE
5
7E
100
AcDbEntity
8
SK1
62
256
6
ByLayer
370
18
48
1
60
0
100
AcDbLine
10
-36
20
2.03548
30
0
11
-36
21
-1.860855
31
0
39
0
210
0
220
0
230
1
0
LINE
5
7F
100
AcDbEntity
8
SK1
62
256
6
ByLayer
370
18
48
1
60
0
100
AcDbLine
10
-35.1
20
3
30
0
11
-35.1
21
-3
31
0
39
0
210
0
220
0
230
1
0
LINE
5
80
100
AcDbEntity
8
SK1
62
256
6
ByLayer
370
18
48
1
60
0
100
AcDbLine
10
-35.65
20
2.45
30
0
11
-35.65
21
2.421811
31
0
39
0
210
0
220
0
230
1
0
LINE
5
81
100
AcDbEntity
8
SK1
62
256
6
ByLayer
370
13
48
1
60
0
100
AcDbLine
10
-35.75
20
-2.124599
30
0
11
-35.75
21
-2.299275
31
0
39
0
210
0
220
0
230
1
0
LINE
5
82
100
AcDbEntity
8
SK1
62
256
6
ByLayer
370
18
48
1
60
0
100
AcDbLine
10
-36
20
-1.860814
30
0
11
-36
21
-2.03548
31
0
39
0
210
0
220
0
230
1
0
LINE
5
83
100
AcDbEntity
8
1
62
256
6
ByLayer
370
18
48
1
60
0
100
AcDbLine
10
29.958203
20
-0.091824
30
0
11
28.621911
21
-1.88781
31
0
39
0
210
0
220
0
230
1
0
LINE
5
84
100
AcDbEntity
8
1
62
256
6
ByLayer
370
18
48
1
60
0
100
AcDbLine
10
29.374528
20
-1.695458
30
0
11
29.048973
21
-2.589914
31
0
39
0
210
0
220
0
230
1
0
LINE
5
85
100
AcDbEntity
8
1
62
256
6
ByLayer
370
13
48
1
60
0
100
AcDbLine
10
29.965677
20
-0.074058
30
0
11
28.829794
21
0.637554
31
0
39
0
210
0
220
0
230
1
0
LINE
5
86
100
AcDbEntity
8
1
62
256
6
ByLayer
370
13
48
1
60
0
100
AcDbLine
10
0.489034
20
2.833124
30
0
11
0.489034
21
-2.833124
31
0
39
0
210
0
220
0
230
1
0
LINE
5
87
100
AcDbEntity
8
1
62
256
6
ByLayer
370
18
48
1
60
0
100
AcDbLine
10
29.990752
20
0.05339
30
0
11
29.840293
21
0.602605
31
0
39
0
210
0
220
0
230
1
0
LINE
5
88
100
AcDbEntity
8
1
62
256
6
ByLayer
370
18
48
1
60
0
100
AcDbLine
10
29.048973
20
-2.589914
30
0
11
29.057276
21
-2.591887
31
0
39
0
210
0
220
0
230
1
0
LINE
5
89
100
AcDbEntity
8
1
62
256
6
ByLayer
370
18
48
1
60
0
100
AcDbLine
10
30
20
0.021328
30
0
11
30
21
-0.021328
31
0
39
0
210
0
220
0
230
1
0
LINE
5
8A
100
AcDbEntity
8
1
62
256
6
ByLayer
370
18
48
1
60
0
100
AcDbLine
10
0
20
-3
30
0
11
0
21
3
31
0
39
0
210
0
220
0
230
1
0
LINE
5
8B
100
AcDbEntity
8
1
62
256
6
ByLayer
370
13
48
1
60
0
100
AcDbLine
10
29.990752
20
0.05339
30
0
11
28.877622
21
0.750749
31
0
39
0
210
0
220
0
230
1
0
LINE
5
8C
100
AcDbEntity
8
1
62
256
6
ByLayer
370
18
48
1
60
0
100
AcDbLine
10
29.990752
20
-0.05339
30
0
11
29.840293
21
-0.602605
31
0
39
0
210
0
220
0
230
1
0
LINE
5
8D
100
AcDbEntity
8
1
62
256
6
ByLayer
370
13
48
1
60
0
100
AcDbLine
10
0.979027
20
2.666249
30
0
11
0.979027
21
-2.666249
31
0
39
0
210
0
220
0
230
1
0
LINE
5
8E
100
AcDbEntity
8
1
62
256
6
ByLayer
370
18
48
1
60
0
100
AcDbLine
10
29.958203
20
-0.091824
30
0
11
29.965677
21
-0.074058
31
0
39
0
210
0
220
0
230
1
0
LINE
5
8F
100
AcDbEntity
8
1
62
256
6
ByLayer
370
18
48
1
60
0
100
AcDbLine
10
29.958203
20
-0.091824
30
0
11
29.64719
21
-0.946328
31
0
39
0
210
0
220
0
230
1
0
LINE
5
90
100
AcDbEntity
8
80
62
256
6
ByLayer
370
18
48
1
60
0
100
AcDbLine
10
0
20
0
30
0
11
-5
21
0
31
0
39
0
210
0
220
0
230
1
0
LINE
5
91
100
AcDbEntity
8
4
62
256
6
ByLayer
370
18
48
0.05
60
0
100
AcDbLine
10
30
20
0
30
0
11
0
21
0
31
0
39
0
210
0
220
0
230
1
0
LINE
5
93
100
AcDbEntity
8
SK4
62
256
6
ByLayer
370
18
48
0.05
60
0
100
AcDbLine
10
35
20
0
30
0
11
-41
21
0
31
0
39
0
210
0
220
0
230
1
0
LINE
5
95
100
AcDbEntity
8
SK1
62
256
6
ByLayer
370
18
48
1
60
0
100
AcDbLine
10
-35.65
20
-2.45
30
0
11
-35.1
21
-3
31
0
39
0
210
0
220
0
230
1
0
LINE
5
96
100
AcDbEntity
8
SK1
62
256
6
ByLayer
370
18
48
1
60
0
100
AcDbLine
10
-35.1
20
3
30
0
11
-35.65
21
2.45
31
0
39
0
210
0
220
0
230
1
0
LINE
5
97
100
AcDbEntity
8
SK1
62
256
6
ByLayer
370
18
48
1
60
0
100
AcDbLine
10
-35.1
20
-3
30
0
11
0
21
-3
31
0
39
0
210
0
220
0
230
1
0
LINE
5
98
100
AcDbEntity
8
SK1
62
256
6
ByLayer
370
18
48
1
60
0
100
AcDbLine
10
0
20
3
30
0
11
-35.1
21
3
31
0
39
0
210
0
220
0
230
1
0
LINE
5
99
100
AcDbEntity
8
1
62
256
6
ByLayer
370
18
48
1
60
0
100
AcDbLine
10
0.979027
20
-2.666249
30
0
11
2.244287
21
-2.667767
31
0
39
0
210
0
220
0
230
1
0
LINE
5
9A
100
AcDbEntity
8
1
62
256
6
ByLayer
370
18
48
1
60
0
100
AcDbLine
10
11.19329
20
-2.678506
30
0
11
11.7527
21
-2.679177
31
0
39
0
210
0
220
0
230
1
0
LINE
5
9B
100
AcDbEntity
8
1
62
256
6
ByLayer
370
18
48
1
60
0
100
AcDbLine
10
27.788864
20
-2.698421
30
0
11
28.103413
21
-2.698798
31
0
39
0
210
0
220
0
230
1
0
LINE
5
9C
100
AcDbEntity
8
1
62
256
6
ByLayer
370
18
48
1
60
0
100
AcDbLine
10
28.103398
20
2.698798
30
0
11
27.788864
21
2.698421
31
0
39
0
210
0
220
0
230
1
0
LINE
5
9D
100
AcDbEntity
8
1
62
256
6
ByLayer
370
18
48
1
60
0
100
AcDbLine
10
11.752673
20
2.679177
30
0
11
11.19329
21
2.678506
31
0
39
0
210
0
220
0
230
1
0
LINE
5
9E
100
AcDbEntity
8
1
62
256
6
ByLayer
370
18
48
1
60
0
100
AcDbLine
10
2.244287
20
2.667767
30
0
11
0.979027
21
2.666249
31
0
39
0
210
0
220
0
230
1
0
LINE
5
9F
100
AcDbEntity
8
81
62
256
6
ByLayer
370
18
48
1
60
0
100
AcDbLine
10
30
20
0
30
0
11
35
21
0
31
0
39
0
210
0
220
0
230
1
0
LINE
5
A0
100
AcDbEntity
8
SK2
62
256
6
ByLayer
370
13
48
1
60
0
100
AcDbLine
10
-44.625163
20
32.117107
30
0
11
-44.625163
21
-11.75
31
0
39
0
210
0
220
0
230
1
0
LINE
5
A2
100
AcDbEntity
8
SK2
62
256
6
ByLayer
370
13
48
1
60
0
100
AcDbLine
10
-37.5875
20
3
30
0
11
-46.625163
21
3
31
0
39
0
210
0
220
0
230
1
0
LINE
5
A3
100
AcDbEntity
8
SK2
62
256
6
ByLayer
370
13
48
1
60
0
100
AcDbLine
10
-37.5875
20
-3
30
0
11
-46.625163
21
-3
31
0
39
0
210
0
220
0
230
1
0
LINE
5
A4
100
AcDbEntity
8
1
62
256
6
ByLayer
370
18
48
1
60
1
100
AcDbLine
10
-44.625163
20
3
30
0
11
-45.085946
21
6.499998
31
0
39
0
210
0
220
0
230
1
0
LINE
5
A5
100
AcDbEntity
8
1
62
256
6
ByLayer
370
18
48
1
60
1
100
AcDbLine
10
-45.085946
20
6.499998
30
0
11
-44.164379
21
6.500002
31
0
39
0
210
0
220
0
230
1
0
LINE
5
A6
100
AcDbEntity
8
1
62
256
6
ByLayer
370
18
48
1
60
1
100
AcDbLine
10
-44.164379
20
6.500002
30
0
11
-44.625163
21
3
31
0
39
0
210
0
220
0
230
1
0
LINE
5
A7
100
AcDbEntity
8
1
62
256
6
ByLayer
370
18
48
1
60
1
100
AcDbLine
10
-44.625163
20
-3
30
0
11
-44.164379
21
-6.499998
31
0
39
0
210
0
220
0
230
1
0
LINE
5
A8
100
AcDbEntity
8
1
62
256
6
ByLayer
370
18
48
1
60
1
100
AcDbLine
10
-44.164379
20
-6.499998
30
0
11
-45.085946
21
-6.500002
31
0
39
0
210
0
220
0
230
1
0
LINE
5
A9
100
AcDbEntity
8
1
62
256
6
ByLayer
370
18
48
1
60
1
100
AcDbLine
10
-45.085946
20
-6.500002
30
0
11
-44.625163
21
-3
31
0
39
0
210
0
220
0
230
1
0
LINE
5
AA
100
AcDbEntity
8
2
62
256
6
ByLayer
370
13
48
1
60
0
100
AcDbLine
10
42.083343
20
30.778727
30
0
11
42.083343
21
-11.45
31
0
39
0
210
0
220
0
230
1
0
LINE
5
AC
100
AcDbEntity
8
2
62
256
6
ByLayer
370
13
48
1
60
0
100
AcDbLine
10
30.5875
20
2.7
30
0
11
44.083343
21
2.7
31
0
39
0
210
0
220
0
230
1
0
LINE
5
AD
100
AcDbEntity
8
2
62
256
6
ByLayer
370
13
48
1
60
0
100
AcDbLine
10
30.5875
20
-2.7
30
0
11
44.083343
21
-2.7
31
0
39
0
210
0
220
0
230
1
0
LINE
5
AE
100
AcDbEntity
8
1
62
256
6
ByLayer
370
18
48
1
60
1
100
AcDbLine
10
42.083343
20
2.7
30
0
11
41.622559
21
6.199998
31
0
39
0
210
0
220
0
230
1
0
LINE
5
AF
100
AcDbEntity
8
1
62
256
6
ByLayer
370
18
48
1
60
1
100
AcDbLine
10
41.622559
20
6.199998
30
0
11
42.544126
21
6.200002
31
0
39
0
210
0
220
0
230
1
0
LINE
5
B0
100
AcDbEntity
8
1
62
256
6
ByLayer
370
18
48
1
60
1
100
AcDbLine
10
42.544126
20
6.200002
30
0
11
42.083343
21
2.7
31
0
39
0
210
0
220
0
230
1
0
LINE
5
B1
100
AcDbEntity
8
1
62
256
6
ByLayer
370
18
48
1
60
1
100
AcDbLine
10
42.083343
20
-2.7
30
0
11
42.544126
21
-6.199998
31
0
39
0
210
0
220
0
230
1
0
LINE
5
B2
100
AcDbEntity
8
1
62
256
6
ByLayer
370
18
48
1
60
1
100
AcDbLine
10
42.544126
20
-6.199998
30
0
11
41.622559
21
-6.200002
31
0
39
0
210
0
220
0
230
1
0
LINE
5
B3
100
AcDbEntity
8
1
62
256
6
ByLayer
370
18
48
1
60
1
100
AcDbLine
10
41.622559
20
-6.200002
30
0
11
42.083343
21
-2.7
31
0
39
0
210
0
220
0
230
1
0
LINE
5
FF
100
AcDbEntity
8
1
62
256
6
ByLayer
370
18
48
1
60
1
100
AcDbLine
10
-44.625163
20
3
30
0
11
-45.085946
21
6.499998
31
0
39
0
210
0
220
0
230
1
0
LINE
5
100
100
AcDbEntity
8
1
62
256
6
ByLayer
370
18
48
1
60
1
100
AcDbLine
10
-45.085946
20
6.499998
30
0
11
-44.164379
21
6.500002
31
0
39
0
210
0
220
0
230
1
0
LINE
5
101
100
AcDbEntity
8
1
62
256
6
ByLayer
370
18
48
1
60
1
100
AcDbLine
10
-44.164379
20
6.500002
30
0
11
-44.625163
21
3
31
0
39
0
210
0
220
0
230
1
0
LINE
5
103
100
AcDbEntity
8
1
62
256
6
ByLayer
370
18
48
1
60
1
100
AcDbLine
10
-44.625163
20
-3
30
0
11
-44.164379
21
-6.499998
31
0
39
0
210
0
220
0
230
1
0
LINE
5
104
100
AcDbEntity
8
1
62
256
6
ByLayer
370
18
48
1
60
1
100
AcDbLine
10
-44.164379
20
-6.499998
30
0
11
-45.085946
21
-6.500002
31
0
39
0
210
0
220
0
230
1
0
LINE
5
105
100
AcDbEntity
8
1
62
256
6
ByLayer
370
18
48
1
60
1
100
AcDbLine
10
-45.085946
20
-6.500002
30
0
11
-44.625163
21
-3
31
0
39
0
210
0
220
0
230
1
0
LINE
5
109
100
AcDbEntity
8
1
62
256
6
ByLayer
370
18
48
1
60
1
100
AcDbLine
10
42.083343
20
2.7
30
0
11
41.622559
21
6.199998
31
0
39
0
210
0
220
0
230
1
0
LINE
5
10A
100
AcDbEntity
8
1
62
256
6
ByLayer
370
18
48
1
60
1
100
AcDbLine
10
41.622559
20
6.199998
30
0
11
42.544126
21
6.200002
31
0
39
0
210
0
220
0
230
1
0
LINE
5
10B
100
AcDbEntity
8
1
62
256
6
ByLayer
370
18
48
1
60
1
100
AcDbLine
10
42.544126
20
6.200002
30
0
11
42.083343
21
2.7
31
0
39
0
210
0
220
0
230
1
0
LINE
5
10D
100
AcDbEntity
8
1
62
256
6
ByLayer
370
18
48
1
60
1
100
AcDbLine
10
42.083343
20
-2.7
30
0
11
42.544126
21
-6.199998
31
0
39
0
210
0
220
0
230
1
0
LINE
5
10E
100
AcDbEntity
8
1
62
256
6
ByLayer
370
18
48
1
60
1
100
AcDbLine
10
42.544126
20
-6.199998
30
0
11
41.622559
21
-6.200002
31
0
39
0
210
0
220
0
230
1
0
LINE
5
10F
100
AcDbEntity
8
1
62
256
6
ByLayer
370
18
48
1
60
1
100
AcDbLine
10
41.622559
20
-6.200002
30
0
11
42.083343
21
-2.7
31
0
39
0
210
0
220
0
230
1
0
MTEXT
5
F9
100
AcDbEntity
8
SK6
62
256
6
ByLayer
370
13
48
1
60
0
100
AcDbMText
10
-29.658393
20
35.240328
30
0
210
0
220
0
230
1
1
\W0.7121;860.1-0540-017A1-SM 1210
40
3.5
41
0
44
1.084337
50
0
71
7
72
5
7
iso_b_vert
0
MTEXT
5
FD
100
AcDbEntity
8
SK2
62
256
6
ByLayer
370
18
48
1
60
0
100
AcDbMText
10
-46.189796
20
16.409024
30
0
210
0
220
0
230
1
1
%%c
40
3.5
41
0
44
1.084337
50
90
71
7
72
5
7
iso_b_vert
0
MTEXT
5
FE
100
AcDbEntity
8
SK2
62
256
6
ByLayer
370
18
48
1
60
0
100
AcDbMText
10
-46.189796
20
21.63168
30
0
210
0
220
0
230
1
1
\W0.7317;6,000
40
3.5
41
0
44
1.084337
50
90
71
7
72
5
7
iso_b_vert
0
MTEXT
5
107
100
AcDbEntity
8
2
62
256
6
ByLayer
370
18
48
1
60
0
100
AcDbMText
10
40.518709
20
14.70211
30
0
210
0
220
0
230
1
1
%%c
40
3.5
41
0
44
1.084337
50
90
71
7
72
5
7
iso_b_vert
0
MTEXT
5
108
100
AcDbEntity
8
2
62
256
6
ByLayer
370
18
48
1
60
0
100
AcDbMText
10
40.518709
20
19.924766
30
0
210
0
220
0
230
1
1
\W0.7581;5,400
40
3.5
41
0
44
1.084337
50
90
71
7
72
5
7
iso_b_vert
0
HATCH
5
102
100
AcDbEntity
8
SK2
62
256
6
ByLayer
370
13
48
1
60
0
100
AcDbHatch
10
0
20
0
30
0
210
0
220
0
230
1
2
ANSI31
70
0
71
0
91
1
92
5
93
3
72
1
10
-44.6251625675374
20
3
11
-45.0859463090902
21
6.49999830744682
72
1
10
-45.0859463090902
20
6.49999830744682
11
-44.1643788259847
21
6.50000169255318
72
1
10
-44.1643788259847
20
6.50000169255318
11
-44.6251625675374
21
3
97
0
75
0
76
1
52
0
41
0.0062
77
0
78
1
53
45
43
0
44
0
45
-0.0139193969876572
46
0.0139193969876572
79
0
47
0
98
1
10
0
20
0
0
HATCH
5
106
100
AcDbEntity
8
SK2
62
256
6
ByLayer
370
13
48
1
60
0
100
AcDbHatch
10
0
20
0
30
0
210
0
220
0
230
1
2
ANSI31
70
0
71
0
91
1
92
5
93
3
72
1
10
-44.6251625675374
20
-3
11
-44.1643788259847
21
-6.49999830744682
72
1
10
-44.1643788259847
20
-6.49999830744682
11
-45.0859463090902
21
-6.50000169255318
72
1
10
-45.0859463090902
20
-6.50000169255318
11
-44.6251625675374
21
-3
97
0
75
0
76
1
52
0
41
0.0062
77
0
78
1
53
45
43
0
44
0
45
-0.0139193969876572
46
0.0139193969876572
79
0
47
0
98
1
10
0
20
0
0
HATCH
5
10C
100
AcDbEntity
8
2
62
256
6
ByLayer
370
13
48
1
60
0
100
AcDbHatch
10
0
20
0
30
0
210
0
220
0
230
1
2
ANSI31
70
0
71
0
91
1
92
5
93
3
72
1
10
42.083342615295
20
2.70000000000002
11
41.6225588737423
21
6.19999830744683
72
1
10
41.6225588737423
20
6.19999830744683
11
42.5441263568478
21
6.2000016925532
72
1
10
42.5441263568478
20
6.2000016925532
11
42.083342615295
21
2.70000000000002
97
0
75
0
76
1
52
0
41
0.0062
77
0
78
1
53
45
43
0
44
0
45
-0.0139193969876572
46
0.0139193969876572
79
0
47
0
98
1
10
0
20
0
0
HATCH
5
110
100
AcDbEntity
8
2
62
256
6
ByLayer
370
13
48
1
60
0
100
AcDbHatch
10
0
20
0
30
0
210
0
220
0
230
1
2
ANSI31
70
0
71
0
91
1
92
5
93
3
72
1
10
42.083342615295
20
-2.69999999999999
11
42.5441263568478
21
-6.1999983074468
72
1
10
42.5441263568478
20
-6.1999983074468
11
41.6225588737423
21
-6.20000169255317
72
1
10
41.6225588737423
20
-6.20000169255317
11
42.083342615295
21
-2.69999999999999
97
0
75
0
76
1
52
0
41
0.0062
77
0
78
1
53
45
43
0
44
0
45
-0.0139193969876572
46
0.0139193969876572
79
0
47
0
98
1
10
0
20
0
0
DIMENSION
5
112
100
AcDbEntity
8
SK2
62
256
6
ByLayer
370
13
48
1
60
0
100
AcDbDimension
2
_U0
10
29
20
-12.913398
30
0
11
14.5
21
-12.913398
31
0
70
32
71
1
72
1
41
1
210
0
220
0
230
1
3
Standard
100
AcDbAlignedDimension
13
0
23
0
33
0
14
29
24
-2.7
34
0
50
0
100
AcDbRotatedDimension
1001
ACAD
1000
DSTYLE
1002
{
1070
   371
1070
    13
1070
   372
1070
    13
1070
   170
1070
     0
1070
   144
1040
1.0
1070
   277
1070
     2
1070
   278
1070
    44
1070
   146
1040
1.0
1070
   345
1005
16
1070
   347
1005
16
1070
   346
1005
16
1070
   344
1005
0
1070
   343
1005
0
1070
   172
1070
     1
1070
    76
1070
     0
1070
    75
1070
     0
1070
   282
1070
     0
1070
   281
1070
     0
1070
    71
1070
     0
1070
    74
1070
     0
1070
   279
1070
     0
1070
   173
1070
     1
1070
   340
1005
FA
1070
   271
1070
     2
1070
   272
1070
     2
1070
    77
1070
     1
1070
    73
1070
     1
1070
   171
1070
     3
1070
   274
1070
     4
1070
   177
1070
    35
1070
   176
1070
    35
1070
   178
1070
    35
1070
    48
1040
-0.1
1070
    41
1040
3.5
1070
   147
1040
1.75
1070
    42
1040
1.5875
1070
    44
1040
2.0
1070
   140
1040
3.5
1002
}
1001
ACAD_DSTYLE_DIM_LINETYPE
1070
   380
1005
16
1001
ACAD_DSTYLE_DIM_EXT1_LINETYPE
1070
   381
1005
16
1001
ACAD_DSTYLE_DIM_EXT2_LINETYPE
1070
   382
1005
16
0
DIMENSION
5
12B
100
AcDbEntity
8
SK2
62
256
6
ByLayer
370
13
48
1
60
0
100
AcDbDimension
2
_U1
10
30
20
-31.692985
30
0
11
-3
21
-31.692985
31
0
70
32
71
1
72
1
41
1
210
0
220
0
230
1
3
Standard
100
AcDbAlignedDimension
13
-36
23
-3
33
0
14
30
24
0
34
0
50
0
100
AcDbRotatedDimension
1001
ACAD
1000
DSTYLE
1002
{
1070
   371
1070
    13
1070
   372
1070
    13
1070
   170
1070
     0
1070
   144
1040
1.0
1070
   277
1070
     2
1070
   278
1070
    44
1070
   146
1040
1.0
1070
   345
1005
16
1070
   347
1005
16
1070
   346
1005
16
1070
   344
1005
0
1070
   343
1005
0
1070
   172
1070
     1
1070
    76
1070
     0
1070
    75
1070
     0
1070
   282
1070
     0
1070
   281
1070
     0
1070
    71
1070
     0
1070
    74
1070
     0
1070
   279
1070
     0
1070
   173
1070
     1
1070
   340
1005
FA
1070
   271
1070
     2
1070
   272
1070
     2
1070
    77
1070
     1
1070
    73
1070
     1
1070
   171
1070
     3
1070
   274
1070
     4
1070
   177
1070
    35
1070
   176
1070
    35
1070
   178
1070
    35
1070
    48
1040
-0.1
1070
    41
1040
3.5
1070
   147
1040
1.75
1070
    42
1040
1.5875
1070
    44
1040
2.0
1070
   140
1040
3.5
1002
}
1001
ACAD_DSTYLE_DIM_LINETYPE
1070
   380
1005
16
1001
ACAD_DSTYLE_DIM_EXT1_LINETYPE
1070
   381
1005
16
1001
ACAD_DSTYLE_DIM_EXT2_LINETYPE
1070
   382
1005
16
0
DIMENSION
5
143
100
AcDbEntity
8
SK2
62
256
6
ByLayer
370
13
48
1
60
0
100
AcDbDimension
2
_U2
10
30
20
14.309119
30
0
11
21.2112
21
14.309119
31
0
70
32
71
1
72
1
41
1
210
0
220
0
230
1
3
Standard
100
AcDbAlignedDimension
13
12.4224
23
2.7
33
0
14
30
24
0
34
0
50
0
100
AcDbRotatedDimension
1001
ACAD
1000
DSTYLE
1002
{
1070
   371
1070
    13
1070
   372
1070
    13
1070
   170
1070
     0
1070
   144
1040
1.0
1070
   277
1070
     2
1070
   278
1070
    44
1070
   146
1040
1.0
1070
   345
1005
16
1070
   347
1005
16
1070
   346
1005
16
1070
   344
1005
0
1070
   343
1005
0
1070
   172
1070
     1
1070
    76
1070
     0
1070
    75
1070
     0
1070
   282
1070
     0
1070
   281
1070
     0
1070
    71
1070
     0
1070
    74
1070
     0
1070
   279
1070
     0
1070
   173
1070
     1
1070
   340
1005
FA
1070
   271
1070
     2
1070
   272
1070
     2
1070
    77
1070
     1
1070
    73
1070
     1
1070
   171
1070
     3
1070
   274
1070
     4
1070
   177
1070
    35
1070
   176
1070
    35
1070
   178
1070
    35
1070
    48
1040
-0.1
1070
    41
1040
3.5
1070
   147
1040
1.75
1070
    42
1040
1.5875
1070
    44
1040
2.0
1070
   140
1040
3.5
1002
}
1001
ACAD_DSTYLE_DIM_LINETYPE
1070
   380
1005
16
1001
ACAD_DSTYLE_DIM_EXT1_LINETYPE
1070
   381
1005
16
1001
ACAD_DSTYLE_DIM_EXT2_LINETYPE
1070
   382
1005
16
0
DIMENSION
5
15B
100
AcDbEntity
8
SK2
62
256
6
ByLayer
370
13
48
1
60
0
100
AcDbDimension
2
_U3
10
29
20
-15.502503
30
0
11
47.333333
21
-15.502503
31
0
70
32
71
1
72
1
41
1
210
0
220
0
230
1
3
Standard
100
AcDbAlignedDimension
13
30
23
0
33
0
14
29
24
-2.7
34
0
50
0
100
AcDbRotatedDimension
1001
ACAD
1000
DSTYLE
1002
{
1070
   371
1070
    13
1070
   372
1070
    13
1070
   170
1070
     0
1070
   144
1040
1.0
1070
   277
1070
     2
1070
   278
1070
    44
1070
   146
1040
1.0
1070
   345
1005
16
1070
   347
1005
16
1070
   346
1005
16
1070
   344
1005
0
1070
   343
1005
0
1070
   172
1070
     1
1070
    76
1070
     0
1070
    75
1070
     0
1070
   282
1070
     0
1070
   281
1070
     0
1070
    71
1070
     0
1070
    74
1070
     0
1070
   279
1070
     0
1070
   173
1070
     1
1070
   340
1005
FA
1070
   271
1070
     2
1070
   272
1070
     2
1070
    77
1070
     1
1070
    73
1070
     1
1070
   171
1070
     3
1070
   274
1070
     4
1070
   177
1070
    35
1070
   176
1070
    35
1070
   178
1070
    35
1070
    48
1040
-0.1
1070
    41
1040
3.5
1070
   147
1040
1.75
1070
    42
1040
1.5875
1070
    44
1040
2.0
1070
   140
1040
3.5
1002
}
1001
ACAD_DSTYLE_DIM_LINETYPE
1070
   380
1005
16
1001
ACAD_DSTYLE_DIM_EXT1_LINETYPE
1070
   381
1005
16
1001
ACAD_DSTYLE_DIM_EXT2_LINETYPE
1070
   382
1005
16
0
DIMENSION
5
175
100
AcDbEntity
8
SK2
62
256
6
ByLayer
370
13
48
1
60
0
100
AcDbDimension
2
_U4
10
29
20
-21.343428
30
0
11
-3.5
21
-21.343428
31
0
70
32
71
1
72
1
41
1
210
0
220
0
230
1
3
Standard
100
AcDbAlignedDimension
13
-36
23
-3
33
0
14
29
24
-2.7
34
0
50
0
100
AcDbRotatedDimension
1001
ACAD
1000
DSTYLE
1002
{
1070
   371
1070
    13
1070
   372
1070
    13
1070
   170
1070
     0
1070
   144
1040
1.0
1070
   277
1070
     2
1070
   278
1070
    44
1070
   146
1040
1.0
1070
   345
1005
16
1070
   347
1005
16
1070
   346
1005
16
1070
   344
1005
0
1070
   343
1005
0
1070
   172
1070
     1
1070
    76
1070
     0
1070
    75
1070
     0
1070
   282
1070
     0
1070
   281
1070
     0
1070
    71
1070
     0
1070
    74
1070
     0
1070
   279
1070
     0
1070
   173
1070
     1
1070
   340
1005
FA
1070
   271
1070
     2
1070
   272
1070
     2
1070
    77
1070
     1
1070
    73
1070
     1
1070
   171
1070
     3
1070
   274
1070
     4
1070
   177
1070
    35
1070
   176
1070
    35
1070
   178
1070
    35
1070
    48
1040
-0.1
1070
    41
1040
3.5
1070
   147
1040
1.75
1070
    42
1040
1.5875
1070
    44
1040
2.0
1070
   140
1040
3.5
1002
}
1001
ACAD_DSTYLE_DIM_LINETYPE
1070
   380
1005
16
1001
ACAD_DSTYLE_DIM_EXT1_LINETYPE
1070
   381
1005
16
1001
ACAD_DSTYLE_DIM_EXT2_LINETYPE
1070
   382
1005
16
0
ENDSEC
0
SECTION
2
OBJECTS
0
DICTIONARY
5
1fd
330
0
100
AcDbDictionary
280
0
281
1
3
ACAD_GROUP
350
1fe
3
ACAD_MLINESTYLE
350
1ff
0
DICTIONARY
5
1fe
330
0
100
AcDbDictionary
280
0
281
1
0
DICTIONARY
5
1ff
330
0
100
AcDbDictionary
280
0
281
1
3
Standard
350
18
0
MLINESTYLE
5
18
330
1ff
100
AcDbMlineStyle
2
Standard
70
0
3

62
256
51
90
52
90
71
2
49
-0.5
62
256
6
ByLayer
49
0.5
62
256
6
ByLayer
0
RASTERVARIABLES
5
1eb
330

100
AcDbRasterVariables
90
0
70
1
71
1
72
1
0
ENDSEC
0
EOF
