0
SECTION
2
HEADER
9
$ACADVER
1
AC1015
9
$DWGCODEPAGE
3
ANSI_1252
9
$HANDSEED
5
208
9
$ANGBASE
50
0
9
$ANGDIR
70
0
9
$ATTMODE
70
1
9
$AUNITS
70
0
9
$AUPREC
70
0
9
$CECOLOR
62
256
9
$CELTSCALE
40
1
9
$CELTYPE
6
ByLayer
9
$CELWEIGHT
370
18
9
$CLAYER
8
0
9
$CMLJUST
70
0
9
$CMLSCALE
40
1
9
$CMLSTYLE
2
Standard
9
$DIMSTYLE
2
Standard
9
$TEXTSIZE
40
0.2
9
$TEXTSTYLE
7
Standard
9
$LUNITS
70
2
9
$LUPREC
70
4
9
$EXTNAMES
290
1
9
$INSUNITS
70
4
9
$LTSCALE
40
1
9
$LWDISPLAY
290
1
9
$PDMODE
70
0
9
$PDSIZE
40
0
9
$PLINEGEN
70
0
0
ENDSEC
0
SECTION
2
CLASSES
0
CLASS
1
RASTERVARIABLES
2
AcDbRasterVariables
3
ISM
90
0
280
0
281
0
0
ENDSEC
0
SECTION
2
TABLES
0
TABLE
2
VPORT
5
1fe
100
AcDbSymbolTable
0
VPORT
5
1
100
AcDbSymbolTableRecord
100
AcDbViewportTableRecord
2
*Active
70
0
10
0
20
0
11
1
21
1
12
-1
22
1
13
0
23
0
14
0.5
24
0.5
15
10
25
10
16
0
26
0
36
1
17
0
27
0
37
0
0
ENDTAB
0
TABLE
2
LTYPE
5
1ff
100
AcDbSymbolTable
0
LTYPE
5
14
100
AcDbSymbolTableRecord
100
AcDbLinetypeTableRecord
70
0
2
ByBlock
3

72
65
73
0
40
0
0
LTYPE
5
15
100
AcDbSymbolTableRecord
100
AcDbLinetypeTableRecord
70
0
2
ByLayer
3

72
65
73
0
40
0
0
LTYPE
5
16
100
AcDbSymbolTableRecord
100
AcDbLinetypeTableRecord
70
0
2
Continuous
3
Solid line
72
65
73
0
40
0
0
LTYPE
5
6E
100
AcDbSymbolTableRecord
100
AcDbLinetypeTableRecord
70
0
2
CENTER
3
____ _ ____ _ ____ _ ____
72
65
73
4
40
47.5
49
22
74
0
49
-8.5
74
0
49
8.5
74
0
49
-8.5
74
0
0
LTYPE
5
6F
100
AcDbSymbolTableRecord
100
AcDbLinetypeTableRecord
70
0
2
DASHED
3
__ __ __ __ __ __ __ __ __
72
65
73
2
40
25.72
49
12.86
74
0
49
-12.86
74
0
0
ENDTAB
0
TABLE
2
LAYER
5
200
100
AcDbSymbolTable
0
LAYER
5
10
100
AcDbSymbolTableRecord
100
AcDbLayerTableRecord
2
0
70
0
62
7
6
Continuous
290
1
370
-3
390
0
0
LAYER
5
71
100
AcDbSymbolTableRecord
100
AcDbLayerTableRecord
2
80
70
0
62
-6
6
Continuous
290
1
370
-3
390
0
0
LAYER
5
73
100
AcDbSymbolTableRecord
100
AcDbLayerTableRecord
2
81
70
0
62
-3
6
Continuous
290
1
370
-3
390
0
0
LAYER
5
75
100
AcDbSymbolTableRecord
100
AcDbLayerTableRecord
2
1
70
0
62
4
6
Continuous
290
1
370
-3
390
0
0
LAYER
5
92
100
AcDbSymbolTableRecord
100
AcDbLayerTableRecord
2
4
70
0
62
-2
6
CENTER
290
1
370
-3
390
0
0
LAYER
5
AB
100
AcDbSymbolTableRecord
100
AcDbLayerTableRecord
2
2
70
0
62
7
6
Continuous
290
1
370
-3
390
0
0
LAYER
5
112
100
AcDbSymbolTableRecord
100
AcDbLayerTableRecord
2
Defpoints
70
0
62
7
6
Continuous
290
0
370
-3
390
0
0
LAYER
5
1ea
100
AcDbSymbolTableRecord
100
AcDbLayerTableRecord
2
SK1
70
0
62
4
6
Continuous
290
1
370
-3
390
0
0
LAYER
5
1eb
100
AcDbSymbolTableRecord
100
AcDbLayerTableRecord
2
SK4
70
0
62
2
6
CENTER
290
1
370
-3
390
0
0
LAYER
5
1ec
100
AcDbSymbolTableRecord
100
AcDbLayerTableRecord
2
SK2
70
0
62
7
6
Continuous
290
1
370
-3
390
0
0
LAYER
5
1ed
100
AcDbSymbolTableRecord
100
AcDbLayerTableRecord
2
SK6
70
0
62
5
6
Continuous
290
1
370
-3
390
0
0
ENDTAB
0
TABLE
2
STYLE
5
201
100
AcDbSymbolTable
0
STYLE
5
11
100
AcDbSymbolTableRecord
100
AcDbTextStyleTableRecord
2
Standard
3
txt
70
0
71
0
40
0
41
1
42
0
50
0
0
STYLE
5
F7
100
AcDbSymbolTableRecord
100
AcDbTextStyleTableRecord
2
iso_b_vert
3
simplex.shx
70
0
71
0
40
0
41
1
42
0
50
0
0
STYLE
5
F8
100
AcDbSymbolTableRecord
100
AcDbTextStyleTableRecord
2
DWGDirectTextStyle
3
simplex
70
0
71
0
40
0
41
1
42
0
50
0
0
ENDTAB
0
TABLE
2
DIMSTYLE
5
202
100
AcDbSymbolTable
100
AcDbDimStyleTable
0
DIMSTYLE
105
27
100
AcDbSymbolTableRecord
100
AcDbDimStyleTableRecord
2
Standard
70
0
3
<>
41
0.18
42
0.0625
44
0.18
140
0.18
147
0.09
73
0
74
0
77
1
271
2
275
0
278
52
280
0
340
11
0
ENDTAB
0
TABLE
2
VIEW
5
203
100
AcDbSymbolTable
0
ENDTAB
0
TABLE
2
UCS
5
204
100
AcDbSymbolTable
0
ENDTAB
0
TABLE
2
APPID
5
205
100
AcDbSymbolTable
0
APPID
5
12
100
AcDbSymbolTableRecord
100
AcDbRegAppTableRecord
2
ACAD
70
0
0
APPID
5
10E
100
AcDbSymbolTableRecord
100
AcDbRegAppTableRecord
2
ACAD_DSTYLE_DIMBREAK
70
0
0
APPID
5
1A9
100
AcDbSymbolTableRecord
100
AcDbRegAppTableRecord
2
ACAD_DSTYLE_DIM_LINETYPE
70
0
0
APPID
5
1AA
100
AcDbSymbolTableRecord
100
AcDbRegAppTableRecord
2
ACAD_DSTYLE_DIM_EXT1_LINETYPE
70
0
0
APPID
5
1AB
100
AcDbSymbolTableRecord
100
AcDbRegAppTableRecord
2
ACAD_DSTYLE_DIM_EXT2_LINETYPE
70
0
0
APPID
5
1E6
100
AcDbSymbolTableRecord
100
AcDbRegAppTableRecord
2
ACAD_MLEADERVER
70
0
0
ENDTAB
0
TABLE
2
BLOCK_RECORD
5
206
100
AcDbSymbolTable
0
BLOCK_RECORD
5
1F
100
AcDbSymbolTableRecord
100
AcDbBlockTableRecord
2
*Model_Space
340
0
70
0
0
BLOCK_RECORD
5
1B
100
AcDbSymbolTableRecord
100
AcDbBlockTableRecord
2
*Paper_Space
340
0
70
0
0
BLOCK_RECORD
5
23
100
AcDbSymbolTableRecord
100
AcDbBlockTableRecord
2
*Paper_Space0
340
0
70
0
0
BLOCK_RECORD
5
113
100
AcDbSymbolTableRecord
100
AcDbBlockTableRecord
2
*D1
340
0
70
0
0
BLOCK_RECORD
5
11F
100
AcDbSymbolTableRecord
100
AcDbBlockTableRecord
2
_U0
340
0
70
0
0
BLOCK_RECORD
5
12B
100
AcDbSymbolTableRecord
100
AcDbBlockTableRecord
2
*D3
340
0
70
0
0
BLOCK_RECORD
5
137
100
AcDbSymbolTableRecord
100
AcDbBlockTableRecord
2
_U1
340
0
70
0
0
BLOCK_RECORD
5
143
100
AcDbSymbolTableRecord
100
AcDbBlockTableRecord
2
*D5
340
0
70
0
0
BLOCK_RECORD
5
150
100
AcDbSymbolTableRecord
100
AcDbBlockTableRecord
2
_U2
340
0
70
0
0
BLOCK_RECORD
5
15C
100
AcDbSymbolTableRecord
100
AcDbBlockTableRecord
2
*D7
340
0
70
0
0
BLOCK_RECORD
5
16A
100
AcDbSymbolTableRecord
100
AcDbBlockTableRecord
2
_U3
340
0
70
0
0
BLOCK_RECORD
5
176
100
AcDbSymbolTableRecord
100
AcDbBlockTableRecord
2
*D9
340
0
70
0
0
BLOCK_RECORD
5
182
100
AcDbSymbolTableRecord
100
AcDbBlockTableRecord
2
_U4
340
0
70
0
0
ENDTAB
0
ENDSEC
0
SECTION
2
BLOCKS
0
BLOCK
5
20
100
AcDbEntity
8
0
100
AcDbBlockBegin
2
*Model_Space
70
0
10
0
20
0
30
0
3
*Model_Space
0
ENDBLK
5
21
100
AcDbEntity
8
0
100
AcDbBlockEnd
0
BLOCK
5
1C
100
AcDbEntity
8
0
100
AcDbBlockBegin
2
*Paper_Space
70
0
10
0
20
0
30
0
3
*Paper_Space
0
ENDBLK
5
1D
100
AcDbEntity
8
0
100
AcDbBlockEnd
0
BLOCK
5
24
100
AcDbEntity
8
0
100
AcDbBlockBegin
2
*Paper_Space0
70
0
10
0
20
0
30
0
3
*Paper_Space0
0
ENDBLK
5
25
100
AcDbEntity
8
0
100
AcDbBlockEnd
0
BLOCK
5
114
100
AcDbEntity
8
0
100
AcDbBlockBegin
2
*D1
70
1
10
0
20
0
30
0
3
*D1
0
LINE
5
116
100
AcDbEntity
8
0
62
256
6
ByLayer
370
-2
48
1
60
0
100
AcDbLine
10
0
20
-1.5875
30
0
11
0
21
-14.398398
31
0
39
0
210
0
220
0
230
1
0
LINE
5
117
100
AcDbEntity
8
0
62
256
6
ByLayer
370
-2
48
1
60
0
100
AcDbLine
10
29.2
20
-3.7725
30
0
11
29.2
21
-14.398398
31
0
39
0
210
0
220
0
230
1
0
LINE
5
118
100
AcDbEntity
8
0
62
256
6
ByLayer
370
-2
48
1
60
0
100
AcDbLine
10
3.5
20
-12.398398
30
0
11
25.7
21
-12.398398
31
0
39
0
210
0
220
0
230
1
0
SOLID
5
119
100
AcDbEntity
8
0
62
256
6
ByLayer
370
-1
48
1
60
0
100
AcDbTrace
10
3.5
20
-11.815065
30
0
11
3.5
21
-12.981732
31
0
12
0
22
-12.398398
32
0
13
0
23
-12.398398
33
0
39
0
210
0
220
0
230
1
0
SOLID
5
11A
100
AcDbEntity
8
0
62
256
6
ByLayer
370
-1
48
1
60
0
100
AcDbTrace
10
25.7
20
-12.981732
30
0
11
25.7
21
-11.815065
31
0
12
29.2
22
-12.398398
32
0
13
29.2
23
-12.398398
33
0
39
0
210
0
220
0
230
1
0
MTEXT
5
11B
100
AcDbEntity
8
0
62
256
6
ByLayer
370
18
48
1
60
0
100
AcDbMText
10
14.6
20
-5.398398
30
0
210
0
220
0
230
1
1
\A1;29.20
40
3.5
41
0
44
1
50
0
71
5
72
5
7
iso_b_vert
0
POINT
5
11C
100
AcDbEntity
8
Defpoints
62
0
6
ByLayer
370
-1
48
1
60
0
100
AcDbPoint
10
0
20
0
30
0
39
0
210
0
220
0
230
1
50
360
0
POINT
5
11D
100
AcDbEntity
8
Defpoints
62
0
6
ByLayer
370
-1
48
1
60
0
100
AcDbPoint
10
29.2
20
-2.185
30
0
39
0
210
0
220
0
230
1
50
360
0
POINT
5
11E
100
AcDbEntity
8
Defpoints
62
0
6
ByLayer
370
-1
48
1
60
0
100
AcDbPoint
10
29.2
20
-12.398398
30
0
39
0
210
0
220
0
230
1
50
360
0
ENDBLK
5
115
100
AcDbEntity
8
0
100
AcDbBlockEnd
0
BLOCK
5
126
100
AcDbEntity
8
0
100
AcDbBlockBegin
2
_U0
70
0
10
0
20
0
30
0
3
_U0
0
MTEXT
5
120
100
AcDbEntity
8
SK2
62
256
6
ByLayer
370
13
48
1
60
0
100
AcDbMText
10
9.462701
20
-11.365765
30
0
210
0
220
0
230
1
1
\W0.7317;29,20
40
3.5
41
0
44
1.084337
50
0
71
7
72
5
7
iso_b_vert
0
LINE
5
121
100
AcDbEntity
8
SK2
62
256
6
ByLayer
370
13
48
1
60
0
100
AcDbLine
10
0
20
-1.5875
30
0
11
0
21
-14.398398
31
0
39
0
210
0
220
0
230
1
0
LINE
5
122
100
AcDbEntity
8
SK2
62
256
6
ByLayer
370
13
48
1
60
0
100
AcDbLine
10
29.2
20
-3.7725
30
0
11
29.2
21
-14.398398
31
0
39
0
210
0
220
0
230
1
0
LINE
5
123
100
AcDbEntity
8
SK2
62
256
6
ByLayer
370
13
48
1
60
0
100
AcDbLine
10
0
20
-12.398398
30
0
11
29.2
21
-12.398398
31
0
39
0
210
0
220
0
230
1
0
SOLID
5
124
100
AcDbEntity
8
SK2
62
256
6
ByLayer
370
18
48
1
60
0
100
AcDbTrace
10
0
20
-12.398398
30
0
11
3.499998
21
-11.937615
31
0
12
3.500002
22
-12.859182
32
0
13
3.500002
23
-12.859182
33
0
39
0
210
0
220
0
230
1
0
SOLID
5
125
100
AcDbEntity
8
SK2
62
256
6
ByLayer
370
18
48
1
60
0
100
AcDbTrace
10
29.2
20
-12.398398
30
0
11
25.700002
21
-12.859182
31
0
12
25.699998
22
-11.937615
32
0
13
25.699998
23
-11.937615
33
0
39
0
210
0
220
0
230
1
0
ENDBLK
5
127
100
AcDbEntity
8
0
100
AcDbBlockEnd
0
BLOCK
5
12C
100
AcDbEntity
8
0
100
AcDbBlockBegin
2
*D3
70
1
10
0
20
0
30
0
3
*D3
0
LINE
5
12E
100
AcDbEntity
8
0
62
256
6
ByLayer
370
-2
48
1
60
0
100
AcDbLine
10
-36
20
-4.5875
30
0
11
-36
21
-33.692985
31
0
39
0
210
0
220
0
230
1
0
LINE
5
12F
100
AcDbEntity
8
0
62
256
6
ByLayer
370
-2
48
1
60
0
100
AcDbLine
10
30
20
-1.5875
30
0
11
30
21
-33.692985
31
0
39
0
210
0
220
0
230
1
0
LINE
5
130
100
AcDbEntity
8
0
62
256
6
ByLayer
370
-2
48
1
60
0
100
AcDbLine
10
-32.5
20
-31.692985
30
0
11
26.5
21
-31.692985
31
0
39
0
210
0
220
0
230
1
0
SOLID
5
131
100
AcDbEntity
8
0
62
256
6
ByLayer
370
-1
48
1
60
0
100
AcDbTrace
10
-32.5
20
-31.109652
30
0
11
-32.5
21
-32.276319
31
0
12
-36
22
-31.692985
32
0
13
-36
23
-31.692985
33
0
39
0
210
0
220
0
230
1
0
SOLID
5
132
100
AcDbEntity
8
0
62
256
6
ByLayer
370
-1
48
1
60
0
100
AcDbTrace
10
26.5
20
-32.276319
30
0
11
26.5
21
-31.109652
31
0
12
30
22
-31.692985
32
0
13
30
23
-31.692985
33
0
39
0
210
0
220
0
230
1
0
MTEXT
5
133
100
AcDbEntity
8
0
62
256
6
ByLayer
370
18
48
1
60
0
100
AcDbMText
10
-3
20
-24.692985
30
0
210
0
220
0
230
1
1
\A1;66.00
40
3.5
41
0
44
1
50
0
71
5
72
5
7
iso_b_vert
0
POINT
5
134
100
AcDbEntity
8
Defpoints
62
0
6
ByLayer
370
-1
48
1
60
0
100
AcDbPoint
10
-36
20
-3
30
0
39
0
210
0
220
0
230
1
50
360
0
POINT
5
135
100
AcDbEntity
8
Defpoints
62
0
6
ByLayer
370
-1
48
1
60
0
100
AcDbPoint
10
30
20
0
30
0
39
0
210
0
220
0
230
1
50
360
0
POINT
5
136
100
AcDbEntity
8
Defpoints
62
0
6
ByLayer
370
-1
48
1
60
0
100
AcDbPoint
10
30
20
-31.692985
30
0
39
0
210
0
220
0
230
1
50
360
0
ENDBLK
5
12D
100
AcDbEntity
8
0
100
AcDbBlockEnd
0
BLOCK
5
13E
100
AcDbEntity
8
0
100
AcDbBlockBegin
2
_U1
70
0
10
0
20
0
30
0
3
_U1
0
MTEXT
5
138
100
AcDbEntity
8
SK2
62
256
6
ByLayer
370
13
48
1
60
0
100
AcDbMText
10
-8.137299
20
-30.660352
30
0
210
0
220
0
230
1
1
\W0.7317;66,00
40
3.5
41
0
44
1.084337
50
0
71
7
72
5
7
iso_b_vert
0
LINE
5
139
100
AcDbEntity
8
SK2
62
256
6
ByLayer
370
13
48
1
60
0
100
AcDbLine
10
-36
20
-4.5875
30
0
11
-36
21
-33.692985
31
0
39
0
210
0
220
0
230
1
0
LINE
5
13A
100
AcDbEntity
8
SK2
62
256
6
ByLayer
370
13
48
1
60
0
100
AcDbLine
10
30
20
-1.5875
30
0
11
30
21
-33.692985
31
0
39
0
210
0
220
0
230
1
0
LINE
5
13B
100
AcDbEntity
8
SK2
62
256
6
ByLayer
370
13
48
1
60
0
100
AcDbLine
10
-36
20
-31.692985
30
0
11
30
21
-31.692985
31
0
39
0
210
0
220
0
230
1
0
SOLID
5
13C
100
AcDbEntity
8
SK2
62
256
6
ByLayer
370
18
48
1
60
0
100
AcDbTrace
10
-36
20
-31.692985
30
0
11
-32.500002
21
-31.232202
31
0
12
-32.499998
22
-32.153769
32
0
13
-32.499998
23
-32.153769
33
0
39
0
210
0
220
0
230
1
0
SOLID
5
13D
100
AcDbEntity
8
SK2
62
256
6
ByLayer
370
18
48
1
60
0
100
AcDbTrace
10
30
20
-31.692985
30
0
11
26.500002
21
-32.153769
31
0
12
26.499998
22
-31.232202
32
0
13
26.499998
23
-31.232202
33
0
39
0
210
0
220
0
230
1
0
ENDBLK
5
13F
100
AcDbEntity
8
0
100
AcDbBlockEnd
0
BLOCK
5
144
100
AcDbEntity
8
0
100
AcDbBlockBegin
2
*D5
70
1
10
0
20
0
30
0
3
*D5
0
LINE
5
146
100
AcDbEntity
8
0
62
256
6
ByLayer
370
-2
48
1
60
0
100
AcDbLine
10
14.3263
20
3.7725
30
0
11
14.3263
21
15.794119
31
0
39
0
210
0
220
0
230
1
0
LINE
5
147
100
AcDbEntity
8
0
62
256
6
ByLayer
370
-2
48
1
60
0
100
AcDbLine
10
30
20
1.5875
30
0
11
30
21
15.794119
31
0
39
0
210
0
220
0
230
1
0
LINE
5
148
100
AcDbEntity
8
0
62
256
6
ByLayer
370
-2
48
1
60
0
100
AcDbLine
10
10.8263
20
13.794119
30
0
11
7.3263
21
13.794119
31
0
39
0
210
0
220
0
230
1
0
LINE
5
149
100
AcDbEntity
8
0
62
256
6
ByLayer
370
-2
48
1
60
0
100
AcDbLine
10
33.5
20
13.794119
30
0
11
37
21
13.794119
31
0
39
0
210
0
220
0
230
1
0
SOLID
5
14A
100
AcDbEntity
8
0
62
256
6
ByLayer
370
-1
48
1
60
0
100
AcDbTrace
10
10.8263
20
13.210786
30
0
11
10.8263
21
14.377453
31
0
12
14.3263
22
13.794119
32
0
13
14.3263
23
13.794119
33
0
39
0
210
0
220
0
230
1
0
SOLID
5
14B
100
AcDbEntity
8
0
62
256
6
ByLayer
370
-1
48
1
60
0
100
AcDbTrace
10
33.5
20
14.377453
30
0
11
33.5
21
13.210786
31
0
12
30
22
13.794119
32
0
13
30
23
13.794119
33
0
39
0
210
0
220
0
230
1
0
MTEXT
5
14C
100
AcDbEntity
8
0
62
256
6
ByLayer
370
18
48
1
60
0
100
AcDbMText
10
22.16315
20
20.794119
30
0
210
0
220
0
230
1
1
\A1;15.67
40
3.5
41
0
44
1
50
0
71
5
72
5
7
iso_b_vert
0
POINT
5
14D
100
AcDbEntity
8
Defpoints
62
0
6
ByLayer
370
-1
48
1
60
0
100
AcDbPoint
10
14.3263
20
2.185
30
0
39
0
210
0
220
0
230
1
50
360
0
POINT
5
14E
100
AcDbEntity
8
Defpoints
62
0
6
ByLayer
370
-1
48
1
60
0
100
AcDbPoint
10
30
20
0
30
0
39
0
210
0
220
0
230
1
50
360
0
POINT
5
14F
100
AcDbEntity
8
Defpoints
62
0
6
ByLayer
370
-1
48
1
60
0
100
AcDbPoint
10
30
20
13.794119
30
0
39
0
210
0
220
0
230
1
50
360
0
ENDBLK
5
145
100
AcDbEntity
8
0
100
AcDbBlockEnd
0
BLOCK
5
157
100
AcDbEntity
8
0
100
AcDbBlockBegin
2
_U2
70
0
10
0
20
0
30
0
3
_U2
0
MTEXT
5
151
100
AcDbEntity
8
SK2
62
256
6
ByLayer
370
13
48
1
60
0
100
AcDbMText
10
17.463285
20
14.826753
30
0
210
0
220
0
230
1
1
\W0.6713;15,67
40
3.5
41
0
44
1.084337
50
0
71
7
72
5
7
iso_b_vert
0
LINE
5
152
100
AcDbEntity
8
SK2
62
256
6
ByLayer
370
13
48
1
60
0
100
AcDbLine
10
14.3263
20
3.7725
30
0
11
14.3263
21
15.794119
31
0
39
0
210
0
220
0
230
1
0
LINE
5
153
100
AcDbEntity
8
SK2
62
256
6
ByLayer
370
13
48
1
60
0
100
AcDbLine
10
30
20
1.5875
30
0
11
30
21
15.794119
31
0
39
0
210
0
220
0
230
1
0
LINE
5
154
100
AcDbEntity
8
SK2
62
256
6
ByLayer
370
13
48
1
60
0
100
AcDbLine
10
14.3263
20
13.794119
30
0
11
30
21
13.794119
31
0
39
0
210
0
220
0
230
1
0
SOLID
5
155
100
AcDbEntity
8
SK2
62
256
6
ByLayer
370
18
48
1
60
0
100
AcDbTrace
10
14.3263
20
13.794119
30
0
11
17.826298
21
14.254903
31
0
12
17.826302
22
13.333335
32
0
13
17.826302
23
13.333335
33
0
39
0
210
0
220
0
230
1
0
SOLID
5
156
100
AcDbEntity
8
SK2
62
256
6
ByLayer
370
18
48
1
60
0
100
AcDbTrace
10
30
20
13.794119
30
0
11
26.500002
21
13.333335
31
0
12
26.499998
22
14.254903
32
0
13
26.499998
23
14.254903
33
0
39
0
210
0
220
0
230
1
0
ENDBLK
5
158
100
AcDbEntity
8
0
100
AcDbBlockEnd
0
BLOCK
5
15D
100
AcDbEntity
8
0
100
AcDbBlockBegin
2
*D7
70
1
10
0
20
0
30
0
3
*D7
0
LINE
5
15F
100
AcDbEntity
8
0
62
256
6
ByLayer
370
-2
48
1
60
0
100
AcDbLine
10
30
20
-1.5875
30
0
11
30
21
-16.987503
31
0
39
0
210
0
220
0
230
1
0
LINE
5
160
100
AcDbEntity
8
0
62
256
6
ByLayer
370
-2
48
1
60
0
100
AcDbLine
10
29.2
20
-3.7725
30
0
11
29.2
21
-16.987503
31
0
39
0
210
0
220
0
230
1
0
LINE
5
161
100
AcDbEntity
8
0
62
256
6
ByLayer
370
-2
48
1
60
0
100
AcDbLine
10
30
20
-14.987503
30
0
11
58.166667
21
-14.987503
31
0
39
0
210
0
220
0
230
1
0
LINE
5
162
100
AcDbEntity
8
0
62
256
6
ByLayer
370
-2
48
1
60
0
100
AcDbLine
10
33.5
20
-14.987503
30
0
11
37
21
-14.987503
31
0
39
0
210
0
220
0
230
1
0
LINE
5
163
100
AcDbEntity
8
0
62
256
6
ByLayer
370
-2
48
1
60
0
100
AcDbLine
10
25.7
20
-14.987503
30
0
11
22.2
21
-14.987503
31
0
39
0
210
0
220
0
230
1
0
SOLID
5
164
100
AcDbEntity
8
0
62
256
6
ByLayer
370
-1
48
1
60
0
100
AcDbTrace
10
33.5
20
-14.40417
30
0
11
33.5
21
-15.570837
31
0
12
30
22
-14.987503
32
0
13
30
23
-14.987503
33
0
39
0
210
0
220
0
230
1
0
SOLID
5
165
100
AcDbEntity
8
0
62
256
6
ByLayer
370
-1
48
1
60
0
100
AcDbTrace
10
25.7
20
-15.570837
30
0
11
25.7
21
-14.40417
31
0
12
29.2
22
-14.987503
32
0
13
29.2
23
-14.987503
33
0
39
0
210
0
220
0
230
1
0
MTEXT
5
166
100
AcDbEntity
8
0
62
256
6
ByLayer
370
18
48
1
60
0
100
AcDbMText
10
47.583333
20
-7.987503
30
0
210
0
220
0
230
1
1
\A1;0.80
40
3.5
41
0
44
1
50
0
71
5
72
5
7
iso_b_vert
0
POINT
5
167
100
AcDbEntity
8
Defpoints
62
0
6
ByLayer
370
-1
48
1
60
0
100
AcDbPoint
10
30
20
0
30
0
39
0
210
0
220
0
230
1
50
360
0
POINT
5
168
100
AcDbEntity
8
Defpoints
62
0
6
ByLayer
370
-1
48
1
60
0
100
AcDbPoint
10
29.2
20
-2.185
30
0
39
0
210
0
220
0
230
1
50
360
0
POINT
5
169
100
AcDbEntity
8
Defpoints
62
0
6
ByLayer
370
-1
48
1
60
0
100
AcDbPoint
10
29.2
20
-14.987503
30
0
39
0
210
0
220
0
230
1
50
360
0
ENDBLK
5
15E
100
AcDbEntity
8
0
100
AcDbBlockEnd
0
BLOCK
5
171
100
AcDbEntity
8
0
100
AcDbBlockBegin
2
_U3
70
0
10
0
20
0
30
0
3
_U3
0
MTEXT
5
16B
100
AcDbEntity
8
SK2
62
256
6
ByLayer
370
13
48
1
60
0
100
AcDbMText
10
36.15186
20
-13.95487
30
0
210
0
220
0
230
1
1
\W0.7150;0,80
40
3.5
41
0
44
1.084337
50
0
71
7
72
5
7
iso_b_vert
0
LINE
5
16C
100
AcDbEntity
8
SK2
62
256
6
ByLayer
370
13
48
1
60
0
100
AcDbLine
10
30
20
-1.5875
30
0
11
30
21
-16.987503
31
0
39
0
210
0
220
0
230
1
0
LINE
5
16D
100
AcDbEntity
8
SK2
62
256
6
ByLayer
370
13
48
1
60
0
100
AcDbLine
10
29.2
20
-3.7725
30
0
11
29.2
21
-16.987503
31
0
39
0
210
0
220
0
230
1
0
LINE
5
16E
100
AcDbEntity
8
SK2
62
256
6
ByLayer
370
13
48
1
60
0
100
AcDbLine
10
20.45
20
-14.987503
30
0
11
43.996491
21
-14.987503
31
0
39
0
210
0
220
0
230
1
0
SOLID
5
16F
100
AcDbEntity
8
SK2
62
256
6
ByLayer
370
18
48
1
60
0
100
AcDbTrace
10
30
20
-14.987503
30
0
11
33.499998
21
-14.526719
31
0
12
33.500002
22
-15.448287
32
0
13
33.500002
23
-15.448287
33
0
39
0
210
0
220
0
230
1
0
SOLID
5
170
100
AcDbEntity
8
SK2
62
256
6
ByLayer
370
18
48
1
60
0
100
AcDbTrace
10
29.2
20
-14.987503
30
0
11
25.700002
21
-15.448287
31
0
12
25.699998
22
-14.526719
32
0
13
25.699998
23
-14.526719
33
0
39
0
210
0
220
0
230
1
0
ENDBLK
5
172
100
AcDbEntity
8
0
100
AcDbBlockEnd
0
BLOCK
5
177
100
AcDbEntity
8
0
100
AcDbBlockBegin
2
*D9
70
1
10
0
20
0
30
0
3
*D9
0
LINE
5
179
100
AcDbEntity
8
0
62
256
6
ByLayer
370
-2
48
1
60
0
100
AcDbLine
10
-36
20
-4.5875
30
0
11
-36
21
-23.343428
31
0
39
0
210
0
220
0
230
1
0
LINE
5
17A
100
AcDbEntity
8
0
62
256
6
ByLayer
370
-2
48
1
60
0
100
AcDbLine
10
29.2
20
-3.7725
30
0
11
29.2
21
-23.343428
31
0
39
0
210
0
220
0
230
1
0
LINE
5
17B
100
AcDbEntity
8
0
62
256
6
ByLayer
370
-2
48
1
60
0
100
AcDbLine
10
-32.5
20
-21.343428
30
0
11
25.7
21
-21.343428
31
0
39
0
210
0
220
0
230
1
0
SOLID
5
17C
100
AcDbEntity
8
0
62
256
6
ByLayer
370
-1
48
1
60
0
100
AcDbTrace
10
-32.5
20
-20.760095
30
0
11
-32.5
21
-21.926762
31
0
12
-36
22
-21.343428
32
0
13
-36
23
-21.343428
33
0
39
0
210
0
220
0
230
1
0
SOLID
5
17D
100
AcDbEntity
8
0
62
256
6
ByLayer
370
-1
48
1
60
0
100
AcDbTrace
10
25.7
20
-21.926762
30
0
11
25.7
21
-20.760095
31
0
12
29.2
22
-21.343428
32
0
13
29.2
23
-21.343428
33
0
39
0
210
0
220
0
230
1
0
MTEXT
5
17E
100
AcDbEntity
8
0
62
256
6
ByLayer
370
18
48
1
60
0
100
AcDbMText
10
-3.4
20
-14.343428
30
0
210
0
220
0
230
1
1
\A1;65.20
40
3.5
41
0
44
1
50
0
71
5
72
5
7
iso_b_vert
0
POINT
5
17F
100
AcDbEntity
8
Defpoints
62
0
6
ByLayer
370
-1
48
1
60
0
100
AcDbPoint
10
-36
20
-3
30
0
39
0
210
0
220
0
230
1
50
360
0
POINT
5
180
100
AcDbEntity
8
Defpoints
62
0
6
ByLayer
370
-1
48
1
60
0
100
AcDbPoint
10
29.2
20
-2.185
30
0
39
0
210
0
220
0
230
1
50
360
0
POINT
5
181
100
AcDbEntity
8
Defpoints
62
0
6
ByLayer
370
-1
48
1
60
0
100
AcDbPoint
10
29.2
20
-21.343428
30
0
39
0
210
0
220
0
230
1
50
360
0
ENDBLK
5
178
100
AcDbEntity
8
0
100
AcDbBlockEnd
0
BLOCK
5
189
100
AcDbEntity
8
0
100
AcDbBlockBegin
2
_U4
70
0
10
0
20
0
30
0
3
_U4
0
MTEXT
5
183
100
AcDbEntity
8
SK2
62
256
6
ByLayer
370
13
48
1
60
0
100
AcDbMText
10
-8.537299
20
-20.310795
30
0
210
0
220
0
230
1
1
\W0.7317;65,20
40
3.5
41
0
44
1.084337
50
0
71
7
72
5
7
iso_b_vert
0
LINE
5
184
100
AcDbEntity
8
SK2
62
256
6
ByLayer
370
13
48
1
60
0
100
AcDbLine
10
-36
20
-4.5875
30
0
11
-36
21
-23.343428
31
0
39
0
210
0
220
0
230
1
0
LINE
5
185
100
AcDbEntity
8
SK2
62
256
6
ByLayer
370
13
48
1
60
0
100
AcDbLine
10
29.2
20
-3.7725
30
0
11
29.2
21
-23.343428
31
0
39
0
210
0
220
0
230
1
0
LINE
5
186
100
AcDbEntity
8
SK2
62
256
6
ByLayer
370
13
48
1
60
0
100
AcDbLine
10
-36
20
-21.343428
30
0
11
29.2
21
-21.343428
31
0
39
0
210
0
220
0
230
1
0
SOLID
5
187
100
AcDbEntity
8
SK2
62
256
6
ByLayer
370
18
48
1
60
0
100
AcDbTrace
10
-36
20
-21.343428
30
0
11
-32.500002
21
-20.882645
31
0
12
-32.499998
22
-21.804212
32
0
13
-32.499998
23
-21.804212
33
0
39
0
210
0
220
0
230
1
0
SOLID
5
188
100
AcDbEntity
8
SK2
62
256
6
ByLayer
370
18
48
1
60
0
100
AcDbTrace
10
29.2
20
-21.343428
30
0
11
25.700002
21
-21.804212
31
0
12
25.699998
22
-20.882645
32
0
13
25.699998
23
-20.882645
33
0
39
0
210
0
220
0
230
1
0
ENDBLK
5
18A
100
AcDbEntity
8
0
100
AcDbBlockEnd
0
ENDSEC
0
SECTION
2
ENTITIES
0
ARC
5
B4
100
AcDbEntity
8
1
62
256
6
ByLayer
370
18
48
1
60
0
100
AcDbCircle
39
0
10
1.412498
20
2.951565
30
0
40
0.800000000000001
210
0
220
0
230
1
100
AcDbArc
50
208.016638
51
270.068755
0
ARC
5
B5
100
AcDbEntity
8
1
62
256
6
ByLayer
370
18
48
1
60
0
100
AcDbCircle
39
0
10
0
20
-2.2
30
0
40
0.800000000000001
210
0
220
0
230
1
100
AcDbArc
50
270
51
331.983362
0
ARC
5
B6
100
AcDbEntity
8
1
62
256
6
ByLayer
370
18
48
1
60
0
100
AcDbCircle
39
0
10
1.412498
20
-2.951565
30
0
40
0.800000000000001
210
0
220
0
230
1
100
AcDbArc
50
89.931245
51
151.983362
0
ARC
5
B7
100
AcDbEntity
8
1
62
256
6
ByLayer
370
18
48
1
60
0
100
AcDbCircle
39
0
10
0
20
2.2
30
0
40
0.800000000000001
210
0
220
0
230
1
100
AcDbArc
50
28.016638
51
90
0
ELLIPSE
5
B8
100
AcDbEntity
8
1
62
256
6
ByLayer
370
18
48
1
60
0
100
AcDbEllipse
10
30.000366
20
0.000954
30
0
11
0.800253116016876
21
2.18506870723309
31
0
210
0
220
0
230
1
40
0.073902
41
-2.92896841605139
42
-2.86215245321013
0
ELLIPSE
5
B9
100
AcDbEntity
8
1
62
256
6
ByLayer
370
18
48
1
60
0
100
AcDbEllipse
10
30.031452
20
0.051115
30
0
11
0.0499942250151267
21
0.149068817620407
31
0
210
0
220
0
230
1
40
0.054101
41
2.08099043781923
42
2.37570419589841
0
ELLIPSE
5
BA
100
AcDbEntity
8
1
62
256
6
ByLayer
370
18
48
1
60
0
100
AcDbEllipse
10
30.000366
20
-0.000955
30
0
11
0.80025347659155
21
-2.18506974969698
31
0
210
0
220
0
230
1
40
0.073902
41
2.86215251971832
42
2.92896846624309
0
ELLIPSE
5
BB
100
AcDbEntity
8
1
62
256
6
ByLayer
370
18
48
1
60
0
100
AcDbEllipse
10
29.978175
20
-0.017737
30
0
11
0.0340861298314611
21
0.0966259033362193
31
0
210
0
220
0
230
1
40
0.0884
41
-2.16048506371455
42
-1.14620188421509
0
ELLIPSE
5
BC
100
AcDbEntity
8
1
62
256
6
ByLayer
370
18
48
1
60
0
100
AcDbEllipse
10
20.746967
20
1.005333
30
0
11
9.14397571764518
21
-0.596547346787314
31
0
210
0
220
0
230
1
40
0.058294
41
0.0212339882636263
42
0.296566343582077
0
ELLIPSE
5
BD
100
AcDbEntity
8
1
62
256
6
ByLayer
370
18
48
1
60
0
100
AcDbEllipse
10
30.031452
20
-0.051115
30
0
11
0.0499942282317534
21
-0.149068826109909
31
0
210
0
220
0
230
1
40
0.054101
41
-2.37570421027043
42
-2.08099046462715
0
ELLIPSE
5
BE
100
AcDbEntity
8
1
62
256
6
ByLayer
370
18
48
1
60
0
100
AcDbEllipse
10
29.630969
20
1.005333
30
0
11
0.292882377404291
21
-0.799707144543799
31
0
210
0
220
0
230
1
40
0.073902
41
0.723410335173766
42
1.49099306633095
0
ELLIPSE
5
BF
100
AcDbEntity
8
1
62
256
6
ByLayer
370
18
48
1
60
0
100
AcDbEllipse
10
29.630969
20
-1.005333
30
0
11
0.292882377373731
21
0.799707144472651
31
0
210
0
220
0
230
1
40
0.073902
41
-1.49099306639642
42
-0.72341033518033
0
ELLIPSE
5
C0
100
AcDbEntity
8
1
62
256
6
ByLayer
370
18
48
1
60
0
100
AcDbEllipse
10
8.25
20
-2.322745
30
0
11
-0.25
21
3.06151588455594E-17
31
0
210
0
220
0
230
1
40
1
41
-1.56394941042203
42
-0.720234882141697
0
ELLIPSE
5
C1
100
AcDbEntity
8
1
62
256
6
ByLayer
370
18
48
1
60
0
100
AcDbEllipse
10
8.25
20
2.322745
30
0
11
-0.25
21
3.06151588455594E-17
31
0
210
0
220
0
230
1
40
1
41
0.719987096257271
42
1.58223244941565
0
POINT
5
70
100
AcDbEntity
8
80
62
256
6
ByLayer
370
18
48
1
60
0
100
AcDbPoint
10
0
20
0
30
0
39
0
210
0
220
0
230
1
50
360
0
POINT
5
72
100
AcDbEntity
8
81
62
256
6
ByLayer
370
18
48
1
60
0
100
AcDbPoint
10
30
20
0
30
0
39
0
210
0
220
0
230
1
50
360
0
POINT
5
74
100
AcDbEntity
8
1
62
256
6
ByLayer
370
18
48
1
60
1
100
AcDbPoint
10
29.2
20
-2.185
30
0
39
0
210
0
220
0
230
1
50
360
0
POINT
5
76
100
AcDbEntity
8
1
62
256
6
ByLayer
370
18
48
1
60
1
100
AcDbPoint
10
-36
20
-3
30
0
39
0
210
0
220
0
230
1
50
360
0
POINT
5
77
100
AcDbEntity
8
1
62
256
6
ByLayer
370
18
48
1
60
1
100
AcDbPoint
10
14.3263
20
2.185
30
0
39
0
210
0
220
0
230
1
50
360
0
POINT
5
78
100
AcDbEntity
8
1
62
256
6
ByLayer
370
18
48
1
60
1
100
AcDbPoint
10
29.2
20
-2.185
30
0
39
0
210
0
220
0
230
1
50
360
0
POINT
5
79
100
AcDbEntity
8
1
62
256
6
ByLayer
370
18
48
1
60
1
100
AcDbPoint
10
-36
20
-3
30
0
39
0
210
0
220
0
230
1
50
360
0
POINT
5
7A
100
AcDbEntity
8
1
62
256
6
ByLayer
370
18
48
1
60
1
100
AcDbPoint
10
29.2
20
-2.185
30
0
39
0
210
0
220
0
230
1
50
360
0
SPLINE
5
C2
100
AcDbEntity
8
SK1
62
256
6
ByLayer
370
18
48
1
60
0
100
AcDbSpline
70
4
71
3
72
8
73
4
40
0
40
0
40
0
40
0
40
1
40
1
40
1
40
1
41
1
10
-35.75
20
2.34402029796226
30
0
41
1
10
-35.8336401130007
20
2.26260108442992
30
0
41
1
10
-35.9170122695626
20
2.18095764350451
30
0
41
1
10
-36
20
2.09899251272498
30
0
0
SPLINE
5
C3
100
AcDbEntity
8
SK1
62
256
6
ByLayer
370
18
48
1
60
0
100
AcDbSpline
70
4
71
3
72
8
73
4
40
0
40
0
40
0
40
0
40
1
40
1
40
1
40
1
41
1
10
-36
20
1.52014077603897
30
0
41
1
10
-35.9170063724426
20
1.60211173127246
30
0
41
1
10
-35.8336348378893
20
1.6837544827851
30
0
41
1
10
-35.7499999999999
20
1.76516856127631
30
0
0
SPLINE
5
C4
100
AcDbEntity
8
SK1
62
256
6
ByLayer
370
18
48
1
60
0
100
AcDbSpline
70
4
71
3
72
12
73
8
40
0
40
0
40
0
40
0
40
0.5
40
0.5
40
0.75
40
0.75
40
1
40
1
40
1
40
1
41
1
10
-35.75
20
1.76516856127631
30
0
41
1
10
-35.7260151107903
20
1.78851657870544
30
0
41
1
10
-35.7033639221374
20
1.81626410689725
30
0
41
1
10
-35.6754777620904
20
1.85947237900027
30
0
41
1
10
-35.667028628867
20
1.87448552214954
30
0
41
1
10
-35.6543320679983
20
1.90335260477897
30
0
41
1
10
-35.65
20
1.9175848448921
30
0
41
1
10
-35.65
20
1.92839072809389
30
0
0
SPLINE
5
C5
100
AcDbEntity
8
SK1
62
256
6
ByLayer
370
18
48
1
60
0
100
AcDbSpline
70
4
71
3
72
12
73
8
40
0
40
0
40
0
40
0
40
0.249999999999999
40
0.249999999999999
40
0.499999999999999
40
0.499999999999999
40
1
40
1
40
1
40
1
41
1
10
-35.65
20
2.43006223322178
30
0
41
1
10
-35.65
20
2.43229572169872
30
0
41
1
10
-35.6543359418175
20
2.42999338203316
30
0
41
1
10
-35.6670061648032
20
2.42061225393087
30
0
41
1
10
-35.6754132169203
20
2.41352828372069
30
0
41
1
10
-35.7033957755318
20
2.38875795695606
30
0
41
1
10
-35.7260247133439
20
2.36735896781499
30
0
41
1
10
-35.7500000000001
20
2.34402029796237
30
0
0
SPLINE
5
C6
100
AcDbEntity
8
1
62
256
6
ByLayer
370
18
48
1
60
0
100
AcDbSpline
70
4
71
3
72
8
73
4
40
0
40
0
40
0
40
0
40
1
40
1
40
1
40
1
41
1
10
29.5019306035129
20
0.590602308569146
30
0
41
1
10
29.3899216385033
20
0.582775678947712
30
0
41
1
10
29.2772674623404
20
0.576644911501631
30
0
41
1
10
29.1641518035738
20
0.571727097192507
30
0
0
SPLINE
5
C7
100
AcDbEntity
8
1
62
256
6
ByLayer
370
18
48
1
60
0
100
AcDbSpline
70
4
71
3
72
18
73
14
40
0
40
0
40
0
40
0
40
0.25
40
0.25
40
0.5
40
0.5
40
0.625
40
0.625
40
0.75
40
0.75
40
0.875
40
0.875
40
1
40
1
40
1
40
1
41
1
10
28.8908237034913
20
-1.53185047726455
30
0
41
1
10
28.7554461813023
20
-1.45646146434052
30
0
41
1
10
28.622848614187
20
-1.37393165042229
30
0
41
1
10
28.3638422289384
20
-1.19297513802732
30
0
41
1
10
28.237428205421
20
-1.09456181049092
30
0
41
1
10
28.0537160326643
20
-0.931763871976159
30
0
41
1
10
27.993471185536
20
-0.874948370086742
30
0
41
1
10
27.875338163113
20
-0.755263842375513
30
0
41
1
10
27.8175738383813
20
-0.692479954398095
30
0
41
1
10
27.7072981355494
20
-0.56237523849731
30
0
41
1
10
27.6545068013596
20
-0.494783339792264
30
0
41
1
10
27.5545292263405
20
-0.353533376379914
30
0
41
1
10
27.5070399289792
20
-0.279278820475952
30
0
41
1
10
27.463987364761
20
-0.203139584883701
30
0
0
SPLINE
5
C8
100
AcDbEntity
8
1
62
256
6
ByLayer
370
18
48
1
60
0
100
AcDbSpline
70
4
71
3
72
18
73
14
40
0
40
0
40
0
40
0
40
0.250000000000005
40
0.250000000000005
40
0.375000000000003
40
0.375000000000003
40
0.500000000000002
40
0.500000000000002
40
0.749999999999999
40
0.749999999999999
40
0.875
40
0.875
40
1
40
1
40
1
40
1
41
1
10
29.2290576723997
20
-2.09513579711376
30
0
41
1
10
29.1831913239452
20
-2.08944411363439
30
0
41
1
10
29.1407423560745
20
-2.07389947517555
30
0
41
1
10
29.0826816536345
20
-2.0343998988202
30
0
41
1
10
29.0642525314636
20
-2.018455435774
30
0
41
1
10
29.030134699259
20
-1.98162518222489
30
0
41
1
10
29.0143385125884
20
-1.96068293066182
30
0
41
1
10
28.9707645558668
20
-1.89022193676658
30
0
41
1
10
28.9467661109297
20
-1.83313955812398
30
0
41
1
10
28.9190182516103
20
-1.73100548997422
30
0
41
1
10
28.9111811392977
20
-1.69418667402516
30
0
41
1
10
28.8986881393678
20
-1.61640019222963
30
0
41
1
10
28.8939791314767
20
-1.57526037609344
30
0
41
1
10
28.8908237034913
20
-1.53185047726455
30
0
0
SPLINE
5
C9
100
AcDbEntity
8
1
62
256
6
ByLayer
370
18
48
1
60
0
100
AcDbSpline
70
4
71
3
72
14
73
10
40
0
40
0
40
0
40
0
40
0.272256606727604
40
0.272256606727604
40
0.544513213455208
40
0.544513213455208
40
0.816769820182812
40
0.816769820182812
40
1
40
1
40
1
40
1
41
1
10
8.06051955888606
20
1.87837347800647
30
0
41
1
10
8.06054503507275
20
1.92852137134014
30
0
41
1
10
8.0605642365216
20
1.97221346593346
30
0
41
1
10
8.06059312861655
20
2.04668148081149
30
0
41
1
10
8.0606027460754
20
2.07732023100138
30
0
41
1
10
8.06061532733261
20
2.12410503401486
30
0
41
1
10
8.0606183980573
20
2.14053171202335
30
0
41
1
10
8.06062094285224
20
2.15637536929495
30
0
41
1
10
8.06062126018082
20
2.15957061889384
30
0
41
1
10
8.06062134484139
20
2.15952655917167
30
0
0
SPLINE
5
CA
100
AcDbEntity
8
1
62
256
6
ByLayer
370
18
48
1
60
0
100
AcDbSpline
70
4
71
3
72
38
73
34
40
0
40
0
40
0
40
0
40
0.0625000000000091
40
0.0625000000000091
40
0.0937500000000137
40
0.0937500000000137
40
0.125000000000018
40
0.125000000000018
40
0.187500000000027
40
0.187500000000027
40
0.218750000000031
40
0.218750000000031
40
0.250000000000035
40
0.250000000000035
40
0.312500000000042
40
0.312500000000042
40
0.343750000000042
40
0.343750000000042
40
0.375000000000041
40
0.375000000000041
40
0.406250000000041
40
0.406250000000041
40
0.437500000000041
40
0.437500000000041
40
0.500000000000041
40
0.500000000000041
40
0.625000000000031
40
0.625000000000031
40
0.75000000000002
40
0.75000000000002
40
0.87500000000001
40
0.87500000000001
40
1
40
1
40
1
40
1
41
1
10
29.1117739509881
20
0.461383177757313
30
0
41
1
10
29.1414586601522
20
0.398879891658964
30
0
41
1
10
29.1737721812979
20
0.337321003833949
30
0
41
1
10
29.2251777599879
20
0.247082244999348
30
0
41
1
10
29.2423125580448
20
0.216969987554279
30
0
41
1
10
29.2738738508955
20
0.155186456939816
30
0
41
1
10
29.2885589135051
20
0.123860507160828
30
0
41
1
10
29.3284343997441
20
0.0282262245134461
30
0
41
1
10
29.3497992427775
20
-0.0385769586955291
30
0
41
1
10
29.3652686687531
20
-0.138382898662286
30
0
41
1
10
29.3675790225839
20
-0.17217548521765
30
0
41
1
10
29.3645459634886
20
-0.236659663749606
30
0
41
1
10
29.359203496658
20
-0.267996568008044
30
0
41
1
10
29.3311684364638
20
-0.353844574531223
30
0
41
1
10
29.2964665295777
20
-0.399132029257259
30
0
41
1
10
29.234750912791
20
-0.449716296277216
30
0
41
1
10
29.2122609110473
20
-0.46418221703226
30
0
41
1
10
29.1648747717189
20
-0.487258327386542
30
0
41
1
10
29.1398187332346
20
-0.495901740910739
30
0
41
1
10
29.0886041170479
20
-0.509928848578454
30
0
41
1
10
29.0623205742655
20
-0.514956030790785
30
0
41
1
10
29.0095799818832
20
-0.524147964978511
30
0
41
1
10
28.9830094549629
20
-0.528048622903555
30
0
41
1
10
28.9028277911455
20
-0.537718602120123
30
0
41
1
10
28.848881846068
20
-0.541447763429119
30
0
41
1
10
28.6856941152911
20
-0.54517174629845
30
0
41
1
10
28.5747075446212
20
-0.537641472900958
30
0
41
1
10
28.3525079271753
20
-0.50621076625697
30
0
41
1
10
28.241109021507
20
-0.482345771640581
30
0
41
1
10
28.0178211736928
20
-0.421263517944595
30
0
41
1
10
27.9063045451959
20
-0.384071136329425
30
0
41
1
10
27.6844918230202
20
-0.299962441298192
30
0
41
1
10
27.5740052701948
20
-0.252748168583878
30
0
41
1
10
27.4639873647613
20
-0.203139584883445
30
0
0
SPLINE
5
CB
100
AcDbEntity
8
1
62
256
6
ByLayer
370
18
48
1
60
0
100
AcDbSpline
70
4
71
3
72
18
73
14
40
0
40
0
40
0
40
0
40
0.125
40
0.125
40
0.25
40
0.25
40
0.375
40
0.375
40
0.5
40
0.5
40
0.75
40
0.75
40
1
40
1
40
1
40
1
41
1
10
29.7129919506301
20
0.9631572519435
30
0
41
1
10
29.7203416178249
20
0.943652709549838
30
0
41
1
10
29.7261681243
20
0.92386003758628
30
0
41
1
10
29.733196668169
20
0.883345627085731
30
0
41
1
10
29.7342431562476
20
0.862536680198588
30
0
41
1
10
29.7307978255349
20
0.822379876670084
30
0
41
1
10
29.7262730028204
20
0.80244412008625
30
0
41
1
10
29.712153174248
20
0.764901644809385
30
0
41
1
10
29.7026754918181
20
0.747379793834398
30
0
41
1
10
29.6681989429198
20
0.698195644352978
30
0
41
1
10
29.6386562628962
20
0.671582460989271
30
0
41
1
10
29.5733475908405
20
0.625740261883465
30
0
41
1
10
29.5383063658912
20
0.607042486112562
30
0
41
1
10
29.5019306035129
20
0.590602308569146
30
0
0
SPLINE
5
CC
100
AcDbEntity
8
1
62
256
6
ByLayer
370
18
48
1
60
0
100
AcDbSpline
70
4
71
3
72
20
73
16
40
0
40
0
40
0
40
0
40
0.125
40
0.125
40
0.25
40
0.25
40
0.375
40
0.375
40
0.5
40
0.5
40
0.625
40
0.625
40
0.75
40
0.75
40
1
40
1
40
1
40
1
41
1
10
29.2756933972436
20
-2.11566767492826
30
0
41
1
10
29.2937806538131
20
-2.07094925120015
30
0
41
1
10
29.3119019228798
20
-2.0258355295216
30
0
41
1
10
29.3482635331167
20
-1.93422421368751
30
0
41
1
10
29.3664972980385
20
-1.88780304960122
30
0
41
1
10
29.40302588355
20
-1.79425112400577
30
0
41
1
10
29.4213112103902
20
-1.7472307001641
30
0
41
1
10
29.4579999799789
20
-1.65181709304076
30
0
41
1
10
29.4763972176405
20
-1.60349602613644
30
0
41
1
10
29.5132385909522
20
-1.50630883741255
30
0
41
1
10
29.5316854052379
20
-1.45741158411829
30
0
41
1
10
29.5686746552658
20
-1.35850575172111
30
0
41
1
10
29.5870200980285
20
-1.30903416951398
30
0
41
1
10
29.6416668921394
20
-1.16072694860628
30
0
41
1
10
29.6777771493496
20
-1.06189750287842
30
0
41
1
10
29.713235785645
20
-0.963153403016236
30
0
0
SPLINE
5
CD
100
AcDbEntity
8
1
62
256
6
ByLayer
370
18
48
1
60
0
100
AcDbSpline
70
4
71
3
72
16
73
12
40
0
40
0
40
0
40
0
40
0.125000000000004
40
0.125000000000004
40
0.250000000000008
40
0.250000000000008
40
0.500000000000005
40
0.500000000000005
40
0.750000000000003
40
0.750000000000003
40
1
40
1
40
1
40
1
41
1
10
29.7762561572288
20
-0.591720316084832
30
0
41
1
10
29.7764993225538
20
-0.599767872791801
30
0
41
1
10
29.7743574596635
20
-0.613899026965981
30
0
41
1
10
29.7651599059194
20
-0.6541491899319
30
0
41
1
10
29.7581912486619
20
-0.679811168792924
30
0
41
1
10
29.731437448121
20
-0.768952414859598
30
0
41
1
10
29.7060376029106
20
-0.843497762008241
30
0
41
1
10
29.6531727816802
20
-0.986922491595237
30
0
41
1
10
29.6254204347642
20
-1.05680212191217
30
0
41
1
10
29.5762016355465
20
-1.1716285669628
30
0
41
1
10
29.5545452823079
20
-1.21716578260225
30
0
41
1
10
29.5388782773241
20
-1.24391068098041
30
0
0
SPLINE
5
CE
100
AcDbEntity
8
1
62
256
6
ByLayer
370
18
48
1
60
0
100
AcDbSpline
70
4
71
3
72
10
73
6
40
0
40
0
40
0
40
0
40
0.989119148736297
40
0.989119148736297
40
1
40
1
40
1
40
1
41
1
10
29.2522102844819
20
2.14738806516752
30
0
41
1
10
29.0317164591562
20
2.17205952382562
30
0
41
1
10
28.8105665672151
20
2.18435675462322
30
0
41
1
10
28.5881937269692
20
2.18417545486773
30
0
41
1
10
28.5857742795066
20
2.18417199014505
30
0
41
1
10
28.5833549893321
20
2.18416703398893
30
0
0
SPLINE
5
CF
100
AcDbEntity
8
1
62
256
6
ByLayer
370
18
48
1
60
0
100
AcDbSpline
70
4
71
3
72
34
73
30
40
0
40
0
40
0
40
0
40
0.0907062450199945
40
0.0907062450199945
40
0.155655798947136
40
0.155655798947136
40
0.220605352874278
40
0.220605352874278
40
0.350504460728564
40
0.350504460728564
40
0.415454014655707
40
0.415454014655707
40
0.480403568582849
40
0.480403568582849
40
0.545353122509992
40
0.545353122509992
40
0.577827899473563
40
0.577827899473563
40
0.610302676437135
40
0.610302676437135
40
0.740201784291422
40
0.740201784291422
40
0.805151338218566
40
0.805151338218566
40
0.837626115182138
40
0.837626115182138
40
0.87010089214571
40
0.87010089214571
40
1
40
1
40
1
40
1
41
1
10
18.3377912787951
20
-2.08765798630745
30
0
41
1
10
18.033067606251
20
-2.13828070562957
30
0
41
1
10
17.7284454836638
20
-2.16615580265693
30
0
41
1
10
17.2017323843353
20
-2.17305054306178
30
0
41
1
10
16.9798018806542
20
-2.16345048549147
30
0
41
1
10
16.5400978557883
20
-2.12021833072495
30
0
41
1
10
16.3215293734135
20
-2.08664708494223
30
0
41
1
10
15.6668461437632
20
-1.95177242029951
30
0
41
1
10
15.2311212175851
20
-1.81673693447809
30
0
41
1
10
14.5673433800954
20
-1.55382688357068
30
0
41
1
10
14.347296601781
20
-1.45716999057635
30
0
41
1
10
13.9093583764625
20
-1.24988507175158
30
0
41
1
10
13.6911574795456
20
-1.139118273668
30
0
41
1
10
13.2544662881806
20
-0.90602719925252
30
0
41
1
10
13.0359844052019
20
-0.783684818892709
30
0
41
1
10
12.7065098746883
20
-0.59373655413782
30
0
41
1
10
12.5963955820061
20
-0.529344749818847
30
0
41
1
10
12.3753613488849
20
-0.39873039089872
30
0
41
1
10
12.264609419751
20
-0.332586468300718
30
0
41
1
10
11.7139659852927
20
-0.0019020384267208
30
0
41
1
10
11.2786167731984
20
0.264594946279629
30
0
41
1
10
10.6225672916914
20
0.64932122616446
30
0
41
1
10
10.4033000499082
20
0.774922681147842
30
0
41
1
10
10.071915708973
20
0.956692505550137
30
0
41
1
10
9.96092651184424
20
1.01621443355859
30
0
41
1
10
9.74002192320995
20
1.13166175864913
30
0
41
1
10
9.62987807194736
20
1.1877591503312
30
0
41
1
10
9.07997857744471
20
1.45915811312514
30
0
41
1
10
8.64245121716118
20
1.64686007930692
30
0
41
1
10
8.19904131927703
20
1.79492144265245
30
0
0
SPLINE
5
D0
100
AcDbEntity
8
1
62
256
6
ByLayer
370
18
48
1
60
0
100
AcDbSpline
70
4
71
3
72
8
73
4
40
0
40
0
40
0
40
0
40
1
40
1
40
1
40
1
41
1
10
29.7129919506301
20
0.9631572519435
30
0
41
1
10
29.7130732291466
20
0.963155968995267
30
0
41
1
10
29.7131545074858
20
0.963154686019806
30
0
41
1
10
29.7132357856477
20
0.963153403017117
30
0
0
SPLINE
5
D1
100
AcDbEntity
8
1
62
256
6
ByLayer
370
18
48
1
60
0
100
AcDbSpline
70
4
71
3
72
10
73
6
40
0
40
0
40
0
40
0
40
0.5
40
0.5
40
1
40
1
40
1
40
1
41
1
10
8.10903243584988
20
1.82860973212587
30
0
41
1
10
8.09507306799068
20
1.83524038974721
30
0
41
1
10
8.08327806496425
20
1.84285267698698
30
0
41
1
10
8.06590205773045
20
1.85985582958662
30
0
41
1
10
8.06051484275915
20
1.86909014915511
30
0
41
1
10
8.06051955888583
20
1.87837347800647
30
0
0
SPLINE
5
D2
100
AcDbEntity
8
1
62
256
6
ByLayer
370
18
48
1
60
0
100
AcDbSpline
70
4
71
3
72
14
73
10
40
0
40
0
40
0
40
0
40
0.25
40
0.25
40
0.5
40
0.5
40
0.75
40
0.75
40
1
40
1
40
1
40
1
41
1
10
29.2676640983678
20
-2.07796076477683
30
0
41
1
10
29.2693743698522
20
-2.07620183544668
30
0
41
1
10
29.270545084901
20
-2.07592280467145
30
0
41
1
10
29.2715330294403
20
-2.07907709106732
30
0
41
1
10
29.2713233904707
20
-2.08258943309824
30
0
41
1
10
29.2689565611303
20
-2.09439558515547
30
0
41
1
10
29.2667952794185
20
-2.10266159514967
30
0
41
1
10
29.2605359591033
20
-2.12324650914712
30
0
41
1
10
29.2565254012501
20
-2.13525424898347
30
0
41
1
10
29.2522102844821
20
-2.14738806516746
30
0
0
SPLINE
5
D3
100
AcDbEntity
8
1
62
256
6
ByLayer
370
18
48
1
60
0
100
AcDbSpline
70
4
71
3
72
22
73
18
40
0
40
0
40
0
40
0
40
0.125881209177924
40
0.125881209177924
40
0.251762418355848
40
0.251762418355848
40
0.377643627533772
40
0.377643627533772
40
0.503524836711696
40
0.503524836711696
40
0.62940604588962
40
0.62940604588962
40
0.755287255067545
40
0.755287255067545
40
0.881168464245469
40
0.881168464245469
40
1
40
1
40
1
40
1
41
1
10
9.03375942011874
20
-1.95597186476792
30
0
41
1
10
9.22636435245312
20
-1.99319728278005
30
0
41
1
10
9.41865727390146
20
-2.02174470969393
30
0
41
1
10
9.80274253131608
20
-2.06118956076622
30
0
41
1
10
9.9945791164042
20
-2.07290209537965
30
0
41
1
10
10.3799774247705
20
-2.07668644676508
30
0
41
1
10
10.5721542392917
20
-2.06901618058797
30
0
41
1
10
10.9562938458348
20
-2.03699567891104
30
0
41
1
10
11.1484279335318
20
-2.01289462624265
30
0
41
1
10
11.5331453306092
20
-1.94673298986399
30
0
41
1
10
11.7257075371251
20
-1.90452072552779
30
0
41
1
10
12.1097504864049
20
-1.80392900097172
30
0
41
1
10
12.3015302378701
20
-1.74549155928918
30
0
41
1
10
12.686414212685
20
-1.61529545951203
30
0
41
1
10
12.8787348870369
20
-1.54257466915601
30
0
41
1
10
13.2518327818926
20
-1.38974833913571
30
0
41
1
10
13.4329842409421
20
-1.30991761405198
30
0
41
1
10
13.6144595923281
20
-1.22450782207315
30
0
0
SPLINE
5
D4
100
AcDbEntity
8
1
62
256
6
ByLayer
370
18
48
1
60
0
100
AcDbSpline
70
4
71
3
72
32
73
28
40
0
40
0
40
0
40
0
40
0.0361881582036727
40
0.0361881582036727
40
0.0843787502934894
40
0.0843787502934894
40
0.132569342383306
40
0.132569342383306
40
0.228950526562937
40
0.228950526562937
40
0.325331710742568
40
0.325331710742568
40
0.373522302832383
40
0.373522302832383
40
0.421712894922199
40
0.421712894922199
40
0.518094079101832
40
0.518094079101832
40
0.614475263281466
40
0.614475263281466
40
0.7108564474611
40
0.7108564474611
40
0.807237631640733
40
0.807237631640733
40
0.903618815820367
40
0.903618815820367
40
1
40
1
40
1
40
1
41
1
10
21.4865256535121
20
2.0870642919551
30
0
41
1
10
21.5585605517751
20
2.08703249856998
30
0
41
1
10
21.6306193425525
20
2.08577622204518
30
0
41
1
10
21.7988087258907
20
2.0800608717901
30
0
41
1
10
21.8950917089406
20
2.07463793099942
30
0
41
1
10
22.0875086658634
20
2.05976817352038
30
0
41
1
10
22.1834947701112
20
2.05084679430374
30
0
41
1
10
22.471109641258
20
2.0157075918367
30
0
41
1
10
22.6629492908834
20
1.98151433665419
30
0
41
1
10
23.0470266674516
20
1.89759452777835
30
0
41
1
10
23.2395323452076
20
1.84708664703177
30
0
41
1
10
23.5275367944654
20
1.76209739265687
30
0
41
1
10
23.6234279167703
20
1.7318954719851
30
0
41
1
10
23.815144698741
20
1.66679130543838
30
0
41
1
10
23.9109658709201
20
1.63215890985469
30
0
41
1
10
24.1989647056818
20
1.52355863218745
30
0
41
1
10
24.3917664188705
20
1.44383500249342
30
0
41
1
10
24.7755892141768
20
1.27362843733565
30
0
41
1
10
24.9673069811608
20
1.18318246811549
30
0
41
1
10
25.3513976881779
20
0.991457761858698
30
0
41
1
10
25.5438985997243
20
0.890255421285389
30
0
41
1
10
25.9281141833957
20
0.682854709144721
30
0
41
1
10
26.1196196508358
20
0.575832505700447
30
0
41
1
10
26.5035294652107
20
0.356856356552441
30
0
41
1
10
26.6964987121302
20
0.245376665291786
30
0
41
1
10
27.0804467004425
20
0.0210291815694745
30
0
41
1
10
27.2721427665742
20
-0.0913469708113723
30
0
41
1
10
27.4639873647614
20
-0.203139584883445
30
0
0
SPLINE
5
D5
100
AcDbEntity
8
1
62
256
6
ByLayer
370
18
48
1
60
0
100
AcDbSpline
70
4
71
3
72
20
73
16
40
0
40
0
40
0
40
0
40
0.125
40
0.125
40
0.25
40
0.25
40
0.375
40
0.375
40
0.5
40
0.5
40
0.625
40
0.625
40
0.75
40
0.75
40
1
40
1
40
1
40
1
41
1
10
29.2756933972436
20
2.11566767492826
30
0
41
1
10
29.2937806314332
20
2.07094930653173
30
0
41
1
10
29.3119018864937
20
2.02583562054804
30
0
41
1
10
29.3482634985432
20
1.93422430144042
30
0
41
1
10
29.366497277707
20
1.88780310168912
30
0
41
1
10
29.4030259072755
20
1.79425106322555
30
0
41
1
10
29.4213112614928
20
1.74723056883226
30
0
41
1
10
29.45800011623
20
1.65181673713659
30
0
41
1
10
29.476397410076
20
1.60349552048683
30
0
41
1
10
29.513238907782
20
1.50630799962522
30
0
41
1
10
29.5316857912379
20
1.45741055889755
30
0
41
1
10
29.5686752050038
20
1.35850427486454
30
0
41
1
10
29.5870203915659
20
1.3090333754499
30
0
41
1
10
29.6416669900981
20
1.16072667760588
30
0
41
1
10
29.6777771595419
20
1.0618974744952
30
0
41
1
10
29.713235785645
20
0.963153403016236
30
0
0
SPLINE
5
D6
100
AcDbEntity
8
1
62
256
6
ByLayer
370
18
48
1
60
0
100
AcDbSpline
70
4
71
3
72
10
73
6
40
0
40
0
40
0
40
0
40
0.645759458138214
40
0.645759458138214
40
1
40
1
40
1
40
1
41
1
10
13.7191311965904
20
1.26852120215486
30
0
41
1
10
13.695134536097
20
1.25563317973564
30
0
41
1
10
13.6711207447382
20
1.24277983078997
30
0
41
1
10
13.6339054692144
20
1.22293283158959
30
0
41
1
10
13.6207166865372
20
1.21591354538481
30
0
41
1
10
13.6075219868786
20
1.20890614141666
30
0
0
SPLINE
5
D7
100
AcDbEntity
8
1
62
256
6
ByLayer
370
18
48
1
60
0
100
AcDbSpline
70
4
71
3
72
8
73
4
40
0
40
0
40
0
40
0
40
1
40
1
40
1
40
1
41
1
10
8.19904131927728
20
1.79492144265237
30
0
41
1
10
8.16775847859208
20
1.80536726279141
30
0
41
1
10
8.13641264896572
20
1.81560421349437
30
0
41
1
10
8.10903243584721
20
1.82860973212712
30
0
0
SPLINE
5
D8
100
AcDbEntity
8
1
62
256
6
ByLayer
370
18
48
1
60
0
100
AcDbSpline
70
4
71
3
72
18
73
14
40
0
40
0
40
0
40
0
40
0.0344388360879892
40
0.0344388360879892
40
0.179745272129325
40
0.179745272129325
40
0.32505170817066
40
0.32505170817066
40
0.615664580253331
40
0.615664580253331
40
0.906277452336001
40
0.906277452336001
40
1
40
1
40
1
40
1
41
1
10
17.5301025869921
20
-2.08346296845051
30
0
41
1
10
17.5041535926223
20
-2.08343999595479
30
0
41
1
10
17.4781981140596
20
-2.08325319413072
30
0
41
1
10
17.3426883576903
20
-2.08142200939324
30
0
41
1
10
17.2329896288319
20
-2.07704671570065
30
0
41
1
10
17.012978516496
20
-2.06238548587291
30
0
41
1
10
16.9024603775966
20
-2.05207840102884
30
0
41
1
10
16.5720490262178
20
-2.01250797984426
30
0
41
1
10
16.3529612338548
20
-1.97458823016373
30
0
41
1
10
15.9154251708874
20
-1.87748274357091
30
0
41
1
10
15.6968013163002
20
-1.81819834398817
30
0
41
1
10
15.406767427623
20
-1.72657433000731
30
0
41
1
10
15.3359695923904
20
-1.7031901003493
30
0
41
1
10
15.2650673319288
20
-1.67878834992763
30
0
0
SPLINE
5
D9
100
AcDbEntity
8
1
62
256
6
ByLayer
370
13
48
1
60
0
100
AcDbSpline
70
4
71
3
72
28
73
24
40
0
40
0
40
0
40
0
40
0.0167611305467836
40
0.0167611305467836
40
0.0639754880394802
40
0.0639754880394802
40
0.252832918010269
40
0.252832918010269
40
0.347261632995664
40
0.347261632995664
40
0.394475990488363
40
0.394475990488363
40
0.441690347981062
40
0.441690347981062
40
0.630547777951853
40
0.630547777951853
40
0.67776213544455
40
0.67776213544455
40
0.724976492937248
40
0.724976492937248
40
0.819405207922641
40
0.819405207922641
40
1
40
1
40
1
40
1
41
1
10
15.2650673317878
20
-1.67878834987911
30
0
41
1
10
15.2260434855937
20
-1.66535788730749
30
0
41
1
10
15.1869880060329
20
-1.65161918880685
30
0
41
1
10
15.0377754863035
20
-1.59801854316845
30
0
41
1
10
14.9272130496162
20
-1.55597725804535
30
0
41
1
10
14.3772532839008
20
-1.33607883483501
30
0
41
1
10
13.9427889410518
20
-1.12816017845972
30
0
41
1
10
13.28830778107
20
-0.785353110891151
30
0
41
1
10
13.0696837245459
20
-0.665846013488789
30
0
41
1
10
12.7396593752534
20
-0.480868012707646
30
0
41
1
10
12.6290504871187
20
-0.418114953848772
30
0
41
1
10
12.4088433059834
20
-0.292159975966996
30
0
41
1
10
12.2991130573436
20
-0.228866135791094
30
0
41
1
10
11.7516648873984
20
0.0880246613759823
30
0
41
1
10
11.3172607156157
20
0.342309680611095
30
0
41
1
10
10.7703060633719
20
0.646537570796085
30
0
41
1
10
10.660706364225
20
0.706683706753353
30
0
41
1
10
10.440819703658
20
0.825104972313596
30
0
41
1
10
10.3302617322054
20
0.883523194704992
30
0
41
1
10
9.99947993139236
20
1.05411228770117
30
0
41
1
10
9.78037035130242
20
1.16145928062301
30
0
41
1
10
9.14417919221287
20
1.45363474089885
30
0
41
1
10
8.72850198162988
20
1.61892912570895
30
0
41
1
10
8.30820848811638
20
1.74878843579611
30
0
0
SPLINE
5
DA
100
AcDbEntity
8
1
62
256
6
ByLayer
370
13
48
1
60
0
100
AcDbSpline
70
4
71
3
72
8
73
4
40
0
40
0
40
0
40
0
40
1
40
1
40
1
40
1
41
1
10
8.06051955888603
20
1.87837347800644
30
0
41
1
10
8.07716905945512
20
1.85626986094914
30
0
41
1
10
8.0966944008816
20
1.83700187962705
30
0
41
1
10
8.11955303406793
20
1.82101847519979
30
0
0
SPLINE
5
DB
100
AcDbEntity
8
1
62
256
6
ByLayer
370
18
48
1
60
0
100
AcDbSpline
70
4
71
3
72
8
73
4
40
0
40
0
40
0
40
0
40
1
40
1
40
1
40
1
41
1
10
29.7129919506301
20
-0.9631572519435
30
0
41
1
10
29.7130732291466
20
-0.963155968995267
30
0
41
1
10
29.7131545074858
20
-0.963154686019806
30
0
41
1
10
29.7132357856477
20
-0.963153403017117
30
0
0
SPLINE
5
DC
100
AcDbEntity
8
1
62
256
6
ByLayer
370
18
48
1
60
0
100
AcDbSpline
70
4
71
3
72
64
73
60
40
0
40
0
40
0
40
0
40
0.0201455448202903
40
0.0201455448202903
40
0.0594986959048273
40
0.0594986959048273
40
0.0988518469893644
40
0.0988518469893644
40
0.138204998073901
40
0.138204998073901
40
0.177558149158439
40
0.177558149158439
40
0.197234724700707
40
0.197234724700707
40
0.216911300242975
40
0.216911300242975
40
0.256264451327511
40
0.256264451327511
40
0.295617602412047
40
0.295617602412047
40
0.334970753496583
40
0.334970753496583
40
0.374323904581119
40
0.374323904581119
40
0.413677055665655
40
0.413677055665655
40
0.453030206750191
40
0.453030206750191
40
0.492383357834727
40
0.492383357834727
40
0.531736508919263
40
0.531736508919263
40
0.571089660003799
40
0.571089660003799
40
0.590766235546067
40
0.590766235546067
40
0.610442811088336
40
0.610442811088336
40
0.649795962172873
40
0.649795962172873
40
0.68914911325741
40
0.68914911325741
40
0.708825688799678
40
0.708825688799678
40
0.728502264341946
40
0.728502264341946
40
0.767855415426481
40
0.767855415426481
40
0.807208566511016
40
0.807208566511016
40
0.846561717595551
40
0.846561717595551
40
0.885914868680086
40
0.885914868680086
40
0.925268019764621
40
0.925268019764621
40
0.964621170849156
40
0.964621170849156
40
1
40
1
40
1
40
1
41
1
10
24.8862753074607
20
-1.22006466360617
30
0
41
1
10
24.7882522065942
20
-1.26642804401976
30
0
41
1
10
24.6901582352636
20
-1.31143070768846
30
0
41
1
10
24.4000570594455
20
-1.44030924689034
30
0
41
1
10
24.2084976836536
20
-1.51972829738011
30
0
41
1
10
23.8257486613201
20
-1.66451651872691
30
0
41
1
10
23.6346165870119
20
-1.73023198663819
30
0
41
1
10
23.2504366681059
20
-1.84412054732908
30
0
41
1
10
23.0588741089661
20
-1.89464034214427
30
0
41
1
10
22.6757337201277
20
-1.97906375269943
30
0
41
1
10
22.4840196492632
20
-2.01361626293465
30
0
41
1
10
22.1959518927768
20
-2.0495573236831
30
0
41
1
10
22.1000394450794
20
-2.05861997924754
30
0
41
1
10
21.9081375437672
20
-2.07378706382119
30
0
41
1
10
21.8121938170925
20
-2.07939242663792
30
0
41
1
10
21.5245455606023
20
-2.08976564735306
30
0
41
1
10
21.3329841473669
20
-2.08824600668447
30
0
41
1
10
20.94826525754
20
-2.06712399067899
30
0
41
1
10
20.756667112163
20
-2.04622409574051
30
0
41
1
10
20.373469353332
20
-1.9885030460602
30
0
41
1
10
20.1817007962262
20
-1.95025604665409
30
0
41
1
10
19.7974029972744
20
-1.85809606332197
30
0
41
1
10
19.6054532801537
20
-1.80484276154039
30
0
41
1
10
19.2219394045739
20
-1.682864611376
30
0
41
1
10
19.0305490695801
20
-1.61358089927199
30
0
41
1
10
18.6459099747124
20
-1.46115447448662
30
0
41
1
10
18.4538690039204
20
-1.379137970605
30
0
41
1
10
18.0703352413736
20
-1.20422073490343
30
0
41
1
10
17.8784125345647
20
-1.11155456230361
30
0
41
1
10
17.4938420560905
20
-0.914212590809285
30
0
41
1
10
17.3016129393565
20
-0.812009762273163
30
0
41
1
10
16.9174316574036
20
-0.602396854498579
30
0
41
1
10
16.7256790399424
20
-0.494389319720028
30
0
41
1
10
16.4368560834212
20
-0.32924455870338
30
0
41
1
10
16.3405278743276
20
-0.27361976711785
30
0
41
1
10
16.1481802076399
20
-0.162367880199042
30
0
41
1
10
16.0521574017599
20
-0.10647064159599
30
0
41
1
10
15.7640893787247
20
0.0612611031032486
30
0
41
1
10
15.5717749722475
20
0.172664102257585
30
0
41
1
10
15.1865864558014
20
0.394599150892589
30
0
41
1
10
14.9942562316607
20
0.504189898643858
30
0
41
1
10
14.7059662401434
20
0.66407888673271
30
0
41
1
10
14.6099085365203
20
0.716782686808415
30
0
41
1
10
14.4178491643951
20
0.820408223394367
30
0
41
1
10
14.3217442449023
20
0.871238769509063
30
0
41
1
10
14.0327460848799
20
1.02122396187804
30
0
41
1
10
13.840140787091
20
1.11752653951657
30
0
41
1
10
13.4559493523168
20
1.29975191455725
30
0
41
1
10
13.2637727739826
20
1.38484801661698
30
0
41
1
10
12.8784861686194
20
1.5426860524617
30
0
41
1
10
12.6860765685595
20
1.61541510047636
30
0
41
1
10
12.3014177783717
20
1.74552417016048
30
0
41
1
10
12.1093604922976
20
1.80406272172163
30
0
41
1
10
11.7238932533679
20
1.90496418653063
30
0
41
1
10
11.5311634462545
20
1.94712670423226
30
0
41
1
10
11.147024705704
20
2.01308259726503
30
0
41
1
10
10.9547017888011
20
2.03719201585665
30
0
41
1
10
10.5887919713374
20
2.06757142008925
30
0
41
1
10
10.4158163250679
20
2.07511793461828
30
0
41
1
10
10.2432563234693
20
2.07507537982528
30
0
0
SPLINE
5
DD
100
AcDbEntity
8
1
62
256
6
ByLayer
370
18
48
1
60
0
100
AcDbSpline
70
4
71
3
72
8
73
4
40
0
40
0
40
0
40
0
40
1
40
1
40
1
40
1
41
1
10
9.03375281283695
20
-1.95596695756629
30
0
41
1
10
8.77115704432003
20
-1.90547543707294
30
0
41
1
10
8.51047707882449
20
-1.83834079712992
30
0
41
1
10
8.25063830749386
20
-1.75124955608411
30
0
0
SPLINE
5
DE
100
AcDbEntity
8
1
62
256
6
ByLayer
370
18
48
1
60
0
100
AcDbSpline
70
4
71
3
72
14
73
10
40
0
40
0
40
0
40
0
40
0.0667058756440797
40
0.0667058756440797
40
0.363838576500397
40
0.363838576500397
40
0.958103978213018
40
0.958103978213018
40
1
40
1
40
1
40
1
41
1
10
28.7575212161161
20
-2.09711054956028
30
0
41
1
10
28.7083186845707
20
-2.09689414174542
30
0
41
1
10
28.6591117145986
20
-2.09608171881831
30
0
41
1
10
28.3906401410351
20
-2.08840702215304
30
0
41
1
10
28.1706872416771
20
-2.0702728510328
30
0
41
1
10
27.5104220424494
20
-1.98095086153026
30
0
41
1
10
27.0764711711586
20
-1.87623921679159
30
0
41
1
10
26.6107363660794
20
-1.72267460592761
30
0
41
1
10
26.5800591762871
20
-1.71236886026145
30
0
41
1
10
26.5493742057067
20
-1.70187332956391
30
0
0
SPLINE
5
DF
100
AcDbEntity
8
1
62
256
6
ByLayer
370
13
48
1
60
0
100
AcDbSpline
70
4
71
3
72
26
73
22
40
0
40
0
40
0
40
0
40
0.0854854379420214
40
0.0854854379420214
40
0.185002781208735
40
0.185002781208735
40
0.384037467742165
40
0.384037467742165
40
0.48355481100888
40
0.48355481100888
40
0.583072154275595
40
0.583072154275595
40
0.782106840809022
40
0.782106840809022
40
0.83186551244238
40
0.83186551244238
40
0.881624184075737
40
0.881624184075737
40
0.981141527342452
40
0.981141527342452
40
1
40
1
40
1
40
1
41
1
10
26.5493751518803
20
-1.70187365319444
30
0
41
1
10
26.3624375184958
20
-1.63793326434876
30
0
41
1
10
26.175211107127
20
-1.56694912313969
30
0
41
1
10
25.7680623855415
20
-1.39934518781195
30
0
41
1
10
25.5470015112589
20
-1.29988287714571
30
0
41
1
10
24.8898977389903
20
-0.983986280812701
30
0
41
1
10
24.4564971795912
20
-0.749088042907601
30
0
41
1
10
23.8024916078957
20
-0.378205592533675
30
0
41
1
10
23.5837943682566
20
-0.25153069882893
30
0
41
1
10
23.143482911115
20
0.0054410193621663
30
0
41
1
10
22.9238480484385
20
0.134225260986341
30
0
41
1
10
22.2687372456771
20
0.513370682743357
30
0
41
1
10
21.8353015328205
20
0.758447360742338
30
0
41
1
10
21.2881725636415
20
1.03962511105257
30
0
41
1
10
21.1784729751346
20
1.09458185739317
30
0
41
1
10
20.9583191032755
20
1.20159137035347
30
0
41
1
10
20.8479078606961
20
1.25362549615869
30
0
41
1
10
20.5183332740175
20
1.40338578404271
30
0
41
1
10
20.2997572546582
20
1.4951641301914
30
0
41
1
10
20.0401070316474
20
1.59400995749587
30
0
41
1
10
19.9987506794334
20
1.60944097384586
30
0
41
1
10
19.9573959863288
20
1.62454724969066
30
0
0
SPLINE
5
E0
100
AcDbEntity
8
1
62
256
6
ByLayer
370
18
48
1
60
0
100
AcDbSpline
70
4
71
3
72
8
73
4
40
0
40
0
40
0
40
0
40
1
40
1
40
1
40
1
41
1
10
19.9573959864114
20
1.62454724966054
30
0
41
1
10
19.8530816377701
20
1.66265178404092
30
0
41
1
10
19.7487778454727
20
1.69869010604478
30
0
41
1
10
19.6443736652039
20
1.73252402715914
30
0
0
SPLINE
5
E1
100
AcDbEntity
8
1
62
256
6
ByLayer
370
13
48
1
60
0
100
AcDbSpline
70
4
71
3
72
12
73
8
40
0
40
0
40
0
40
0
40
0.252495656649757
40
0.252495656649757
40
0.504991313299514
40
0.504991313299514
40
1
40
1
40
1
40
1
41
1
10
8.25049060005662
20
1.76638916930071
30
0
41
1
10
8.25051151478158
20
1.81716812101246
30
0
41
1
10
8.25052736743612
20
1.86170543665827
30
0
41
1
10
8.25055157716594
20
1.93860548677748
30
0
41
1
10
8.25055995255923
20
1.97109302327976
30
0
41
1
10
8.25057703076791
20
2.04777722293571
30
0
41
1
10
8.25057847001742
20
2.07296773780021
30
0
41
1
10
8.2505796017912
20
2.07274625945698
30
0
0
SPLINE
5
E2
100
AcDbEntity
8
1
62
256
6
ByLayer
370
18
48
1
60
0
100
AcDbSpline
70
4
71
3
72
20
73
16
40
0
40
0
40
0
40
0
40
0.143616282333114
40
0.143616282333114
40
0.287232564666227
40
0.287232564666227
40
0.430848846999341
40
0.430848846999341
40
0.574465129332455
40
0.574465129332455
40
0.718081411665568
40
0.718081411665568
40
0.861697693998682
40
0.861697693998682
40
1
40
1
40
1
40
1
41
1
10
13.7202098445757
20
-1.26905596962018
30
0
41
1
10
13.8835070016328
20
-1.3500009708244
30
0
41
1
10
14.0465663864925
20
-1.42544243167731
30
0
41
1
10
14.3713321942749
20
-1.56716236266186
30
0
41
1
10
14.5325831131299
20
-1.6338823405766
30
0
41
1
10
14.8556445839657
20
-1.75587151757293
30
0
41
1
10
15.0173750956378
20
-1.8113426511492
30
0
41
1
10
15.3402486704003
20
-1.91207120720162
30
0
41
1
10
15.5018787766785
20
-1.95682814298925
30
0
41
1
10
15.8270886018813
20
-2.0339217923279
30
0
41
1
10
15.9906372666033
20
-2.06675011503921
30
0
41
1
10
16.3168472887128
20
-2.11926540802693
30
0
41
1
10
16.4797020999601
20
-2.13861275945141
30
0
41
1
10
16.7977000349432
20
-2.16393407254202
30
0
41
1
10
16.9528369896708
20
-2.17024567299163
30
0
41
1
10
17.1083417513609
20
-2.17039867228769
30
0
0
SPLINE
5
E3
100
AcDbEntity
8
1
62
256
6
ByLayer
370
18
48
1
60
0
100
AcDbSpline
70
4
71
3
72
28
73
24
40
0
40
0
40
0
40
0
40
0.0064032127596714
40
0.0064032127596714
40
0.116802855786367
40
0.116802855786367
40
0.172002677299716
40
0.172002677299716
40
0.227202498813065
40
0.227202498813065
40
0.337602141839764
40
0.337602141839764
40
0.44800178486647
40
0.44800178486647
40
0.558401427893176
40
0.558401427893176
40
0.668801070919883
40
0.668801070919883
40
0.779200713946588
40
0.779200713946588
40
0.889600356973295
40
0.889600356973295
40
1
40
1
40
1
40
1
41
1
10
24.873028656342
20
1.22277649518099
30
0
41
1
10
24.8824093745482
20
1.22751196452794
30
0
41
1
10
24.8917927112254
20
1.23223434059929
30
0
41
1
10
25.0630090527382
20
1.31813111458607
30
0
41
1
10
25.2257829008513
20
1.39524433234558
30
0
41
1
10
25.4706222498675
20
1.50567361362531
30
0
41
1
10
25.5521209432282
20
1.5415643810457
30
0
41
1
10
25.7147415796306
20
1.61026146801422
30
0
41
1
10
25.7959897497391
20
1.64314433512237
30
0
41
1
10
26.0393160807014
20
1.73778883941992
30
0
41
1
10
26.2006778554706
20
1.79584191245138
30
0
41
1
10
26.5228229935128
20
1.90069556470064
30
0
41
1
10
26.6841472304035
20
1.94707045390004
30
0
41
1
10
27.0067732388544
20
2.02827704191992
30
0
41
1
10
27.1677050075274
20
2.06324412475436
30
0
41
1
10
27.4918967259735
20
2.11990957614202
30
0
41
1
10
27.655008294277
20
2.1419598148253
30
0
41
1
10
27.9811884911029
20
2.17292715984146
30
0
41
1
10
28.1436081603584
20
2.18153476926437
30
0
41
1
10
28.4679204178124
20
2.18543997604652
30
0
41
1
10
28.6291842813864
20
2.18070483498633
30
0
41
1
10
28.9520175304452
20
2.1579645937874
30
0
41
1
10
29.1139306235688
20
2.14015323418914
30
0
41
1
10
29.2756933972362
20
2.11566767492943
30
0
0
SPLINE
5
E4
100
AcDbEntity
8
1
62
256
6
ByLayer
370
18
48
1
60
0
100
AcDbSpline
70
4
71
3
72
64
73
60
40
0
40
0
40
0
40
0
40
0.0625000000000172
40
0.0625000000000172
40
0.125000000000034
40
0.125000000000034
40
0.250000000000069
40
0.250000000000069
40
0.375000000000103
40
0.375000000000103
40
0.43750000000012
40
0.43750000000012
40
0.500000000000136
40
0.500000000000136
40
0.562500000000152
40
0.562500000000152
40
0.59375000000016
40
0.59375000000016
40
0.609375000000163
40
0.609375000000163
40
0.617187500000165
40
0.617187500000165
40
0.621093750000166
40
0.621093750000166
40
0.625000000000167
40
0.625000000000167
40
0.626953125000167
40
0.626953125000167
40
0.628906250000166
40
0.632812500000166
40
0.640625000000162
40
0.640625000000162
40
0.656250000000156
40
0.656250000000156
40
0.687500000000142
40
0.687500000000142
40
0.703125000000135
40
0.703125000000135
40
0.718750000000128
40
0.718750000000128
40
0.734375000000121
40
0.734375000000121
40
0.750000000000114
40
0.750000000000114
40
0.765625000000107
40
0.765625000000107
40
0.7812500000001
40
0.7812500000001
40
0.812500000000086
40
0.812500000000086
40
0.843750000000072
40
0.843750000000072
40
0.875000000000058
40
0.875000000000058
40
0.906250000000044
40
0.906250000000044
40
0.93750000000003
40
0.93750000000003
40
1
40
1
40
1
40
1
41
1
10
13.719130074259
20
-1.26852328812558
30
0
41
1
10
13.5100134846339
20
-1.16535902557865
30
0
41
1
10
13.2979877276065
20
-1.06008977465211
30
0
41
1
10
12.8680978712637
20
-0.847890517487542
30
0
41
1
10
12.6504902519011
20
-0.741115270129427
30
0
41
1
10
11.996971962486
20
-0.427125142178994
30
0
41
1
10
11.5571986513601
20
-0.22477792877612
30
0
41
1
10
10.6612578746357
20
0.143650879264868
30
0
41
1
10
10.2049875762211
20
0.309483034666556
30
0
41
1
10
9.50388190985942
20
0.51832513862027
30
0
41
1
10
9.26752554465224
20
0.581292625141032
30
0
41
1
10
8.79295254505524
20
0.692206822629771
30
0
41
1
10
8.55424007417585
20
0.740321138097841
30
0
41
1
10
8.07373332586076
20
0.82180870992886
30
0
41
1
10
7.83177505553363
20
0.855212631892584
30
0
41
1
10
7.466972432528
20
0.894271141200875
30
0
41
1
10
7.34517110477051
20
0.905440023822479
30
0
41
1
10
7.1621627964829
20
0.919432346732151
30
0
41
1
10
7.10110661788625
20
0.923636136611066
30
0
41
1
10
7.00947921139328
20
0.929248980884779
30
0
41
1
10
6.9789281953756
20
0.93100455151918
30
0
41
1
10
6.93308879125269
20
0.933464742965157
30
0
41
1
10
6.9178057437509
20
0.934255998393695
30
0
41
1
10
6.88724147942551
20
0.935780449861653
30
0
41
1
10
6.87197716337451
20
0.936113211945752
30
0
41
1
10
6.84930861476766
20
0.931099327994104
30
0
41
1
10
6.84223698070755
20
0.92828106105469
30
0
41
1
10
6.82852774115983
20
0.922164223265952
30
0
41
1
10
6.8079998909283
20
0.912916674014895
30
0
41
1
10
6.76035942554574
20
0.890820106420421
30
0
41
1
10
6.71998718716532
20
0.870945058176687
30
0
41
1
10
6.6399248933532
20
0.829802072425622
30
0
41
1
10
6.5875538316734
20
0.800568626025608
30
0
41
1
10
6.43523694018222
20
0.706713073858253
30
0
41
1
10
6.33940720878655
20
0.636205583195363
30
0
41
1
10
6.21096890624665
20
0.508491802164201
30
0
41
1
10
6.17141131103116
20
0.462695073405854
30
0
41
1
10
6.10212726579999
20
0.363958054208467
30
0
41
1
10
6.07199538396543
20
0.310060180417196
30
0
41
1
10
6.02691174078359
20
0.19788398472997
30
0
41
1
10
6.01157871668195
20
0.139345144221181
30
0
41
1
10
5.99737546859166
20
0.0166138526509201
30
0
41
1
10
5.99889487558605
20
-0.0445105526156055
30
0
41
1
10
6.01672721782364
20
-0.165534234588648
30
0
41
1
10
6.03313874877134
20
-0.225178718886809
30
0
41
1
10
6.07592757134657
20
-0.338214439234832
30
0
41
1
10
6.10251656827006
20
-0.392592654446958
30
0
41
1
10
6.1933926668477
20
-0.54954654218966
30
0
41
1
10
6.26618236940865
20
-0.642765039081524
30
0
41
1
10
6.42490539271839
20
-0.816421925805599
30
0
41
1
10
6.51128715383365
20
-0.896629218574589
30
0
41
1
10
6.68869524588737
20
-1.04440634799056
30
0
41
1
10
6.78039397860999
20
-1.11258154913551
30
0
41
1
10
6.96795204493844
20
-1.2405336687282
30
0
41
1
10
7.06383549977886
20
-1.30027097273464
30
0
41
1
10
7.25888771436715
20
-1.41282022975125
30
0
41
1
10
7.3582268135626
20
-1.46567516987847
30
0
41
1
10
7.65687860045028
20
-1.61341575487376
30
0
41
1
10
7.85795825170305
20
-1.69834672273436
30
0
41
1
10
8.06069220570046
20
-1.77219467634273
30
0
0
SPLINE
5
E5
100
AcDbEntity
8
1
62
256
6
ByLayer
370
13
48
1
60
0
100
AcDbSpline
70
4
71
3
72
14
73
10
40
0
40
0
40
0
40
0
40
0.0100093320604895
40
0.0100093320604895
40
0.505004666030244
40
0.505004666030244
40
0.752502333015122
40
0.752502333015122
40
1
40
1
40
1
40
1
41
1
10
8.25057960022141
20
-2.07274655032273
30
0
41
1
10
8.25057962357451
20
-2.07274246615697
30
0
41
1
10
8.25057964679488
20
-2.07272756789314
30
0
41
1
10
8.25058081588017
20
-2.07143037149584
30
0
41
1
10
8.25058203738297
20
-2.0425434182587
30
0
41
1
10
8.2505944805356
20
-1.96112495315543
30
0
41
1
10
8.250600294669
20
-1.92778885293941
30
0
41
1
10
8.25061608868214
20
-1.84884556326088
30
0
41
1
10
8.25062612632348
20
-1.8029930810695
30
0
41
1
10
8.25063830730838
20
-1.75124955602754
30
0
0
SPLINE
5
E6
100
AcDbEntity
8
1
62
256
6
ByLayer
370
18
48
1
60
0
100
AcDbSpline
70
4
71
3
72
12
73
8
40
0
40
0
40
0
40
0
40
0.500000000000037
40
0.500000000000037
40
0.750000000000018
40
0.750000000000018
40
1
40
1
40
1
40
1
41
1
10
8.2506383073075
20
-1.75124955601987
30
0
41
1
10
8.21705374789099
20
-1.73999287963983
30
0
41
1
10
8.1830467586509
20
-1.73495722847272
30
0
41
1
10
8.13361901384488
20
-1.73938188311897
30
0
41
1
10
8.11775299576556
20
-1.7428392322293
30
0
41
1
10
8.08746251526526
20
-1.75425138109907
30
0
41
1
10
8.07322958037736
20
-1.76221841251464
30
0
41
1
10
8.06069220570046
20
-1.77219467634273
30
0
0
SPLINE
5
E7
100
AcDbEntity
8
1
62
256
6
ByLayer
370
18
48
1
60
0
100
AcDbSpline
70
4
71
3
72
14
73
10
40
0
40
0
40
0
40
0
40
0.0756984613265939
40
0.0756984613265939
40
0.537849230663297
40
0.537849230663297
40
0.768924615331649
40
0.768924615331649
40
1
40
1
40
1
40
1
41
1
10
8.06062134461536
20
-2.15952666886335
30
0
41
1
10
8.06062138602599
20
-2.15950802210924
30
0
41
1
10
8.06062137220974
20
-2.15872188182308
30
0
41
1
10
8.06062126982209
20
-2.14763302402773
30
0
41
1
10
8.06062151510795
20
-2.1102502495583
30
0
41
1
10
8.06063645296629
20
-2.0120136602894
30
0
41
1
10
8.06064376969792
20
-1.97249687535481
30
0
41
1
10
8.06066382630078
20
-1.88154999295421
30
0
41
1
10
8.06067658576993
20
-1.82996143421295
30
0
41
1
10
8.06069220570043
20
-1.77219467634273
30
0
0
SPLINE
5
E8
100
AcDbEntity
8
1
62
256
6
ByLayer
370
18
48
1
60
0
100
AcDbSpline
70
4
71
3
72
69
73
65
40
0
40
0
40
0
40
0
40
0.0765312451565247
40
0.0765312451565247
40
0.170057586038171
40
0.170057586038171
40
0.263583926919817
40
0.263583926919817
40
0.357110267801462
40
0.357110267801462
40
0.368801060411668
40
0.368801060411668
40
0.37172375856422
40
0.372089095833289
40
0.372089095833289
40
0.372454433102358
40
0.372454433102358
40
0.372819770371426
40
0.372819770371426
40
0.373185107640496
40
0.373185107640496
40
0.374646456716771
40
0.374646456716771
40
0.380491853021874
40
0.380491853021874
40
0.403873438242284
40
0.403873438242284
40
0.450636608683105
40
0.450636608683105
40
0.544162949564747
40
0.544162949564747
40
0.590926120005568
40
0.590926120005568
40
0.614307705225979
40
0.614307705225979
40
0.625998497836184
40
0.625998497836184
40
0.631843894141287
40
0.631843894141287
40
0.637689290446389
40
0.637689290446389
40
0.638419964984527
40
0.638419964984527
40
0.638785302253596
40
0.638785302253596
40
0.639150639522665
40
0.64061198859894
40
0.643534686751492
40
0.649380083056594
40
0.661070875666799
40
0.661070875666799
40
0.684452460887208
40
0.684452460887208
40
0.731215631328027
40
0.731215631328027
40
0.777978801768846
40
0.777978801768846
40
0.824741972209665
40
0.824741972209665
40
0.871505142650483
40
0.871505142650483
40
0.918268313091302
40
0.918268313091302
40
1
40
1
40
1
40
1
41
1
10
12.2719293091116
20
-0.578527433075578
30
0
41
1
10
12.0992836112808
20
-0.511154462263931
30
0
41
1
10
11.9260146115357
20
-0.45058482061674
30
0
41
1
10
11.5375815327862
20
-0.334623614989965
30
0
41
1
10
11.3206309968896
20
-0.283342613852256
30
0
41
1
10
10.8876038564506
20
-0.212182937852589
30
0
41
1
10
10.6700301387978
20
-0.191900786795259
30
0
41
1
10
10.2332869956779
20
-0.183015515623708
30
0
41
1
10
10.0151211033575
20
-0.194316978049272
30
0
41
1
10
9.76803751713277
20
-0.223711429017897
30
0
41
1
10
9.74055470322091
20
-0.227209682945414
30
0
41
1
10
9.706190568485
20
-0.23186601943226
30
0
41
1
10
9.69845821178734
20
-0.232929610528913
30
0
41
1
10
9.69072539625631
20
-0.234011033056703
30
0
41
1
10
9.6890069814533
20
-0.234251789233042
30
0
41
1
10
9.68761115679058
20
-0.234115623953926
30
0
41
1
10
9.68729625656977
20
-0.235114093899057
30
0
41
1
10
9.68815239410421
20
-0.23560475737392
30
0
41
1
10
9.68931896382605
20
-0.236481377041912
30
0
41
1
10
9.68994667132631
20
-0.236899496161328
30
0
41
1
10
9.69315562331252
20
-0.238958131047809
30
0
41
1
10
9.69593107576998
20
-0.240504194731869
30
0
41
1
10
9.70986358846469
20
-0.248153064359599
30
0
41
1
10
9.72152574128489
20
-0.253963412115837
30
0
41
1
10
9.77984184450656
20
-0.282952303866466
30
0
41
1
10
9.82755280451335
20
-0.30546655892195
30
0
41
1
10
9.97068497581515
20
-0.373107359449193
30
0
41
1
10
10.0667703423919
20
-0.417914788339686
30
0
41
1
10
10.3554532558679
20
-0.552608738035133
30
0
41
1
10
10.5487365745493
20
-0.642579313606745
30
0
41
1
10
10.8377880142069
20
-0.780209750915333
30
0
41
1
10
10.9340285886651
20
-0.826475424287651
30
0
41
1
10
11.0779162908315
20
-0.896994963503687
30
0
41
1
10
11.1258074325017
20
-0.920677802665409
30
0
41
1
10
11.1973171089057
20
-0.956827168107878
30
0
41
1
10
11.2211034930276
20
-0.968974300358155
30
0
41
1
10
11.2565656674313
20
-0.987583630609919
30
0
41
1
10
11.2683512150489
20
-0.993846977806527
30
0
41
1
10
11.2917268599676
20
-1.00669729062082
30
0
41
1
10
11.3037169391168
20
-1.012774724069
30
0
41
1
10
11.3156581960673
20
-1.02170907796372
30
0
41
1
10
11.3174873399345
20
-1.02249617224797
30
0
41
1
10
11.3179617085961
20
-1.02503922683835
30
0
41
1
10
11.3165736081805
20
-1.02538915054473
30
0
41
1
10
11.3150498546797
20
-1.02640817857531
30
0
41
1
10
11.311240476201
20
-1.02895554114221
30
0
41
1
10
11.3013361011183
20
-1.03557598977875
30
0
41
1
10
11.280003755676
20
-1.04982066902667
30
0
41
1
10
11.237341035413
20
-1.07824408683851
30
0
41
1
10
11.2007772066364
20
-1.10247268842917
30
0
41
1
10
11.1276281569713
20
-1.1507120225115
30
0
41
1
10
11.078899478121
20
-1.1825376450933
30
0
41
1
10
10.9328124876407
20
-1.27656489370068
30
0
41
1
10
10.8354732373734
20
-1.33737562535507
30
0
41
1
10
10.6396971269251
20
-1.45346638993451
30
0
41
1
10
10.5416867951848
20
-1.50845281202751
30
0
41
1
10
10.3464287774667
20
-1.60966383985223
30
0
41
1
10
10.2488623562134
20
-1.65607470889353
30
0
41
1
10
10.0528228230167
20
-1.73944733492539
30
0
41
1
10
9.95434734444498
20
-1.77640531354828
30
0
41
1
10
9.75562153263544
20
-1.84022622258922
30
0
41
1
10
9.65495040742212
20
-1.86713615701683
30
0
41
1
10
9.38057488946399
20
-1.92605667579662
30
0
41
1
10
9.20720910694217
20
-1.94736877375834
30
0
41
1
10
9.03375401612925
20
-1.95597213280948
30
0
0
SPLINE
5
E9
100
AcDbEntity
8
1
62
256
6
ByLayer
370
18
48
1
60
0
100
AcDbSpline
70
4
71
3
72
14
73
10
40
0
40
0
40
0
40
0
40
0.25
40
0.25
40
0.5
40
0.5
40
0.75
40
0.75
40
1
40
1
40
1
40
1
41
1
10
29.1641518035739
20
0.571727097192479
30
0
41
1
10
29.1515178993025
20
0.571177825801726
30
0
41
1
10
29.1389042636658
20
0.568603192509755
30
0
41
1
10
29.1168495992454
20
0.556792434691147
30
0
41
1
10
29.1076457715134
20
0.546977675671997
30
0
41
1
10
29.0983815178868
20
0.523440029623771
30
0
41
1
10
29.0979697265678
20
0.510135659129276
30
0
41
1
10
29.1019914423889
20
0.485046134688389
30
0
41
1
10
29.1062797524361
20
0.472951607216203
30
0
41
1
10
29.1117739509881
20
0.461383177757256
30
0
0
SPLINE
5
EA
100
AcDbEntity
8
1
62
256
6
ByLayer
370
18
48
1
60
0
100
AcDbSpline
70
4
71
3
72
70
73
66
40
0
40
0
40
0
40
0
40
0.0331850699756576
40
0.0331850699756576
40
0.0663701399513153
40
0.0663701399513153
40
0.0995552099269729
40
0.0995552099269729
40
0.132740279902631
40
0.132740279902631
40
0.165925349878288
40
0.165925349878288
40
0.199110419853946
40
0.199110419853946
40
0.232295489829603
40
0.232295489829603
40
0.265480559805261
40
0.265480559805261
40
0.298665629780919
40
0.298665629780919
40
0.331850699756576
40
0.331850699756576
40
0.365035769732234
40
0.365035769732234
40
0.398220839707892
40
0.398220839707892
40
0.43140590968355
40
0.43140590968355
40
0.464590979659207
40
0.464590979659207
40
0.497776049634865
40
0.497776049634865
40
0.530961119610522
40
0.530961119610522
40
0.56414618958618
40
0.56414618958618
40
0.597331259561838
40
0.597331259561838
40
0.630516329537495
40
0.630516329537495
40
0.663701399513153
40
0.663701399513153
40
0.696886469488811
40
0.696886469488811
40
0.730071539464468
40
0.730071539464468
40
0.763256609440126
40
0.763256609440126
40
0.796441679415784
40
0.796441679415784
40
0.813034214403612
40
0.813034214403612
40
0.829626749391441
40
0.829626749391441
40
0.862811819367099
40
0.862811819367099
40
0.895996889342757
40
0.895996889342757
40
0.929181959318414
40
0.929181959318414
40
0.962367029294072
40
0.962367029294072
40
0.99555209926973
40
0.99555209926973
40
1
40
1
40
1
40
1
41
1
10
13.7202098445767
20
1.26905596962069
30
0
41
1
10
13.8835070016338
20
1.35000097082488
30
0
41
1
10
14.0465663864936
20
1.42544243167777
30
0
41
1
10
14.371332194276
20
1.56716236266229
30
0
41
1
10
14.5325831131309
20
1.633882340577
30
0
41
1
10
14.8556445839667
20
1.7558715175733
30
0
41
1
10
15.0173750956388
20
1.81134265114952
30
0
41
1
10
15.3402486704012
20
1.91207120720188
30
0
41
1
10
15.5018787766794
20
1.95682814298951
30
0
41
1
10
15.8270886018822
20
2.03392179232807
30
0
41
1
10
15.9906372666041
20
2.06675011503938
30
0
41
1
10
16.3168472887137
20
2.11926540802705
30
0
41
1
10
16.4797020999609
20
2.13861275945149
30
0
41
1
10
16.8036940827649
20
2.16441136231299
30
0
41
1
10
16.9647573375447
20
2.17072167211768
30
0
41
1
10
17.2877792309321
20
2.17005638667302
30
0
41
1
10
17.4494039443271
20
2.16320683187138
30
0
41
1
10
17.772222708621
20
2.13610644298146
30
0
41
1
10
17.9341861213697
20
2.11599159079779
30
0
41
1
10
18.259783516037
20
2.0628353107918
30
0
41
1
10
18.4234383815086
20
2.02926992931157
30
0
41
1
10
18.7491514175059
20
1.95034865394831
30
0
41
1
10
18.9116670808759
20
1.90527884821927
30
0
41
1
10
19.2350412464037
20
1.80339517588885
30
0
41
1
10
19.3959823394214
20
1.7465478848444
30
0
41
1
10
19.7189319176346
20
1.62371295603293
30
0
41
1
10
19.88022956397
20
1.55702432697768
30
0
41
1
10
20.2032063954622
20
1.41368548782597
30
0
41
1
10
20.3654809948671
20
1.33780192481089
30
0
41
1
10
20.6913589128737
20
1.1772098626343
30
0
41
1
10
20.8548336393498
20
1.09155809063242
30
0
41
1
10
21.1801872691517
20
0.916934668406867
30
0
41
1
10
21.3423748047223
20
0.827297646549027
30
0
41
1
10
21.6651066540715
20
0.642355432711838
30
0
41
1
10
21.8262268510658
20
0.547949606290217
30
0
41
1
10
22.1490823015995
20
0.357123323869161
30
0
41
1
10
22.3102122929878
20
0.259706050595014
30
0
41
1
10
22.633398912569
20
0.0633173630300803
30
0
41
1
10
22.7960343142156
20
-0.0346484819386887
30
0
41
1
10
23.1220958931095
20
-0.232403810105211
30
0
41
1
10
23.2853187738002
20
-0.331844099851395
30
0
41
1
10
23.610222956796
20
-0.524817330543499
30
0
41
1
10
23.7721066984036
20
-0.619476480239882
30
0
41
1
10
24.0943591799318
20
-0.805739142459373
30
0
41
1
10
24.2556269856429
20
-0.895909570471702
30
0
41
1
10
24.578369008168
20
-1.07056761316659
30
0
41
1
10
24.7393487645359
20
-1.15575540687868
30
0
41
1
10
25.0630090527384
20
-1.31813111458615
30
0
41
1
10
25.2257829008515
20
-1.39524433234567
30
0
41
1
10
25.4706222498676
20
-1.50567361362539
30
0
41
1
10
25.5521209432284
20
-1.54156438104579
30
0
41
1
10
25.7147415796307
20
-1.61026146801427
30
0
41
1
10
25.7959897497392
20
-1.64314433512246
30
0
41
1
10
26.0393160807016
20
-1.73778883941995
30
0
41
1
10
26.2006778554708
20
-1.79584191245141
30
0
41
1
10
26.5228229935129
20
-1.90069556470067
30
0
41
1
10
26.6841472304035
20
-1.94707045390007
30
0
41
1
10
27.0067732388545
20
-2.02827704191995
30
0
41
1
10
27.1677050075275
20
-2.06324412475436
30
0
41
1
10
27.4918967259735
20
-2.11990957614205
30
0
41
1
10
27.655008294277
20
-2.1419598148253
30
0
41
1
10
27.9811884911029
20
-2.17292715984146
30
0
41
1
10
28.1436081603584
20
-2.18153476926437
30
0
41
1
10
28.3274985920087
20
-2.1837490863133
30
0
41
1
10
28.3492168654818
20
-2.18389065534063
30
0
41
1
10
28.3709216258148
20
-2.1839122067897
30
0
0
SPLINE
5
EB
100
AcDbEntity
8
1
62
256
6
ByLayer
370
18
48
1
60
0
100
AcDbSpline
70
4
71
3
72
8
73
4
40
0
40
0
40
0
40
0
40
1
40
1
40
1
40
1
41
1
10
13.719130074259
20
1.26852328812558
30
0
41
1
10
13.6815407480124
20
1.2499792064302
30
0
41
1
10
13.6438574232881
20
1.23136711018776
30
0
41
1
10
13.6060800419841
20
1.21269440236378
30
0
0
SPLINE
5
EC
100
AcDbEntity
8
1
62
256
6
ByLayer
370
18
48
1
60
0
100
AcDbSpline
70
4
71
3
72
42
73
38
40
0
40
0
40
0
40
0
40
0.0551785124263003
40
0.0551785124263003
40
0.110357024852601
40
0.110357024852601
40
0.220714049705201
40
0.220714049705201
40
0.2758925621315
40
0.2758925621315
40
0.331071074557799
40
0.331071074557799
40
0.441428099410397
40
0.441428099410397
40
0.469017355623547
40
0.469017355623547
40
0.496606611836697
40
0.496606611836697
40
0.551785124262998
40
0.551785124262998
40
0.606963636689298
40
0.606963636689298
40
0.634552892902448
40
0.634552892902448
40
0.662142149115598
40
0.662142149115598
40
0.772499173968202
40
0.772499173968202
40
0.827677686394505
40
0.827677686394505
40
0.855266942607656
40
0.855266942607656
40
0.882856198820807
40
0.882856198820807
40
0.99321322367341
40
0.99321322367341
40
1
40
1
40
1
40
1
41
1
10
29.2522102844821
20
-2.14738806516749
30
0
41
1
10
29.0315387722561
20
-2.17207940552842
30
0
41
1
10
28.8113064930033
20
-2.18436654060724
30
0
41
1
10
28.3694316991771
20
-2.18398790611229
30
0
41
1
10
28.1501083049746
20
-2.17135817829711
30
0
41
1
10
27.4946839452364
20
-2.09781486350502
30
0
41
1
10
27.0608677087608
20
-2.00119900508071
30
0
41
1
10
26.4027381257824
20
-1.79135531388195
30
0
41
1
10
26.1811495387838
20
-1.71005237928924
30
0
41
1
10
25.741914946
20
-1.53054749903106
30
0
41
1
10
25.5235605826371
20
-1.43224659598019
30
0
41
1
10
24.8693969770296
20
-1.11577604497953
30
0
41
1
10
24.434521648067
20
-0.875993862742178
30
0
41
1
10
23.88256173432
20
-0.553961911564926
30
0
41
1
10
23.7720636479825
20
-0.488622497465599
30
0
41
1
10
23.5522216258561
20
-0.357449176172821
30
0
41
1
10
23.4426324616361
20
-0.291486217788929
30
0
41
1
10
23.1146847145695
20
-0.092759782984956
30
0
41
1
10
22.8968543055617
20
0.040348261302114
30
0
41
1
10
22.4607616195273
20
0.304419289153515
30
0
41
1
10
22.2424832710503
20
0.435357745849132
30
0
41
1
10
21.9137549154011
20
0.628498899059451
30
0
41
1
10
21.8039041298036
20
0.692241414287764
30
0
41
1
10
21.5833368276544
20
0.817923764445993
30
0
41
1
10
21.4726463158195
20
0.879862199648187
30
0
41
1
10
20.9223684272115
20
1.18090288948724
30
0
41
1
10
20.4876194644259
20
1.39697592472777
30
0
41
1
10
19.8327164185111
20
1.67002402130063
30
0
41
1
10
19.6138479556606
20
1.75238449802947
30
0
41
1
10
19.2831032156387
20
1.86097906863182
30
0
41
1
10
19.1722588022001
20
1.89472603010736
30
0
41
1
10
18.9518356141288
20
1.95637862456883
30
0
41
1
10
18.8420152570132
20
1.98438172661866
30
0
41
1
10
18.2942841492878
20
2.11006504596944
30
0
41
1
10
17.8597191691137
20
2.16442250878697
30
0
41
1
10
17.3947744436257
20
2.17052451134757
30
0
41
1
10
17.3678227064284
20
2.17069334180576
30
0
41
1
10
17.3408537085234
20
2.17067696700704
30
0
0
SPLINE
5
ED
100
AcDbEntity
8
1
62
256
6
ByLayer
370
18
48
1
60
0
100
AcDbSpline
70
4
71
3
72
26
73
22
40
0
40
0
40
0
40
0
40
0.125
40
0.125
40
0.25
40
0.25
40
0.375
40
0.375
40
0.5
40
0.5
40
0.625
40
0.625
40
0.6875
40
0.6875
40
0.75
40
0.75
40
0.875
40
0.875
40
0.9375
40
0.9375
40
1
40
1
40
1
40
1
41
1
10
29.776256157234
20
-0.591720316085656
30
0
41
1
10
29.7572054665324
20
-0.579667294976332
30
0
41
1
10
29.7329867412822
20
-0.579931606922258
30
0
41
1
10
29.6806213118225
20
-0.600051266015271
30
0
41
1
10
29.6517352971113
20
-0.620114596446513
30
0
41
1
10
29.5930792553703
20
-0.676653467618735
30
0
41
1
10
29.5625896161638
20
-0.713803146328729
30
0
41
1
10
29.5041875745008
20
-0.802950992069128
30
0
41
1
10
29.4756735426235
20
-0.855963795214166
30
0
41
1
10
29.4286238912134
20
-0.97131869766028
30
0
41
1
10
29.4108189784138
20
-1.03263342187816
30
0
41
1
10
29.3995041511436
20
-1.11458313757058
30
0
41
1
10
29.3983367626969
20
-1.13930987218052
30
0
41
1
10
29.4008726150297
20
-1.18303488324298
30
0
41
1
10
29.4045153977075
20
-1.20127816213108
30
0
41
1
10
29.4213722976852
20
-1.2461323522094
30
0
41
1
10
29.4400159765901
20
-1.26148816238546
30
0
41
1
10
29.4735343866944
20
-1.2670850608132
30
0
41
1
10
29.4858106292013
20
-1.26603323772056
30
0
41
1
10
29.5114567950436
20
-1.25874191883159
30
0
41
1
10
29.5248802699132
20
-1.25254634403765
30
0
41
1
10
29.5388782773225
20
-1.2439106809893
30
0
0
SPLINE
5
EE
100
AcDbEntity
8
1
62
256
6
ByLayer
370
18
48
1
60
0
100
AcDbSpline
70
4
71
3
72
17
73
13
40
0
40
0
40
0
40
0
40
0.136867979772453
40
0.222857391447521
40
0.282833610337497
40
0.346942263150146
40
0.419300836407191
40
0.505478024387682
40
0.590825023485892
40
0.678395579744932
40
0.817248633464905
40
1
40
1
40
1
40
1
41
1
10
17.5090214800619
20
-2.08344776488539
30
0
41
1
10
17.6907241705223
20
-2.08386611637749
30
0
41
1
10
17.9865894026339
20
-2.08435197323499
30
0
41
1
10
18.3620839256616
20
-2.08459737632964
30
0
41
1
10
18.6409939407886
20
-2.08454238976026
30
0
41
1
10
18.9018037226514
20
-2.08502511592954
30
0
41
1
10
19.1973995975854
20
-2.08584840857105
30
0
41
1
10
19.5211950552038
20
-2.08587334964787
30
0
41
1
10
19.8651819517819
20
-2.08527975477861
30
0
41
1
10
20.2791083231595
20
-2.08639076155552
30
0
41
1
10
20.8223530842652
20
-2.08800044029738
30
0
41
1
10
21.2493343281452
20
-2.08759975589854
30
0
41
1
10
21.4919658335239
20
-2.08701283687626
30
0
0
SPLINE
5
EF
100
AcDbEntity
8
1
62
256
6
ByLayer
370
18
48
1
60
0
100
AcDbSpline
70
4
71
3
72
12
73
8
40
0
40
0
40
0
40
0
40
0.217787963772159
40
0.403018094944495
40
0.528176289833493
40
0.735140550461665
40
1
40
1
40
1
40
1
41
1
10
10.244372240243
20
2.07498446616981
30
0
41
1
10
10.0996208153992
20
2.07467899614119
30
0
41
1
10
9.83177127811035
20
2.07419711096239
30
0
41
1
10
9.48070318371927
20
2.07397113966076
30
0
41
1
10
9.13697160714685
20
2.07356862377031
30
0
41
1
10
8.74014289687418
20
2.07355396390369
30
0
41
1
10
8.42658876074165
20
2.07300013438442
30
0
41
1
10
8.2505709973604
20
2.07261899416955
30
0
0
SPLINE
5
F0
100
AcDbEntity
8
1
62
256
6
ByLayer
370
18
48
1
60
0
100
AcDbSpline
70
4
71
2
72
6
73
3
40
0
40
0
40
0
40
1
40
1
40
1
41
1
10
28.7377942970393
20
-2.09710317858128
30
0
41
1
10
28.9884643943738
20
-2.09653586721669
30
0
41
1
10
29.2393874823156
20
-2.09826045980265
30
0
0
SPLINE
5
F1
100
AcDbEntity
8
1
62
256
6
ByLayer
370
18
48
1
60
0
100
AcDbSpline
70
4
71
3
72
17
73
13
40
0
40
0
40
0
40
0
40
0.161219185156
40
0.283218264479634
40
0.357562344782497
40
0.428166144760997
40
0.501270976841995
40
0.579378594352894
40
0.707498676085113
40
0.831561121277481
40
0.994398884181945
40
1
40
1
40
1
40
1
41
1
10
21.4936293202541
20
2.08706568999992
30
0
41
1
10
21.32025219326
20
2.08772914934409
30
0
41
1
10
21.015675714956
20
2.08840599025328
30
0
41
1
10
20.6311495868746
20
2.08705279650135
30
0
41
1
10
20.3440709986823
20
2.08683196056421
30
0
41
1
10
20.1095772953377
20
2.08574767473405
30
0
41
1
10
19.8710327908797
20
2.08543638533334
30
0
41
1
10
19.5706354841778
20
2.08574673539081
30
0
41
1
10
19.2154379961806
20
2.08600805978992
30
0
41
1
10
18.7691115576217
20
2.08450142822645
30
0
41
1
10
18.4545817546506
20
2.08461156493939
30
0
41
1
10
18.2734548814982
20
2.08451228626305
30
0
41
1
10
18.2674318475363
20
2.08450880916345
30
0
0
SPLINE
5
F2
100
AcDbEntity
8
1
62
256
6
ByLayer
370
18
48
1
60
0
100
AcDbSpline
70
4
71
3
72
16
73
12
40
0
40
0
40
0
40
0
40
0.0122797319960749
40
0.0659075831133283
40
0.13165272481243
40
0.297320726908311
40
0.466872936589228
40
0.545746577282444
40
0.645707901583908
40
0.798290859207476
40
1
40
1
40
1
40
1
41
1
10
23.1219629653841
20
-0.512378668549161
30
0
41
1
10
23.1219517529568
20
-0.512450063061067
30
0
41
1
10
23.1244512763298
20
-0.513157825204388
30
0
41
1
10
23.1548527092269
20
-0.517891478826158
30
0
41
1
10
23.2711828541006
20
-0.536815675830951
30
0
41
1
10
23.4295332554983
20
-0.570462840904185
30
0
41
1
10
23.6165133216222
20
-0.629516271675669
30
0
41
1
10
23.7923998689149
20
-0.693344573467982
30
0
41
1
10
23.976718700276
20
-0.769874966180112
30
0
41
1
10
24.2454237064665
20
-0.89600077645747
30
0
41
1
10
24.4601153223468
20
-1.00599218694313
30
0
41
1
10
24.5852207777518
20
-1.07351297783637
30
0
0
SPLINE
5
F3
100
AcDbEntity
8
1
62
256
6
ByLayer
370
18
48
1
60
0
100
AcDbSpline
70
4
71
3
72
14
73
10
40
0
40
0
40
0
40
0
40
0.0725104392928671
40
0.184082079819175
40
0.338357913516411
40
0.433048766152225
40
0.549757620605104
40
0.742713942983195
40
1
40
1
40
1
40
1
41
1
10
15.7637067341345
20
0.0769662864045415
30
0
41
1
10
15.765007615418
20
0.0765533227663298
30
0
41
1
10
15.7620257818735
20
0.0775386642976912
30
0
41
1
10
15.7648995356891
20
0.0766380107067448
30
0
41
1
10
15.7513652180635
20
0.0821551788822319
30
0
41
1
10
15.7282905587144
20
0.0924495998720829
30
0
41
1
10
15.6840461425522
20
0.11411841876506
30
0
41
1
10
15.5567889955538
20
0.181500033049417
30
0
41
1
10
15.4473486138402
20
0.243970910772163
30
0
41
1
10
15.3755173556468
20
0.285902387890218
30
0
0
SPLINE
5
F4
100
AcDbEntity
8
1
62
256
6
ByLayer
370
18
48
1
60
0
100
AcDbSpline
70
4
71
3
72
23
73
19
40
0
40
0
40
0
40
0
40
5.24280972967E-05
40
0.0002115549479519
40
0.0010048780792712
40
0.0016778715215222
40
0.0028850071761698
40
0.0050577666306519
40
0.0089927611545171
40
0.0161968414038395
40
0.0296343312576477
40
0.0554901534330546
40
0.107755285685208
40
0.219338006092801
40
0.443151297777088
40
0.562832231272154
40
0.717201207020111
40
1
40
1
40
1
40
1
41
1
10
11.8687029751822
20
-0.511468628235036
30
0
41
1
10
11.8687007211529
20
-0.51146897245556
30
0
41
1
10
11.8686965785735
20
-0.511470873776858
30
0
41
1
10
11.8687915551558
20
-0.511491617714256
30
0
41
1
10
11.8690946970243
20
-0.511539734698829
30
0
41
1
10
11.8691543777676
20
-0.51157619784513
30
0
41
1
10
11.8694150826676
20
-0.511647707897936
30
0
41
1
10
11.8698048648674
20
-0.511768108105656
30
0
41
1
10
11.8706419618877
20
-0.511996969597959
30
0
41
1
10
11.8723534087581
20
-0.512427517411226
30
0
41
1
10
11.8762674060706
20
-0.513283884645489
30
0
41
1
10
11.8859462334072
20
-0.515097425676487
30
0
41
1
10
11.912187908267
20
-0.519363347549387
30
0
41
1
10
11.979692063458
20
-0.529601243613598
30
0
41
1
10
12.08458578681
20
-0.549870181483357
30
0
41
1
10
12.1796718454373
20
-0.574190770506647
30
0
41
1
10
12.3278299262383
20
-0.614992965379429
30
0
41
1
10
12.4671144672273
20
-0.665202326434866
30
0
41
1
10
12.558676748635
20
-0.701465900973091
30
0
0
SPLINE
5
F5
100
AcDbEntity
8
1
62
256
6
ByLayer
370
18
48
1
60
0
100
AcDbSpline
70
4
71
3
72
12
73
8
40
0
40
0
40
0
40
0
40
0.264831941196034
40
0.471774706484934
40
0.596919902424984
40
0.78213079556803
40
1
40
1
40
1
40
1
41
1
10
8.25057099736034
20
-2.07261899416955
30
0
41
1
10
8.42658876074157
20
-2.07300013438444
30
0
41
1
10
8.74014289691195
20
-2.07355396328825
30
0
41
1
10
9.13697160706164
20
-2.0735686251507
30
0
41
1
10
9.48070318393604
20
-2.07397113613658
30
0
41
1
10
9.83184031764245
20
-2.07419717779834
30
0
41
1
10
10.0997588860292
20
-2.07467918824429
30
0
41
1
10
10.2445793485456
20
-2.07498481715393
30
0
0
LINE
5
7B
100
AcDbEntity
8
SK1
62
256
6
ByLayer
370
18
48
1
60
0
100
AcDbLine
10
-35.65
20
1.928391
30
0
11
-35.65
21
2.430062
31
0
39
0
210
0
220
0
230
1
0
LINE
5
7D
100
AcDbEntity
8
SK1
62
256
6
ByLayer
370
18
48
1
60
0
100
AcDbLine
10
-35.1
20
3
30
0
11
-35.1
21
-3
31
0
39
0
210
0
220
0
230
1
0
LINE
5
7E
100
AcDbEntity
8
SK1
62
256
6
ByLayer
370
18
48
1
60
0
100
AcDbLine
10
0
20
-3
30
0
11
0
21
3
31
0
39
0
210
0
220
0
230
1
0
LINE
5
7F
100
AcDbEntity
8
SK1
62
256
6
ByLayer
370
18
48
1
60
0
100
AcDbLine
10
-36
20
2.098993
30
0
11
-36
21
1.520101
31
0
39
0
210
0
220
0
230
1
0
LINE
5
80
100
AcDbEntity
8
SK1
62
256
6
ByLayer
370
13
48
1
60
0
100
AcDbLine
10
-35.75
20
2.34402
30
0
11
-35.75
21
1.765138
31
0
39
0
210
0
220
0
230
1
0
LINE
5
81
100
AcDbEntity
8
SK1
62
256
6
ByLayer
370
18
48
1
60
0
100
AcDbLine
10
-36
20
1.520141
30
0
11
-36
21
-2.1
31
0
39
0
210
0
220
0
230
1
0
LINE
5
82
100
AcDbEntity
8
SK1
62
256
6
ByLayer
370
18
48
1
60
0
100
AcDbLine
10
-36
20
2.1
30
0
11
-36
21
2.098993
31
0
39
0
210
0
220
0
230
1
0
LINE
5
83
100
AcDbEntity
8
1
62
256
6
ByLayer
370
18
48
1
60
0
100
AcDbLine
10
29.954312
20
-0.102515
30
0
11
29.966319
21
-0.073975
31
0
39
0
210
0
220
0
230
1
0
LINE
5
84
100
AcDbEntity
8
1
62
256
6
ByLayer
370
13
48
1
60
0
100
AcDbLine
10
0.706249
20
2.575782
30
0
11
0.706249
21
-2.575782
31
0
39
0
210
0
220
0
230
1
0
LINE
5
85
100
AcDbEntity
8
1
62
256
6
ByLayer
370
18
48
1
60
0
100
AcDbLine
10
29.989828
20
0.054454
30
0
11
29.88962
21
0.420238
31
0
39
0
210
0
220
0
230
1
0
LINE
5
86
100
AcDbEntity
8
1
62
256
6
ByLayer
370
18
48
1
60
0
100
AcDbLine
10
30
20
0.019322
30
0
11
30
21
-0.019322
31
0
39
0
210
0
220
0
230
1
0
LINE
5
87
100
AcDbEntity
8
1
62
256
6
ByLayer
370
13
48
1
60
0
100
AcDbLine
10
29.966319
20
-0.073975
30
0
11
29.111774
21
0.461383
31
0
39
0
210
0
220
0
230
1
0
LINE
5
88
100
AcDbEntity
8
1
62
256
6
ByLayer
370
13
48
1
60
0
100
AcDbLine
10
29.989828
20
0.054454
30
0
11
29.164152
21
0.571727
31
0
39
0
210
0
220
0
230
1
0
LINE
5
89
100
AcDbEntity
8
1
62
256
6
ByLayer
370
18
48
1
60
0
100
AcDbLine
10
0
20
-3
30
0
11
0
21
3
31
0
39
0
210
0
220
0
230
1
0
LINE
5
8A
100
AcDbEntity
8
1
62
256
6
ByLayer
370
18
48
1
60
0
100
AcDbLine
10
29.229058
20
-2.095136
30
0
11
29.236932
21
-2.097552
31
0
39
0
210
0
220
0
230
1
0
LINE
5
8B
100
AcDbEntity
8
1
62
256
6
ByLayer
370
18
48
1
60
0
100
AcDbLine
10
29.989828
20
-0.054454
30
0
11
29.88962
21
-0.420238
31
0
39
0
210
0
220
0
230
1
0
LINE
5
8C
100
AcDbEntity
8
1
62
256
6
ByLayer
370
18
48
1
60
0
100
AcDbLine
10
29.954312
20
-0.102515
30
0
11
28.890824
21
-1.53185
31
0
39
0
210
0
220
0
230
1
0
LINE
5
8D
100
AcDbEntity
8
1
62
256
6
ByLayer
370
18
48
1
60
0
100
AcDbLine
10
29.954312
20
-0.102515
30
0
11
29.776256
21
-0.59172
31
0
39
0
210
0
220
0
230
1
0
LINE
5
8E
100
AcDbEntity
8
1
62
256
6
ByLayer
370
13
48
1
60
0
100
AcDbLine
10
1.413458
20
2.151565
30
0
11
1.413458
21
-2.151565
31
0
39
0
210
0
220
0
230
1
0
LINE
5
8F
100
AcDbEntity
8
1
62
256
6
ByLayer
370
18
48
1
60
0
100
AcDbLine
10
29.538878
20
-1.243911
30
0
11
29.229058
21
-2.095136
31
0
39
0
210
0
220
0
230
1
0
LINE
5
90
100
AcDbEntity
8
80
62
256
6
ByLayer
370
18
48
1
60
0
100
AcDbLine
10
0
20
0
30
0
11
-5
21
0
31
0
39
0
210
0
220
0
230
1
0
LINE
5
91
100
AcDbEntity
8
4
62
256
6
ByLayer
370
18
48
0.05
60
0
100
AcDbLine
10
30
20
0
30
0
11
0
21
0
31
0
39
0
210
0
220
0
230
1
0
LINE
5
93
100
AcDbEntity
8
SK4
62
256
6
ByLayer
370
18
48
0.05
60
0
100
AcDbLine
10
35
20
0
30
0
11
-41
21
0
31
0
39
0
210
0
220
0
230
1
0
LINE
5
95
100
AcDbEntity
8
SK1
62
256
6
ByLayer
370
18
48
1
60
0
100
AcDbLine
10
-36
20
-2.1
30
0
11
-35.1
21
-3
31
0
39
0
210
0
220
0
230
1
0
LINE
5
96
100
AcDbEntity
8
SK1
62
256
6
ByLayer
370
18
48
1
60
0
100
AcDbLine
10
-35.1
20
3
30
0
11
-36
21
2.1
31
0
39
0
210
0
220
0
230
1
0
LINE
5
97
100
AcDbEntity
8
SK1
62
256
6
ByLayer
370
18
48
1
60
0
100
AcDbLine
10
-35.1
20
-3
30
0
11
0
21
-3
31
0
39
0
210
0
220
0
230
1
0
LINE
5
98
100
AcDbEntity
8
SK1
62
256
6
ByLayer
370
18
48
1
60
0
100
AcDbLine
10
0
20
3
30
0
11
-35.1
21
3
31
0
39
0
210
0
220
0
230
1
0
LINE
5
99
100
AcDbEntity
8
1
62
256
6
ByLayer
370
18
48
1
60
0
100
AcDbLine
10
1.413458
20
-2.151565
30
0
11
8.060617
21
-2.159542
31
0
39
0
210
0
220
0
230
1
0
LINE
5
9A
100
AcDbEntity
8
1
62
256
6
ByLayer
370
18
48
1
60
0
100
AcDbLine
10
17.107814
20
-2.170399
30
0
11
17.336319
21
-2.170673
31
0
39
0
210
0
220
0
230
1
0
LINE
5
9B
100
AcDbEntity
8
1
62
256
6
ByLayer
370
18
48
1
60
0
100
AcDbLine
10
28.370401
20
-2.183914
30
0
11
28.588354
21
-2.184175
31
0
39
0
210
0
220
0
230
1
0
LINE
5
9C
100
AcDbEntity
8
1
62
256
6
ByLayer
370
18
48
1
60
0
100
AcDbLine
10
28.588965
20
2.184176
30
0
11
28.370401
21
2.183914
31
0
39
0
210
0
220
0
230
1
0
LINE
5
9D
100
AcDbEntity
8
1
62
256
6
ByLayer
370
18
48
1
60
0
100
AcDbLine
10
17.336527
20
2.170673
30
0
11
17.107814
21
2.170399
31
0
39
0
210
0
220
0
230
1
0
LINE
5
9E
100
AcDbEntity
8
1
62
256
6
ByLayer
370
18
48
1
60
0
100
AcDbLine
10
8.060617
20
2.159542
30
0
11
1.413458
21
2.151565
31
0
39
0
210
0
220
0
230
1
0
LINE
5
9F
100
AcDbEntity
8
81
62
256
6
ByLayer
370
18
48
1
60
0
100
AcDbLine
10
30
20
0
30
0
11
35
21
0
31
0
39
0
210
0
220
0
230
1
0
LINE
5
A0
100
AcDbEntity
8
SK2
62
256
6
ByLayer
370
13
48
1
60
0
100
AcDbLine
10
-44.625163
20
32.117107
30
0
11
-44.625163
21
-11.75
31
0
39
0
210
0
220
0
230
1
0
LINE
5
A2
100
AcDbEntity
8
SK2
62
256
6
ByLayer
370
13
48
1
60
0
100
AcDbLine
10
-37.5875
20
3
30
0
11
-46.625163
21
3
31
0
39
0
210
0
220
0
230
1
0
LINE
5
A3
100
AcDbEntity
8
SK2
62
256
6
ByLayer
370
13
48
1
60
0
100
AcDbLine
10
-37.5875
20
-3
30
0
11
-46.625163
21
-3
31
0
39
0
210
0
220
0
230
1
0
LINE
5
A4
100
AcDbEntity
8
1
62
256
6
ByLayer
370
18
48
1
60
1
100
AcDbLine
10
-44.625163
20
3
30
0
11
-45.085946
21
6.499998
31
0
39
0
210
0
220
0
230
1
0
LINE
5
A5
100
AcDbEntity
8
1
62
256
6
ByLayer
370
18
48
1
60
1
100
AcDbLine
10
-45.085946
20
6.499998
30
0
11
-44.164379
21
6.500002
31
0
39
0
210
0
220
0
230
1
0
LINE
5
A6
100
AcDbEntity
8
1
62
256
6
ByLayer
370
18
48
1
60
1
100
AcDbLine
10
-44.164379
20
6.500002
30
0
11
-44.625163
21
3
31
0
39
0
210
0
220
0
230
1
0
LINE
5
A7
100
AcDbEntity
8
1
62
256
6
ByLayer
370
18
48
1
60
1
100
AcDbLine
10
-44.625163
20
-3
30
0
11
-44.164379
21
-6.499998
31
0
39
0
210
0
220
0
230
1
0
LINE
5
A8
100
AcDbEntity
8
1
62
256
6
ByLayer
370
18
48
1
60
1
100
AcDbLine
10
-44.164379
20
-6.499998
30
0
11
-45.085946
21
-6.500002
31
0
39
0
210
0
220
0
230
1
0
LINE
5
A9
100
AcDbEntity
8
1
62
256
6
ByLayer
370
18
48
1
60
1
100
AcDbLine
10
-45.085946
20
-6.500002
30
0
11
-44.625163
21
-3
31
0
39
0
210
0
220
0
230
1
0
LINE
5
AA
100
AcDbEntity
8
2
62
256
6
ByLayer
370
13
48
1
60
0
100
AcDbLine
10
42.083343
20
30.263727
30
0
11
42.083343
21
-10.935
31
0
39
0
210
0
220
0
230
1
0
LINE
5
AC
100
AcDbEntity
8
2
62
256
6
ByLayer
370
13
48
1
60
0
100
AcDbLine
10
30.7875
20
2.185
30
0
11
44.083343
21
2.185
31
0
39
0
210
0
220
0
230
1
0
LINE
5
AD
100
AcDbEntity
8
2
62
256
6
ByLayer
370
13
48
1
60
0
100
AcDbLine
10
30.7875
20
-2.185
30
0
11
44.083343
21
-2.185
31
0
39
0
210
0
220
0
230
1
0
LINE
5
AE
100
AcDbEntity
8
1
62
256
6
ByLayer
370
18
48
1
60
1
100
AcDbLine
10
42.083343
20
2.185
30
0
11
41.622559
21
5.684998
31
0
39
0
210
0
220
0
230
1
0
LINE
5
AF
100
AcDbEntity
8
1
62
256
6
ByLayer
370
18
48
1
60
1
100
AcDbLine
10
41.622559
20
5.684998
30
0
11
42.544126
21
5.685002
31
0
39
0
210
0
220
0
230
1
0
LINE
5
B0
100
AcDbEntity
8
1
62
256
6
ByLayer
370
18
48
1
60
1
100
AcDbLine
10
42.544126
20
5.685002
30
0
11
42.083343
21
2.185
31
0
39
0
210
0
220
0
230
1
0
LINE
5
B1
100
AcDbEntity
8
1
62
256
6
ByLayer
370
18
48
1
60
1
100
AcDbLine
10
42.083343
20
-2.185
30
0
11
42.544126
21
-5.684998
31
0
39
0
210
0
220
0
230
1
0
LINE
5
B2
100
AcDbEntity
8
1
62
256
6
ByLayer
370
18
48
1
60
1
100
AcDbLine
10
42.544126
20
-5.684998
30
0
11
41.622559
21
-5.685002
31
0
39
0
210
0
220
0
230
1
0
LINE
5
B3
100
AcDbEntity
8
1
62
256
6
ByLayer
370
18
48
1
60
1
100
AcDbLine
10
41.622559
20
-5.685002
30
0
11
42.083343
21
-2.185
31
0
39
0
210
0
220
0
230
1
0
LINE
5
FC
100
AcDbEntity
8
1
62
256
6
ByLayer
370
18
48
1
60
1
100
AcDbLine
10
-44.625163
20
3
30
0
11
-45.085946
21
6.499998
31
0
39
0
210
0
220
0
230
1
0
LINE
5
FD
100
AcDbEntity
8
1
62
256
6
ByLayer
370
18
48
1
60
1
100
AcDbLine
10
-45.085946
20
6.499998
30
0
11
-44.164379
21
6.500002
31
0
39
0
210
0
220
0
230
1
0
LINE
5
FE
100
AcDbEntity
8
1
62
256
6
ByLayer
370
18
48
1
60
1
100
AcDbLine
10
-44.164379
20
6.500002
30
0
11
-44.625163
21
3
31
0
39
0
210
0
220
0
230
1
0
LINE
5
100
100
AcDbEntity
8
1
62
256
6
ByLayer
370
18
48
1
60
1
100
AcDbLine
10
-44.625163
20
-3
30
0
11
-44.164379
21
-6.499998
31
0
39
0
210
0
220
0
230
1
0
LINE
5
101
100
AcDbEntity
8
1
62
256
6
ByLayer
370
18
48
1
60
1
100
AcDbLine
10
-44.164379
20
-6.499998
30
0
11
-45.085946
21
-6.500002
31
0
39
0
210
0
220
0
230
1
0
LINE
5
102
100
AcDbEntity
8
1
62
256
6
ByLayer
370
18
48
1
60
1
100
AcDbLine
10
-45.085946
20
-6.500002
30
0
11
-44.625163
21
-3
31
0
39
0
210
0
220
0
230
1
0
LINE
5
106
100
AcDbEntity
8
1
62
256
6
ByLayer
370
18
48
1
60
1
100
AcDbLine
10
42.083343
20
2.185
30
0
11
41.622559
21
5.684998
31
0
39
0
210
0
220
0
230
1
0
LINE
5
107
100
AcDbEntity
8
1
62
256
6
ByLayer
370
18
48
1
60
1
100
AcDbLine
10
41.622559
20
5.684998
30
0
11
42.544126
21
5.685002
31
0
39
0
210
0
220
0
230
1
0
LINE
5
108
100
AcDbEntity
8
1
62
256
6
ByLayer
370
18
48
1
60
1
100
AcDbLine
10
42.544126
20
5.685002
30
0
11
42.083343
21
2.185
31
0
39
0
210
0
220
0
230
1
0
LINE
5
10A
100
AcDbEntity
8
1
62
256
6
ByLayer
370
18
48
1
60
1
100
AcDbLine
10
42.083343
20
-2.185
30
0
11
42.544126
21
-5.684998
31
0
39
0
210
0
220
0
230
1
0
LINE
5
10B
100
AcDbEntity
8
1
62
256
6
ByLayer
370
18
48
1
60
1
100
AcDbLine
10
42.544126
20
-5.684998
30
0
11
41.622559
21
-5.685002
31
0
39
0
210
0
220
0
230
1
0
LINE
5
10C
100
AcDbEntity
8
1
62
256
6
ByLayer
370
18
48
1
60
1
100
AcDbLine
10
41.622559
20
-5.685002
30
0
11
42.083343
21
-2.185
31
0
39
0
210
0
220
0
230
1
0
MTEXT
5
F6
100
AcDbEntity
8
SK6
62
256
6
ByLayer
370
13
48
1
60
0
100
AcDbMText
10
-29.658393
20
34.725328
30
0
210
0
220
0
230
1
1
\W0.7121;860.1-0437-013A1-SM 1210
40
3.5
41
0
44
1.084337
50
0
71
7
72
5
7
iso_b_vert
0
MTEXT
5
FA
100
AcDbEntity
8
SK2
62
256
6
ByLayer
370
18
48
1
60
0
100
AcDbMText
10
-46.189796
20
16.409024
30
0
210
0
220
0
230
1
1
%%c
40
3.5
41
0
44
1.084337
50
90
71
7
72
5
7
iso_b_vert
0
MTEXT
5
FB
100
AcDbEntity
8
SK2
62
256
6
ByLayer
370
18
48
1
60
0
100
AcDbMText
10
-46.189796
20
21.63168
30
0
210
0
220
0
230
1
1
\W0.7317;6,000
40
3.5
41
0
44
1.084337
50
90
71
7
72
5
7
iso_b_vert
0
MTEXT
5
104
100
AcDbEntity
8
2
62
256
6
ByLayer
370
18
48
1
60
0
100
AcDbMText
10
40.518709
20
14.18711
30
0
210
0
220
0
230
1
1
%%c
40
3.5
41
0
44
1.084337
50
90
71
7
72
5
7
iso_b_vert
0
MTEXT
5
105
100
AcDbEntity
8
2
62
256
6
ByLayer
370
18
48
1
60
0
100
AcDbMText
10
40.518709
20
19.409766
30
0
210
0
220
0
230
1
1
\W0.7581;4,370
40
3.5
41
0
44
1.084337
50
90
71
7
72
5
7
iso_b_vert
0
HATCH
5
FF
100
AcDbEntity
8
SK2
62
256
6
ByLayer
370
13
48
1
60
0
100
AcDbHatch
10
0
20
0
30
0
210
0
220
0
230
1
2
ANSI31
70
0
71
0
91
1
92
5
93
3
72
1
10
-44.6251625675374
20
3
11
-45.0859463090902
21
6.49999830744682
72
1
10
-45.0859463090902
20
6.49999830744682
11
-44.1643788259847
21
6.50000169255318
72
1
10
-44.1643788259847
20
6.50000169255318
11
-44.6251625675374
21
3
97
0
75
0
76
1
52
0
41
0.0062
77
0
78
1
53
45
43
0
44
0
45
-0.0139193969876572
46
0.0139193969876572
79
0
47
0
98
1
10
0
20
0
0
HATCH
5
103
100
AcDbEntity
8
SK2
62
256
6
ByLayer
370
13
48
1
60
0
100
AcDbHatch
10
0
20
0
30
0
210
0
220
0
230
1
2
ANSI31
70
0
71
0
91
1
92
5
93
3
72
1
10
-44.6251625675374
20
-3
11
-44.1643788259847
21
-6.49999830744682
72
1
10
-44.1643788259847
20
-6.49999830744682
11
-45.0859463090902
21
-6.50000169255318
72
1
10
-45.0859463090902
20
-6.50000169255318
11
-44.6251625675374
21
-3
97
0
75
0
76
1
52
0
41
0.0062
77
0
78
1
53
45
43
0
44
0
45
-0.0139193969876572
46
0.0139193969876572
79
0
47
0
98
1
10
0
20
0
0
HATCH
5
109
100
AcDbEntity
8
2
62
256
6
ByLayer
370
13
48
1
60
0
100
AcDbHatch
10
0
20
0
30
0
210
0
220
0
230
1
2
ANSI31
70
0
71
0
91
1
92
5
93
3
72
1
10
42.083342615295
20
2.185
11
41.6225588737423
21
5.68499830744682
72
1
10
41.6225588737423
20
5.68499830744682
11
42.5441263568478
21
5.68500169255319
72
1
10
42.5441263568478
20
5.68500169255319
11
42.083342615295
21
2.185
97
0
75
0
76
1
52
0
41
0.0062
77
0
78
1
53
45
43
0
44
0
45
-0.0139193969876572
46
0.0139193969876572
79
0
47
0
98
1
10
0
20
0
0
HATCH
5
10D
100
AcDbEntity
8
2
62
256
6
ByLayer
370
13
48
1
60
0
100
AcDbHatch
10
0
20
0
30
0
210
0
220
0
230
1
2
ANSI31
70
0
71
0
91
1
92
5
93
3
72
1
10
42.083342615295
20
-2.185
11
42.5441263568478
21
-5.68499830744682
72
1
10
42.5441263568478
20
-5.68499830744682
11
41.6225588737423
21
-5.68500169255319
72
1
10
41.6225588737423
20
-5.68500169255319
11
42.083342615295
21
-2.185
97
0
75
0
76
1
52
0
41
0.0062
77
0
78
1
53
45
43
0
44
0
45
-0.0139193969876572
46
0.0139193969876572
79
0
47
0
98
1
10
0
20
0
0
DIMENSION
5
10F
100
AcDbEntity
8
SK2
62
256
6
ByLayer
370
13
48
1
60
0
100
AcDbDimension
2
_U0
10
29.2
20
-12.398398
30
0
11
14.6
21
-12.398398
31
0
70
32
71
1
72
1
41
1
210
0
220
0
230
1
3
Standard
100
AcDbAlignedDimension
13
0
23
0
33
0
14
29.2
24
-2.185
34
0
50
0
100
AcDbRotatedDimension
1001
ACAD
1000
DSTYLE
1002
{
1070
   371
1070
    13
1070
   372
1070
    13
1070
   170
1070
     0
1070
   144
1040
1.0
1070
   277
1070
     2
1070
   278
1070
    44
1070
   146
1040
1.0
1070
   345
1005
16
1070
   347
1005
16
1070
   346
1005
16
1070
   344
1005
0
1070
   343
1005
0
1070
   172
1070
     1
1070
    76
1070
     0
1070
    75
1070
     0
1070
   282
1070
     0
1070
   281
1070
     0
1070
    71
1070
     0
1070
    74
1070
     0
1070
   279
1070
     0
1070
   173
1070
     1
1070
   340
1005
F7
1070
   271
1070
     2
1070
   272
1070
     2
1070
    77
1070
     1
1070
    73
1070
     1
1070
   171
1070
     3
1070
   274
1070
     4
1070
   177
1070
    35
1070
   176
1070
    35
1070
   178
1070
    35
1070
    48
1040
-0.1
1070
    41
1040
3.5
1070
   147
1040
1.75
1070
    42
1040
1.5875
1070
    44
1040
2.0
1070
   140
1040
3.5
1002
}
1001
ACAD_DSTYLE_DIM_LINETYPE
1070
   380
1005
16
1001
ACAD_DSTYLE_DIM_EXT1_LINETYPE
1070
   381
1005
16
1001
ACAD_DSTYLE_DIM_EXT2_LINETYPE
1070
   382
1005
16
0
DIMENSION
5
128
100
AcDbEntity
8
SK2
62
256
6
ByLayer
370
13
48
1
60
0
100
AcDbDimension
2
_U1
10
30
20
-31.692985
30
0
11
-3
21
-31.692985
31
0
70
32
71
1
72
1
41
1
210
0
220
0
230
1
3
Standard
100
AcDbAlignedDimension
13
-36
23
-3
33
0
14
30
24
0
34
0
50
0
100
AcDbRotatedDimension
1001
ACAD
1000
DSTYLE
1002
{
1070
   371
1070
    13
1070
   372
1070
    13
1070
   170
1070
     0
1070
   144
1040
1.0
1070
   277
1070
     2
1070
   278
1070
    44
1070
   146
1040
1.0
1070
   345
1005
16
1070
   347
1005
16
1070
   346
1005
16
1070
   344
1005
0
1070
   343
1005
0
1070
   172
1070
     1
1070
    76
1070
     0
1070
    75
1070
     0
1070
   282
1070
     0
1070
   281
1070
     0
1070
    71
1070
     0
1070
    74
1070
     0
1070
   279
1070
     0
1070
   173
1070
     1
1070
   340
1005
F7
1070
   271
1070
     2
1070
   272
1070
     2
1070
    77
1070
     1
1070
    73
1070
     1
1070
   171
1070
     3
1070
   274
1070
     4
1070
   177
1070
    35
1070
   176
1070
    35
1070
   178
1070
    35
1070
    48
1040
-0.1
1070
    41
1040
3.5
1070
   147
1040
1.75
1070
    42
1040
1.5875
1070
    44
1040
2.0
1070
   140
1040
3.5
1002
}
1001
ACAD_DSTYLE_DIM_LINETYPE
1070
   380
1005
16
1001
ACAD_DSTYLE_DIM_EXT1_LINETYPE
1070
   381
1005
16
1001
ACAD_DSTYLE_DIM_EXT2_LINETYPE
1070
   382
1005
16
0
DIMENSION
5
140
100
AcDbEntity
8
SK2
62
256
6
ByLayer
370
13
48
1
60
0
100
AcDbDimension
2
_U2
10
30
20
13.794119
30
0
11
22.16315
21
13.794119
31
0
70
32
71
1
72
1
41
1
210
0
220
0
230
1
3
Standard
100
AcDbAlignedDimension
13
14.3263
23
2.185
33
0
14
30
24
0
34
0
50
0
100
AcDbRotatedDimension
1001
ACAD
1000
DSTYLE
1002
{
1070
   371
1070
    13
1070
   372
1070
    13
1070
   170
1070
     0
1070
   144
1040
1.0
1070
   277
1070
     2
1070
   278
1070
    44
1070
   146
1040
1.0
1070
   345
1005
16
1070
   347
1005
16
1070
   346
1005
16
1070
   344
1005
0
1070
   343
1005
0
1070
   172
1070
     1
1070
    76
1070
     0
1070
    75
1070
     0
1070
   282
1070
     0
1070
   281
1070
     0
1070
    71
1070
     0
1070
    74
1070
     0
1070
   279
1070
     0
1070
   173
1070
     1
1070
   340
1005
F7
1070
   271
1070
     2
1070
   272
1070
     2
1070
    77
1070
     1
1070
    73
1070
     1
1070
   171
1070
     3
1070
   274
1070
     4
1070
   177
1070
    35
1070
   176
1070
    35
1070
   178
1070
    35
1070
    48
1040
-0.1
1070
    41
1040
3.5
1070
   147
1040
1.75
1070
    42
1040
1.5875
1070
    44
1040
2.0
1070
   140
1040
3.5
1002
}
1001
ACAD_DSTYLE_DIM_LINETYPE
1070
   380
1005
16
1001
ACAD_DSTYLE_DIM_EXT1_LINETYPE
1070
   381
1005
16
1001
ACAD_DSTYLE_DIM_EXT2_LINETYPE
1070
   382
1005
16
0
DIMENSION
5
159
100
AcDbEntity
8
SK2
62
256
6
ByLayer
370
13
48
1
60
0
100
AcDbDimension
2
_U3
10
29.2
20
-14.987503
30
0
11
47.583333
21
-14.987503
31
0
70
32
71
1
72
1
41
1
210
0
220
0
230
1
3
Standard
100
AcDbAlignedDimension
13
30
23
0
33
0
14
29.2
24
-2.185
34
0
50
0
100
AcDbRotatedDimension
1001
ACAD
1000
DSTYLE
1002
{
1070
   371
1070
    13
1070
   372
1070
    13
1070
   170
1070
     0
1070
   144
1040
1.0
1070
   277
1070
     2
1070
   278
1070
    44
1070
   146
1040
1.0
1070
   345
1005
16
1070
   347
1005
16
1070
   346
1005
16
1070
   344
1005
0
1070
   343
1005
0
1070
   172
1070
     1
1070
    76
1070
     0
1070
    75
1070
     0
1070
   282
1070
     0
1070
   281
1070
     0
1070
    71
1070
     0
1070
    74
1070
     0
1070
   279
1070
     0
1070
   173
1070
     1
1070
   340
1005
F7
1070
   271
1070
     2
1070
   272
1070
     2
1070
    77
1070
     1
1070
    73
1070
     1
1070
   171
1070
     3
1070
   274
1070
     4
1070
   177
1070
    35
1070
   176
1070
    35
1070
   178
1070
    35
1070
    48
1040
-0.1
1070
    41
1040
3.5
1070
   147
1040
1.75
1070
    42
1040
1.5875
1070
    44
1040
2.0
1070
   140
1040
3.5
1002
}
1001
ACAD_DSTYLE_DIM_LINETYPE
1070
   380
1005
16
1001
ACAD_DSTYLE_DIM_EXT1_LINETYPE
1070
   381
1005
16
1001
ACAD_DSTYLE_DIM_EXT2_LINETYPE
1070
   382
1005
16
0
DIMENSION
5
173
100
AcDbEntity
8
SK2
62
256
6
ByLayer
370
13
48
1
60
0
100
AcDbDimension
2
_U4
10
29.2
20
-21.343428
30
0
11
-3.4
21
-21.343428
31
0
70
32
71
1
72
1
41
1
210
0
220
0
230
1
3
Standard
100
AcDbAlignedDimension
13
-36
23
-3
33
0
14
29.2
24
-2.185
34
0
50
0
100
AcDbRotatedDimension
1001
ACAD
1000
DSTYLE
1002
{
1070
   371
1070
    13
1070
   372
1070
    13
1070
   170
1070
     0
1070
   144
1040
1.0
1070
   277
1070
     2
1070
   278
1070
    44
1070
   146
1040
1.0
1070
   345
1005
16
1070
   347
1005
16
1070
   346
1005
16
1070
   344
1005
0
1070
   343
1005
0
1070
   172
1070
     1
1070
    76
1070
     0
1070
    75
1070
     0
1070
   282
1070
     0
1070
   281
1070
     0
1070
    71
1070
     0
1070
    74
1070
     0
1070
   279
1070
     0
1070
   173
1070
     1
1070
   340
1005
F7
1070
   271
1070
     2
1070
   272
1070
     2
1070
    77
1070
     1
1070
    73
1070
     1
1070
   171
1070
     3
1070
   274
1070
     4
1070
   177
1070
    35
1070
   176
1070
    35
1070
   178
1070
    35
1070
    48
1040
-0.1
1070
    41
1040
3.5
1070
   147
1040
1.75
1070
    42
1040
1.5875
1070
    44
1040
2.0
1070
   140
1040
3.5
1002
}
1001
ACAD_DSTYLE_DIM_LINETYPE
1070
   380
1005
16
1001
ACAD_DSTYLE_DIM_EXT1_LINETYPE
1070
   381
1005
16
1001
ACAD_DSTYLE_DIM_EXT2_LINETYPE
1070
   382
1005
16
0
ENDSEC
0
SECTION
2
OBJECTS
0
DICTIONARY
5
1fb
330
0
100
AcDbDictionary
280
0
281
1
3
ACAD_GROUP
350
1fc
3
ACAD_MLINESTYLE
350
1fd
0
DICTIONARY
5
1fc
330
0
100
AcDbDictionary
280
0
281
1
0
DICTIONARY
5
1fd
330
0
100
AcDbDictionary
280
0
281
1
3
Standard
350
18
0
MLINESTYLE
5
18
330
1fd
100
AcDbMlineStyle
2
Standard
70
0
3

62
256
51
90
52
90
71
2
49
-0.5
62
256
6
ByLayer
49
0.5
62
256
6
ByLayer
0
RASTERVARIABLES
5
1e9
330

100
AcDbRasterVariables
90
0
70
1
71
1
72
1
0
ENDSEC
0
EOF
