0
SECTION
2
HEADER
9
$ACADVER
1
AC1015
9
$DWGCODEPAGE
3
ANSI_1252
9
$HANDSEED
5
236
9
$ANGBASE
50
0
9
$ANGDIR
70
0
9
$ATTMODE
70
1
9
$AUNITS
70
0
9
$AUPREC
70
0
9
$CECOLOR
62
256
9
$CELTSCALE
40
1
9
$CELTYPE
6
ByLayer
9
$CELWEIGHT
370
18
9
$CLAYER
8
0
9
$CMLJUST
70
0
9
$CMLSCALE
40
1
9
$CMLSTYLE
2
Standard
9
$DIMSTYLE
2
Standard
9
$TEXTSIZE
40
0.2
9
$TEXTSTYLE
7
Standard
9
$LUNITS
70
2
9
$LUPREC
70
4
9
$EXTNAMES
290
1
9
$INSUNITS
70
4
9
$LTSCALE
40
1
9
$LWDISPLAY
290
1
9
$PDMODE
70
0
9
$PDSIZE
40
0
9
$PLINEGEN
70
0
0
ENDSEC
0
SECTION
2
CLASSES
0
CLASS
1
RASTERVARIABLES
2
AcDbRasterVariables
3
ISM
90
0
280
0
281
0
0
ENDSEC
0
SECTION
2
TABLES
0
TABLE
2
VPORT
5
22c
100
AcDbSymbolTable
0
VPORT
5
1
100
AcDbSymbolTableRecord
100
AcDbViewportTableRecord
2
*Active
70
0
10
0
20
0
11
1
21
1
12
-1
22
1
13
0
23
0
14
0.5
24
0.5
15
10
25
10
16
0
26
0
36
1
17
0
27
0
37
0
0
ENDTAB
0
TABLE
2
LTYPE
5
22d
100
AcDbSymbolTable
0
LTYPE
5
14
100
AcDbSymbolTableRecord
100
AcDbLinetypeTableRecord
70
0
2
ByBlock
3

72
65
73
0
40
0
0
LTYPE
5
15
100
AcDbSymbolTableRecord
100
AcDbLinetypeTableRecord
70
0
2
ByLayer
3

72
65
73
0
40
0
0
LTYPE
5
16
100
AcDbSymbolTableRecord
100
AcDbLinetypeTableRecord
70
0
2
Continuous
3
Solid line
72
65
73
0
40
0
0
LTYPE
5
6E
100
AcDbSymbolTableRecord
100
AcDbLinetypeTableRecord
70
0
2
CENTER
3
____ _ ____ _ ____ _ ____
72
65
73
4
40
47.5
49
22
74
0
49
-8.5
74
0
49
8.5
74
0
49
-8.5
74
0
0
LTYPE
5
6F
100
AcDbSymbolTableRecord
100
AcDbLinetypeTableRecord
70
0
2
DASHED
3
__ __ __ __ __ __ __ __ __
72
65
73
2
40
25.72
49
12.86
74
0
49
-12.86
74
0
0
ENDTAB
0
TABLE
2
LAYER
5
22e
100
AcDbSymbolTable
0
LAYER
5
10
100
AcDbSymbolTableRecord
100
AcDbLayerTableRecord
2
0
70
0
62
7
6
Continuous
290
1
370
-3
390
0
0
LAYER
5
71
100
AcDbSymbolTableRecord
100
AcDbLayerTableRecord
2
80
70
0
62
-6
6
Continuous
290
1
370
-3
390
0
0
LAYER
5
73
100
AcDbSymbolTableRecord
100
AcDbLayerTableRecord
2
81
70
0
62
-3
6
Continuous
290
1
370
-3
390
0
0
LAYER
5
75
100
AcDbSymbolTableRecord
100
AcDbLayerTableRecord
2
1
70
0
62
4
6
Continuous
290
1
370
-3
390
0
0
LAYER
5
BC
100
AcDbSymbolTableRecord
100
AcDbLayerTableRecord
2
4
70
0
62
-2
6
CENTER
290
1
370
-3
390
0
0
LAYER
5
10B
100
AcDbSymbolTableRecord
100
AcDbLayerTableRecord
2
Defpoints
70
0
62
7
6
Continuous
290
0
370
-3
390
0
0
LAYER
5
196
100
AcDbSymbolTableRecord
100
AcDbLayerTableRecord
2
2
70
0
62
7
6
Continuous
290
1
370
-3
390
0
0
LAYER
5
217
100
AcDbSymbolTableRecord
100
AcDbLayerTableRecord
2
SK1
70
0
62
4
6
Continuous
290
1
370
-3
390
0
0
LAYER
5
218
100
AcDbSymbolTableRecord
100
AcDbLayerTableRecord
2
SK4
70
0
62
2
6
CENTER
290
1
370
-3
390
0
0
LAYER
5
219
100
AcDbSymbolTableRecord
100
AcDbLayerTableRecord
2
SK3
70
0
62
1
6
DASHED
290
1
370
-3
390
0
0
LAYER
5
21a
100
AcDbSymbolTableRecord
100
AcDbLayerTableRecord
2
SK2
70
0
62
7
6
Continuous
290
1
370
-3
390
0
0
LAYER
5
21b
100
AcDbSymbolTableRecord
100
AcDbLayerTableRecord
2
SK6
70
0
62
5
6
Continuous
290
1
370
-3
390
0
0
ENDTAB
0
TABLE
2
STYLE
5
22f
100
AcDbSymbolTable
0
STYLE
5
11
100
AcDbSymbolTableRecord
100
AcDbTextStyleTableRecord
2
Standard
3
txt
70
0
71
0
40
0
41
1
42
0
50
0
0
STYLE
5
F8
100
AcDbSymbolTableRecord
100
AcDbTextStyleTableRecord
2
iso_b_vert
3
simplex.shx
70
0
71
0
40
0
41
1
42
0
50
0
0
STYLE
5
F9
100
AcDbSymbolTableRecord
100
AcDbTextStyleTableRecord
2
DWGDirectTextStyle
3
simplex
70
0
71
0
40
0
41
1
42
0
50
0
0
ENDTAB
0
TABLE
2
DIMSTYLE
5
230
100
AcDbSymbolTable
100
AcDbDimStyleTable
0
DIMSTYLE
105
27
100
AcDbSymbolTableRecord
100
AcDbDimStyleTableRecord
2
Standard
70
0
3
<>
41
0.18
42
0.0625
44
0.18
140
0.18
147
0.09
73
0
74
0
77
1
271
2
275
0
278
52
280
0
340
11
0
ENDTAB
0
TABLE
2
VIEW
5
231
100
AcDbSymbolTable
0
ENDTAB
0
TABLE
2
UCS
5
232
100
AcDbSymbolTable
0
ENDTAB
0
TABLE
2
APPID
5
233
100
AcDbSymbolTable
0
APPID
5
12
100
AcDbSymbolTableRecord
100
AcDbRegAppTableRecord
2
ACAD
70
0
0
APPID
5
107
100
AcDbSymbolTableRecord
100
AcDbRegAppTableRecord
2
ACAD_DSTYLE_DIMBREAK
70
0
0
APPID
5
1D6
100
AcDbSymbolTableRecord
100
AcDbRegAppTableRecord
2
ACAD_DSTYLE_DIM_LINETYPE
70
0
0
APPID
5
1D7
100
AcDbSymbolTableRecord
100
AcDbRegAppTableRecord
2
ACAD_DSTYLE_DIM_EXT1_LINETYPE
70
0
0
APPID
5
1D8
100
AcDbSymbolTableRecord
100
AcDbRegAppTableRecord
2
ACAD_DSTYLE_DIM_EXT2_LINETYPE
70
0
0
APPID
5
213
100
AcDbSymbolTableRecord
100
AcDbRegAppTableRecord
2
ACAD_MLEADERVER
70
0
0
ENDTAB
0
TABLE
2
BLOCK_RECORD
5
234
100
AcDbSymbolTable
0
BLOCK_RECORD
5
1F
100
AcDbSymbolTableRecord
100
AcDbBlockTableRecord
2
*Model_Space
340
0
70
0
0
BLOCK_RECORD
5
1B
100
AcDbSymbolTableRecord
100
AcDbBlockTableRecord
2
*Paper_Space
340
0
70
0
0
BLOCK_RECORD
5
23
100
AcDbSymbolTableRecord
100
AcDbBlockTableRecord
2
*Paper_Space0
340
0
70
0
0
BLOCK_RECORD
5
10C
100
AcDbSymbolTableRecord
100
AcDbBlockTableRecord
2
*D1
340
0
70
0
0
BLOCK_RECORD
5
118
100
AcDbSymbolTableRecord
100
AcDbBlockTableRecord
2
_U0
340
0
70
0
0
BLOCK_RECORD
5
125
100
AcDbSymbolTableRecord
100
AcDbBlockTableRecord
2
*D3
340
0
70
0
0
BLOCK_RECORD
5
133
100
AcDbSymbolTableRecord
100
AcDbBlockTableRecord
2
_U1
340
0
70
0
0
BLOCK_RECORD
5
140
100
AcDbSymbolTableRecord
100
AcDbBlockTableRecord
2
*D5
340
0
70
0
0
BLOCK_RECORD
5
14D
100
AcDbSymbolTableRecord
100
AcDbBlockTableRecord
2
_U2
340
0
70
0
0
BLOCK_RECORD
5
159
100
AcDbSymbolTableRecord
100
AcDbBlockTableRecord
2
*D7
340
0
70
0
0
BLOCK_RECORD
5
166
100
AcDbSymbolTableRecord
100
AcDbBlockTableRecord
2
_U3
340
0
70
0
0
BLOCK_RECORD
5
172
100
AcDbSymbolTableRecord
100
AcDbBlockTableRecord
2
*D9
340
0
70
0
0
BLOCK_RECORD
5
17E
100
AcDbSymbolTableRecord
100
AcDbBlockTableRecord
2
_U4
340
0
70
0
0
BLOCK_RECORD
5
18A
100
AcDbSymbolTableRecord
100
AcDbBlockTableRecord
2
*D11
340
0
70
0
0
BLOCK_RECORD
5
197
100
AcDbSymbolTableRecord
100
AcDbBlockTableRecord
2
_U5
340
0
70
0
0
BLOCK_RECORD
5
1A3
100
AcDbSymbolTableRecord
100
AcDbBlockTableRecord
2
*D13
340
0
70
0
0
BLOCK_RECORD
5
1AF
100
AcDbSymbolTableRecord
100
AcDbBlockTableRecord
2
_U6
340
0
70
0
0
ENDTAB
0
ENDSEC
0
SECTION
2
BLOCKS
0
BLOCK
5
20
100
AcDbEntity
8
0
100
AcDbBlockBegin
2
*Model_Space
70
0
10
0
20
0
30
0
3
*Model_Space
0
ENDBLK
5
21
100
AcDbEntity
8
0
100
AcDbBlockEnd
0
BLOCK
5
1C
100
AcDbEntity
8
0
100
AcDbBlockBegin
2
*Paper_Space
70
0
10
0
20
0
30
0
3
*Paper_Space
0
ENDBLK
5
1D
100
AcDbEntity
8
0
100
AcDbBlockEnd
0
BLOCK
5
24
100
AcDbEntity
8
0
100
AcDbBlockBegin
2
*Paper_Space0
70
0
10
0
20
0
30
0
3
*Paper_Space0
0
ENDBLK
5
25
100
AcDbEntity
8
0
100
AcDbBlockEnd
0
BLOCK
5
10D
100
AcDbEntity
8
0
100
AcDbBlockBegin
2
*D1
70
1
10
0
20
0
30
0
3
*D1
0
LINE
5
10F
100
AcDbEntity
8
0
62
256
6
ByLayer
370
-2
48
1
60
0
100
AcDbLine
10
69.5875
20
-13
30
0
11
109.25
21
-13
31
0
39
0
210
0
220
0
230
1
0
LINE
5
110
100
AcDbEntity
8
0
62
256
6
ByLayer
370
-2
48
1
60
0
100
AcDbLine
10
69.5875
20
13
30
0
11
109.25
21
13
31
0
39
0
210
0
220
0
230
1
0
LINE
5
111
100
AcDbEntity
8
0
62
256
6
ByLayer
370
-2
48
1
60
0
100
AcDbLine
10
107.25
20
-8.5
30
0
11
107.25
21
8.5
31
0
39
0
210
0
220
0
230
1
0
SOLID
5
112
100
AcDbEntity
8
0
62
256
6
ByLayer
370
-1
48
1
60
0
100
AcDbTrace
10
106.5
20
-8.5
30
0
11
108
21
-8.5
31
0
12
107.25
22
-13
32
0
13
107.25
23
-13
33
0
39
0
210
0
220
0
230
1
0
SOLID
5
113
100
AcDbEntity
8
0
62
256
6
ByLayer
370
-1
48
1
60
0
100
AcDbTrace
10
108
20
8.5
30
0
11
106.5
21
8.5
31
0
12
107.25
22
13
32
0
13
107.25
23
13
33
0
39
0
210
0
220
0
230
1
0
MTEXT
5
114
100
AcDbEntity
8
0
62
256
6
ByLayer
370
18
48
1
60
0
100
AcDbMText
10
98.25
20
0
30
0
210
0
220
0
230
1
1
\A1;26
40
4.5
41
0
44
1
50
90
71
5
72
5
7
iso_b_vert
0
POINT
5
115
100
AcDbEntity
8
Defpoints
62
0
6
ByLayer
370
-1
48
1
60
0
100
AcDbPoint
10
68
20
-13
30
0
39
0
210
0
220
0
230
1
50
360
0
POINT
5
116
100
AcDbEntity
8
Defpoints
62
0
6
ByLayer
370
-1
48
1
60
0
100
AcDbPoint
10
68
20
13
30
0
39
0
210
0
220
0
230
1
50
360
0
POINT
5
117
100
AcDbEntity
8
Defpoints
62
0
6
ByLayer
370
-1
48
1
60
0
100
AcDbPoint
10
107.25
20
13
30
0
39
0
210
0
220
0
230
1
50
360
0
ENDBLK
5
10E
100
AcDbEntity
8
0
100
AcDbBlockEnd
0
BLOCK
5
120
100
AcDbEntity
8
0
100
AcDbBlockBegin
2
_U0
70
0
10
0
20
0
30
0
3
_U0
0
MTEXT
5
119
100
AcDbEntity
8
SK2
62
256
6
ByLayer
370
18
48
1
60
0
100
AcDbMText
10
105.185366
20
-7.780242
30
0
210
0
220
0
230
1
1
%%c
40
3.5
41
0
44
1.084337
50
90
71
7
72
5
7
iso_b_vert
0
MTEXT
5
11A
100
AcDbEntity
8
SK2
62
256
6
ByLayer
370
18
48
1
60
0
100
AcDbMText
10
105.488328
20
2.764758
30
0
210
0
220
0
230
1
1
\W0.6740;26
40
4.5
41
0
44
1.084337
50
90
71
7
72
5
7
iso_b_vert
0
LINE
5
11B
100
AcDbEntity
8
SK2
62
256
6
ByLayer
370
13
48
1
60
0
100
AcDbLine
10
69.5875
20
-13
30
0
11
109.25
21
-13
31
0
39
0
210
0
220
0
230
1
0
LINE
5
11C
100
AcDbEntity
8
SK2
62
256
6
ByLayer
370
13
48
1
60
0
100
AcDbLine
10
69.5875
20
13
30
0
11
109.25
21
13
31
0
39
0
210
0
220
0
230
1
0
LINE
5
11D
100
AcDbEntity
8
SK2
62
256
6
ByLayer
370
13
48
1
60
0
100
AcDbLine
10
107.25
20
-24.25
30
0
11
107.25
21
24.25
31
0
39
0
210
0
220
0
230
1
0
SOLID
5
11E
100
AcDbEntity
8
SK2
62
256
6
ByLayer
370
18
48
1
60
0
100
AcDbTrace
10
107.25
20
-13
30
0
11
108.247626
21
-17.499996
31
0
12
106.252374
22
-17.500004
32
0
13
106.252374
23
-17.500004
33
0
39
0
210
0
220
0
230
1
0
SOLID
5
11F
100
AcDbEntity
8
SK2
62
256
6
ByLayer
370
18
48
1
60
0
100
AcDbTrace
10
107.25
20
13
30
0
11
106.252374
21
17.499996
31
0
12
108.247626
22
17.500004
32
0
13
108.247626
23
17.500004
33
0
39
0
210
0
220
0
230
1
0
ENDBLK
5
121
100
AcDbEntity
8
0
100
AcDbBlockEnd
0
BLOCK
5
126
100
AcDbEntity
8
0
100
AcDbBlockBegin
2
*D3
70
1
10
0
20
0
30
0
3
*D3
0
LINE
5
128
100
AcDbEntity
8
0
62
256
6
ByLayer
370
-2
48
1
60
0
100
AcDbLine
10
69.5875
20
3
30
0
11
87.25
21
3
31
0
39
0
210
0
220
0
230
1
0
LINE
5
129
100
AcDbEntity
8
0
62
256
6
ByLayer
370
-2
48
1
60
0
100
AcDbLine
10
69.5875
20
-3
30
0
11
87.25
21
-3
31
0
39
0
210
0
220
0
230
1
0
LINE
5
12A
100
AcDbEntity
8
0
62
256
6
ByLayer
370
-2
48
1
60
0
100
AcDbLine
10
85.25
20
3
30
0
11
85.25
21
28.399228
31
0
39
0
210
0
220
0
230
1
0
LINE
5
12B
100
AcDbEntity
8
0
62
256
6
ByLayer
370
-2
48
1
60
0
100
AcDbLine
10
85.25
20
7.5
30
0
11
85.25
21
12
31
0
39
0
210
0
220
0
230
1
0
LINE
5
12C
100
AcDbEntity
8
0
62
256
6
ByLayer
370
-2
48
1
60
0
100
AcDbLine
10
85.25
20
-7.5
30
0
11
85.25
21
-12
31
0
39
0
210
0
220
0
230
1
0
SOLID
5
12D
100
AcDbEntity
8
0
62
256
6
ByLayer
370
-1
48
1
60
0
100
AcDbTrace
10
84.5
20
7.5
30
0
11
86
21
7.5
31
0
12
85.25
22
3
32
0
13
85.25
23
3
33
0
39
0
210
0
220
0
230
1
0
SOLID
5
12E
100
AcDbEntity
8
0
62
256
6
ByLayer
370
-1
48
1
60
0
100
AcDbTrace
10
86
20
-7.5
30
0
11
84.5
21
-7.5
31
0
12
85.25
22
-3
32
0
13
85.25
23
-3
33
0
39
0
210
0
220
0
230
1
0
MTEXT
5
12F
100
AcDbEntity
8
0
62
256
6
ByLayer
370
18
48
1
60
0
100
AcDbMText
10
76.25
20
20.256371
30
0
210
0
220
0
230
1
1
\A1;6
40
4.5
41
0
44
1
50
90
71
5
72
5
7
iso_b_vert
0
POINT
5
130
100
AcDbEntity
8
Defpoints
62
0
6
ByLayer
370
-1
48
1
60
0
100
AcDbPoint
10
68
20
3
30
0
39
0
210
0
220
0
230
1
50
360
0
POINT
5
131
100
AcDbEntity
8
Defpoints
62
0
6
ByLayer
370
-1
48
1
60
0
100
AcDbPoint
10
68
20
-3
30
0
39
0
210
0
220
0
230
1
50
360
0
POINT
5
132
100
AcDbEntity
8
Defpoints
62
0
6
ByLayer
370
-1
48
1
60
0
100
AcDbPoint
10
85.25
20
-3
30
0
39
0
210
0
220
0
230
1
50
360
0
ENDBLK
5
127
100
AcDbEntity
8
0
100
AcDbBlockEnd
0
BLOCK
5
13B
100
AcDbEntity
8
0
100
AcDbBlockBegin
2
_U1
70
0
10
0
20
0
30
0
3
_U1
0
MTEXT
5
134
100
AcDbEntity
8
SK2
62
256
6
ByLayer
370
18
48
1
60
0
100
AcDbMText
10
83.185366
20
14.1575
30
0
210
0
220
0
230
1
1
%%c
40
3.5
41
0
44
1.084337
50
90
71
7
72
5
7
iso_b_vert
0
MTEXT
5
135
100
AcDbEntity
8
SK2
62
256
6
ByLayer
370
18
48
1
60
0
100
AcDbMText
10
83.488328
20
24.7025
30
0
210
0
220
0
230
1
1
\W0.5404;6
40
4.5
41
0
44
1.084337
50
90
71
7
72
5
7
iso_b_vert
0
LINE
5
136
100
AcDbEntity
8
SK2
62
256
6
ByLayer
370
13
48
1
60
0
100
AcDbLine
10
69.5875
20
3
30
0
11
87.25
21
3
31
0
39
0
210
0
220
0
230
1
0
LINE
5
137
100
AcDbEntity
8
SK2
62
256
6
ByLayer
370
13
48
1
60
0
100
AcDbLine
10
69.5875
20
-3
30
0
11
87.25
21
-3
31
0
39
0
210
0
220
0
230
1
0
LINE
5
138
100
AcDbEntity
8
SK2
62
256
6
ByLayer
370
13
48
1
60
0
100
AcDbLine
10
85.25
20
-14.25
30
0
11
85.25
21
26.512742
31
0
39
0
210
0
220
0
230
1
0
SOLID
5
139
100
AcDbEntity
8
SK2
62
256
6
ByLayer
370
18
48
1
60
0
100
AcDbTrace
10
85.25
20
3
30
0
11
84.252374
21
7.499996
31
0
12
86.247626
22
7.500004
32
0
13
86.247626
23
7.500004
33
0
39
0
210
0
220
0
230
1
0
SOLID
5
13A
100
AcDbEntity
8
SK2
62
256
6
ByLayer
370
18
48
1
60
0
100
AcDbTrace
10
85.25
20
-3
30
0
11
86.247626
21
-7.499996
31
0
12
84.252374
22
-7.500004
32
0
13
84.252374
23
-7.500004
33
0
39
0
210
0
220
0
230
1
0
ENDBLK
5
13C
100
AcDbEntity
8
0
100
AcDbBlockEnd
0
BLOCK
5
141
100
AcDbEntity
8
0
100
AcDbBlockBegin
2
*D5
70
1
10
0
20
0
30
0
3
*D5
0
LINE
5
143
100
AcDbEntity
8
0
62
256
6
ByLayer
370
-2
48
1
60
0
100
AcDbLine
10
31
20
-4.5875
30
0
11
31
21
-45.59
31
0
39
0
210
0
220
0
230
1
0
LINE
5
144
100
AcDbEntity
8
0
62
256
6
ByLayer
370
-2
48
1
60
0
100
AcDbLine
10
68
20
-4.5875
30
0
11
68
21
-45.59
31
0
39
0
210
0
220
0
230
1
0
LINE
5
145
100
AcDbEntity
8
0
62
256
6
ByLayer
370
-2
48
1
60
0
100
AcDbLine
10
68
20
-43.59
30
0
11
110.280054
21
-43.59
31
0
39
0
210
0
220
0
230
1
0
LINE
5
146
100
AcDbEntity
8
0
62
256
6
ByLayer
370
-2
48
1
60
0
100
AcDbLine
10
35.5
20
-43.59
30
0
11
63.5
21
-43.59
31
0
39
0
210
0
220
0
230
1
0
SOLID
5
147
100
AcDbEntity
8
0
62
256
6
ByLayer
370
-1
48
1
60
0
100
AcDbTrace
10
35.5
20
-42.84
30
0
11
35.5
21
-44.34
31
0
12
31
22
-43.59
32
0
13
31
23
-43.59
33
0
39
0
210
0
220
0
230
1
0
SOLID
5
148
100
AcDbEntity
8
0
62
256
6
ByLayer
370
-1
48
1
60
0
100
AcDbTrace
10
63.5
20
-44.34
30
0
11
63.5
21
-42.84
31
0
12
68
22
-43.59
32
0
13
68
23
-43.59
33
0
39
0
210
0
220
0
230
1
0
MTEXT
5
149
100
AcDbEntity
8
0
62
256
6
ByLayer
370
18
48
1
60
0
100
AcDbMText
10
99.887197
20
-34.59
30
0
210
0
220
0
230
1
1
\A1;37
40
4.5
41
0
44
1
50
0
71
5
72
5
7
iso_b_vert
0
POINT
5
14A
100
AcDbEntity
8
Defpoints
62
0
6
ByLayer
370
-1
48
1
60
0
100
AcDbPoint
10
31
20
-3
30
0
39
0
210
0
220
0
230
1
50
360
0
POINT
5
14B
100
AcDbEntity
8
Defpoints
62
0
6
ByLayer
370
-1
48
1
60
0
100
AcDbPoint
10
68
20
-3
30
0
39
0
210
0
220
0
230
1
50
360
0
POINT
5
14C
100
AcDbEntity
8
Defpoints
62
0
6
ByLayer
370
-1
48
1
60
0
100
AcDbPoint
10
68
20
-43.59
30
0
39
0
210
0
220
0
230
1
50
360
0
ENDBLK
5
142
100
AcDbEntity
8
0
100
AcDbBlockEnd
0
BLOCK
5
154
100
AcDbEntity
8
0
100
AcDbBlockBegin
2
_U2
70
0
10
0
20
0
30
0
3
_U2
0
MTEXT
5
14E
100
AcDbEntity
8
SK2
62
256
6
ByLayer
370
18
48
1
60
0
100
AcDbMText
10
79.2385
20
-42.262328
30
0
210
0
220
0
230
1
1
\W0.7273;min 27-max 37
40
4.5
41
0
44
1.084337
50
0
71
7
72
5
7
iso_b_vert
0
LINE
5
14F
100
AcDbEntity
8
SK2
62
256
6
ByLayer
370
13
48
1
60
0
100
AcDbLine
10
31
20
-4.5875
30
0
11
31
21
-45.59
31
0
39
0
210
0
220
0
230
1
0
LINE
5
150
100
AcDbEntity
8
SK2
62
256
6
ByLayer
370
13
48
1
60
0
100
AcDbLine
10
68
20
-4.5875
30
0
11
68
21
-45.59
31
0
39
0
210
0
220
0
230
1
0
LINE
5
151
100
AcDbEntity
8
SK2
62
256
6
ByLayer
370
13
48
1
60
0
100
AcDbLine
10
31
20
-43.59
30
0
11
120.774393
21
-43.59
31
0
39
0
210
0
220
0
230
1
0
SOLID
5
152
100
AcDbEntity
8
SK2
62
256
6
ByLayer
370
18
48
1
60
0
100
AcDbTrace
10
31
20
-43.59
30
0
11
35.499996
21
-42.592374
31
0
12
35.500004
22
-44.587626
32
0
13
35.500004
23
-44.587626
33
0
39
0
210
0
220
0
230
1
0
SOLID
5
153
100
AcDbEntity
8
SK2
62
256
6
ByLayer
370
18
48
1
60
0
100
AcDbTrace
10
68
20
-43.59
30
0
11
63.500004
21
-44.587626
31
0
12
63.499996
22
-42.592374
32
0
13
63.499996
23
-42.592374
33
0
39
0
210
0
220
0
230
1
0
ENDBLK
5
155
100
AcDbEntity
8
0
100
AcDbBlockEnd
0
BLOCK
5
15A
100
AcDbEntity
8
0
100
AcDbBlockBegin
2
*D7
70
1
10
0
20
0
30
0
3
*D7
0
LINE
5
15C
100
AcDbEntity
8
0
62
256
6
ByLayer
370
-2
48
1
60
0
100
AcDbLine
10
56.7
20
-14.5875
30
0
11
56.7
21
-35.59
31
0
39
0
210
0
220
0
230
1
0
LINE
5
15D
100
AcDbEntity
8
0
62
256
6
ByLayer
370
-2
48
1
60
0
100
AcDbLine
10
68
20
-14.5875
30
0
11
68
21
-35.59
31
0
39
0
210
0
220
0
230
1
0
LINE
5
15E
100
AcDbEntity
8
0
62
256
6
ByLayer
370
-2
48
1
60
0
100
AcDbLine
10
52.2
20
-33.59
30
0
11
47.7
21
-33.59
31
0
39
0
210
0
220
0
230
1
0
LINE
5
15F
100
AcDbEntity
8
0
62
256
6
ByLayer
370
-2
48
1
60
0
100
AcDbLine
10
72.5
20
-33.59
30
0
11
77
21
-33.59
31
0
39
0
210
0
220
0
230
1
0
SOLID
5
160
100
AcDbEntity
8
0
62
256
6
ByLayer
370
-1
48
1
60
0
100
AcDbTrace
10
52.2
20
-34.34
30
0
11
52.2
21
-32.84
31
0
12
56.7
22
-33.59
32
0
13
56.7
23
-33.59
33
0
39
0
210
0
220
0
230
1
0
SOLID
5
161
100
AcDbEntity
8
0
62
256
6
ByLayer
370
-1
48
1
60
0
100
AcDbTrace
10
72.5
20
-32.84
30
0
11
72.5
21
-34.34
31
0
12
68
22
-33.59
32
0
13
68
23
-33.59
33
0
39
0
210
0
220
0
230
1
0
MTEXT
5
162
100
AcDbEntity
8
0
62
256
6
ByLayer
370
18
48
1
60
0
100
AcDbMText
10
62.35
20
-24.59
30
0
210
0
220
0
230
1
1
\A1;11.3
40
4.5
41
0
44
1
50
0
71
5
72
5
7
iso_b_vert
0
POINT
5
163
100
AcDbEntity
8
Defpoints
62
0
6
ByLayer
370
-1
48
1
60
0
100
AcDbPoint
10
56.7
20
-13
30
0
39
0
210
0
220
0
230
1
50
360
0
POINT
5
164
100
AcDbEntity
8
Defpoints
62
0
6
ByLayer
370
-1
48
1
60
0
100
AcDbPoint
10
68
20
-13
30
0
39
0
210
0
220
0
230
1
50
360
0
POINT
5
165
100
AcDbEntity
8
Defpoints
62
0
6
ByLayer
370
-1
48
1
60
0
100
AcDbPoint
10
68
20
-33.59
30
0
39
0
210
0
220
0
230
1
50
360
0
ENDBLK
5
15B
100
AcDbEntity
8
0
100
AcDbBlockEnd
0
BLOCK
5
16D
100
AcDbEntity
8
0
100
AcDbBlockBegin
2
_U3
70
0
10
0
20
0
30
0
3
_U3
0
MTEXT
5
167
100
AcDbEntity
8
SK2
62
256
6
ByLayer
370
18
48
1
60
0
100
AcDbMText
10
58.551101
20
-32.262328
30
0
210
0
220
0
230
1
1
\W0.5583;11,3
40
4.5
41
0
44
1.084337
50
0
71
7
72
5
7
iso_b_vert
0
LINE
5
168
100
AcDbEntity
8
SK2
62
256
6
ByLayer
370
13
48
1
60
0
100
AcDbLine
10
56.7
20
-14.5875
30
0
11
56.7
21
-35.59
31
0
39
0
210
0
220
0
230
1
0
LINE
5
169
100
AcDbEntity
8
SK2
62
256
6
ByLayer
370
13
48
1
60
0
100
AcDbLine
10
68
20
-14.5875
30
0
11
68
21
-35.59
31
0
39
0
210
0
220
0
230
1
0
LINE
5
16A
100
AcDbEntity
8
SK2
62
256
6
ByLayer
370
13
48
1
60
0
100
AcDbLine
10
45.45
20
-33.59
30
0
11
79.25
21
-33.59
31
0
39
0
210
0
220
0
230
1
0
SOLID
5
16B
100
AcDbEntity
8
SK2
62
256
6
ByLayer
370
18
48
1
60
0
100
AcDbTrace
10
56.7
20
-33.59
30
0
11
52.200004
21
-34.587626
31
0
12
52.199996
22
-32.592374
32
0
13
52.199996
23
-32.592374
33
0
39
0
210
0
220
0
230
1
0
SOLID
5
16C
100
AcDbEntity
8
SK2
62
256
6
ByLayer
370
18
48
1
60
0
100
AcDbTrace
10
68
20
-33.59
30
0
11
72.499996
21
-32.592374
31
0
12
72.500004
22
-34.587626
32
0
13
72.500004
23
-34.587626
33
0
39
0
210
0
220
0
230
1
0
ENDBLK
5
16E
100
AcDbEntity
8
0
100
AcDbBlockEnd
0
BLOCK
5
173
100
AcDbEntity
8
0
100
AcDbBlockBegin
2
*D9
70
1
10
0
20
0
30
0
3
*D9
0
LINE
5
175
100
AcDbEntity
8
0
62
256
6
ByLayer
370
-2
48
1
60
0
100
AcDbLine
10
68
20
14.5875
30
0
11
68
21
46.09
31
0
39
0
210
0
220
0
230
1
0
LINE
5
176
100
AcDbEntity
8
0
62
256
6
ByLayer
370
-2
48
1
60
0
100
AcDbLine
10
36
20
14.5875
30
0
11
36
21
46.09
31
0
39
0
210
0
220
0
230
1
0
LINE
5
177
100
AcDbEntity
8
0
62
256
6
ByLayer
370
-2
48
1
60
0
100
AcDbLine
10
63.5
20
44.09
30
0
11
40.5
21
44.09
31
0
39
0
210
0
220
0
230
1
0
SOLID
5
178
100
AcDbEntity
8
0
62
256
6
ByLayer
370
-1
48
1
60
0
100
AcDbTrace
10
63.5
20
43.34
30
0
11
63.5
21
44.84
31
0
12
68
22
44.09
32
0
13
68
23
44.09
33
0
39
0
210
0
220
0
230
1
0
SOLID
5
179
100
AcDbEntity
8
0
62
256
6
ByLayer
370
-1
48
1
60
0
100
AcDbTrace
10
40.5
20
44.84
30
0
11
40.5
21
43.34
31
0
12
36
22
44.09
32
0
13
36
23
44.09
33
0
39
0
210
0
220
0
230
1
0
MTEXT
5
17A
100
AcDbEntity
8
0
62
256
6
ByLayer
370
18
48
1
60
0
100
AcDbMText
10
52
20
53.09
30
0
210
0
220
0
230
1
1
\A1;32
40
4.5
41
0
44
1
50
0
71
5
72
5
7
iso_b_vert
0
POINT
5
17B
100
AcDbEntity
8
Defpoints
62
0
6
ByLayer
370
-1
48
1
60
0
100
AcDbPoint
10
68
20
13
30
0
39
0
210
0
220
0
230
1
50
360
0
POINT
5
17C
100
AcDbEntity
8
Defpoints
62
0
6
ByLayer
370
-1
48
1
60
0
100
AcDbPoint
10
36
20
13
30
0
39
0
210
0
220
0
230
1
50
360
0
POINT
5
17D
100
AcDbEntity
8
Defpoints
62
0
6
ByLayer
370
-1
48
1
60
0
100
AcDbPoint
10
36
20
44.09
30
0
39
0
210
0
220
0
230
1
50
360
0
ENDBLK
5
174
100
AcDbEntity
8
0
100
AcDbBlockEnd
0
BLOCK
5
185
100
AcDbEntity
8
0
100
AcDbBlockBegin
2
_U4
70
0
10
0
20
0
30
0
3
_U4
0
MTEXT
5
17F
100
AcDbEntity
8
SK2
62
256
6
ByLayer
370
18
48
1
60
0
100
AcDbMText
10
49.550758
20
45.417672
30
0
210
0
220
0
230
1
1
\W0.6740;32
40
4.5
41
0
44
1.084337
50
0
71
7
72
5
7
iso_b_vert
0
LINE
5
180
100
AcDbEntity
8
SK2
62
256
6
ByLayer
370
13
48
1
60
0
100
AcDbLine
10
68
20
14.5875
30
0
11
68
21
46.09
31
0
39
0
210
0
220
0
230
1
0
LINE
5
181
100
AcDbEntity
8
SK2
62
256
6
ByLayer
370
13
48
1
60
0
100
AcDbLine
10
36
20
14.5875
30
0
11
36
21
46.09
31
0
39
0
210
0
220
0
230
1
0
LINE
5
182
100
AcDbEntity
8
SK2
62
256
6
ByLayer
370
13
48
1
60
0
100
AcDbLine
10
68
20
44.09
30
0
11
36
21
44.09
31
0
39
0
210
0
220
0
230
1
0
SOLID
5
183
100
AcDbEntity
8
SK2
62
256
6
ByLayer
370
18
48
1
60
0
100
AcDbTrace
10
68
20
44.09
30
0
11
63.500004
21
43.092374
31
0
12
63.499996
22
45.087626
32
0
13
63.499996
23
45.087626
33
0
39
0
210
0
220
0
230
1
0
SOLID
5
184
100
AcDbEntity
8
SK2
62
256
6
ByLayer
370
18
48
1
60
0
100
AcDbTrace
10
36
20
44.09
30
0
11
40.499996
21
45.087626
31
0
12
40.500004
22
43.092374
32
0
13
40.500004
23
43.092374
33
0
39
0
210
0
220
0
230
1
0
ENDBLK
5
186
100
AcDbEntity
8
0
100
AcDbBlockEnd
0
BLOCK
5
18B
100
AcDbEntity
8
0
100
AcDbBlockBegin
2
*D11
70
1
10
0
20
0
30
0
3
*D11
0
LINE
5
18D
100
AcDbEntity
8
0
62
256
6
ByLayer
370
-2
48
1
60
0
100
AcDbLine
10
0
20
26.5775
30
0
11
0
21
66.09
31
0
39
0
210
0
220
0
230
1
0
LINE
5
18E
100
AcDbEntity
8
0
62
256
6
ByLayer
370
-2
48
1
60
0
100
AcDbLine
10
68
20
14.5875
30
0
11
68
21
66.09
31
0
39
0
210
0
220
0
230
1
0
LINE
5
18F
100
AcDbEntity
8
0
62
256
6
ByLayer
370
-2
48
1
60
0
100
AcDbLine
10
4.5
20
64.09
30
0
11
63.5
21
64.09
31
0
39
0
210
0
220
0
230
1
0
SOLID
5
190
100
AcDbEntity
8
0
62
256
6
ByLayer
370
-1
48
1
60
0
100
AcDbTrace
10
4.5
20
64.84
30
0
11
4.5
21
63.34
31
0
12
0
22
64.09
32
0
13
0
23
64.09
33
0
39
0
210
0
220
0
230
1
0
SOLID
5
191
100
AcDbEntity
8
0
62
256
6
ByLayer
370
-1
48
1
60
0
100
AcDbTrace
10
63.5
20
63.34
30
0
11
63.5
21
64.84
31
0
12
68
22
64.09
32
0
13
68
23
64.09
33
0
39
0
210
0
220
0
230
1
0
MTEXT
5
192
100
AcDbEntity
8
0
62
256
6
ByLayer
370
18
48
1
60
0
100
AcDbMText
10
34
20
73.09
30
0
210
0
220
0
230
1
1
\A1;68
40
4.5
41
0
44
1
50
0
71
5
72
5
7
iso_b_vert
0
POINT
5
193
100
AcDbEntity
8
Defpoints
62
0
6
ByLayer
370
-1
48
1
60
0
100
AcDbPoint
10
0
20
24.99
30
0
39
0
210
0
220
0
230
1
50
360
0
POINT
5
194
100
AcDbEntity
8
Defpoints
62
0
6
ByLayer
370
-1
48
1
60
0
100
AcDbPoint
10
68
20
13
30
0
39
0
210
0
220
0
230
1
50
360
0
POINT
5
195
100
AcDbEntity
8
Defpoints
62
0
6
ByLayer
370
-1
48
1
60
0
100
AcDbPoint
10
68
20
64.09
30
0
39
0
210
0
220
0
230
1
50
360
0
ENDBLK
5
18C
100
AcDbEntity
8
0
100
AcDbBlockEnd
0
BLOCK
5
19E
100
AcDbEntity
8
0
100
AcDbBlockBegin
2
_U5
70
0
10
0
20
0
30
0
3
_U5
0
MTEXT
5
198
100
AcDbEntity
8
2
62
256
6
ByLayer
370
18
48
1
60
0
100
AcDbMText
10
31.550758
20
65.417672
30
0
210
0
220
0
230
1
1
\W0.6740;68
40
4.5
41
0
44
1.084337
50
0
71
7
72
5
7
iso_b_vert
0
LINE
5
199
100
AcDbEntity
8
2
62
256
6
ByLayer
370
13
48
1
60
0
100
AcDbLine
10
0
20
26.5775
30
0
11
0
21
66.09
31
0
39
0
210
0
220
0
230
1
0
LINE
5
19A
100
AcDbEntity
8
2
62
256
6
ByLayer
370
13
48
1
60
0
100
AcDbLine
10
68
20
14.5875
30
0
11
68
21
66.09
31
0
39
0
210
0
220
0
230
1
0
LINE
5
19B
100
AcDbEntity
8
2
62
256
6
ByLayer
370
13
48
1
60
0
100
AcDbLine
10
0
20
64.09
30
0
11
68
21
64.09
31
0
39
0
210
0
220
0
230
1
0
SOLID
5
19C
100
AcDbEntity
8
2
62
256
6
ByLayer
370
18
48
1
60
0
100
AcDbTrace
10
0
20
64.09
30
0
11
4.499996
21
65.087626
31
0
12
4.500004
22
63.092374
32
0
13
4.500004
23
63.092374
33
0
39
0
210
0
220
0
230
1
0
SOLID
5
19D
100
AcDbEntity
8
2
62
256
6
ByLayer
370
18
48
1
60
0
100
AcDbTrace
10
68
20
64.09
30
0
11
63.500004
21
63.092374
31
0
12
63.499996
22
65.087626
32
0
13
63.499996
23
65.087626
33
0
39
0
210
0
220
0
230
1
0
ENDBLK
5
19F
100
AcDbEntity
8
0
100
AcDbBlockEnd
0
BLOCK
5
1A4
100
AcDbEntity
8
0
100
AcDbBlockBegin
2
*D13
70
1
10
0
20
0
30
0
3
*D13
0
LINE
5
1A6
100
AcDbEntity
8
0
62
256
6
ByLayer
370
-2
48
1
60
0
100
AcDbLine
10
0
20
23.6425
30
0
11
0
21
66.09
31
0
39
0
210
0
220
0
230
1
0
LINE
5
1A7
100
AcDbEntity
8
0
62
256
6
ByLayer
370
-2
48
1
60
0
100
AcDbLine
10
-30
20
19.5875
30
0
11
-30
21
66.09
31
0
39
0
210
0
220
0
230
1
0
LINE
5
1A8
100
AcDbEntity
8
0
62
256
6
ByLayer
370
-2
48
1
60
0
100
AcDbLine
10
-4.5
20
64.09
30
0
11
-25.5
21
64.09
31
0
39
0
210
0
220
0
230
1
0
SOLID
5
1A9
100
AcDbEntity
8
0
62
256
6
ByLayer
370
-1
48
1
60
0
100
AcDbTrace
10
-4.5
20
63.34
30
0
11
-4.5
21
64.84
31
0
12
0
22
64.09
32
0
13
0
23
64.09
33
0
39
0
210
0
220
0
230
1
0
SOLID
5
1AA
100
AcDbEntity
8
0
62
256
6
ByLayer
370
-1
48
1
60
0
100
AcDbTrace
10
-25.5
20
64.84
30
0
11
-25.5
21
63.34
31
0
12
-30
22
64.09
32
0
13
-30
23
64.09
33
0
39
0
210
0
220
0
230
1
0
MTEXT
5
1AB
100
AcDbEntity
8
0
62
256
6
ByLayer
370
18
48
1
60
0
100
AcDbMText
10
-15
20
73.09
30
0
210
0
220
0
230
1
1
\A1;30
40
4.5
41
0
44
1
50
0
71
5
72
5
7
iso_b_vert
0
POINT
5
1AC
100
AcDbEntity
8
Defpoints
62
0
6
ByLayer
370
-1
48
1
60
0
100
AcDbPoint
10
0
20
22.055
30
0
39
0
210
0
220
0
230
1
50
360
0
POINT
5
1AD
100
AcDbEntity
8
Defpoints
62
0
6
ByLayer
370
-1
48
1
60
0
100
AcDbPoint
10
-30
20
18
30
0
39
0
210
0
220
0
230
1
50
360
0
POINT
5
1AE
100
AcDbEntity
8
Defpoints
62
0
6
ByLayer
370
-1
48
1
60
0
100
AcDbPoint
10
-30
20
64.09
30
0
39
0
210
0
220
0
230
1
50
360
0
ENDBLK
5
1A5
100
AcDbEntity
8
0
100
AcDbBlockEnd
0
BLOCK
5
1B6
100
AcDbEntity
8
0
100
AcDbBlockBegin
2
_U6
70
0
10
0
20
0
30
0
3
_U6
0
MTEXT
5
1B0
100
AcDbEntity
8
SK2
62
256
6
ByLayer
370
18
48
1
60
0
100
AcDbMText
10
-17.449242
20
65.417672
30
0
210
0
220
0
230
1
1
\W0.6740;30
40
4.5
41
0
44
1.084337
50
0
71
7
72
5
7
iso_b_vert
0
LINE
5
1B1
100
AcDbEntity
8
SK2
62
256
6
ByLayer
370
13
48
1
60
0
100
AcDbLine
10
0
20
23.6425
30
0
11
0
21
66.09
31
0
39
0
210
0
220
0
230
1
0
LINE
5
1B2
100
AcDbEntity
8
SK2
62
256
6
ByLayer
370
13
48
1
60
0
100
AcDbLine
10
-30
20
19.5875
30
0
11
-30
21
66.09
31
0
39
0
210
0
220
0
230
1
0
LINE
5
1B3
100
AcDbEntity
8
SK2
62
256
6
ByLayer
370
13
48
1
60
0
100
AcDbLine
10
0
20
64.09
30
0
11
-30
21
64.09
31
0
39
0
210
0
220
0
230
1
0
SOLID
5
1B4
100
AcDbEntity
8
SK2
62
256
6
ByLayer
370
18
48
1
60
0
100
AcDbTrace
10
0
20
64.09
30
0
11
-4.499996
21
63.092374
31
0
12
-4.500004
22
65.087626
32
0
13
-4.500004
23
65.087626
33
0
39
0
210
0
220
0
230
1
0
SOLID
5
1B5
100
AcDbEntity
8
SK2
62
256
6
ByLayer
370
18
48
1
60
0
100
AcDbTrace
10
-30
20
64.09
30
0
11
-25.500004
21
65.087626
31
0
12
-25.499996
22
63.092374
32
0
13
-25.499996
23
63.092374
33
0
39
0
210
0
220
0
230
1
0
ENDBLK
5
1B7
100
AcDbEntity
8
0
100
AcDbBlockEnd
0
ENDSEC
0
SECTION
2
ENTITIES
0
ARC
5
C9
100
AcDbEntity
8
1
62
256
6
ByLayer
370
18
48
1
60
0
100
AcDbCircle
39
0
10
37.750519
20
-15.5
30
0
40
2.5
210
0
220
0
230
1
100
AcDbArc
50
90
51
160
0
ARC
5
CA
100
AcDbEntity
8
1
62
256
6
ByLayer
370
18
48
1
60
0
100
AcDbCircle
39
0
10
37.750519
20
15.5
30
0
40
2.5
210
0
220
0
230
1
100
AcDbArc
50
200
51
270
0
ARC
5
CB
100
AcDbEntity
8
1
62
256
6
ByLayer
370
18
48
1
60
0
100
AcDbCircle
39
0
10
66.8
20
10.000586
30
0
40
1.2
210
0
220
0
230
1
100
AcDbArc
50
0
51
80
0
ARC
5
CC
100
AcDbEntity
8
1
62
256
6
ByLayer
370
18
48
1
60
0
100
AcDbCircle
39
0
10
66.8
20
-10.000586
30
0
40
1.2
210
0
220
0
230
1
100
AcDbArc
50
280
51
0
0
ARC
5
CD
100
AcDbEntity
8
SK1
62
256
6
ByLayer
370
18
48
1
60
0
100
AcDbCircle
39
0
10
-0.6
20
18.75
30
0
40
1.00000000000001
210
0
220
0
230
1
100
AcDbArc
50
293.578178
51
306.869898
0
ARC
5
CE
100
AcDbEntity
8
SK1
62
256
6
ByLayer
370
18
48
1
60
0
100
AcDbCircle
39
0
10
-0.6
20
-18.75
30
0
40
1.00000000000001
210
0
220
0
230
1
100
AcDbArc
50
53.130102
51
66.421822
0
ARC
5
CF
100
AcDbEntity
8
1
62
256
6
ByLayer
370
18
48
1
60
0
100
AcDbCircle
39
0
10
54.950227
20
7
30
0
40
20
210
0
220
0
230
1
100
AcDbArc
50
270
51
280
0
ARC
5
D0
100
AcDbEntity
8
1
62
256
6
ByLayer
370
18
48
1
60
0
100
AcDbCircle
39
0
10
30.935789
20
-23.99
30
0
40
1
210
0
220
0
230
1
100
AcDbArc
50
270
51
340
0
ARC
5
D1
100
AcDbEntity
8
1
62
256
6
ByLayer
370
18
48
1
60
0
100
AcDbCircle
39
0
10
30.935789
20
23.99
30
0
40
1
210
0
220
0
230
1
100
AcDbArc
50
20
51
90
0
ARC
5
D2
100
AcDbEntity
8
1
62
256
6
ByLayer
370
18
48
1
60
0
100
AcDbCircle
39
0
10
54.950227
20
-7
30
0
40
20
210
0
220
0
230
1
100
AcDbArc
50
80
51
90
0
ELLIPSE
5
D3
100
AcDbEntity
8
1
62
256
6
ByLayer
370
18
48
1
60
0
100
AcDbEllipse
10
21.056258
20
0
30
0
11
11.7045886407884
21
-24.6673155663624
31
0
210
0
220
0
230
1
40
0.341999
41
-2.97356574486917
42
-2.06057378991221
0
ELLIPSE
5
D4
100
AcDbEntity
8
1
62
256
6
ByLayer
370
18
48
1
60
0
100
AcDbEllipse
10
21.056258
20
0
30
0
11
11.7045886407873
21
24.667315566361
31
0
210
0
220
0
230
1
40
0.341999
41
2.06057378991217
42
2.97356574486916
0
ELLIPSE
5
D5
100
AcDbEntity
8
1
62
256
6
ByLayer
370
18
48
1
60
0
100
AcDbEllipse
10
-1.056258
20
0
30
0
11
11.7045886407874
21
-24.6673155663611
31
0
210
0
220
0
230
1
40
0.341999
41
0.168026908720631
42
1.08101886367762
0
ELLIPSE
5
D6
100
AcDbEntity
8
1
62
256
6
ByLayer
370
18
48
1
60
0
100
AcDbEllipse
10
-1.056258
20
0
30
0
11
11.7045886407875
21
24.6673155663612
31
0
210
0
220
0
230
1
40
0.341999
41
-1.08101886367762
42
-0.168026908720634
0
POINT
5
70
100
AcDbEntity
8
80
62
256
6
ByLayer
370
18
48
1
60
0
100
AcDbPoint
10
0
20
0
30
0
39
0
210
0
220
0
230
1
50
360
0
POINT
5
72
100
AcDbEntity
8
81
62
256
6
ByLayer
370
18
48
1
60
0
100
AcDbPoint
10
68
20
0
30
0
39
0
210
0
220
0
230
1
50
360
0
POINT
5
74
100
AcDbEntity
8
1
62
256
6
ByLayer
370
18
48
1
60
1
100
AcDbPoint
10
68
20
-13
30
0
39
0
210
0
220
0
230
1
50
360
0
POINT
5
76
100
AcDbEntity
8
1
62
256
6
ByLayer
370
18
48
1
60
1
100
AcDbPoint
10
68
20
13
30
0
39
0
210
0
220
0
230
1
50
360
0
POINT
5
77
100
AcDbEntity
8
1
62
256
6
ByLayer
370
18
48
1
60
1
100
AcDbPoint
10
68
20
3
30
0
39
0
210
0
220
0
230
1
50
360
0
POINT
5
78
100
AcDbEntity
8
1
62
256
6
ByLayer
370
18
48
1
60
1
100
AcDbPoint
10
68
20
-3
30
0
39
0
210
0
220
0
230
1
50
360
0
POINT
5
79
100
AcDbEntity
8
1
62
256
6
ByLayer
370
18
48
1
60
1
100
AcDbPoint
10
31
20
-3
30
0
39
0
210
0
220
0
230
1
50
360
0
POINT
5
7A
100
AcDbEntity
8
1
62
256
6
ByLayer
370
18
48
1
60
1
100
AcDbPoint
10
56.7
20
-13
30
0
39
0
210
0
220
0
230
1
50
360
0
POINT
5
7B
100
AcDbEntity
8
1
62
256
6
ByLayer
370
18
48
1
60
1
100
AcDbPoint
10
68
20
-13
30
0
39
0
210
0
220
0
230
1
50
360
0
POINT
5
7C
100
AcDbEntity
8
1
62
256
6
ByLayer
370
18
48
1
60
1
100
AcDbPoint
10
68
20
13
30
0
39
0
210
0
220
0
230
1
50
360
0
POINT
5
7D
100
AcDbEntity
8
1
62
256
6
ByLayer
370
18
48
1
60
1
100
AcDbPoint
10
36
20
13
30
0
39
0
210
0
220
0
230
1
50
360
0
POINT
5
7E
100
AcDbEntity
8
1
62
256
6
ByLayer
370
18
48
1
60
1
100
AcDbPoint
10
0
20
24.99
30
0
39
0
210
0
220
0
230
1
50
360
0
POINT
5
7F
100
AcDbEntity
8
1
62
256
6
ByLayer
370
18
48
1
60
1
100
AcDbPoint
10
68
20
13
30
0
39
0
210
0
220
0
230
1
50
360
0
POINT
5
80
100
AcDbEntity
8
1
62
256
6
ByLayer
370
18
48
1
60
1
100
AcDbPoint
10
0
20
22.055
30
0
39
0
210
0
220
0
230
1
50
360
0
POINT
5
81
100
AcDbEntity
8
1
62
256
6
ByLayer
370
18
48
1
60
1
100
AcDbPoint
10
-30
20
18
30
0
39
0
210
0
220
0
230
1
50
360
0
SPLINE
5
D7
100
AcDbEntity
8
1
62
256
6
ByLayer
370
18
48
1
60
0
100
AcDbSpline
70
4
71
3
72
16
73
12
40
0
40
0
40
0
40
0
40
0.125
40
0.125
40
0.25
40
0.25
40
0.5
40
0.5
40
0.75
40
0.75
40
1
40
1
40
1
40
1
41
1
10
11.4613248654052
20
-23.8237900886702
30
0
41
1
10
11.4931085422155
20
-23.8237900886702
30
0
41
1
10
11.5240537130244
20
-23.8217870353893
30
0
41
1
10
11.5824977127781
20
-23.8145927838341
30
0
41
1
10
11.6090762858304
20
-23.8095715209772
30
0
41
1
10
11.6830611925597
20
-23.7915133746455
30
0
41
1
10
11.7220261923411
20
-23.7763424656021
30
0
41
1
10
11.7883217497886
20
-23.7434141084039
30
0
41
1
10
11.8149243019491
20
-23.7258580977054
30
0
41
1
10
11.8602649095123
20
-23.6892202228342
30
0
41
1
10
11.8788955182341
20
-23.6700725084982
30
0
41
1
10
11.8943375672976
20
-23.6504738342092
30
0
0
SPLINE
5
D8
100
AcDbEntity
8
1
62
256
6
ByLayer
370
18
48
1
60
0
100
AcDbSpline
70
4
71
3
72
16
73
12
40
0
40
0
40
0
40
0
40
0.125
40
0.125
40
0.25
40
0.25
40
0.5
40
0.5
40
0.75
40
0.75
40
1
40
1
40
1
40
1
41
1
10
8.53867513459483
20
23.8237900886702
30
0
41
1
10
8.50689145778455
20
23.8237900886702
30
0
41
1
10
8.47594628697559
20
23.8217870353893
30
0
41
1
10
8.41750228722191
20
23.8145927838341
30
0
41
1
10
8.39092371416962
20
23.8095715209772
30
0
41
1
10
8.31693880744035
20
23.7915133746455
30
0
41
1
10
8.27797380765892
20
23.7763424656021
30
0
41
1
10
8.21167825021141
20
23.7434141084039
30
0
41
1
10
8.18507569805092
20
23.7258580977054
30
0
41
1
10
8.1397350904877
20
23.6892202228342
30
0
41
1
10
8.12110448176594
20
23.6700725084982
30
0
41
1
10
8.10566243270242
20
23.6504738342092
30
0
0
SPLINE
5
D9
100
AcDbEntity
8
1
62
256
6
ByLayer
370
18
48
1
60
0
100
AcDbSpline
70
4
71
3
72
16
73
12
40
0
40
0
40
0
40
0
40
0.125000000000001
40
0.125000000000001
40
0.250000000000001
40
0.250000000000001
40
0.500000000000003
40
0.500000000000003
40
0.750000000000001
40
0.750000000000001
40
1
40
1
40
1
40
1
41
1
10
8.53867513459483
20
-7.54500668064517
30
0
41
1
10
8.50689145778455
20
-7.54500668064517
30
0
41
1
10
8.47594628697559
20
-7.55133787648484
30
0
41
1
10
8.41750228722191
20
-7.57399576342848
30
0
41
1
10
8.39092371416962
20
-7.58978226638186
30
0
41
1
10
8.31693880744035
20
-7.64627718556739
30
0
41
1
10
8.27797380765892
20
-7.69340378697146
30
0
41
1
10
8.21167825021141
20
-7.79443451110021
30
0
41
1
10
8.18507569805092
20
-7.84774574119157
30
0
41
1
10
8.1397350904877
20
-7.95765674837185
30
0
41
1
10
8.12110448176594
20
-8.01445251062179
30
0
41
1
10
8.10566243270245
20
-8.07187632569941
30
0
0
SPLINE
5
DA
100
AcDbEntity
8
1
62
256
6
ByLayer
370
18
48
1
60
0
100
AcDbSpline
70
4
71
3
72
16
73
12
40
0
40
0
40
0
40
0
40
0.250000000000001
40
0.250000000000001
40
0.500000000000001
40
0.500000000000001
40
0.749999999999999
40
0.749999999999999
40
0.874999999999999
40
0.874999999999999
40
1
40
1
40
1
40
1
41
1
10
8.10566243270262
20
8.07187632569946
30
0
41
1
10
8.12109842182173
20
8.01447504552803
30
0
41
1
10
8.13957543154032
20
7.95811757710425
30
0
41
1
10
8.18481044212157
20
7.84831564619529
30
0
41
1
10
8.21164961819827
20
7.79447411502719
30
0
41
1
10
8.27803248810048
20
7.69331839273843
30
0
41
1
10
8.31766632931493
20
7.64573389046433
30
0
41
1
10
8.39048533960403
20
7.59011089834681
30
0
41
1
10
8.41760624511988
20
7.57397216507482
30
0
41
1
10
8.47557943952614
20
7.55146346886224
30
0
41
1
10
8.50694319778512
20
7.54500668064483
30
0
41
1
10
8.53867513459474
20
7.54500668064483
30
0
0
SPLINE
5
DB
100
AcDbEntity
8
1
62
256
6
ByLayer
370
18
48
1
60
0
100
AcDbSpline
70
4
71
3
72
16
73
12
40
0
40
0
40
0
40
0
40
0.125000000000001
40
0.125000000000001
40
0.250000000000002
40
0.250000000000002
40
0.500000000000001
40
0.500000000000001
40
0.750000000000001
40
0.750000000000001
40
1
40
1
40
1
40
1
41
1
10
11.4613248654052
20
7.54500668064517
30
0
41
1
10
11.4931085422155
20
7.54500668064517
30
0
41
1
10
11.5240537130244
20
7.55133787648484
30
0
41
1
10
11.5824977127781
20
7.57399576342848
30
0
41
1
10
11.6090762858304
20
7.58978226638186
30
0
41
1
10
11.6830611925597
20
7.64627718556739
30
0
41
1
10
11.7220261923411
20
7.69340378697146
30
0
41
1
10
11.7883217497886
20
7.79443451110018
30
0
41
1
10
11.8149243019491
20
7.84774574119157
30
0
41
1
10
11.8602649095123
20
7.95765674837182
30
0
41
1
10
11.8788955182341
20
8.01445251062179
30
0
41
1
10
11.8943375672976
20
8.07187632569941
30
0
0
SPLINE
5
DC
100
AcDbEntity
8
1
62
256
6
ByLayer
370
18
48
1
60
0
100
AcDbSpline
70
2053
71
3
72
116
73
112
40
0
40
0
40
0
40
0
40
0.0312499999999995
40
0.0312499999999995
40
0.0624999999999991
40
0.0624999999999991
40
0.0781249999999988
40
0.0781249999999988
40
0.0937499999999986
40
0.0937499999999986
40
0.124999999999999
40
0.124999999999999
40
0.140624999999999
40
0.140624999999999
40
0.156249999999999
40
0.156249999999999
40
0.187499999999999
40
0.187499999999999
40
0.203124999999999
40
0.203124999999999
40
0.218749999999999
40
0.218749999999999
40
0.234374999999999
40
0.234374999999999
40
0.249999999999999
40
0.249999999999999
40
0.265624999999999
40
0.265624999999999
40
0.273437499999999
40
0.273437499999999
40
0.281249999999999
40
0.281249999999999
40
0.312499999999999
40
0.312499999999999
40
0.328125
40
0.328125
40
0.34375
40
0.34375
40
0.359375
40
0.359375
40
0.3671875
40
0.3671875
40
0.375
40
0.375
40
0.40625
40
0.40625
40
0.421875
40
0.421875
40
0.4375
40
0.4375
40
0.46875
40
0.46875
40
0.484375000000001
40
0.484375000000001
40
0.500000000000001
40
0.500000000000001
40
0.531250000000002
40
0.531250000000002
40
0.546875000000002
40
0.546875000000002
40
0.554687500000003
40
0.554687500000003
40
0.562500000000003
40
0.562500000000003
40
0.593750000000004
40
0.593750000000004
40
0.609375000000004
40
0.609375000000004
40
0.625000000000005
40
0.625000000000005
40
0.656250000000005
40
0.656250000000005
40
0.671875000000006
40
0.671875000000006
40
0.687500000000006
40
0.687500000000006
40
0.718750000000007
40
0.718750000000007
40
0.726562500000007
40
0.726562500000007
40
0.734375000000007
40
0.734375000000007
40
0.750000000000007
40
0.750000000000007
40
0.765625000000007
40
0.765625000000007
40
0.773437500000007
40
0.773437500000007
40
0.781250000000006
40
0.781250000000006
40
0.812500000000005
40
0.812500000000005
40
0.828125000000005
40
0.828125000000005
40
0.843750000000004
40
0.843750000000004
40
0.859375000000004
40
0.859375000000004
40
0.875000000000003
40
0.875000000000003
40
0.906250000000002
40
0.906250000000002
40
0.921875000000002
40
0.921875000000002
40
0.937500000000001
40
0.937500000000001
40
0.953125000000001
40
0.953125000000001
40
0.968750000000001
40
0.968750000000001
40
1
40
1
40
1
40
1
41
1
10
19.75
20
-22.1867099859353
30
0
41
1
10
19.75
20
-22.0156288021391
30
0
41
1
10
19.7808095708711
20
-21.8401772078924
30
0
41
1
10
19.8971564772342
20
-21.4812367029953
30
0
41
1
10
19.9827367523917
20
-21.2977432028814
30
0
41
1
10
20.151802635004
20
-21.0172925902529
30
0
41
1
10
20.2151541431406
20
-20.9227174000375
30
0
41
1
10
20.3553001017695
20
-20.7330165784175
30
0
41
1
10
20.4314328804166
20
-20.6387437828423
30
0
41
1
10
20.6777349860516
20
-20.3581052453711
30
0
41
1
10
20.8656004728446
20
-20.1738460748836
30
0
41
1
10
21.1853171986916
20
-19.9045838612136
30
0
41
1
10
21.2982570231868
20
-19.8160333779876
30
0
41
1
10
21.5380091552485
20
-19.642092459236
30
0
41
1
10
21.6636627571679
20
-19.5575782216634
30
0
41
1
10
22.0562752550319
20
-19.3142398189146
30
0
41
1
10
22.3395822139423
20
-19.164697120249
30
0
41
1
10
22.8034692384241
20
-18.967002865491
30
0
41
1
10
22.96507295119
20
-18.905557028953
30
0
41
1
10
23.2945923473436
20
-18.7962296070828
30
0
41
1
10
23.4634053541187
20
-18.7479215693392
30
0
41
1
10
23.80973708146
20
-18.6654222050452
30
0
41
1
10
23.987252407713
20
-18.6312256889359
30
0
41
1
10
24.351932541174
20
-18.5788399198575
30
0
41
1
10
24.5348989897005
20
-18.5612853201846
30
0
41
1
10
24.9011279032629
20
-18.5435079571788
30
0
41
1
10
25.0845468681646
20
-18.5432630034395
30
0
41
1
10
25.3601365310369
20
-18.555989268415
30
0
41
1
10
25.4520767375858
20
-18.5624155526332
30
0
41
1
10
25.6361133304021
20
-18.5796822519893
30
0
41
1
10
25.7282185236505
20
-18.5905471377738
30
0
41
1
10
26.1817685276525
20
-18.654788380186
30
0
41
1
10
26.5285400527362
20
-18.738119509132
30
0
41
1
10
27.0275840220832
20
-18.9028467358495
30
0
41
1
10
27.1878617086695
20
-18.963610033068
30
0
41
1
10
27.4958001352808
20
-19.0942582810596
30
0
41
1
10
27.6437999120319
20
-19.1642636243726
30
0
41
1
10
27.928911087997
20
-19.3122818626262
30
0
41
1
10
28.0660186939315
20
-19.3902985935159
30
0
41
1
10
28.2639564715137
20
-19.5125970518714
30
0
41
1
10
28.3287590578881
20
-19.5543270287011
30
0
41
1
10
28.4546649639159
20
-19.6386542378127
30
0
41
1
10
28.515899693073
20
-19.6813264625204
30
0
41
1
10
28.8138969156733
20
-19.8969407435512
30
0
41
1
10
29.0264269858413
20
-20.0765162673923
30
0
41
1
10
29.3103440634319
20
-20.3527157468487
30
0
41
1
10
29.3991119566744
20
-20.4459464721958
30
0
41
1
10
29.5649395705953
20
-20.634343989917
30
0
41
1
10
29.6418545456211
20
-20.7294258552677
30
0
41
1
10
29.8514093042196
20
-21.0123126882991
30
0
41
1
10
29.9645029506638
20
-21.1993260307747
30
0
41
1
10
30.0942841546202
20
-21.4762224771511
30
0
41
1
10
30.1308546366179
20
-21.5679240196978
30
0
41
1
10
30.1900433665145
20
-21.7499905397871
30
0
41
1
10
30.2126045261768
20
-21.8404695817803
30
0
41
1
10
30.2574511110861
20
-22.1046796522858
30
0
41
1
10
30.2577655589371
20
-22.2729196057248
30
0
41
1
10
30.2118834728625
20
-22.5136541251744
30
0
41
1
10
30.1888185488289
20
-22.5919598347673
30
0
41
1
10
30.1418520307938
20
-22.7065246177233
30
0
41
1
10
30.1241314469655
20
-22.7442304946833
30
0
41
1
10
30.084392871205
20
-22.818678910734
30
0
41
1
10
30.0623406736141
20
-22.855446085225
30
0
41
1
10
29.9424403240177
20
-23.0347236128112
30
0
41
1
10
29.8150582951038
20
-23.165411905295
30
0
41
1
10
29.5753430503987
20
-23.3445579662143
30
0
41
1
10
29.4872843106597
20
-23.4014488711747
30
0
41
1
10
29.2939696815566
20
-23.5098392745337
30
0
41
1
10
29.1879624003046
20
-23.5616157234472
30
0
41
1
10
28.8501772662472
20
-23.7059050717928
30
0
41
1
10
28.5980206759301
20
-23.7883156328792
30
0
41
1
10
28.1788124568985
20
-23.8948333745742
30
0
41
1
10
28.0321748397225
20
-23.9274725792584
30
0
41
1
10
27.7245400501163
20
-23.9873201006159
30
0
41
1
10
27.5664775864173
20
-24.0139631846783
30
0
41
1
10
27.0799533789317
20
-24.0852088375273
30
0
41
1
10
26.7392925543026
20
-24.1212556760402
30
0
41
1
10
26.2923532263084
20
-24.1537487490079
30
0
41
1
10
26.2018405706104
20
-24.1596066555795
30
0
41
1
10
26.0209377416114
20
-24.1699341696117
30
0
41
1
10
25.9302677978867
20
-24.1744258678115
30
0
41
1
10
25.6576135656526
20
-24.1859646125767
30
0
41
1
10
25.4749867140649
20
-24.191084952229
30
0
41
1
10
25.1080320572256
20
-24.1963635174211
30
0
41
1
10
24.9237043566265
20
-24.1965220516578
30
0
41
1
10
24.6459022029919
20
-24.1929393960427
30
0
41
1
10
24.552808020777
20
-24.1910965541981
30
0
41
1
10
24.3681410309561
20
-24.1861449773951
30
0
41
1
10
24.2764493447947
20
-24.183038875574
30
0
41
1
10
23.821137087158
20
-24.164365379637
30
0
41
1
10
23.4668481623543
20
-24.1395565627349
30
0
41
1
10
22.9504771246711
20
-24.0854378335723
30
0
41
1
10
22.7806057663502
20
-24.0644555404639
30
0
41
1
10
22.4541127999344
20
-24.0172706373623
30
0
41
1
10
22.2964286540249
20
-23.990974093899
30
0
41
1
10
21.9919487283849
20
-23.9325321057478
30
0
41
1
10
21.8451536673537
20
-23.9003873352778
30
0
41
1
10
21.5625588891698
20
-23.8295744730094
30
0
41
1
10
21.4262606399802
20
-23.7906954236138
30
0
41
1
10
21.0428713888093
20
-23.6658752907407
30
0
41
1
10
20.8181975571937
20
-23.5712587052592
30
0
41
1
10
20.5255447341471
20
-23.4093027860553
30
0
41
1
10
20.4350370574117
20
-23.3516218463084
30
0
41
1
10
20.2719554340095
20
-23.2310623996026
30
0
41
1
10
20.1991324998269
20
-23.168140803036
30
0
41
1
10
20.0700274989413
20
-23.0367983242505
30
0
41
1
10
20.0137481431248
20
-22.9683775782218
30
0
41
1
10
19.9172908979002
20
-22.8257637879808
30
0
41
1
10
19.8770302591321
20
-22.7513587831986
30
0
41
1
10
19.780912210757
20
-22.5204359727075
30
0
41
1
10
19.7500000000001
20
-22.3577911697315
30
0
41
1
10
19.75
20
-22.1867099859353
30
0
0
SPLINE
5
DD
100
AcDbEntity
8
1
62
256
6
ByLayer
370
18
48
1
60
0
100
AcDbSpline
70
4
71
3
72
16
73
12
40
0
40
0
40
0
40
0
40
0.250000000000001
40
0.250000000000001
40
0.500000000000001
40
0.500000000000001
40
0.750000000000002
40
0.750000000000002
40
0.875000000000001
40
0.875000000000001
40
1
40
1
40
1
40
1
41
1
10
11.8943375672974
20
-8.07187632569946
30
0
41
1
10
11.8789015781783
20
-8.014475045528
30
0
41
1
10
11.8604245684597
20
-7.95811757710425
30
0
41
1
10
11.8151895578784
20
-7.84831564619529
30
0
41
1
10
11.7883503818018
20
-7.79447411502719
30
0
41
1
10
11.7219675118995
20
-7.69331839273841
30
0
41
1
10
11.6823336706851
20
-7.6457338904643
30
0
41
1
10
11.609514660396
20
-7.59011089834678
30
0
41
1
10
11.5823937548801
20
-7.57397216507479
30
0
41
1
10
11.5244205604739
20
-7.55146346886221
30
0
41
1
10
11.4930568022149
20
-7.54500668064483
30
0
41
1
10
11.4613248654053
20
-7.5450066806448
30
0
0
SPLINE
5
DE
100
AcDbEntity
8
1
62
256
6
ByLayer
370
18
48
1
60
0
100
AcDbSpline
70
4
71
3
72
16
73
12
40
0
40
0
40
0
40
0
40
0.249999999999999
40
0.249999999999999
40
0.499999999999997
40
0.499999999999997
40
0.749999999999996
40
0.749999999999996
40
0.874999999999998
40
0.874999999999998
40
1
40
1
40
1
40
1
41
1
10
8.10566243270262
20
-23.6504738342092
30
0
41
1
10
8.12109842182173
20
-23.6700648173636
30
0
41
1
10
8.13957543154032
20
-23.6890652772806
30
0
41
1
10
8.18481044212157
20
-23.7256694447167
30
0
41
1
10
8.21164961819827
20
-23.743401254428
30
0
41
1
10
8.27803248810048
20
-23.7763702437221
30
0
41
1
10
8.31766632931493
20
-23.791686969292
30
0
41
1
10
8.39048533960403
20
-23.8094665089947
30
0
41
1
10
8.41760624511988
20
-23.8146002501132
30
0
41
1
10
8.47557943952614
20
-23.8217471842109
30
0
41
1
10
8.50694319778512
20
-23.8237900886704
30
0
41
1
10
8.53867513459474
20
-23.8237900886704
30
0
0
SPLINE
5
DF
100
AcDbEntity
8
1
62
256
6
ByLayer
370
18
48
1
60
0
100
AcDbSpline
70
2053
71
3
72
107
73
103
40
0
40
0
40
0
40
0
40
0.0312499999999997
40
0.0312499999999997
40
0.0468749999999996
40
0.0468749999999996
40
0.0624999999999994
40
0.0624999999999994
40
0.0937499999999992
40
0.0937499999999992
40
0.109374999999999
40
0.109374999999999
40
0.124999999999999
40
0.140624999999999
40
0.140624999999999
40
0.156249999999999
40
0.156249999999999
40
0.187499999999999
40
0.187499999999999
40
0.203124999999998
40
0.203124999999998
40
0.218749999999998
40
0.218749999999998
40
0.234374999999998
40
0.234374999999998
40
0.249999999999998
40
0.249999999999998
40
0.281249999999998
40
0.281249999999998
40
0.296874999999998
40
0.296874999999998
40
0.312499999999998
40
0.312499999999998
40
0.343749999999998
40
0.343749999999998
40
0.359374999999998
40
0.359374999999998
40
0.374999999999998
40
0.374999999999998
40
0.406249999999998
40
0.406249999999998
40
0.421874999999998
40
0.421874999999998
40
0.437499999999998
40
0.437499999999998
40
0.468749999999998
40
0.468749999999998
40
0.484374999999998
40
0.484374999999998
40
0.499999999999998
40
0.499999999999998
40
0.515624999999998
40
0.515624999999998
40
0.531249999999997
40
0.531249999999997
40
0.562499999999998
40
0.562499999999998
40
0.578124999999998
40
0.578124999999998
40
0.585937499999998
40
0.585937499999998
40
0.593749999999998
40
0.593749999999998
40
0.624999999999998
40
0.624999999999998
40
0.640624999999998
40
0.640624999999998
40
0.656249999999997
40
0.656249999999997
40
0.671874999999997
40
0.671874999999997
40
0.687499999999997
40
0.687499999999997
40
0.718749999999997
40
0.718749999999997
40
0.734374999999997
40
0.734374999999997
40
0.749999999999997
40
0.749999999999997
40
0.765624999999997
40
0.765624999999997
40
0.781249999999997
40
0.781249999999997
40
0.812499999999997
40
0.812499999999997
40
0.828124999999997
40
0.828124999999997
40
0.843749999999997
40
0.843749999999997
40
0.874999999999998
40
0.874999999999998
40
0.890624999999998
40
0.890624999999998
40
0.906249999999998
40
0.906249999999998
40
0.937499999999999
40
0.937499999999999
40
0.953124999999999
40
0.953124999999999
40
0.968749999999999
40
0.968749999999999
40
1
40
1
40
1
40
1
41
1
10
6.58021738994578
20
-2.29639598083203
30
0
41
1
10
6.41467917850076
20
-2.08488937613578
30
0
41
1
10
6.2730804648437
20
-1.86002340733847
30
0
41
1
10
6.09697259109694
20
-1.50236151033087
30
0
41
1
10
6.04436247606762
20
-1.37972262210411
30
0
41
1
10
5.95198495507154
20
-1.12722398989772
30
0
41
1
10
5.91290651225873
20
-0.999147253391811
30
0
41
1
10
5.81734937889331
20
-0.612049768231344
30
0
41
1
10
5.78192692211826
20
-0.349116868168409
30
0
41
1
10
5.77290214704459
20
0.0528854332733601
30
0
41
1
10
5.77743065977336
20
0.187971441419336
30
0
41
1
10
5.80109865448853
20
0.453691107038765
30
0
41
1
10
5.83928831749463
20
0.716732996174244
30
0
41
1
10
5.90594519912219
20
0.974529647234164
30
0
41
1
10
5.98698946703755
20
1.22967894725292
30
0
41
1
10
6.03483320295464
20
1.35594678302647
30
0
41
1
10
6.19630491853621
20
1.72193466137668
30
0
41
1
10
6.32856472376824
20
1.95209773085244
30
0
41
1
10
6.56259125588016
20
2.27742276497787
30
0
41
1
10
6.64679148598228
20
2.38262761483062
30
0
41
1
10
6.82345932248086
20
2.58208814357136
30
0
41
1
10
6.91631834373717
20
2.67693957010886
30
0
41
1
10
7.11077417275277
20
2.85725255698594
30
0
41
1
10
7.21237191279778
20
2.9427130608853
30
0
41
1
10
7.42426351790689
20
3.10431982604143
30
0
41
1
10
7.53512163692366
20
3.18078223186177
30
0
41
1
10
7.87523335623894
20
3.3924814214036
30
0
41
1
10
8.11257590434076
20
3.51100960997098
30
0
41
1
10
8.48384944053481
20
3.65645219637071
30
0
41
1
10
8.61016896116382
20
3.69950165783848
30
0
41
1
10
8.86803977191138
20
3.7745327498991
30
0
41
1
10
8.99817228432178
20
3.80607934567505
30
0
41
1
10
9.3899484523015
20
3.88293087235635
30
0
41
1
10
9.65386629952161
20
3.91086451411485
30
0
41
1
10
10.0538433462958
20
3.91787184074215
30
0
41
1
10
10.1885006517292
20
3.91429673174045
30
0
41
1
10
10.45584631324
20
3.89526042710182
30
0
41
1
10
10.5882101568311
20
3.87989124748975
30
0
41
1
10
10.9814699509187
20
3.81664157227303
30
0
41
1
10
11.2385680630349
20
3.75177444342756
30
0
41
1
10
11.6163723276466
20
3.61926808008766
30
0
41
1
10
11.7414882729699
20
3.56891582939821
30
0
41
1
10
11.9841588782142
20
3.45807031253293
30
0
41
1
10
12.1022125401925
20
3.39745513515803
30
0
41
1
10
12.4466304631775
20
3.20014895496277
30
0
41
1
10
12.6633537663087
20
3.04816199417297
30
0
41
1
10
12.9677992045749
20
2.78721993666466
30
0
41
1
10
13.0655278322663
20
2.69482880452696
30
0
41
1
10
13.249404776953
20
2.50299688399181
30
0
41
1
10
13.3361425290578
20
2.40307280435144
30
0
41
1
10
13.4991703531104
20
2.19514745216654
30
0
41
1
10
13.5754614561791
20
2.08714701768645
30
0
41
1
10
13.7172264438241
20
1.86275892372561
30
0
41
1
10
13.7829054966321
20
1.74595745432492
30
0
41
1
10
13.9612668971156
20
1.38478908035159
30
0
41
1
10
14.0527384737531
20
1.13571392221823
30
0
41
1
10
14.1489846832138
20
0.749669356795039
30
0
41
1
10
14.1741892363364
20
0.618900779842193
30
0
41
1
10
14.2012112121171
20
0.419471759267253
30
0
41
1
10
14.2084217163825
20
0.352273581195078
30
0
41
1
10
14.2190157073908
20
0.218459191060077
30
0
41
1
10
14.2224314474856
20
0.151676192357286
30
0
41
1
10
14.2302739083114
20
-0.181628959067979
30
0
41
1
10
14.2072738060155
20
-0.446339832009983
30
0
41
1
10
14.1286525506413
20
-0.840495172623093
30
0
41
1
10
14.0948998936473
20
-0.971435256957989
30
0
41
1
10
14.0143333723789
20
-1.22593659940759
30
0
41
1
10
13.9673834564615
20
-1.35033782743184
30
0
41
1
10
13.8605509866834
20
-1.59362318963318
30
0
41
1
10
13.8006675347151
20
-1.71250692225408
30
0
41
1
10
13.667958864716
20
-1.94476644292615
30
0
41
1
10
13.5949740583251
20
-2.05820704567583
30
0
41
1
10
13.3616812903595
20
-2.38304880788712
30
0
41
1
10
13.1857990973558
20
-2.58177084469577
30
0
41
1
10
12.8926469057033
20
-2.85431235344228
30
0
41
1
10
12.7895552215444
20
-2.94115102402154
30
0
41
1
10
12.5774397097425
20
-3.10311147164859
30
0
41
1
10
12.4680756789228
20
-3.17861621852421
30
0
41
1
10
12.2429604620601
20
-3.31908256477476
30
0
41
1
10
12.1272085652184
20
-3.38404292929374
30
0
41
1
10
11.8893525421996
20
-3.50350983489767
30
0
41
1
10
11.7668940275425
20
-3.55815307810272
30
0
41
1
10
11.3921234594294
20
-3.70518263601133
30
0
41
1
10
11.1367681340105
20
-3.77930462672231
30
0
41
1
10
10.745855706038
20
-3.85643928658274
30
0
41
1
10
10.6142290838045
20
-3.87643516800546
30
0
41
1
10
10.3482879449497
20
-3.90482296638152
30
0
41
1
10
10.2134715030278
20
-3.91317958860148
30
0
41
1
10
9.81242679760533
20
-3.9202328203462
30
0
41
1
10
9.54755836501826
20
-3.90145679688237
30
0
41
1
10
9.15394317466507
20
-3.83855258602404
30
0
41
1
10
9.02335657578072
20
-3.81175696722431
30
0
41
1
10
8.76346044027812
20
-3.7461146476775
30
0
41
1
10
8.63456247706836
20
-3.70729991539912
30
0
41
1
10
8.25759245521263
20
-3.57501971074572
30
0
41
1
10
8.01662967816401
20
-3.46527267390871
30
0
41
1
10
7.67094967721368
20
-3.26763590573768
30
0
41
1
10
7.55836746901628
20
-3.19621803484171
30
0
41
1
10
7.33876749538956
20
-3.04169001795336
30
0
41
1
10
7.23328466255725
20
-2.95964720541241
30
0
41
1
10
6.93030722309538
20
-2.699730628201
30
0
41
1
10
6.74575560139081
20
-2.50790258552829
30
0
41
1
10
6.58021738994578
20
-2.29639598083203
30
0
0
SPLINE
5
E0
100
AcDbEntity
8
1
62
256
6
ByLayer
370
18
48
1
60
0
100
AcDbSpline
70
4
71
3
72
16
73
12
40
0
40
0
40
0
40
0
40
0.249999999999998
40
0.249999999999998
40
0.499999999999996
40
0.499999999999996
40
0.749999999999994
40
0.749999999999994
40
0.874999999999997
40
0.874999999999997
40
1
40
1
40
1
40
1
41
1
10
11.8943375672974
20
23.6504738342092
30
0
41
1
10
11.8789015781783
20
23.6700648173636
30
0
41
1
10
11.8604245684597
20
23.6890652772806
30
0
41
1
10
11.8151895578784
20
23.7256694447167
30
0
41
1
10
11.7883503818018
20
23.743401254428
30
0
41
1
10
11.7219675118995
20
23.7763702437222
30
0
41
1
10
11.6823336706851
20
23.791686969292
30
0
41
1
10
11.609514660396
20
23.8094665089947
30
0
41
1
10
11.5823937548801
20
23.8146002501132
30
0
41
1
10
11.5244205604739
20
23.8217471842109
30
0
41
1
10
11.4930568022149
20
23.8237900886704
30
0
41
1
10
11.4613248654053
20
23.8237900886704
30
0
0
SPLINE
5
E1
100
AcDbEntity
8
SK1
62
256
6
ByLayer
370
13
48
1
60
0
100
AcDbSpline
70
4
71
3
72
107
73
103
40
0
40
0
40
0
40
0
40
0.0083898480079141
40
0.0169148790482325
40
0.0254399100885509
40
0.0339649411288693
40
0.0424899721691877
40
0.0510150032095062
40
0.0595400342498246
40
0.068065065290143
40
0.0765900963304614
40
0.0851151273707798
40
0.0936401584110982
40
0.102165189451417
40
0.110690220491735
40
0.119215251532054
40
0.13626531361269
40
0.144790344653009
40
0.153315375693327
40
0.161840406733646
40
0.170365437773964
40
0.187415499854601
40
0.195940530894919
40
0.204465561935238
40
0.221515624015874
40
0.230040655056193
40
0.238565686096511
40
0.255615748177148
40
0.264140779217466
40
0.272665810257785
40
0.281190841298103
40
0.289715872338422
40
0.29824090337874
40
0.306765934419059
40
0.315290965459377
40
0.323815996499695
40
0.340866058580332
40
0.349391089620651
40
0.357916120660969
40
0.366441151701287
40
0.374966182741606
40
0.392016244822243
40
0.400541275862561
40
0.40480379138272
40
0.409066306902879
40
0.417591337943198
40
0.426116368983516
40
0.443166431064153
40
0.451691462104472
40
0.46021649314479
40
0.468741524185109
40
0.477266555225427
40
0.494316617306064
40
0.502841648346382
40
0.511366679386701
40
0.519891710427019
40
0.528416741467337
40
0.545466803547974
40
0.553991834588293
40
0.562516865628611
40
0.571041896668929
40
0.579566927709248
40
0.596616989789885
40
0.605142020830203
40
0.613667051870522
40
0.62219208291084
40
0.630717113951158
40
0.647767176031795
40
0.656292207072114
40
0.664817238112432
40
0.681867300193069
40
0.698917362273706
40
0.707442393314024
40
0.715967424354342
40
0.733017486434979
40
0.741542517475298
40
0.750067548515616
40
0.758592579555935
40
0.767117610596253
40
0.775642641636571
40
0.78416767267689
40
0.801217734757527
40
0.818267796838163
40
0.826792827878482
40
0.8353178589188
40
0.843842889959119
40
0.852367920999437
40
0.860892952039755
40
0.869417983080074
40
0.886468045160711
40
0.903518107241348
40
0.920568169321984
40
0.929093200362303
40
0.937618231402621
40
0.94614326244294
40
0.954668293483258
40
0.963193324523576
40
0.971718355563895
40
0.980243386604213
40
0.988768417644532
40
0.99729344868485
40
1
40
1
40
1
40
1
41
1
10
-0.394976888875277
20
-17.3596702866859
30
0
41
1
10
-0.394976888875277
20
-17.3614875876831
30
0
41
1
10
-0.394976888875277
20
-17.3642659317471
30
0
41
1
10
-0.394976888875277
20
-17.3658102005923
30
0
41
1
10
-0.394976888875277
20
-17.3647432146661
30
0
41
1
10
-0.394976888875277
20
-17.3611046305144
30
0
41
1
10
-0.394976888875277
20
-17.3549392880652
30
0
41
1
10
-0.394976888875277
20
-17.3462909802274
30
0
41
1
10
-0.394976888875277
20
-17.3352007360526
30
0
41
1
10
-0.394976888875277
20
-17.3217086355548
30
0
41
1
10
-0.394976888875277
20
-17.3058521626298
30
0
41
1
10
-0.394976888875277
20
-17.2876678382251
30
0
41
1
10
-0.394976888875277
20
-17.2671905287463
30
0
41
1
10
-0.394976888875277
20
-17.2444531170066
30
0
41
1
10
-0.394976888875277
20
-17.2194882612007
30
0
41
1
10
-0.394976888875277
20
-17.1832568369982
30
0
41
1
10
-0.394976888875277
20
-17.1427382787905
30
0
41
1
10
-0.394976888875277
20
-17.0979462837243
30
0
41
1
10
-0.394976888875277
20
-17.0622798511847
30
0
41
1
10
-0.394976888875277
20
-17.024552403858
30
0
41
1
10
-0.394976888875277
20
-16.9715145305624
30
0
41
1
10
-0.394976888875277
20
-16.9145141001581
30
0
41
1
10
-0.394976888875277
20
-16.8535135500207
30
0
41
1
10
-0.394976888875277
20
-16.7899145981056
30
0
41
1
10
-0.394976888875277
20
-16.7225357579898
30
0
41
1
10
-0.394976888875277
20
-16.6513062771915
30
0
41
1
10
-0.394976888875277
20
-16.5775834628441
30
0
41
1
10
-0.394976888875277
20
-16.5002370830775
30
0
41
1
10
-0.394976888875277
20
-16.4191737297992
30
0
41
1
10
-0.394976888875277
20
-16.3565947902754
30
0
41
1
10
-0.394976888875277
20
-16.2922298358683
30
0
41
1
10
-0.394976888875277
20
-16.2260943811825
30
0
41
1
10
-0.394976888875277
20
-16.1582019472912
30
0
41
1
10
-0.394976888875277
20
-16.0885678110446
30
0
41
1
10
-0.394976888875277
20
-16.0172057969154
30
0
41
1
10
-0.394976888875277
20
-15.9197362187748
30
0
41
1
10
-0.394976888875277
20
-15.8189643831875
30
0
41
1
10
-0.394976888875277
20
-15.7147364921469
30
0
41
1
10
-0.394976888875277
20
-15.6349267624759
30
0
41
1
10
-0.394976888875277
20
-15.5534637367265
30
0
41
1
10
-0.394976888875277
20
-15.4426196109061
30
0
41
1
10
-0.394976888875277
20
-15.3286250474485
30
0
41
1
10
-0.394976888875277
20
-15.2259771214207
30
0
41
1
10
-0.394976888875277
20
-15.1665127141503
30
0
41
1
10
-0.394976888875277
20
-15.1065165223896
30
0
41
1
10
-0.394976888875277
20
-15.0305708978545
30
0
41
1
10
-0.394976888875277
20
-14.9068780878822
30
0
41
1
10
-0.394976888875277
20
-14.780164253239
30
0
41
1
10
-0.394976888875277
20
-14.6502180419884
30
0
41
1
10
-0.394976888875277
20
-14.5512443837087
30
0
41
1
10
-0.394976888875277
20
-14.4507333681675
30
0
41
1
10
-0.394976888875277
20
-14.3146351237356
30
0
41
1
10
-0.394976888875277
20
-14.1756274475866
30
0
41
1
10
-0.394976888875277
20
-14.0334711580348
30
0
41
1
10
-0.394976888875277
20
-13.9253889718329
30
0
41
1
10
-0.394976888875277
20
-13.8158144768541
30
0
41
1
10
-0.394976888875277
20
-13.6676860552913
30
0
41
1
10
-0.394976888875277
20
-13.5167448476072
30
0
41
1
10
-0.394976888875277
20
-13.3627236547323
30
0
41
1
10
-0.394976888875277
20
-13.2457849051211
30
0
41
1
10
-0.394976888875277
20
-13.1273919665529
30
0
41
1
10
-0.394976888875277
20
-12.9675509360494
30
0
41
1
10
-0.394976888875277
20
-12.8049814458532
30
0
41
1
10
-0.394976888875277
20
-12.6393872302303
30
0
41
1
10
-0.394976888875277
20
-12.5138050519686
30
0
41
1
10
-0.394976888875277
20
-12.3868007979199
30
0
41
1
10
-0.394976888875277
20
-12.2155153161813
30
0
41
1
10
-0.394976888875277
20
-12.0415756040849
30
0
41
1
10
-0.394976888875277
20
-11.864654349678
30
0
41
1
10
-0.394976888875277
20
-11.685867652055
30
0
41
1
10
-0.394976888875277
20
-11.4590305143918
30
0
41
1
10
-0.394976888875277
20
-11.2275701299333
30
0
41
1
10
-0.394976888875277
20
-11.0395280782787
30
0
41
1
10
-0.394976888875277
20
-10.8496518506122
30
0
41
1
10
-0.394976888875277
20
-10.6572263081632
30
0
41
1
10
-0.394976888875277
20
-10.4618684189216
30
0
41
1
10
-0.394976888875277
20
-10.3140380843155
30
0
41
1
10
-0.394976888875277
20
-10.1648480067744
30
0
41
1
10
-0.394976888875277
20
-10.0143015815252
30
0
41
1
10
-0.394976888875277
20
-9.86240080704218
30
0
41
1
10
-0.394976888875277
20
-9.65799296546987
30
0
41
1
10
-0.394976888875277
20
-9.39928045092248
30
0
41
1
10
-0.394976888875277
20
-9.1360908691222
30
0
41
1
10
-0.394976888875277
20
-8.922721214403
30
0
41
1
10
-0.394976888875277
20
-8.76141979186249
30
0
41
1
10
-0.394976888875277
20
-8.59878513137221
30
0
41
1
10
-0.394976888875277
20
-8.434820354761
30
0
41
1
10
-0.394976888875277
20
-8.26952736598562
30
0
41
1
10
-0.394976888875277
20
-8.04728288344245
30
0
41
1
10
-0.394976888875277
20
-7.76637138106329
30
0
41
1
10
-0.394976888875277
20
-7.42389186204957
30
0
41
1
10
-0.394976888875277
20
-7.13420903787926
30
0
41
1
10
-0.394976888875277
20
-6.89966740060396
30
0
41
1
10
-0.394976888875277
20
-6.72253430941348
30
0
41
1
10
-0.394976888875277
20
-6.54409937286439
30
0
41
1
10
-0.394976888875277
20
-6.3643662218949
30
0
41
1
10
-0.394976888875277
20
-6.18333830919048
30
0
41
1
10
-0.394976888875277
20
-6.00101977124669
30
0
41
1
10
-0.394976888875277
20
-5.8174145162354
30
0
41
1
10
-0.394976888875277
20
-5.63252719489225
30
0
41
1
10
-0.394976888875277
20
-5.48871660168982
30
0
41
1
10
-0.394976888875277
20
-5.4065930765673
30
0
41
1
10
-0.394976888875277
20
-5.38678189578286
30
0
0
SPLINE
5
E2
100
AcDbEntity
8
SK1
62
256
6
ByLayer
370
18
48
1
60
0
100
AcDbSpline
70
4
71
3
72
30
73
26
40
0
40
0
40
0
40
0
40
0.0312499999999997
40
0.0312499999999997
40
0.0624999999999994
40
0.0624999999999994
40
0.0937499999999991
40
0.0937499999999991
40
0.124999999999999
40
0.124999999999999
40
0.156249999999999
40
0.156249999999999
40
0.187499999999998
40
0.187499999999998
40
0.249999999999998
40
0.249999999999998
40
0.312499999999998
40
0.312499999999998
40
0.374999999999999
40
0.374999999999999
40
0.499999999999999
40
0.499999999999999
40
0.749999999999999
40
0.749999999999999
40
1
40
1
40
1
40
1
41
1
10
-0.394976888875277
20
-5.38678189578289
30
0
41
1
10
-0.411121004362627
20
-5.4004965589908
30
0
41
1
10
-0.428233279222695
20
-5.41311535582491
30
0
41
1
10
-0.46530961218582
20
-5.4351486545529
30
0
41
1
10
-0.485247093192072
20
-5.44447298609396
30
0
41
1
10
-0.52714385280396
20
-5.45749158572377
30
0
41
1
10
-0.549766809572589
20
-5.46123817959725
30
0
41
1
10
-0.594625996823396
20
-5.46134910310997
30
0
41
1
10
-0.617367334499022
20
-5.45772890381818
30
0
41
1
10
-0.660019264070201
20
-5.44466656582571
30
0
41
1
10
-0.680396026591666
20
-5.43519415358128
30
0
41
1
10
-0.717834279017893
20
-5.41311904009154
30
0
41
1
10
-0.735191453829174
20
-5.40043958603155
30
0
41
1
10
-0.784451320222075
20
-5.35899057781572
30
0
41
1
10
-0.812480141629806
20
-5.32795417138183
30
0
41
1
10
-0.863579984272093
20
-5.26275715404722
30
0
41
1
10
-0.886669998197931
20
-5.22827369564413
30
0
41
1
10
-0.929038370947637
20
-5.15814871783957
30
0
41
1
10
-0.948360494973514
20
-5.12242801873623
30
0
41
1
10
-1.00258384146315
20
-5.01386242026874
30
0
41
1
10
-1.03381196991217
20
-4.93963585912675
30
0
41
1
10
-1.11904493500305
20
-4.71333034940329
30
0
41
1
10
-1.16474908109112
20
-4.55729858564038
30
0
41
1
10
-1.24418351237225
20
-4.24105736808266
30
0
41
1
10
-1.27767890904266
20
-4.08059985762037
30
0
41
1
10
-1.30710678118655
20
-3.91806548057693
30
0
0
SPLINE
5
E3
100
AcDbEntity
8
SK1
62
256
6
ByLayer
370
18
48
1
60
0
100
AcDbSpline
70
4
71
3
72
24
73
20
40
0
40
0
40
0
40
0
40
0.03125
40
0.03125
40
0.0625
40
0.0625
40
0.09375
40
0.09375
40
0.125
40
0.125
40
0.187499999999998
40
0.187499999999998
40
0.249999999999995
40
0.249999999999995
40
0.499999999999997
40
0.499999999999997
40
0.749999999999998
40
0.749999999999998
40
1
40
1
40
1
40
1
41
1
10
-0.39497688887289
20
5.38678223323922
30
0
41
1
10
-0.388503745328848
20
5.38128319480677
30
0
41
1
10
-0.381388986846105
20
5.37647349151271
30
0
41
1
10
-0.365645130727444
20
5.37003095057815
30
0
41
1
10
-0.356875018487187
20
5.36852559182816
30
0
41
1
10
-0.339464630964784
20
5.37101783691509
30
0
41
1
10
-0.330985242947861
20
5.37503833637339
30
0
41
1
10
-0.316510652819517
20
5.38583151921432
30
0
41
1
10
-0.310292654928759
20
5.39251318392442
30
0
41
1
10
-0.29380361220376
20
5.41390802600688
30
0
41
1
10
-0.285544077572951
20
5.42989034626359
30
0
41
1
10
-0.271326596659293
20
5.46242047093779
30
0
41
1
10
-0.265514310429325
20
5.4789572978342
30
0
41
1
10
-0.239827472074012
20
5.5623182389248
30
0
41
1
10
-0.22902155477675
20
5.63115874840395
30
0
41
1
10
-0.212565919448821
20
5.76699630063621
30
0
41
1
10
-0.207636724465971
20
5.83462416858026
30
0
41
1
10
-0.20131057749208
20
5.96939105744789
30
0
41
1
10
-0.20000000000033
20
6.03652860978283
30
0
41
1
10
-0.20000000000033
20
6.10344667966024
30
0
0
SPLINE
5
E4
100
AcDbEntity
8
SK1
62
256
6
ByLayer
370
18
48
1
60
0
100
AcDbSpline
70
4
71
3
72
12
73
8
40
0
40
0
40
0
40
0
40
0.13008228946268
40
0.13008228946268
40
0.652840181895159
40
0.652840181895159
40
1
40
1
40
1
40
1
41
1
10
-0.217899859892043
20
17.4821691668066
30
0
41
1
10
-0.218826676230435
20
17.4800745443773
30
0
41
1
10
-0.219801713501738
20
17.4779564025257
30
0
41
1
10
-0.224951865426675
20
17.4672042365738
30
0
41
1
10
-0.229904587014658
20
17.4582146929807
30
0
41
1
10
-0.240402764457002
20
17.4424149844006
30
0
41
1
10
-0.245159860439316
20
17.435888727758
30
0
41
1
10
-0.250869950868975
20
17.4291078005734
30
0
0
SPLINE
5
E5
100
AcDbEntity
8
SK1
62
256
6
ByLayer
370
13
48
1
60
0
100
AcDbSpline
70
4
71
3
72
106
73
102
40
0
40
0
40
0
40
0
40
0.0027065363594782
40
0.0112315671205243
40
0.0197565978815703
40
0.0282816286426164
40
0.0368066594036625
40
0.0453316901647085
40
0.0538567209257546
40
0.0623817516868007
40
0.0709067824478467
40
0.0794318132088928
40
0.0964818747309849
40
0.113531936253077
40
0.130581997775169
40
0.139107028536215
40
0.147632059297261
40
0.156157090058307
40
0.164682120819353
40
0.1732071515804
40
0.181732182341446
40
0.198782243863538
40
0.21583230538563
40
0.224357336146676
40
0.232882366907722
40
0.241407397668768
40
0.249932428429814
40
0.25845745919086
40
0.266982489951906
40
0.284032551473998
40
0.292557582235045
40
0.301082612996091
40
0.318132674518183
40
0.335182736040275
40
0.343707766801321
40
0.352232797562367
40
0.369282859084459
40
0.377807889845505
40
0.386332920606551
40
0.394857951367597
40
0.403382982128643
40
0.420433043650736
40
0.428958074411782
40
0.437483105172828
40
0.446008135933874
40
0.45453316669492
40
0.471583228217012
40
0.480108258978058
40
0.488633289739104
40
0.49715832050015
40
0.505683351261196
40
0.522733412783288
40
0.531258443544334
40
0.53978347430538
40
0.548308505066427
40
0.556833535827473
40
0.573883597349565
40
0.582408628110611
40
0.590933658871657
40
0.599458689632703
40
0.607983720393749
40
0.625033781915841
40
0.633558812676887
40
0.642083843437933
40
0.65060887419898
40
0.659133904960026
40
0.676183966482118
40
0.684708997243164
40
0.69323402800421
40
0.701759058765256
40
0.710284089526302
40
0.718809120287348
40
0.727334151048394
40
0.73585918180944
40
0.744384212570486
40
0.761434274092578
40
0.769959304853624
40
0.77848433561467
40
0.795534397136763
40
0.804059427897809
40
0.812584458658855
40
0.829634520180947
40
0.838159550941993
40
0.846684581703039
40
0.855209612464085
40
0.863734643225131
40
0.880784704747223
40
0.889309735508269
40
0.897834766269315
40
0.906359797030362
40
0.914884827791408
40
0.923409858552454
40
0.9319348893135
40
0.940459920074546
40
0.948984950835592
40
0.957509981596638
40
0.966035012357684
40
0.97456004311873
40
0.983085073879776
40
0.991610104640822
40
1
40
1
40
1
40
1
41
1
10
-0.394976888875277
20
5.38678223323933
30
0
41
1
10
-0.394976888875277
20
5.40659331252826
30
0
41
1
10
-0.394976888875277
20
5.48871675629186
30
0
41
1
10
-0.394976888875277
20
5.63252720020009
30
0
41
1
10
-0.394976888875277
20
5.81741425905383
30
0
41
1
10
-0.394976888875277
20
6.0010194773844
30
0
41
1
10
-0.394976888875277
20
6.18333822517317
30
0
41
1
10
-0.394976888875277
20
6.36436626337326
30
0
41
1
10
-0.394976888875277
20
6.54409938064705
30
0
41
1
10
-0.394976888875277
20
6.7225342898117
30
0
41
1
10
-0.394976888875277
20
6.89966739484251
30
0
41
1
10
-0.394976888875277
20
7.13420904829047
30
0
41
1
10
-0.394976888875277
20
7.42389184310318
30
0
41
1
10
-0.394976888875277
20
7.76637137475095
30
0
41
1
10
-0.394976888875277
20
8.04728288893983
30
0
41
1
10
-0.394976888875277
20
8.26952734508268
30
0
41
1
10
-0.394976888875277
20
8.43482033812748
30
0
41
1
10
-0.394976888875277
20
8.59878513251641
30
0
41
1
10
-0.394976888875277
20
8.76141979935898
30
0
41
1
10
-0.394976888875277
20
8.92272120904667
30
0
41
1
10
-0.394976888875277
20
9.13609084815204
30
0
41
1
10
-0.394976888875277
20
9.3992804435735
30
0
41
1
10
-0.394976888875277
20
9.65799297250354
30
0
41
1
10
-0.394976888875277
20
9.86240079247779
30
0
41
1
10
-0.394976888875277
20
10.0143015620689
30
0
41
1
10
-0.394976888875277
20
10.1648479968029
30
0
41
1
10
-0.394976888875277
20
10.3140380853821
30
0
41
1
10
-0.394976888875277
20
10.4618684218406
30
0
41
1
10
-0.394976888875277
20
10.6572262982852
30
0
41
1
10
-0.394976888875277
20
10.8496518299165
30
0
41
1
10
-0.394976888875277
20
11.0395280715927
30
0
41
1
10
-0.394976888875277
20
11.2275701322441
30
0
41
1
10
-0.394976888875277
20
11.4590305058839
30
0
41
1
10
-0.394976888875277
20
11.6858676336886
30
0
41
1
10
-0.394976888875277
20
11.8646543426879
30
0
41
1
10
-0.394976888875277
20
12.0415756036957
30
0
41
1
10
-0.394976888875277
20
12.2155153079022
30
0
41
1
10
-0.394976888875277
20
12.3868007822861
30
0
41
1
10
-0.394976888875277
20
12.5138050377602
30
0
41
1
10
-0.394976888875277
20
12.6393872212047
30
0
41
1
10
-0.394976888875277
20
12.8049814419576
30
0
41
1
10
-0.394976888875277
20
12.9675509274721
30
0
41
1
10
-0.394976888875277
20
13.127391952352
30
0
41
1
10
-0.394976888875277
20
13.2457848907918
30
0
41
1
10
-0.394976888875277
20
13.3627236430939
30
0
41
1
10
-0.394976888875277
20
13.5167448397425
30
0
41
1
10
-0.394976888875277
20
13.6676860465324
30
0
41
1
10
-0.394976888875277
20
13.8158144643309
30
0
41
1
10
-0.394976888875277
20
13.9253889575191
30
0
41
1
10
-0.394976888875277
20
14.0334711437704
30
0
41
1
10
-0.394976888875277
20
14.1756274353422
30
0
41
1
10
-0.394976888875277
20
14.3146351144528
30
0
41
1
10
-0.394976888875277
20
14.4507333574048
30
0
41
1
10
-0.394976888875277
20
14.5512443698349
30
0
41
1
10
-0.394976888875277
20
14.6502180265082
30
0
41
1
10
-0.394976888875277
20
14.7801642402503
30
0
41
1
10
-0.394976888875277
20
14.906878048735
30
0
41
1
10
-0.394976888875277
20
15.0305709686995
30
0
41
1
10
-0.394976888875277
20
15.1217290697223
30
0
41
1
10
-0.394976888875277
20
15.2112966721243
30
0
41
1
10
-0.394976888875277
20
15.3286250260664
30
0
41
1
10
-0.394976888875277
20
15.4426195996911
30
0
41
1
10
-0.394976888875277
20
15.553463729323
30
0
41
1
10
-0.394976888875277
20
15.6349267495635
30
0
41
1
10
-0.394976888875277
20
15.7147364711228
30
0
41
1
10
-0.394976888875277
20
15.8189643575456
30
0
41
1
10
-0.394976888875277
20
15.9197362080175
30
0
41
1
10
-0.394976888875277
20
16.0172057910894
30
0
41
1
10
-0.394976888875277
20
16.0885677968918
30
0
41
1
10
-0.394976888875277
20
16.1582019227301
30
0
41
1
10
-0.394976888875277
20
16.2260943534788
30
0
41
1
10
-0.394976888875277
20
16.2922298184193
30
0
41
1
10
-0.394976888875277
20
16.3565947837564
30
0
41
1
10
-0.394976888875277
20
16.4191737242595
30
0
41
1
10
-0.394976888875277
20
16.5002370605308
30
0
41
1
10
-0.394976888875277
20
16.577583428992
30
0
41
1
10
-0.394976888875277
20
16.6513062647865
30
0
41
1
10
-0.394976888875277
20
16.7225357594453
30
0
41
1
10
-0.394976888875277
20
16.7899145739052
30
0
41
1
10
-0.394976888875277
20
16.8535135157982
30
0
41
1
10
-0.394976888875277
20
16.9145140859045
30
0
41
1
10
-0.394976888875277
20
16.9715145338597
30
0
41
1
10
-0.394976888875277
20
17.0245523789023
30
0
41
1
10
-0.394976888875277
20
17.0622798138473
30
0
41
1
10
-0.394976888875277
20
17.0979462613767
30
0
41
1
10
-0.394976888875277
20
17.1427382851614
30
0
41
1
10
-0.394976888875277
20
17.1832568130363
30
0
41
1
10
-0.394976888875277
20
17.2194882282903
30
0
41
1
10
-0.394976888875277
20
17.2444530966284
30
0
41
1
10
-0.394976888875277
20
17.267190526317
30
0
41
1
10
-0.394976888875277
20
17.2876678324761
30
0
41
1
10
-0.394976888875277
20
17.3058521283006
30
0
41
1
10
-0.394976888875277
20
17.3217086001335
30
0
41
1
10
-0.394976888875277
20
17.3352007293143
30
0
41
1
10
-0.394976888875277
20
17.3462909837355
30
0
41
1
10
-0.394976888875277
20
17.3549392673806
30
0
41
1
10
-0.394976888875277
20
17.3611046370287
30
0
41
1
10
-0.394976888875277
20
17.364743357607
30
0
41
1
10
-0.394976888875277
20
17.3658104187982
30
0
41
1
10
-0.394976888875277
20
17.3642659962224
30
0
41
1
10
-0.394976888875277
20
17.3614874656207
30
0
41
1
10
-0.394976888875277
20
17.3596700645037
30
0
0
SPLINE
5
E6
100
AcDbEntity
8
SK1
62
256
6
ByLayer
370
13
48
1
60
0
100
AcDbSpline
70
4
71
3
72
284
73
280
40
0
40
0
40
0
40
0
40
0.0001426009765863
40
0.0037130084848033
40
0.0072834159930204
40
0.0108538235012375
40
0.0144242310094545
40
0.0179946385176716
40
0.0215650460258887
40
0.0251354535341058
40
0.0287058610423228
40
0.0322762685505399
40
0.035846676058757
40
0.0429874910751911
40
0.0465578985834082
40
0.0501283060916252
40
0.0536987135998423
40
0.0572691211080594
40
0.0644099361244935
40
0.0679803436327106
40
0.0715507511409277
40
0.0786915661573618
40
0.0822619736655789
40
0.0858323811737959
40
0.0929731961902301
40
0.0965436036984472
40
0.100114011206664
40
0.103684418714881
40
0.107254826223098
40
0.110825233731315
40
0.114395641239532
40
0.11796604874775
40
0.121536456255967
40
0.128677271272401
40
0.132247678780618
40
0.135818086288835
40
0.139388493797052
40
0.142958901305269
40
0.150099716321703
40
0.15367012382992
40
0.155455327584029
40
0.157240531338137
40
0.160810938846354
40
0.164381346354571
40
0.171522161371006
40
0.175092568879223
40
0.17866297638744
40
0.182233383895657
40
0.185803791403874
40
0.192944606420308
40
0.196515013928525
40
0.200085421436742
40
0.203655828944959
40
0.207226236453176
40
0.21436705146961
40
0.217937458977827
40
0.221507866486045
40
0.225078273994262
40
0.228648681502479
40
0.235789496518913
40
0.23935990402713
40
0.242930311535347
40
0.246500719043564
40
0.250071126551781
40
0.257211941568215
40
0.260782349076432
40
0.264352756584649
40
0.271493571601084
40
0.278634386617518
40
0.282204794125735
40
0.285775201633952
40
0.292916016650386
40
0.296486424158603
40
0.30005683166682
40
0.303627239175037
40
0.307197646683254
40
0.310768054191471
40
0.314338461699688
40
0.321479276716122
40
0.328620091732557
40
0.332190499240774
40
0.335760906748991
40
0.339331314257208
40
0.342901721765425
40
0.346472129273642
40
0.350042536781859
40
0.357183351798293
40
0.364324166814727
40
0.371464981831162
40
0.375035389339379
40
0.378605796847596
40
0.382176204355813
40
0.38574661186403
40
0.389317019372247
40
0.392887426880464
40
0.396457834388681
40
0.400028241896898
40
0.403598649405115
40
0.407169056913332
40
0.410739464421549
40
0.414309871929766
40
0.417880279437983
40
0.421450686946201
40
0.425021094454417
40
0.428591501962635
40
0.432161909470852
40
0.43394711322496
40
0.435732316979069
40
0.437517520733177
40
0.439302724487286
40
0.442873131995503
40
0.44644353950372
40
0.448228743257829
40
0.450013947011937
40
0.453584354520154
40
0.455369558274263
40
0.457154762028371
40
0.45893996578248
40
0.460725169536588
40
0.462510373290697
40
0.464295577044805
40
0.466080780798914
40
0.467865984553022
40
0.469651188307131
40
0.47143639206124
40
0.473221595815348
40
0.475006799569457
40
0.476792003323565
40
0.478577207077674
40
0.480362410831782
40
0.482147614585891
40
0.483932818339999
40
0.485718022094108
40
0.487503225848216
40
0.489288429602325
40
0.491073633356433
40
0.492858837110542
40
0.49464404086465
40
0.496429244618759
40
0.498214448372867
40
0.499999652126976
40
0.501784855881085
40
0.503570059635193
40
0.505355263389302
40
0.50714046714341
40
0.508925670897519
40
0.510710874651627
40
0.512496078405736
40
0.514281282159844
40
0.516066485913953
40
0.517851689668061
40
0.51963689342217
40
0.521422097176278
40
0.523207300930387
40
0.524992504684495
40
0.526777708438604
40
0.528562912192713
40
0.530348115946821
40
0.53213331970093
40
0.533918523455038
40
0.535703727209147
40
0.537488930963255
40
0.539274134717364
40
0.542844542225581
40
0.544629745979689
40
0.546414949733798
40
0.548200153487906
40
0.549985357242015
40
0.551770560996124
40
0.553555764750232
40
0.557126172258449
40
0.560696579766666
40
0.562481783520775
40
0.564266987274883
40
0.566052191028992
40
0.5678373947831
40
0.571407802291317
40
0.574978209799534
40
0.578548617307752
40
0.582119024815969
40
0.585689432324186
40
0.589259839832403
40
0.59283024734062
40
0.596400654848837
40
0.599971062357054
40
0.603541469865271
40
0.607111877373488
40
0.610682284881705
40
0.614252692389922
40
0.617823099898139
40
0.621393507406356
40
0.624963914914573
40
0.628534322422791
40
0.635675137439225
40
0.642815952455659
40
0.649956767472093
40
0.65352717498031
40
0.657097582488527
40
0.660667989996744
40
0.664238397504961
40
0.667808805013178
40
0.671379212521395
40
0.678520027537829
40
0.685660842554264
40
0.689231250062481
40
0.692801657570698
40
0.696372065078915
40
0.699942472587132
40
0.703512880095349
40
0.707083287603566
40
0.71422410262
40
0.717794510128217
40
0.721364917636434
40
0.728505732652868
40
0.735646547669303
40
0.73921695517752
40
0.742787362685737
40
0.749928177702171
40
0.753498585210388
40
0.757068992718605
40
0.760639400226822
40
0.764209807735039
40
0.771350622751473
40
0.77492103025969
40
0.778491437767908
40
0.782061845276124
40
0.785632252784342
40
0.792773067800776
40
0.796343475308993
40
0.79991388281721
40
0.803484290325427
40
0.807054697833644
40
0.814195512850078
40
0.817765920358295
40
0.821336327866512
40
0.824906735374729
40
0.828477142882946
40
0.835617957899381
40
0.839188365407598
40
0.842758772915815
40
0.846329180424032
40
0.849899587932249
40
0.857040402948683
40
0.8606108104569
40
0.864181217965117
40
0.867751625473334
40
0.871322032981551
40
0.878462847997985
40
0.882033255506202
40
0.88560366301442
40
0.889174070522637
40
0.892744478030854
40
0.896314885539071
40
0.899885293047288
40
0.903455700555505
40
0.907026108063722
40
0.914166923080156
40
0.917737330588373
40
0.92130773809659
40
0.928448553113024
40
0.932018960621241
40
0.935589368129458
40
0.942730183145893
40
0.94630059065411
40
0.949870998162327
40
0.953441405670544
40
0.957011813178761
40
0.964152628195195
40
0.967723035703412
40
0.971293443211629
40
0.974863850719846
40
0.978434258228063
40
0.98200466573628
40
0.985575073244497
40
0.989145480752714
40
0.992715888260932
40
0.996286295769149
40
0.999856703277366
40
1
40
1
40
1
40
1
41
1
10
-1.99503997793931
20
-17.3206885186181
30
0
41
1
10
-1.99503997793931
20
-17.3206247443409
30
0
41
1
10
-1.99503997793931
20
-17.3189467397176
30
0
41
1
10
-1.99503997793928
20
-17.3147637210185
30
0
41
1
10
-1.99503997793928
20
-17.3061342543252
30
0
41
1
10
-1.99503997793928
20
-17.2950677779805
30
0
41
1
10
-1.99503997793928
20
-17.2816041393821
30
0
41
1
10
-1.99503997793928
20
-17.2657806121613
30
0
41
1
10
-1.99503997793928
20
-17.2476335178127
30
0
41
1
10
-1.99503997793928
20
-17.2271975480507
30
0
41
1
10
-1.99503997793928
20
-17.204505416066
30
0
41
1
10
-1.99503997793928
20
-17.1795896288677
30
0
41
1
10
-1.99503997793928
20
-17.1434240170936
30
0
41
1
10
-1.99503997793928
20
-17.1029924178939
30
0
41
1
10
-1.99503997793928
20
-17.0582791544303
30
0
41
1
10
-1.99503997793928
20
-17.0226788299273
30
0
41
1
10
-1.99503997793928
20
-16.9850205784631
30
0
41
1
10
-1.99503997793928
20
-16.9320728583858
30
0
41
1
10
-1.99503997793928
20
-16.8751872797734
30
0
41
1
10
-1.99503997793928
20
-16.8142877377232
30
0
41
1
10
-1.99503997793928
20
-16.7507930080793
30
0
41
1
10
-1.99503997793928
20
-16.6835453043615
30
0
41
1
10
-1.99503997793928
20
-16.6124299668847
30
0
41
1
10
-1.99503997793928
20
-16.538824252381
30
0
41
1
10
-1.99503997793928
20
-16.4616240235723
30
0
41
1
10
-1.99503997793928
20
-16.3806869997558
30
0
41
1
10
-1.99503997793928
20
-16.3182114280861
30
0
41
1
10
-1.99503997793928
20
-16.2539521307207
30
0
41
1
10
-1.99503997793928
20
-16.1879246525291
30
0
41
1
10
-1.99503997793928
20
-16.1201424632647
30
0
41
1
10
-1.99503997793928
20
-16.0506207879892
30
0
41
1
10
-1.99503997793928
20
-15.9793734967038
30
0
41
1
10
-1.99503997793928
20
-15.8820499896637
30
0
41
1
10
-1.99503997793928
20
-15.781458474053
30
0
41
1
10
-1.99503997793928
20
-15.677384979663
30
0
41
1
10
-1.99503997793928
20
-15.5977008570348
30
0
41
1
10
-1.99503997793928
20
-15.5163656330196
30
0
41
1
10
-1.99503997793928
20
-15.4056838559475
30
0
41
1
10
-1.99503997793928
20
-15.2918890331241
30
0
41
1
10
-1.99503997793928
20
-15.1893946011098
30
0
41
1
10
-1.99503997793928
20
-15.130016414734
30
0
41
1
10
-1.99503997793928
20
-15.070107125687
30
0
41
1
10
-1.99503997793928
20
-14.9942845913974
30
0
41
1
10
-1.99503997793928
20
-14.8707702595594
30
0
41
1
10
-1.99503997793928
20
-14.7442755571137
30
0
41
1
10
-1.99503997793928
20
-14.614516060936
30
0
41
1
10
-1.99503997793928
20
-14.5156939237825
30
0
41
1
10
-1.99503997793928
20
-14.4153366880849
30
0
41
1
10
-1.99503997793928
20
-14.2794333813788
30
0
41
1
10
-1.99503997793928
20
-14.1406647319193
30
0
41
1
10
-1.99503997793928
20
-13.99871189727
30
0
41
1
10
-1.99503997793928
20
-13.8907947392413
30
0
41
1
10
-1.99503997793928
20
-13.7813876543746
30
0
41
1
10
-1.99503997793928
20
-13.6334713858817
30
0
41
1
10
-1.99503997793928
20
-13.4827901435456
30
0
41
1
10
-1.99503997793928
20
-13.3289901210133
30
0
41
1
10
-1.99503997793928
20
-13.2122307543484
30
0
41
1
10
-1.99503997793928
20
-13.0940197637218
30
0
41
1
10
-1.99503997793928
20
-12.9344093235711
30
0
41
1
10
-1.99503997793928
20
-12.7721223466594
30
0
41
1
10
-1.99503997793928
20
-12.6067684751262
30
0
41
1
10
-1.99503997793928
20
-12.4813812819682
30
0
41
1
10
-1.99503997793928
20
-12.3545748313203
30
0
41
1
10
-1.99503997793928
20
-12.1835401209566
30
0
41
1
10
-1.99503997793928
20
-12.0099077334538
30
0
41
1
10
-1.99503997793928
20
-11.8332480225582
30
0
41
1
10
-1.99503997793928
20
-11.6547268446385
30
0
41
1
10
-1.99503997793928
20
-11.4282697094187
30
0
41
1
10
-1.99503997793928
20
-11.1972001338813
30
0
41
1
10
-1.99503997793928
20
-11.0094435667743
30
0
41
1
10
-1.99503997793928
20
-10.8198574709635
30
0
41
1
10
-1.99503997793928
20
-10.6277879483349
30
0
41
1
10
-1.99503997793928
20
-10.432733482583
30
0
41
1
10
-1.99503997793928
20
-10.2851499142426
30
0
41
1
10
-1.99503997793928
20
-10.1362104789651
30
0
41
1
10
-1.99503997793928
20
-9.98591881051331
30
0
41
1
10
-1.99503997793928
20
-9.83427694277646
30
0
41
1
10
-1.99503997793928
20
-9.6301983246166
30
0
41
1
10
-1.99503997793928
20
-9.37195865915049
30
0
41
1
10
-1.99503997793928
20
-9.10925720032841
30
0
41
1
10
-1.99503997793928
20
-8.89624560664996
30
0
41
1
10
-1.99503997793928
20
-8.73523610803539
30
0
41
1
10
-1.99503997793928
20
-8.57289871422529
30
0
41
1
10
-1.99503997793928
20
-8.40923674956807
30
0
41
1
10
-1.99503997793928
20
-8.24425235284596
30
0
41
1
10
-1.99503997793928
20
-8.02240145976876
30
0
41
1
10
-1.99503997793928
20
-7.74205781809903
30
0
41
1
10
-1.99503997793928
20
-7.40025292645402
30
0
41
1
10
-1.99503997793928
20
-7.11118459991687
30
0
41
1
10
-1.99503997793928
20
-6.87709665926303
30
0
41
1
10
-1.99503997793928
20
-6.70033533418757
30
0
41
1
10
-1.99503997793928
20
-6.52228076981257
30
0
41
1
10
-1.99503997793928
20
-6.34293700639154
30
0
41
1
10
-1.99503997793928
20
-6.16230794338162
30
0
41
1
10
-1.99503997793928
20
-5.98039819956611
30
0
41
1
10
-1.99503997793928
20
-5.79721217482029
30
0
41
1
10
-1.99503997793928
20
-5.61275497462711
30
0
41
1
10
-1.99503997793928
20
-5.42703263168386
30
0
41
1
10
-1.99503997793928
20
-5.24005183821342
30
0
41
1
10
-1.99503997793928
20
-5.05181944357969
30
0
41
1
10
-1.99503997793928
20
-4.86234315765492
30
0
41
1
10
-1.99503997793928
20
-4.67163198724225
30
0
41
1
10
-1.99503997793928
20
-4.47969611179559
30
0
41
1
10
-1.99503997793928
20
-4.28654650347451
30
0
41
1
10
-1.99503997793928
20
-4.09219631216948
30
0
41
1
10
-1.99503997793928
20
-3.92934662557204
30
0
41
1
10
-1.99503997793928
20
-3.79829732832764
30
0
41
1
10
-1.99503997793928
20
-3.69979996514493
30
0
41
1
10
-1.99503997793928
20
-3.60101470543907
30
0
41
1
10
-1.99503997793928
20
-3.46881383607317
30
0
41
1
10
-1.99503997793928
20
-3.30310842941955
30
0
41
1
10
-1.99503997793928
20
-3.13647582573117
30
0
41
1
10
-1.99503997793928
20
-3.00241855173454
30
0
41
1
10
-1.99503997793928
20
-2.86801083241156
30
0
41
1
10
-1.99503997793928
20
-2.73345090264118
30
0
41
1
10
-1.99503997793928
20
-2.59800197223717
30
0
41
1
10
-1.99503997793928
20
-2.49626703199883
30
0
41
1
10
-1.99503997793928
20
-2.39428973936722
30
0
41
1
10
-1.99503997793928
20
-2.29207637206397
30
0
41
1
10
-1.99503997793928
20
-2.18963189754737
30
0
41
1
10
-1.99503997793928
20
-2.08696370566375
30
0
41
1
10
-1.99503997793928
20
-1.98407766278629
30
0
41
1
10
-1.99503997793928
20
-1.88098142742643
30
0
41
1
10
-1.99503997793928
20
-1.77768276258209
30
0
41
1
10
-1.99503997793928
20
-1.67418896894682
30
0
41
1
10
-1.99503997793928
20
-1.57050948928742
30
0
41
1
10
-1.99503997793928
20
-1.46665210416356
30
0
41
1
10
-1.99503997793928
20
-1.36262723194542
30
0
41
1
10
-1.99503997793928
20
-1.25844373877697
30
0
41
1
10
-1.99503997793928
20
-1.15411258033262
30
0
41
1
10
-1.99503997793928
20
-1.04964379294299
30
0
41
1
10
-1.99503997793928
20
-0.945048896197648
30
0
41
1
10
-1.99503997793928
20
-0.840338966235578
30
0
41
1
10
-1.99503997793928
20
-0.735526093018507
30
0
41
1
10
-1.99503997793928
20
-0.630622120770227
30
0
41
1
10
-1.99503997793928
20
-0.525639723935797
30
0
41
1
10
-1.99503997793928
20
-0.420591355720489
30
0
41
1
10
-1.99503997793928
20
-0.315490140896543
30
0
41
1
10
-1.99503997793928
20
-0.21034895445402
30
0
41
1
10
-1.99503997793928
20
-0.10518117389941
30
0
41
1
10
-1.99503997793928
20
-2.6093687E-09
30
0
41
1
10
-1.99503997793928
20
0.105181165306249
30
0
41
1
10
-1.99503997793928
20
0.210348939519435
30
0
41
1
10
-1.99503997793928
20
0.315490126623814
30
0
41
1
10
-1.99503997793928
20
0.420591350928703
30
0
41
1
10
-1.99503997793928
20
0.525639721157262
30
0
41
1
10
-1.99503997793928
20
0.630622105582688
30
0
41
1
10
-1.99503997793928
20
0.735526073032332
30
0
41
1
10
-1.99503997793928
20
0.840338961204225
30
0
41
1
10
-1.99503997793928
20
0.945048899580655
30
0
41
1
10
-1.99503997793928
20
1.04964378000579
30
0
41
1
10
-1.99503997793928
20
1.15411255471386
30
0
41
1
10
-1.99503997793928
20
1.25844372920938
30
0
41
1
10
-1.99503997793928
20
1.36262724011792
30
0
41
1
10
-1.99503997793928
20
1.46665209995737
30
0
41
1
10
-1.99503997793928
20
1.57050946303122
30
0
41
1
10
-1.99503997793928
20
1.67418894734925
30
0
41
1
10
-1.99503997793928
20
1.77768276547397
30
0
41
1
10
-1.99503997793928
20
1.88098143773604
30
0
41
1
10
-1.99503997793928
20
1.98407765086858
30
0
41
1
10
-1.99503997793928
20
2.08696367451518
30
0
41
1
10
-1.99503997793928
20
2.18963187963746
30
0
41
1
10
-1.99503997793928
20
2.3263670801044
30
0
41
1
10
-1.99503997793928
20
2.46222694501739
30
0
41
1
10
-1.99503997793928
20
2.5980019734576
30
0
41
1
10
-1.99503997793928
20
2.69948931487846
30
0
41
1
10
-1.99503997793928
20
2.80072442890969
30
0
41
1
10
-1.99503997793928
20
2.90170218623106
30
0
41
1
10
-1.99503997793928
20
3.00241852965871
30
0
41
1
10
-1.99503997793928
20
3.13647579824178
30
0
41
1
10
-1.99503997793928
20
3.30310841087518
30
0
41
1
10
-1.99503997793928
20
3.46881385164499
30
0
41
1
10
-1.99503997793928
20
3.6010147061962
30
0
41
1
10
-1.99503997793928
20
3.69979994526253
30
0
41
1
10
-1.99503997793928
20
3.7982972967292
30
0
41
1
10
-1.99503997793928
20
3.92934661081907
30
0
41
1
10
-1.99503997793928
20
4.09219634432211
30
0
41
1
10
-1.99503997793928
20
4.28654656517494
30
0
41
1
10
-1.99503997793928
20
4.47969614999016
30
0
41
1
10
-1.99503997793928
20
4.67163207713236
30
0
41
1
10
-1.99503997793928
20
4.86234332329403
30
0
41
1
10
-1.99503997793928
20
5.05181945337139
30
0
41
1
10
-1.99503997793928
20
5.24005175731475
30
0
41
1
10
-1.99503997793928
20
5.42703270327695
30
0
41
1
10
-1.99503997793928
20
5.61275496243289
30
0
41
1
10
-1.99503997793928
20
5.79721186805691
30
0
41
1
10
-1.99503997793928
20
5.98039789106801
30
0
41
1
10
-1.99503997793928
20
6.16230788845579
30
0
41
1
10
-1.99503997793928
20
6.3429370741791
30
0
41
1
10
-1.99503997793928
20
6.52228078287743
30
0
41
1
10
-1.99503997793928
20
6.70033531356589
30
0
41
1
10
-1.99503997793928
20
6.87709665618266
30
0
41
1
10
-1.99503997793928
20
7.11118461088941
30
0
41
1
10
-1.99503997793928
20
7.40025290593451
30
0
41
1
10
-1.99503997793928
20
7.7420578132905
30
0
41
1
10
-1.99503997793928
20
8.0224014648056
30
0
41
1
10
-1.99503997793928
20
8.24425232954013
30
0
41
1
10
-1.99503997793928
20
8.40923673354897
30
0
41
1
10
-1.99503997793928
20
8.57289871794615
30
0
41
1
10
-1.99503997793928
20
8.73523611643316
30
0
41
1
10
-1.99503997793928
20
8.89624559944801
30
0
41
1
10
-1.99503997793928
20
9.1092571782612
30
0
41
1
10
-1.99503997793928
20
9.37195865327328
30
0
41
1
10
-1.99503997793928
20
9.63019833168175
30
0
41
1
10
-1.99503997793928
20
9.83427692622885
30
0
41
1
10
-1.99503997793928
20
9.98591879047714
30
0
41
1
10
-1.99503997793928
20
10.13621047024
30
0
41
1
10
-1.99503997793928
20
10.2851499168301
30
0
41
1
10
-1.99503997793928
20
10.4327334855784
30
0
41
1
10
-1.99503997793928
20
10.627787937013
30
0
41
1
10
-1.99503997793928
20
10.8198574498995
30
0
41
1
10
-1.99503997793928
20
11.00944356136
30
0
41
1
10
-1.99503997793928
20
11.1972001365959
30
0
41
1
10
-1.99503997793928
20
11.4282697000141
30
0
41
1
10
-1.99503997793928
20
11.6547268261542
30
0
41
1
10
-1.99503997793928
20
11.8332480165124
30
0
41
1
10
-1.99503997793928
20
12.0099077332894
30
0
41
1
10
-1.99503997793928
20
12.1835401119863
30
0
41
1
10
-1.99503997793928
20
12.3545748152048
30
0
41
1
10
-1.99503997793928
20
12.4813812679684
30
0
41
1
10
-1.99503997793928
20
12.606768466692
30
0
41
1
10
-1.99503997793928
20
12.7721223429484
30
0
41
1
10
-1.99503997793928
20
12.9344093145834
30
0
41
1
10
-1.99503997793928
20
13.09401974916
30
0
41
1
10
-1.99503997793928
20
13.2122307400427
30
0
41
1
10
-1.99503997793928
20
13.328990109671
30
0
41
1
10
-1.99503997793928
20
13.482790135872
30
0
41
1
10
-1.99503997793928
20
13.6334713769854
30
0
41
1
10
-1.99503997793928
20
13.7813876415877
30
0
41
1
10
-1.99503997793928
20
13.8907947247769
30
0
41
1
10
-1.99503997793928
20
13.9987118830366
30
0
41
1
10
-1.99503997793928
20
14.1406647198644
30
0
41
1
10
-1.99503997793928
20
14.2794333721973
30
0
41
1
10
-1.99503997793928
20
14.4153366771621
30
0
41
1
10
-1.99503997793928
20
14.5156939096276
30
0
41
1
10
-1.99503997793928
20
14.6145160455858
30
0
41
1
10
-1.99503997793928
20
14.7442755428493
30
0
41
1
10
-1.99503997793928
20
14.8707702235387
30
0
41
1
10
-1.99503997793928
20
14.9942846604514
30
0
41
1
10
-1.99503997793928
20
15.0853020659337
30
0
41
1
10
-1.99503997793928
20
15.1747311694574
30
0
41
1
10
-1.99503997793928
20
15.2918890118945
30
0
41
1
10
-1.99503997793928
20
15.4056838451686
30
0
41
1
10
-1.99503997793928
20
15.5163656256123
30
0
41
1
10
-1.99503997793928
20
15.5977008436634
30
0
41
1
10
-1.99503997793928
20
15.677384958149
30
0
41
1
10
-1.99503997793928
20
15.7814584486047
30
0
41
1
10
-1.99503997793928
20
15.8820499794418
30
0
41
1
10
-1.99503997793928
20
15.979373490825
30
0
41
1
10
-1.99503997793928
20
16.0506207732709
30
0
41
1
10
-1.99503997793928
20
16.1201424382026
30
0
41
1
10
-1.99503997793928
20
16.1879246249361
30
0
41
1
10
-1.99503997793928
20
16.2539521138774
30
0
41
1
10
-1.99503997793928
20
16.3182114219941
30
0
41
1
10
-1.99503997793928
20
16.3806869939664
30
0
41
1
10
-1.99503997793928
20
16.4616240004255
30
0
41
1
10
-1.99503997793928
20
16.5388242186582
30
0
41
1
10
-1.99503997793928
20
16.6124299551482
30
0
41
1
10
-1.99503997793928
20
16.6835453056651
30
0
41
1
10
-1.99503997793928
20
16.7507929832779
30
0
41
1
10
-1.99503997793928
20
16.8142877036056
30
0
41
1
10
-1.99503997793928
20
16.8751872660894
30
0
41
1
10
-1.99503997793928
20
16.9320728615657
30
0
41
1
10
-1.99503997793928
20
16.9850205529168
30
0
41
1
10
-1.99503997793928
20
17.0226787925821
30
0
41
1
10
-1.99503997793928
20
17.0582791326422
30
0
41
1
10
-1.99503997793928
20
17.1029924242497
30
0
41
1
10
-1.99503997793928
20
17.143423992764
30
0
41
1
10
-1.99503997793928
20
17.1795895960111
30
0
41
1
10
-1.99503997793928
20
17.2045053960087
30
0
41
1
10
-1.99503997793928
20
17.2271975457697
30
0
41
1
10
-1.99503997793928
20
17.2476335117891
30
0
41
1
10
-1.99503997793928
20
17.2657805776118
30
0
41
1
10
-1.99503997793928
20
17.2816041041457
30
0
41
1
10
-1.99503997793928
20
17.295067771448
30
0
41
1
10
-1.99503997793928
20
17.3061342577567
30
0
41
1
10
-1.99503997793928
20
17.314763700365
30
0
41
1
10
-1.99503997793928
20
17.3189471374018
30
0
41
1
10
-1.99503997793926
20
17.3206254004268
30
0
41
1
10
-1.99503997793926
20
17.3206894804314
30
0
0
SPLINE
5
E7
100
AcDbEntity
8
SK1
62
256
6
ByLayer
370
18
48
1
60
0
100
AcDbSpline
70
4
71
3
72
290
73
286
40
0
40
0
40
0
40
0
40
0.0008596856796229
40
0.0043501808705917
40
0.0078406760615606
40
0.0113311712525295
40
0.0148216664434983
40
0.0183121616344672
40
0.0218026568254361
40
0.0252931520164049
40
0.0287836472073738
40
0.0322741423983426
40
0.0357646375893115
40
0.0392551327802804
40
0.0427456279712492
40
0.0462361231622181
40
0.0532171135441558
40
0.0567076087351247
40
0.0601981039260935
40
0.0636885991170624
40
0.0671790943080313
40
0.074160084689969
40
0.0776505798809378
40
0.0811410750719067
40
0.0881220654538444
40
0.0916125606448133
40
0.0951030558357821
40
0.10208404621772
40
0.105574541408689
40
0.109065036599658
40
0.112555531790627
40
0.116046026981595
40
0.119536522172564
40
0.123027017363533
40
0.126517512554502
40
0.130008007745471
40
0.136988998127409
40
0.140479493318377
40
0.143969988509346
40
0.147460483700315
40
0.150950978891284
40
0.157931969273222
40
0.161422464464191
40
0.163167712059675
40
0.164912959655159
40
0.168403454846128
40
0.171893950037097
40
0.178874940419035
40
0.182365435610004
40
0.185855930800973
40
0.189346425991942
40
0.19283692118291
40
0.199817911564848
40
0.203308406755817
40
0.206798901946786
40
0.210289397137755
40
0.213779892328723
40
0.220760882710661
40
0.22425137790163
40
0.227741873092599
40
0.231232368283568
40
0.234722863474537
40
0.241703853856474
40
0.245194349047443
40
0.248684844238412
40
0.252175339429381
40
0.25566583462035
40
0.262646825002288
40
0.266137320193256
40
0.269627815384225
40
0.276608805766163
40
0.283589796148101
40
0.28708029133907
40
0.290570786530038
40
0.297551776911976
40
0.301042272102945
40
0.304532767293914
40
0.308023262484883
40
0.311513757675852
40
0.315004252866821
40
0.318494748057789
40
0.325475738439727
40
0.332456728821665
40
0.335947224012634
40
0.339437719203603
40
0.342928214394571
40
0.34641870958554
40
0.349909204776509
40
0.353399699967478
40
0.360380690349416
40
0.367361680731353
40
0.374342671113291
40
0.37783316630426
40
0.381323661495229
40
0.384814156686198
40
0.388304651877167
40
0.391795147068136
40
0.395285642259104
40
0.398776137450073
40
0.402266632641042
40
0.405757127832011
40
0.40924762302298
40
0.412738118213949
40
0.416228613404918
40
0.419719108595886
40
0.423209603786855
40
0.426700098977824
40
0.430190594168793
40
0.433681089359762
40
0.435426336955246
40
0.437171584550731
40
0.438916832146215
40
0.4406620797417
40
0.444152574932668
40
0.447643070123637
40
0.449388317719122
40
0.451133565314606
40
0.454624060505575
40
0.45636930810106
40
0.458114555696544
40
0.459859803292028
40
0.461605050887513
40
0.463350298482997
40
0.465095546078482
40
0.466840793673966
40
0.468586041269451
40
0.470331288864935
40
0.472076536460419
40
0.473821784055904
40
0.475567031651388
40
0.477312279246873
40
0.479057526842357
40
0.480802774437841
40
0.482548022033326
40
0.48429326962881
40
0.486038517224295
40
0.487783764819779
40
0.489529012415264
40
0.491274260010748
40
0.493019507606232
40
0.494764755201717
40
0.496510002797201
40
0.498255250392686
40
0.50000049798817
40
0.501745745583655
40
0.503490993179139
40
0.505236240774623
40
0.506981488370108
40
0.508726735965592
40
0.510471983561077
40
0.512217231156561
40
0.513962478752046
40
0.51570772634753
40
0.517452973943015
40
0.519198221538499
40
0.520943469133983
40
0.522688716729468
40
0.524433964324952
40
0.526179211920437
40
0.527924459515921
40
0.529669707111406
40
0.53141495470689
40
0.533160202302374
40
0.534905449897859
40
0.536650697493343
40
0.538395945088828
40
0.541886440279797
40
0.543631687875281
40
0.545376935470765
40
0.54712218306625
40
0.548867430661734
40
0.550612678257219
40
0.552357925852703
40
0.555848421043672
40
0.559338916234641
40
0.561084163830125
40
0.56282941142561
40
0.564574659021094
40
0.566319906616578
40
0.569810401807548
40
0.573300896998516
40
0.576791392189485
40
0.580281887380454
40
0.583772382571423
40
0.587262877762392
40
0.590753372953361
40
0.59424386814433
40
0.597734363335298
40
0.601224858526267
40
0.604715353717236
40
0.608205848908205
40
0.611696344099174
40
0.615186839290143
40
0.618677334481111
40
0.622167829672081
40
0.625658324863049
40
0.632639315244987
40
0.639620305626925
40
0.646601296008863
40
0.650091791199831
40
0.6535822863908
40
0.657072781581769
40
0.660563276772738
40
0.664053771963707
40
0.667544267154676
40
0.674525257536613
40
0.681506247918551
40
0.68499674310952
40
0.688487238300489
40
0.691977733491458
40
0.695468228682427
40
0.698958723873395
40
0.702449219064364
40
0.709430209446302
40
0.712920704637271
40
0.71641119982824
40
0.723392190210177
40
0.730373180592115
40
0.733863675783084
40
0.737354170974053
40
0.744335161355991
40
0.747825656546959
40
0.751316151737928
40
0.754806646928897
40
0.758297142119866
40
0.765278132501804
40
0.768768627692773
40
0.772259122883741
40
0.77574961807471
40
0.779240113265679
40
0.786221103647617
40
0.789711598838586
40
0.793202094029555
40
0.796692589220524
40
0.800183084411492
40
0.80716407479343
40
0.810654569984399
40
0.814145065175368
40
0.817635560366337
40
0.821126055557306
40
0.828107045939243
40
0.831597541130212
40
0.835088036321181
40
0.83857853151215
40
0.842069026703119
40
0.849050017085056
40
0.852540512276026
40
0.856031007466994
40
0.859521502657963
40
0.863011997848932
40
0.86999298823087
40
0.873483483421839
40
0.876973978612807
40
0.880464473803776
40
0.883954968994745
40
0.887445464185714
40
0.890935959376683
40
0.894426454567652
40
0.89791694975862
40
0.904897940140558
40
0.908388435331527
40
0.911878930522496
40
0.918859920904434
40
0.922350416095403
40
0.925840911286371
40
0.932821901668309
40
0.936312396859278
40
0.939802892050247
40
0.943293387241216
40
0.946783882432185
40
0.953764872814122
40
0.957255368005091
40
0.96074586319606
40
0.964236358387029
40
0.967726853577998
40
0.971217348768967
40
0.974707843959935
40
0.978198339150904
40
0.981688834341873
40
0.985179329532842
40
0.988669824723811
40
0.99216031991478
40
0.995650815105749
40
0.999141310296718
40
1
40
1
40
1
40
1
41
1
10
-28.5
20
-16.8570615085902
30
0
41
1
10
-28.5
20
-16.8573439092979
30
0
41
1
10
-28.5
20
-16.858639900192
30
0
41
1
10
-28.5
20
-16.8597680746869
30
0
41
1
10
-28.5
20
-16.8587319423621
30
0
41
1
10
-28.5
20
-16.8551966659016
30
0
41
1
10
-28.5
20
-16.8492033090471
30
0
41
1
10
-28.5
20
-16.8407921763224
30
0
41
1
10
-28.5
20
-16.8300011251081
30
0
41
1
10
-28.5
20
-16.816867307208
30
0
41
1
10
-28.5
20
-16.8014255596809
30
0
41
1
10
-28.5
20
-16.7837098927271
30
0
41
1
10
-28.5
20
-16.7637529737167
30
0
41
1
10
-28.5
20
-16.741585550229
30
0
41
1
10
-28.5
20
-16.7172383773104
30
0
41
1
10
-28.5
20
-16.6818354096897
30
0
41
1
10
-28.5
20
-16.642411504334
30
0
41
1
10
-28.5
20
-16.5986105943247
30
0
41
1
10
-28.5
20
-16.5637763395247
30
0
41
1
10
-28.5
20
-16.5269199399481
30
0
41
1
10
-28.5
20
-16.4750169286961
30
0
41
1
10
-28.5
20
-16.4194622696319
30
0
41
1
10
-28.5
20
-16.3597332242326
30
0
41
1
10
-28.5
20
-16.2974462376793
30
0
41
1
10
-28.5
20
-16.2317181619347
30
0
41
1
10
-28.5
20
-16.1619255341458
30
0
41
1
10
-28.5
20
-16.0896767899467
30
0
41
1
10
-28.5
20
-16.0141701800502
30
0
41
1
10
-28.5
20
-15.9346970807191
30
0
41
1
10
-28.5
20
-15.8734193510279
30
0
41
1
10
-28.5
20
-15.810384423087
30
0
41
1
10
-28.5
20
-15.7456081924762
30
0
41
1
10
-28.5
20
-15.6791035342519
30
0
41
1
10
-28.5
20
-15.6108850733398
30
0
41
1
10
-28.5
20
-15.5409672073329
30
0
41
1
10
-28.5
20
-15.4453363938053
30
0
41
1
10
-28.5
20
-15.3468344527491
30
0
41
1
10
-28.5
20
-15.2445501295776
30
0
41
1
10
-28.5
20
-15.1663215599361
30
0
41
1
10
-28.5
20
-15.0864673213159
30
0
41
1
10
-28.5
20
-14.9776668655465
30
0
41
1
10
-28.5
20
-14.8661866667289
30
0
41
1
10
-28.5
20
-14.7654709460418
30
0
41
1
10
-28.5
20
-14.7070919001429
30
0
41
1
10
-28.5
20
-14.6481896525931
30
0
41
1
10
-28.5
20
-14.5737935062701
30
0
41
1
10
-28.5
20
-14.4523474054459
30
0
41
1
10
-28.5
20
-14.328392039309
30
0
41
1
10
-28.5
20
-14.2007962250068
30
0
41
1
10
-28.5
20
-14.1037299370701
30
0
41
1
10
-28.5
20
-14.0051547249398
30
0
41
1
10
-28.5
20
-13.8715103854275
30
0
41
1
10
-28.5
20
-13.7355116125921
30
0
41
1
10
-28.5
20
-13.5959164434403
30
0
41
1
10
-28.5
20
-13.4899116562854
30
0
41
1
10
-28.5
20
-13.3824445445542
30
0
41
1
10
-28.5
20
-13.2369867372074
30
0
41
1
10
-28.5
20
-13.0893180117674
30
0
41
1
10
-28.5
20
-12.9380809438717
30
0
41
1
10
-28.5
20
-12.8234002933141
30
0
41
1
10
-28.5
20
-12.7072977423403
30
0
41
1
10
-28.5
20
-12.550359417297
30
0
41
1
10
-28.5
20
-12.3913462461042
30
0
41
1
10
-28.5
20
-12.2287775174238
30
0
41
1
10
-28.5
20
-12.1056498404809
30
0
41
1
10
-28.5
20
-11.9811355648908
30
0
41
1
10
-28.5
20
-11.8130068303033
30
0
41
1
10
-28.5
20
-11.6429357656381
30
0
41
1
10
-28.5
20
-11.4693068596264
30
0
41
1
10
-28.5
20
-11.2938625632929
30
0
41
1
10
-28.5
20
-11.0718089525805
30
0
41
1
10
-28.5
20
-10.8452681286137
30
0
41
1
10
-28.5
20
-10.6608197986608
30
0
41
1
10
-28.5
20
-10.4745957936973
30
0
41
1
10
-28.5
20
-10.2866518813937
30
0
41
1
10
-28.5
20
-10.095113531911
30
0
41
1
10
-28.5
20
-9.95038952754788
30
0
41
1
10
-28.5
20
-9.80435457188474
30
0
41
1
10
-28.5
20
-9.6570150628749
30
0
41
1
10
-28.5
20
-9.50837344479851
30
0
41
1
10
-28.5
20
-9.30810991622684
30
0
41
1
10
-28.5
20
-9.05534969583792
30
0
41
1
10
-28.5
20
-8.79830467826932
30
0
41
1
10
-28.5
20
-8.5894423488798
30
0
41
1
10
-28.5
20
-8.43181570788786
30
0
41
1
10
-28.5
20
-8.27292308432646
30
0
41
1
10
-28.5
20
-8.11277014937082
30
0
41
1
10
-28.5
20
-7.95136176299604
30
0
41
1
10
-28.5
20
-7.73407184285279
30
0
41
1
10
-28.5
20
-7.46030865505759
30
0
41
1
10
-28.5
20
-7.12632144512301
30
0
41
1
10
-28.5
20
-6.84437400802861
30
0
41
1
10
-28.5
20
-6.61554357091569
30
0
41
1
10
-28.5
20
-6.4430903265563
30
0
41
1
10
-28.5
20
-6.26944357118296
30
0
41
1
10
-28.5
20
-6.09461208825527
30
0
41
1
10
-28.5
20
-5.91860495448572
30
0
41
1
10
-28.5
20
-5.74143237747981
30
0
41
1
10
-28.5
20
-5.56310445504442
30
0
41
1
10
-28.5
20
-5.38363156234237
30
0
41
1
10
-28.5
20
-5.2030267003301
30
0
41
1
10
-28.5
20
-5.0213044851898
30
0
41
1
10
-28.5
20
-4.83847943804494
30
0
41
1
10
-28.5
20
-4.65456683421036
30
0
41
1
10
-28.5
20
-4.4695846174555
30
0
41
1
10
-28.5
20
-4.28355297730505
30
0
41
1
10
-28.5
20
-4.09649259176146
30
0
41
1
10
-28.5
20
-3.90842799420625
30
0
41
1
10
-28.5
20
-3.75124942106058
30
0
41
1
10
-28.5
20
-3.62435506854831
30
0
41
1
10
-28.5
20
-3.52924322184191
30
0
41
1
10
-28.5
20
-3.43390157548936
30
0
41
1
10
-28.5
20
-3.30608709676798
30
0
41
1
10
-28.5
20
-3.14669074057869
30
0
41
1
10
-28.5
20
-2.98656948332388
30
0
41
1
10
-28.5
20
-2.8572942882393
30
0
41
1
10
-28.5
20
-2.72777279716706
30
0
41
1
10
-28.5
20
-2.59923374131699
30
0
41
1
10
-28.5
20
-2.46893613943033
30
0
41
1
10
-28.5
20
-2.37140757120352
30
0
41
1
10
-28.5
20
-2.27371679621317
30
0
41
1
10
-28.5
20
-2.17587292609082
30
0
41
1
10
-28.5
20
-2.0778804265363
30
0
41
1
10
-28.5
20
-1.9797500364362
30
0
41
1
10
-28.5
20
-1.88148718140701
30
0
41
1
10
-28.5
20
-1.78310084050699
30
0
41
1
10
-28.5
20
-1.6846006870125
30
0
41
1
10
-28.5
20
-1.58599188781932
30
0
41
1
10
-28.5
20
-1.48728656512978
30
0
41
1
10
-28.5
20
-1.38848913588993
30
0
41
1
10
-28.5
20
-1.28961134189751
30
0
41
1
10
-28.5
20
-1.19065859620264
30
0
41
1
10
-28.5
20
-1.0916407792042
30
0
41
1
10
-28.5
20
-0.992564112169902
30
0
41
1
10
-28.5
20
-0.89343688343348
30
0
41
1
10
-28.5
20
-0.794265459276176
30
0
41
1
10
-28.5
20
-0.695056784277028
30
0
41
1
10
-28.5
20
-0.595816495504096
30
0
41
1
10
-28.5
20
-0.496550594205559
30
0
41
1
10
-28.5
20
-0.397263840424017
30
0
41
1
10
-28.5
20
-0.297961388791691
30
0
41
1
10
-28.5
20
-0.198647127601248
30
0
41
1
10
-28.5
20
-0.0993254684405827
30
0
41
1
10
-28.5
20
5.4725149E-09
30
0
41
1
10
-28.5
20
0.0993254669347436
30
0
41
1
10
-28.5
20
0.198647102840738
30
0
41
1
10
-28.5
20
0.297961366795107
30
0
41
1
10
-28.5
20
0.397263853181812
30
0
41
1
10
-28.5
20
0.49655061320999
30
0
41
1
10
-28.5
20
0.595816468507252
30
0
41
1
10
-28.5
20
0.695056741362833
30
0
41
1
10
-28.5
20
0.794265471937138
30
0
41
1
10
-28.5
20
0.893436923932512
30
0
41
1
10
-28.5
20
0.992564090788449
30
0
41
1
10
-28.5
20
1.09164071478048
30
0
41
1
10
-28.5
20
1.19065859360987
30
0
41
1
10
-28.5
20
1.28961139997082
30
0
41
1
10
-28.5
20
1.38848914320587
30
0
41
1
10
-28.5
20
1.48728649469356
30
0
41
1
10
-28.5
20
1.58599184128096
30
0
41
1
10
-28.5
20
1.68460072925305
30
0
41
1
10
-28.5
20
1.78310090101277
30
0
41
1
10
-28.5
20
1.88148715614122
30
0
41
1
10
-28.5
20
1.97974994874616
30
0
41
1
10
-28.5
20
2.07788039572898
30
0
41
1
10
-28.5
20
2.20905952740142
30
0
41
1
10
-28.5
20
2.33842740009587
30
0
41
1
10
-28.5
20
2.46893611478751
30
0
41
1
10
-28.5
20
2.56629526768589
30
0
41
1
10
-28.5
20
2.66347976206254
30
0
41
1
10
-28.5
20
2.76048089001321
30
0
41
1
10
-28.5
20
2.85729421649611
30
0
41
1
10
-28.5
20
2.9865693987912
30
0
41
1
10
-28.5
20
3.1466907202342
30
0
41
1
10
-28.5
20
3.30608717079298
30
0
41
1
10
-28.5
20
3.43390158445518
30
0
41
1
10
-28.5
20
3.5292431593418
30
0
41
1
10
-28.5
20
3.6243549796439
30
0
41
1
10
-28.5
20
3.75124940963562
30
0
41
1
10
-28.5
20
3.90842813226232
30
0
41
1
10
-28.5
20
4.09649275318179
30
0
41
1
10
-28.5
20
4.28355302808066
30
0
41
1
10
-28.5
20
4.46958486845949
30
0
41
1
10
-28.5
20
4.65456716028001
30
0
41
1
10
-28.5
20
4.83847919931262
30
0
41
1
10
-28.5
20
5.02130422324717
30
0
41
1
10
-28.5
20
5.20302692387259
30
0
41
1
10
-28.5
20
5.38363134733163
30
0
41
1
10
-28.5
20
5.56310357372001
30
0
41
1
10
-28.5
20
5.74143189937953
30
0
41
1
10
-28.5
20
5.91860523667609
30
0
41
1
10
-28.5
20
6.09461246091769
30
0
41
1
10
-28.5
20
6.26944364545889
30
0
41
1
10
-28.5
20
6.44309029411605
30
0
41
1
10
-28.5
20
6.61554359890368
30
0
41
1
10
-28.5
20
6.84437402550569
30
0
41
1
10
-28.5
20
7.12632140637371
30
0
41
1
10
-28.5
20
7.46030866767529
30
0
41
1
10
-28.5
20
7.73407184255308
30
0
41
1
10
-28.5
20
7.9513617118449
30
0
41
1
10
-28.5
20
8.11277014047181
30
0
41
1
10
-28.5
20
8.27292311790589
30
0
41
1
10
-28.5
20
8.43181572672978
30
0
41
1
10
-28.5
20
8.58944232029054
30
0
41
1
10
-28.5
20
8.79830464348919
30
0
41
1
10
-28.5
20
9.05534970701541
30
0
41
1
10
-28.5
20
9.30810992365676
30
0
41
1
10
-28.5
20
9.50837340526908
30
0
41
1
10
-28.5
20
9.65701503611822
30
0
41
1
10
-28.5
20
9.8043545776041
30
0
41
1
10
-28.5
20
9.9503895477591
30
0
41
1
10
-28.5
20
10.0951135357909
30
0
41
1
10
-28.5
20
10.2866518533399
30
0
41
1
10
-28.5
20
10.4745957683654
30
0
41
1
10
-28.5
20
10.6608198079832
30
0
41
1
10
-28.5
20
10.8452681360072
30
0
41
1
10
-28.5
20
11.0718089327864
30
0
41
1
10
-28.5
20
11.2938625434425
30
0
41
1
10
-28.5
20
11.4693068645233
30
0
41
1
10
-28.5
20
11.642935768078
30
0
41
1
10
-28.5
20
11.8130068133241
30
0
41
1
10
-28.5
20
11.9811355431936
30
0
41
1
10
-28.5
20
12.1056498288981
30
0
41
1
10
-28.5
20
12.2287775158425
30
0
41
1
10
-28.5
20
12.3913462445321
30
0
41
1
10
-28.5
20
12.550359403554
30
0
41
1
10
-28.5
20
12.7072977235968
30
0
41
1
10
-28.5
20
12.8234002792818
30
0
41
1
10
-28.5
20
12.9380809359595
30
0
41
1
10
-28.5
20
13.0893180063072
30
0
41
1
10
-28.5
20
13.2369867267196
30
0
41
1
10
-28.5
20
13.3824445287113
30
0
41
1
10
-28.5
20
13.4899116400767
30
0
41
1
10
-28.5
20
13.5959164295663
30
0
41
1
10
-28.5
20
13.7355116027341
30
0
41
1
10
-28.5
20
13.8715103774192
30
0
41
1
10
-28.5
20
14.0051547121626
30
0
41
1
10
-28.5
20
14.1037299196573
30
0
41
1
10
-28.5
20
14.2007962111626
30
0
41
1
10
-28.5
20
14.3283920102608
30
0
41
1
10
-28.5
20
14.4523474056541
30
0
41
1
10
-28.5
20
14.5737935545692
30
0
41
1
10
-28.5
20
14.6631805593238
30
0
41
1
10
-28.5
20
14.7510047173632
30
0
41
1
10
-28.5
20
14.8661866472663
30
0
41
1
10
-28.5
20
14.9776668598204
30
0
41
1
10
-28.5
20
15.0864673138636
30
0
41
1
10
-28.5
20
15.1663215412447
30
0
41
1
10
-28.5
20
15.2445501023872
30
0
41
1
10
-28.5
20
15.3468344295442
30
0
41
1
10
-28.5
20
15.4453363897877
30
0
41
1
10
-28.5
20
15.5409672008416
30
0
41
1
10
-28.5
20
15.6108850520675
30
0
41
1
10
-28.5
20
15.6791035033831
30
0
41
1
10
-28.5
20
15.745608166167
30
0
41
1
10
-28.5
20
15.8103844132607
30
0
41
1
10
-28.5
20
15.8734193498834
30
0
41
1
10
-28.5
20
15.9346970720351
30
0
41
1
10
-28.5
20
16.0141701499498
30
0
41
1
10
-28.5
20
16.0896767577218
30
0
41
1
10
-28.5
20
16.1619255301562
30
0
41
1
10
-28.5
20
16.2317181614776
30
0
41
1
10
-28.5
20
16.2974462059125
30
0
41
1
10
-28.5
20
16.3597331913305
30
0
41
1
10
-28.5
20
16.4194622625482
30
0
41
1
10
-28.5
20
16.4750169305147
30
0
41
1
10
-28.5
20
16.5269199075572
30
0
41
1
10
-28.5
20
16.5637763020886
30
0
41
1
10
-28.5
20
16.5986105790194
30
0
41
1
10
-28.5
20
16.642411510514
30
0
41
1
10
-28.5
20
16.6818353810987
30
0
41
1
10
-28.5
20
16.7172383450784
30
0
41
1
10
-28.5
20
16.7415855338906
30
0
41
1
10
-28.5
20
16.7637529731542
30
0
41
1
10
-28.5
20
16.783709883521
30
0
41
1
10
-28.5
20
16.8014255225769
30
0
41
1
10
-28.5
20
16.8168672741156
30
0
41
1
10
-28.5
20
16.8300011209595
30
0
41
1
10
-28.5
20
16.8407921788659
30
0
41
1
10
-28.5
20
16.8492032887544
30
0
41
1
10
-28.5
20
16.8551966776124
30
0
41
1
10
-28.5
20
16.8587320876464
30
0
41
1
10
-28.5
20
16.8597682913315
30
0
41
1
10
-28.5
20
16.858640152184
30
0
41
1
10
-28.5
20
16.8573445232396
30
0
41
1
10
-28.5
20
16.857062492307
30
0
0
SPLINE
5
E8
100
AcDbEntity
8
SK1
62
256
6
ByLayer
370
18
48
1
60
0
100
AcDbSpline
70
4
71
3
72
26
73
22
40
0
40
0
40
0
40
0
40
0.25
40
0.25
40
0.499999999999999
40
0.499999999999999
40
0.624999999999999
40
0.624999999999999
40
0.6875
40
0.6875
40
0.75
40
0.75
40
0.812500000000001
40
0.812500000000001
40
0.875000000000001
40
0.875000000000001
40
0.906250000000001
40
0.906250000000001
40
0.937500000000001
40
0.937500000000001
40
1
40
1
40
1
40
1
41
1
10
-1.30710678118655
20
3.91806548153784
30
0
41
1
10
-1.27769319780742
20
4.08052093037082
30
0
41
1
10
-1.24421801411853
20
4.24088838641754
30
0
41
1
10
-1.16485205097916
20
4.55692134673205
30
0
41
1
10
-1.11915053894148
20
4.71298625675036
30
0
41
1
10
-1.03398506252532
20
4.9392099164908
30
0
41
1
10
-1.0027921606588
20
5.01338233455047
30
0
41
1
10
-0.948686084794986
20
5.12180889714674
30
0
41
1
10
-0.929413948145793
20
5.15747348576048
30
0
41
1
10
-0.887192676606475
20
5.22746225617868
30
0
41
1
10
-0.864103743652208
20
5.26201593969498
30
0
41
1
10
-0.813044425250183
20
5.32730624386946
30
0
41
1
10
-0.785168859849648
20
5.35822757002268
30
0
41
1
10
-0.720036760129403
20
5.41334643052096
30
0
41
1
10
-0.681932962871826
20
5.43781069903503
30
0
41
1
10
-0.618164109729861
20
5.45755608765882
30
0
41
1
10
-0.595615461332869
20
5.4612647451807
30
0
41
1
10
-0.55041129400459
20
5.46132444639031
30
0
41
1
10
-0.528101012289397
20
5.45772738244918
30
0
41
1
10
-0.464215280711954
20
5.43805975377092
30
0
41
1
10
-0.427403975867804
20
5.41432955957453
30
0
41
1
10
-0.394976888875391
20
5.38678223323953
30
0
0
SPLINE
5
E9
100
AcDbEntity
8
SK1
62
256
6
ByLayer
370
18
48
1
60
0
100
AcDbSpline
70
4
71
3
72
286
73
282
40
0
40
0
40
0
40
0
40
0.0005417973905089
40
0.0040840472921994
40
0.0076262971938899
40
0.0111685470955803
40
0.0147107969972709
40
0.0182530468989614
40
0.0217952968006519
40
0.0253375467023424
40
0.0288797966040329
40
0.0324220465057234
40
0.0359642964074139
40
0.0395065463091044
40
0.0465910461124854
40
0.0501332960141758
40
0.0536755459158664
40
0.0572177958175569
40
0.0607600457192474
40
0.0678445455226284
40
0.0713867954243188
40
0.0749290453260093
40
0.0820135451293904
40
0.0855557950310809
40
0.0890980449327713
40
0.0961825447361524
40
0.0997247946378429
40
0.103267044539533
40
0.106809294441224
40
0.110351544342914
40
0.113893794244605
40
0.117436044146295
40
0.120978294047986
40
0.124520543949676
40
0.131605043753057
40
0.135147293654748
40
0.138689543556438
40
0.142231793458129
40
0.145774043359819
40
0.1528585431632
40
0.156400793064891
40
0.159943042966581
40
0.163485292868272
40
0.167027542769962
40
0.174112042573343
40
0.177654292475034
40
0.181196542376724
40
0.184738792278415
40
0.188281042180105
40
0.195365541983486
40
0.198907791885177
40
0.202450041786867
40
0.205992291688558
40
0.209534541590248
40
0.216619041393629
40
0.22016129129532
40
0.22370354119701
40
0.227245791098701
40
0.230788041000391
40
0.237872540803772
40
0.241414790705463
40
0.244957040607153
40
0.248499290508844
40
0.252041540410534
40
0.259126040213915
40
0.262668290115606
40
0.266210540017296
40
0.273295039820677
40
0.280379539624058
40
0.283921789525749
40
0.287464039427439
40
0.29454853923082
40
0.298090789132511
40
0.301633039034201
40
0.305175288935892
40
0.308717538837582
40
0.312259788739273
40
0.315802038640963
40
0.322886538444344
40
0.329971038247725
40
0.333513288149416
40
0.337055538051106
40
0.340597787952797
40
0.344140037854487
40
0.347682287756178
40
0.351224537657868
40
0.358309037461249
40
0.36539353726463
40
0.372478037068011
40
0.376020286969702
40
0.379562536871392
40
0.383104786773083
40
0.386647036674773
40
0.390189286576464
40
0.393731536478154
40
0.397273786379845
40
0.400816036281535
40
0.404358286183226
40
0.407900536084916
40
0.411442785986607
40
0.414985035888297
40
0.418527285789988
40
0.422069535691678
40
0.425611785593369
40
0.429154035495059
40
0.43269628539675
40
0.434467410347595
40
0.43623853529844
40
0.438009660249286
40
0.439780785200131
40
0.443323035101821
40
0.446865285003512
40
0.448636409954357
40
0.450407534905202
40
0.452178659856047
40
0.453949784806893
40
0.455720909757738
40
0.457492034708583
40
0.461034284610274
40
0.462805409561119
40
0.464576534511964
40
0.466347659462809
40
0.468118784413655
40
0.4698899093645
40
0.471661034315345
40
0.47343215926619
40
0.475203284217036
40
0.476974409167881
40
0.478745534118726
40
0.480516659069572
40
0.482287784020417
40
0.484058908971262
40
0.485830033922107
40
0.487601158872953
40
0.489372283823798
40
0.491143408774643
40
0.492914533725488
40
0.494685658676334
40
0.496456783627179
40
0.498227908578024
40
0.499999033528869
40
0.501770158479715
40
0.50354128343056
40
0.505312408381405
40
0.50708353333225
40
0.508854658283096
40
0.510625783233941
40
0.512396908184786
40
0.514168033135631
40
0.515939158086476
40
0.517710283037322
40
0.519481407988167
40
0.521252532939012
40
0.523023657889858
40
0.524794782840703
40
0.526565907791548
40
0.528337032742393
40
0.530108157693239
40
0.531879282644084
40
0.533650407594929
40
0.535421532545774
40
0.537192657496619
40
0.538963782447465
40
0.54073490739831
40
0.542506032349155
40
0.5442771573
40
0.546048282250846
40
0.549590532152536
40
0.551361657103382
40
0.553132782054227
40
0.556675031955917
40
0.560217281857608
40
0.561988406808453
40
0.563759531759298
40
0.565530656710144
40
0.567301781660989
40
0.570844031562679
40
0.57438628146437
40
0.57792853136606
40
0.581470781267751
40
0.585013031169441
40
0.588555281071132
40
0.592097530972822
40
0.595639780874513
40
0.599182030776203
40
0.602724280677894
40
0.606266530579584
40
0.609808780481275
40
0.613351030382965
40
0.616893280284656
40
0.620435530186346
40
0.623977780088037
40
0.627520029989727
40
0.634604529793108
40
0.641689029596489
40
0.64877352939987
40
0.652315779301561
40
0.655858029203251
40
0.659400279104942
40
0.662942529006632
40
0.666484778908323
40
0.670027028810013
40
0.677111528613394
40
0.684196028416775
40
0.687738278318466
40
0.691280528220156
40
0.694822778121847
40
0.698365028023537
40
0.701907277925228
40
0.705449527826918
40
0.712534027630299
40
0.71607627753199
40
0.71961852743368
40
0.726703027237061
40
0.733787527040442
40
0.737329776942133
40
0.740872026843823
40
0.747956526647204
40
0.751498776548895
40
0.755041026450585
40
0.758583276352276
40
0.762125526253966
40
0.769210026057347
40
0.772752275959038
40
0.776294525860728
40
0.779836775762419
40
0.783379025664109
40
0.79046352546749
40
0.794005775369181
40
0.797548025270871
40
0.801090275172562
40
0.804632525074252
40
0.811717024877633
40
0.815259274779324
40
0.818801524681014
40
0.822343774582705
40
0.825886024484395
40
0.832970524287776
40
0.836512774189467
40
0.840055024091157
40
0.841826149042002
40
0.843597273992848
40
0.847139523894538
40
0.854224023697919
40
0.85776627359961
40
0.8613085235013
40
0.864850773402991
40
0.868393023304681
40
0.875477523108062
40
0.879019773009753
40
0.882562022911443
40
0.886104272813134
40
0.889646522714824
40
0.893188772616515
40
0.896731022518205
40
0.900273272419896
40
0.903815522321586
40
0.910900022124967
40
0.914442272026658
40
0.917984521928348
40
0.925069021731729
40
0.92861127163342
40
0.93215352153511
40
0.939238021338491
40
0.942780271240182
40
0.946322521141872
40
0.949864771043563
40
0.953407020945253
40
0.960491520748634
40
0.964033770650325
40
0.967576020552015
40
0.971118270453706
40
0.974660520355396
40
0.978202770257086
40
0.981745020158777
40
0.985287270060468
40
0.988829519962158
40
0.992371769863849
40
0.995914019765539
40
0.99945626966723
40
1
40
1
40
1
40
1
41
1
10
-30
20
15.9926520831668
30
0
41
1
10
-30
20
15.992559940547
30
0
41
1
10
-30
20
15.9917953976762
30
0
41
1
10
-30
20
15.9893850921089
30
0
41
1
10
-30
20
15.9836860314146
30
0
41
1
10
-30
20
15.9756808210229
30
0
41
1
10
-30
20
15.9654018084481
30
0
41
1
10
-30
20
15.9528811264941
30
0
41
1
10
-30
20
15.9381491278438
30
0
41
1
10
-30
20
15.9212355486336
30
0
41
1
10
-30
20
15.9021692443494
30
0
41
1
10
-30
20
15.8809772874923
30
0
41
1
10
-30
20
15.85768719628
30
0
41
1
10
-30
20
15.8237020449635
30
0
41
1
10
-30
20
15.786151572388
30
0
41
1
10
-30
20
15.7440467976174
30
0
41
1
10
-30
20
15.7106366986067
30
0
41
1
10
-30
20
15.6752710038507
30
0
41
1
10
-30
20
15.6253102414823
30
0
41
1
10
-30
20
15.5722298833996
30
0
41
1
10
-30
20
15.5146768571488
30
0
41
1
10
-30
20
15.454635155867
30
0
41
1
10
-30
20
15.3917322415494
30
0
41
1
10
-30
20
15.3243986601424
30
0
41
1
10
-30
20
15.2546726017927
30
0
41
1
10
-30
20
15.1823145630236
30
0
41
1
10
-30
20
15.1055630554725
30
0
41
1
10
-30
20
15.0465122402176
30
0
41
1
10
-30
20
14.985753516587
30
0
41
1
10
-30
20
14.9233034368069
30
0
41
1
10
-30
20
14.8591738020485
30
0
41
1
10
-30
20
14.7933781380804
30
0
41
1
10
-30
20
14.7259318150055
30
0
41
1
10
-30
20
14.6334478809413
30
0
41
1
10
-30
20
14.5388306139923
30
0
41
1
10
-30
20
14.4398724968665
30
0
41
1
10
-30
20
14.3643499358607
30
0
41
1
10
-30
20
14.2872489988171
30
0
41
1
10
-30
20
14.1819460940194
30
0
41
1
10
-30
20
14.0747689624993
30
0
41
1
10
-30
20
13.9632604256822
30
0
41
1
10
-30
20
13.8784200007502
30
0
41
1
10
-30
20
13.7920640526129
30
0
41
1
10
-30
20
13.674463030797
30
0
41
1
10
-30
20
13.5552283874056
30
0
41
1
10
-30
20
13.4316550911985
30
0
41
1
10
-30
20
13.337853067095
30
0
41
1
10
-30
20
13.2425907988595
30
0
41
1
10
-30
20
13.1131460860381
30
0
41
1
10
-30
20
12.9822967545723
30
0
41
1
10
-30
20
12.847084683004
30
0
41
1
10
-30
20
12.7446351532221
30
0
41
1
10
-30
20
12.6407746180398
30
0
41
1
10
-30
20
12.499887311655
30
0
41
1
10
-30
20
12.3578191289812
30
0
41
1
10
-30
20
12.2113468162578
30
0
41
1
10
-30
20
12.100530667573
30
0
41
1
10
-30
20
11.9883478761207
30
0
41
1
10
-30
20
11.836377249174
30
0
41
1
10
-30
20
11.6834503922585
30
0
41
1
10
-30
20
11.5260594948948
30
0
41
1
10
-30
20
11.4071324366749
30
0
41
1
10
-30
20
11.2868794886981
30
0
41
1
10
-30
20
11.1241532157817
30
0
41
1
10
-30
20
10.9607029988619
30
0
41
1
10
-30
20
10.7927086404326
30
0
41
1
10
-30
20
10.6229844866849
30
0
41
1
10
-30
20
10.4091173939315
30
0
41
1
10
-30
20
10.1909959678347
30
0
41
1
10
-30
20
10.0126979588287
30
0
41
1
10
-30
20
9.83272430289384
30
0
41
1
10
-30
20
9.65245023276196
30
0
41
1
10
-30
20
9.46744871362009
30
0
41
1
10
-30
20
9.32804093460692
30
0
41
1
10
-30
20
9.18740563851225
30
0
41
1
10
-30
20
9.0455543785921
30
0
41
1
10
-30
20
8.90249044231982
30
0
41
1
10
-30
20
8.70931958714519
30
0
41
1
10
-30
20
8.46674616603482
30
0
41
1
10
-30
20
8.22021686294167
30
0
41
1
10
-30
20
8.01906836645577
30
0
41
1
10
-30
20
7.86773085832667
30
0
41
1
10
-30
20
7.71524241280142
30
0
41
1
10
-30
20
7.56161298420645
30
0
41
1
10
-30
20
7.40685260452798
30
0
41
1
10
-30
20
7.19804202206524
30
0
41
1
10
-30
20
6.93651252502835
30
0
41
1
10
-30
20
6.61705894701072
30
0
41
1
10
-30
20
6.34834996432815
30
0
41
1
10
-30
20
6.12929373929515
30
0
41
1
10
-30
20
5.96484945115367
30
0
41
1
10
-30
20
5.7993974381898
30
0
41
1
10
-30
20
5.63295542814623
30
0
41
1
10
-30
20
5.46554083189747
30
0
41
1
10
-30
20
5.29717335727497
30
0
41
1
10
-30
20
5.12787591307327
30
0
41
1
10
-30
20
4.9576706384986
30
0
41
1
10
-30
20
4.78658071628459
30
0
41
1
10
-30
20
4.6146335506248
30
0
41
1
10
-30
20
4.44186113006069
30
0
41
1
10
-30
20
4.26829321973949
30
0
41
1
10
-30
20
4.09396155182321
30
0
41
1
10
-30
20
3.91890592173868
30
0
41
1
10
-30
20
3.74316620306936
30
0
41
1
10
-30
20
3.56678705857649
30
0
41
1
10
-30
20
3.42015123791836
30
0
41
1
10
-30
20
3.3009810984795
30
0
41
1
10
-30
20
3.21216327477833
30
0
41
1
10
-30
20
3.12322377081893
30
0
41
1
10
-30
20
3.00356413190352
30
0
41
1
10
-30
20
2.85589664233001
30
0
41
1
10
-30
20
2.70788037697056
30
0
41
1
10
-30
20
2.58749550859633
30
0
41
1
10
-30
20
2.49793822974365
30
0
41
1
10
-30
20
2.40833000131903
30
0
41
1
10
-30
20
2.31867596083524
30
0
41
1
10
-30
20
2.22899146909501
30
0
41
1
10
-30
20
2.10827328924756
30
0
41
1
10
-30
20
1.99097459417121
30
0
41
1
10
-30
20
1.87012467714987
30
0
41
1
10
-30
20
1.78043031683035
30
0
41
1
10
-30
20
1.69076251244053
30
0
41
1
10
-30
20
1.60113247848605
30
0
41
1
10
-30
20
1.51155313609783
30
0
41
1
10
-30
20
1.422025757727
30
0
41
1
10
-30
20
1.33256776537959
30
0
41
1
10
-30
20
1.24317741509074
30
0
41
1
10
-30
20
1.15386860885192
30
0
41
1
10
-30
20
1.06464013673647
30
0
41
1
10
-30
20
0.975500136218244
30
0
41
1
10
-30
20
0.886447988926847
30
0
41
1
10
-30
20
0.797485776681128
30
0
41
1
10
-30
20
0.708610852102623
30
0
41
1
10
-30
20
0.61982073744278
30
0
41
1
10
-30
20
0.531109764951225
30
0
41
1
10
-30
20
0.442471434007643
30
0
41
1
10
-30
20
0.35389600796347
30
0
41
1
10
-30
20
0.265373879214224
30
0
41
1
10
-30
20
0.176892371692162
30
0
41
1
10
-30
20
0.0884392148653887
30
0
41
1
10
-30
20
2.04973958E-08
30
0
41
1
10
-30
20
-0.0884392031952927
30
0
41
1
10
-30
20
-0.17689241471993
30
0
41
1
10
-30
20
-0.265373915570137
30
0
41
1
10
-30
20
-0.353895962579486
30
0
41
1
10
-30
20
-0.442471374506823
30
0
41
1
10
-30
20
-0.531109813902646
30
0
41
1
10
-30
20
-0.61982082298212
30
0
41
1
10
-30
20
-0.70861080655007
30
0
41
1
10
-30
20
-0.797485667180155
30
0
41
1
10
-30
20
-0.886448026006832
30
0
41
1
10
-30
20
-0.97550027278379
30
0
41
1
10
-30
20
-1.06464012636249
30
0
41
1
10
-30
20
-1.1538684580087
30
0
41
1
10
-30
20
-1.24317738635406
30
0
41
1
10
-30
20
-1.33256791795026
30
0
41
1
10
-30
20
-1.42202585063245
30
0
41
1
10
-30
20
-1.5115530207047
30
0
41
1
10
-30
20
-1.60113232466117
30
0
41
1
10
-30
20
-1.69076256252157
30
0
41
1
10
-30
20
-1.78043050963589
30
0
41
1
10
-30
20
-1.87012473193457
30
0
41
1
10
-30
20
-1.95984062320625
30
0
41
1
10
-30
20
-2.04956121840735
30
0
41
1
10
-30
20
-2.13928298465069
30
0
41
1
10
-30
20
-2.22899154181988
30
0
41
1
10
-30
20
-2.34971237639812
30
0
41
1
10
-30
20
-2.4670581044816
30
0
41
1
10
-30
20
-2.58749567267543
30
0
41
1
10
-30
20
-2.70788056755165
30
0
41
1
10
-30
20
-2.85589666602098
30
0
41
1
10
-30
20
-3.00356394920902
30
0
41
1
10
-30
20
-3.12322374659235
30
0
41
1
10
-30
20
-3.21216341650842
30
0
41
1
10
-30
20
-3.3009812939207
30
0
41
1
10
-30
20
-3.4201512431562
30
0
41
1
10
-30
20
-3.56678672363677
30
0
41
1
10
-30
20
-3.74316585626101
30
0
41
1
10
-30
20
-3.91890584757377
30
0
41
1
10
-30
20
-4.09396100129445
30
0
41
1
10
-30
20
-4.26829259541552
30
0
41
1
10
-30
20
-4.44186183082067
30
0
41
1
10
-30
20
-4.61463414914383
30
0
41
1
10
-30
20
-4.78658021025493
30
0
41
1
10
-30
20
-4.95767123056282
30
0
41
1
10
-30
20
-5.1278778625566
30
0
41
1
10
-30
20
-5.29717415068043
30
0
41
1
10
-30
20
-5.46553992297876
30
0
41
1
10
-30
20
-5.63295448869491
30
0
41
1
10
-30
20
-5.79939725011727
30
0
41
1
10
-30
20
-5.96484950556561
30
0
41
1
10
-30
20
-6.1292936535483
30
0
41
1
10
-30
20
-6.34834993475852
30
0
41
1
10
-30
20
-6.6170590196507
30
0
41
1
10
-30
20
-6.93651248001379
30
0
41
1
10
-30
20
-7.19804203228608
30
0
41
1
10
-30
20
-7.40685270744595
30
0
41
1
10
-30
20
-7.56161297986856
30
0
41
1
10
-30
20
-7.71524232371232
30
0
41
1
10
-30
20
-7.86773082006812
30
0
41
1
10
-30
20
-8.01906843480592
30
0
41
1
10
-30
20
-8.22021692135615
30
0
41
1
10
-30
20
-8.46674612315107
30
0
41
1
10
-30
20
-8.7093195790371
30
0
41
1
10
-30
20
-8.90249052457438
30
0
41
1
10
-30
20
-9.04555441784282
30
0
41
1
10
-30
20
-9.18740560593943
30
0
41
1
10
-30
20
-9.32804088163152
30
0
41
1
10
-30
20
-9.46744870809565
30
0
41
1
10
-30
20
-9.65245029192155
30
0
41
1
10
-30
20
-9.83272433616031
30
0
41
1
10
-30
20
-10.0126979221092
30
0
41
1
10
-30
20
-10.1909959517429
30
0
41
1
10
-30
20
-10.4091174330404
30
0
41
1
10
-30
20
-10.6229845090751
30
0
41
1
10
-30
20
-10.7927086151923
30
0
41
1
10
-30
20
-10.9607029915804
30
0
41
1
10
-30
20
-11.1241532476502
30
0
41
1
10
-30
20
-11.286879520772
30
0
41
1
10
-30
20
-11.4071324437642
30
0
41
1
10
-30
20
-11.526059483736
30
0
41
1
10
-30
20
-11.6834503898541
30
0
41
1
10
-30
20
-11.8363772717575
30
0
41
1
10
-30
20
-11.9883479026383
30
0
41
1
10
-30
20
-12.100530681097
30
0
41
1
10
-30
20
-12.211346817793
30
0
41
1
10
-30
20
-12.3578191303265
30
0
41
1
10
-30
20
-12.4998873251013
30
0
41
1
10
-30
20
-12.640774639564
30
0
41
1
10
-30
20
-12.7446351726738
30
0
41
1
10
-30
20
-12.8470846962099
30
0
41
1
10
-30
20
-12.9822967603461
30
0
41
1
10
-30
20
-13.1131460918651
30
0
41
1
10
-30
20
-13.2425908150843
30
0
41
1
10
-30
20
-13.3378530905647
30
0
41
1
10
-30
20
-13.431655102243
30
0
41
1
10
-30
20
-13.5552284439381
30
0
41
1
10
-30
20
-13.6744629632361
30
0
41
1
10
-30
20
-13.7920640428987
30
0
41
1
10
-30
20
-13.8638084100541
30
0
41
1
10
-30
20
-13.9208384799595
30
0
41
1
10
-30
20
-13.9773600368974
30
0
41
1
10
-30
20
-14.0747689786766
30
0
41
1
10
-30
20
-14.1819460903518
30
0
41
1
10
-30
20
-14.2872490063531
30
0
41
1
10
-30
20
-14.3643499644422
30
0
41
1
10
-30
20
-14.4398725346097
30
0
41
1
10
-30
20
-14.5388306330265
30
0
41
1
10
-30
20
-14.6334478734244
30
0
41
1
10
-30
20
-14.7259318226356
30
0
41
1
10
-30
20
-14.793378171537
30
0
41
1
10
-30
20
-14.8591738437125
30
0
41
1
10
-30
20
-14.9233034607296
30
0
41
1
10
-30
20
-14.9857535133679
30
0
41
1
10
-30
20
-15.0465122321639
30
0
41
1
10
-30
20
-15.1055630695376
30
0
41
1
10
-30
20
-15.1823146060513
30
0
41
1
10
-30
20
-15.2546726312332
30
0
41
1
10
-30
20
-15.3243986497297
30
0
41
1
10
-30
20
-15.3917322452796
30
0
41
1
10
-30
20
-15.4546352005829
30
0
41
1
10
-30
20
-15.5146768877911
30
0
41
1
10
-30
20
-15.5722298782127
30
0
41
1
10
-30
20
-15.6253102421943
30
0
41
1
10
-30
20
-15.6752710489662
30
0
41
1
10
-30
20
-15.7106367362118
30
0
41
1
10
-30
20
-15.7440468008705
30
0
41
1
10
-30
20
-15.7861515665346
30
0
41
1
10
-30
20
-15.8237020814765
30
0
41
1
10
-30
20
-15.8576872273509
30
0
41
1
10
-30
20
-15.8809772969169
30
0
41
1
10
-30
20
-15.9021692417172
30
0
41
1
10
-30
20
-15.921235563756
30
0
41
1
10
-30
20
-15.9381491696965
30
0
41
1
10
-30
20
-15.9528811556007
30
0
41
1
10
-30
20
-15.9654018081648
30
0
41
1
10
-30
20
-15.9756808201301
30
0
41
1
10
-30
20
-15.9836860510364
30
0
41
1
10
-30
20
-15.989385071505
30
0
41
1
10
-30
20
-15.9917958956038
30
0
41
1
10
-30
20
-15.9925605158628
30
0
41
1
10
-30
20
-15.9926529163764
30
0
0
SPLINE
5
EA
100
AcDbEntity
8
SK1
62
256
6
ByLayer
370
18
48
1
60
0
100
AcDbSpline
70
4
71
3
72
26
73
22
40
0
40
0
40
0
40
0
40
0.249999999999997
40
0.249999999999997
40
0.499999999999994
40
0.499999999999994
40
0.624999999999994
40
0.624999999999994
40
0.749999999999994
40
0.749999999999994
40
0.812499999999994
40
0.812499999999994
40
0.874999999999994
40
0.874999999999994
40
0.906249999999996
40
0.906249999999996
40
0.937499999999997
40
0.937499999999997
40
0.968749999999999
40
0.968749999999999
40
1
40
1
40
1
40
1
41
1
10
-0.199999999999989
20
-6.10344849123055
30
0
41
1
10
-0.199999999999989
20
-6.03658343849247
30
0
41
1
10
-0.201307915401514
20
-5.96945919325992
30
0
41
1
10
-0.207636972094093
20
-5.834608864394
30
0
41
1
10
-0.21257985055334
20
-5.76680281418186
30
0
41
1
10
-0.224951590332722
20
-5.66479408005213
30
0
41
1
10
-0.229904281870205
20
-5.63080031605782
30
0
41
1
10
-0.24252152347114
20
-5.56290531314949
30
0
41
1
10
-0.250117086737561
20
-5.52896458934302
30
0
41
1
10
-0.265414899342289
20
-5.47925984090534
30
0
41
1
10
-0.271171206812227
20
-5.46286741312713
30
0
41
1
10
-0.285126828250384
20
-5.43075649789992
30
0
41
1
10
-0.293370777796042
20
-5.41464883184736
30
0
41
1
10
-0.309754325583356
20
-5.39312762647262
30
0
41
1
10
-0.315906755851444
20
-5.38639867120833
30
0
41
1
10
-0.33043328177348
20
-5.37534138513305
30
0
41
1
10
-0.338822824507901
20
-5.37123289411579
30
0
41
1
10
-0.356328976513879
20
-5.36848804676438
30
0
41
1
10
-0.365355266428651
20
-5.36994612574293
30
0
41
1
10
-0.381274177460853
20
-5.37639293798043
30
0
41
1
10
-0.3884397087092
20
-5.38122846522199
30
0
41
1
10
-0.394976888875334
20
-5.38678189578178
30
0
0
SPLINE
5
EB
100
AcDbEntity
8
SK1
62
256
6
ByLayer
370
18
48
1
60
0
100
AcDbSpline
70
4
71
3
72
20
73
16
40
0
40
0
40
0
40
0
40
0.25
40
0.25
40
0.375
40
0.375
40
0.4375
40
0.4375
40
0.5
40
0.5
40
0.75
40
0.75
40
0.875
40
0.875
40
1
40
1
40
1
40
1
41
1
10
-1.30710678118655
20
3.91806548153784
30
0
41
1
10
-1.41969318564739
20
3.29623458683108
30
0
41
1
10
-1.52084354897499
20
2.66117243128363
30
0
41
1
10
-1.6328468131714
20
1.68012366058514
30
0
41
1
10
-1.66339462407873
20
1.34828924094137
30
0
41
1
10
-1.69495092810294
20
0.841576693078679
30
0
41
1
10
-1.70306621291687
20
0.670912483956471
30
0
41
1
10
-1.71379105874195
20
0.332128346739978
30
0
41
1
10
-1.71645137733401
20
0.163332447807789
30
0
41
1
10
-1.71619101064633
20
-0.677685636180797
30
0
41
1
10
-1.6712581001311
20
-1.34087191657739
30
0
41
1
10
-1.55943898894102
20
-2.32447859217888
30
0
41
1
10
-1.51483394489827
20
-2.65120399662447
30
0
41
1
10
-1.41687703207165
20
-3.29188260724436
30
0
41
1
10
-1.36340682815234
20
-3.60711221095696
30
0
41
1
10
-1.30710678118655
20
-3.91806548057696
30
0
0
SPLINE
5
EC
100
AcDbEntity
8
SK1
62
256
6
ByLayer
370
18
48
1
60
0
100
AcDbSpline
70
4
71
3
72
282
73
278
40
0
40
0
40
0
40
0
40
0.0031738278359444
40
0.0067481146600369
40
0.0103224014841294
40
0.0138966883082218
40
0.0174709751323143
40
0.0210452619564068
40
0.0246195487804993
40
0.0281938356045917
40
0.0317681224286842
40
0.0353424092527767
40
0.0424909829009616
40
0.0460652697250541
40
0.0496395565491466
40
0.0532138433732391
40
0.0567881301973315
40
0.0639367038455165
40
0.0675109906696089
40
0.0710852774937014
40
0.0782338511418864
40
0.0818081379659788
40
0.0853824247900713
40
0.0925309984382563
40
0.0961052852623487
40
0.0996795720864412
40
0.103253858910534
40
0.106828145734626
40
0.110402432558719
40
0.113976719382811
40
0.117551006206904
40
0.121125293030996
40
0.128273866679181
40
0.131848153503274
40
0.135422440327366
40
0.138996727151458
40
0.142571013975551
40
0.149719587623736
40
0.153293874447828
40
0.155081017859874
40
0.156868161271921
40
0.160442448096013
40
0.164016734920106
40
0.171165308568291
40
0.174739595392383
40
0.178313882216476
40
0.181888169040568
40
0.185462455864661
40
0.192611029512846
40
0.196185316336938
40
0.19975960316103
40
0.203333889985123
40
0.206908176809215
40
0.2140567504574
40
0.217631037281493
40
0.221205324105585
40
0.224779610929678
40
0.22835389775377
40
0.235502471401955
40
0.239076758226048
40
0.24265104505014
40
0.246225331874233
40
0.249799618698325
40
0.25694819234651
40
0.260522479170603
40
0.264096765994695
40
0.27124533964288
40
0.278393913291065
40
0.281968200115157
40
0.28554248693925
40
0.292691060587435
40
0.296265347411527
40
0.29983963423562
40
0.303413921059712
40
0.306988207883805
40
0.310562494707897
40
0.31413678153199
40
0.321285355180174
40
0.328433928828359
40
0.332008215652452
40
0.335582502476544
40
0.339156789300637
40
0.342731076124729
40
0.346305362948822
40
0.349879649772914
40
0.357028223421099
40
0.364176797069284
40
0.371325370717469
40
0.374899657541562
40
0.378473944365654
40
0.382048231189747
40
0.385622518013839
40
0.389196804837932
40
0.392771091662024
40
0.396345378486117
40
0.399919665310209
40
0.403493952134301
40
0.407068238958394
40
0.410642525782486
40
0.414216812606579
40
0.417791099430671
40
0.421365386254764
40
0.424939673078856
40
0.428513959902949
40
0.432088246727041
40
0.433875390139087
40
0.435662533551134
40
0.43744967696318
40
0.439236820375226
40
0.442811107199319
40
0.446385394023411
40
0.448172537435457
40
0.449959680847504
40
0.453533967671596
40
0.455321111083642
40
0.457108254495688
40
0.458895397907735
40
0.460682541319781
40
0.462469684731827
40
0.464256828143873
40
0.46604397155592
40
0.467831114967966
40
0.469618258380012
40
0.471405401792058
40
0.473192545204105
40
0.474979688616151
40
0.476766832028197
40
0.478553975440243
40
0.48034111885229
40
0.482128262264336
40
0.483915405676382
40
0.485702549088428
40
0.487489692500475
40
0.489276835912521
40
0.491063979324567
40
0.492851122736613
40
0.49463826614866
40
0.496425409560706
40
0.498212552972752
40
0.499999696384798
40
0.501786839796844
40
0.503573983208891
40
0.505361126620937
40
0.507148270032983
40
0.508935413445029
40
0.510722556857076
40
0.512509700269122
40
0.514296843681168
40
0.516083987093214
40
0.517871130505261
40
0.519658273917307
40
0.521445417329353
40
0.523232560741399
40
0.525019704153446
40
0.526806847565492
40
0.528593990977538
40
0.530381134389584
40
0.53216827780163
40
0.533955421213677
40
0.535742564625723
40
0.537529708037769
40
0.539316851449815
40
0.542891138273908
40
0.544678281685954
40
0.546465425098
40
0.548252568510047
40
0.550039711922093
40
0.551826855334139
40
0.553613998746185
40
0.557188285570278
40
0.56076257239437
40
0.562549715806416
40
0.564336859218463
40
0.566124002630509
40
0.567911146042555
40
0.571485432866648
40
0.57505971969074
40
0.578634006514833
40
0.582208293338925
40
0.585782580163018
40
0.58935686698711
40
0.592931153811202
40
0.596505440635295
40
0.600079727459387
40
0.60365401428348
40
0.607228301107572
40
0.610802587931665
40
0.614376874755757
40
0.61795116157985
40
0.621525448403942
40
0.625099735228035
40
0.628674022052127
40
0.635822595700312
40
0.642971169348497
40
0.650119742996682
40
0.653694029820775
40
0.657268316644867
40
0.66084260346896
40
0.664416890293052
40
0.667991177117144
40
0.671565463941237
40
0.678714037589422
40
0.685862611237607
40
0.689436898061699
40
0.693011184885792
40
0.696585471709884
40
0.700159758533977
40
0.703734045358069
40
0.707308332182162
40
0.714456905830347
40
0.718031192654439
40
0.721605479478531
40
0.728754053126716
40
0.735902626774901
40
0.739476913598994
40
0.743051200423086
40
0.750199774071271
40
0.753774060895364
40
0.757348347719456
40
0.760922634543549
40
0.764496921367641
40
0.771645495015826
40
0.775219781839919
40
0.778794068664011
40
0.782368355488103
40
0.785942642312196
40
0.793091215960381
40
0.796665502784473
40
0.800239789608566
40
0.803814076432658
40
0.807388363256751
40
0.814536936904936
40
0.818111223729028
40
0.821685510553121
40
0.825259797377213
40
0.828834084201306
40
0.835982657849491
40
0.839556944673583
40
0.843131231497676
40
0.846705518321768
40
0.850279805145861
40
0.857428378794046
40
0.861002665618138
40
0.86457695244223
40
0.868151239266323
40
0.871725526090415
40
0.8788740997386
40
0.882448386562693
40
0.886022673386785
40
0.889596960210878
40
0.89317124703497
40
0.896745533859063
40
0.900319820683155
40
0.903894107507248
40
0.90746839433134
40
0.914616967979525
40
0.918191254803618
40
0.92176554162771
40
0.928914115275895
40
0.932488402099987
40
0.93606268892408
40
0.943211262572265
40
0.946785549396357
40
0.95035983622045
40
0.953934123044542
40
0.957508409868635
40
0.96465698351682
40
0.968231270340912
40
0.971805557165005
40
0.975379843989097
40
0.97895413081319
40
0.982528417637282
40
0.986102704461375
40
0.989676991285467
40
0.993251278109559
40
0.996825564933652
40
1
40
1
40
1
40
1
41
1
10
-2.19999999999996
20
-17.5147865478516
30
0
41
1
10
-2.19999999999996
20
-17.513238768371
30
0
41
1
10
-2.20000000000002
20
-17.5092374636645
30
0
41
1
10
-2.19999999999999
20
-17.5008423321234
30
0
41
1
10
-2.19999999999999
20
-17.4896606126055
30
0
41
1
10
-2.19999999999999
20
-17.4760589706817
30
0
41
1
10
-2.19999999999999
20
-17.4600756994924
30
0
41
1
10
-2.19999999999999
20
-17.4417480876219
30
0
41
1
10
-2.19999999999999
20
-17.4211116738093
30
0
41
1
10
-2.19999999999999
20
-17.398199993695
30
0
41
1
10
-2.19999999999999
20
-17.3730462873428
30
0
41
1
10
-2.19999999999999
20
-17.3365615705832
30
0
41
1
10
-2.19999999999999
20
-17.2957083328928
30
0
41
1
10
-2.19999999999999
20
-17.250613323192
30
0
41
1
10
-2.19999999999999
20
-17.2146924603873
30
0
41
1
10
-2.19999999999999
20
-17.1766986986672
30
0
41
1
10
-2.19999999999999
20
-17.123313852319
30
0
41
1
10
-2.19999999999999
20
-17.0658713913631
30
0
41
1
10
-2.19999999999999
20
-17.0044820909957
30
0
41
1
10
-2.19999999999999
20
-16.9404820184079
30
0
41
1
10
-2.19999999999999
20
-16.8725984731112
30
0
41
1
10
-2.19999999999999
20
-16.8009296884544
30
0
41
1
10
-2.19999999999999
20
-16.7267561914694
30
0
41
1
10
-2.19999999999999
20
-16.6488473199257
30
0
41
1
10
-2.19999999999999
20
-16.5672977619412
30
0
41
1
10
-2.19999999999999
20
-16.5043209901434
30
0
41
1
10
-2.19999999999999
20
-16.439549393056
30
0
41
1
10
-2.19999999999999
20
-16.3729983688048
30
0
41
1
10
-2.19999999999999
20
-16.3046816359758
30
0
41
1
10
-2.19999999999999
20
-16.2346146707391
30
0
41
1
10
-2.19999999999999
20
-16.1628111223414
30
0
41
1
10
-2.19999999999999
20
-16.0647793597711
30
0
41
1
10
-2.19999999999999
20
-15.9633135259672
30
0
41
1
10
-2.19999999999999
20
-15.8584914079188
30
0
41
1
10
-2.19999999999999
20
-15.7781982539187
30
0
41
1
10
-2.19999999999999
20
-15.6962433571227
30
0
41
1
10
-2.19999999999999
20
-15.5847743990242
30
0
41
1
10
-2.19999999999999
20
-15.4700110929875
30
0
41
1
10
-2.19999999999999
20
-15.3667724139347
30
0
41
1
10
-2.19999999999999
20
-15.3069761679616
30
0
41
1
10
-2.19999999999999
20
-15.2466455133785
30
0
41
1
10
-2.19999999999999
20
-15.1702261509224
30
0
41
1
10
-2.19999999999999
20
-15.0458464314392
30
0
41
1
10
-2.19999999999999
20
-14.9182892218295
30
0
41
1
10
-2.19999999999999
20
-14.7876243995297
30
0
41
1
10
-2.19999999999999
20
-14.6880675812844
30
0
41
1
10
-2.19999999999999
20
-14.5869647126432
30
0
41
1
10
-2.19999999999999
20
-14.4501162106047
30
0
41
1
10
-2.19999999999999
20
-14.3101885914782
30
0
41
1
10
-2.19999999999999
20
-14.1672492642274
30
0
41
1
10
-2.19999999999999
20
-14.0585319334344
30
0
41
1
10
-2.19999999999999
20
-13.9483131264862
30
0
41
1
10
-2.19999999999999
20
-13.7993681905533
30
0
41
1
10
-2.19999999999999
20
-13.6474264531923
30
0
41
1
10
-2.19999999999999
20
-13.4925540411334
30
0
41
1
10
-2.19999999999999
20
-13.3749248996582
30
0
41
1
10
-2.19999999999999
20
-13.2558316973182
30
0
41
1
10
-2.19999999999999
20
-13.0951031927999
30
0
41
1
10
-2.19999999999999
20
-12.9314463925932
30
0
41
1
10
-2.19999999999999
20
-12.7649271637091
30
0
41
1
10
-2.19999999999999
20
-12.6385945454976
30
0
41
1
10
-2.19999999999999
20
-12.510829004708
30
0
41
1
10
-2.19999999999999
20
-12.3385783781737
30
0
41
1
10
-2.19999999999999
20
-12.1634558646821
30
0
41
1
10
-2.19999999999999
20
-11.9855280067157
30
0
41
1
10
-2.19999999999999
20
-11.8057194023465
30
0
41
1
10
-2.19999999999999
20
-11.5774197477568
30
0
41
1
10
-2.19999999999999
20
-11.3444552554371
30
0
41
1
10
-2.19999999999999
20
-11.1553144582602
30
0
41
1
10
-2.19999999999999
20
-10.9643215989582
30
0
41
1
10
-2.19999999999999
20
-10.7705258416001
30
0
41
1
10
-2.19999999999999
20
-10.5740001651574
30
0
41
1
10
-2.19999999999999
20
-10.4252201002359
30
0
41
1
10
-2.19999999999999
20
-10.2750653748105
30
0
41
1
10
-2.19999999999999
20
-10.123538466054
30
0
41
1
10
-2.19999999999999
20
-9.97064123613964
30
0
41
1
10
-2.19999999999999
20
-9.76496631110049
30
0
41
1
10
-2.19999999999999
20
-9.50443394039922
30
0
41
1
10
-2.19999999999999
20
-9.23936571773672
30
0
41
1
10
-2.19999999999999
20
-9.02461799205523
30
0
41
1
10
-2.19999999999999
20
-8.86219304073114
30
0
41
1
10
-2.19999999999999
20
-8.69841428877766
30
0
41
1
10
-2.19999999999999
20
-8.53328407858575
30
0
41
1
10
-2.19999999999999
20
-8.36680341033821
30
0
41
1
10
-2.19999999999999
20
-8.14304411844034
30
0
41
1
10
-2.19999999999999
20
-7.85994708827315
30
0
41
1
10
-2.19999999999999
20
-7.51487112820209
30
0
41
1
10
-2.19999999999999
20
-7.22282328452872
30
0
41
1
10
-2.19999999999999
20
-6.98653550324826
30
0
41
1
10
-2.19999999999999
20
-6.80797159432129
30
0
41
1
10
-2.19999999999999
20
-6.62807271786153
30
0
41
1
10
-2.19999999999999
20
-6.44684092947378
30
0
41
1
10
-2.19999999999999
20
-6.26427796235188
30
0
41
1
10
-2.19999999999999
20
-6.0803860968085
30
0
41
1
10
-2.19999999999999
20
-5.89516734859464
30
0
41
1
10
-2.19999999999999
20
-5.70862461825791
30
0
41
1
10
-2.19999999999999
20
-5.52076102284181
30
0
41
1
10
-2.19999999999999
20
-5.33157993903225
30
0
41
1
10
-2.19999999999999
20
-5.14108500618136
30
0
41
1
10
-2.19999999999999
20
-4.94928076863457
30
0
41
1
10
-2.19999999999999
20
-4.75617249379653
30
0
41
1
10
-2.19999999999999
20
-4.56176617271484
30
0
41
1
10
-2.19999999999999
20
-4.36606871643775
30
0
41
1
10
-2.19999999999999
20
-4.169088511784
30
0
41
1
10
-2.19999999999999
20
-4.00386592221614
30
0
41
1
10
-2.19999999999999
20
-3.87107811616198
30
0
41
1
10
-2.19999999999999
20
-3.77116418775421
30
0
41
1
10
-2.19999999999999
20
-3.67093805397229
30
0
41
1
10
-2.19999999999999
20
-3.53690183437428
30
0
41
1
10
-2.19999999999999
20
-3.36855659963138
30
0
41
1
10
-2.19999999999999
20
-3.19919952332836
30
0
41
1
10
-2.19999999999999
20
-3.06314133551615
30
0
41
1
10
-2.19999999999999
20
-2.92668912429065
30
0
41
1
10
-2.19999999999999
20
-2.78960994504098
30
0
41
1
10
-2.19999999999999
20
-2.65200559968281
30
0
41
1
10
-2.19999999999999
20
-2.54851063247165
30
0
41
1
10
-2.19999999999999
20
-2.44473977839391
30
0
41
1
10
-2.19999999999999
20
-2.34069812940876
30
0
41
1
10
-2.19999999999999
20
-2.23639086291988
30
0
41
1
10
-2.19999999999999
20
-2.13182396747069
30
0
41
1
10
-2.19999999999999
20
-2.02700349385552
30
0
41
1
10
-2.19999999999999
20
-1.92193654804359
30
0
41
1
10
-2.19999999999999
20
-1.81663009373557
30
0
41
1
10
-2.19999999999999
20
-1.71109232444707
30
0
41
1
10
-2.19999999999999
20
-1.60533156181745
30
0
41
1
10
-2.19999999999999
20
-1.49935699380708
30
0
41
1
10
-2.19999999999999
20
-1.39317848503856
30
0
41
1
10
-2.19999999999999
20
-1.2868063464968
30
0
41
1
10
-2.19999999999999
20
-1.18025198377217
30
0
41
1
10
-2.19999999999999
20
-1.07352702949097
30
0
41
1
10
-2.19999999999999
20
-0.966644355262389
30
0
41
1
10
-2.19999999999999
20
-0.859617007920519
30
0
41
1
10
-2.19999999999999
20
-0.752459230354134
30
0
41
1
10
-2.19999999999999
20
-0.645185463980482
30
0
41
1
10
-2.19999999999999
20
-0.537811175438549
30
0
41
1
10
-2.19999999999999
20
-0.430352036900842
30
0
41
1
10
-2.19999999999999
20
-0.322824507999513
30
0
41
1
10
-2.19999999999999
20
-0.21524522393176
30
0
41
1
10
-2.19999999999999
20
-0.107631313716837
30
0
41
1
10
-2.19999999999999
20
-5.9909553E-09
30
0
41
1
10
-2.19999999999999
20
0.107631302158183
30
0
41
1
10
-2.19999999999999
20
0.215245213108545
30
0
41
1
10
-2.19999999999999
20
0.322824496958617
30
0
41
1
10
-2.19999999999999
20
0.430352024765995
30
0
41
1
10
-2.19999999999999
20
0.537811163545626
30
0
41
1
10
-2.19999999999999
20
0.645185453734172
30
0
41
1
10
-2.19999999999999
20
0.752459219961509
30
0
41
1
10
-2.19999999999999
20
0.859616995486334
30
0
41
1
10
-2.19999999999999
20
0.96664434311532
30
0
41
1
10
-2.19999999999999
20
1.073527020087
30
0
41
1
10
-2.19999999999999
20
1.18025197439016
30
0
41
1
10
-2.19999999999999
20
1.28680633401083
30
0
41
1
10
-2.19999999999999
20
1.39317847233161
30
0
41
1
10
-2.19999999999999
20
1.49935698477981
30
0
41
1
10
-2.19999999999999
20
1.60533155404698
30
0
41
1
10
-2.19999999999999
20
1.71109231328518
30
0
41
1
10
-2.19999999999999
20
1.81663008016324
30
0
41
1
10
-2.19999999999999
20
1.92193653735015
30
0
41
1
10
-2.19999999999999
20
2.02700348752293
30
0
41
1
10
-2.19999999999999
20
2.13182395998015
30
0
41
1
10
-2.19999999999999
20
2.23639085040648
30
0
41
1
10
-2.19999999999999
20
2.375450816946
30
0
41
1
10
-2.19999999999999
20
2.51402705629772
30
0
41
1
10
-2.19999999999999
20
2.65200561172494
30
0
41
1
10
-2.19999999999999
20
2.75522026664268
30
0
41
1
10
-2.19999999999999
20
2.85815023786418
30
0
41
1
10
-2.19999999999999
20
2.96079189341756
30
0
41
1
10
-2.19999999999999
20
3.06314133422208
30
0
41
1
10
-2.19999999999999
20
3.19919951970698
30
0
41
1
10
-2.19999999999999
20
3.36855658184018
30
0
41
1
10
-2.19999999999999
20
3.5369018254882
30
0
41
1
10
-2.19999999999999
20
3.67093805129474
30
0
41
1
10
-2.19999999999999
20
3.77116418570387
30
0
41
1
10
-2.19999999999999
20
3.87107810854147
30
0
41
1
10
-2.19999999999999
20
4.00386590607064
30
0
41
1
10
-2.19999999999999
20
4.16908849962459
30
0
41
1
10
-2.19999999999999
20
4.36606873641344
30
0
41
1
10
-2.19999999999999
20
4.56176620564526
30
0
41
1
10
-2.19999999999999
20
4.75617251627347
30
0
41
1
10
-2.19999999999999
20
4.94928086714648
30
0
41
1
10
-2.19999999999999
20
5.14108511996025
30
0
41
1
10
-2.19999999999999
20
5.33157993388585
30
0
41
1
10
-2.19999999999999
20
5.52076103085633
30
0
41
1
10
-2.19999999999999
20
5.70862469092603
30
0
41
1
10
-2.19999999999999
20
5.89516728223867
30
0
41
1
10
-2.19999999999999
20
6.0803858592752
30
0
41
1
10
-2.19999999999999
20
6.26427776637016
30
0
41
1
10
-2.19999999999999
20
6.44684086969582
30
0
41
1
10
-2.19999999999999
20
6.62807270531451
30
0
41
1
10
-2.19999999999999
20
6.80797157864473
30
0
41
1
10
-2.19999999999999
20
6.98653548716825
30
0
41
1
10
-2.19999999999999
20
7.22282329277962
30
0
41
1
10
-2.19999999999999
20
7.51487111531026
30
0
41
1
10
-2.19999999999999
20
7.85994707617317
30
0
41
1
10
-2.19999999999999
20
8.14304412571011
30
0
41
1
10
-2.19999999999999
20
8.36680339868337
30
0
41
1
10
-2.19999999999999
20
8.53328405958746
30
0
41
1
10
-2.19999999999999
20
8.69841428000512
30
0
41
1
10
-2.19999999999999
20
8.86219304475887
30
0
41
1
10
-2.19999999999999
20
9.02461799380217
30
0
41
1
10
-2.19999999999999
20
9.23936570098886
30
0
41
1
10
-2.19999999999999
20
9.50443392738597
30
0
41
1
10
-2.19999999999999
20
9.76496631801302
30
0
41
1
10
-2.19999999999999
20
9.97064122920807
30
0
41
1
10
-2.19999999999999
20
10.1235384488298
30
0
41
1
10
-2.19999999999999
20
10.2750653600417
30
0
41
1
10
-2.19999999999999
20
10.4252200954492
30
0
41
1
10
-2.19999999999999
20
10.5740001677826
30
0
41
1
10
-2.19999999999999
20
10.7705258372791
30
0
41
1
10
-2.19999999999999
20
10.96432157968
30
0
41
1
10
-2.19999999999999
20
11.1553144466797
30
0
41
1
10
-2.19999999999999
20
11.3444552561941
30
0
41
1
10
-2.19999999999999
20
11.5774197426994
30
0
41
1
10
-2.19999999999999
20
11.8057193844339
30
0
41
1
10
-2.19999999999999
20
11.9855279960913
30
0
41
1
10
-2.19999999999999
20
12.1634558634281
30
0
41
1
10
-2.19999999999999
20
12.3385783725546
30
0
41
1
10
-2.19999999999999
20
12.510828990928
30
0
41
1
10
-2.19999999999999
20
12.6385945304865
30
0
41
1
10
-2.19999999999999
20
12.7649271524075
30
0
41
1
10
-2.19999999999999
20
12.9314463879873
30
0
41
1
10
-2.19999999999999
20
13.0951031858018
30
0
41
1
10
-2.19999999999999
20
13.2558316845062
30
0
41
1
10
-2.19999999999999
20
13.3749248852381
30
0
41
1
10
-2.19999999999999
20
13.4925540283558
30
0
41
1
10
-2.19999999999999
20
13.6474264445925
30
0
41
1
10
-2.19999999999999
20
13.7993681823229
30
0
41
1
10
-2.19999999999999
20
13.9483131149779
30
0
41
1
10
-2.19999999999999
20
14.0585319196999
30
0
41
1
10
-2.19999999999999
20
14.1672492498436
30
0
41
1
10
-2.19999999999999
20
14.310188578504
30
0
41
1
10
-2.19999999999999
20
14.4501162009323
30
0
41
1
10
-2.19999999999999
20
14.5869647024964
30
0
41
1
10
-2.19999999999999
20
14.6880675684927
30
0
41
1
10
-2.19999999999999
20
14.7876243835494
30
0
41
1
10
-2.19999999999999
20
14.9182892137509
30
0
41
1
10
-2.19999999999999
20
15.0458463802595
30
0
41
1
10
-2.19999999999999
20
15.1702262286607
30
0
41
1
10
-2.19999999999999
20
15.2619258251736
30
0
41
1
10
-2.19999999999999
20
15.3520264687641
30
0
41
1
10
-2.19999999999999
20
15.4700110710185
30
0
41
1
10
-2.19999999999999
20
15.5847743861311
30
0
41
1
10
-2.19999999999999
20
15.6962433497342
30
0
41
1
10
-2.19999999999999
20
15.7781982427732
30
0
41
1
10
-2.19999999999999
20
15.8584913887799
30
0
41
1
10
-2.19999999999999
20
15.9633134995801
30
0
41
1
10
-2.19999999999999
20
16.0647793469533
30
0
41
1
10
-2.19999999999999
20
16.1628111167189
30
0
41
1
10
-2.19999999999999
20
16.234614658763
30
0
41
1
10
-2.19999999999999
20
16.3046816133433
30
0
41
1
10
-2.19999999999999
20
16.3729983406747
30
0
41
1
10
-2.19999999999999
20
16.4395493732765
30
0
41
1
10
-2.19999999999999
20
16.5043209819811
30
0
41
1
10
-2.19999999999999
20
16.5672977573629
30
0
41
1
10
-2.19999999999999
20
16.6488472996884
30
0
41
1
10
-2.19999999999999
20
16.72675615712
30
0
41
1
10
-2.19999999999999
20
16.8009296734765
30
0
41
1
10
-2.19999999999999
20
16.8725984751516
30
0
41
1
10
-2.19999999999999
20
16.9404819965209
30
0
41
1
10
-2.19999999999999
20
17.0044820563696
30
0
41
1
10
-2.19999999999999
20
17.0658713749173
30
0
41
1
10
-2.19999999999999
20
17.1233138560685
30
0
41
1
10
-2.19999999999999
20
17.1766986759847
30
0
41
1
10
-2.19999999999999
20
17.2146924230801
30
0
41
1
10
-2.19999999999999
20
17.2506132986913
30
0
41
1
10
-2.19999999999999
20
17.2957083393221
30
0
41
1
10
-2.19999999999999
20
17.3365615480365
30
0
41
1
10
-2.19999999999999
20
17.373046254225
30
0
41
1
10
-2.19999999999999
20
17.3981999720817
30
0
41
1
10
-2.19999999999999
20
17.4211116708093
30
0
41
1
10
-2.19999999999999
20
17.4417480829298
30
0
41
1
10
-2.19999999999999
20
17.4600756660116
30
0
41
1
10
-2.19999999999999
20
17.4760589345483
30
0
41
1
10
-2.19999999999999
20
17.4896606050755
30
0
41
1
10
-2.19999999999999
20
17.5008423359265
30
0
41
1
10
-2.19999999999999
20
17.5092379376335
30
0
41
1
10
-2.19999999999993
20
17.5132394830102
30
0
41
1
10
-2.19999999999999
20
17.5147874512837
30
0
0
SPLINE
5
ED
100
AcDbEntity
8
SK1
62
256
6
ByLayer
370
18
48
1
60
0
100
AcDbSpline
70
4
71
2
72
6
73
3
40
0
40
0
40
0
40
1
40
1
40
1
41
1
10
-0.258442643302459
20
17.4312381196177
30
0
41
1
10
-0.305123774552669
20
17.3672404580573
30
0
41
1
10
-0.394976888875277
20
17.3596982935393
30
0
0
SPLINE
5
EE
100
AcDbEntity
8
SK1
62
256
6
ByLayer
370
18
48
1
60
0
100
AcDbSpline
70
4
71
2
72
6
73
3
40
0
40
0
40
0
40
1
40
1
40
1
41
1
10
-0.394976888875277
20
17.3601458189993
30
0
41
1
10
-1.19500843340703
20
17.3400525762132
30
0
41
1
10
-1.99503997793928
20
17.3199593319919
30
0
0
SPLINE
5
EF
100
AcDbEntity
8
SK1
62
256
6
ByLayer
370
18
48
1
60
0
100
AcDbSpline
70
4
71
3
72
13
73
9
40
0
40
0
40
0
40
0
40
0.239457532282954
40
0.36836158480484
40
0.500001016081637
40
0.631640278165244
40
0.760543864313598
40
1
40
1
40
1
40
1
41
1
10
-1.99503997793928
20
17.3251861589552
30
0
41
1
10
-2.02111030872967
20
17.324784519015
30
0
41
1
10
-2.05884064233987
20
17.3309567740351
30
0
41
1
10
-2.1062771274967
20
17.3540005764861
30
0
41
1
10
-2.13886378679055
20
17.3791679466684
30
0
41
1
10
-2.16563592203167
20
17.4104495005038
30
0
41
1
10
-2.19103284106791
20
17.4566686743027
30
0
41
1
10
-2.19909198642128
20
17.4940412586114
30
0
41
1
10
-2.19999999999999
20
17.5200987347078
30
0
0
SPLINE
5
F0
100
AcDbEntity
8
SK1
62
256
6
ByLayer
370
18
48
1
60
0
100
AcDbSpline
70
4
71
2
72
6
73
3
40
0
40
0
40
0
40
1
40
1
40
1
41
1
10
-2.19999999999999
20
17.5148117187522
30
0
41
1
10
-15.3499999999294
20
17.1845422725478
30
0
41
1
10
-28.5
20
16.854272429841
30
0
0
SPLINE
5
F1
100
AcDbEntity
8
SK1
62
256
6
ByLayer
370
18
48
1
60
0
100
AcDbSpline
70
4
71
2
72
6
73
3
40
0
40
0
40
0
40
1
40
1
40
1
41
1
10
-1.99503997793928
20
-17.3199593099743
30
0
41
1
10
-1.19500843340703
20
-17.340052552406
30
0
41
1
10
-0.394976888875277
20
-17.3601457933935
30
0
0
SPLINE
5
F2
100
AcDbEntity
8
SK1
62
256
6
ByLayer
370
18
48
1
60
0
100
AcDbSpline
70
4
71
2
72
6
73
3
40
0
40
0
40
0
40
1
40
1
40
1
41
1
10
-28.5
20
16.8584505716142
30
0
41
1
10
-29.2499999991496
20
16.4254651505507
30
0
41
1
10
-30
20
15.99247954079
30
0
0
SPLINE
5
F3
100
AcDbEntity
8
SK1
62
256
6
ByLayer
370
18
48
1
60
0
100
AcDbSpline
70
4
71
3
72
13
73
9
40
0
40
0
40
0
40
0
40
0.239456135733119
40
0.368359721896614
40
0.49999898398534
40
0.631638415256145
40
0.760542467762461
40
1
40
1
40
1
40
1
41
1
10
-2.19999999999999
20
-17.520098551796
30
0
41
1
10
-2.19909198642199
20
-17.4940410756898
30
0
41
1
10
-2.19103284106865
20
-17.4566684913667
30
0
41
1
10
-2.16563592203264
20
-17.4104493175479
30
0
41
1
10
-2.1388637867918
20
-17.3791677636995
30
0
41
1
10
-2.10627712749806
20
-17.3540003935064
30
0
41
1
10
-2.05884064234172
20
-17.3309565910454
30
0
41
1
10
-2.02111030873064
20
-17.3247843360228
30
0
41
1
10
-1.99503997793928
20
-17.3251859759625
30
0
0
SPLINE
5
F4
100
AcDbEntity
8
SK1
62
256
6
ByLayer
370
18
48
1
60
0
100
AcDbSpline
70
4
71
2
72
6
73
3
40
0
40
0
40
0
40
1
40
1
40
1
41
1
10
-0.394976888875277
20
-17.359696795897
30
0
41
1
10
-0.305277226309641
20
-17.3671842624703
30
0
41
1
10
-0.258658740615516
20
-17.4310145299903
30
0
0
SPLINE
5
F5
100
AcDbEntity
8
SK1
62
256
6
ByLayer
370
18
48
1
60
0
100
AcDbSpline
70
4
71
2
72
6
73
3
40
0
40
0
40
0
40
1
40
1
40
1
41
1
10
-30
20
-15.9924794145163
30
0
41
1
10
-29.2499999991495
20
-16.4254650261933
30
0
41
1
10
-28.5
20
-16.8584504491481
30
0
0
SPLINE
5
F6
100
AcDbEntity
8
SK1
62
256
6
ByLayer
370
18
48
1
60
0
100
AcDbSpline
70
4
71
2
72
6
73
3
40
0
40
0
40
0
40
1
40
1
40
1
41
1
10
-28.5
20
-16.8542724489282
30
0
41
1
10
-15.3499999999286
20
-17.1845422635703
30
0
41
1
10
-2.19999999999999
20
-17.5148116792767
30
0
0
LINE
5
82
100
AcDbEntity
8
1
62
256
6
ByLayer
370
13
48
1
60
0
100
AcDbLine
10
29.08
20
-23
30
0
11
29.08
21
-21.304438
31
0
39
0
210
0
220
0
230
1
0
LINE
5
83
100
AcDbEntity
8
1
62
256
6
ByLayer
370
13
48
1
60
0
100
AcDbLine
10
20.92
20
-23
30
0
11
20.92
21
-21.329187
31
0
39
0
210
0
220
0
230
1
0
LINE
5
84
100
AcDbEntity
8
1
62
256
6
ByLayer
370
18
48
1
60
0
100
AcDbLine
10
30
20
-22.095
30
0
11
20
21
-22.095
31
0
39
0
210
0
220
0
230
1
0
LINE
5
85
100
AcDbEntity
8
1
62
256
6
ByLayer
370
18
48
1
60
0
100
AcDbLine
10
29.095
20
-23
30
0
11
20.905
21
-23
31
0
39
0
210
0
220
0
230
1
0
LINE
5
86
100
AcDbEntity
8
1
62
256
6
ByLayer
370
18
48
1
60
0
100
AcDbLine
10
8.538675
20
-23.82379
30
0
11
11.461325
21
-23.82379
31
0
39
0
210
0
220
0
230
1
0
LINE
5
87
100
AcDbEntity
8
1
62
256
6
ByLayer
370
18
48
1
60
0
100
AcDbLine
10
11.461325
20
23.82379
30
0
11
8.538675
21
23.82379
31
0
39
0
210
0
220
0
230
1
0
LINE
5
88
100
AcDbEntity
8
1
62
256
6
ByLayer
370
13
48
1
60
0
100
AcDbLine
10
8.105662
20
-8.071876
30
0
11
8.105662
21
-23.650474
31
0
39
0
210
0
220
0
230
1
0
LINE
5
89
100
AcDbEntity
8
1
62
256
6
ByLayer
370
18
48
1
60
0
100
AcDbLine
10
68
20
-10.000586
30
0
11
68
21
10.000586
31
0
39
0
210
0
220
0
230
1
0
LINE
5
8A
100
AcDbEntity
8
1
62
256
6
ByLayer
370
18
48
1
60
0
100
AcDbLine
10
0.3
20
-24.99
30
0
11
0.3
21
24.99
31
0
39
0
210
0
220
0
230
1
0
LINE
5
8B
100
AcDbEntity
8
1
62
256
6
ByLayer
370
13
48
1
60
0
100
AcDbLine
10
11.894338
20
23.650474
30
0
11
11.894338
21
8.071876
31
0
39
0
210
0
220
0
230
1
0
LINE
5
8C
100
AcDbEntity
8
1
62
256
6
ByLayer
370
18
48
1
60
0
100
AcDbLine
10
0
20
-24.69
30
0
11
0
21
24.69
31
0
39
0
210
0
220
0
230
1
0
LINE
5
8D
100
AcDbEntity
8
1
62
256
6
ByLayer
370
13
48
1
60
0
100
AcDbLine
10
8.105662
20
23.650474
30
0
11
8.105662
21
8.071876
31
0
39
0
210
0
220
0
230
1
0
LINE
5
8E
100
AcDbEntity
8
1
62
256
6
ByLayer
370
13
48
1
60
0
100
AcDbLine
10
8.538675
20
-7.545007
30
0
11
8.538675
21
-23.82379
31
0
39
0
210
0
220
0
230
1
0
LINE
5
8F
100
AcDbEntity
8
1
62
256
6
ByLayer
370
18
48
1
60
0
100
AcDbLine
10
8.538675
20
7.545007
30
0
11
11.461325
21
7.545007
31
0
39
0
210
0
220
0
230
1
0
LINE
5
90
100
AcDbEntity
8
1
62
256
6
ByLayer
370
13
48
1
60
0
100
AcDbLine
10
67.008378
20
-11.182355
30
0
11
67.008378
21
11.182355
31
0
39
0
210
0
220
0
230
1
0
LINE
5
91
100
AcDbEntity
8
1
62
256
6
ByLayer
370
13
48
1
60
0
100
AcDbLine
10
31.875482
20
24.33202
30
0
11
31.875482
21
-24.33202
31
0
39
0
210
0
220
0
230
1
0
LINE
5
92
100
AcDbEntity
8
1
62
256
6
ByLayer
370
13
48
1
60
0
100
AcDbLine
10
11.461325
20
-7.545007
30
0
11
11.461325
21
-23.82379
31
0
39
0
210
0
220
0
230
1
0
LINE
5
93
100
AcDbEntity
8
1
62
256
6
ByLayer
370
18
48
1
60
0
100
AcDbLine
10
11.461325
20
-7.545007
30
0
11
8.538675
21
-7.545007
31
0
39
0
210
0
220
0
230
1
0
LINE
5
94
100
AcDbEntity
8
1
62
256
6
ByLayer
370
13
48
1
60
0
100
AcDbLine
10
54.950227
20
13
30
0
11
54.950227
21
-13
31
0
39
0
210
0
220
0
230
1
0
LINE
5
95
100
AcDbEntity
8
1
62
256
6
ByLayer
370
13
48
1
60
0
100
AcDbLine
10
11.894338
20
-8.071876
30
0
11
11.894338
21
-23.650474
31
0
39
0
210
0
220
0
230
1
0
LINE
5
96
100
AcDbEntity
8
1
62
256
6
ByLayer
370
13
48
1
60
0
100
AcDbLine
10
37.750519
20
-13
30
0
11
37.750519
21
0
31
0
39
0
210
0
220
0
230
1
0
LINE
5
97
100
AcDbEntity
8
1
62
256
6
ByLayer
370
13
48
1
60
0
100
AcDbLine
10
37.750519
20
0
30
0
11
37.750519
21
13
31
0
39
0
210
0
220
0
230
1
0
LINE
5
98
100
AcDbEntity
8
1
62
256
6
ByLayer
370
13
48
1
60
0
100
AcDbLine
10
11.461325
20
23.82379
30
0
11
11.461325
21
7.545007
31
0
39
0
210
0
220
0
230
1
0
LINE
5
99
100
AcDbEntity
8
1
62
256
6
ByLayer
370
13
48
1
60
0
100
AcDbLine
10
58.42319
20
-12.696155
30
0
11
58.42319
21
0
31
0
39
0
210
0
220
0
230
1
0
LINE
5
9A
100
AcDbEntity
8
1
62
256
6
ByLayer
370
13
48
1
60
0
100
AcDbLine
10
58.42319
20
0
30
0
11
58.42319
21
12.696155
31
0
39
0
210
0
220
0
230
1
0
LINE
5
9B
100
AcDbEntity
8
1
62
256
6
ByLayer
370
13
48
1
60
0
100
AcDbLine
10
8.538675
20
23.82379
30
0
11
8.538675
21
7.545007
31
0
39
0
210
0
220
0
230
1
0
LINE
5
9C
100
AcDbEntity
8
1
62
256
6
ByLayer
370
13
48
1
60
0
100
AcDbLine
10
35.401287
20
-14.64495
30
0
11
35.401287
21
14.64495
31
0
39
0
210
0
220
0
230
1
0
LINE
5
9D
100
AcDbEntity
8
1
62
256
6
ByLayer
370
13
48
1
60
0
100
AcDbLine
10
30.935789
20
24.99
30
0
11
30.935789
21
-24.99
31
0
39
0
210
0
220
0
230
1
0
LINE
5
9E
100
AcDbEntity
8
SK1
62
256
6
ByLayer
370
13
48
1
60
0
100
AcDbLine
10
-1.307107
20
-3.918065
30
0
11
-1.307107
21
3.918065
31
0
39
0
210
0
220
0
230
1
0
LINE
5
A0
100
AcDbEntity
8
SK1
62
256
6
ByLayer
370
18
48
1
60
0
100
AcDbLine
10
-0.2
20
6.103447
30
0
11
-0.2
21
17.833485
31
0
39
0
210
0
220
0
230
1
0
LINE
5
A1
100
AcDbEntity
8
SK1
62
256
6
ByLayer
370
18
48
1
60
0
100
AcDbLine
10
-1.99504
20
-17.325157
30
0
11
-1.99504
21
-17.320689
31
0
39
0
210
0
220
0
230
1
0
LINE
5
A2
100
AcDbEntity
8
SK1
62
256
6
ByLayer
370
18
48
1
60
0
100
AcDbLine
10
-1.99504
20
17.320689
30
0
11
-1.99504
21
17.325157
31
0
39
0
210
0
220
0
230
1
0
LINE
5
A3
100
AcDbEntity
8
SK1
62
256
6
ByLayer
370
18
48
1
60
0
100
AcDbLine
10
-0.2
20
-17.833485
30
0
11
-0.2
21
-6.103448
31
0
39
0
210
0
220
0
230
1
0
LINE
5
A4
100
AcDbEntity
8
SK4
62
256
6
ByLayer
370
18
48
0.05
60
0
100
AcDbLine
10
-40
20
0
30
0
11
78
21
0
31
0
39
0
210
0
220
0
230
1
0
LINE
5
A6
100
AcDbEntity
8
1
62
256
6
ByLayer
370
18
48
1
60
0
100
AcDbLine
10
67.008378
20
11.182355
30
0
11
58.42319
21
12.696155
31
0
39
0
210
0
220
0
230
1
0
LINE
5
A7
100
AcDbEntity
8
1
62
256
6
ByLayer
370
18
48
1
60
0
100
AcDbLine
10
58.42319
20
-12.696155
30
0
11
67.008378
21
-11.182355
31
0
39
0
210
0
220
0
230
1
0
LINE
5
A8
100
AcDbEntity
8
1
62
256
6
ByLayer
370
18
48
1
60
0
100
AcDbLine
10
54.950227
20
13
30
0
11
37.750519
21
13
31
0
39
0
210
0
220
0
230
1
0
LINE
5
A9
100
AcDbEntity
8
1
62
256
6
ByLayer
370
18
48
1
60
0
100
AcDbLine
10
37.750519
20
-13
30
0
11
54.950227
21
-13
31
0
39
0
210
0
220
0
230
1
0
LINE
5
AA
100
AcDbEntity
8
1
62
256
6
ByLayer
370
18
48
1
60
0
100
AcDbLine
10
35.401287
20
14.64495
30
0
11
31.875482
21
24.33202
31
0
39
0
210
0
220
0
230
1
0
LINE
5
AB
100
AcDbEntity
8
1
62
256
6
ByLayer
370
18
48
1
60
0
100
AcDbLine
10
31.875482
20
-24.33202
30
0
11
35.401287
21
-14.64495
31
0
39
0
210
0
220
0
230
1
0
LINE
5
AC
100
AcDbEntity
8
1
62
256
6
ByLayer
370
18
48
1
60
0
100
AcDbLine
10
30.935789
20
24.99
30
0
11
0.3
21
24.99
31
0
39
0
210
0
220
0
230
1
0
LINE
5
AD
100
AcDbEntity
8
1
62
256
6
ByLayer
370
18
48
1
60
0
100
AcDbLine
10
0.3
20
-24.99
30
0
11
30.935789
21
-24.99
31
0
39
0
210
0
220
0
230
1
0
LINE
5
AE
100
AcDbEntity
8
1
62
256
6
ByLayer
370
18
48
1
60
0
100
AcDbLine
10
0
20
-24.69
30
0
11
0.3
21
-24.99
31
0
39
0
210
0
220
0
230
1
0
LINE
5
AF
100
AcDbEntity
8
1
62
256
6
ByLayer
370
18
48
1
60
0
100
AcDbLine
10
0.3
20
24.99
30
0
11
0
21
24.69
31
0
39
0
210
0
220
0
230
1
0
LINE
5
B0
100
AcDbEntity
8
1
62
256
6
ByLayer
370
18
48
1
60
0
100
AcDbLine
10
29.095
20
-23
30
0
11
30
21
-22.095
31
0
39
0
210
0
220
0
230
1
0
LINE
5
B1
100
AcDbEntity
8
1
62
256
6
ByLayer
370
18
48
1
60
0
100
AcDbLine
10
20
20
-22.095
30
0
11
20.905
21
-23
31
0
39
0
210
0
220
0
230
1
0
LINE
5
B2
100
AcDbEntity
8
1
62
256
6
ByLayer
370
18
48
1
60
0
100
AcDbLine
10
20
20
-21.329346
30
0
11
20
21
-22.095
31
0
39
0
210
0
220
0
230
1
0
LINE
5
B3
100
AcDbEntity
8
1
62
256
6
ByLayer
370
18
48
1
60
0
100
AcDbLine
10
30
20
-22.095
30
0
11
30
21
-21.304534
31
0
39
0
210
0
220
0
230
1
0
LINE
5
B4
100
AcDbEntity
8
SK3
62
256
6
ByLayer
370
18
48
0.05
60
0
100
AcDbLine
10
32.5
20
-3
30
0
11
32.5
21
3
31
0
39
0
210
0
220
0
230
1
0
LINE
5
B6
100
AcDbEntity
8
SK3
62
256
6
ByLayer
370
18
48
0.05
60
0
100
AcDbLine
10
31
20
-1.5
30
0
11
32.5
21
-3
31
0
39
0
210
0
220
0
230
1
0
LINE
5
B7
100
AcDbEntity
8
SK3
62
256
6
ByLayer
370
18
48
0.05
60
0
100
AcDbLine
10
32.5
20
3
30
0
11
31
21
1.5
31
0
39
0
210
0
220
0
230
1
0
LINE
5
B8
100
AcDbEntity
8
SK3
62
256
6
ByLayer
370
18
48
0.05
60
0
100
AcDbLine
10
68
20
3
30
0
11
32.5
21
3
31
0
39
0
210
0
220
0
230
1
0
LINE
5
B9
100
AcDbEntity
8
81
62
256
6
ByLayer
370
18
48
1
60
0
100
AcDbLine
10
68
20
0
30
0
11
72.742527
21
0
31
0
39
0
210
0
220
0
230
1
0
LINE
5
BA
100
AcDbEntity
8
80
62
256
6
ByLayer
370
18
48
1
60
0
100
AcDbLine
10
0
20
0
30
0
11
-10.875929
21
0
31
0
39
0
210
0
220
0
230
1
0
LINE
5
BB
100
AcDbEntity
8
4
62
256
6
ByLayer
370
18
48
0.05
60
0
100
AcDbLine
10
68
20
0
30
0
11
0
21
0
31
0
39
0
210
0
220
0
230
1
0
LINE
5
BD
100
AcDbEntity
8
SK3
62
256
6
ByLayer
370
18
48
0.05
60
0
100
AcDbLine
10
32.5
20
-3
30
0
11
68
21
-3
31
0
39
0
210
0
220
0
230
1
0
LINE
5
BE
100
AcDbEntity
8
SK3
62
256
6
ByLayer
370
18
48
0.05
60
0
100
AcDbLine
10
31
20
1.5
30
0
11
31
21
-1.5
31
0
39
0
210
0
220
0
230
1
0
LINE
5
BF
100
AcDbEntity
8
SK2
62
256
6
ByLayer
370
13
48
1
60
0
100
AcDbLine
10
-58.1
20
-24.99
30
0
11
-58.1
21
24.99
31
0
39
0
210
0
220
0
230
1
0
LINE
5
C1
100
AcDbEntity
8
SK2
62
256
6
ByLayer
370
13
48
1
60
0
100
AcDbLine
10
-1.5875
20
24.99
30
0
11
-60.1
21
24.99
31
0
39
0
210
0
220
0
230
1
0
LINE
5
C2
100
AcDbEntity
8
SK2
62
256
6
ByLayer
370
13
48
1
60
0
100
AcDbLine
10
-1.5875
20
-24.99
30
0
11
-60.1
21
-24.99
31
0
39
0
210
0
220
0
230
1
0
LINE
5
C3
100
AcDbEntity
8
1
62
256
6
ByLayer
370
18
48
1
60
1
100
AcDbLine
10
-58.1
20
24.99
30
0
11
-57.102374
21
20.490004
31
0
39
0
210
0
220
0
230
1
0
LINE
5
C4
100
AcDbEntity
8
1
62
256
6
ByLayer
370
18
48
1
60
1
100
AcDbLine
10
-57.102374
20
20.490004
30
0
11
-59.097626
21
20.489996
31
0
39
0
210
0
220
0
230
1
0
LINE
5
C5
100
AcDbEntity
8
1
62
256
6
ByLayer
370
18
48
1
60
1
100
AcDbLine
10
-59.097626
20
20.489996
30
0
11
-58.1
21
24.99
31
0
39
0
210
0
220
0
230
1
0
LINE
5
C6
100
AcDbEntity
8
1
62
256
6
ByLayer
370
18
48
1
60
1
100
AcDbLine
10
-58.1
20
-24.99
30
0
11
-59.097626
21
-20.490004
31
0
39
0
210
0
220
0
230
1
0
LINE
5
C7
100
AcDbEntity
8
1
62
256
6
ByLayer
370
18
48
1
60
1
100
AcDbLine
10
-59.097626
20
-20.490004
30
0
11
-57.102374
21
-20.489996
31
0
39
0
210
0
220
0
230
1
0
LINE
5
C8
100
AcDbEntity
8
1
62
256
6
ByLayer
370
18
48
1
60
1
100
AcDbLine
10
-57.102374
20
-20.489996
30
0
11
-58.1
21
-24.99
31
0
39
0
210
0
220
0
230
1
0
LINE
5
FB
100
AcDbEntity
8
1
62
256
6
ByLayer
370
18
48
1
60
1
100
AcDbLine
10
-58.1
20
24.99
30
0
11
-57.102374
21
20.490004
31
0
39
0
210
0
220
0
230
1
0
LINE
5
FC
100
AcDbEntity
8
1
62
256
6
ByLayer
370
18
48
1
60
1
100
AcDbLine
10
-57.102374
20
20.490004
30
0
11
-59.097626
21
20.489996
31
0
39
0
210
0
220
0
230
1
0
LINE
5
FD
100
AcDbEntity
8
1
62
256
6
ByLayer
370
18
48
1
60
1
100
AcDbLine
10
-59.097626
20
20.489996
30
0
11
-58.1
21
24.99
31
0
39
0
210
0
220
0
230
1
0
LINE
5
FF
100
AcDbEntity
8
1
62
256
6
ByLayer
370
18
48
1
60
1
100
AcDbLine
10
-58.1
20
-24.99
30
0
11
-59.097626
21
-20.490004
31
0
39
0
210
0
220
0
230
1
0
LINE
5
100
100
AcDbEntity
8
1
62
256
6
ByLayer
370
18
48
1
60
1
100
AcDbLine
10
-59.097626
20
-20.490004
30
0
11
-57.102374
21
-20.489996
31
0
39
0
210
0
220
0
230
1
0
LINE
5
101
100
AcDbEntity
8
1
62
256
6
ByLayer
370
18
48
1
60
1
100
AcDbLine
10
-57.102374
20
-20.489996
30
0
11
-58.1
21
-24.99
31
0
39
0
210
0
220
0
230
1
0
MTEXT
5
F7
100
AcDbEntity
8
SK2
62
256
6
ByLayer
370
18
48
1
60
0
100
AcDbMText
10
-60.111672
20
-4.699399
30
0
210
0
220
0
230
1
1
%%c
40
4.5
41
0
44
1.084337
50
90
71
7
72
5
7
iso_b_vert
0
MTEXT
5
FA
100
AcDbEntity
8
SK2
62
256
6
ByLayer
370
18
48
1
60
0
100
AcDbMText
10
-60.111672
20
2.015444
30
0
210
0
220
0
230
1
1
\W0.6740;50
40
4.5
41
0
44
1.084337
50
90
71
7
72
5
7
iso_b_vert
0
MTEXT
5
103
100
AcDbEntity
8
SK6
62
256
6
ByLayer
370
18
48
1
60
0
100
AcDbMText
10
-7.8145
20
-39.207366
30
0
210
0
220
0
230
1
1
\W0.7174;930-C5-S-06-068
40
3.5
41
0
44
1.084337
50
0
71
7
72
5
7
iso_b_vert
0
MTEXT
5
105
100
AcDbEntity
8
SK6
62
256
6
ByLayer
370
18
48
1
60
0
100
AcDbMText
10
-34.873633
20
32.522634
30
0
210
0
220
0
230
1
1
\W0.2969; 
40
3.5
41
0
44
1.084337
50
0
71
7
72
5
7
iso_b_vert
0
MTEXT
5
106
100
AcDbEntity
8
SK6
62
256
6
ByLayer
370
18
48
1
60
0
100
AcDbMText
10
-34.873633
20
32.522634
30
0
210
0
220
0
230
1
1
\W0.2969; 
40
3.5
41
0
44
1.084337
50
0
71
7
72
5
7
iso_b_vert
0
HATCH
5
FE
100
AcDbEntity
8
SK2
62
256
6
ByLayer
370
13
48
1
60
0
100
AcDbHatch
10
0
20
0
30
0
210
0
220
0
230
1
2
ANSI31
70
0
71
0
91
1
92
5
93
3
72
1
10
-58.1
20
24.99
11
-57.1023740181135
21
20.4900036644848
72
1
10
-57.1023740181135
20
20.4900036644848
11
-59.0976259818865
21
20.4899963355152
72
1
10
-59.0976259818865
20
20.4899963355152
11
-58.1
21
24.99
97
0
75
0
76
1
52
0
41
0.0062
77
0
78
1
53
45
43
0
44
0
45
-0.0139193969876572
46
0.0139193969876572
79
0
47
0
98
1
10
0
20
0
0
HATCH
5
102
100
AcDbEntity
8
SK2
62
256
6
ByLayer
370
13
48
1
60
0
100
AcDbHatch
10
0
20
0
30
0
210
0
220
0
230
1
2
ANSI31
70
0
71
0
91
1
92
5
93
3
72
1
10
-58.1
20
-24.99
11
-59.0976259818865
21
-20.4900036644848
72
1
10
-59.0976259818865
20
-20.4900036644848
11
-57.1023740181135
21
-20.4899963355152
72
1
10
-57.1023740181135
20
-20.4899963355152
11
-58.1
21
-24.99
97
0
75
0
76
1
52
0
41
0.0062
77
0
78
1
53
45
43
0
44
0
45
-0.0139193969876572
46
0.0139193969876572
79
0
47
0
98
1
10
0
20
0
0
DIMENSION
5
108
100
AcDbEntity
8
SK2
62
256
6
ByLayer
370
18
48
1
60
0
100
AcDbDimension
2
_U0
10
107.25
20
13
30
0
11
107.25
21
0
31
0
70
32
71
1
72
1
41
1
210
0
220
0
230
1
3
Standard
100
AcDbAlignedDimension
13
68
23
-13
33
0
14
68
24
13
34
0
50
90
100
AcDbRotatedDimension
1001
ACAD
1000
DSTYLE
1002
{
1070
   371
1070
    13
1070
   372
1070
    13
1070
   170
1070
     0
1070
   144
1040
1.0
1070
   277
1070
     2
1070
   284
1070
     8
1070
   278
1070
    44
1070
   146
1040
0.777778
1070
   345
1005
16
1070
   347
1005
16
1070
   346
1005
16
1070
   344
1005
0
1070
   343
1005
0
1070
   172
1070
     1
1070
    76
1070
     0
1070
    75
1070
     0
1070
   282
1070
     0
1070
   281
1070
     0
1070
    71
1070
     0
1070
    74
1070
     0
1070
   279
1070
     0
1070
   173
1070
     1
1070
   340
1005
F8
1070
   271
1070
     1
1070
   272
1070
     2
1070
    77
1070
     1
1070
    73
1070
     0
1070
   171
1070
     3
1070
   274
1070
     4
1070
   177
1070
     2
1070
   176
1070
     2
1070
   178
1070
     2
1070
    78
1070
     8
1070
    48
1040
-0.1
1070
    41
1040
4.5
1070
   147
1040
2.25
1070
    42
1040
1.5875
1070
    44
1040
2.0
1070
   140
1040
4.5
1002
}
1001
ACAD_DSTYLE_DIM_LINETYPE
1070
   380
1005
16
1001
ACAD_DSTYLE_DIM_EXT1_LINETYPE
1070
   381
1005
16
1001
ACAD_DSTYLE_DIM_EXT2_LINETYPE
1070
   382
1005
16
0
DIMENSION
5
122
100
AcDbEntity
8
SK2
62
256
6
ByLayer
370
18
48
1
60
0
100
AcDbDimension
2
_U1
10
85.25
20
-3
30
0
11
85.25
21
20.256371
31
0
70
32
71
1
72
1
41
1
210
0
220
0
230
1
3
Standard
100
AcDbAlignedDimension
13
68
23
3
33
0
14
68
24
-3
34
0
50
90
100
AcDbRotatedDimension
1001
ACAD
1000
DSTYLE
1002
{
1070
   371
1070
    13
1070
   372
1070
    13
1070
   170
1070
     0
1070
   144
1040
1.0
1070
   277
1070
     2
1070
   284
1070
     8
1070
   278
1070
    44
1070
   146
1040
0.777778
1070
   345
1005
16
1070
   347
1005
16
1070
   346
1005
16
1070
   344
1005
0
1070
   343
1005
0
1070
   172
1070
     1
1070
    76
1070
     0
1070
    75
1070
     0
1070
   282
1070
     0
1070
   281
1070
     0
1070
    71
1070
     0
1070
    74
1070
     0
1070
   279
1070
     0
1070
   173
1070
     1
1070
   340
1005
F8
1070
   271
1070
     1
1070
   272
1070
     2
1070
    77
1070
     1
1070
    73
1070
     0
1070
   171
1070
     3
1070
   274
1070
     4
1070
   177
1070
     2
1070
   176
1070
     2
1070
   178
1070
     2
1070
    78
1070
     8
1070
    48
1040
-0.1
1070
    41
1040
4.5
1070
   147
1040
2.25
1070
    42
1040
1.5875
1070
    44
1040
2.0
1070
   140
1040
4.5
1002
}
1001
ACAD_DSTYLE_DIM_LINETYPE
1070
   380
1005
16
1001
ACAD_DSTYLE_DIM_EXT1_LINETYPE
1070
   381
1005
16
1001
ACAD_DSTYLE_DIM_EXT2_LINETYPE
1070
   382
1005
16
0
DIMENSION
5
13D
100
AcDbEntity
8
SK2
62
256
6
ByLayer
370
18
48
1
60
0
100
AcDbDimension
2
_U2
10
68
20
-43.59
30
0
11
99.887197
21
-43.59
31
0
70
32
71
1
72
1
41
1
210
0
220
0
230
1
3
Standard
100
AcDbAlignedDimension
13
31
23
-3
33
0
14
68
24
-3
34
0
50
0
100
AcDbRotatedDimension
1001
ACAD
1000
DSTYLE
1002
{
1070
   371
1070
    13
1070
   372
1070
    13
1070
     3
1000

1070
   170
1070
     0
1070
   144
1040
1.0
1070
   277
1070
     2
1070
   284
1070
     8
1070
   278
1070
    44
1070
   146
1040
0.777778
1070
   345
1005
16
1070
   347
1005
16
1070
   346
1005
16
1070
   344
1005
0
1070
   343
1005
0
1070
   172
1070
     1
1070
    76
1070
     0
1070
    75
1070
     0
1070
   282
1070
     0
1070
   281
1070
     0
1070
    71
1070
     0
1070
    74
1070
     0
1070
   279
1070
     0
1070
   173
1070
     1
1070
   340
1005
F8
1070
   271
1070
     0
1070
   272
1070
     2
1070
    77
1070
     1
1070
    73
1070
     1
1070
   171
1070
     3
1070
   274
1070
     4
1070
   177
1070
     2
1070
   176
1070
     2
1070
   178
1070
     2
1070
    78
1070
     8
1070
    48
1040
-0.1
1070
    41
1040
4.5
1070
   147
1040
2.25
1070
    42
1040
1.5875
1070
    44
1040
2.0
1070
   140
1040
4.5
1002
}
1001
ACAD_DSTYLE_DIM_LINETYPE
1070
   380
1005
16
1001
ACAD_DSTYLE_DIM_EXT1_LINETYPE
1070
   381
1005
16
1001
ACAD_DSTYLE_DIM_EXT2_LINETYPE
1070
   382
1005
16
0
DIMENSION
5
156
100
AcDbEntity
8
SK2
62
256
6
ByLayer
370
18
48
1
60
0
100
AcDbDimension
2
_U3
10
68
20
-33.59
30
0
11
62.35
21
-33.59
31
0
70
32
71
1
72
1
41
1
210
0
220
0
230
1
3
Standard
100
AcDbAlignedDimension
13
56.7
23
-13
33
0
14
68
24
-13
34
0
50
0
100
AcDbRotatedDimension
1001
ACAD
1000
DSTYLE
1002
{
1070
   371
1070
    13
1070
   372
1070
    13
1070
   170
1070
     0
1070
   144
1040
1.0
1070
   277
1070
     2
1070
   284
1070
     8
1070
   278
1070
    44
1070
   146
1040
0.777778
1070
   345
1005
16
1070
   347
1005
16
1070
   346
1005
16
1070
   344
1005
0
1070
   343
1005
0
1070
   172
1070
     1
1070
    76
1070
     0
1070
    75
1070
     0
1070
   282
1070
     0
1070
   281
1070
     0
1070
    71
1070
     0
1070
    74
1070
     0
1070
   279
1070
     0
1070
   173
1070
     1
1070
   340
1005
F8
1070
   271
1070
     1
1070
   272
1070
     2
1070
    77
1070
     1
1070
    73
1070
     1
1070
   171
1070
     3
1070
   274
1070
     4
1070
   177
1070
     2
1070
   176
1070
     2
1070
   178
1070
     2
1070
    78
1070
     8
1070
    48
1040
-0.1
1070
    41
1040
4.5
1070
   147
1040
2.25
1070
    42
1040
1.5875
1070
    44
1040
2.0
1070
   140
1040
4.5
1002
}
1001
ACAD_DSTYLE_DIM_LINETYPE
1070
   380
1005
16
1001
ACAD_DSTYLE_DIM_EXT1_LINETYPE
1070
   381
1005
16
1001
ACAD_DSTYLE_DIM_EXT2_LINETYPE
1070
   382
1005
16
0
DIMENSION
5
16F
100
AcDbEntity
8
SK2
62
256
6
ByLayer
370
18
48
1
60
0
100
AcDbDimension
2
_U4
10
36
20
44.09
30
0
11
52
21
44.09
31
0
70
32
71
1
72
1
41
1
210
0
220
0
230
1
3
Standard
100
AcDbAlignedDimension
13
68
23
13
33
0
14
36
24
13
34
0
50
0
100
AcDbRotatedDimension
1001
ACAD
1000
DSTYLE
1002
{
1070
   371
1070
    13
1070
   372
1070
    13
1070
   170
1070
     0
1070
   144
1040
1.0
1070
   277
1070
     2
1070
   284
1070
     8
1070
   278
1070
    44
1070
   146
1040
0.777778
1070
   345
1005
16
1070
   347
1005
16
1070
   346
1005
16
1070
   344
1005
0
1070
   343
1005
0
1070
   172
1070
     1
1070
    76
1070
     0
1070
    75
1070
     0
1070
   282
1070
     0
1070
   281
1070
     0
1070
    71
1070
     0
1070
    74
1070
     0
1070
   279
1070
     0
1070
   173
1070
     1
1070
   340
1005
F8
1070
   271
1070
     1
1070
   272
1070
     2
1070
    77
1070
     1
1070
    73
1070
     1
1070
   171
1070
     3
1070
   274
1070
     4
1070
   177
1070
     2
1070
   176
1070
     2
1070
   178
1070
     2
1070
    78
1070
     8
1070
    48
1040
-0.1
1070
    41
1040
4.5
1070
   147
1040
2.25
1070
    42
1040
1.5875
1070
    44
1040
2.0
1070
   140
1040
4.5
1002
}
1001
ACAD_DSTYLE_DIM_LINETYPE
1070
   380
1005
16
1001
ACAD_DSTYLE_DIM_EXT1_LINETYPE
1070
   381
1005
16
1001
ACAD_DSTYLE_DIM_EXT2_LINETYPE
1070
   382
1005
16
0
DIMENSION
5
187
100
AcDbEntity
8
2
62
256
6
ByLayer
370
18
48
1
60
0
100
AcDbDimension
2
_U5
10
68
20
64.09
30
0
11
34
21
64.09
31
0
70
32
71
1
72
1
41
1
210
0
220
0
230
1
3
Standard
100
AcDbAlignedDimension
13
0
23
24.99
33
0
14
68
24
13
34
0
50
0
100
AcDbRotatedDimension
1001
ACAD
1000
DSTYLE
1002
{
1070
   371
1070
    13
1070
   372
1070
    13
1070
   170
1070
     0
1070
   144
1040
1.0
1070
   277
1070
     2
1070
   284
1070
     8
1070
   278
1070
    44
1070
   146
1040
0.777778
1070
   345
1005
16
1070
   347
1005
16
1070
   346
1005
16
1070
   344
1005
0
1070
   343
1005
0
1070
   172
1070
     1
1070
    76
1070
     0
1070
    75
1070
     0
1070
   282
1070
     0
1070
   281
1070
     0
1070
    71
1070
     0
1070
    74
1070
     0
1070
   279
1070
     0
1070
   173
1070
     1
1070
   340
1005
F8
1070
   271
1070
     1
1070
   272
1070
     2
1070
    77
1070
     1
1070
    73
1070
     1
1070
   171
1070
     3
1070
   274
1070
     4
1070
   177
1070
     2
1070
   176
1070
     2
1070
   178
1070
     2
1070
    78
1070
     8
1070
    48
1040
-0.1
1070
    41
1040
4.5
1070
   147
1040
2.25
1070
    42
1040
1.5875
1070
    44
1040
2.0
1070
   140
1040
4.5
1002
}
1001
ACAD_DSTYLE_DIM_LINETYPE
1070
   380
1005
16
1001
ACAD_DSTYLE_DIM_EXT1_LINETYPE
1070
   381
1005
16
1001
ACAD_DSTYLE_DIM_EXT2_LINETYPE
1070
   382
1005
16
0
DIMENSION
5
1A0
100
AcDbEntity
8
SK2
62
256
6
ByLayer
370
18
48
1
60
0
100
AcDbDimension
2
_U6
10
-30
20
64.09
30
0
11
-15
21
64.09
31
0
70
32
71
1
72
1
41
1
210
0
220
0
230
1
3
Standard
100
AcDbAlignedDimension
13
0
23
22.055
33
0
14
-30
24
18
34
0
50
0
100
AcDbRotatedDimension
1001
ACAD
1000
DSTYLE
1002
{
1070
   371
1070
    13
1070
   372
1070
    13
1070
   170
1070
     0
1070
   144
1040
1.0
1070
   277
1070
     2
1070
   284
1070
     8
1070
   278
1070
    44
1070
   146
1040
0.777778
1070
   345
1005
16
1070
   347
1005
16
1070
   346
1005
16
1070
   344
1005
0
1070
   343
1005
0
1070
   172
1070
     1
1070
    76
1070
     0
1070
    75
1070
     0
1070
   282
1070
     0
1070
   281
1070
     0
1070
    71
1070
     0
1070
    74
1070
     0
1070
   279
1070
     0
1070
   173
1070
     1
1070
   340
1005
F8
1070
   271
1070
     1
1070
   272
1070
     2
1070
    77
1070
     1
1070
    73
1070
     1
1070
   171
1070
     3
1070
   274
1070
     4
1070
   177
1070
     2
1070
   176
1070
     2
1070
   178
1070
     2
1070
    78
1070
     8
1070
    48
1040
-0.1
1070
    41
1040
4.5
1070
   147
1040
2.25
1070
    42
1040
1.5875
1070
    44
1040
2.0
1070
   140
1040
4.5
1002
}
1001
ACAD_DSTYLE_DIM_LINETYPE
1070
   380
1005
16
1001
ACAD_DSTYLE_DIM_EXT1_LINETYPE
1070
   381
1005
16
1001
ACAD_DSTYLE_DIM_EXT2_LINETYPE
1070
   382
1005
16
0
ENDSEC
0
SECTION
2
OBJECTS
0
DICTIONARY
5
229
330
0
100
AcDbDictionary
280
0
281
1
3
ACAD_GROUP
350
22a
3
ACAD_MLINESTYLE
350
22b
0
DICTIONARY
5
22a
330
0
100
AcDbDictionary
280
0
281
1
0
DICTIONARY
5
22b
330
0
100
AcDbDictionary
280
0
281
1
3
Standard
350
18
0
MLINESTYLE
5
18
330
22b
100
AcDbMlineStyle
2
Standard
70
0
3

62
256
51
90
52
90
71
2
49
-0.5
62
256
6
ByLayer
49
0.5
62
256
6
ByLayer
0
RASTERVARIABLES
5
216
330

100
AcDbRasterVariables
90
0
70
1
71
1
72
1
0
ENDSEC
0
EOF
