0
SECTION
2
HEADER
9
$ACADVER
1
AC1015
9
$DWGCODEPAGE
3
ANSI_1252
9
$HANDSEED
5
30f
9
$ANGBASE
50
0
9
$ANGDIR
70
0
9
$ATTMODE
70
1
9
$AUNITS
70
0
9
$AUPREC
70
0
9
$CECOLOR
62
256
9
$CELTSCALE
40
1
9
$CELTYPE
6
ByLayer
9
$CELWEIGHT
370
18
9
$CLAYER
8
0
9
$CMLJUST
70
0
9
$CMLSCALE
40
1
9
$CMLSTYLE
2
Standard
9
$DIMSTYLE
2
Standard
9
$TEXTSIZE
40
0.2
9
$TEXTSTYLE
7
Standard
9
$LUNITS
70
2
9
$LUPREC
70
4
9
$EXTNAMES
290
1
9
$INSUNITS
70
4
9
$LTSCALE
40
1
9
$LWDISPLAY
290
1
9
$PDMODE
70
0
9
$PDSIZE
40
0
9
$PLINEGEN
70
0
0
ENDSEC
0
SECTION
2
CLASSES
0
CLASS
1
RASTERVARIABLES
2
AcDbRasterVariables
3
ISM
90
0
280
0
281
0
0
ENDSEC
0
SECTION
2
TABLES
0
TABLE
2
VPORT
5
305
100
AcDbSymbolTable
0
VPORT
5
1
100
AcDbSymbolTableRecord
100
AcDbViewportTableRecord
2
*Active
70
0
10
0
20
0
11
1
21
1
12
-1
22
1
13
0
23
0
14
0.5
24
0.5
15
10
25
10
16
0
26
0
36
1
17
0
27
0
37
0
0
ENDTAB
0
TABLE
2
LTYPE
5
306
100
AcDbSymbolTable
0
LTYPE
5
14
100
AcDbSymbolTableRecord
100
AcDbLinetypeTableRecord
70
0
2
ByBlock
3

72
65
73
0
40
0
0
LTYPE
5
15
100
AcDbSymbolTableRecord
100
AcDbLinetypeTableRecord
70
0
2
ByLayer
3

72
65
73
0
40
0
0
LTYPE
5
16
100
AcDbSymbolTableRecord
100
AcDbLinetypeTableRecord
70
0
2
CONTINUOUS
3
Solid line
72
65
73
0
40
0
0
LTYPE
5
6A
100
AcDbSymbolTableRecord
100
AcDbLinetypeTableRecord
70
0
2
CENTER
3
____ _ ____ _ ____ _ ____
72
65
73
4
40
47.5
49
22
74
0
49
-8.5
74
0
49
8.5
74
0
49
-8.5
74
0
0
LTYPE
5
6B
100
AcDbSymbolTableRecord
100
AcDbLinetypeTableRecord
70
0
2
DASHED
3
__ __ __ __ __ __ __ __ __
72
65
73
2
40
25.72
49
12.86
74
0
49
-12.86
74
0
0
ENDTAB
0
TABLE
2
LAYER
5
307
100
AcDbSymbolTable
0
LAYER
5
10
100
AcDbSymbolTableRecord
100
AcDbLayerTableRecord
2
0
70
0
62
7
6
CONTINUOUS
290
1
370
-3
390
0
0
LAYER
5
6D
100
AcDbSymbolTableRecord
100
AcDbLayerTableRecord
2
80
70
0
62
-6
6
CONTINUOUS
290
1
370
-3
390
0
0
LAYER
5
6F
100
AcDbSymbolTableRecord
100
AcDbLayerTableRecord
2
81
70
0
62
-3
6
CONTINUOUS
290
1
370
-3
390
0
0
LAYER
5
76
100
AcDbSymbolTableRecord
100
AcDbLayerTableRecord
2
1
70
0
62
4
6
CONTINUOUS
290
1
370
-3
390
0
0
LAYER
5
96
100
AcDbSymbolTableRecord
100
AcDbLayerTableRecord
2
4
70
0
62
-2
6
CENTER
290
1
370
-3
390
0
0
LAYER
5
26E
100
AcDbSymbolTableRecord
100
AcDbLayerTableRecord
2
2
70
0
62
7
6
CONTINUOUS
290
1
370
-3
390
0
0
LAYER
5
2f1
100
AcDbSymbolTableRecord
100
AcDbLayerTableRecord
2
SK2
70
0
62
7
6
CONTINUOUS
290
1
370
-3
390
0
0
LAYER
5
2f2
100
AcDbSymbolTableRecord
100
AcDbLayerTableRecord
2
SK1
70
0
62
4
6
CONTINUOUS
290
1
370
-3
390
0
0
LAYER
5
2f3
100
AcDbSymbolTableRecord
100
AcDbLayerTableRecord
2
SK4
70
0
62
2
6
CENTER
290
1
370
-3
390
0
0
LAYER
5
2f4
100
AcDbSymbolTableRecord
100
AcDbLayerTableRecord
2
SK6
70
0
62
5
6
CONTINUOUS
290
1
370
-3
390
0
0
ENDTAB
0
TABLE
2
STYLE
5
308
100
AcDbSymbolTable
0
STYLE
5
11
100
AcDbSymbolTableRecord
100
AcDbTextStyleTableRecord
2
Standard
3
txt
70
0
71
0
40
0
41
1
42
0
50
0
0
STYLE
5
255
100
AcDbSymbolTableRecord
100
AcDbTextStyleTableRecord
2
iso_b_vert
3
simplex.shx
70
0
71
0
40
0
41
1
42
0
50
0
0
STYLE
5
256
100
AcDbSymbolTableRecord
100
AcDbTextStyleTableRecord
2
DWGDirectTextStyle
3
simplex
70
0
71
0
40
0
41
1
42
0
50
0
0
ENDTAB
0
TABLE
2
DIMSTYLE
5
309
100
AcDbSymbolTable
100
AcDbDimStyleTable
0
DIMSTYLE
105
27
100
AcDbSymbolTableRecord
100
AcDbDimStyleTableRecord
2
Standard
70
0
3
<>
41
0.18
42
0.0625
44
0.18
140
0.18
147
0.09
73
0
74
0
77
1
271
2
275
0
278
52
280
0
340
11
0
ENDTAB
0
TABLE
2
VIEW
5
30a
100
AcDbSymbolTable
0
ENDTAB
0
TABLE
2
UCS
5
30b
100
AcDbSymbolTable
0
ENDTAB
0
TABLE
2
APPID
5
30c
100
AcDbSymbolTable
0
APPID
5
12
100
AcDbSymbolTableRecord
100
AcDbRegAppTableRecord
2
ACAD
70
0
0
ENDTAB
0
TABLE
2
BLOCK_RECORD
5
30d
100
AcDbSymbolTable
0
BLOCK_RECORD
5
1F
100
AcDbSymbolTableRecord
100
AcDbBlockTableRecord
2
*Model_Space
340
0
70
0
0
BLOCK_RECORD
5
1B
100
AcDbSymbolTableRecord
100
AcDbBlockTableRecord
2
*Paper_Space
340
0
70
0
0
BLOCK_RECORD
5
23
100
AcDbSymbolTableRecord
100
AcDbBlockTableRecord
2
*Paper_Space0
340
0
70
0
0
BLOCK_RECORD
5
258
100
AcDbSymbolTableRecord
100
AcDbBlockTableRecord
2
DimnDraft3D1
340
0
70
0
0
BLOCK_RECORD
5
262
100
AcDbSymbolTableRecord
100
AcDbBlockTableRecord
2
DimnDraft3D2
340
0
70
0
0
BLOCK_RECORD
5
26C
100
AcDbSymbolTableRecord
100
AcDbBlockTableRecord
2
DimnDraft3D3
340
0
70
0
0
BLOCK_RECORD
5
277
100
AcDbSymbolTableRecord
100
AcDbBlockTableRecord
2
DimnDraft3D4
340
0
70
0
0
BLOCK_RECORD
5
282
100
AcDbSymbolTableRecord
100
AcDbBlockTableRecord
2
DimnDraft3D5
340
0
70
0
0
BLOCK_RECORD
5
28D
100
AcDbSymbolTableRecord
100
AcDbBlockTableRecord
2
DimnDraft3D6
340
0
70
0
0
ENDTAB
0
ENDSEC
0
SECTION
2
BLOCKS
0
BLOCK
5
20
100
AcDbEntity
8
0
100
AcDbBlockBegin
2
*Model_Space
70
0
10
0
20
0
30
0
3
*Model_Space
0
ENDBLK
5
21
100
AcDbEntity
8
0
100
AcDbBlockEnd
0
BLOCK
5
1C
100
AcDbEntity
8
0
100
AcDbBlockBegin
2
*Paper_Space
70
0
10
0
20
0
30
0
3
*Paper_Space
0
ENDBLK
5
1D
100
AcDbEntity
8
0
100
AcDbBlockEnd
0
BLOCK
5
24
100
AcDbEntity
8
0
100
AcDbBlockBegin
2
*Paper_Space0
70
0
10
0
20
0
30
0
3
*Paper_Space0
0
ENDBLK
5
25
100
AcDbEntity
8
0
100
AcDbBlockEnd
0
BLOCK
5
25F
100
AcDbEntity
8
0
100
AcDbBlockBegin
2
DimnDraft3D1
70
0
10
0
20
0
30
0
3
DimnDraft3D1
0
MTEXT
5
259
100
AcDbEntity
8
SK2
62
256
6
ByLayer
370
18
48
1
60
0
100
AcDbMText
10
70.767801
20
56.475159
30
0
210
0
220
0
230
1
1
\W0.7346;90.0
40
3.5
41
0
44
1.084337
50
0
71
7
72
5
7
iso_b_vert
0
LINE
5
25A
100
AcDbEntity
8
SK2
62
256
6
ByLayer
370
13
48
1
60
0
100
AcDbLine
10
29
20
2.5875
30
0
11
29
21
57.600025
31
0
39
0
210
0
220
0
230
1
0
LINE
5
25B
100
AcDbEntity
8
SK2
62
256
6
ByLayer
370
13
48
1
60
0
100
AcDbLine
10
119
20
-7.4125
30
0
11
119
21
57.600025
31
0
39
0
210
0
220
0
230
1
0
LINE
5
25C
100
AcDbEntity
8
SK2
62
256
6
ByLayer
370
13
48
1
60
0
100
AcDbLine
10
29
20
55.600025
30
0
11
119
21
55.600025
31
0
39
0
210
0
220
0
230
1
0
SOLID
5
25D
100
AcDbEntity
8
SK2
62
256
6
ByLayer
370
13
48
1
60
0
100
AcDbTrace
10
29
20
55.600025
30
0
11
32.499998
21
56.060809
31
0
12
32.500002
22
55.139241
32
0
13
29
23
55.600025
33
0
39
0
210
0
220
0
230
1
0
SOLID
5
25E
100
AcDbEntity
8
SK2
62
256
6
ByLayer
370
13
48
1
60
0
100
AcDbTrace
10
119
20
55.600025
30
0
11
115.500002
21
55.139241
31
0
12
115.499998
22
56.060809
32
0
13
119
23
55.600025
33
0
39
0
210
0
220
0
230
1
0
ENDBLK
5
260
100
AcDbEntity
8
0
100
AcDbBlockEnd
0
BLOCK
5
269
100
AcDbEntity
8
0
100
AcDbBlockBegin
2
DimnDraft3D2
70
0
10
0
20
0
30
0
3
DimnDraft3D2
0
MTEXT
5
263
100
AcDbEntity
8
SK2
62
256
6
ByLayer
370
18
48
1
60
0
100
AcDbMText
10
139.013077
20
-17.732199
30
0
210
0
220
0
230
1
1
\W0.7346;29.0
40
3.5
41
0
44
1.084337
50
90
71
7
72
5
7
iso_b_vert
0
LINE
5
264
100
AcDbEntity
8
SK2
62
256
6
ByLayer
370
13
48
1
60
0
100
AcDbLine
10
120.5875
20
-29
30
0
11
141.888211
21
-29
31
0
39
0
210
0
220
0
230
1
0
LINE
5
265
100
AcDbEntity
8
SK2
62
256
6
ByLayer
370
13
48
1
60
0
100
AcDbLine
10
120.5875
20
0
30
0
11
141.888211
21
0
31
0
39
0
210
0
220
0
230
1
0
LINE
5
266
100
AcDbEntity
8
SK2
62
256
6
ByLayer
370
13
48
1
60
0
100
AcDbLine
10
139.888211
20
-29
30
0
11
139.888211
21
0
31
0
39
0
210
0
220
0
230
1
0
SOLID
5
267
100
AcDbEntity
8
SK2
62
256
6
ByLayer
370
13
48
1
60
0
100
AcDbTrace
10
139.888211
20
-29
30
0
11
139.427427
21
-25.500002
31
0
12
140.348994
22
-25.499998
32
0
13
139.888211
23
-29
33
0
39
0
210
0
220
0
230
1
0
SOLID
5
268
100
AcDbEntity
8
SK2
62
256
6
ByLayer
370
13
48
1
60
0
100
AcDbTrace
10
139.888211
20
0
30
0
11
140.348994
21
-3.499998
31
0
12
139.427427
22
-3.500002
32
0
13
139.888211
23
0
33
0
39
0
210
0
220
0
230
1
0
ENDBLK
5
26A
100
AcDbEntity
8
0
100
AcDbBlockEnd
0
BLOCK
5
274
100
AcDbEntity
8
0
100
AcDbBlockBegin
2
DimnDraft3D3
70
0
10
0
20
0
30
0
3
DimnDraft3D3
0
MTEXT
5
26D
100
AcDbEntity
8
2
62
256
6
ByLayer
370
18
48
1
60
0
100
AcDbMText
10
55.834934
20
66.475159
30
0
210
0
220
0
230
1
1
\W0.6261;119.0
40
3.5
41
0
44
1.084337
50
0
71
7
72
5
7
iso_b_vert
0
LINE
5
26F
100
AcDbEntity
8
2
62
256
6
ByLayer
370
13
48
1
60
0
100
AcDbLine
10
0
20
50.5875
30
0
11
0
21
67.600025
31
0
39
0
210
0
220
0
230
1
0
LINE
5
270
100
AcDbEntity
8
2
62
256
6
ByLayer
370
13
48
1
60
0
100
AcDbLine
10
119
20
-7.4125
30
0
11
119
21
67.600025
31
0
39
0
210
0
220
0
230
1
0
LINE
5
271
100
AcDbEntity
8
2
62
256
6
ByLayer
370
13
48
1
60
0
100
AcDbLine
10
0
20
65.600025
30
0
11
119
21
65.600025
31
0
39
0
210
0
220
0
230
1
0
SOLID
5
272
100
AcDbEntity
8
2
62
256
6
ByLayer
370
13
48
1
60
0
100
AcDbTrace
10
0
20
65.600025
30
0
11
3.499998
21
66.060809
31
0
12
3.500002
22
65.139241
32
0
13
0
23
65.600025
33
0
39
0
210
0
220
0
230
1
0
SOLID
5
273
100
AcDbEntity
8
2
62
256
6
ByLayer
370
13
48
1
60
0
100
AcDbTrace
10
119
20
65.600025
30
0
11
115.500002
21
65.139241
31
0
12
115.499998
22
66.060809
32
0
13
119
23
65.600025
33
0
39
0
210
0
220
0
230
1
0
ENDBLK
5
275
100
AcDbEntity
8
0
100
AcDbBlockEnd
0
BLOCK
5
27F
100
AcDbEntity
8
0
100
AcDbBlockBegin
2
DimnDraft3D4
70
0
10
0
20
0
30
0
3
DimnDraft3D4
0
MTEXT
5
278
100
AcDbEntity
8
SK2
62
256
6
ByLayer
370
18
48
1
60
0
100
AcDbMText
10
-96.350134
20
3.159534
30
0
210
0
220
0
230
1
1
\W0.6740;98
40
3.5
41
0
44
1.084337
50
90
71
7
72
5
7
iso_b_vert
0
MTEXT
5
279
100
AcDbEntity
8
SK2
62
256
6
ByLayer
370
18
48
1
60
0
100
AcDbMText
10
-96.350134
20
-3.813122
30
0
210
0
220
0
230
1
1
%%c
40
3.5
41
0
44
1.084337
50
90
71
7
72
5
7
iso_b_vert
0
LINE
5
27A
100
AcDbEntity
8
SK2
62
256
6
ByLayer
370
13
48
1
60
0
100
AcDbLine
10
-1.5875
20
49
30
0
11
-96.6
21
49
31
0
39
0
210
0
220
0
230
1
0
LINE
5
27B
100
AcDbEntity
8
SK2
62
256
6
ByLayer
370
13
48
1
60
0
100
AcDbLine
10
-1.5875
20
-49
30
0
11
-96.6
21
-49
31
0
39
0
210
0
220
0
230
1
0
LINE
5
27C
100
AcDbEntity
8
SK2
62
256
6
ByLayer
370
13
48
1
60
0
100
AcDbLine
10
-94.6
20
49
30
0
11
-94.6
21
-49
31
0
39
0
210
0
220
0
230
1
0
SOLID
5
27D
100
AcDbEntity
8
SK2
62
256
6
ByLayer
370
13
48
1
60
0
100
AcDbTrace
10
-94.6
20
49
30
0
11
-94.139216
21
45.500002
31
0
12
-95.060784
22
45.499998
32
0
13
-94.6
23
49
33
0
39
0
210
0
220
0
230
1
0
SOLID
5
27E
100
AcDbEntity
8
SK2
62
256
6
ByLayer
370
13
48
1
60
0
100
AcDbTrace
10
-94.6
20
-49
30
0
11
-95.060784
21
-45.500002
31
0
12
-94.139216
22
-45.499998
32
0
13
-94.6
23
-49
33
0
39
0
210
0
220
0
230
1
0
ENDBLK
5
280
100
AcDbEntity
8
0
100
AcDbBlockEnd
0
BLOCK
5
28A
100
AcDbEntity
8
0
100
AcDbBlockBegin
2
DimnDraft3D5
70
0
10
0
20
0
30
0
3
DimnDraft3D5
0
MTEXT
5
283
100
AcDbEntity
8
SK2
62
256
6
ByLayer
370
18
48
1
60
0
100
AcDbMText
10
148.138077
20
-26.024733
30
0
210
0
220
0
230
1
1
\W0.7361;40
40
3.5
41
0
44
1.084337
50
90
71
7
72
5
7
iso_b_vert
0
MTEXT
5
284
100
AcDbEntity
8
SK2
62
256
6
ByLayer
370
18
48
1
60
0
100
AcDbMText
10
148.138077
20
-32.997389
30
0
210
0
220
0
230
1
1
%%c
40
3.5
41
0
44
1.084337
50
90
71
7
72
5
7
iso_b_vert
0
LINE
5
285
100
AcDbEntity
8
SK2
62
256
6
ByLayer
370
13
48
1
60
0
100
AcDbLine
10
120.5875
20
-9
30
0
11
151.888211
21
-9
31
0
39
0
210
0
220
0
230
1
0
LINE
5
286
100
AcDbEntity
8
SK2
62
256
6
ByLayer
370
13
48
1
60
0
100
AcDbLine
10
120.5875
20
-49
30
0
11
151.888211
21
-49
31
0
39
0
210
0
220
0
230
1
0
LINE
5
287
100
AcDbEntity
8
SK2
62
256
6
ByLayer
370
13
48
1
60
0
100
AcDbLine
10
149.888211
20
-9
30
0
11
149.888211
21
-49
31
0
39
0
210
0
220
0
230
1
0
SOLID
5
288
100
AcDbEntity
8
SK2
62
256
6
ByLayer
370
13
48
1
60
0
100
AcDbTrace
10
149.888211
20
-9
30
0
11
150.348994
21
-12.499998
31
0
12
149.427427
22
-12.500002
32
0
13
149.888211
23
-9
33
0
39
0
210
0
220
0
230
1
0
SOLID
5
289
100
AcDbEntity
8
SK2
62
256
6
ByLayer
370
13
48
1
60
0
100
AcDbTrace
10
149.888211
20
-49
30
0
11
149.427427
21
-45.500002
31
0
12
150.348994
22
-45.499998
32
0
13
149.888211
23
-49
33
0
39
0
210
0
220
0
230
1
0
ENDBLK
5
28B
100
AcDbEntity
8
0
100
AcDbBlockEnd
0
BLOCK
5
295
100
AcDbEntity
8
0
100
AcDbBlockBegin
2
DimnDraft3D6
70
0
10
0
20
0
30
0
3
DimnDraft3D6
0
MTEXT
5
28E
100
AcDbEntity
8
SK2
62
256
6
ByLayer
370
18
48
1
60
0
100
AcDbMText
10
158.138077
20
-20.840466
30
0
210
0
220
0
230
1
1
\W0.6740;50
40
3.5
41
0
44
1.084337
50
90
71
7
72
5
7
iso_b_vert
0
MTEXT
5
28F
100
AcDbEntity
8
SK2
62
256
6
ByLayer
370
18
48
1
60
0
100
AcDbMText
10
158.138077
20
-27.813122
30
0
210
0
220
0
230
1
1
%%c
40
3.5
41
0
44
1.084337
50
90
71
7
72
5
7
iso_b_vert
0
LINE
5
290
100
AcDbEntity
8
SK2
62
256
6
ByLayer
370
13
48
1
60
0
100
AcDbLine
10
120.5875
20
-49
30
0
11
161.888211
21
-49
31
0
39
0
210
0
220
0
230
1
0
LINE
5
291
100
AcDbEntity
8
SK2
62
256
6
ByLayer
370
13
48
1
60
0
100
AcDbLine
10
113.708008
20
1
30
0
11
161.888211
21
1
31
0
39
0
210
0
220
0
230
1
0
LINE
5
292
100
AcDbEntity
8
SK2
62
256
6
ByLayer
370
13
48
1
60
0
100
AcDbLine
10
159.888211
20
-49
30
0
11
159.888211
21
1
31
0
39
0
210
0
220
0
230
1
0
SOLID
5
293
100
AcDbEntity
8
SK2
62
256
6
ByLayer
370
13
48
1
60
0
100
AcDbTrace
10
159.888211
20
-49
30
0
11
159.427427
21
-45.500002
31
0
12
160.348994
22
-45.499998
32
0
13
159.888211
23
-49
33
0
39
0
210
0
220
0
230
1
0
SOLID
5
294
100
AcDbEntity
8
SK2
62
256
6
ByLayer
370
13
48
1
60
0
100
AcDbTrace
10
159.888211
20
1
30
0
11
160.348994
21
-2.499998
31
0
12
159.427427
22
-2.500002
32
0
13
159.888211
23
1
33
0
39
0
210
0
220
0
230
1
0
ENDBLK
5
296
100
AcDbEntity
8
0
100
AcDbBlockEnd
0
ENDSEC
0
SECTION
2
ENTITIES
0
ARC
5
16C
100
AcDbEntity
8
1
62
256
6
ByLayer
370
18
48
1
60
0
100
AcDbCircle
39
0
10
128.9255
20
-34.499495
30
0
40
0.6
210
0
220
0
230
1
100
AcDbArc
50
0
51
90
0
ARC
5
16D
100
AcDbEntity
8
1
62
256
6
ByLayer
370
18
48
1
60
0
100
AcDbCircle
39
0
10
-123.4255
20
-22.350505
30
0
40
0.25
210
0
220
0
230
-1
100
AcDbArc
50
90
51
180
0
ARC
5
16E
100
AcDbEntity
8
1
62
256
6
ByLayer
370
18
48
1
60
0
100
AcDbCircle
39
0
10
128.9255
20
-43.299495
30
0
40
0.6
210
0
220
0
230
1
100
AcDbArc
50
270
51
0
0
ARC
5
16F
100
AcDbEntity
8
1
62
256
6
ByLayer
370
18
48
1
60
0
100
AcDbCircle
39
0
10
-123.4255
20
-35.649495
30
0
40
0.25
210
0
220
0
230
-1
100
AcDbArc
50
180
51
270
0
ARC
5
170
100
AcDbEntity
8
1
62
256
6
ByLayer
370
18
48
1
60
0
100
AcDbCircle
39
0
10
128.9255
20
-14.700505
30
0
40
0.6
210
0
220
0
230
1
100
AcDbArc
50
0
51
90
0
ARC
5
171
100
AcDbEntity
8
1
62
256
6
ByLayer
370
18
48
1
60
0
100
AcDbCircle
39
0
10
128.9255
20
-23.500505
30
0
40
0.6
210
0
220
0
230
1
100
AcDbArc
50
270
51
0
0
ARC
5
172
100
AcDbEntity
8
1
62
256
6
ByLayer
370
18
48
1
60
0
100
AcDbCircle
39
0
10
-123.4255
20
-15.850505
30
0
40
0.25
210
0
220
0
230
-1
100
AcDbArc
50
180
51
270
0
ARC
5
173
100
AcDbEntity
8
1
62
256
6
ByLayer
370
18
48
1
60
0
100
AcDbCircle
39
0
10
-123.4255
20
-42.149495
30
0
40
0.25
210
0
220
0
230
-1
100
AcDbArc
50
90
51
180
0
ARC
5
174
100
AcDbEntity
8
1
62
256
6
ByLayer
370
18
48
1
60
0
100
AcDbCircle
39
0
10
-29
20
5
30
0
40
4
210
0
220
0
230
-1
100
AcDbArc
50
270
51
0
0
ARC
5
175
100
AcDbEntity
8
SK1
62
256
6
ByLayer
370
18
48
1
60
0
100
AcDbCircle
39
0
10
0.75
20
-25.525
30
0
40
1.2
210
0
220
0
230
-1
100
AcDbArc
50
90
51
128.682187
0
ARC
5
176
100
AcDbEntity
8
SK1
62
256
6
ByLayer
370
18
48
1
60
0
100
AcDbCircle
39
0
10
0.75
20
25.525
30
0
40
1.2
210
0
220
0
230
-1
100
AcDbArc
50
231.317813
51
270
0
ARC
5
177
100
AcDbEntity
8
SK1
62
256
6
ByLayer
370
18
48
1
60
0
100
AcDbCircle
39
0
10
1.037811
20
-25.525
30
0
40
1.2
210
0
220
0
230
-1
100
AcDbArc
50
75
51
90
0
ARC
5
178
100
AcDbEntity
8
SK1
62
256
6
ByLayer
370
18
48
1
60
0
100
AcDbCircle
39
0
10
1.037811
20
25.525
30
0
40
1.2
210
0
220
0
230
-1
100
AcDbArc
50
270
51
285
0
ARC
5
179
100
AcDbEntity
8
1
62
256
6
ByLayer
370
18
48
1
60
0
100
AcDbCircle
39
0
10
-114.8
20
-8
30
0
40
1
210
0
220
0
230
-1
100
AcDbArc
50
270
51
345
0
ARC
5
17B
100
AcDbEntity
8
SK1
62
256
6
ByLayer
370
18
48
1
60
0
100
AcDbCircle
39
0
10
39.39732
20
0
30
0
40
24.9959999951598
210
0
220
0
230
-1
100
AcDbArc
50
36.842382
51
42.207984
0
ARC
5
17C
100
AcDbEntity
8
SK1
62
256
6
ByLayer
370
18
48
1
60
0
100
AcDbCircle
39
0
10
39.39732
20
0
30
0
40
24.995999977414
210
0
220
0
230
-1
100
AcDbArc
50
317.792016
51
323.157618
0
ARC
5
17D
100
AcDbEntity
8
SK1
62
256
6
ByLayer
370
18
48
1
60
0
100
AcDbCircle
39
0
10
76.00268
20
0
30
0
40
24.995999982579
210
0
220
0
230
-1
100
AcDbArc
50
216.842382
51
222.207984
0
ARC
5
17E
100
AcDbEntity
8
SK1
62
256
6
ByLayer
370
18
48
1
60
0
100
AcDbCircle
39
0
10
72.00268
20
0
30
0
40
24.9959999964422
210
0
220
0
230
-1
100
AcDbArc
50
216.842382
51
222.207984
0
ARC
5
17F
100
AcDbEntity
8
SK1
62
256
6
ByLayer
370
18
48
1
60
0
100
AcDbCircle
39
0
10
31.39732
20
0
30
0
40
24.996000005842
210
0
220
0
230
-1
100
AcDbArc
50
317.792016
51
323.157618
0
ARC
5
180
100
AcDbEntity
8
SK1
62
256
6
ByLayer
370
18
48
1
60
0
100
AcDbCircle
39
0
10
68.00268
20
0
30
0
40
24.9959999936899
210
0
220
0
230
-1
100
AcDbArc
50
216.842382
51
222.207984
0
ARC
5
181
100
AcDbEntity
8
SK1
62
256
6
ByLayer
370
18
48
1
60
0
100
AcDbCircle
39
0
10
27.39732
20
0
30
0
40
24.9959999805579
210
0
220
0
230
-1
100
AcDbArc
50
317.792016
51
323.157618
0
ARC
5
182
100
AcDbEntity
8
SK1
62
256
6
ByLayer
370
18
48
1
60
0
100
AcDbCircle
39
0
10
64.00268
20
0
30
0
40
24.9959999964422
210
0
220
0
230
-1
100
AcDbArc
50
216.842382
51
222.207984
0
ARC
5
183
100
AcDbEntity
8
SK1
62
256
6
ByLayer
370
18
48
1
60
0
100
AcDbCircle
39
0
10
23.39732
20
0
30
0
40
24.996000012865
210
0
220
0
230
-1
100
AcDbArc
50
317.792016
51
323.157618
0
ARC
5
184
100
AcDbEntity
8
SK1
62
256
6
ByLayer
370
18
48
1
60
0
100
AcDbCircle
39
0
10
60.00268
20
0
30
0
40
24.995999982579
210
0
220
0
230
-1
100
AcDbArc
50
216.842382
51
222.207984
0
ARC
5
185
100
AcDbEntity
8
SK1
62
256
6
ByLayer
370
18
48
1
60
0
100
AcDbCircle
39
0
10
19.39732
20
0
30
0
40
24.9959999805579
210
0
220
0
230
-1
100
AcDbArc
50
317.792016
51
323.157618
0
ARC
5
186
100
AcDbEntity
8
SK1
62
256
6
ByLayer
370
18
48
1
60
0
100
AcDbCircle
39
0
10
56.00268
20
0
30
0
40
24.9959999964422
210
0
220
0
230
-1
100
AcDbArc
50
216.842382
51
222.207984
0
ARC
5
187
100
AcDbEntity
8
SK1
62
256
6
ByLayer
370
18
48
1
60
0
100
AcDbCircle
39
0
10
15.39732
20
0
30
0
40
24.9959999825226
210
0
220
0
230
-1
100
AcDbArc
50
317.792016
51
323.157618
0
ARC
5
188
100
AcDbEntity
8
SK1
62
256
6
ByLayer
370
18
48
1
60
0
100
AcDbCircle
39
0
10
52.00268
20
0
30
0
40
24.9960000043099
210
0
220
0
230
-1
100
AcDbArc
50
216.842382
51
222.207984
0
ARC
5
189
100
AcDbEntity
8
SK1
62
256
6
ByLayer
370
18
48
1
60
0
100
AcDbCircle
39
0
10
11.39732
20
0
30
0
40
24.9959999887531
210
0
220
0
230
-1
100
AcDbArc
50
317.792016
51
323.157618
0
ARC
5
18A
100
AcDbEntity
8
SK1
62
256
6
ByLayer
370
18
48
1
60
0
100
AcDbCircle
39
0
10
48.00268
20
0
30
0
40
24.9959999978965
210
0
220
0
230
-1
100
AcDbArc
50
216.842382
51
222.207984
0
ARC
5
18B
100
AcDbEntity
8
SK1
62
256
6
ByLayer
370
18
48
1
60
0
100
AcDbCircle
39
0
10
7.39732
20
0
30
0
40
24.9960000037833
210
0
220
0
230
-1
100
AcDbArc
50
317.792016
51
323.157618
0
ARC
5
18C
100
AcDbEntity
8
SK1
62
256
6
ByLayer
370
18
48
1
60
0
100
AcDbCircle
39
0
10
44.00268
20
0
30
0
40
24.9959999978965
210
0
220
0
230
-1
100
AcDbArc
50
216.842382
51
222.207984
0
ARC
5
18D
100
AcDbEntity
8
SK1
62
256
6
ByLayer
370
18
48
1
60
0
100
AcDbCircle
39
0
10
3.39732
20
0
30
0
40
24.9960000157361
210
0
220
0
230
-1
100
AcDbArc
50
317.792016
51
323.157618
0
ARC
5
18E
100
AcDbEntity
8
SK1
62
256
6
ByLayer
370
18
48
1
60
0
100
AcDbCircle
39
0
10
40.00268
20
0
30
0
40
24.9959999978965
210
0
220
0
230
-1
100
AcDbArc
50
216.842382
51
222.207984
0
ARC
5
18F
100
AcDbEntity
8
SK1
62
256
6
ByLayer
370
18
48
1
60
0
100
AcDbCircle
39
0
10
-0.60268
20
0
30
0
40
24.9959999958043
210
0
220
0
230
-1
100
AcDbArc
50
317.792016
51
323.157618
0
ARC
5
190
100
AcDbEntity
8
SK1
62
256
6
ByLayer
370
18
48
1
60
0
100
AcDbCircle
39
0
10
36.00268
20
0
30
0
40
24.9959999978965
210
0
220
0
230
-1
100
AcDbArc
50
216.842382
51
222.207984
0
ARC
5
191
100
AcDbEntity
8
SK1
62
256
6
ByLayer
370
18
48
1
60
0
100
AcDbCircle
39
0
10
-4.60268
20
0
30
0
40
24.995999997205
210
0
220
0
230
-1
100
AcDbArc
50
317.792016
51
323.157618
0
ARC
5
192
100
AcDbEntity
8
SK1
62
256
6
ByLayer
370
18
48
1
60
0
100
AcDbCircle
39
0
10
32.00268
20
0
30
0
40
24.9959999978965
210
0
220
0
230
-1
100
AcDbArc
50
216.842382
51
222.207984
0
ARC
5
193
100
AcDbEntity
8
SK1
62
256
6
ByLayer
370
18
48
1
60
0
100
AcDbCircle
39
0
10
32.00268
20
0
30
0
40
24.9959999975667
210
0
220
0
230
-1
100
AcDbArc
50
137.792016
51
143.157618
0
ARC
5
194
100
AcDbEntity
8
SK1
62
256
6
ByLayer
370
18
48
1
60
0
100
AcDbCircle
39
0
10
-4.60268
20
0
30
0
40
24.9959999983639
210
0
220
0
230
-1
100
AcDbArc
50
36.842382
51
42.207984
0
ARC
5
195
100
AcDbEntity
8
SK1
62
256
6
ByLayer
370
18
48
1
60
0
100
AcDbCircle
39
0
10
36.00268
20
0
30
0
40
24.9959999926606
210
0
220
0
230
-1
100
AcDbArc
50
137.792016
51
143.157618
0
ARC
5
196
100
AcDbEntity
8
SK1
62
256
6
ByLayer
370
18
48
1
60
0
100
AcDbCircle
39
0
10
-0.60268
20
0
30
0
40
24.9960000114752
210
0
220
0
230
-1
100
AcDbArc
50
36.842382
51
42.207984
0
ARC
5
197
100
AcDbEntity
8
SK1
62
256
6
ByLayer
370
18
48
1
60
0
100
AcDbCircle
39
0
10
40.00268
20
0
30
0
40
24.9959999940668
210
0
220
0
230
-1
100
AcDbArc
50
137.792016
51
143.157618
0
ARC
5
198
100
AcDbEntity
8
SK1
62
256
6
ByLayer
370
18
48
1
60
0
100
AcDbCircle
39
0
10
3.39732
20
0
30
0
40
24.9960000037715
210
0
220
0
230
-1
100
AcDbArc
50
36.842382
51
42.207984
0
ARC
5
199
100
AcDbEntity
8
SK1
62
256
6
ByLayer
370
18
48
1
60
0
100
AcDbCircle
39
0
10
44.00268
20
0
30
0
40
24.9959999926606
210
0
220
0
230
-1
100
AcDbArc
50
137.792016
51
143.157618
0
ARC
5
19A
100
AcDbEntity
8
SK1
62
256
6
ByLayer
370
18
48
1
60
0
100
AcDbCircle
39
0
10
7.39732
20
0
30
0
40
24.9960000055635
210
0
220
0
230
-1
100
AcDbArc
50
36.842382
51
42.207984
0
ARC
5
19B
100
AcDbEntity
8
SK1
62
256
6
ByLayer
370
18
48
1
60
0
100
AcDbCircle
39
0
10
48.00268
20
0
30
0
40
24.9959999926606
210
0
220
0
230
-1
100
AcDbArc
50
137.792016
51
143.157618
0
ARC
5
19C
100
AcDbEntity
8
SK1
62
256
6
ByLayer
370
18
48
1
60
0
100
AcDbCircle
39
0
10
11.39732
20
0
30
0
40
24.9960000030103
210
0
220
0
230
-1
100
AcDbArc
50
36.842382
51
42.207984
0
ARC
5
19D
100
AcDbEntity
8
SK1
62
256
6
ByLayer
370
18
48
1
60
0
100
AcDbCircle
39
0
10
52.00268
20
0
30
0
40
24.9959999933701
210
0
220
0
230
-1
100
AcDbArc
50
137.792016
51
143.157618
0
ARC
5
19E
100
AcDbEntity
8
SK1
62
256
6
ByLayer
370
18
48
1
60
0
100
AcDbCircle
39
0
10
15.39732
20
0
30
0
40
24.995999984768
210
0
220
0
230
-1
100
AcDbArc
50
36.842382
51
42.207984
0
ARC
5
19F
100
AcDbEntity
8
SK1
62
256
6
ByLayer
370
18
48
1
60
0
100
AcDbCircle
39
0
10
56.00268
20
0
30
0
40
24.9959999972643
210
0
220
0
230
-1
100
AcDbArc
50
137.792016
51
143.157618
0
ARC
5
1A0
100
AcDbEntity
8
SK1
62
256
6
ByLayer
370
18
48
1
60
0
100
AcDbCircle
39
0
10
19.39732
20
0
30
0
40
24.9960000047767
210
0
220
0
230
-1
100
AcDbArc
50
36.842382
51
42.207984
0
ARC
5
1A1
100
AcDbEntity
8
SK1
62
256
6
ByLayer
370
18
48
1
60
0
100
AcDbCircle
39
0
10
60.00268
20
0
30
0
40
24.9959999995651
210
0
220
0
230
-1
100
AcDbArc
50
137.792016
51
143.157618
0
ARC
5
1A2
100
AcDbEntity
8
SK1
62
256
6
ByLayer
370
18
48
1
60
0
100
AcDbCircle
39
0
10
23.39732
20
0
30
0
40
24.9959999955869
210
0
220
0
230
-1
100
AcDbArc
50
36.842382
51
42.207984
0
ARC
5
1A3
100
AcDbEntity
8
SK1
62
256
6
ByLayer
370
18
48
1
60
0
100
AcDbCircle
39
0
10
64.00268
20
0
30
0
40
24.995999997147
210
0
220
0
230
-1
100
AcDbArc
50
137.792016
51
143.157618
0
ARC
5
1A4
100
AcDbEntity
8
SK1
62
256
6
ByLayer
370
18
48
1
60
0
100
AcDbCircle
39
0
10
27.39732
20
0
30
0
40
24.9960000047767
210
0
220
0
230
-1
100
AcDbArc
50
36.842382
51
42.207984
0
ARC
5
1A5
100
AcDbEntity
8
SK1
62
256
6
ByLayer
370
18
48
1
60
0
100
AcDbCircle
39
0
10
68.00268
20
0
30
0
40
24.9959999987584
210
0
220
0
230
-1
100
AcDbArc
50
137.792016
51
143.157618
0
ARC
5
1A6
100
AcDbEntity
8
SK1
62
256
6
ByLayer
370
18
48
1
60
0
100
AcDbCircle
39
0
10
31.39732
20
0
30
0
40
24.996000018054
210
0
220
0
230
-1
100
AcDbArc
50
36.842382
51
42.207984
0
ARC
5
1A7
100
AcDbEntity
8
SK1
62
256
6
ByLayer
370
18
48
1
60
0
100
AcDbCircle
39
0
10
72.00268
20
0
30
0
40
24.9960000020774
210
0
220
0
230
-1
100
AcDbArc
50
137.792016
51
143.157618
0
ARC
5
1A8
100
AcDbEntity
8
SK1
62
256
6
ByLayer
370
18
48
1
60
0
100
AcDbCircle
39
0
10
35.39732
20
0
30
0
40
24.9959999930931
210
0
220
0
230
-1
100
AcDbArc
50
36.842382
51
42.207984
0
ARC
5
1A9
100
AcDbEntity
8
SK1
62
256
6
ByLayer
370
18
48
1
60
0
100
AcDbCircle
39
0
10
76.00268
20
0
30
0
40
24.9960000190742
210
0
220
0
230
-1
100
AcDbArc
50
137.792016
51
143.157618
0
CIRCLE
5
17A
100
AcDbEntity
8
1
62
256
6
ByLayer
370
18
48
1
60
0
100
AcDbCircle
10
14
20
-18.5
30
0
40
3
39
0
210
0
220
0
230
1
0
ELLIPSE
5
1AA
100
AcDbEntity
8
SK1
62
256
6
ByLayer
370
18
48
1
60
0
100
AcDbEllipse
10
-35.39732
20
0
30
0
11
-1.53051301928451E-15
21
24.9959999718653
31
0
210
0
220
0
230
-1
40
1
41
-2.3074646264301
42
-2.21381720506675
0
ELLIPSE
5
1AB
100
AcDbEntity
8
SK1
62
256
6
ByLayer
370
18
48
1
60
0
100
AcDbEllipse
10
-92.067643
20
1E-06
30
0
11
20.2887654060511
21
-7.7949943351182E-06
31
0
210
0
220
0
230
-1
40
0.963433
41
0.769849403251941
42
0.804639116727839
0
ELLIPSE
5
1AC
100
AcDbEntity
8
SK1
62
256
6
ByLayer
370
18
48
1
60
0
100
AcDbEllipse
10
-92.067641
20
1E-06
30
0
11
20.2887637884431
21
-6.67606651413191E-06
31
0
210
0
220
0
230
-1
40
0.963433
41
-0.804639831509728
42
-0.769850116184792
0
POINT
5
6C
100
AcDbEntity
8
80
62
256
6
ByLayer
370
18
48
1
60
0
100
AcDbPoint
10
0
20
0
30
0
39
0
210
0
220
0
230
1
50
360
0
POINT
5
6E
100
AcDbEntity
8
81
62
256
6
ByLayer
370
18
48
1
60
0
100
AcDbPoint
10
119
20
-29
30
0
39
0
210
0
220
0
230
1
50
360
0
POINT
5
70
100
AcDbEntity
8
SK2
62
256
6
ByLayer
370
18
48
1
60
1
100
AcDbPoint
10
0
20
49
30
0
39
0
210
0
220
0
230
1
50
360
0
POINT
5
72
100
AcDbEntity
8
SK2
62
256
6
ByLayer
370
18
48
1
60
1
100
AcDbPoint
10
0
20
-49
30
0
39
0
210
0
220
0
230
1
50
360
0
POINT
5
73
100
AcDbEntity
8
SK2
62
256
6
ByLayer
370
18
48
1
60
1
100
AcDbPoint
10
119
20
-9
30
0
39
0
210
0
220
0
230
1
50
360
0
POINT
5
74
100
AcDbEntity
8
SK2
62
256
6
ByLayer
370
18
48
1
60
1
100
AcDbPoint
10
119
20
-49
30
0
39
0
210
0
220
0
230
1
50
360
0
SPLINE
5
1AD
100
AcDbEntity
8
1
62
256
6
ByLayer
370
18
48
1
60
0
100
AcDbSpline
70
4
71
3
72
10
73
6
40
0
40
0
40
0
40
0
40
0.5
40
0.5
40
1
40
1
40
1
40
1
41
1
10
118.605500000001
20
-32.782728436868
30
0
41
1
10
118.739622539874
20
-32.4797283798922
30
0
41
1
10
118.862125005522
20
-32.1714522003913
30
0
41
1
10
119.07871107186
20
-31.5419961877084
30
0
41
1
10
119.172800078506
20
-31.2208188091142
30
0
41
1
10
119.249500000001
20
-30.8917458747702
30
0
0
SPLINE
5
1AE
100
AcDbEntity
8
1
62
256
6
ByLayer
370
18
48
1
60
0
100
AcDbSpline
70
4
71
3
72
28
73
24
40
0
40
0
40
0
40
0
40
0.015625
40
0.015625
40
0.0312500000000001
40
0.0625000000000001
40
0.125
40
0.125
40
0.25
40
0.25
40
0.3125
40
0.3125
40
0.375
40
0.375
40
0.5
40
0.5
40
0.625
40
0.625
40
0.75
40
0.75
40
0.875
40
0.875
40
1
40
1
40
1
40
1
41
1
10
29
20
-49
30
0
41
1
10
28.9695490474374
20
-49
30
0
41
1
10
28.9389565072603
20
-48.9996361658892
30
0
41
1
10
28.8779110504646
20
-48.9981800717844
30
0
41
1
10
28.7863836672771
20
-48.9949041230061
30
0
41
1
10
28.5732310058098
20
-48.9796261320179
30
0
41
1
10
28.3916629550548
20
-48.9534670893891
30
0
41
1
10
28.0311838949705
20
-48.8837303282053
30
0
41
1
10
27.7943999016552
20
-48.8140379165503
30
0
41
1
10
27.4491765907541
20
-48.6742713098688
30
0
41
1
10
27.335762329797
20
-48.6218052534522
30
0
41
1
10
27.1130586213032
20
-48.5049750719083
30
0
41
1
10
27.0037348814009
20
-48.4405886037549
30
0
41
1
10
26.6834179042558
20
-48.2294292571097
30
0
41
1
10
26.4813332039068
20
-48.0655234391224
30
0
41
1
10
26.1063863688976
20
-47.6915771705785
30
0
41
1
10
25.9335040196412
20
-47.4815375897785
30
0
41
1
10
25.6238757283433
20
-47.0148553212485
30
0
41
1
10
25.487093821795
20
-46.758216043735
30
0
41
1
10
25.2580197591512
20
-46.1972077210628
30
0
41
1
10
25.165654819246
20
-45.8928468070241
30
0
41
1
10
25.0367326522885
20
-45.2344482513188
30
0
41
1
10
25
20
-44.8804301757512
30
0
41
1
10
25
20
-44.5
30
0
0
SPLINE
5
1AF
100
AcDbEntity
8
SK1
62
256
6
ByLayer
370
18
48
1
60
0
100
AcDbSpline
70
4
71
3
72
8
73
4
40
0
40
0
40
0
40
0
40
1
40
1
40
1
40
1
41
1
10
-74.5
20
14.9879951961562
30
0
41
1
10
-75.5054065948977
20
14.5387109890609
30
0
41
1
10
-76.505889208944
20
14.0788050799927
30
0
41
1
10
-77.4999999999949
20
13.6051542748893
30
0
0
SPLINE
5
1B0
100
AcDbEntity
8
1
62
256
6
ByLayer
370
18
48
1
60
0
100
AcDbSpline
70
4
71
3
72
69
73
65
40
0
40
0
40
0
40
0
40
3.73426119489E-05
40
3.73426119489E-05
40
0.0625350086987013
40
0.0625350086987013
40
0.0781594252203895
40
0.0781594252203895
40
0.0937838417420776
40
0.0937838417420776
40
0.125032674785454
40
0.156281507828831
40
0.156281507828831
40
0.171905924350519
40
0.171905924350519
40
0.187530340872207
40
0.187530340872207
40
0.250028006958959
40
0.250028006958959
40
0.281276840002335
40
0.281276840002335
40
0.296901256524023
40
0.296901256524023
40
0.312525673045712
40
0.312525673045712
40
0.375023339132463
40
0.375023339132463
40
0.390647755654151
40
0.390647755654151
40
0.406272172175839
40
0.406272172175839
40
0.437521005219216
40
0.437521005219216
40
0.500018671305969
40
0.500018671305969
40
0.515643087827657
40
0.515643087827657
40
0.531267504349346
40
0.531267504349346
40
0.562516337392722
40
0.593765170436099
40
0.593765170436099
40
0.625014003479476
40
0.625014003479476
40
0.68751166956623
40
0.68751166956623
40
0.718760502609607
40
0.718760502609607
40
0.750009335652984
40
0.750009335652984
40
0.812507001739739
40
0.812507001739739
40
0.828131418261428
40
0.828131418261428
40
0.843755834783116
40
0.843755834783116
40
0.875004667826493
40
0.90625350086987
40
0.90625350086987
40
0.921877917391558
40
0.921877917391558
40
0.937502333913247
40
0.937502333913247
40
1
40
1
40
1
40
1
41
1
10
10.5000013355621
20
-48.9999999045579
30
0
41
1
10
10.5000003380067
20
-48.9999999758551
30
0
41
1
10
10.4999993404484
20
-49.0000000471109
30
0
41
1
10
10.4999178417529
20
-49.0000058684458
30
0
41
1
10
10.5219861350511
20
-48.998414178035
30
0
41
1
10
10.5778640008492
20
-48.9944985739882
30
0
41
1
10
10.5905088420905
20
-48.9936162706158
30
0
41
1
10
10.6184819127336
20
-48.9916775574279
30
0
41
1
10
10.6337967291523
20
-48.9906220576828
30
0
41
1
10
10.683650368093
20
-48.9872132579581
30
0
41
1
10
10.7605273273157
20
-48.9820229857887
30
0
41
1
10
10.8578800539504
20
-48.9757085541218
30
0
41
1
10
10.9386702438659
20
-48.9706138161604
30
0
41
1
10
10.966898549629
20
-48.9688557609775
30
0
41
1
10
11.025996907092
20
-48.96523077172
30
0
41
1
10
11.0569473932391
20
-48.9633591604343
30
0
41
1
10
11.2167899164888
20
-48.9538554601099
30
0
41
1
10
11.3615499804327
20
-48.9457404126598
30
0
41
1
10
11.6033271667478
20
-48.9335014297882
30
0
41
1
10
11.6880554927931
20
-48.9294102215493
30
0
41
1
10
11.8215396825887
20
-48.9233452828054
30
0
41
1
10
11.8671556330115
20
-48.9213337507506
30
0
41
1
10
11.9595249439829
20
-48.9173937297641
30
0
41
1
10
12.0063959494806
20
-48.9154597245333
30
0
41
1
10
12.2441261612267
20
-48.906001473979
30
0
41
1
10
12.4450145341743
20
-48.8991126106809
30
0
41
1
10
12.7095882009305
20
-48.8918435401627
30
0
41
1
10
12.7631821392145
20
-48.8904568714369
30
0
41
1
10
12.8717555637106
20
-48.8878306962488
30
0
41
1
10
12.9266882025578
20
-48.8865929772287
30
0
41
1
10
13.091732011676
20
-48.88315506967
30
0
41
1
10
13.2026849042264
20
-48.8812152305667
30
0
41
1
10
13.5382480857141
20
-48.876509481043
30
0
41
1
10
13.7655366151825
20
-48.874856613613
30
0
41
1
10
14.0542949425876
20
-48.874836190886
30
0
41
1
10
14.1120617408328
20
-48.8749349167819
30
0
41
1
10
14.2268616311837
20
-48.8753329552404
30
0
41
1
10
14.2840119871616
20
-48.8756322193223
30
0
41
1
10
14.4547256945596
20
-48.8768230329598
30
0
41
1
10
14.6803808098365
20
-48.8791917716651
30
0
41
1
10
14.9021447962812
20
-48.8830419947528
30
0
41
1
10
15.1219242141953
20
-48.8875919162491
30
0
41
1
10
15.231271311646
20
-48.8902319749008
30
0
41
1
10
15.5495387068572
20
-48.8989374554392
30
0
41
1
10
15.7506523208104
20
-48.9058141900675
30
0
41
1
10
16.0359636669344
20
-48.9171352142001
30
0
41
1
10
16.1284958456653
20
-48.9210847524052
30
0
41
1
10
16.3071307359004
20
-48.929182407021
30
0
41
1
10
16.3921146880187
20
-48.9332780581439
30
0
41
1
10
16.63449972128
20
-48.9455262932312
30
0
41
1
10
16.7794526881361
20
-48.9536416900007
30
0
41
1
10
16.9394345915214
20
-48.9631418064604
30
0
41
1
10
16.970438736636
20
-48.9650143191966
30
0
41
1
10
17.0298465173682
20
-48.9686541668221
30
0
41
1
10
17.0582143165433
20
-48.9704190874946
30
0
41
1
10
17.1393866130575
20
-48.9755331279464
30
0
41
1
10
17.2371527919014
20
-48.981869022023
30
0
41
1
10
17.3143395074353
20
-48.9870772443124
30
0
41
1
10
17.3644187415732
20
-48.9904994474548
30
0
41
1
10
17.3798077091927
20
-48.9915595112666
30
0
41
1
10
17.4079327239894
20
-48.9935078214053
30
0
41
1
10
17.4206919884279
20
-48.9943977017738
30
0
41
1
10
17.4772934252844
20
-48.998362515942
30
0
41
1
10
17.5000079800822
20
-49.0000005754027
30
0
41
1
10
17.5000015586087
20
-49.000000112399
30
0
0
SPLINE
5
1B1
100
AcDbEntity
8
1
62
256
6
ByLayer
370
18
48
1
60
0
100
AcDbSpline
70
4
71
3
72
8
73
4
40
0
40
0
40
0
40
0
40
1
40
1
40
1
40
1
41
1
10
0
20
34.0881210981186
30
0
41
1
10
0.166627908647598
20
34.1565552225561
30
0
41
1
10
0.333294895189539
20
34.224799324914
30
0
41
1
10
0.5
20
34.2928563989645
30
0
0
SPLINE
5
1B2
100
AcDbEntity
8
1
62
256
6
ByLayer
370
18
48
1
60
0
100
AcDbSpline
70
4
71
3
72
8
73
4
40
0
40
0
40
0
40
0
40
1
40
1
40
1
40
1
41
1
10
0.5
20
-34.2928563989645
30
0
41
1
10
0.333294895189539
20
-34.224799324914
30
0
41
1
10
0.16662790864757
20
-34.156555222556
30
0
41
1
10
0
20
-34.0881210981186
30
0
0
SPLINE
5
1B3
100
AcDbEntity
8
SK1
62
256
6
ByLayer
370
18
48
1
60
0
100
AcDbSpline
70
4
71
3
72
8
73
4
40
0
40
0
40
0
40
0
40
1
40
1
40
1
40
1
41
1
10
-77.5
20
-13.6051542748868
30
0
41
1
10
-76.5058892089474
20
-14.0788050799911
30
0
41
1
10
-75.5054065948994
20
-14.5387109890601
30
0
41
1
10
-74.5
20
-14.9879951961562
30
0
0
SPLINE
5
1B4
100
AcDbEntity
8
1
62
256
6
ByLayer
370
18
48
1
60
0
100
AcDbSpline
70
4
71
3
72
90
73
86
40
0
40
0
40
0
40
0
40
0.0078128226583878
40
0.0078128226583878
40
0.0156256453167757
40
0.0156256453167757
40
0.0312512906335515
40
0.0312512906335515
40
0.0625025812671031
40
0.0625025812671031
40
0.0937538719006547
40
0.0937538719006547
40
0.125005162534206
40
0.125005162534206
40
0.140630807850982
40
0.140630807850982
40
0.156256453167758
40
0.156256453167758
40
0.18750774380131
40
0.18750774380131
40
0.218759034434861
40
0.218759034434861
40
0.250010325068413
40
0.250010325068413
40
0.265635970385189
40
0.265635970385189
40
0.273448793043576
40
0.273448793043576
40
0.281261615701964
40
0.281261615701964
40
0.312512906335515
40
0.312512906335515
40
0.343764196969066
40
0.343764196969066
40
0.375015487602617
40
0.375015487602617
40
0.390641132919393
40
0.390641132919393
40
0.398453955577781
40
0.398453955577781
40
0.406266778236169
40
0.406266778236169
40
0.43751806886972
40
0.43751806886972
40
0.468769359503271
40
0.468769359503271
40
0.500020650136823
40
0.500020650136823
40
0.515646295453598
40
0.515646295453598
40
0.531271940770374
40
0.531271940770374
40
0.562523231403925
40
0.562523231403925
40
0.593774522037476
40
0.625025812671028
40
0.625025812671028
40
0.640651457987803
40
0.640651457987803
40
0.648464280646191
40
0.648464280646191
40
0.656277103304579
40
0.656277103304579
40
0.68752839393813
40
0.68752839393813
40
0.718779684571682
40
0.750030975205233
40
0.750030975205233
40
0.765656620522008
40
0.765656620522008
40
0.773469443180396
40
0.773469443180396
40
0.781282265838784
40
0.781282265838784
40
0.812533556472335
40
0.812533556472335
40
0.843784847105886
40
0.875036137739437
40
0.875036137739437
40
0.906287428372988
40
0.906287428372988
40
0.937538719006539
40
0.937538719006539
40
0.96879000964009
40
1
40
1
40
1
40
1
41
1
10
113.834074173711
20
-45.9803412596145
30
0
41
1
10
113.828749720082
20
-45.8979111129203
30
0
41
1
10
113.823323516628
20
-45.8137873197964
30
0
41
1
10
113.812267415121
20
-45.6421217209174
30
0
41
1
10
113.806630778371
20
-45.5544748298709
30
0
41
1
10
113.789481461681
20
-45.287394808318
30
0
41
1
10
113.777723722126
20
-45.1037359858219
30
0
41
1
10
113.741512861049
20
-44.5362385085773
30
0
41
1
10
113.716123847278
20
-44.1359070983204
30
0
41
1
10
113.663000737264
20
-43.2921003414826
30
0
41
1
10
113.635266478001
20
-42.8486235983065
30
0
41
1
10
113.57755001343
20
-41.9184867746053
30
0
41
1
10
113.547567808114
20
-41.4318283299593
30
0
41
1
10
113.5009427068
20
-40.6687563646775
30
0
41
1
10
113.485116027615
20
-40.4087248100851
30
0
41
1
10
113.452950335239
20
-39.8780455272901
30
0
41
1
10
113.436706368283
20
-39.608966618574
30
0
41
1
10
113.387515052424
20
-38.7907168647034
30
0
41
1
10
113.354109537093
20
-38.2305518630394
30
0
41
1
10
113.286170893551
20
-37.0815012672863
30
0
41
1
10
113.251637609148
20
-36.4926146039113
30
0
41
1
10
113.1814998146
20
-35.286133962643
30
0
41
1
10
113.145895265522
20
-34.6685409266583
30
0
41
1
10
113.09170094311
20
-33.7201895306728
30
0
41
1
10
113.073504647536
20
-33.4004073999088
30
0
41
1
10
113.046012419742
20
-32.9151377637496
30
0
41
1
10
113.036822442462
20
-32.7525722148017
30
0
41
1
10
113.018461656876
20
-32.4270748091083
30
0
41
1
10
113.009280922931
20
-32.2639678946475
30
0
41
1
10
112.96337645857
20
-31.4466581636752
30
0
41
1
10
112.926650906683
20
-30.7871392479332
30
0
41
1
10
112.853209758803
20
-29.4570118306704
30
0
41
1
10
112.81649409979
20
-28.7864028611191
30
0
41
1
10
112.743073364925
20
-27.4341175542053
30
0
41
1
10
112.706368272405
20
-26.7524415223107
30
0
41
1
10
112.651310125534
20
-25.7214744316843
30
0
41
1
10
112.63295723365
20
-25.3764081006782
30
0
41
1
10
112.605425735297
20
-24.8566564443385
30
0
41
1
10
112.596237992743
20
-24.6828531138304
30
0
41
1
10
112.577935315329
20
-24.3359242647887
30
0
41
1
10
112.568815817169
20
-24.1627134640393
30
0
41
1
10
112.52337500811
20
-23.2979158088854
30
0
41
1
10
112.487523204909
20
-22.6100912853823
30
0
41
1
10
112.416765700492
20
-21.2422788287984
30
0
41
1
10
112.381860057697
20
-20.5622912719649
30
0
41
1
10
112.312952048947
20
-19.2101265488645
30
0
41
1
10
112.278949706823
20
-18.5379492082721
30
0
41
1
10
112.228600046165
20
-17.5356410213713
30
0
41
1
10
112.21192588803
20
-17.2025325282278
30
0
41
1
10
112.178792799936
20
-16.5383367420153
30
0
41
1
10
112.162308801394
20
-16.2067390953176
30
0
41
1
10
112.113614901731
20
-15.2239218580937
30
0
41
1
10
112.082030419105
20
-14.5820380750875
30
0
41
1
10
112.020517560501
20
-13.324243510312
30
0
41
1
10
111.960661075475
20
-12.0924251800175
30
0
41
1
10
111.903985699326
20
-10.9122808864451
30
0
41
1
10
111.862645934575
20
-10.0468439511458
30
0
41
1
10
111.849060711015
20
-9.76164767755125
30
0
41
1
10
111.828973814576
20
-9.33885334498757
30
0
41
1
10
111.822326687457
20
-9.19875553067769
30
0
41
1
10
111.809129444959
20
-8.9202433641176
30
0
41
1
10
111.802581061092
20
-8.78186503730768
30
0
41
1
10
111.770233381725
20
-8.09743796329403
30
0
41
1
10
111.745489891823
20
-7.57111491023716
30
0
41
1
10
111.69815288895
20
-6.55974065178793
30
0
41
1
10
111.652966247225
20
-5.58964366830847
30
0
41
1
10
111.611941400617
20
-4.70150962673168
30
0
41
1
10
111.582715469806
20
-4.06655386667009
30
0
41
1
10
111.573230959727
20
-3.86009931052106
30
0
41
1
10
111.559391360731
20
-3.55832648890691
30
0
41
1
10
111.55484271148
20
-3.45905416212827
30
0
41
1
10
111.545874954281
20
-3.26317109634394
30
0
41
1
10
111.541450786775
20
-3.16644958026993
30
0
41
1
10
111.519736159901
20
-2.69133460940336
30
0
41
1
10
111.503645079881
20
-2.33801089054603
30
0
41
1
10
111.473906628424
20
-1.68333117699819
30
0
41
1
10
111.446612326379
20
-1.08062639991604
30
0
41
1
10
111.424089536065
20
-0.580941728335688
30
0
41
1
10
111.403948848162
20
-0.133358609767385
30
0
41
1
10
111.395067202218
20
0.0644352607972962
30
0
41
1
10
111.379747330455
20
0.406021874850495
30
0
41
1
10
111.373412747516
20
0.547500963598509
30
0
41
1
10
111.36329408435
20
0.773653492035777
30
0
41
1
10
111.355731367015
20
0.942880180107409
30
0
41
1
10
111.35318823359
20
0.999839969799979
30
0
41
1
10
111.353181117747
20
0.9999993273629
30
0
0
SPLINE
5
1B5
100
AcDbEntity
8
SK1
62
256
6
ByLayer
370
18
48
1
60
0
100
AcDbSpline
70
4
71
3
72
24
73
20
40
0
40
0
40
0
40
0
40
0.125000000000031
40
0.125000000000031
40
0.250000000000062
40
0.250000000000062
40
0.375000000000093
40
0.375000000000093
40
0.500000000000124
40
0.500000000000124
40
0.56250000000012
40
0.56250000000012
40
0.625000000000115
40
0.625000000000115
40
0.750000000000077
40
0.750000000000077
40
0.875000000000038
40
0.875000000000038
40
1
40
1
40
1
40
1
41
1
10
-57.912132034356
20
-16.7929081476185
30
0
41
1
10
-57.9000126204351
20
-16.8062702564668
30
0
41
1
10
-57.8866092620053
20
-16.8187567723861
30
0
41
1
10
-57.8567299915257
20
-16.8416503622175
30
0
41
1
10
-57.8400208042861
20
-16.8521683641853
30
0
41
1
10
-57.8039984760714
20
-16.8697188306505
30
0
41
1
10
-57.7844901566627
20
-16.8768697822682
30
0
41
1
10
-57.7431636002004
20
-16.8866955626108
30
0
41
1
10
-57.7220118884112
20
-16.8892528706527
30
0
41
1
10
-57.6894962449418
20
-16.889292461029
30
0
41
1
10
-57.6785401953599
20
-16.8886506865785
30
0
41
1
10
-57.65721282658
20
-16.8861441496338
30
0
41
1
10
-57.6467315951537
20
-16.8842828225806
30
0
41
1
10
-57.6158089189949
20
-16.8769609753422
30
0
41
1
10
-57.5961249127147
20
-16.8697735501945
30
0
41
1
10
-57.5599797678733
20
-16.8521740212717
30
0
41
1
10
-57.5432869045819
20
-16.8416617063219
30
0
41
1
10
-57.5134058289129
20
-16.818769935129
30
0
41
1
10
-57.4999959394264
20
-16.8062796940354
30
0
41
1
10
-57.487867965644
20
-16.7929081476185
30
0
0
SPLINE
5
1B6
100
AcDbEntity
8
SK1
62
256
6
ByLayer
370
18
48
1
60
0
100
AcDbSpline
70
4
71
3
72
24
73
20
40
0
40
0
40
0
40
0
40
0.125000000000002
40
0.125000000000002
40
0.250000000000005
40
0.250000000000005
40
0.375000000000007
40
0.375000000000007
40
0.50000000000001
40
0.50000000000001
40
0.562499999999991
40
0.562499999999991
40
0.624999999999972
40
0.624999999999972
40
0.749999999999982
40
0.749999999999982
40
0.874999999999991
40
0.874999999999991
40
1
40
1
40
1
40
1
41
1
10
-53.912132034356
20
-16.7929081476185
30
0
41
1
10
-53.9000126204351
20
-16.8062702564668
30
0
41
1
10
-53.8866092620053
20
-16.8187567723861
30
0
41
1
10
-53.8567299915257
20
-16.8416503622175
30
0
41
1
10
-53.8400208042861
20
-16.8521683641853
30
0
41
1
10
-53.8039984760714
20
-16.8697188306505
30
0
41
1
10
-53.7844901566627
20
-16.8768697822682
30
0
41
1
10
-53.7431636002004
20
-16.8866955626108
30
0
41
1
10
-53.7220118884113
20
-16.8892528706527
30
0
41
1
10
-53.6894962449418
20
-16.889292461029
30
0
41
1
10
-53.6785401953599
20
-16.8886506865785
30
0
41
1
10
-53.6572128265799
20
-16.8861441496338
30
0
41
1
10
-53.6467315951537
20
-16.8842828225806
30
0
41
1
10
-53.615808918995
20
-16.8769609753422
30
0
41
1
10
-53.5961249127147
20
-16.8697735501945
30
0
41
1
10
-53.5599797678733
20
-16.8521740212717
30
0
41
1
10
-53.5432869045819
20
-16.8416617063219
30
0
41
1
10
-53.5134058289129
20
-16.8187699351289
30
0
41
1
10
-53.4999959394264
20
-16.8062796940354
30
0
41
1
10
-53.487867965644
20
-16.7929081476185
30
0
0
SPLINE
5
1B7
100
AcDbEntity
8
SK1
62
256
6
ByLayer
370
18
48
1
60
0
100
AcDbSpline
70
4
71
3
72
24
73
20
40
0
40
0
40
0
40
0
40
0.124999999999982
40
0.124999999999982
40
0.249999999999965
40
0.249999999999965
40
0.374999999999947
40
0.374999999999947
40
0.49999999999993
40
0.49999999999993
40
0.562499999999921
40
0.562499999999921
40
0.624999999999912
40
0.624999999999912
40
0.749999999999941
40
0.749999999999941
40
0.874999999999971
40
0.874999999999971
40
1
40
1
40
1
40
1
41
1
10
-49.912132034356
20
-16.7929081476185
30
0
41
1
10
-49.9000126204351
20
-16.8062702564668
30
0
41
1
10
-49.8866092620053
20
-16.8187567723861
30
0
41
1
10
-49.8567299915257
20
-16.8416503622175
30
0
41
1
10
-49.8400208042861
20
-16.8521683641853
30
0
41
1
10
-49.8039984760714
20
-16.8697188306505
30
0
41
1
10
-49.7844901566627
20
-16.8768697822682
30
0
41
1
10
-49.7431636002004
20
-16.8866955626108
30
0
41
1
10
-49.7220118884113
20
-16.8892528706527
30
0
41
1
10
-49.6894962449418
20
-16.889292461029
30
0
41
1
10
-49.6785401953599
20
-16.8886506865785
30
0
41
1
10
-49.65721282658
20
-16.8861441496338
30
0
41
1
10
-49.6467315951537
20
-16.8842828225806
30
0
41
1
10
-49.615808918995
20
-16.8769609753422
30
0
41
1
10
-49.5961249127147
20
-16.8697735501945
30
0
41
1
10
-49.5599797678733
20
-16.8521740212717
30
0
41
1
10
-49.5432869045819
20
-16.8416617063219
30
0
41
1
10
-49.5134058289129
20
-16.8187699351289
30
0
41
1
10
-49.4999959394264
20
-16.8062796940354
30
0
41
1
10
-49.487867965644
20
-16.7929081476185
30
0
0
SPLINE
5
1B8
100
AcDbEntity
8
SK1
62
256
6
ByLayer
370
18
48
1
60
0
100
AcDbSpline
70
4
71
3
72
24
73
20
40
0
40
0
40
0
40
0
40
0.125000000000011
40
0.125000000000011
40
0.250000000000022
40
0.250000000000022
40
0.375000000000033
40
0.375000000000033
40
0.500000000000044
40
0.500000000000044
40
0.56250000000005
40
0.56250000000005
40
0.625000000000055
40
0.625000000000055
40
0.750000000000037
40
0.750000000000037
40
0.875000000000018
40
0.875000000000018
40
1
40
1
40
1
40
1
41
1
10
-45.912132034356
20
-16.7929081476185
30
0
41
1
10
-45.9000126204351
20
-16.8062702564668
30
0
41
1
10
-45.8866092620053
20
-16.8187567723861
30
0
41
1
10
-45.8567299915257
20
-16.8416503622175
30
0
41
1
10
-45.8400208042861
20
-16.8521683641853
30
0
41
1
10
-45.8039984760714
20
-16.8697188306505
30
0
41
1
10
-45.7844901566627
20
-16.8768697822682
30
0
41
1
10
-45.7431636002004
20
-16.8866955626108
30
0
41
1
10
-45.7220118884113
20
-16.8892528706527
30
0
41
1
10
-45.6894962449418
20
-16.889292461029
30
0
41
1
10
-45.6785401953599
20
-16.8886506865785
30
0
41
1
10
-45.65721282658
20
-16.8861441496338
30
0
41
1
10
-45.6467315951537
20
-16.8842828225806
30
0
41
1
10
-45.6158089189949
20
-16.8769609753422
30
0
41
1
10
-45.5961249127147
20
-16.8697735501945
30
0
41
1
10
-45.5599797678733
20
-16.8521740212717
30
0
41
1
10
-45.5432869045819
20
-16.8416617063219
30
0
41
1
10
-45.5134058289129
20
-16.818769935129
30
0
41
1
10
-45.4999959394264
20
-16.8062796940354
30
0
41
1
10
-45.487867965644
20
-16.7929081476185
30
0
0
SPLINE
5
1B9
100
AcDbEntity
8
SK1
62
256
6
ByLayer
370
18
48
1
60
0
100
AcDbSpline
70
4
71
3
72
24
73
20
40
0
40
0
40
0
40
0
40
0.125000000000038
40
0.125000000000038
40
0.250000000000075
40
0.250000000000075
40
0.375000000000113
40
0.375000000000113
40
0.50000000000015
40
0.50000000000015
40
0.562500000000149
40
0.562500000000149
40
0.625000000000148
40
0.625000000000148
40
0.750000000000098
40
0.750000000000098
40
0.875000000000049
40
0.875000000000049
40
1
40
1
40
1
40
1
41
1
10
-41.912132034356
20
-16.7929081476185
30
0
41
1
10
-41.9000126204351
20
-16.8062702564668
30
0
41
1
10
-41.8866092620053
20
-16.8187567723861
30
0
41
1
10
-41.8567299915257
20
-16.8416503622176
30
0
41
1
10
-41.8400208042861
20
-16.8521683641853
30
0
41
1
10
-41.8039984760714
20
-16.8697188306505
30
0
41
1
10
-41.7844901566627
20
-16.8768697822682
30
0
41
1
10
-41.7431636002004
20
-16.8866955626108
30
0
41
1
10
-41.7220118884113
20
-16.8892528706527
30
0
41
1
10
-41.6894962449418
20
-16.889292461029
30
0
41
1
10
-41.6785401953599
20
-16.8886506865785
30
0
41
1
10
-41.65721282658
20
-16.8861441496338
30
0
41
1
10
-41.6467315951537
20
-16.8842828225806
30
0
41
1
10
-41.6158089189949
20
-16.8769609753422
30
0
41
1
10
-41.5961249127147
20
-16.8697735501945
30
0
41
1
10
-41.5599797678733
20
-16.8521740212717
30
0
41
1
10
-41.5432869045819
20
-16.8416617063219
30
0
41
1
10
-41.5134058289129
20
-16.8187699351289
30
0
41
1
10
-41.4999959394264
20
-16.8062796940354
30
0
41
1
10
-41.487867965644
20
-16.7929081476185
30
0
0
SPLINE
5
1BA
100
AcDbEntity
8
SK1
62
256
6
ByLayer
370
18
48
1
60
0
100
AcDbSpline
70
4
71
3
72
24
73
20
40
0
40
0
40
0
40
0
40
0.124999999999989
40
0.124999999999989
40
0.249999999999978
40
0.249999999999978
40
0.374999999999967
40
0.374999999999967
40
0.499999999999956
40
0.499999999999956
40
0.56249999999995
40
0.56249999999995
40
0.624999999999945
40
0.624999999999945
40
0.749999999999963
40
0.749999999999963
40
0.874999999999982
40
0.874999999999982
40
1
40
1
40
1
40
1
41
1
10
-37.912132034356
20
-16.7929081476185
30
0
41
1
10
-37.9000126204351
20
-16.8062702564668
30
0
41
1
10
-37.8866092620053
20
-16.8187567723861
30
0
41
1
10
-37.8567299915257
20
-16.8416503622176
30
0
41
1
10
-37.8400208042861
20
-16.8521683641853
30
0
41
1
10
-37.8039984760714
20
-16.8697188306505
30
0
41
1
10
-37.7844901566627
20
-16.8768697822682
30
0
41
1
10
-37.7431636002004
20
-16.8866955626108
30
0
41
1
10
-37.7220118884113
20
-16.8892528706527
30
0
41
1
10
-37.6894962449418
20
-16.889292461029
30
0
41
1
10
-37.6785401953599
20
-16.8886506865785
30
0
41
1
10
-37.6572128265799
20
-16.8861441496338
30
0
41
1
10
-37.6467315951537
20
-16.8842828225806
30
0
41
1
10
-37.615808918995
20
-16.8769609753422
30
0
41
1
10
-37.5961249127147
20
-16.8697735501945
30
0
41
1
10
-37.5599797678733
20
-16.8521740212717
30
0
41
1
10
-37.5432869045819
20
-16.8416617063219
30
0
41
1
10
-37.5134058289129
20
-16.8187699351289
30
0
41
1
10
-37.4999959394264
20
-16.8062796940354
30
0
41
1
10
-37.487867965644
20
-16.7929081476185
30
0
0
SPLINE
5
1BB
100
AcDbEntity
8
SK1
62
256
6
ByLayer
370
18
48
1
60
0
100
AcDbSpline
70
4
71
3
72
24
73
20
40
0
40
0
40
0
40
0
40
0.124999999999989
40
0.124999999999989
40
0.249999999999978
40
0.249999999999978
40
0.374999999999967
40
0.374999999999967
40
0.499999999999956
40
0.499999999999956
40
0.56249999999995
40
0.56249999999995
40
0.624999999999945
40
0.624999999999945
40
0.749999999999963
40
0.749999999999963
40
0.874999999999982
40
0.874999999999982
40
1
40
1
40
1
40
1
41
1
10
-33.912132034356
20
-16.7929081476185
30
0
41
1
10
-33.9000126204351
20
-16.8062702564668
30
0
41
1
10
-33.8866092620053
20
-16.8187567723861
30
0
41
1
10
-33.8567299915257
20
-16.8416503622176
30
0
41
1
10
-33.8400208042861
20
-16.8521683641853
30
0
41
1
10
-33.8039984760714
20
-16.8697188306505
30
0
41
1
10
-33.7844901566627
20
-16.8768697822682
30
0
41
1
10
-33.7431636002004
20
-16.8866955626108
30
0
41
1
10
-33.7220118884113
20
-16.8892528706527
30
0
41
1
10
-33.6894962449418
20
-16.889292461029
30
0
41
1
10
-33.6785401953599
20
-16.8886506865785
30
0
41
1
10
-33.65721282658
20
-16.8861441496338
30
0
41
1
10
-33.6467315951537
20
-16.8842828225806
30
0
41
1
10
-33.615808918995
20
-16.8769609753422
30
0
41
1
10
-33.5961249127147
20
-16.8697735501945
30
0
41
1
10
-33.5599797678733
20
-16.8521740212717
30
0
41
1
10
-33.5432869045819
20
-16.8416617063219
30
0
41
1
10
-33.5134058289129
20
-16.818769935129
30
0
41
1
10
-33.4999959394264
20
-16.8062796940354
30
0
41
1
10
-33.487867965644
20
-16.7929081476185
30
0
0
SPLINE
5
1BC
100
AcDbEntity
8
SK1
62
256
6
ByLayer
370
18
48
1
60
0
100
AcDbSpline
70
4
71
3
72
24
73
20
40
0
40
0
40
0
40
0
40
0.12500000000002
40
0.12500000000002
40
0.250000000000041
40
0.250000000000041
40
0.375000000000061
40
0.375000000000061
40
0.500000000000082
40
0.500000000000082
40
0.562500000000082
40
0.562500000000082
40
0.625000000000082
40
0.625000000000082
40
0.750000000000055
40
0.750000000000055
40
0.875000000000027
40
0.875000000000027
40
1
40
1
40
1
40
1
41
1
10
-29.912132034356
20
-16.7929081476185
30
0
41
1
10
-29.9000126204351
20
-16.8062702564668
30
0
41
1
10
-29.8866092620053
20
-16.8187567723861
30
0
41
1
10
-29.8567299915257
20
-16.8416503622176
30
0
41
1
10
-29.8400208042861
20
-16.8521683641853
30
0
41
1
10
-29.8039984760714
20
-16.8697188306505
30
0
41
1
10
-29.7844901566627
20
-16.8768697822682
30
0
41
1
10
-29.7431636002004
20
-16.8866955626108
30
0
41
1
10
-29.7220118884113
20
-16.8892528706527
30
0
41
1
10
-29.6894962449418
20
-16.889292461029
30
0
41
1
10
-29.6785401953599
20
-16.8886506865785
30
0
41
1
10
-29.65721282658
20
-16.8861441496338
30
0
41
1
10
-29.6467315951537
20
-16.8842828225806
30
0
41
1
10
-29.615808918995
20
-16.8769609753422
30
0
41
1
10
-29.5961249127147
20
-16.8697735501945
30
0
41
1
10
-29.5599797678733
20
-16.8521740212717
30
0
41
1
10
-29.5432869045819
20
-16.8416617063219
30
0
41
1
10
-29.5134058289129
20
-16.818769935129
30
0
41
1
10
-29.4999959394264
20
-16.8062796940354
30
0
41
1
10
-29.487867965644
20
-16.7929081476185
30
0
0
SPLINE
5
1BD
100
AcDbEntity
8
SK1
62
256
6
ByLayer
370
18
48
1
60
0
100
AcDbSpline
70
4
71
3
72
24
73
20
40
0
40
0
40
0
40
0
40
0.12500000000001
40
0.12500000000001
40
0.25000000000002
40
0.25000000000002
40
0.37500000000003
40
0.37500000000003
40
0.50000000000004
40
0.50000000000004
40
0.562500000000034
40
0.562500000000034
40
0.625000000000029
40
0.625000000000029
40
0.75000000000002
40
0.75000000000002
40
0.87500000000001
40
0.87500000000001
40
1
40
1
40
1
40
1
41
1
10
-25.912132034356
20
-16.7929081476185
30
0
41
1
10
-25.9000126204351
20
-16.8062702564668
30
0
41
1
10
-25.8866092620053
20
-16.8187567723861
30
0
41
1
10
-25.8567299915257
20
-16.8416503622175
30
0
41
1
10
-25.8400208042861
20
-16.8521683641853
30
0
41
1
10
-25.8039984760714
20
-16.8697188306505
30
0
41
1
10
-25.7844901566627
20
-16.8768697822682
30
0
41
1
10
-25.7431636002004
20
-16.8866955626108
30
0
41
1
10
-25.7220118884113
20
-16.8892528706527
30
0
41
1
10
-25.6894962449418
20
-16.889292461029
30
0
41
1
10
-25.6785401953599
20
-16.8886506865785
30
0
41
1
10
-25.65721282658
20
-16.8861441496338
30
0
41
1
10
-25.6467315951537
20
-16.8842828225806
30
0
41
1
10
-25.615808918995
20
-16.8769609753422
30
0
41
1
10
-25.5961249127147
20
-16.8697735501945
30
0
41
1
10
-25.5599797678733
20
-16.8521740212717
30
0
41
1
10
-25.5432869045819
20
-16.8416617063219
30
0
41
1
10
-25.5134058289129
20
-16.8187699351289
30
0
41
1
10
-25.4999959394264
20
-16.8062796940354
30
0
41
1
10
-25.487867965644
20
-16.7929081476185
30
0
0
SPLINE
5
1BE
100
AcDbEntity
8
SK1
62
256
6
ByLayer
370
18
48
1
60
0
100
AcDbSpline
70
4
71
3
72
24
73
20
40
0
40
0
40
0
40
0
40
0.125
40
0.125
40
0.25
40
0.25
40
0.375
40
0.375
40
0.499999999999999
40
0.499999999999999
40
0.562499999999999
40
0.562499999999999
40
0.624999999999999
40
0.624999999999999
40
0.749999999999999
40
0.749999999999999
40
0.875
40
0.875
40
1
40
1
40
1
40
1
41
1
10
-21.912132034356
20
-16.7929081476185
30
0
41
1
10
-21.9000126204351
20
-16.8062702564668
30
0
41
1
10
-21.8866092620053
20
-16.8187567723861
30
0
41
1
10
-21.8567299915257
20
-16.8416503622175
30
0
41
1
10
-21.8400208042861
20
-16.8521683641853
30
0
41
1
10
-21.8039984760714
20
-16.8697188306505
30
0
41
1
10
-21.7844901566627
20
-16.8768697822682
30
0
41
1
10
-21.7431636002004
20
-16.8866955626108
30
0
41
1
10
-21.7220118884113
20
-16.8892528706527
30
0
41
1
10
-21.6894962449418
20
-16.889292461029
30
0
41
1
10
-21.6785401953599
20
-16.8886506865785
30
0
41
1
10
-21.65721282658
20
-16.8861441496338
30
0
41
1
10
-21.6467315951537
20
-16.8842828225806
30
0
41
1
10
-21.615808918995
20
-16.8769609753422
30
0
41
1
10
-21.5961249127147
20
-16.8697735501945
30
0
41
1
10
-21.5599797678733
20
-16.8521740212717
30
0
41
1
10
-21.5432869045819
20
-16.8416617063219
30
0
41
1
10
-21.5134058289129
20
-16.8187699351289
30
0
41
1
10
-21.4999959394264
20
-16.8062796940354
30
0
41
1
10
-21.487867965644
20
-16.7929081476185
30
0
0
SPLINE
5
1BF
100
AcDbEntity
8
SK1
62
256
6
ByLayer
370
18
48
1
60
0
100
AcDbSpline
70
4
71
3
72
24
73
20
40
0
40
0
40
0
40
0
40
0.125
40
0.125
40
0.25
40
0.25
40
0.375
40
0.375
40
0.499999999999999
40
0.499999999999999
40
0.562499999999999
40
0.562499999999999
40
0.624999999999999
40
0.624999999999999
40
0.749999999999999
40
0.749999999999999
40
0.875
40
0.875
40
1
40
1
40
1
40
1
41
1
10
-17.912132034356
20
-16.7929081476185
30
0
41
1
10
-17.9000126204351
20
-16.8062702564668
30
0
41
1
10
-17.8866092620053
20
-16.8187567723861
30
0
41
1
10
-17.8567299915257
20
-16.8416503622175
30
0
41
1
10
-17.8400208042861
20
-16.8521683641853
30
0
41
1
10
-17.8039984760714
20
-16.8697188306505
30
0
41
1
10
-17.7844901566627
20
-16.8768697822682
30
0
41
1
10
-17.7431636002004
20
-16.8866955626108
30
0
41
1
10
-17.7220118884113
20
-16.8892528706527
30
0
41
1
10
-17.6894962449418
20
-16.889292461029
30
0
41
1
10
-17.6785401953599
20
-16.8886506865785
30
0
41
1
10
-17.65721282658
20
-16.8861441496338
30
0
41
1
10
-17.6467315951537
20
-16.8842828225806
30
0
41
1
10
-17.615808918995
20
-16.8769609753422
30
0
41
1
10
-17.5961249127147
20
-16.8697735501945
30
0
41
1
10
-17.5599797678733
20
-16.8521740212717
30
0
41
1
10
-17.5432869045819
20
-16.8416617063219
30
0
41
1
10
-17.5134058289129
20
-16.8187699351289
30
0
41
1
10
-17.4999959394264
20
-16.8062796940354
30
0
41
1
10
-17.487867965644
20
-16.7929081476185
30
0
0
SPLINE
5
1C0
100
AcDbEntity
8
SK1
62
256
6
ByLayer
370
18
48
1
60
0
100
AcDbSpline
70
4
71
3
72
24
73
20
40
0
40
0
40
0
40
0
40
0.124999999999998
40
0.124999999999998
40
0.249999999999996
40
0.249999999999996
40
0.374999999999995
40
0.374999999999995
40
0.499999999999993
40
0.499999999999993
40
0.562499999999987
40
0.562499999999987
40
0.624999999999981
40
0.624999999999981
40
0.749999999999987
40
0.749999999999987
40
0.874999999999994
40
0.874999999999994
40
1
40
1
40
1
40
1
41
1
10
-13.912132034356
20
-16.7929081476185
30
0
41
1
10
-13.9000126204351
20
-16.8062702564668
30
0
41
1
10
-13.8866092620053
20
-16.8187567723861
30
0
41
1
10
-13.8567299915257
20
-16.8416503622175
30
0
41
1
10
-13.8400208042861
20
-16.8521683641853
30
0
41
1
10
-13.8039984760714
20
-16.8697188306505
30
0
41
1
10
-13.7844901566627
20
-16.8768697822682
30
0
41
1
10
-13.7431636002004
20
-16.8866955626108
30
0
41
1
10
-13.7220118884113
20
-16.8892528706527
30
0
41
1
10
-13.6894962449418
20
-16.889292461029
30
0
41
1
10
-13.6785401953599
20
-16.8886506865785
30
0
41
1
10
-13.65721282658
20
-16.8861441496338
30
0
41
1
10
-13.6467315951537
20
-16.8842828225806
30
0
41
1
10
-13.615808918995
20
-16.8769609753422
30
0
41
1
10
-13.5961249127147
20
-16.8697735501945
30
0
41
1
10
-13.5599797678733
20
-16.8521740212717
30
0
41
1
10
-13.5432869045819
20
-16.8416617063219
30
0
41
1
10
-13.5134058289129
20
-16.8187699351289
30
0
41
1
10
-13.4999959394264
20
-16.8062796940354
30
0
41
1
10
-13.487867965644
20
-16.7929081476185
30
0
0
SPLINE
5
1C1
100
AcDbEntity
8
SK1
62
256
6
ByLayer
370
18
48
1
60
0
100
AcDbSpline
70
4
71
3
72
24
73
20
40
0
40
0
40
0
40
0
40
0.124999999999995
40
0.124999999999995
40
0.249999999999991
40
0.249999999999991
40
0.374999999999986
40
0.374999999999986
40
0.499999999999981
40
0.499999999999981
40
0.562499999999984
40
0.562499999999984
40
0.624999999999987
40
0.624999999999987
40
0.749999999999991
40
0.749999999999991
40
0.874999999999996
40
0.874999999999996
40
1
40
1
40
1
40
1
41
1
10
-13.487867965644
20
16.7929081476185
30
0
41
1
10
-13.4999873795649
20
16.8062702564668
30
0
41
1
10
-13.5133907379947
20
16.8187567723861
30
0
41
1
10
-13.5432700084743
20
16.8416503622175
30
0
41
1
10
-13.5599791957139
20
16.8521683641853
30
0
41
1
10
-13.5960015239286
20
16.8697188306505
30
0
41
1
10
-13.6155098433373
20
16.8768697822682
30
0
41
1
10
-13.6568363997996
20
16.8866955626108
30
0
41
1
10
-13.6779881115887
20
16.8892528706527
30
0
41
1
10
-13.7105037550582
20
16.889292461029
30
0
41
1
10
-13.7214598046401
20
16.8886506865785
30
0
41
1
10
-13.7427871734201
20
16.8861441496338
30
0
41
1
10
-13.7532684048463
20
16.8842828225806
30
0
41
1
10
-13.784191081005
20
16.8769609753422
30
0
41
1
10
-13.8038750872853
20
16.8697735501945
30
0
41
1
10
-13.8400202321267
20
16.8521740212717
30
0
41
1
10
-13.8567130954181
20
16.8416617063219
30
0
41
1
10
-13.8865941710871
20
16.818769935129
30
0
41
1
10
-13.9000040605736
20
16.8062796940354
30
0
41
1
10
-13.912132034356
20
16.7929081476185
30
0
0
SPLINE
5
1C2
100
AcDbEntity
8
SK1
62
256
6
ByLayer
370
18
48
1
60
0
100
AcDbSpline
70
4
71
3
72
24
73
20
40
0
40
0
40
0
40
0
40
0.12500000000001
40
0.12500000000001
40
0.25000000000002
40
0.25000000000002
40
0.37500000000003
40
0.37500000000003
40
0.500000000000041
40
0.500000000000041
40
0.562500000000036
40
0.562500000000036
40
0.625000000000031
40
0.625000000000031
40
0.750000000000021
40
0.750000000000021
40
0.87500000000001
40
0.87500000000001
40
1
40
1
40
1
40
1
41
1
10
-17.487867965644
20
16.7929081476185
30
0
41
1
10
-17.4999873795649
20
16.8062702564668
30
0
41
1
10
-17.5133907379947
20
16.8187567723861
30
0
41
1
10
-17.5432700084743
20
16.8416503622175
30
0
41
1
10
-17.5599791957139
20
16.8521683641853
30
0
41
1
10
-17.5960015239286
20
16.8697188306505
30
0
41
1
10
-17.6155098433373
20
16.8768697822682
30
0
41
1
10
-17.6568363997996
20
16.8866955626108
30
0
41
1
10
-17.6779881115888
20
16.8892528706527
30
0
41
1
10
-17.7105037550582
20
16.889292461029
30
0
41
1
10
-17.7214598046401
20
16.8886506865785
30
0
41
1
10
-17.7427871734201
20
16.8861441496338
30
0
41
1
10
-17.7532684048463
20
16.8842828225806
30
0
41
1
10
-17.7841910810051
20
16.8769609753422
30
0
41
1
10
-17.8038750872853
20
16.8697735501945
30
0
41
1
10
-17.8400202321267
20
16.8521740212717
30
0
41
1
10
-17.8567130954181
20
16.8416617063219
30
0
41
1
10
-17.8865941710871
20
16.8187699351289
30
0
41
1
10
-17.9000040605736
20
16.8062796940354
30
0
41
1
10
-17.912132034356
20
16.7929081476185
30
0
0
SPLINE
5
1C3
100
AcDbEntity
8
SK1
62
256
6
ByLayer
370
18
48
1
60
0
100
AcDbSpline
70
4
71
3
72
24
73
20
40
0
40
0
40
0
40
0
40
0.12499999999999
40
0.12499999999999
40
0.24999999999998
40
0.24999999999998
40
0.37499999999997
40
0.37499999999997
40
0.49999999999996
40
0.49999999999996
40
0.562499999999965
40
0.562499999999965
40
0.624999999999971
40
0.624999999999971
40
0.74999999999998
40
0.74999999999998
40
0.87499999999999
40
0.87499999999999
40
1
40
1
40
1
40
1
41
1
10
-21.487867965644
20
16.7929081476185
30
0
41
1
10
-21.4999873795649
20
16.8062702564668
30
0
41
1
10
-21.5133907379947
20
16.8187567723861
30
0
41
1
10
-21.5432700084743
20
16.8416503622175
30
0
41
1
10
-21.5599791957139
20
16.8521683641853
30
0
41
1
10
-21.5960015239286
20
16.8697188306505
30
0
41
1
10
-21.6155098433373
20
16.8768697822682
30
0
41
1
10
-21.6568363997996
20
16.8866955626108
30
0
41
1
10
-21.6779881115888
20
16.8892528706527
30
0
41
1
10
-21.7105037550582
20
16.889292461029
30
0
41
1
10
-21.7214598046401
20
16.8886506865785
30
0
41
1
10
-21.7427871734201
20
16.8861441496338
30
0
41
1
10
-21.7532684048463
20
16.8842828225806
30
0
41
1
10
-21.7841910810051
20
16.8769609753422
30
0
41
1
10
-21.8038750872853
20
16.8697735501945
30
0
41
1
10
-21.8400202321267
20
16.8521740212717
30
0
41
1
10
-21.8567130954181
20
16.8416617063219
30
0
41
1
10
-21.8865941710871
20
16.8187699351289
30
0
41
1
10
-21.9000040605736
20
16.8062796940355
30
0
41
1
10
-21.912132034356
20
16.7929081476185
30
0
0
SPLINE
5
1C4
100
AcDbEntity
8
SK1
62
256
6
ByLayer
370
18
48
1
60
0
100
AcDbSpline
70
4
71
3
72
24
73
20
40
0
40
0
40
0
40
0
40
0.12500000000001
40
0.12500000000001
40
0.25000000000002
40
0.25000000000002
40
0.37500000000003
40
0.37500000000003
40
0.500000000000041
40
0.500000000000041
40
0.562500000000036
40
0.562500000000036
40
0.625000000000031
40
0.625000000000031
40
0.750000000000021
40
0.750000000000021
40
0.87500000000001
40
0.87500000000001
40
1
40
1
40
1
40
1
41
1
10
-25.487867965644
20
16.7929081476185
30
0
41
1
10
-25.4999873795649
20
16.8062702564668
30
0
41
1
10
-25.5133907379947
20
16.8187567723861
30
0
41
1
10
-25.5432700084743
20
16.8416503622175
30
0
41
1
10
-25.5599791957139
20
16.8521683641853
30
0
41
1
10
-25.5960015239286
20
16.8697188306505
30
0
41
1
10
-25.6155098433373
20
16.8768697822682
30
0
41
1
10
-25.6568363997996
20
16.8866955626108
30
0
41
1
10
-25.6779881115888
20
16.8892528706527
30
0
41
1
10
-25.7105037550582
20
16.889292461029
30
0
41
1
10
-25.7214598046401
20
16.8886506865785
30
0
41
1
10
-25.7427871734201
20
16.8861441496338
30
0
41
1
10
-25.7532684048463
20
16.8842828225806
30
0
41
1
10
-25.7841910810051
20
16.8769609753422
30
0
41
1
10
-25.8038750872853
20
16.8697735501945
30
0
41
1
10
-25.8400202321267
20
16.8521740212717
30
0
41
1
10
-25.8567130954181
20
16.8416617063219
30
0
41
1
10
-25.8865941710871
20
16.8187699351289
30
0
41
1
10
-25.9000040605736
20
16.8062796940354
30
0
41
1
10
-25.912132034356
20
16.7929081476185
30
0
0
SPLINE
5
1C5
100
AcDbEntity
8
SK1
62
256
6
ByLayer
370
18
48
1
60
0
100
AcDbSpline
70
4
71
3
72
24
73
20
40
0
40
0
40
0
40
0
40
0.12499999999999
40
0.12499999999999
40
0.249999999999979
40
0.249999999999979
40
0.374999999999969
40
0.374999999999969
40
0.499999999999958
40
0.499999999999958
40
0.562499999999953
40
0.562499999999953
40
0.624999999999948
40
0.624999999999948
40
0.749999999999965
40
0.749999999999965
40
0.874999999999983
40
0.874999999999983
40
1
40
1
40
1
40
1
41
1
10
-29.487867965644
20
16.7929081476185
30
0
41
1
10
-29.4999873795649
20
16.8062702564668
30
0
41
1
10
-29.5133907379947
20
16.8187567723861
30
0
41
1
10
-29.5432700084743
20
16.8416503622175
30
0
41
1
10
-29.5599791957139
20
16.8521683641853
30
0
41
1
10
-29.5960015239286
20
16.8697188306505
30
0
41
1
10
-29.6155098433373
20
16.8768697822682
30
0
41
1
10
-29.6568363997996
20
16.8866955626108
30
0
41
1
10
-29.6779881115887
20
16.8892528706527
30
0
41
1
10
-29.7105037550582
20
16.889292461029
30
0
41
1
10
-29.7214598046401
20
16.8886506865785
30
0
41
1
10
-29.7427871734201
20
16.8861441496338
30
0
41
1
10
-29.7532684048463
20
16.8842828225806
30
0
41
1
10
-29.7841910810051
20
16.8769609753422
30
0
41
1
10
-29.8038750872853
20
16.8697735501945
30
0
41
1
10
-29.8400202321267
20
16.8521740212717
30
0
41
1
10
-29.8567130954181
20
16.8416617063219
30
0
41
1
10
-29.8865941710871
20
16.8187699351289
30
0
41
1
10
-29.9000040605736
20
16.8062796940354
30
0
41
1
10
-29.912132034356
20
16.7929081476185
30
0
0
SPLINE
5
1C6
100
AcDbEntity
8
SK1
62
256
6
ByLayer
370
18
48
1
60
0
100
AcDbSpline
70
4
71
3
72
24
73
20
40
0
40
0
40
0
40
0
40
0.125000000000018
40
0.125000000000018
40
0.250000000000035
40
0.250000000000035
40
0.375000000000053
40
0.375000000000053
40
0.50000000000007
40
0.50000000000007
40
0.562500000000079
40
0.562500000000079
40
0.625000000000088
40
0.625000000000088
40
0.750000000000059
40
0.750000000000059
40
0.875000000000029
40
0.875000000000029
40
1
40
1
40
1
40
1
41
1
10
-33.487867965644
20
16.7929081476185
30
0
41
1
10
-33.4999873795649
20
16.8062702564668
30
0
41
1
10
-33.5133907379947
20
16.8187567723861
30
0
41
1
10
-33.5432700084743
20
16.8416503622176
30
0
41
1
10
-33.5599791957139
20
16.8521683641853
30
0
41
1
10
-33.5960015239286
20
16.8697188306505
30
0
41
1
10
-33.6155098433373
20
16.8768697822682
30
0
41
1
10
-33.6568363997996
20
16.8866955626108
30
0
41
1
10
-33.6779881115888
20
16.8892528706527
30
0
41
1
10
-33.7105037550582
20
16.889292461029
30
0
41
1
10
-33.7214598046401
20
16.8886506865785
30
0
41
1
10
-33.7427871734201
20
16.8861441496338
30
0
41
1
10
-33.7532684048463
20
16.8842828225806
30
0
41
1
10
-33.784191081005
20
16.8769609753422
30
0
41
1
10
-33.8038750872853
20
16.8697735501945
30
0
41
1
10
-33.8400202321267
20
16.8521740212717
30
0
41
1
10
-33.8567130954181
20
16.8416617063219
30
0
41
1
10
-33.8865941710871
20
16.8187699351289
30
0
41
1
10
-33.9000040605737
20
16.8062796940354
30
0
41
1
10
-33.912132034356
20
16.7929081476185
30
0
0
SPLINE
5
1C7
100
AcDbEntity
8
SK1
62
256
6
ByLayer
370
18
48
1
60
0
100
AcDbSpline
70
4
71
3
72
24
73
20
40
0
40
0
40
0
40
0
40
0.125000000000009
40
0.125000000000009
40
0.250000000000018
40
0.250000000000018
40
0.375000000000027
40
0.375000000000027
40
0.500000000000036
40
0.500000000000036
40
0.56250000000002
40
0.56250000000002
40
0.625000000000005
40
0.625000000000005
40
0.750000000000003
40
0.750000000000003
40
0.875000000000002
40
0.875000000000002
40
1
40
1
40
1
40
1
41
1
10
-37.487867965644
20
16.7929081476185
30
0
41
1
10
-37.4999873795649
20
16.8062702564668
30
0
41
1
10
-37.5133907379947
20
16.8187567723861
30
0
41
1
10
-37.5432700084743
20
16.8416503622175
30
0
41
1
10
-37.5599791957139
20
16.8521683641853
30
0
41
1
10
-37.5960015239286
20
16.8697188306505
30
0
41
1
10
-37.6155098433373
20
16.8768697822682
30
0
41
1
10
-37.6568363997996
20
16.8866955626108
30
0
41
1
10
-37.6779881115888
20
16.8892528706527
30
0
41
1
10
-37.7105037550582
20
16.889292461029
30
0
41
1
10
-37.7214598046401
20
16.8886506865785
30
0
41
1
10
-37.7427871734201
20
16.8861441496338
30
0
41
1
10
-37.7532684048463
20
16.8842828225806
30
0
41
1
10
-37.7841910810051
20
16.8769609753422
30
0
41
1
10
-37.8038750872853
20
16.8697735501945
30
0
41
1
10
-37.8400202321267
20
16.8521740212717
30
0
41
1
10
-37.8567130954181
20
16.8416617063219
30
0
41
1
10
-37.8865941710871
20
16.818769935129
30
0
41
1
10
-37.9000040605736
20
16.8062796940354
30
0
41
1
10
-37.912132034356
20
16.7929081476185
30
0
0
SPLINE
5
1C8
100
AcDbEntity
8
SK1
62
256
6
ByLayer
370
18
48
1
60
0
100
AcDbSpline
70
4
71
3
72
24
73
20
40
0
40
0
40
0
40
0
40
0.125000000000009
40
0.125000000000009
40
0.250000000000018
40
0.250000000000018
40
0.375000000000027
40
0.375000000000027
40
0.500000000000036
40
0.500000000000036
40
0.56250000000002
40
0.56250000000002
40
0.625000000000005
40
0.625000000000005
40
0.750000000000003
40
0.750000000000003
40
0.875000000000002
40
0.875000000000002
40
1
40
1
40
1
40
1
41
1
10
-41.487867965644
20
16.7929081476185
30
0
41
1
10
-41.4999873795649
20
16.8062702564668
30
0
41
1
10
-41.5133907379947
20
16.8187567723861
30
0
41
1
10
-41.5432700084743
20
16.8416503622176
30
0
41
1
10
-41.5599791957139
20
16.8521683641853
30
0
41
1
10
-41.5960015239286
20
16.8697188306505
30
0
41
1
10
-41.6155098433373
20
16.8768697822682
30
0
41
1
10
-41.6568363997996
20
16.8866955626108
30
0
41
1
10
-41.6779881115888
20
16.8892528706527
30
0
41
1
10
-41.7105037550582
20
16.889292461029
30
0
41
1
10
-41.7214598046401
20
16.8886506865785
30
0
41
1
10
-41.7427871734201
20
16.8861441496338
30
0
41
1
10
-41.7532684048463
20
16.8842828225806
30
0
41
1
10
-41.7841910810051
20
16.8769609753422
30
0
41
1
10
-41.8038750872853
20
16.8697735501945
30
0
41
1
10
-41.8400202321267
20
16.8521740212717
30
0
41
1
10
-41.8567130954181
20
16.8416617063219
30
0
41
1
10
-41.8865941710871
20
16.8187699351289
30
0
41
1
10
-41.9000040605736
20
16.8062796940354
30
0
41
1
10
-41.912132034356
20
16.7929081476185
30
0
0
SPLINE
5
1C9
100
AcDbEntity
8
SK1
62
256
6
ByLayer
370
18
48
1
60
0
100
AcDbSpline
70
4
71
3
72
24
73
20
40
0
40
0
40
0
40
0
40
0.124999999999989
40
0.124999999999989
40
0.249999999999978
40
0.249999999999978
40
0.374999999999967
40
0.374999999999967
40
0.499999999999956
40
0.499999999999956
40
0.56249999999995
40
0.56249999999995
40
0.624999999999945
40
0.624999999999945
40
0.749999999999963
40
0.749999999999963
40
0.874999999999982
40
0.874999999999982
40
1
40
1
40
1
40
1
41
1
10
-45.487867965644
20
16.7929081476185
30
0
41
1
10
-45.4999873795649
20
16.8062702564668
30
0
41
1
10
-45.5133907379947
20
16.8187567723861
30
0
41
1
10
-45.5432700084743
20
16.8416503622175
30
0
41
1
10
-45.5599791957139
20
16.8521683641853
30
0
41
1
10
-45.5960015239286
20
16.8697188306505
30
0
41
1
10
-45.6155098433373
20
16.8768697822682
30
0
41
1
10
-45.6568363997996
20
16.8866955626108
30
0
41
1
10
-45.6779881115888
20
16.8892528706527
30
0
41
1
10
-45.7105037550583
20
16.889292461029
30
0
41
1
10
-45.7214598046401
20
16.8886506865785
30
0
41
1
10
-45.7427871734201
20
16.8861441496338
30
0
41
1
10
-45.7532684048463
20
16.8842828225806
30
0
41
1
10
-45.784191081005
20
16.8769609753422
30
0
41
1
10
-45.8038750872853
20
16.8697735501945
30
0
41
1
10
-45.8400202321267
20
16.8521740212717
30
0
41
1
10
-45.8567130954181
20
16.8416617063219
30
0
41
1
10
-45.8865941710871
20
16.818769935129
30
0
41
1
10
-45.9000040605736
20
16.8062796940354
30
0
41
1
10
-45.912132034356
20
16.7929081476185
30
0
0
SPLINE
5
1CA
100
AcDbEntity
8
SK1
62
256
6
ByLayer
370
18
48
1
60
0
100
AcDbSpline
70
4
71
3
72
24
73
20
40
0
40
0
40
0
40
0
40
0.124999999999982
40
0.124999999999982
40
0.249999999999965
40
0.249999999999965
40
0.374999999999947
40
0.374999999999947
40
0.49999999999993
40
0.49999999999993
40
0.562499999999921
40
0.562499999999921
40
0.624999999999912
40
0.624999999999912
40
0.749999999999941
40
0.749999999999941
40
0.874999999999971
40
0.874999999999971
40
1
40
1
40
1
40
1
41
1
10
-49.487867965644
20
16.7929081476185
30
0
41
1
10
-49.4999873795649
20
16.8062702564668
30
0
41
1
10
-49.5133907379947
20
16.8187567723861
30
0
41
1
10
-49.5432700084743
20
16.8416503622175
30
0
41
1
10
-49.5599791957139
20
16.8521683641853
30
0
41
1
10
-49.5960015239286
20
16.8697188306505
30
0
41
1
10
-49.6155098433373
20
16.8768697822682
30
0
41
1
10
-49.6568363997996
20
16.8866955626108
30
0
41
1
10
-49.6779881115888
20
16.8892528706527
30
0
41
1
10
-49.7105037550582
20
16.889292461029
30
0
41
1
10
-49.7214598046401
20
16.8886506865785
30
0
41
1
10
-49.7427871734201
20
16.8861441496338
30
0
41
1
10
-49.7532684048463
20
16.8842828225806
30
0
41
1
10
-49.7841910810051
20
16.8769609753422
30
0
41
1
10
-49.8038750872853
20
16.8697735501945
30
0
41
1
10
-49.8400202321267
20
16.8521740212717
30
0
41
1
10
-49.8567130954181
20
16.8416617063219
30
0
41
1
10
-49.8865941710871
20
16.8187699351289
30
0
41
1
10
-49.9000040605737
20
16.8062796940354
30
0
41
1
10
-49.912132034356
20
16.7929081476185
30
0
0
SPLINE
5
1CB
100
AcDbEntity
8
SK1
62
256
6
ByLayer
370
18
48
1
60
0
100
AcDbSpline
70
4
71
3
72
24
73
20
40
0
40
0
40
0
40
0
40
0.125000000000038
40
0.125000000000038
40
0.250000000000075
40
0.250000000000075
40
0.375000000000113
40
0.375000000000113
40
0.50000000000015
40
0.50000000000015
40
0.562500000000149
40
0.562500000000149
40
0.625000000000148
40
0.625000000000148
40
0.750000000000098
40
0.750000000000098
40
0.875000000000049
40
0.875000000000049
40
1
40
1
40
1
40
1
41
1
10
-53.487867965644
20
16.7929081476185
30
0
41
1
10
-53.4999873795649
20
16.8062702564668
30
0
41
1
10
-53.5133907379947
20
16.8187567723861
30
0
41
1
10
-53.5432700084743
20
16.8416503622175
30
0
41
1
10
-53.5599791957139
20
16.8521683641853
30
0
41
1
10
-53.5960015239286
20
16.8697188306505
30
0
41
1
10
-53.6155098433373
20
16.8768697822682
30
0
41
1
10
-53.6568363997996
20
16.8866955626108
30
0
41
1
10
-53.6779881115888
20
16.8892528706527
30
0
41
1
10
-53.7105037550582
20
16.889292461029
30
0
41
1
10
-53.7214598046401
20
16.8886506865785
30
0
41
1
10
-53.7427871734201
20
16.8861441496338
30
0
41
1
10
-53.7532684048463
20
16.8842828225806
30
0
41
1
10
-53.784191081005
20
16.8769609753422
30
0
41
1
10
-53.8038750872853
20
16.8697735501945
30
0
41
1
10
-53.8400202321267
20
16.8521740212717
30
0
41
1
10
-53.8567130954181
20
16.8416617063219
30
0
41
1
10
-53.8865941710871
20
16.818769935129
30
0
41
1
10
-53.9000040605736
20
16.8062796940354
30
0
41
1
10
-53.912132034356
20
16.7929081476185
30
0
0
SPLINE
5
1CC
100
AcDbEntity
8
SK1
62
256
6
ByLayer
370
18
48
1
60
0
100
AcDbSpline
70
4
71
3
72
24
73
20
40
0
40
0
40
0
40
0
40
0.125000000000031
40
0.125000000000031
40
0.250000000000062
40
0.250000000000062
40
0.375000000000093
40
0.375000000000093
40
0.500000000000124
40
0.500000000000124
40
0.56250000000012
40
0.56250000000012
40
0.625000000000115
40
0.625000000000115
40
0.750000000000077
40
0.750000000000077
40
0.875000000000038
40
0.875000000000038
40
1
40
1
40
1
40
1
41
1
10
-57.487867965644
20
16.7929081476185
30
0
41
1
10
-57.4999873795649
20
16.8062702564668
30
0
41
1
10
-57.5133907379947
20
16.8187567723861
30
0
41
1
10
-57.5432700084743
20
16.8416503622175
30
0
41
1
10
-57.5599791957139
20
16.8521683641853
30
0
41
1
10
-57.5960015239286
20
16.8697188306505
30
0
41
1
10
-57.6155098433373
20
16.8768697822682
30
0
41
1
10
-57.6568363997996
20
16.8866955626108
30
0
41
1
10
-57.6779881115888
20
16.8892528706527
30
0
41
1
10
-57.7105037550582
20
16.889292461029
30
0
41
1
10
-57.7214598046401
20
16.8886506865785
30
0
41
1
10
-57.7427871734201
20
16.8861441496338
30
0
41
1
10
-57.7532684048463
20
16.8842828225806
30
0
41
1
10
-57.784191081005
20
16.8769609753422
30
0
41
1
10
-57.8038750872853
20
16.8697735501945
30
0
41
1
10
-57.8400202321267
20
16.8521740212717
30
0
41
1
10
-57.8567130954181
20
16.8416617063219
30
0
41
1
10
-57.8865941710871
20
16.8187699351289
30
0
41
1
10
-57.9000040605736
20
16.8062796940354
30
0
41
1
10
-57.912132034356
20
16.7929081476185
30
0
0
SPLINE
5
1CD
100
AcDbEntity
8
1
62
256
6
ByLayer
370
18
48
1
60
0
100
AcDbSpline
70
4
71
3
72
24
73
20
40
0
40
0
40
0
40
0
40
0.0625000000000002
40
0.0625000000000002
40
0.125
40
0.125
40
0.1875
40
0.1875
40
0.250000000000001
40
0.250000000000001
40
0.5
40
0.5
40
0.750000000000001
40
0.750000000000001
40
0.812500000000001
40
0.812500000000001
40
0.875
40
0.875
40
1
40
1
40
1
40
1
41
1
10
114.8
20
-49
30
0
41
1
10
114.774048290001
20
-49
30
0
41
1
10
114.748072494525
20
-48.9959539661956
30
0
41
1
10
114.696294663552
20
-48.9797858341589
30
0
41
1
10
114.67047467658
20
-48.9676642800023
30
0
41
1
10
114.619077196376
20
-48.935340651613
30
0
41
1
10
114.593473337034
20
-48.9151099909453
30
0
41
1
10
114.542782640934
20
-48.8667118823447
30
0
41
1
10
114.517690955492
20
-48.8385520280098
30
0
41
1
10
114.393748975234
20
-48.6781859213009
30
0
41
1
10
114.299405524499
20
-48.4875152016743
30
0
41
1
10
114.127165078734
20
-47.9835988413698
30
0
41
1
10
114.049185877754
20
-47.6703625040775
30
0
41
1
10
113.967598559766
20
-47.1998085301671
30
0
41
1
10
113.952085013635
20
-47.1017317719001
30
0
41
1
10
113.922856569527
20
-46.8975206840244
30
0
41
1
10
113.909169520806
20
-46.7915642776674
30
0
41
1
10
113.871263215682
20
-46.4628618516326
30
0
41
1
10
113.850136326921
20
-46.2290063317076
30
0
41
1
10
113.83407417371
20
-45.9803412596092
30
0
0
SPLINE
5
1CE
100
AcDbEntity
8
1
62
256
6
ByLayer
370
18
48
1
60
0
100
AcDbSpline
70
4
71
3
72
29
73
25
40
0
40
0
40
0
40
0
40
0.250000000000023
40
0.250000000000023
40
0.500000000000047
40
0.625000000000048
40
0.625000000000048
40
0.75000000000005
40
0.75000000000005
40
0.81250000000005
40
0.81250000000005
40
0.843750000000041
40
0.843750000000041
40
0.859375000000048
40
0.859375000000048
40
0.875000000000055
40
0.875000000000055
40
0.890625000000062
40
0.890625000000062
40
0.906250000000069
40
0.906250000000069
40
0.937500000000051
40
0.937500000000051
40
1
40
1
40
1
40
1
41
1
10
119.3245
20
-31.374363297151
30
0
41
1
10
119.3245
20
-31.3194064105506
30
0
41
1
10
119.324032399932
20
-31.2644963145756
30
0
41
1
10
119.321844723872
20
-31.1548254136152
30
0
41
1
10
119.319316428687
20
-31.072675121827
30
0
41
1
10
119.314310421224
20
-30.9908802734117
30
0
41
1
10
119.309978969288
20
-30.9365071281184
30
0
41
1
10
119.307406823544
20
-30.9093996053922
30
0
41
1
10
119.301580753402
20
-30.8694840950606
30
0
41
1
10
119.299363093008
20
-30.8562555152012
30
0
41
1
10
119.294437082563
20
-30.8370685365962
30
0
41
1
10
119.29259372161
20
-30.8308249345881
30
0
41
1
10
119.288543171497
20
-30.8224385863283
30
0
41
1
10
119.286963273436
20
-30.8197740482067
30
0
41
1
10
119.282840776615
20
-30.8162227658109
30
0
41
1
10
119.280153150169
20
-30.8157990354512
30
0
41
1
10
119.275457159849
20
-30.8184796529824
30
0
41
1
10
119.273463656979
20
-30.8210448559284
30
0
41
1
10
119.270073900227
20
-30.8264303864618
30
0
41
1
10
119.268601361044
20
-30.8294023405474
30
0
41
1
10
119.264535543431
20
-30.8385750160012
30
0
41
1
10
119.262285393521
20
-30.8450450665824
30
0
41
1
10
119.256068674689
20
-30.8646952642611
30
0
41
1
10
119.252660481926
20
-30.8781861599638
30
0
41
1
10
119.2495
20
-30.8917458747699
30
0
0
SPLINE
5
1CF
100
AcDbEntity
8
1
62
256
6
ByLayer
370
18
48
1
60
0
100
AcDbSpline
70
4
71
3
72
12
73
8
40
0
40
0
40
0
40
0
40
0.499999999999999
40
0.499999999999999
40
0.75
40
0.75
40
1
40
1
40
1
40
1
41
1
10
119.2495
20
-33.5717458978611
30
0
41
1
10
119.273449874967
20
-33.4158065123881
30
0
41
1
10
119.291067937376
20
-33.2597896270772
30
0
41
1
10
119.310080956516
20
-33.0255811011767
30
0
41
1
10
119.315133100644
20
-32.9474823744187
30
0
41
1
10
119.322320194146
20
-32.7912324466198
30
0
41
1
10
119.3245
20
-32.7132381575275
30
0
41
1
10
119.3245
20
-32.6355155582357
30
0
0
SPLINE
5
1D0
100
AcDbEntity
8
1
62
256
6
ByLayer
370
18
48
1
60
0
100
AcDbSpline
70
4
71
3
72
8
73
4
40
0
40
0
40
0
40
0
40
1
40
1
40
1
40
1
41
1
10
119.2495
20
-33.5717458978611
30
0
41
1
10
119.086430061288
20
-34.6335061812584
30
0
41
1
10
118.869706220596
20
-35.6806088261537
30
0
41
1
10
118.6055
20
-36.714739822498
30
0
0
SPLINE
5
1D1
100
AcDbEntity
8
1
62
256
6
ByLayer
370
18
48
1
60
0
100
AcDbSpline
70
4
71
3
72
28
73
24
40
0
40
0
40
0
40
0
40
0.24999999999997
40
0.24999999999997
40
0.499999999999939
40
0.499999999999939
40
0.624999999999926
40
0.624999999999926
40
0.749999999999913
40
0.749999999999913
40
0.812499999999915
40
0.812499999999915
40
0.843749999999929
40
0.843749999999929
40
0.874999999999943
40
0.874999999999943
40
0.906249999999957
40
0.906249999999957
40
0.937499999999972
40
0.937499999999972
40
0.968749999999986
40
0.968749999999986
40
1
40
1
40
1
40
1
41
1
10
118.6055
20
-36.714739822498
30
0
41
1
10
118.588576985242
20
-36.7809782860477
30
0
41
1
10
118.573778640626
20
-36.8469679361492
30
0
41
1
10
118.548417493048
20
-36.9784405235402
30
0
41
1
10
118.537797636014
20
-37.043928444733
30
0
41
1
10
118.526574325012
20
-37.1416448640675
30
0
41
1
10
118.523621888495
20
-37.1741963552595
30
0
41
1
10
118.520256070083
20
-37.2387663711831
30
0
41
1
10
118.51977379898
20
-37.2704500628858
30
0
41
1
10
118.522833074229
20
-37.3161490613548
30
0
41
1
10
118.524493209776
20
-37.3311487893483
30
0
41
1
10
118.528800694706
20
-37.352539766648
30
0
41
1
10
118.53053112703
20
-37.3594094946836
30
0
41
1
10
118.53487591584
20
-37.3723716083382
30
0
41
1
10
118.53751759955
20
-37.3785400595505
30
0
41
1
10
118.544135407032
20
-37.3891873548662
30
0
41
1
10
118.548160280846
20
-37.3937178346545
30
0
41
1
10
118.557970832039
20
-37.399343450182
30
0
41
1
10
118.563796586259
20
-37.4002822552635
30
0
41
1
10
118.576048721416
20
-37.3977088883858
30
0
41
1
10
118.5824296551
20
-37.3942878530465
30
0
41
1
10
118.594489804997
20
-37.385188912308
30
0
41
1
10
118.600109447799
20
-37.3796698412628
30
0
41
1
10
118.6055
20
-37.373611017426
30
0
0
SPLINE
5
1D2
100
AcDbEntity
8
1
62
256
6
ByLayer
370
18
48
1
60
0
100
AcDbSpline
70
4
71
3
72
8
73
4
40
0
40
0
40
0
40
0
40
1
40
1
40
1
40
1
41
1
10
118.6055
20
-37.373611017426
30
0
41
1
10
118.822529300301
20
-37.1296763983232
30
0
41
1
10
119.037366545293
20
-36.8831983032506
30
0
41
1
10
119.2495
20
-36.6335829581342
30
0
0
SPLINE
5
1D3
100
AcDbEntity
8
1
62
256
6
ByLayer
370
18
48
1
60
0
100
AcDbSpline
70
4
71
3
72
18
73
14
40
0
40
0
40
0
40
0
40
0.250000000000013
40
0.250000000000013
40
0.500000000000027
40
0.500000000000027
40
0.62500000000002
40
0.62500000000002
40
0.750000000000013
40
0.750000000000013
40
0.875000000000007
40
0.875000000000007
40
1
40
1
40
1
40
1
41
1
10
119.3245
20
-36.7421428531869
30
0
41
1
10
119.3245
20
-36.7245176993834
30
0
41
1
10
119.32391229198
20
-36.7071717485018
30
0
41
1
10
119.32075290832
20
-36.6734413846412
30
0
41
1
10
119.31823321225
20
-36.65674285088
30
0
41
1
10
119.311139893004
20
-36.6345466094667
30
0
41
1
10
119.30817714617
20
-36.6275421986265
30
0
41
1
10
119.300230880857
20
-36.6160961548193
30
0
41
1
10
119.295135545578
20
-36.6116545852137
30
0
41
1
10
119.282451033099
20
-36.6091667968875
30
0
41
1
10
119.275264485858
20
-36.6114358989537
30
0
41
1
10
119.261672465469
20
-36.6203894104479
30
0
41
1
10
119.255362671196
20
-36.6266844107272
30
0
41
1
10
119.2495
20
-36.6335829581342
30
0
0
SPLINE
5
1D4
100
AcDbEntity
8
1
62
256
6
ByLayer
370
18
48
1
60
0
100
AcDbSpline
70
4
71
3
72
12
73
8
40
0
40
0
40
0
40
0
40
0.500000000000021
40
0.500000000000021
40
0.750000000000011
40
0.750000000000011
40
1
40
1
40
1
40
1
41
1
10
119.2495
20
-37.6144050421729
30
0
41
1
10
119.27125461873
20
-37.541419263068
30
0
41
1
10
119.288718680672
20
-37.4683926299571
30
0
41
1
10
119.308511489959
20
-37.3587664318821
30
0
41
1
10
119.313971523825
20
-37.3223883770073
30
0
41
1
10
119.321917021225
20
-37.2505240515007
30
0
41
1
10
119.3245
20
-37.2149528282922
30
0
41
1
10
119.3245
20
-37.180085481331
30
0
0
SPLINE
5
1D5
100
AcDbEntity
8
1
62
256
6
ByLayer
370
18
48
1
60
0
100
AcDbSpline
70
4
71
3
72
8
73
4
40
0
40
0
40
0
40
0
40
1
40
1
40
1
40
1
41
1
10
119.2495
20
-37.6144050421729
30
0
41
1
10
119.052909503293
20
-38.2739574225087
30
0
41
1
10
118.837557523584
20
-38.9252688291728
30
0
41
1
10
118.6055
20
-39.5692423325783
30
0
0
SPLINE
5
1D6
100
AcDbEntity
8
1
62
256
6
ByLayer
370
18
48
1
60
0
100
AcDbSpline
70
4
71
3
72
26
73
22
40
0
40
0
40
0
40
0
40
0.249999999999978
40
0.249999999999978
40
0.499999999999957
40
0.499999999999957
40
0.62499999999995
40
0.62499999999995
40
0.687499999999961
40
0.687499999999961
40
0.749999999999971
40
0.749999999999971
40
0.812499999999982
40
0.812499999999982
40
0.843749999999987
40
0.843749999999987
40
0.874999999999992
40
0.874999999999992
40
0.937499999999996
40
0.937499999999996
40
1
40
1
40
1
40
1
41
1
10
118.6055
20
-39.5692423325783
30
0
41
1
10
118.587643156855
20
-39.6187961400231
30
0
41
1
10
118.572015153518
20
-39.6685126312752
30
0
41
1
10
118.545768365898
20
-39.766660157988
30
0
41
1
10
118.534984812796
20
-39.8153022796539
30
0
41
1
10
118.524406680009
20
-39.8872728105715
30
0
41
1
10
118.521852859371
20
-39.9110436505429
30
0
41
1
10
118.520418804176
20
-39.9452806611475
30
0
41
1
10
118.520340103259
20
-39.956485071097
30
0
41
1
10
118.521316572032
20
-39.9783092712762
30
0
41
1
10
118.522379144929
20
-39.9889959860531
30
0
41
1
10
118.526211670088
20
-40.0087892667799
30
0
41
1
10
118.528987116134
20
-40.0180751916216
30
0
41
1
10
118.535310298849
20
-40.0297189979098
30
0
41
1
10
118.537755477579
20
-40.0331628737238
30
0
41
1
10
118.543557893523
20
-40.0388720525553
30
0
41
1
10
118.546935275676
20
-40.0411137199877
30
0
41
1
10
118.558257275307
20
-40.045142446326
30
0
41
1
10
118.567713171199
20
-40.0439723663317
30
0
41
1
10
118.586740793639
20
-40.0351534278305
30
0
41
1
10
118.596375598404
20
-40.0278428099312
30
0
41
1
10
118.605500000001
20
-40.0193324895504
30
0
0
SPLINE
5
1D7
100
AcDbEntity
8
1
62
256
6
ByLayer
370
18
48
1
60
0
100
AcDbSpline
70
4
71
3
72
8
73
4
40
0
40
0
40
0
40
0
40
1
40
1
40
1
40
1
41
1
10
118.6055
20
-40.0193324895489
30
0
41
1
10
118.820739969169
20
-39.8185783823276
30
0
41
1
10
119.035436607666
20
-39.6170527580396
30
0
41
1
10
119.2495
20
-39.4146279387558
30
0
0
SPLINE
5
1D8
100
AcDbEntity
8
1
62
256
6
ByLayer
370
18
48
1
60
0
100
AcDbSpline
70
4
71
3
72
20
73
16
40
0
40
0
40
0
40
0
40
0.24999999999998
40
0.24999999999998
40
0.374999999999983
40
0.374999999999983
40
0.499999999999986
40
0.499999999999986
40
0.62499999999999
40
0.62499999999999
40
0.749999999999993
40
0.749999999999993
40
0.874999999999997
40
0.874999999999997
40
1
40
1
40
1
40
1
41
1
10
119.32450000001
20
-39.4758747057857
30
0
41
1
10
119.324500000011
20
-39.4622480685124
30
0
41
1
10
119.323720006666
20
-39.4489518311853
30
0
41
1
10
119.32056082149
20
-39.4305545407478
30
0
41
1
10
119.319177438201
20
-39.424704653761
30
0
41
1
10
119.315460180535
20
-39.4138219207664
30
0
41
1
10
119.313094294282
20
-39.4087403605801
30
0
41
1
10
119.307107301193
20
-39.4003169334065
30
0
41
1
10
119.30339385025
20
-39.3968847392199
30
0
41
1
10
119.294518318095
20
-39.3929059165862
30
0
41
1
10
119.289273781814
20
-39.3923980908057
30
0
41
1
10
119.278148020212
20
-39.394641860152
30
0
41
1
10
119.272240259158
20
-39.3973541368363
30
0
41
1
10
119.26073610745
20
-39.4047199434933
30
0
41
1
10
119.254995241478
20
-39.4094314721798
30
0
41
1
10
119.2495
20
-39.4146279387545
30
0
0
SPLINE
5
1D9
100
AcDbEntity
8
1
62
256
6
ByLayer
370
18
48
1
60
0
100
AcDbSpline
70
4
71
3
72
12
73
8
40
0
40
0
40
0
40
0
40
0.499999999999973
40
0.499999999999973
40
0.749999999999987
40
0.749999999999987
40
1
40
1
40
1
40
1
41
1
10
119.2495
20
-40.0912167009134
30
0
41
1
10
119.270749376286
20
-40.037505318721
30
0
41
1
10
119.288114006892
20
-39.9840923527969
30
0
41
1
10
119.308033340519
20
-39.9044186364488
30
0
41
1
10
119.313647104952
20
-39.8778062422474
30
0
41
1
10
119.321857566803
20
-39.8254042330728
30
0
41
1
10
119.3245
20
-39.7998432734028
30
0
41
1
10
119.3245
20
-39.7754639616858
30
0
0
SPLINE
5
1DA
100
AcDbEntity
8
1
62
256
6
ByLayer
370
18
48
1
60
0
100
AcDbSpline
70
4
71
3
72
8
73
4
40
0
40
0
40
0
40
0
40
1
40
1
40
1
40
1
41
1
10
119.2495
20
-40.0912167009134
30
0
41
1
10
119.044943589855
20
-40.608267525243
30
0
41
1
10
118.829910422179
20
-41.1194546037457
30
0
41
1
10
118.6055
20
-41.6253933182573
30
0
0
SPLINE
5
1DB
100
AcDbEntity
8
1
62
256
6
ByLayer
370
18
48
1
60
0
100
AcDbSpline
70
4
71
3
72
24
73
20
40
0
40
0
40
0
40
0
40
0.250000000000011
40
0.250000000000011
40
0.500000000000022
40
0.500000000000022
40
0.625000000000038
40
0.625000000000038
40
0.687500000000031
40
0.687500000000031
40
0.750000000000025
40
0.750000000000025
40
0.812500000000019
40
0.812500000000019
40
0.875000000000013
40
0.875000000000013
40
0.937500000000006
40
0.937500000000006
40
1
40
1
40
1
40
1
41
1
10
118.6055
20
-41.6253933182573
30
0
41
1
10
118.587105291382
20
-41.6668646329222
30
0
41
1
10
118.571091296136
20
-41.7081105915472
30
0
41
1
10
118.54408524399
20
-41.7901074712467
30
0
41
1
10
118.532951748391
20
-41.831233525782
30
0
41
1
10
118.523038409465
20
-41.8895338130815
30
0
41
1
10
118.520831971449
20
-41.9086042462074
30
0
41
1
10
118.520383997625
20
-41.9355470514789
30
0
41
1
10
118.520719822513
20
-41.9441587757889
30
0
41
1
10
118.522734725193
20
-41.9603661394202
30
0
41
1
10
118.524438115292
20
-41.9680544303652
30
0
41
1
10
118.529778126137
20
-41.9813298323848
30
0
41
1
10
118.533454559674
20
-41.9870033162869
30
0
41
1
10
118.543404949431
20
-41.9947235523582
30
0
41
1
10
118.549750260256
20
-41.9966617979702
30
0
41
1
10
118.564259028938
20
-41.9956830047327
30
0
41
1
10
118.572454592052
20
-41.9927821279148
30
0
41
1
10
118.588892883095
20
-41.9837225694704
30
0
41
1
10
118.59733722664
20
-41.9775187338987
30
0
41
1
10
118.6055
20
-41.97050560153
30
0
0
SPLINE
5
1DC
100
AcDbEntity
8
1
62
256
6
ByLayer
370
18
48
1
60
0
100
AcDbSpline
70
4
71
3
72
8
73
4
40
0
40
0
40
0
40
0
40
1
40
1
40
1
40
1
41
1
10
118.6055
20
-41.9705056015291
30
0
41
1
10
118.820331960648
20
-41.7859304687194
30
0
41
1
10
119.035005737834
20
-41.6011103791872
30
0
41
1
10
119.2495
20
-41.4160122997164
30
0
0
SPLINE
5
1DD
100
AcDbEntity
8
1
62
256
6
ByLayer
370
18
48
1
60
0
100
AcDbSpline
70
4
71
3
72
16
73
12
40
0
40
0
40
0
40
0
40
0.250000000000081
40
0.250000000000081
40
0.500000000000163
40
0.500000000000163
40
0.625000000000124
40
0.625000000000124
40
0.750000000000085
40
0.750000000000085
40
1
40
1
40
1
40
1
41
1
10
119.324500000002
20
-41.4517920695657
30
0
41
1
10
119.324500000002
20
-41.440367383973
30
0
41
1
10
119.323574330635
20
-41.4296257544309
30
0
41
1
10
119.318509386911
20
-41.4105343684028
30
0
41
1
10
119.314345247719
20
-41.4023667097376
30
0
41
1
10
119.304383043625
20
-41.3952686195636
30
0
41
1
10
119.300413994865
20
-41.3938031093932
30
0
41
1
10
119.291511208776
20
-41.3931584348767
30
0
41
1
10
119.286527021205
20
-41.3939796046376
30
0
41
1
10
119.271023676201
20
-41.3994427929494
30
0
41
1
10
119.260027379858
20
-41.4069276847058
30
0
41
1
10
119.2495
20
-41.4160122997157
30
0
0
SPLINE
5
1DE
100
AcDbEntity
8
1
62
256
6
ByLayer
370
18
48
1
60
0
100
AcDbSpline
70
4
71
3
72
12
73
8
40
0
40
0
40
0
40
0
40
0.500000000000045
40
0.500000000000045
40
0.750000000000023
40
0.750000000000023
40
1
40
1
40
1
40
1
41
1
10
119.2495
20
-41.9353083296311
30
0
41
1
10
119.270400739195
20
-41.891409105862
30
0
41
1
10
119.287982247592
20
-41.8472681461817
30
0
41
1
10
119.307957251677
20
-41.7828646621749
30
0
41
1
10
119.313571379324
20
-41.7616176300328
30
0
41
1
10
119.3218661042
20
-41.7197509393173
30
0
41
1
10
119.3245
20
-41.6996254052807
30
0
41
1
10
119.3245
20
-41.6809876861898
30
0
0
SPLINE
5
1DF
100
AcDbEntity
8
1
62
256
6
ByLayer
370
18
48
1
60
0
100
AcDbSpline
70
4
71
3
72
8
73
4
40
0
40
0
40
0
40
0
40
1
40
1
40
1
40
1
41
1
10
119.2495
20
-41.9353083296311
30
0
41
1
10
119.04140572646
20
-42.3723826835175
30
0
41
1
10
118.826510348702
20
-42.8049585330931
30
0
41
1
10
118.6055
20
-43.2334897125276
30
0
0
SPLINE
5
1E0
100
AcDbEntity
8
1
62
256
6
ByLayer
370
18
48
1
60
0
100
AcDbSpline
70
4
71
3
72
20
73
16
40
0
40
0
40
0
40
0
40
0.249999999999999
40
0.249999999999999
40
0.499999999999998
40
0.499999999999998
40
0.624999999999987
40
0.624999999999987
40
0.749999999999977
40
0.749999999999977
40
0.812499999999972
40
0.812499999999972
40
0.874999999999966
40
0.874999999999966
40
1
40
1
40
1
40
1
41
1
10
118.6055
20
-43.2334897125276
30
0
41
1
10
118.58665178262
20
-43.2700357334336
30
0
41
1
10
118.570003929807
20
-43.3067132975129
30
0
41
1
10
118.54235401958
20
-43.3786299644915
30
0
41
1
10
118.531260620271
20
-43.4137052273499
30
0
41
1
10
118.521945970035
20
-43.4634356383719
30
0
41
1
10
118.520163421698
20
-43.4791290996216
30
0
41
1
10
118.520937540741
20
-43.5076437025055
30
0
41
1
10
118.523531889678
20
-43.520413368311
30
0
41
1
10
118.533361056321
20
-43.5329477804308
30
0
41
1
10
118.53766255767
20
-43.5359341976592
30
0
41
1
10
118.548184540343
20
-43.538597526839
30
0
41
1
10
118.554395521324
20
-43.538278325242
30
0
41
1
10
118.574973031665
20
-43.5324844686063
30
0
41
1
10
118.590454765483
20
-43.5225299905646
30
0
41
1
10
118.6055
20
-43.5100772776503
30
0
0
SPLINE
5
1E1
100
AcDbEntity
8
1
62
256
6
ByLayer
370
18
48
1
60
0
100
AcDbSpline
70
4
71
3
72
8
73
4
40
0
40
0
40
0
40
0
40
1
40
1
40
1
40
1
41
1
10
118.6055
20
-43.5100772776498
30
0
41
1
10
118.820203979195
20
-43.3323700434185
30
0
41
1
10
119.034872069188
20
-43.1546049768551
30
0
41
1
10
119.2495
20
-42.9767752987127
30
0
0
SPLINE
5
1E2
100
AcDbEntity
8
1
62
256
6
ByLayer
370
18
48
1
60
0
100
AcDbSpline
70
4
71
3
72
16
73
12
40
0
40
0
40
0
40
0
40
0.249999999999903
40
0.249999999999903
40
0.499999999999805
40
0.499999999999805
40
0.624999999999822
40
0.624999999999822
40
0.749999999999839
40
0.749999999999839
40
1
40
1
40
1
40
1
41
1
10
119.3245
20
-42.9946525728947
30
0
41
1
10
119.3245
20
-42.984793931125
30
0
41
1
10
119.323364700352
20
-42.9757224015113
30
0
41
1
10
119.317618439847
20
-42.9610733983107
30
0
41
1
10
119.312832257615
20
-42.9554349467432
30
0
41
1
10
119.302386234609
20
-42.9521189582845
30
0
41
1
10
119.298459762373
20
-42.9518627336725
30
0
41
1
10
119.289703529877
20
-42.9530805456519
30
0
41
1
10
119.284909287438
20
-42.9545789497623
30
0
41
1
10
119.270258456793
20
-42.961106001764
30
0
41
1
10
119.25972922897
20
-42.968299885058
30
0
41
1
10
119.2495
20
-42.9767752987123
30
0
0
SPLINE
5
1E3
100
AcDbEntity
8
1
62
256
6
ByLayer
370
18
48
1
60
0
100
AcDbSpline
70
4
71
3
72
12
73
8
40
0
40
0
40
0
40
0
40
0.500000000000028
40
0.500000000000028
40
0.750000000000014
40
0.750000000000014
40
1
40
1
40
1
40
1
41
1
10
119.2495
20
-43.3919878841886
30
0
41
1
10
119.27010032095
20
-43.3543386333589
30
0
41
1
10
119.287778739477
20
-43.3163913811337
30
0
41
1
10
119.307880398042
20
-43.2617098394658
30
0
41
1
10
119.313525962551
20
-43.2438253173232
30
0
41
1
10
119.321860478618
20
-43.2090213858311
30
0
41
1
10
119.3245
20
-43.1924069066608
30
0
41
1
10
119.3245
20
-43.1775976034378
30
0
0
SPLINE
5
1E4
100
AcDbEntity
8
1
62
256
6
ByLayer
370
18
48
1
60
0
100
AcDbSpline
70
4
71
3
72
8
73
4
40
0
40
0
40
0
40
0
40
1
40
1
40
1
40
1
41
1
10
119.2495
20
-43.3919878841885
30
0
41
1
10
119.039439331602
20
-43.7758958248991
30
0
41
1
10
118.824618246661
20
-44.1562223165521
30
0
41
1
10
118.6055
20
-44.5333158840139
30
0
0
SPLINE
5
1E5
100
AcDbEntity
8
1
62
256
6
ByLayer
370
18
48
1
60
0
100
AcDbSpline
70
4
71
3
72
26
73
22
40
0
40
0
40
0
40
0
40
0.125000000000005
40
0.125000000000005
40
0.250000000000011
40
0.250000000000011
40
0.375000000000016
40
0.375000000000016
40
0.500000000000021
40
0.500000000000021
40
0.625000000000027
40
0.625000000000027
40
0.687500000000032
40
0.687500000000032
40
0.750000000000036
40
0.750000000000036
40
0.812500000000041
40
0.812500000000041
40
0.875000000000046
40
0.875000000000046
40
1
40
1
40
1
40
1
41
1
10
118.6055
20
-44.5333158840139
30
0
41
1
10
118.595891848487
20
-44.5498511209733
30
0
41
1
10
118.586867923903
20
-44.5663315893323
30
0
41
1
10
118.570018960149
20
-44.5991763737715
30
0
41
1
10
118.562162348524
20
-44.6156164989991
30
0
41
1
10
118.54808217205
20
-44.6477765695351
30
0
41
1
10
118.541826548599
20
-44.663540203776
30
0
41
1
10
118.531248218515
20
-44.6942882460049
30
0
41
1
10
118.526880540947
20
-44.7094347697568
30
0
41
1
10
118.521184962534
20
-44.7376553641793
30
0
41
1
10
118.519788361478
20
-44.7508866646789
30
0
41
1
10
118.521376195424
20
-44.7677676580936
30
0
41
1
10
118.522519045604
20
-44.7728014149721
30
0
41
1
10
118.526402372343
20
-44.7813297714473
30
0
41
1
10
118.529173651342
20
-44.7847936570812
30
0
41
1
10
118.536453758024
20
-44.789331006793
30
0
41
1
10
118.541055609124
20
-44.7904205302319
30
0
41
1
10
118.551571459623
20
-44.7899479027122
30
0
41
1
10
118.557659690864
20
-44.7883850305745
30
0
41
1
10
118.576989835237
20
-44.7803707613262
30
0
41
1
10
118.591355988743
20
-44.7707017605909
30
0
41
1
10
118.6055
20
-44.7591455874818
30
0
0
SPLINE
5
1E6
100
AcDbEntity
8
1
62
256
6
ByLayer
370
18
48
1
60
0
100
AcDbSpline
70
4
71
3
72
8
73
4
40
0
40
0
40
0
40
0
40
1
40
1
40
1
40
1
41
1
10
118.6055
20
-44.7591455874816
30
0
41
1
10
118.820168300833
20
-44.5837537555398
30
0
41
1
10
119.034835023948
20
-44.4083593488627
30
0
41
1
10
119.2495
20
-44.2329620912907
30
0
0
SPLINE
5
1E7
100
AcDbEntity
8
1
62
256
6
ByLayer
370
18
48
1
60
0
100
AcDbSpline
70
4
71
3
72
14
73
10
40
0
40
0
40
0
40
0
40
0.25
40
0.25
40
0.5
40
0.5
40
0.75
40
0.75
40
1
40
1
40
1
40
1
41
1
10
119.3245
20
-44.2365834598287
30
0
41
1
10
119.3245
20
-44.2280574715485
30
0
41
1
10
119.323226579452
20
-44.2206332405457
30
0
41
1
10
119.31687672309
20
-44.2094874469187
30
0
41
1
10
119.311677177387
20
-44.2060071462587
30
0
41
1
10
119.297631713328
20
-44.2051536604223
30
0
41
1
10
119.28871910896
20
-44.207793710342
30
0
41
1
10
119.269715629015
20
-44.217628287636
30
0
41
1
10
119.259536321132
20
-44.2247616701736
30
0
41
1
10
119.2495
20
-44.2329620912906
30
0
0
SPLINE
5
1E8
100
AcDbEntity
8
1
62
256
6
ByLayer
370
18
48
1
60
0
100
AcDbSpline
70
4
71
3
72
14
73
10
40
0
40
0
40
0
40
0
40
0.25
40
0.25
40
0.5
40
0.5
40
0.75
40
0.75
40
1
40
1
40
1
40
1
41
1
10
119.2495
20
-44.5703702247132
30
0
41
1
10
119.259689218242
20
-44.5537244060085
30
0
41
1
10
119.269141071217
20
-44.5371479955473
30
0
41
1
10
119.286488561992
20
-44.5041362228494
30
0
41
1
10
119.294346422854
20
-44.4877581462691
30
0
41
1
10
119.307827214093
20
-44.4560122948547
30
0
41
1
10
119.313524884287
20
-44.4405314920262
30
0
41
1
10
119.321919534254
20
-44.4107737469564
30
0
41
1
10
119.3245
20
-44.397025683911
30
0
41
1
10
119.3245
20
-44.3850933995447
30
0
0
SPLINE
5
1E9
100
AcDbEntity
8
1
62
256
6
ByLayer
370
18
48
1
60
0
100
AcDbSpline
70
4
71
3
72
8
73
4
40
0
40
0
40
0
40
0
40
1
40
1
40
1
40
1
41
1
10
119.2495
20
-44.5703702247132
30
0
41
1
10
119.038207131738
20
-44.9155530145199
30
0
41
1
10
118.823431123556
20
-45.2578238253876
30
0
41
1
10
118.6055
20
-45.597456892804
30
0
0
SPLINE
5
1EA
100
AcDbEntity
8
1
62
256
6
ByLayer
370
18
48
1
60
0
100
AcDbSpline
70
4
71
3
72
24
73
20
40
0
40
0
40
0
40
0
40
0.250000000000004
40
0.250000000000004
40
0.375000000000005
40
0.375000000000005
40
0.500000000000007
40
0.500000000000007
40
0.625000000000008
40
0.625000000000008
40
0.75000000000001
40
0.75000000000001
40
0.812500000000007
40
0.812500000000007
40
0.875000000000005
40
0.875000000000005
40
0.937500000000002
40
0.937500000000002
40
1
40
1
40
1
40
1
41
1
10
118.6055
20
-45.597456892804
30
0
41
1
10
118.585930635048
20
-45.627954617671
30
0
41
1
10
118.568404377661
20
-45.6584924379041
30
0
41
1
10
118.546981041172
20
-45.7021612457542
30
0
41
1
10
118.540636798332
20
-45.7163852039587
30
0
41
1
10
118.530004961665
20
-45.7439749121277
30
0
41
1
10
118.525755068741
20
-45.7572748958537
30
0
41
1
10
118.520602301041
20
-45.7813697613153
30
0
41
1
10
118.519658004616
20
-45.7924512939753
30
0
41
1
10
118.523058586786
20
-45.8094781184495
30
0
41
1
10
118.527571821705
20
-45.8154965617001
30
0
41
1
10
118.53929320376
20
-45.8179133314042
30
0
41
1
10
118.543873715489
20
-45.817642095108
30
0
41
1
10
118.55432599517
20
-45.8150413247482
30
0
41
1
10
118.56020425055
20
-45.8126777169457
30
0
41
1
10
118.572428193163
20
-45.8063867311991
30
0
41
1
10
118.578926831088
20
-45.8023930464153
30
0
41
1
10
118.592111319828
20
-45.7932881819858
30
0
41
1
10
118.598776586911
20
-45.7882045166474
30
0
41
1
10
118.6055
20
-45.7826993267327
30
0
0
SPLINE
5
1EB
100
AcDbEntity
8
1
62
256
6
ByLayer
370
18
48
1
60
0
100
AcDbSpline
70
4
71
3
72
8
73
4
40
0
40
0
40
0
40
0
40
1
40
1
40
1
40
1
41
1
10
118.6055
20
-45.7826993267326
30
0
41
1
10
118.820173237194
20
-45.6069229874503
30
0
41
1
10
119.034840117021
20
-45.4311362953957
30
0
41
1
10
119.2495
20
-45.2553382123749
30
0
0
SPLINE
5
1EC
100
AcDbEntity
8
1
62
256
6
ByLayer
370
18
48
1
60
0
100
AcDbSpline
70
4
71
3
72
14
73
10
40
0
40
0
40
0
40
0
40
0.25
40
0.25
40
0.5
40
0.5
40
0.75
40
0.75
40
1
40
1
40
1
40
1
41
1
10
119.3245
20
-45.2467427634162
30
0
41
1
10
119.3245
20
-45.2394710002288
30
0
41
1
10
119.32305055261
20
-45.2333911075695
30
0
41
1
10
119.316255949266
20
-45.2254590605736
30
0
41
1
10
119.31080187969
20
-45.2237332697389
30
0
41
1
10
119.296702547042
20
-45.225613605279
30
0
41
1
10
119.287942439373
20
-45.2292077635721
30
0
41
1
10
119.269327473126
20
-45.2400317807444
30
0
41
1
10
119.259405815922
20
-45.2472257349727
30
0
41
1
10
119.2495
20
-45.2553382123748
30
0
0
SPLINE
5
1ED
100
AcDbEntity
8
1
62
256
6
ByLayer
370
18
48
1
60
0
100
AcDbSpline
70
4
71
3
72
14
73
10
40
0
40
0
40
0
40
0
40
0.25
40
0.25
40
0.5
40
0.5
40
0.75
40
0.75
40
1
40
1
40
1
40
1
41
1
10
119.2495
20
-45.5300799335829
30
0
41
1
10
119.259575518723
20
-45.515103372745
30
0
41
1
10
119.26893994717
20
-45.500282137731
30
0
41
1
10
119.286161317257
20
-45.4709631921383
30
0
41
1
10
119.294078365003
20
-45.4563504489578
30
0
41
1
10
119.307745770548
20
-45.4280858342372
30
0
41
1
10
119.313467963412
20
-45.414541490867
30
0
41
1
10
119.321870739995
20
-45.389062427217
30
0
41
1
10
119.324500000008
20
-45.3772185365104
30
0
41
1
10
119.324500000009
20
-45.3675876053921
30
0
0
SPLINE
5
1EE
100
AcDbEntity
8
1
62
256
6
ByLayer
370
18
48
1
60
0
100
AcDbSpline
70
4
71
3
72
8
73
4
40
0
40
0
40
0
40
0
40
1
40
1
40
1
40
1
41
1
10
119.2495
20
-45.5300799335829
30
0
41
1
10
119.037374649206
20
-45.845389577551
30
0
41
1
10
118.822628100131
20
-46.1583021627902
30
0
41
1
10
118.6055
20
-46.4690368442115
30
0
0
SPLINE
5
1EF
100
AcDbEntity
8
1
62
256
6
ByLayer
370
18
48
1
60
0
100
AcDbSpline
70
4
71
3
72
22
73
18
40
0
40
0
40
0
40
0
40
0.249999999999989
40
0.249999999999989
40
0.499999999999978
40
0.499999999999978
40
0.624999999999972
40
0.624999999999972
40
0.687499999999963
40
0.687499999999963
40
0.749999999999955
40
0.749999999999955
40
0.874999999999968
40
0.874999999999968
40
0.937499999999984
40
0.937499999999984
40
1
40
1
40
1
40
1
41
1
10
118.6055
20
-46.4690368442115
30
0
41
1
10
118.585591553727
20
-46.4975280653221
30
0
41
1
10
118.56769567603
20
-46.52586355086
30
0
41
1
10
118.53866727079
20
-46.5791828628332
30
0
41
1
10
118.527054952205
20
-46.6049237622154
30
0
41
1
10
118.520158147362
20
-46.6357460390405
30
0
41
1
10
118.519699948155
20
-46.6445659272814
30
0
41
1
10
118.523212287993
20
-46.6538000958583
30
0
41
1
10
118.525072332122
20
-46.6561404219928
30
0
41
1
10
118.53027554466
20
-46.6590961389691
30
0
41
1
10
118.533673850252
20
-46.6596962012999
30
0
41
1
10
118.545626844133
20
-46.6587096977065
30
0
41
1
10
118.556327295088
20
-46.6542651322379
30
0
41
1
10
118.573923678963
20
-46.6437607679609
30
0
41
1
10
118.580143203835
20
-46.6395811173996
30
0
41
1
10
118.592686016535
20
-46.630425455486
30
0
41
1
10
118.599053312079
20
-46.6254275627388
30
0
41
1
10
118.6055
20
-46.6200829661947
30
0
0
SPLINE
5
1F0
100
AcDbEntity
8
1
62
256
6
ByLayer
370
18
48
1
60
0
100
AcDbSpline
70
4
71
3
72
8
73
4
40
0
40
0
40
0
40
0
40
1
40
1
40
1
40
1
41
1
10
118.6055
20
-46.6200829661946
30
0
41
1
10
118.820200946825
20
-46.4420861479081
30
0
41
1
10
119.034868684835
20
-46.2640359061465
30
0
41
1
10
119.2495
20
-46.0859271543189
30
0
0
SPLINE
5
1F1
100
AcDbEntity
8
1
62
256
6
ByLayer
370
18
48
1
60
0
100
AcDbSpline
70
4
71
3
72
14
73
10
40
0
40
0
40
0
40
0
40
0.25
40
0.25
40
0.5
40
0.5
40
0.75
40
0.75
40
1
40
1
40
1
40
1
41
1
10
119.3245
20
-46.0663360248446
30
0
41
1
10
119.3245
20
-46.0602063448816
30
0
41
1
10
119.322879088429
20
-46.0554417118855
30
0
41
1
10
119.315723768599
20
-46.050394459048
30
0
41
1
10
119.31012433525
20
-46.0501458087765
30
0
41
1
10
119.2959401497
20
-46.0543147310199
30
0
41
1
10
119.287363709046
20
-46.0586844662361
30
0
41
1
10
119.269011155193
20
-46.0704653043413
30
0
41
1
10
119.259309512901
20
-46.0777868692096
30
0
41
1
10
119.2495
20
-46.0859271543189
30
0
0
SPLINE
5
1F2
100
AcDbEntity
8
1
62
256
6
ByLayer
370
18
48
1
60
0
100
AcDbSpline
70
4
71
3
72
12
73
8
40
0
40
0
40
0
40
0
40
0.5
40
0.5
40
0.75
40
0.75
40
1
40
1
40
1
40
1
41
1
10
119.2495
20
-46.3075317791603
30
0
41
1
10
119.269569104578
20
-46.2800446718393
30
0
41
1
10
119.287037981678
20
-46.253389227797
30
0
41
1
10
119.307741596854
20
-46.2153783121061
30
0
41
1
10
119.313491339927
20
-46.2034216639815
30
0
41
1
10
119.321898093649
20
-46.1814239866425
30
0
41
1
10
119.324500000003
20
-46.1714323312695
30
0
41
1
10
119.324500000003
20
-46.1637626739603
30
0
0
SPLINE
5
1F3
100
AcDbEntity
8
1
62
256
6
ByLayer
370
18
48
1
60
0
100
AcDbSpline
70
4
71
3
72
8
73
4
40
0
40
0
40
0
40
0
40
1
40
1
40
1
40
1
41
1
10
119.2495
20
-46.3075317791603
30
0
41
1
10
119.036782319601
20
-46.598874807819
30
0
41
1
10
118.822056039247
20
-46.8882313992868
30
0
41
1
10
118.6055
20
-47.1757784213042
30
0
0
SPLINE
5
1F4
100
AcDbEntity
8
1
62
256
6
ByLayer
370
18
48
1
60
0
100
AcDbSpline
70
4
71
3
72
22
73
18
40
0
40
0
40
0
40
0
40
0.249999999999924
40
0.249999999999924
40
0.374999999999923
40
0.374999999999923
40
0.499999999999923
40
0.499999999999923
40
0.624999999999923
40
0.624999999999923
40
0.749999999999922
40
0.749999999999922
40
0.812499999999941
40
0.812499999999941
40
0.874999999999961
40
0.874999999999961
40
1
40
1
40
1
40
1
41
1
10
118.6055
20
-47.1757784213042
30
0
41
1
10
118.585273555258
20
-47.2026354601183
30
0
41
1
10
118.566956451892
20
-47.2292229400242
30
0
41
1
10
118.544833531636
20
-47.2660678844065
30
0
41
1
10
118.538266574183
20
-47.2779981266209
30
0
41
1
10
118.527742828944
20
-47.3000981082553
30
0
41
1
10
118.523823971669
20
-47.3101313539303
30
0
41
1
10
118.519863891674
20
-47.3272662268364
30
0
41
1
10
118.519984207007
20
-47.3340533284695
30
0
41
1
10
118.525780981227
20
-47.3417522150087
30
0
41
1
10
118.531601008418
20
-47.3425395578433
30
0
41
1
10
118.54372645532
20
-47.3388915542783
30
0
41
1
10
118.548412658276
20
-47.3368666430987
30
0
41
1
10
118.558472329125
20
-47.3315512620657
30
0
41
1
10
118.563846554174
20
-47.3282779831857
30
0
41
1
10
118.580853219547
20
-47.3168828358452
30
0
41
1
10
118.593068792019
20
-47.3073886497742
30
0
41
1
10
118.6055
20
-47.2968754376165
30
0
0
SPLINE
5
1F5
100
AcDbEntity
8
1
62
256
6
ByLayer
370
18
48
1
60
0
100
AcDbSpline
70
4
71
3
72
8
73
4
40
0
40
0
40
0
40
0
40
1
40
1
40
1
40
1
41
1
10
118.6055
20
-47.2968754376164
30
0
41
1
10
118.820244754008
20
-47.11526338816
30
0
41
1
10
119.034913814811
20
-46.9335319303367
30
0
41
1
10
119.2495
20
-46.7516701480928
30
0
0
SPLINE
5
1F6
100
AcDbEntity
8
1
62
256
6
ByLayer
370
18
48
1
60
0
100
AcDbSpline
70
4
71
3
72
14
73
10
40
0
40
0
40
0
40
0
40
0.25
40
0.25
40
0.5
40
0.5
40
0.75
40
0.75
40
1
40
1
40
1
40
1
41
1
10
119.3245
20
-46.7218227111436
30
0
41
1
10
119.3245
20
-46.7167636827918
30
0
41
1
10
119.322749381051
20
-46.7133264469951
30
0
41
1
10
119.315245830478
20
-46.7108983856196
30
0
41
1
10
119.309604124007
20
-46.7119307814348
30
0
41
1
10
119.295315870072
20
-46.7181361744954
30
0
41
1
10
119.286939122699
20
-46.7231633913708
30
0
41
1
10
119.268758907568
20
-46.7359097762675
30
0
41
1
10
119.259245573468
20
-46.7434107750192
30
0
41
1
10
119.2495
20
-46.7516701480928
30
0
0
SPLINE
5
1F7
100
AcDbEntity
8
1
62
256
6
ByLayer
370
18
48
1
60
0
100
AcDbSpline
70
4
71
3
72
14
73
10
40
0
40
0
40
0
40
0
40
0.25
40
0.25
40
0.5
40
0.5
40
0.75
40
0.75
40
1
40
1
40
1
40
1
41
1
10
119.2495
20
-46.9264544727241
30
0
41
1
10
119.25944527166
20
-46.9137839384981
30
0
41
1
10
119.268857873782
20
-46.9012296925004
30
0
41
1
10
119.286063126254
20
-46.8769739480124
30
0
41
1
10
119.293918864435
20
-46.865200408821
30
0
41
1
10
119.307730134248
20
-46.8425488566718
30
0
41
1
10
119.313549981919
20
-46.831883452387
30
0
41
1
10
119.321938888577
20
-46.8129323227158
30
0
41
1
10
119.324500000001
20
-46.8045938255255
30
0
41
1
10
119.324500000001
20
-46.7986396737448
30
0
0
SPLINE
5
1F8
100
AcDbEntity
8
1
62
256
6
ByLayer
370
18
48
1
60
0
100
AcDbSpline
70
4
71
3
72
8
73
4
40
0
40
0
40
0
40
0
40
1
40
1
40
1
40
1
41
1
10
119.2495
20
-46.9264544727241
30
0
41
1
10
119.036344592726
20
-47.1980199940686
30
0
41
1
10
118.821632798019
20
-47.46793539229
30
0
41
1
10
118.6055
20
-47.7363442052146
30
0
0
SPLINE
5
1F9
100
AcDbEntity
8
1
62
256
6
ByLayer
370
18
48
1
60
0
100
AcDbSpline
70
4
71
3
72
24
73
20
40
0
40
0
40
0
40
0
40
0.25000000000001
40
0.25000000000001
40
0.375000000000015
40
0.375000000000015
40
0.50000000000002
40
0.50000000000002
40
0.625000000000025
40
0.625000000000025
40
0.687500000000021
40
0.687500000000021
40
0.750000000000017
40
0.750000000000017
40
0.812500000000012
40
0.812500000000012
40
0.875000000000008
40
0.875000000000008
40
1
40
1
40
1
40
1
41
1
10
118.6055
20
-47.7363442052146
30
0
41
1
10
118.584933659893
20
-47.7618849236291
30
0
41
1
10
118.566264229825
20
-47.7868862910127
30
0
41
1
10
118.543766769786
20
-47.8209469214415
30
0
41
1
10
118.537092163987
20
-47.8318990550104
30
0
41
1
10
118.526746101153
20
-47.8513838063828
30
0
41
1
10
118.522951087146
20
-47.8601468439844
30
0
41
1
10
118.519744344447
20
-47.8737149412441
30
0
41
1
10
118.520396419323
20
-47.8785001258787
30
0
41
1
10
118.525477759379
20
-47.8812221123845
30
0
41
1
10
118.527888375931
20
-47.8813989058138
30
0
41
1
10
118.533838386636
20
-47.8802752371658
30
0
41
1
10
118.537384868344
20
-47.8789999511004
30
0
41
1
10
118.545559270928
20
-47.8751024509132
30
0
41
1
10
118.550188285926
20
-47.8724678743436
30
0
41
1
10
118.559992242756
20
-47.866232942027
30
0
41
1
10
118.565218656667
20
-47.8626093330226
30
0
41
1
10
118.581754020229
20
-47.8504066896325
30
0
41
1
10
118.593447968638
20
-47.84085839684
30
0
41
1
10
118.6055
20
-47.8304003628102
30
0
0
SPLINE
5
1FA
100
AcDbEntity
8
1
62
256
6
ByLayer
370
18
48
1
60
0
100
AcDbSpline
70
4
71
3
72
8
73
4
40
0
40
0
40
0
40
0
40
1
40
1
40
1
40
1
41
1
10
118.6055
20
-47.8304003628101
30
0
41
1
10
118.820302546545
20
-47.6440075237985
30
0
41
1
10
119.034973355329
20
-47.4574120577276
30
0
41
1
10
119.2495
20
-47.2705960321683
30
0
0
SPLINE
5
1FB
100
AcDbEntity
8
1
62
256
6
ByLayer
370
18
48
1
60
0
100
AcDbSpline
70
4
71
3
72
14
73
10
40
0
40
0
40
0
40
0
40
0.25
40
0.25
40
0.5
40
0.5
40
0.75
40
0.75
40
1
40
1
40
1
40
1
41
1
10
119.3245
20
-47.2309126238237
30
0
41
1
10
119.3245
20
-47.2269178971008
30
0
41
1
10
119.322626132983
20
-47.2247594643014
30
0
41
1
10
119.314843542028
20
-47.2248115931792
30
0
41
1
10
119.309162894578
20
-47.226981040974
30
0
41
1
10
119.294854222523
20
-47.2350325359301
30
0
41
1
10
119.286589612437
20
-47.2407014516844
30
0
41
1
10
119.26861271811
20
-47.254375599661
30
0
41
1
10
119.259209704467
20
-47.2621405398416
30
0
41
1
10
119.2495
20
-47.2705960321683
30
0
0
SPLINE
5
1FC
100
AcDbEntity
8
1
62
256
6
ByLayer
370
18
48
1
60
0
100
AcDbSpline
70
4
71
3
72
12
73
8
40
0
40
0
40
0
40
0
40
0.500000000000078
40
0.500000000000078
40
0.750000000000039
40
0.750000000000039
40
1
40
1
40
1
40
1
41
1
10
119.2495
20
-47.4028498781752
30
0
41
1
10
119.269213771312
20
-47.3793119136173
30
0
41
1
10
119.287076122895
20
-47.3563670284796
30
0
41
1
10
119.307711737403
20
-47.3260475722174
30
0
41
1
10
119.313626340585
20
-47.3165008078664
30
0
41
1
10
119.322002481336
20
-47.3002470594534
30
0
41
1
10
119.3245
20
-47.293440494456
30
0
41
1
10
119.3245
20
-47.2890240128755
30
0
0
SPLINE
5
1FD
100
AcDbEntity
8
1
62
256
6
ByLayer
370
18
48
1
60
0
100
AcDbSpline
70
4
71
3
72
8
73
4
40
0
40
0
40
0
40
0
40
1
40
1
40
1
40
1
41
1
10
119.2495
20
-47.4028498781752
30
0
41
1
10
119.036011628907
20
-47.6577519784764
30
0
41
1
10
118.821310496289
20
-47.9112851613349
30
0
41
1
10
118.6055
20
-48.163566138175
30
0
0
SPLINE
5
1FE
100
AcDbEntity
8
1
62
256
6
ByLayer
370
18
48
1
60
0
100
AcDbSpline
70
4
71
3
72
22
73
18
40
0
40
0
40
0
40
0
40
0.250000000000019
40
0.250000000000019
40
0.375000000000028
40
0.375000000000028
40
0.500000000000038
40
0.500000000000038
40
0.625000000000047
40
0.625000000000047
40
0.687500000000037
40
0.687500000000037
40
0.750000000000028
40
0.750000000000028
40
0.875000000000014
40
0.875000000000014
40
1
40
1
40
1
40
1
41
1
10
118.6055
20
-48.163566138175
30
0
41
1
10
118.58461800242
20
-48.1879770488517
30
0
41
1
10
118.565507179618
20
-48.2117045234637
30
0
41
1
10
118.542689990122
20
-48.2431162129388
30
0
41
1
10
118.5359677808
20
-48.2530413976178
30
0
41
1
10
118.525788698556
20
-48.2700761212655
30
0
41
1
10
118.522209442212
20
-48.2774045374631
30
0
41
1
10
118.519750506565
20
-48.2875719003495
30
0
41
1
10
118.520917187491
20
-48.290403795087
30
0
41
1
10
118.526613240173
20
-48.2903641595357
30
0
41
1
10
118.529188583589
20
-48.2896418406777
30
0
41
1
10
118.535367825739
20
-48.2869190401382
30
0
41
1
10
118.53899628437
20
-48.2849212703509
30
0
41
1
10
118.551354752463
20
-48.2771657902722
30
0
41
1
10
118.561088840106
20
-48.2699596696235
30
0
41
1
10
118.58248539173
20
-48.2527621693601
30
0
41
1
10
118.593773139625
20
-48.243075582227
30
0
41
1
10
118.6055
20
-48.232584456276
30
0
0
SPLINE
5
1FF
100
AcDbEntity
8
1
62
256
6
ByLayer
370
18
48
1
60
0
100
AcDbSpline
70
4
71
3
72
8
73
4
40
0
40
0
40
0
40
0
40
1
40
1
40
1
40
1
41
1
10
118.6055
20
-48.232584456276
30
0
41
1
10
118.820374683942
20
-48.0403524947096
30
0
41
1
10
119.035047370323
20
-47.8478202535533
30
0
41
1
10
119.2495
20
-47.654960886978
30
0
0
SPLINE
5
200
100
AcDbEntity
8
1
62
256
6
ByLayer
370
18
48
1
60
0
100
AcDbSpline
70
4
71
3
72
14
73
10
40
0
40
0
40
0
40
0
40
0.25
40
0.25
40
0.5
40
0.5
40
0.75
40
0.75
40
1
40
1
40
1
40
1
41
1
10
119.3245
20
-47.6056268367876
30
0
41
1
10
119.3245
20
-47.6027236160964
30
0
41
1
10
119.322517994515
20
-47.6018009379686
30
0
41
1
10
119.314553010295
20
-47.6042057169859
30
0
41
1
10
119.308714308758
20
-47.6074938193305
30
0
41
1
10
119.294527150197
20
-47.6172106493221
30
0
41
1
10
119.286278550289
20
-47.6235597234353
30
0
41
1
10
119.268517881696
20
-47.6381579323392
30
0
41
1
10
119.259182938242
20
-47.646252925044
30
0
41
1
10
119.2495
20
-47.654960886978
30
0
0
SPLINE
5
201
100
AcDbEntity
8
1
62
256
6
ByLayer
370
18
48
1
60
0
100
AcDbSpline
70
4
71
3
72
12
73
8
40
0
40
0
40
0
40
0
40
0.499999999999966
40
0.499999999999966
40
0.749999999999983
40
0.749999999999983
40
1
40
1
40
1
40
1
41
1
10
119.2495
20
-47.7475864397169
30
0
41
1
10
119.269096039341
20
-47.7255245029813
30
0
41
1
10
119.287055571439
20
-47.7041980616753
30
0
41
1
10
119.307771252659
20
-47.6769230565226
30
0
41
1
10
119.313708424421
20
-47.6685026888432
30
0
41
1
10
119.322055283879
20
-47.6547549787377
30
0
41
1
10
119.3245
20
-47.6493424979473
30
0
41
1
10
119.3245
20
-47.6463193271822
30
0
0
SPLINE
5
202
100
AcDbEntity
8
1
62
256
6
ByLayer
370
18
48
1
60
0
100
AcDbSpline
70
4
71
3
72
8
73
4
40
0
40
0
40
0
40
0
40
1
40
1
40
1
40
1
41
1
10
119.2495
20
-47.7475864397169
30
0
41
1
10
119.03575253422
20
-47.9882311427327
30
0
41
1
10
118.821059437748
20
-48.2277459581948
30
0
41
1
10
118.6055
20
-48.4662256251216
30
0
0
SPLINE
5
203
100
AcDbEntity
8
1
62
256
6
ByLayer
370
18
48
1
60
0
100
AcDbSpline
70
4
71
3
72
20
73
16
40
0
40
0
40
0
40
0
40
0.250000000000015
40
0.250000000000015
40
0.375000000000012
40
0.375000000000012
40
0.50000000000001
40
0.50000000000001
40
0.625000000000007
40
0.625000000000007
40
0.750000000000005
40
0.750000000000005
40
0.875000000000002
40
0.875000000000002
40
1
40
1
40
1
40
1
41
1
10
118.6055
20
-48.4662256251216
30
0
41
1
10
118.584252717749
20
-48.4897321106051
30
0
41
1
10
118.564759178412
20
-48.512245602338
30
0
41
1
10
118.541538810157
20
-48.5412455910611
30
0
41
1
10
118.534819153131
20
-48.5501143780702
30
0
41
1
10
118.524848890269
20
-48.5647104400402
30
0
41
1
10
118.52154227505
20
-48.5705386140865
30
0
41
1
10
118.519879790056
20
-48.5773439817586
30
0
41
1
10
118.521526851207
20
-48.5782810305198
30
0
41
1
10
118.529927354216
20
-48.5747851907473
30
0
41
1
10
118.536474905501
20
-48.5704541370686
30
0
41
1
10
118.552728930923
20
-48.5580671841504
30
0
41
1
10
118.562321241512
20
-48.5501066098877
30
0
41
1
10
118.583076711062
20
-48.5320647148509
30
0
41
1
10
118.594055349581
20
-48.5221514838591
30
0
41
1
10
118.6055
20
-48.5115512430934
30
0
0
SPLINE
5
204
100
AcDbEntity
8
1
62
256
6
ByLayer
370
18
48
1
60
0
100
AcDbSpline
70
4
71
3
72
8
73
4
40
0
40
0
40
0
40
0
40
1
40
1
40
1
40
1
41
1
10
118.6055
20
-48.5115512430934
30
0
41
1
10
118.820462678659
20
-48.31244894935
30
0
41
1
10
119.035137860735
20
-48.1129342405493
30
0
41
1
10
119.2495
20
-47.9129704705177
30
0
0
SPLINE
5
205
100
AcDbEntity
8
1
62
256
6
ByLayer
370
18
48
1
60
0
100
AcDbSpline
70
4
71
3
72
14
73
10
40
0
40
0
40
0
40
0
40
0.25
40
0.25
40
0.5
40
0.5
40
0.75
40
0.75
40
1
40
1
40
1
40
1
41
1
10
119.3245
20
-47.8539790198802
30
0
41
1
10
119.3245
20
-47.852185749926
30
0
41
1
10
119.322387809429
20
-47.8524939229067
30
0
41
1
10
119.31432502053
20
-47.8571560020603
30
0
41
1
10
119.308413901572
20
-47.8614855289318
30
0
41
1
10
119.294315803534
20
-47.8728206174963
30
0
41
1
10
119.286083471685
20
-47.879854510313
30
0
41
1
10
119.268476646095
20
-47.8954524968059
30
0
41
1
10
119.259181964881
20
-47.9039388280576
30
0
41
1
10
119.2495
20
-47.9129704705177
30
0
0
SPLINE
5
206
100
AcDbEntity
8
1
62
256
6
ByLayer
370
18
48
1
60
0
100
AcDbSpline
70
4
71
3
72
14
73
10
40
0
40
0
40
0
40
0
40
0.25
40
0.25
40
0.5
40
0.5
40
0.75
40
0.75
40
1
40
1
40
1
40
1
41
1
10
119.2495
20
-47.9678441313361
30
0
41
1
10
119.259249604116
20
-47.9574402745057
30
0
41
1
10
119.268519251578
20
-47.9473921852377
30
0
41
1
10
119.285911691607
20
-47.9281390396628
30
0
41
1
10
119.293983863503
20
-47.918985371031
30
0
41
1
10
119.307857926255
20
-47.9026525202925
30
0
41
1
10
119.313812257457
20
-47.8952874257051
30
0
41
1
10
119.322116596227
20
-47.883899953024
30
0
41
1
10
119.3245
20
-47.8798131548509
30
0
41
1
10
119.3245
20
-47.8780838423543
30
0
0
SPLINE
5
207
100
AcDbEntity
8
1
62
256
6
ByLayer
370
18
48
1
60
0
100
AcDbSpline
70
4
71
3
72
8
73
4
40
0
40
0
40
0
40
0
40
1
40
1
40
1
40
1
41
1
10
119.2495
20
-47.9678441313361
30
0
41
1
10
119.035547222369
20
-48.1961543314658
30
0
41
1
10
118.820860303431
20
-48.4235405354009
30
0
41
1
10
118.6055
20
-48.6500792121576
30
0
0
SPLINE
5
208
100
AcDbEntity
8
1
62
256
6
ByLayer
370
18
48
1
60
0
100
AcDbSpline
70
4
71
3
72
16
73
12
40
0
40
0
40
0
40
0
40
0.244870256110734
40
0.244870256110734
40
0.489740512221467
40
0.489740512221467
40
0.734610768332201
40
0.734610768332201
40
0.979481024442935
40
0.979481024442935
40
1
40
1
40
1
40
1
41
1
10
118.6055
20
-48.6500792121576
30
0
41
1
10
118.594645499765
20
-48.6614971201053
30
0
41
1
10
118.584309331155
20
-48.6724989869337
30
0
41
1
10
118.56505550703
20
-48.6932971537009
30
0
41
1
10
118.555990486058
20
-48.7032556166844
30
0
41
1
10
118.54029226655
20
-48.7209485260459
30
0
41
1
10
118.533596073865
20
-48.7287511946129
30
0
41
1
10
118.523858984405
20
-48.740889765792
30
0
41
1
10
118.520927423352
20
-48.7451121254574
30
0
41
1
10
118.52051236312
20
-48.7469103574361
30
0
41
1
10
118.520498569531
20
-48.7470311500928
30
0
41
1
10
118.520502839793
20
-48.7471338530934
30
0
0
SPLINE
5
209
100
AcDbEntity
8
1
62
256
6
ByLayer
370
18
48
1
60
0
100
AcDbSpline
70
4
71
3
72
14
73
10
40
0
40
0
40
0
40
0
40
0.137563763754353
40
0.137563763754353
40
0.425042509169568
40
0.425042509169568
40
0.712521254584784
40
0.712521254584784
40
1
40
1
40
1
40
1
41
1
10
118.522014959554
20
-48.747284072883
30
0
41
1
10
118.523080566018
20
-48.7468148993598
30
0
41
1
10
118.524695456825
20
-48.7457814913054
30
0
41
1
10
118.531247893089
20
-48.7409318597074
30
0
41
1
10
118.537981591735
20
-48.7352591146847
30
0
41
1
10
118.554046439389
20
-48.721005839838
30
0
41
1
10
118.563557694582
20
-48.7122726293566
30
0
41
1
10
118.583646628483
20
-48.6934639928731
30
0
41
1
10
118.594317921063
20
-48.6833078186817
30
0
41
1
10
118.6055
20
-48.67254327625
30
0
0
SPLINE
5
20A
100
AcDbEntity
8
1
62
256
6
ByLayer
370
18
48
1
60
0
100
AcDbSpline
70
4
71
3
72
8
73
4
40
0
40
0
40
0
40
0
40
1
40
1
40
1
40
1
41
1
10
118.6055
20
-48.67254327625
30
0
41
1
10
118.820569637573
20
-48.4655042942751
30
0
41
1
10
119.035247896483
20
-48.257925696741
30
0
41
1
10
119.2495
20
-48.0497595350354
30
0
0
SPLINE
5
20B
100
AcDbEntity
8
1
62
256
6
ByLayer
370
18
48
1
60
0
100
AcDbSpline
70
4
71
3
72
14
73
10
40
0
40
0
40
0
40
0
40
0.25
40
0.25
40
0.5
40
0.5
40
0.75
40
0.75
40
1
40
1
40
1
40
1
41
1
10
119.3245
20
-47.9809298975149
30
0
41
1
10
119.3245
20
-47.9802749397073
30
0
41
1
10
119.322268657052
20
-47.9818256856907
30
0
41
1
10
119.314108956146
20
-47.9887118861319
30
0
41
1
10
119.308141619218
20
-47.9940733211361
30
0
41
1
10
119.294092745741
20
-48.0070547541498
30
0
41
1
10
119.285840184445
20
-48.0148307852947
30
0
41
1
10
119.268427871024
20
-48.0314404543228
30
0
41
1
10
119.259184127082
20
-48.040350490592
30
0
41
1
10
119.2495
20
-48.0497595350354
30
0
0
SPLINE
5
20C
100
AcDbEntity
8
1
62
256
6
ByLayer
370
18
48
1
60
0
100
AcDbSpline
70
4
71
3
72
14
73
10
40
0
40
0
40
0
40
0
40
0.25
40
0.25
40
0.5
40
0.5
40
0.75
40
0.75
40
1
40
1
40
1
40
1
41
1
10
119.2495
20
-48.0679370847154
30
0
41
1
10
119.259211278108
20
-48.0580695895894
30
0
41
1
10
119.268463174683
20
-48.0486275483862
30
0
41
1
10
119.285857479136
20
-48.0307635373025
30
0
41
1
10
119.294025317656
20
-48.0223134800282
30
0
41
1
10
119.307974433677
20
-48.0077038595556
30
0
41
1
10
119.313940209129
20
-48.0013494349122
30
0
41
1
10
119.322186827721
20
-47.9922305495165
30
0
41
1
10
119.3245
20
-47.9894242585628
30
0
41
1
10
119.3245
20
-47.988914520495
30
0
0
SPLINE
5
20D
100
AcDbEntity
8
1
62
256
6
ByLayer
370
18
48
1
60
0
100
AcDbSpline
70
4
71
3
72
8
73
4
40
0
40
0
40
0
40
0
40
1
40
1
40
1
40
1
41
1
10
119.2495
20
-48.0679370847154
30
0
41
1
10
119.035382142102
20
-48.2854992733108
30
0
41
1
10
118.820700052471
20
-48.5023166855204
30
0
41
1
10
118.6055
20
-48.7184503955052
30
0
0
SPLINE
5
20E
100
AcDbEntity
8
1
62
256
6
ByLayer
370
18
48
1
60
0
100
AcDbSpline
70
4
71
3
72
18
73
14
40
0
40
0
40
0
40
0
40
0.249968095629276
40
0.249968095629276
40
0.499936191258551
40
0.499936191258551
40
0.749904286887827
40
0.749904286887827
40
0.874888334702465
40
0.874888334702465
40
0.999872382517103
40
0.999872382517103
40
1
40
1
40
1
40
1
41
1
10
118.6055
20
-48.7184503955052
30
0
41
1
10
118.594473615081
20
-48.729524619015
30
0
41
1
10
118.583803369287
20
-48.7402505448279
30
0
41
1
10
118.564083431371
20
-48.760087248044
30
0
41
1
10
118.555014921523
20
-48.769216810136
30
0
41
1
10
118.538999468337
20
-48.7853486325378
30
0
41
1
10
118.53232660182
20
-48.7920748098037
30
0
41
1
10
118.52533432643
20
-48.7991246202076
30
0
41
1
10
118.523536304035
20
-48.8009378239267
30
0
41
1
10
118.521100737935
20
-48.8033940774065
30
0
41
1
10
118.520483021234
20
-48.8040171245136
30
0
41
1
10
118.520499697022
20
-48.8040003055791
30
0
41
1
10
118.52050040117
20
-48.8039995953858
30
0
41
1
10
118.520501105316
20
-48.803998885189
30
0
0
SPLINE
5
20F
100
AcDbEntity
8
1
62
256
6
ByLayer
370
18
48
1
60
0
100
AcDbSpline
70
4
71
3
72
14
73
10
40
0
40
0
40
0
40
0
40
0.249137035616096
40
0.249137035616096
40
0.499424690410731
40
0.499424690410731
40
0.749712345205365
40
0.749712345205365
40
1
40
1
40
1
40
1
41
1
10
118.520501007097
20
-9.19600101576557
30
0
41
1
10
118.520559199655
20
-9.19605971117184
30
0
41
1
10
118.523178205321
20
-9.19870155553318
30
0
41
1
10
118.532509978376
20
-9.20811003584794
30
0
41
1
10
118.539284482808
20
-9.21493853466109
30
0
41
1
10
118.555149357874
20
-9.23091851904812
30
0
41
1
10
118.564434787015
20
-9.2402663427367
30
0
41
1
10
118.584091600717
20
-9.26003923345948
30
0
41
1
10
118.59453851892
20
-9.27054056641302
30
0
41
1
10
118.6055
20
-9.28154960449478
30
0
0
SPLINE
5
210
100
AcDbEntity
8
1
62
256
6
ByLayer
370
18
48
1
60
0
100
AcDbSpline
70
4
71
3
72
8
73
4
40
0
40
0
40
0
40
0
40
1
40
1
40
1
40
1
41
1
10
118.6055
20
-9.28154960449478
30
0
41
1
10
118.820700052471
20
-9.49768331447959
30
0
41
1
10
119.035382142102
20
-9.71450072668915
30
0
41
1
10
119.2495
20
-9.93206291528455
30
0
0
SPLINE
5
211
100
AcDbEntity
8
1
62
256
6
ByLayer
370
18
48
1
60
0
100
AcDbSpline
70
4
71
3
72
14
73
10
40
0
40
0
40
0
40
0
40
0.25
40
0.25
40
0.5
40
0.5
40
0.75
40
0.75
40
1
40
1
40
1
40
1
41
1
10
119.3245
20
-10.011085479505
30
0
41
1
10
119.3245
20
-10.0105752544968
30
0
41
1
10
119.322179475846
20
-10.0077611841277
30
0
41
1
10
119.313940423871
20
-9.9986509395153
30
0
41
1
10
119.307976181869
20
-9.99229787161127
30
0
41
1
10
119.294003407622
20
-9.97766367242431
30
0
41
1
10
119.285821046889
20
-9.96919893529474
30
0
41
1
10
119.268451733647
20
-9.95136081329642
30
0
41
1
10
119.259208205955
20
-9.94192728883891
30
0
41
1
10
119.2495
20
-9.93206291528455
30
0
0
SPLINE
5
212
100
AcDbEntity
8
1
62
256
6
ByLayer
370
18
48
1
60
0
100
AcDbSpline
70
4
71
3
72
14
73
10
40
0
40
0
40
0
40
0
40
0.25
40
0.25
40
0.5
40
0.5
40
0.75
40
0.75
40
1
40
1
40
1
40
1
41
1
10
119.249500000001
20
-9.95024046496536
30
0
41
1
10
119.259250762044
20
-9.95971425156932
30
0
41
1
10
119.268531564471
20
-9.9686592484064
30
0
41
1
10
119.285956831417
20
-9.9852796854633
30
0
41
1
10
119.294181236189
20
-9.99302788164206
30
0
41
1
10
119.308177764175
20
-10.0059592008485
30
0
41
1
10
119.314130113209
20
-10.0113066626555
30
0
41
1
10
119.322274316532
20
-10.0181783944685
30
0
41
1
10
119.3245
20
-10.0197244328572
30
0
41
1
10
119.3245
20
-10.0190701024851
30
0
0
SPLINE
5
213
100
AcDbEntity
8
1
62
256
6
ByLayer
370
18
48
1
60
0
100
AcDbSpline
70
4
71
3
72
8
73
4
40
0
40
0
40
0
40
0
40
1
40
1
40
1
40
1
41
1
10
119.2495
20
-9.95024046496465
30
0
41
1
10
119.035247896483
20
-9.74207430325896
30
0
41
1
10
118.820569637573
20
-9.53449570572491
30
0
41
1
10
118.6055
20
-9.32745672374998
30
0
0
SPLINE
5
214
100
AcDbEntity
8
1
62
256
6
ByLayer
370
18
48
1
60
0
100
AcDbSpline
70
4
71
3
72
12
73
8
40
0
40
0
40
0
40
0
40
0.567291002795749
40
0.567291002795749
40
0.850936504193618
40
0.850936504193618
40
1
40
1
40
1
40
1
41
1
10
118.6055
20
-9.32745672374998
30
0
41
1
10
118.582995531699
20
-9.30579256762115
30
0
41
1
10
118.561880388332
20
-9.28593257905621
30
0
41
1
10
118.537703837473
20
-9.26450065740207
30
0
41
1
10
118.531044068949
20
-9.2588999175629
30
0
41
1
10
118.524328360078
20
-9.25395646883902
30
0
41
1
10
118.522644752756
20
-9.25291700094164
30
0
41
1
10
118.52163204422
20
-9.25256229279313
30
0
0
SPLINE
5
215
100
AcDbEntity
8
1
62
256
6
ByLayer
370
18
48
1
60
0
100
AcDbSpline
70
4
71
3
72
16
73
12
40
0
40
0
40
0
40
0
40
0.0197386846311432
40
0.0197386846311432
40
0.264804013473357
40
0.264804013473357
40
0.509869342315572
40
0.509869342315572
40
0.754934671157786
40
0.754934671157786
40
1
40
1
40
1
40
1
41
1
10
118.520502875857
20
-9.25292785240299
30
0
41
1
10
118.520505348206
20
-9.25303265636856
30
0
41
1
10
118.520524302163
20
-9.25315391970645
30
0
41
1
10
118.521001668514
20
-9.25500256356332
30
0
41
1
10
118.523988903455
20
-9.2592805706484
30
0
41
1
10
118.533694886272
20
-9.27136341259046
30
0
41
1
10
118.540469432587
20
-9.27925453538518
30
0
41
1
10
118.556128818467
20
-9.29689684009298
30
0
41
1
10
118.565209562342
20
-9.30687110313477
30
0
41
1
10
118.584481683939
20
-9.32768531387771
30
0
41
1
10
118.594730817489
20
-9.33859262607416
30
0
41
1
10
118.6055
20
-9.34992078784236
30
0
0
SPLINE
5
216
100
AcDbEntity
8
1
62
256
6
ByLayer
370
18
48
1
60
0
100
AcDbSpline
70
4
71
3
72
8
73
4
40
0
40
0
40
0
40
0
40
1
40
1
40
1
40
1
41
1
10
118.6055
20
-9.34992078784236
30
0
41
1
10
118.820860303431
20
-9.57645946459911
30
0
41
1
10
119.035547222369
20
-9.80384566853417
30
0
41
1
10
119.2495
20
-10.0321558686639
30
0
0
SPLINE
5
217
100
AcDbEntity
8
1
62
256
6
ByLayer
370
18
48
1
60
0
100
AcDbSpline
70
4
71
3
72
14
73
10
40
0
40
0
40
0
40
0
40
0.25
40
0.25
40
0.5
40
0.5
40
0.75
40
0.75
40
1
40
1
40
1
40
1
41
1
10
119.3245
20
-10.1219161576457
30
0
41
1
10
119.3245
20
-10.1201826044654
30
0
41
1
10
119.322101363894
20
-10.1160776303092
30
0
41
1
10
119.313803229543
20
-10.1047017281456
30
0
41
1
10
119.307850216532
20
-10.0973377261545
30
0
41
1
10
119.293951093776
20
-10.0809767312028
30
0
41
1
10
119.285833579189
20
-10.071773636392
30
0
41
1
10
119.268493944553
20
-10.0525806601964
30
0
41
1
10
119.259242453395
20
-10.0425520949201
30
0
41
1
10
119.2495
20
-10.0321558686639
30
0
0
SPLINE
5
218
100
AcDbEntity
8
1
62
256
6
ByLayer
370
18
48
1
60
0
100
AcDbSpline
70
4
71
3
72
14
73
10
40
0
40
0
40
0
40
0
40
0.25
40
0.25
40
0.5
40
0.5
40
0.75
40
0.75
40
1
40
1
40
1
40
1
41
1
10
119.2495
20
-10.0870295294823
30
0
41
1
10
119.259218158141
20
-10.096094934158
30
0
41
1
10
119.268664569286
20
-10.104716427341
30
0
41
1
10
119.286149535274
20
-10.1202015381556
30
0
41
1
10
119.294375221403
20
-10.1272294962812
30
0
41
1
10
119.308474637326
20
-10.1385609426371
30
0
41
1
10
119.314381647126
20
-10.1428801532942
30
0
41
1
10
119.322377751326
20
-10.1474968287359
30
0
41
1
10
119.3245
20
-10.1477950739959
30
0
41
1
10
119.3245
20
-10.1460209801198
30
0
0
SPLINE
5
219
100
AcDbEntity
8
1
62
256
6
ByLayer
370
18
48
1
60
0
100
AcDbSpline
70
4
71
3
72
8
73
4
40
0
40
0
40
0
40
0
40
1
40
1
40
1
40
1
41
1
10
119.2495
20
-10.0870295294823
30
0
41
1
10
119.035137860735
20
-9.88706575945071
30
0
41
1
10
118.820462678659
20
-9.68755105065003
30
0
41
1
10
118.6055
20
-9.48844875690659
30
0
0
SPLINE
5
21A
100
AcDbEntity
8
1
62
256
6
ByLayer
370
18
48
1
60
0
100
AcDbSpline
70
4
71
3
72
22
73
18
40
0
40
0
40
0
40
0
40
0.249999999999901
40
0.249999999999901
40
0.3124999999999
40
0.3124999999999
40
0.374999999999898
40
0.374999999999898
40
0.499999999999918
40
0.499999999999918
40
0.624999999999939
40
0.624999999999939
40
0.749999999999959
40
0.749999999999959
40
0.87499999999998
40
0.87499999999998
40
1
40
1
40
1
40
1
41
1
10
118.6055
20
-9.48844875690659
30
0
41
1
10
118.582537997433
20
-9.46718093772714
30
0
41
1
10
118.560753547666
20
-9.44803458799251
30
0
41
1
10
118.54040488847
20
-9.43254432941208
30
0
41
1
10
118.536759223766
20
-9.42993309458069
30
0
41
1
10
118.530414457453
20
-9.42579959096304
30
0
41
1
10
118.527719044753
20
-9.42428766391711
30
0
41
1
10
118.521544858164
20
-9.42174319189024
30
0
41
1
10
118.519876109205
20
-9.42269918890662
30
0
41
1
10
118.521565633523
20
-9.42949807534245
30
0
41
1
10
118.5248695786
20
-9.43532408616278
30
0
41
1
10
118.534864493797
20
-9.44994773138569
30
0
41
1
10
118.541609733461
20
-9.45884514784294
30
0
41
1
10
118.557055124618
20
-9.478130603773
30
0
41
1
10
118.565941228382
20
-9.48875271674507
30
0
41
1
10
118.584848961551
20
-9.51068968284741
30
0
41
1
10
118.594911439579
20
-9.52205994293917
30
0
41
1
10
118.6055
20
-9.53377437487842
30
0
0
SPLINE
5
21B
100
AcDbEntity
8
1
62
256
6
ByLayer
370
18
48
1
60
0
100
AcDbSpline
70
4
71
3
72
8
73
4
40
0
40
0
40
0
40
0
40
1
40
1
40
1
40
1
41
1
10
118.6055
20
-9.53377437487842
30
0
41
1
10
118.821059437748
20
-9.77225404180518
30
0
41
1
10
119.03575253422
20
-10.0117688572673
30
0
41
1
10
119.2495
20
-10.2524135602831
30
0
0
SPLINE
5
21C
100
AcDbEntity
8
1
62
256
6
ByLayer
370
18
48
1
60
0
100
AcDbSpline
70
4
71
3
72
14
73
10
40
0
40
0
40
0
40
0
40
0.25
40
0.25
40
0.5
40
0.5
40
0.75
40
0.75
40
1
40
1
40
1
40
1
41
1
10
119.3245
20
-10.3536806728177
30
0
41
1
10
119.3245
20
-10.3506463235317
30
0
41
1
10
119.322034011465
20
-10.3452061846968
30
0
41
1
10
119.313694135752
20
-10.3314775930223
30
0
41
1
10
119.307759088246
20
-10.3230597456578
30
0
41
1
10
119.293931735253
20
-10.3048565262345
30
0
41
1
10
119.285875277587
20
-10.2948484318885
30
0
41
1
10
119.268553746702
20
-10.2741416453384
30
0
41
1
10
119.259286714282
20
-10.2634318006314
30
0
41
1
10
119.2495
20
-10.2524135602831
30
0
0
SPLINE
5
21D
100
AcDbEntity
8
1
62
256
6
ByLayer
370
18
48
1
60
0
100
AcDbSpline
70
4
71
3
72
14
73
10
40
0
40
0
40
0
40
0
40
0.25
40
0.25
40
0.5
40
0.5
40
0.75
40
0.75
40
1
40
1
40
1
40
1
41
1
10
119.2495
20
-10.345039113022
30
0
41
1
10
119.259215998502
20
-10.353776806374
30
0
41
1
10
119.268726165071
20
-10.3620176788683
30
0
41
1
10
119.286346638797
20
-10.3764917567906
30
0
41
1
10
119.294625799941
20
-10.3828621027204
30
0
41
1
10
119.308773781988
20
-10.3925416693087
30
0
41
1
10
119.314644882502
20
-10.3958293505912
30
0
41
1
10
119.322485000347
20
-10.3981817156607
30
0
41
1
10
119.3245
20
-10.3972407703807
30
0
41
1
10
119.3245
20
-10.3943731632125
30
0
0
SPLINE
5
21E
100
AcDbEntity
8
1
62
256
6
ByLayer
370
18
48
1
60
0
100
AcDbSpline
70
4
71
3
72
8
73
4
40
0
40
0
40
0
40
0
40
1
40
1
40
1
40
1
41
1
10
119.2495
20
-10.345039113022
30
0
41
1
10
119.035047370323
20
-10.1521797464467
30
0
41
1
10
118.820374683942
20
-9.95964750529043
30
0
41
1
10
118.6055
20
-9.76741554372398
30
0
0
SPLINE
5
21F
100
AcDbEntity
8
1
62
256
6
ByLayer
370
18
48
1
60
0
100
AcDbSpline
70
4
71
3
72
22
73
18
40
0
40
0
40
0
40
0
40
0.125
40
0.125
40
0.25
40
0.25
40
0.375
40
0.375
40
0.5
40
0.5
40
0.625
40
0.625
40
0.75
40
0.75
40
0.875
40
0.875
40
1
40
1
40
1
40
1
41
1
10
118.6055
20
-9.76741554372398
30
0
41
1
10
118.593739100244
20
-9.7568939653396
30
0
41
1
10
118.582242551691
20
-9.74703629652265
30
0
41
1
10
118.561004489412
20
-9.72997898314566
30
0
41
1
10
118.551171313917
20
-9.72271010900118
30
0
41
1
10
118.534859454679
20
-9.71249178397505
30
0
41
1
10
118.528448239208
20
-9.70963474929374
30
0
41
1
10
118.520922723968
20
-9.70961021063488
30
0
41
1
10
118.519748598788
20
-9.71244561637661
30
0
41
1
10
118.522224174389
20
-9.72263084056502
30
0
41
1
10
118.52578250787
20
-9.72991646811025
30
0
41
1
10
118.536008302682
20
-9.74702345644036
30
0
41
1
10
118.542700715944
20
-9.75689962456141
30
0
41
1
10
118.55792775034
20
-9.77786004628388
30
0
41
1
10
118.566628668
20
-9.78917146974234
30
0
41
1
10
118.585192455252
20
-9.81234761785868
30
0
41
1
10
118.595079721552
20
-9.82425262842341
30
0
41
1
10
118.6055
20
-9.83643386182496
30
0
0
SPLINE
5
220
100
AcDbEntity
8
1
62
256
6
ByLayer
370
18
48
1
60
0
100
AcDbSpline
70
4
71
3
72
8
73
4
40
0
40
0
40
0
40
0
40
1
40
1
40
1
40
1
41
1
10
118.6055
20
-9.83643386182496
30
0
41
1
10
118.821310496289
20
-10.0887148386651
30
0
41
1
10
119.036011628907
20
-10.3422480215236
30
0
41
1
10
119.2495
20
-10.5971501218248
30
0
0
SPLINE
5
221
100
AcDbEntity
8
1
62
256
6
ByLayer
370
18
48
1
60
0
100
AcDbSpline
70
4
71
3
72
14
73
10
40
0
40
0
40
0
40
0
40
0.25
40
0.25
40
0.5
40
0.5
40
0.75
40
0.75
40
1
40
1
40
1
40
1
41
1
10
119.3245
20
-10.7109759871243
30
0
41
1
10
119.3245
20
-10.7065081264787
30
0
41
1
10
119.321992346342
20
-10.699718895235
30
0
41
1
10
119.313542185526
20
-10.6833504309367
30
0
41
1
10
119.307671738472
20
-10.673886482343
30
0
41
1
10
119.293819783589
20
-10.6535485515586
30
0
41
1
10
119.285784157645
20
-10.6426092194204
30
0
41
1
10
119.268585224205
20
-10.6203433392446
30
0
41
1
10
119.259332829839
20
-10.6088903817984
30
0
41
1
10
119.2495
20
-10.5971501218248
30
0
0
SPLINE
5
222
100
AcDbEntity
8
1
62
256
6
ByLayer
370
18
48
1
60
0
100
AcDbSpline
70
4
71
3
72
14
73
10
40
0
40
0
40
0
40
0
40
0.25
40
0.25
40
0.5
40
0.5
40
0.75
40
0.75
40
1
40
1
40
1
40
1
41
1
10
119.2495
20
-10.7294039678317
30
0
41
1
10
119.259229511984
20
-10.7378767091183
30
0
41
1
10
119.268802577543
20
-10.7457734552667
30
0
41
1
10
119.286601863368
20
-10.7593031759554
30
0
41
1
10
119.29495424747
20
-10.7650274862524
30
0
41
1
10
119.309141149508
20
-10.7730029642843
30
0
41
1
10
119.314957231867
20
-10.7752055588039
30
0
41
1
10
119.322603033857
20
-10.7752237955256
30
0
41
1
10
119.3245
20
-10.7730348396501
30
0
41
1
10
119.3245
20
-10.7690873761763
30
0
0
SPLINE
5
223
100
AcDbEntity
8
1
62
256
6
ByLayer
370
18
48
1
60
0
100
AcDbSpline
70
4
71
3
72
8
73
4
40
0
40
0
40
0
40
0
40
1
40
1
40
1
40
1
41
1
10
119.2495
20
-10.7294039678317
30
0
41
1
10
119.034973355329
20
-10.5425879422725
30
0
41
1
10
118.820302546545
20
-10.3559924762015
30
0
41
1
10
118.6055
20
-10.1695996371899
30
0
0
SPLINE
5
224
100
AcDbEntity
8
1
62
256
6
ByLayer
370
18
48
1
60
0
100
AcDbSpline
70
4
71
3
72
22
73
18
40
0
40
0
40
0
40
0
40
0.125000000000012
40
0.125000000000012
40
0.250000000000024
40
0.250000000000024
40
0.312500000000033
40
0.312500000000033
40
0.375000000000042
40
0.375000000000042
40
0.500000000000034
40
0.500000000000034
40
0.625000000000026
40
0.625000000000026
40
0.750000000000019
40
0.750000000000019
40
1
40
1
40
1
40
1
41
1
10
118.6055
20
-10.1695996371899
30
0
41
1
10
118.593380808039
20
-10.1590833251975
30
0
41
1
10
118.581502968404
20
-10.149400648681
30
0
41
1
10
118.559693945803
20
-10.1333210646717
30
0
41
1
10
118.549522162378
20
-10.1267711333054
30
0
41
1
10
118.537271537993
20
-10.1209541334193
30
0
41
1
10
118.533636580047
20
-10.1196621528815
30
0
41
1
10
118.527722419873
20
-10.1185958168323
30
0
41
1
10
118.525390108167
20
-10.1187894517452
30
0
41
1
10
118.520318726839
20
-10.1216149688546
30
0
41
1
10
118.51974863245
20
-10.1264390003036
30
0
41
1
10
118.523039271001
20
-10.1400865510157
30
0
41
1
10
118.526840175741
20
-10.1488242725022
30
0
41
1
10
118.537301085598
20
-10.1684625878483
30
0
41
1
10
118.54386990924
20
-10.1792237616322
30
0
41
1
10
118.56664699131
20
-10.2136635643215
30
0
41
1
10
118.58502283321
20
-10.2382258180271
30
0
41
1
10
118.6055
20
-10.2636557947854
30
0
0
SPLINE
5
225
100
AcDbEntity
8
1
62
256
6
ByLayer
370
18
48
1
60
0
100
AcDbSpline
70
4
71
3
72
8
73
4
40
0
40
0
40
0
40
0
40
1
40
1
40
1
40
1
41
1
10
118.6055
20
-10.2636557947854
30
0
41
1
10
118.821632798019
20
-10.53206460771
30
0
41
1
10
119.036344592726
20
-10.8019800059314
30
0
41
1
10
119.2495
20
-11.0735455272759
30
0
0
SPLINE
5
226
100
AcDbEntity
8
1
62
256
6
ByLayer
370
18
48
1
60
0
100
AcDbSpline
70
4
71
3
72
14
73
10
40
0
40
0
40
0
40
0
40
0.25
40
0.25
40
0.5
40
0.5
40
0.75
40
0.75
40
1
40
1
40
1
40
1
41
1
10
119.3245
20
-11.2013603262542
30
0
41
1
10
119.3245
20
-11.1953322397301
30
0
41
1
10
119.321958595129
20
-11.1870961587975
30
0
41
1
10
119.31345050483
20
-11.1679080101475
30
0
41
1
10
119.30764570247
20
-11.1573024905909
30
0
41
1
10
119.293816071692
20
-11.1346413200585
30
0
41
1
10
119.285845445367
20
-11.1227081731906
30
0
41
1
10
119.268672225887
20
-11.0985198400734
30
0
41
1
10
119.259398489399
20
-11.0861564596863
30
0
41
1
10
119.2495
20
-11.0735455272759
30
0
0
SPLINE
5
227
100
AcDbEntity
8
1
62
256
6
ByLayer
370
18
48
1
60
0
100
AcDbSpline
70
4
71
3
72
14
73
10
40
0
40
0
40
0
40
0
40
0.25
40
0.25
40
0.5
40
0.5
40
0.75
40
0.75
40
1
40
1
40
1
40
1
41
1
10
119.2495
20
-11.2483298519072
30
0
41
1
10
119.259247241143
20
-11.2565906383349
30
0
41
1
10
119.268784239155
20
-11.2641088819301
30
0
41
1
10
119.286942676012
20
-11.2768382005801
30
0
41
1
10
119.295401197738
20
-11.2819061593323
30
0
41
1
10
119.309600369956
20
-11.2880622817989
30
0
41
1
10
119.31533264485
20
-11.2890908384714
30
0
41
1
10
119.322732668699
20
-11.2866614801573
30
0
41
1
10
119.3245
20
-11.2832039307189
30
0
41
1
10
119.3245
20
-11.2781772888565
30
0
0
SPLINE
5
228
100
AcDbEntity
8
1
62
256
6
ByLayer
370
18
48
1
60
0
100
AcDbSpline
70
4
71
3
72
8
73
4
40
0
40
0
40
0
40
0
40
1
40
1
40
1
40
1
41
1
10
119.2495
20
-11.2483298519072
30
0
41
1
10
119.034913814811
20
-11.0664680696633
30
0
41
1
10
118.820244754008
20
-10.88473661184
30
0
41
1
10
118.6055
20
-10.7031245623836
30
0
0
SPLINE
5
229
100
AcDbEntity
8
1
62
256
6
ByLayer
370
18
48
1
60
0
100
AcDbSpline
70
4
71
3
72
22
73
18
40
0
40
0
40
0
40
0
40
0.124999999999959
40
0.124999999999959
40
0.249999999999918
40
0.249999999999918
40
0.312499999999919
40
0.312499999999919
40
0.374999999999921
40
0.374999999999921
40
0.499999999999929
40
0.499999999999929
40
0.624999999999938
40
0.624999999999938
40
0.749999999999947
40
0.749999999999947
40
1
40
1
40
1
40
1
41
1
10
118.6055
20
-10.7031245623836
30
0
41
1
10
118.592993500049
20
-10.6925476749616
30
0
41
1
10
118.580706276432
20
-10.6830115337943
30
0
41
1
10
118.558138730979
20
-10.6679047784144
30
0
41
1
10
118.547727595054
20
-10.6622830831968
30
0
41
1
10
118.535443493164
20
-10.6586314301316
30
0
41
1
10
118.531968282765
20
-10.6582229219182
30
0
41
1
10
118.526382198925
20
-10.6590182633035
30
0
41
1
10
118.52422997549
20
-10.6602483275518
30
0
41
1
10
118.519946272536
20
-10.6661209765678
30
0
41
1
10
118.519899733555
20
-10.6729864766915
30
0
41
1
10
118.523871617955
20
-10.6899750978604
30
0
41
1
10
118.52788622281
20
-10.700238710695
30
0
41
1
10
118.538430599233
20
-10.7223095784841
30
0
41
1
10
118.544991563262
20
-10.7342185023663
30
0
41
1
10
118.567418182231
20
-10.771498444245
30
0
41
1
10
118.585340647127
20
-10.7974536256765
30
0
41
1
10
118.6055
20
-10.8242215786958
30
0
0
SPLINE
5
22A
100
AcDbEntity
8
1
62
256
6
ByLayer
370
18
48
1
60
0
100
AcDbSpline
70
4
71
3
72
8
73
4
40
0
40
0
40
0
40
0
40
1
40
1
40
1
40
1
41
1
10
118.6055
20
-10.8242215786958
30
0
41
1
10
118.822056039247
20
-11.1117686007132
30
0
41
1
10
119.036782319601
20
-11.401125192181
30
0
41
1
10
119.2495
20
-11.6924682208397
30
0
0
SPLINE
5
22B
100
AcDbEntity
8
1
62
256
6
ByLayer
370
18
48
1
60
0
100
AcDbSpline
70
4
71
3
72
12
73
8
40
0
40
0
40
0
40
0
40
0.249999999999985
40
0.249999999999985
40
0.49999999999997
40
0.49999999999997
40
1
40
1
40
1
40
1
41
1
10
119.324500000002
20
-11.8362373260382
30
0
41
1
10
119.324500000001
20
-11.8284626041142
30
0
41
1
10
119.321911983203
20
-11.8186011032983
30
0
41
1
10
119.313432961461
20
-11.7964368926684
30
0
41
1
10
119.307648294226
20
-11.7844366353826
30
0
41
1
10
119.28692603742
20
-11.7464330532692
30
0
41
1
10
119.26945325247
20
-11.7197966544486
30
0
41
1
10
119.2495
20
-11.6924682208397
30
0
0
SPLINE
5
22C
100
AcDbEntity
8
1
62
256
6
ByLayer
370
18
48
1
60
0
100
AcDbSpline
70
4
71
3
72
14
73
10
40
0
40
0
40
0
40
0
40
0.25
40
0.25
40
0.5
40
0.5
40
0.75
40
0.75
40
1
40
1
40
1
40
1
41
1
10
119.2495
20
-11.9140728456811
30
0
41
1
10
119.259305222304
20
-11.9222095702994
30
0
41
1
10
119.268941650508
20
-11.929487643363
30
0
41
1
10
119.287372796518
20
-11.9413237951783
30
0
41
1
10
119.295964745964
20
-11.9456969908125
30
0
41
1
10
119.310152692604
20
-11.9498580163745
30
0
41
1
10
119.315769240382
20
-11.9495856651467
30
0
41
1
10
119.322871011082
20
-11.94455172211
30
0
41
1
10
119.3245
20
-11.9397892830819
30
0
41
1
10
119.3245
20
-11.9336639751554
30
0
0
SPLINE
5
22D
100
AcDbEntity
8
1
62
256
6
ByLayer
370
18
48
1
60
0
100
AcDbSpline
70
4
71
3
72
8
73
4
40
0
40
0
40
0
40
0
40
1
40
1
40
1
40
1
41
1
10
119.2495
20
-11.9140728456811
30
0
41
1
10
119.034868684835
20
-11.7359640938535
30
0
41
1
10
118.820200946825
20
-11.5579138520919
30
0
41
1
10
118.6055
20
-11.3799170338054
30
0
0
SPLINE
5
22E
100
AcDbEntity
8
1
62
256
6
ByLayer
370
18
48
1
60
0
100
AcDbSpline
70
4
71
3
72
22
73
18
40
0
40
0
40
0
40
0
40
0.124999999999948
40
0.124999999999948
40
0.249999999999896
40
0.249999999999896
40
0.312499999999895
40
0.312499999999895
40
0.374999999999894
40
0.374999999999894
40
0.499999999999913
40
0.499999999999913
40
0.624999999999931
40
0.624999999999931
40
0.749999999999949
40
0.749999999999949
40
1
40
1
40
1
40
1
41
1
10
118.6055
20
-11.3799170338054
30
0
41
1
10
118.592533498862
20
-11.369167216532
30
0
41
1
10
118.579753193094
20
-11.3597135532684
30
0
41
1
10
118.556254451705
20
-11.345697083847
30
0
41
1
10
118.545490827475
20
-11.3412312565384
30
0
41
1
10
118.533489226953
20
-11.3403132325798
30
0
41
1
10
118.530205563054
20
-11.3409233451046
30
0
41
1
10
118.525017733385
20
-11.3439113541651
30
0
41
1
10
118.523156119715
20
-11.346302548087
30
0
41
1
10
118.519717166478
20
-11.3554807411439
30
0
41
1
10
118.520181417857
20
-11.3644166555543
30
0
41
1
10
118.524792588522
20
-11.3849061180631
30
0
41
1
10
118.528964218601
20
-11.3966847266311
30
0
41
1
10
118.539577226902
20
-11.4213753571691
30
0
41
1
10
118.546127538049
20
-11.4345487294795
30
0
41
1
10
118.568108475269
20
-11.4748358672892
30
0
41
1
10
118.585654455034
20
-11.5025619535075
30
0
41
1
10
118.6055
20
-11.5309631557885
30
0
0
SPLINE
5
22F
100
AcDbEntity
8
1
62
256
6
ByLayer
370
18
48
1
60
0
100
AcDbSpline
70
4
71
3
72
8
73
4
40
0
40
0
40
0
40
0
40
1
40
1
40
1
40
1
41
1
10
118.6055
20
-11.5309631557885
30
0
41
1
10
118.822628100131
20
-11.8416978372098
30
0
41
1
10
119.037374649206
20
-12.154610422449
30
0
41
1
10
119.2495
20
-12.4699200664171
30
0
0
SPLINE
5
230
100
AcDbEntity
8
1
62
256
6
ByLayer
370
18
48
1
60
0
100
AcDbSpline
70
4
71
3
72
12
73
8
40
0
40
0
40
0
40
0
40
0.250000000000016
40
0.250000000000016
40
0.500000000000033
40
0.500000000000033
40
1
40
1
40
1
40
1
41
1
10
119.324500000009
20
-12.6324123946078
30
0
41
1
10
119.324500000008
20
-12.6227778423619
30
0
41
1
10
119.321873699401
20
-12.6109416840522
30
0
41
1
10
119.313449392423
20
-12.5854070691574
30
0
41
1
10
119.307670540604
20
-12.5717383786369
30
0
41
1
10
119.287041271642
20
-12.5291375693461
30
0
41
1
10
119.269646391906
20
-12.4998662828192
30
0
41
1
10
119.2495
20
-12.4699200664171
30
0
0
SPLINE
5
231
100
AcDbEntity
8
1
62
256
6
ByLayer
370
18
48
1
60
0
100
AcDbSpline
70
4
71
3
72
14
73
10
40
0
40
0
40
0
40
0
40
0.25
40
0.25
40
0.5
40
0.5
40
0.75
40
0.75
40
1
40
1
40
1
40
1
41
1
10
119.2495
20
-12.7446617876252
30
0
41
1
10
119.259398868046
20
-12.7527685749874
30
0
41
1
10
119.269223229739
20
-12.7599038896518
30
0
41
1
10
119.287974418792
20
-12.7708145325144
30
0
41
1
10
119.296731434281
20
-12.7743989352547
30
0
41
1
10
119.310852246407
20
-12.7762647104302
30
0
41
1
10
119.316292465155
20
-12.7745008894557
30
0
41
1
10
119.323020110113
20
-12.7666418499696
30
0
41
1
10
119.3245
20
-12.7605194007575
30
0
41
1
10
119.3245
20
-12.7532572365841
30
0
0
SPLINE
5
232
100
AcDbEntity
8
1
62
256
6
ByLayer
370
18
48
1
60
0
100
AcDbSpline
70
4
71
3
72
8
73
4
40
0
40
0
40
0
40
0
40
1
40
1
40
1
40
1
41
1
10
119.2495
20
-12.7446617876251
30
0
41
1
10
119.034840117021
20
-12.5688637046043
30
0
41
1
10
118.820173237194
20
-12.3930770125497
30
0
41
1
10
118.6055
20
-12.2173006732674
30
0
0
SPLINE
5
233
100
AcDbEntity
8
1
62
256
6
ByLayer
370
18
48
1
60
0
100
AcDbSpline
70
4
71
3
72
22
73
18
40
0
40
0
40
0
40
0
40
0.12499999999994
40
0.12499999999994
40
0.187499999999943
40
0.187499999999943
40
0.249999999999946
40
0.249999999999946
40
0.312499999999949
40
0.312499999999949
40
0.374999999999952
40
0.374999999999952
40
0.499999999999961
40
0.499999999999961
40
0.74999999999998
40
0.74999999999998
40
1
40
1
40
1
40
1
41
1
10
118.6055
20
-12.2173006732674
30
0
41
1
10
118.5919745229
20
-12.20622589337
30
0
41
1
10
118.578572891949
20
-12.1967648108494
30
0
41
1
10
118.560072832448
20
-12.1872600968489
30
0
41
1
10
118.554246459773
20
-12.1849293908652
30
0
41
1
10
118.543782254935
20
-12.1823447978221
30
0
41
1
10
118.539080357025
20
-12.1821014005036
30
0
41
1
10
118.531404308881
20
-12.1837435019825
30
0
41
1
10
118.52830691468
20
-12.185623074293
30
0
41
1
10
118.523684963868
20
-12.1912101524413
30
0
41
1
10
118.522185737906
20
-12.1948345170599
30
0
41
1
10
118.519647436547
20
-12.207719035371
30
0
41
1
10
118.52060442944
20
-12.2186986943916
30
0
41
1
10
118.528430006134
20
-12.2551152128611
30
0
41
1
10
118.540081448102
20
-12.2838525658727
30
0
41
1
10
118.568801388406
20
-12.3422372925631
30
0
41
1
10
118.585973014626
20
-12.3721114284529
30
0
41
1
10
118.6055
20
-12.4025431071959
30
0
0
SPLINE
5
234
100
AcDbEntity
8
1
62
256
6
ByLayer
370
18
48
1
60
0
100
AcDbSpline
70
4
71
3
72
8
73
4
40
0
40
0
40
0
40
0
40
1
40
1
40
1
40
1
41
1
10
118.6055
20
-12.4025431071959
30
0
41
1
10
118.823431123556
20
-12.7421761746124
30
0
41
1
10
119.038207131738
20
-13.0844469854801
30
0
41
1
10
119.2495
20
-13.4296297752868
30
0
0
SPLINE
5
235
100
AcDbEntity
8
1
62
256
6
ByLayer
370
18
48
1
60
0
100
AcDbSpline
70
4
71
3
72
12
73
8
40
0
40
0
40
0
40
0
40
0.249999999999983
40
0.249999999999983
40
0.499999999999966
40
0.499999999999966
40
1
40
1
40
1
40
1
41
1
10
119.324500000003
20
-13.6149066004579
30
0
41
1
10
119.324500000003
20
-13.6029212735128
30
0
41
1
10
119.321814823682
20
-13.5887808242705
30
0
41
1
10
119.313432917887
20
-13.559218516125
30
0
41
1
10
119.307644159211
20
-13.5435033805217
30
0
41
1
10
119.287203970073
20
-13.4955316916386
30
0
41
1
10
119.269842865355
20
-13.4628633012144
30
0
41
1
10
119.2495
20
-13.4296297752868
30
0
0
SPLINE
5
236
100
AcDbEntity
8
1
62
256
6
ByLayer
370
18
48
1
60
0
100
AcDbSpline
70
4
71
3
72
14
73
10
40
0
40
0
40
0
40
0
40
0.25
40
0.25
40
0.5
40
0.5
40
0.75
40
0.75
40
1
40
1
40
1
40
1
41
1
10
119.2495
20
-13.7670379087093
30
0
41
1
10
119.259575474705
20
-13.775270321208
30
0
41
1
10
119.26966349178
20
-13.7823423064437
30
0
41
1
10
119.288734068695
20
-13.7922164509598
30
0
41
1
10
119.297672368402
20
-13.7948639761652
30
0
41
1
10
119.31177716259
20
-13.7939664696878
30
0
41
1
10
119.316905532375
20
-13.7904626403018
30
0
41
1
10
119.323198953868
20
-13.7794145943807
30
0
41
1
10
119.324500000001
20
-13.771872191614
30
0
41
1
10
119.324500000001
20
-13.7634165401723
30
0
0
SPLINE
5
237
100
AcDbEntity
8
1
62
256
6
ByLayer
370
18
48
1
60
0
100
AcDbSpline
70
4
71
3
72
8
73
4
40
0
40
0
40
0
40
0
40
1
40
1
40
1
40
1
41
1
10
119.2495
20
-13.7670379087093
30
0
41
1
10
119.034835023948
20
-13.5916406511373
30
0
41
1
10
118.820168300833
20
-13.4162462444603
30
0
41
1
10
118.6055
20
-13.2408544125184
30
0
0
SPLINE
5
238
100
AcDbEntity
8
1
62
256
6
ByLayer
370
18
48
1
60
0
100
AcDbSpline
70
4
71
3
72
20
73
16
40
0
40
0
40
0
40
0
40
0.124999999999977
40
0.124999999999977
40
0.187499999999964
40
0.187499999999964
40
0.249999999999952
40
0.249999999999952
40
0.374999999999957
40
0.374999999999957
40
0.499999999999963
40
0.499999999999963
40
0.749999999999981
40
0.749999999999981
40
1
40
1
40
1
40
1
41
1
10
118.6055
20
-13.2408544125184
30
0
41
1
10
118.591241209992
20
-13.2292044609833
30
0
41
1
10
118.576882009736
20
-13.2195468270417
30
0
41
1
10
118.557418433899
20
-13.211534229743
30
0
41
1
10
118.55141786387
20
-13.2100080323283
30
0
41
1
10
118.540736957698
20
-13.2096039864885
30
0
41
1
10
118.536294750605
20
-13.210721596723
30
0
41
1
10
118.525397558399
20
-13.2176557605932
30
0
41
1
10
118.521806464736
20
-13.22702473863
30
0
41
1
10
118.519817784919
20
-13.2494556789879
30
0
41
1
10
118.521200723363
20
-13.2624959491225
30
0
41
1
10
118.529841545333
20
-13.3050881849808
30
0
41
1
10
118.541334881166
20
-13.336896036395
30
0
41
1
10
118.569508859252
20
-13.401077747024
30
0
41
1
10
118.586315553106
20
-13.4336684651701
30
0
41
1
10
118.6055
20
-13.4666841159861
30
0
0
SPLINE
5
239
100
AcDbEntity
8
1
62
256
6
ByLayer
370
18
48
1
60
0
100
AcDbSpline
70
4
71
3
72
8
73
4
40
0
40
0
40
0
40
0
40
1
40
1
40
1
40
1
41
1
10
118.6055
20
-13.4666841159861
30
0
41
1
10
118.824618246661
20
-13.8437776834479
30
0
41
1
10
119.039439331602
20
-14.2241041751009
30
0
41
1
10
119.2495
20
-14.6080121158114
30
0
0
SPLINE
5
23A
100
AcDbEntity
8
1
62
256
6
ByLayer
370
18
48
1
60
0
100
AcDbSpline
70
4
71
3
72
12
73
8
40
0
40
0
40
0
40
0
40
0.249999999999991
40
0.249999999999991
40
0.499999999999981
40
0.499999999999981
40
1
40
1
40
1
40
1
41
1
10
119.324500000007
20
-14.822402396567
30
0
41
1
10
119.324500000006
20
-14.8075621489336
30
0
41
1
10
119.321810105843
20
-14.7907340466263
30
0
41
1
10
119.313502648554
20
-14.7561118484279
30
0
41
1
10
119.307829005166
20
-14.7381152982749
30
0
41
1
10
119.287476650065
20
-14.6828580397534
30
0
41
1
10
119.270072992639
20
-14.6456114212802
30
0
41
1
10
119.2495
20
-14.6080121158114
30
0
0
SPLINE
5
23B
100
AcDbEntity
8
1
62
256
6
ByLayer
370
18
48
1
60
0
100
AcDbSpline
70
4
71
3
72
14
73
10
40
0
40
0
40
0
40
0
40
0.25
40
0.25
40
0.5
40
0.5
40
0.75
40
0.75
40
1
40
1
40
1
40
1
41
1
10
119.2495
20
-15.0232247012877
30
0
41
1
10
119.259733022903
20
-15.0317032583999
30
0
41
1
10
119.270234663605
20
-15.0388960300177
30
0
41
1
10
119.289965723692
20
-15.0476610019396
30
0
41
1
10
119.299095384783
20
-15.0489747866462
30
0
41
1
10
119.31290217886
20
-15.0444928250893
30
0
41
1
10
119.317639435507
20
-15.0388985528491
30
0
41
1
10
119.323378773838
20
-15.0242160891811
30
0
41
1
10
119.324500000004
20
-15.0151363554394
30
0
41
1
10
119.324500000004
20
-15.0053474271085
30
0
0
SPLINE
5
23C
100
AcDbEntity
8
1
62
256
6
ByLayer
370
18
48
1
60
0
100
AcDbSpline
70
4
71
3
72
8
73
4
40
0
40
0
40
0
40
0
40
1
40
1
40
1
40
1
41
1
10
119.2495
20
-15.0232247012873
30
0
41
1
10
119.034872069188
20
-14.8453950231449
30
0
41
1
10
118.820203979195
20
-14.6676299565815
30
0
41
1
10
118.6055
20
-14.4899227223502
30
0
0
SPLINE
5
23D
100
AcDbEntity
8
1
62
256
6
ByLayer
370
18
48
1
60
0
100
AcDbSpline
70
4
71
3
72
22
73
18
40
0
40
0
40
0
40
0
40
0.0624999999999942
40
0.0624999999999942
40
0.124999999999988
40
0.124999999999988
40
0.187499999999983
40
0.187499999999983
40
0.249999999999977
40
0.249999999999977
40
0.374999999999981
40
0.374999999999981
40
0.499999999999985
40
0.499999999999985
40
0.749999999999992
40
0.749999999999992
40
1
40
1
40
1
40
1
41
1
10
118.6055
20
-14.4899227223496
30
0
41
1
10
118.597953135099
20
-14.4836762964858
30
0
41
1
10
118.590330974831
20
-14.4780717543364
30
0
41
1
10
118.575215001469
20
-14.4689241579629
30
0
41
1
10
118.567808263291
20
-14.4654586290511
30
0
41
1
10
118.554107443175
20
-14.4616818843329
30
0
41
1
10
118.547904073597
20
-14.4614074976418
30
0
41
1
10
118.537369962298
20
-14.4642095092407
30
0
41
1
10
118.533213831342
20
-14.467174792234
30
0
41
1
10
118.52342445853
20
-14.47985805878
30
0
41
1
10
118.520891479662
20
-14.4927921627737
30
0
41
1
10
118.520192653502
20
-14.5210842573218
30
0
41
1
10
118.521965579882
20
-14.5366833762007
30
0
41
1
10
118.53125227634
20
-14.5862215159509
30
0
41
1
10
118.542520094208
20
-14.6218633723836
30
0
41
1
10
118.570215633343
20
-14.6937751123769
30
0
41
1
10
118.586679720459
20
-14.7300184370399
30
0
41
1
10
118.6055
20
-14.7665102874724
30
0
0
SPLINE
5
23E
100
AcDbEntity
8
1
62
256
6
ByLayer
370
18
48
1
60
0
100
AcDbSpline
70
4
71
3
72
8
73
4
40
0
40
0
40
0
40
0
40
1
40
1
40
1
40
1
41
1
10
118.6055
20
-14.7665102874724
30
0
41
1
10
118.826510348702
20
-15.1950414669069
30
0
41
1
10
119.04140572646
20
-15.6276173164825
30
0
41
1
10
119.2495
20
-16.0646916703689
30
0
0
SPLINE
5
23F
100
AcDbEntity
8
1
62
256
6
ByLayer
370
18
48
1
60
0
100
AcDbSpline
70
4
71
3
72
12
73
8
40
0
40
0
40
0
40
0
40
0.250000000000006
40
0.250000000000006
40
0.500000000000011
40
0.500000000000011
40
1
40
1
40
1
40
1
41
1
10
119.3245
20
-16.3190123138102
30
0
41
1
10
119.3245
20
-16.3002928547294
30
0
41
1
10
119.321855324873
20
-16.280205085254
30
0
41
1
10
119.313599942066
20
-16.2385161276276
30
0
41
1
10
119.30788129739
20
-16.2168525626601
30
0
41
1
10
119.287783443018
20
-16.1521676349738
30
0
41
1
10
119.270417001908
20
-16.1086250518047
30
0
41
1
10
119.2495
20
-16.0646916703689
30
0
0
SPLINE
5
240
100
AcDbEntity
8
1
62
256
6
ByLayer
370
18
48
1
60
0
100
AcDbSpline
70
4
71
3
72
14
73
10
40
0
40
0
40
0
40
0
40
0.25
40
0.25
40
0.5
40
0.5
40
0.75
40
0.75
40
1
40
1
40
1
40
1
41
1
10
119.2495
20
-16.5839877002838
30
0
41
1
10
119.260085369069
20
-16.5931223571524
30
0
41
1
10
119.27112172787
20
-16.6006349348429
30
0
41
1
10
119.291967553371
20
-16.6078936222743
30
0
41
1
10
119.301175936096
20
-16.6070625694074
30
0
41
1
10
119.31440749166
20
-16.5975422065002
30
0
41
1
10
119.318609915423
20
-16.5891981129424
30
0
41
1
10
119.323586945423
20
-16.5702127399342
30
0
41
1
10
119.3245
20
-16.5595472821297
30
0
41
1
10
119.3245
20
-16.5482079304327
30
0
0
SPLINE
5
241
100
AcDbEntity
8
1
62
256
6
ByLayer
370
18
48
1
60
0
100
AcDbSpline
70
4
71
3
72
8
73
4
40
0
40
0
40
0
40
0
40
1
40
1
40
1
40
1
41
1
10
119.2495
20
-16.5839877002836
30
0
41
1
10
119.035005737834
20
-16.3988896208128
30
0
41
1
10
118.820331960648
20
-16.2140695312806
30
0
41
1
10
118.6055
20
-16.0294943984709
30
0
0
SPLINE
5
242
100
AcDbEntity
8
1
62
256
6
ByLayer
370
18
48
1
60
0
100
AcDbSpline
70
4
71
3
72
24
73
20
40
0
40
0
40
0
40
0
40
0.0625000000000056
40
0.0625000000000056
40
0.125000000000011
40
0.125000000000011
40
0.187500000000017
40
0.187500000000017
40
0.250000000000022
40
0.250000000000022
40
0.375000000000016
40
0.375000000000016
40
0.500000000000009
40
0.500000000000009
40
0.625000000000003
40
0.625000000000003
40
0.749999999999996
40
0.749999999999996
40
1
40
1
40
1
40
1
41
1
10
118.6055
20
-16.0294943984709
30
0
41
1
10
118.597228437567
20
-16.0223877988285
30
0
41
1
10
118.588914419841
20
-16.0162719109843
30
0
41
1
10
118.57215708379
20
-16.0070715853607
30
0
41
1
10
118.563911018039
20
-16.0042156554369
30
0
41
1
10
118.549332527511
20
-16.003392073127
30
0
41
1
10
118.543058514406
20
-16.0054301712965
30
0
41
1
10
118.533175608737
20
-16.0133356668114
30
0
41
1
10
118.529511798149
20
-16.0191422398317
30
0
41
1
10
118.521618643724
20
-16.0393604131236
30
0
41
1
10
118.520184061725
20
-16.0566050378507
30
0
41
1
10
118.520919902298
20
-16.0922651521362
30
0
41
1
10
118.523123853493
20
-16.1111262221468
30
0
41
1
10
118.529813307373
20
-16.1501457144762
30
0
41
1
10
118.534358710199
20
-16.1703693931931
30
0
41
1
10
118.544946601497
20
-16.2107061352511
30
0
41
1
10
118.551022507126
20
-16.2309839148793
30
0
41
1
10
118.571175868445
20
-16.2920888535028
30
0
41
1
10
118.58712561472
20
-16.333181186536
30
0
41
1
10
118.6055
20
-16.3746066817427
30
0
0
SPLINE
5
243
100
AcDbEntity
8
1
62
256
6
ByLayer
370
18
48
1
60
0
100
AcDbSpline
70
4
71
3
72
8
73
4
40
0
40
0
40
0
40
0
40
1
40
1
40
1
40
1
41
1
10
118.6055
20
-16.3746066817427
30
0
41
1
10
118.829910422179
20
-16.8805453962544
30
0
41
1
10
119.044943589855
20
-17.391732474757
30
0
41
1
10
119.2495
20
-17.9087832990866
30
0
0
SPLINE
5
244
100
AcDbEntity
8
1
62
256
6
ByLayer
370
18
48
1
60
0
100
AcDbSpline
70
4
71
3
72
12
73
8
40
0
40
0
40
0
40
0
40
0.250000000000007
40
0.250000000000007
40
0.500000000000013
40
0.500000000000013
40
1
40
1
40
1
40
1
41
1
10
119.3245
20
-18.2245360383142
30
0
41
1
10
119.3245
20
-18.2000908801442
30
0
41
1
10
119.321817981306
20
-18.1742490541159
30
0
41
1
10
119.313562475329
20
-18.1217491157687
30
0
41
1
10
119.307981564277
20
-18.0953578037067
30
0
41
1
10
119.288101027238
20
-18.015888804745
30
0
41
1
10
119.270762412543
20
-17.9625276326162
30
0
41
1
10
119.2495
20
-17.9087832990867
30
0
0
SPLINE
5
245
100
AcDbEntity
8
1
62
256
6
ByLayer
370
18
48
1
60
0
100
AcDbSpline
70
4
71
3
72
18
73
14
40
0
40
0
40
0
40
0
40
0.12499999999999
40
0.12499999999999
40
0.249999999999979
40
0.249999999999979
40
0.374999999999969
40
0.374999999999969
40
0.499999999999959
40
0.499999999999959
40
0.749999999999979
40
0.749999999999979
40
1
40
1
40
1
40
1
41
1
10
119.2495
20
-18.585372061245
30
0
41
1
10
119.25500497881
20
-18.5905777357357
30
0
41
1
10
119.260747198982
20
-18.5952897159493
30
0
41
1
10
119.272271983718
20
-18.6026636082225
30
0
41
1
10
119.278205664729
20
-18.605378227414
30
0
41
1
10
119.2893124648
20
-18.6076011746232
30
0
41
1
10
119.294555762787
20
-18.6070874025981
30
0
41
1
10
119.303434328157
20
-18.6030869205341
30
0
41
1
10
119.307128635141
20
-18.5996595558215
30
0
41
1
10
119.316095454751
20
-18.5870240778818
30
0
41
1
10
119.319554238696
20
-18.5754048910236
30
0
41
1
10
119.323742183536
20
-18.5508197453542
30
0
41
1
10
119.3245
20
-18.5377033427367
30
0
41
1
10
119.3245
20
-18.5241252942084
30
0
0
SPLINE
5
246
100
AcDbEntity
8
1
62
256
6
ByLayer
370
18
48
1
60
0
100
AcDbSpline
70
4
71
3
72
8
73
4
40
0
40
0
40
0
40
0
40
1
40
1
40
1
40
1
41
1
10
119.2495
20
-18.5853720612442
30
0
41
1
10
119.035436607666
20
-18.3829472419604
30
0
41
1
10
118.820739969169
20
-18.1814216176724
30
0
41
1
10
118.6055
20
-17.9806675104511
30
0
0
SPLINE
5
247
100
AcDbEntity
8
1
62
256
6
ByLayer
370
18
48
1
60
0
100
AcDbSpline
70
4
71
3
72
24
73
20
40
0
40
0
40
0
40
0
40
0.0624999999999354
40
0.0624999999999354
40
0.0937499999999306
40
0.0937499999999306
40
0.124999999999926
40
0.124999999999926
40
0.187499999999929
40
0.187499999999929
40
0.249999999999933
40
0.249999999999933
40
0.37499999999994
40
0.37499999999994
40
0.499999999999947
40
0.499999999999947
40
0.749999999999973
40
0.749999999999973
40
1
40
1
40
1
40
1
41
1
10
118.605500000001
20
-17.9806675104494
30
0
41
1
10
118.596351499941
20
-17.9721347134559
30
0
41
1
10
118.586687669786
20
-17.9648000933009
30
0
41
1
10
118.572333089937
20
-17.9581799937621
30
0
41
1
10
118.567554778791
20
-17.9567276831697
30
0
41
1
10
118.558641496353
20
-17.9557491466182
30
0
41
1
10
118.554365500145
20
-17.9562245453814
30
0
41
1
10
118.543093981622
20
-17.9602895123134
30
0
41
1
10
118.537346922296
20
-17.9664886065915
30
0
41
1
10
118.5289338815
20
-17.9820655238701
30
0
41
1
10
118.526157472395
20
-17.9914175685208
30
0
41
1
10
118.520450088133
20
-18.0211152199468
30
0
41
1
10
118.519936430234
20
-18.0436331547927
30
0
41
1
10
118.521890124223
20
-18.0894085002889
30
0
41
1
10
118.524441710891
20
-18.1130506743405
30
0
41
1
10
118.53512134905
20
-18.185453882696
30
0
41
1
10
118.545959817937
20
-18.2341366525267
30
0
41
1
10
118.572183989675
20
-18.3320367036506
30
0
41
1
10
118.58766472211
20
-18.3812637048493
30
0
41
1
10
118.6055
20
-18.4307576674216
30
0
0
SPLINE
5
248
100
AcDbEntity
8
1
62
256
6
ByLayer
370
18
48
1
60
0
100
AcDbSpline
70
4
71
3
72
8
73
4
40
0
40
0
40
0
40
0
40
1
40
1
40
1
40
1
41
1
10
118.6055
20
-18.4307576674216
30
0
41
1
10
118.837557523584
20
-19.0747311708272
30
0
41
1
10
119.052909503293
20
-19.7260425774913
30
0
41
1
10
119.2495
20
-20.385594957827
30
0
0
SPLINE
5
249
100
AcDbEntity
8
1
62
256
6
ByLayer
370
18
48
1
60
0
100
AcDbSpline
70
4
71
3
72
12
73
8
40
0
40
0
40
0
40
0
40
0.250000000000005
40
0.250000000000005
40
0.500000000000011
40
0.500000000000011
40
1
40
1
40
1
40
1
41
1
10
119.3245
20
-20.819914518669
30
0
41
1
10
119.3245
20
-20.7850608491588
30
0
41
1
10
119.321916951756
20
-20.7494540828891
30
0
41
1
10
119.313952554405
20
-20.6774613391597
30
0
41
1
10
119.308463266611
20
-20.6409409667424
30
0
41
1
10
119.288693751875
20
-20.53152054749
30
0
41
1
10
119.271251087085
20
-20.4585688884199
30
0
41
1
10
119.2495
20
-20.3855949578271
30
0
0
SPLINE
5
24A
100
AcDbEntity
8
1
62
256
6
ByLayer
370
18
48
1
60
0
100
AcDbSpline
70
4
71
3
72
18
73
14
40
0
40
0
40
0
40
0
40
0.124999999999989
40
0.124999999999989
40
0.249999999999978
40
0.249999999999978
40
0.374999999999967
40
0.374999999999967
40
0.499999999999956
40
0.499999999999956
40
0.749999999999978
40
0.749999999999978
40
1
40
1
40
1
40
1
41
1
10
119.249499999998
20
-21.3664170418686
30
0
41
1
10
119.255413958302
20
-21.3733759383098
30
0
41
1
10
119.261770458563
20
-21.379690276272
30
0
41
1
10
119.275305680587
20
-21.3885759455226
30
0
41
1
10
119.282553982376
20
-21.3908227117575
30
0
41
1
10
119.295087758634
20
-21.388345044485
30
0
41
1
10
119.300230069096
20
-21.3839005229342
30
0
41
1
10
119.308159051547
20
-21.372488346264
30
0
41
1
10
119.31112797194
20
-21.3654829204079
30
0
41
1
10
119.318222409956
20
-21.3433064410316
30
0
41
1
10
119.32074518818
20
-21.3266219733117
30
0
41
1
10
119.323912195392
20
-21.2928482998618
30
0
41
1
10
119.3245
20
-21.27548930407
30
0
41
1
10
119.3245
20
-21.2578571468131
30
0
0
SPLINE
5
24B
100
AcDbEntity
8
1
62
256
6
ByLayer
370
18
48
1
60
0
100
AcDbSpline
70
4
71
3
72
8
73
4
40
0
40
0
40
0
40
0
40
1
40
1
40
1
40
1
41
1
10
119.2495
20
-21.3664170418658
30
0
41
1
10
119.037366545293
20
-21.1168016967494
30
0
41
1
10
118.822529300301
20
-20.8703236016768
30
0
41
1
10
118.6055
20
-20.626388982574
30
0
0
SPLINE
5
24C
100
AcDbEntity
8
1
62
256
6
ByLayer
370
18
48
1
60
0
100
AcDbSpline
70
4
71
3
72
28
73
24
40
0
40
0
40
0
40
0
40
0.0312500000000069
40
0.0312500000000069
40
0.0625000000000139
40
0.0625000000000139
40
0.0937500000000209
40
0.0937500000000209
40
0.125000000000028
40
0.125000000000028
40
0.156250000000035
40
0.156250000000035
40
0.187500000000042
40
0.187500000000042
40
0.250000000000046
40
0.250000000000046
40
0.375000000000045
40
0.375000000000045
40
0.500000000000045
40
0.500000000000045
40
0.750000000000022
40
0.750000000000022
40
1
40
1
40
1
40
1
41
1
10
118.6055
20
-20.6263889825735
30
0
41
1
10
118.600004737356
20
-20.6202124672454
30
0
41
1
10
118.594211799427
20
-20.614559995801
30
0
41
1
10
118.582136331548
20
-20.6055341940096
30
0
41
1
10
118.57576477563
20
-20.6021487506624
30
0
41
1
10
118.563317296278
20
-20.5997050240737
30
0
41
1
10
118.557514772273
20
-20.6008035164609
30
0
41
1
10
118.547823371798
20
-20.606599651163
30
0
41
1
10
118.543809077888
20
-20.611223738654
30
0
41
1
10
118.537237166688
20
-20.6220360446775
30
0
41
1
10
118.534613239458
20
-20.6282887228813
30
0
41
1
10
118.530308572924
20
-20.6413924526944
30
0
41
1
10
118.528603869242
20
-20.6483044981495
30
0
41
1
10
118.524370352316
20
-20.6697534445503
30
0
41
1
10
118.52272221291
20
-20.6849923179453
30
0
41
1
10
118.519763477303
20
-20.7307954450408
30
0
41
1
10
118.520294258414
20
-20.7621364789294
30
0
41
1
10
118.523619220996
20
-20.8255803937686
30
0
41
1
10
118.526514159926
20
-20.857714446202
30
0
41
1
10
118.537644146478
20
-20.954964656848
30
0
41
1
10
118.548337322641
20
-21.0211219470014
30
0
41
1
10
118.573783904193
20
-21.1530812106466
30
0
41
1
10
118.588606152318
20
-21.219135876963
30
0
41
1
10
118.6055
20
-21.285260177502
30
0
0
SPLINE
5
24D
100
AcDbEntity
8
1
62
256
6
ByLayer
370
18
48
1
60
0
100
AcDbSpline
70
4
71
3
72
8
73
4
40
0
40
0
40
0
40
0
40
1
40
1
40
1
40
1
41
1
10
118.6055
20
-21.285260177502
30
0
41
1
10
118.869706220596
20
-22.3193911738463
30
0
41
1
10
119.086430061288
20
-23.3664938187416
30
0
41
1
10
119.2495
20
-24.4282541021389
30
0
0
SPLINE
5
24E
100
AcDbEntity
8
1
62
256
6
ByLayer
370
18
48
1
60
0
100
AcDbSpline
70
4
71
3
72
12
73
8
40
0
40
0
40
0
40
0
40
0.25
40
0.25
40
0.500000000000001
40
0.500000000000001
40
1
40
1
40
1
40
1
41
1
10
119.3245
20
-25.3644844417643
30
0
41
1
10
119.3245
20
-25.2867467550413
30
0
41
1
10
119.322321213052
20
-25.2088663958691
30
0
41
1
10
119.315157628452
20
-25.052974450463
30
0
41
1
10
119.310118654055
20
-24.9749574446012
30
0
41
1
10
119.29112293735
20
-24.7407402906236
30
0
41
1
10
119.273453541426
20
-24.5842173601949
30
0
41
1
10
119.2495
20
-24.4282541021389
30
0
0
SPLINE
5
24F
100
AcDbEntity
8
1
62
256
6
ByLayer
370
18
48
1
60
0
100
AcDbSpline
70
4
71
3
72
30
73
26
40
0
40
0
40
0
40
0
40
0.0625000000000537
40
0.0625000000000537
40
0.0937500000000789
40
0.0937500000000789
40
0.10937500000008
40
0.10937500000008
40
0.125000000000081
40
0.125000000000081
40
0.140625000000081
40
0.140625000000081
40
0.156250000000082
40
0.156250000000082
40
0.187500000000084
40
0.187500000000084
40
0.250000000000087
40
0.250000000000087
40
0.375000000000073
40
0.375000000000073
40
0.50000000000006
40
0.50000000000006
40
0.75000000000003
40
0.75000000000003
40
1
40
1
40
1
40
1
41
1
10
119.2495
20
-27.1082541252271
30
0
41
1
10
119.252585251602
20
-27.1214910722562
30
0
41
1
10
119.255899597279
20
-27.1346182257037
30
0
41
1
10
119.261905380729
20
-27.1538213010468
30
0
41
1
10
119.264083682185
20
-27.1601808999325
30
0
41
1
10
119.267983901483
20
-27.1692840261005
30
0
41
1
10
119.269379755249
20
-27.1722238214345
30
0
41
1
10
119.272581160924
20
-27.1776997586871
30
0
41
1
10
119.27439750269
20
-27.1803170350209
30
0
41
1
10
119.27884813873
20
-27.1838021896594
30
0
41
1
10
119.281541189178
20
-27.1841882859129
30
0
41
1
10
119.285946402378
20
-27.1815140432875
30
0
41
1
10
119.287666132916
20
-27.1789999362866
30
0
41
1
10
119.291963767712
20
-27.170987311345
30
0
41
1
10
119.293902185556
20
-27.1647090817143
30
0
41
1
10
119.298993106347
20
-27.145683248255
30
0
41
1
10
119.301268828838
20
-27.1323851258882
30
0
41
1
10
119.307234219055
20
-27.0922682042215
30
0
41
1
10
119.30983512522
20
-27.0650470224757
30
0
41
1
10
119.314214938181
20
-27.0105564627231
30
0
41
1
10
119.315900690146
20
-26.9832123559612
30
0
41
1
10
119.320121868679
20
-26.9010294504569
30
0
41
1
10
119.321822727285
20
-26.8460294006909
30
0
41
1
10
119.324029349182
20
-26.7359017215404
30
0
41
1
10
119.324500000005
20
-26.6807849115835
30
0
41
1
10
119.324500000005
20
-26.6256367028843
30
0
0
SPLINE
5
250
100
AcDbEntity
8
1
62
256
6
ByLayer
370
18
48
1
60
0
100
AcDbSpline
70
4
71
3
72
10
73
6
40
0
40
0
40
0
40
0
40
0.5
40
0.5
40
1
40
1
40
1
40
1
41
1
10
119.2495
20
-27.1082541252271
30
0
41
1
10
119.172800078505
20
-26.7791811908836
30
0
41
1
10
119.078711071859
20
-26.4580038122899
30
0
41
1
10
118.862125005522
20
-25.8285477996079
30
0
41
1
10
118.739622539874
20
-25.5202716201074
30
0
41
1
10
118.605500000001
20
-25.217271563132
30
0
0
SPLINE
5
251
100
AcDbEntity
8
1
62
256
6
ByLayer
370
18
48
1
60
0
100
AcDbSpline
70
4
71
3
72
34
73
30
40
0
40
0
40
0
40
0
40
0.0156249999999961
40
0.0156249999999961
40
0.0234374999999926
40
0.0234374999999926
40
0.031249999999989
40
0.031249999999989
40
0.0390624999999855
40
0.0390624999999855
40
0.0468749999999819
40
0.0468749999999819
40
0.0624999999999807
40
0.0624999999999807
40
0.0937499999999799
40
0.0937499999999799
40
0.124999999999979
40
0.124999999999979
40
0.187499999999978
40
0.187499999999978
40
0.249999999999978
40
0.249999999999978
40
0.374999999999982
40
0.374999999999982
40
0.499999999999986
40
0.499999999999986
40
0.749999999999993
40
0.749999999999993
40
1
40
1
40
1
40
1
41
1
10
118.6055
20
-25.2172715631324
30
0
41
1
10
118.600770565557
20
-25.2065871628287
30
0
41
1
10
118.595549054338
20
-25.1960610500285
30
0
41
1
10
118.585900390277
20
-25.1825249284926
30
0
41
1
10
118.582318343786
20
-25.1783447337088
30
0
41
1
10
118.574314046877
20
-25.1726276704245
30
0
41
1
10
118.56971601516
20
-25.1713777210145
30
0
41
1
10
118.561718660099
20
-25.1738690460988
30
0
41
1
10
118.558300967182
20
-25.1772671912266
30
0
41
1
10
118.552786193003
20
-25.1852864462023
30
0
41
1
10
118.550603107456
20
-25.1898810173069
30
0
41
1
10
118.544820911684
20
-25.2044489589594
30
0
41
1
10
118.542027970043
20
-25.2151900689572
30
0
41
1
10
118.534988669662
20
-25.2479339123728
30
0
41
1
10
118.532125846609
20
-25.2704042107775
30
0
41
1
10
118.527546360837
20
-25.3154089989468
30
0
41
1
10
118.525936675823
20
-25.3380722765097
30
0
41
1
10
118.522187937599
20
-25.4063294679931
30
0
41
1
10
118.521123714516
20
-25.452189510342
30
0
41
1
10
118.520277547574
20
-25.5442641224433
30
0
41
1
10
118.520544772605
20
-25.5904897220072
30
0
41
1
10
118.522565645691
20
-25.7295405936366
30
0
41
1
10
118.525520224338
20
-25.8228069402567
30
0
41
1
10
118.532835222886
20
-26.0093013332656
30
0
41
1
10
118.537238897876
20
-26.1026177608756
30
0
41
1
10
118.551541689553
20
-26.3827458203297
30
0
41
1
10
118.562501630545
20
-26.5697353900875
30
0
41
1
10
118.584379308983
20
-26.9441185583194
30
0
41
1
10
118.595352138883
20
-27.1315419630821
30
0
41
1
10
118.6055
20
-27.3190664579155
30
0
0
SPLINE
5
252
100
AcDbEntity
8
1
62
256
6
ByLayer
370
18
48
1
60
0
100
AcDbSpline
70
4
71
3
72
8
73
4
40
0
40
0
40
0
40
0
40
1
40
1
40
1
40
1
41
1
10
118.6055
20
-27.3190664579154
30
0
41
1
10
118.666142318209
20
-28.4396888193052
30
0
41
1
10
118.666142318209
20
-29.5603111806949
30
0
41
1
10
118.6055
20
-30.6809335420845
30
0
0
SPLINE
5
253
100
AcDbEntity
8
1
62
256
6
ByLayer
370
18
48
1
60
0
100
AcDbSpline
70
4
71
3
72
34
73
30
40
0
40
0
40
0
40
0
40
0.250000000000015
40
0.250000000000015
40
0.50000000000003
40
0.50000000000003
40
0.625000000000037
40
0.625000000000037
40
0.750000000000045
40
0.750000000000045
40
0.812500000000049
40
0.812500000000049
40
0.875000000000053
40
0.875000000000053
40
0.906250000000055
40
0.906250000000055
40
0.937500000000057
40
0.937500000000057
40
0.953125000000054
40
0.953125000000054
40
0.960937500000046
40
0.960937500000046
40
0.968750000000038
40
0.968750000000038
40
0.976562500000029
40
0.976562500000029
40
0.984375000000021
40
0.984375000000021
40
1
40
1
40
1
40
1
41
1
10
118.6055
20
-30.6809335420845
30
0
41
1
10
118.595346533292
20
-30.8685616238307
30
0
41
1
10
118.584370807237
20
-31.0560262286988
30
0
41
1
10
118.562481488741
20
-31.4306099884005
30
0
41
1
10
118.551513851723
20
-31.6177298429033
30
0
41
1
10
118.537202736881
20
-31.8981254329402
30
0
41
1
10
118.532796830085
20
-31.9915431542787
30
0
41
1
10
118.525483149715
20
-32.1782739904479
30
0
41
1
10
118.522535167938
20
-32.2715458172689
30
0
41
1
10
118.520533676288
20
-32.4107891039476
30
0
41
1
10
118.520274752555
20
-32.4571062118798
30
0
41
1
10
118.52115465809
20
-32.549447728114
30
0
41
1
10
118.522240748443
20
-32.5954810364488
30
0
41
1
10
118.52608172868
20
-32.6641151207605
30
0
41
1
10
118.527736744004
20
-32.6869313967419
30
0
41
1
10
118.532408665708
20
-32.7318553676972
30
0
41
1
10
118.535313860698
20
-32.7540525787305
30
0
41
1
10
118.542369992768
20
-32.7861374829184
30
0
41
1
10
118.545178365622
20
-32.7967125716019
30
0
41
1
10
118.551015675626
20
-32.8110070008817
30
0
41
1
10
118.553273328892
20
-32.8155950558168
30
0
41
1
10
118.55884924938
20
-32.8233213778418
30
0
41
1
10
118.562256999408
20
-32.8265123816613
30
0
41
1
10
118.570382070726
20
-32.8285817210431
30
0
41
1
10
118.574817602389
20
-32.8271291906216
30
0
41
1
10
118.582709235835
20
-32.8212455239886
30
0
41
1
10
118.586129694689
20
-32.8171872080587
30
0
41
1
10
118.595657580156
20
-32.8037159283189
30
0
41
1
10
118.600811615614
20
-32.7933200998162
30
0
41
1
10
118.6055
20
-32.7827284368676
30
0
0
LINE
5
75
100
AcDbEntity
8
1
62
256
6
ByLayer
370
18
48
1
60
0
100
AcDbLine
10
111.353237
20
1
30
0
11
29
21
1
31
0
39
0
210
0
220
0
230
1
0
LINE
5
77
100
AcDbEntity
8
1
62
256
6
ByLayer
370
18
48
1
60
0
100
AcDbLine
10
123.6755
20
-43.899495
30
0
11
128.9255
21
-43.899495
31
0
39
0
210
0
220
0
230
1
0
LINE
5
78
100
AcDbEntity
8
1
62
256
6
ByLayer
370
18
48
1
60
0
100
AcDbLine
10
123.4255
20
-35.899495
30
0
11
119.324484
21
-35.899495
31
0
39
0
210
0
220
0
230
1
0
LINE
5
79
100
AcDbEntity
8
1
62
256
6
ByLayer
370
18
48
1
60
0
100
AcDbLine
10
119.324484
20
-41.899495
30
0
11
123.4255
21
-41.899495
31
0
39
0
210
0
220
0
230
1
0
LINE
5
7A
100
AcDbEntity
8
1
62
256
6
ByLayer
370
18
48
1
60
0
100
AcDbLine
10
128.9255
20
-33.899495
30
0
11
123.6755
21
-33.899495
31
0
39
0
210
0
220
0
230
1
0
LINE
5
7B
100
AcDbEntity
8
1
62
256
6
ByLayer
370
18
48
1
60
0
100
AcDbLine
10
128.9255
20
-14.100505
30
0
11
123.6755
21
-14.100505
31
0
39
0
210
0
220
0
230
1
0
LINE
5
7C
100
AcDbEntity
8
1
62
256
6
ByLayer
370
18
48
1
60
0
100
AcDbLine
10
29
20
-49
30
0
11
114.8
21
-49
31
0
39
0
210
0
220
0
230
1
0
LINE
5
7D
100
AcDbEntity
8
1
62
256
6
ByLayer
370
18
48
1
60
0
100
AcDbLine
10
113.834074
20
-8.258819
30
0
11
111.353181
21
1
31
0
39
0
210
0
220
0
230
1
0
LINE
5
7E
100
AcDbEntity
8
1
62
256
6
ByLayer
370
18
48
1
60
0
100
AcDbLine
10
0
20
-48.5
30
0
11
0.5
21
-49
31
0
39
0
210
0
220
0
230
1
0
LINE
5
7F
100
AcDbEntity
8
1
62
256
6
ByLayer
370
18
48
1
60
0
100
AcDbLine
10
0.5
20
49
30
0
11
0
21
48.5
31
0
39
0
210
0
220
0
230
1
0
LINE
5
80
100
AcDbEntity
8
1
62
256
6
ByLayer
370
18
48
1
60
0
100
AcDbLine
10
0.5
20
-49
30
0
11
10.510986
21
-49
31
0
39
0
210
0
220
0
230
1
0
LINE
5
81
100
AcDbEntity
8
1
62
256
6
ByLayer
370
18
48
1
60
0
100
AcDbLine
10
17.5
20
-49
30
0
11
29
21
-49
31
0
39
0
210
0
220
0
230
1
0
LINE
5
82
100
AcDbEntity
8
1
62
256
6
ByLayer
370
18
48
1
60
0
100
AcDbLine
10
25
20
49
30
0
11
0.5
21
49
31
0
39
0
210
0
220
0
230
1
0
LINE
5
83
100
AcDbEntity
8
1
62
256
6
ByLayer
370
18
48
1
60
0
100
AcDbLine
10
119.324484
20
-22.100505
30
0
11
123.4255
21
-22.100505
31
0
39
0
210
0
220
0
230
1
0
LINE
5
84
100
AcDbEntity
8
1
62
256
6
ByLayer
370
18
48
1
60
0
100
AcDbLine
10
123.4255
20
-16.100505
30
0
11
119.324484
21
-16.100505
31
0
39
0
210
0
220
0
230
1
0
LINE
5
85
100
AcDbEntity
8
1
62
256
6
ByLayer
370
18
48
1
60
0
100
AcDbLine
10
123.6755
20
-24.100505
30
0
11
128.9255
21
-24.100505
31
0
39
0
210
0
220
0
230
1
0
LINE
5
86
100
AcDbEntity
8
SK1
62
256
6
ByLayer
370
18
48
1
60
0
100
AcDbLine
10
-3.7
20
-24.996
30
0
11
-1.348394
21
-24.365889
31
0
39
0
210
0
220
0
230
1
0
LINE
5
88
100
AcDbEntity
8
SK1
62
256
6
ByLayer
370
18
48
1
60
0
100
AcDbLine
10
-1.348394
20
24.365889
30
0
11
-3.7
21
24.996
31
0
39
0
210
0
220
0
230
1
0
LINE
5
89
100
AcDbEntity
8
SK1
62
256
6
ByLayer
370
18
48
1
60
0
100
AcDbLine
10
-3.7
20
24.996
30
0
11
-74.5
21
24.996
31
0
39
0
210
0
220
0
230
1
0
LINE
5
8A
100
AcDbEntity
8
SK1
62
256
6
ByLayer
370
18
48
1
60
0
100
AcDbLine
10
-74.5
20
-24.996
30
0
11
-3.7
21
-24.996
31
0
39
0
210
0
220
0
230
1
0
LINE
5
8B
100
AcDbEntity
8
SK1
62
256
6
ByLayer
370
18
48
1
60
0
100
AcDbLine
10
-1.037811
20
-24.325
30
0
11
-0.75
21
-24.325
31
0
39
0
210
0
220
0
230
1
0
LINE
5
8C
100
AcDbEntity
8
SK1
62
256
6
ByLayer
370
18
48
1
60
0
100
AcDbLine
10
-0.75
20
24.325
30
0
11
-1.037811
21
24.325
31
0
39
0
210
0
220
0
230
1
0
LINE
5
8D
100
AcDbEntity
8
SK1
62
256
6
ByLayer
370
18
48
1
60
0
100
AcDbLine
10
-74.5
20
24.996
30
0
11
-78
21
24.058178
31
0
39
0
210
0
220
0
230
1
0
LINE
5
8E
100
AcDbEntity
8
SK1
62
256
6
ByLayer
370
18
48
1
60
0
100
AcDbLine
10
-78
20
-24.058178
30
0
11
-74.5
21
-24.996
31
0
39
0
210
0
220
0
230
1
0
LINE
5
8F
100
AcDbEntity
8
1
62
256
6
ByLayer
370
18
48
1
60
0
100
AcDbLine
10
114.8
20
-49
30
0
11
118.3245
21
-49
31
0
39
0
210
0
220
0
230
1
0
LINE
5
90
100
AcDbEntity
8
1
62
256
6
ByLayer
370
18
48
1
60
0
100
AcDbLine
10
118.3245
20
-9
30
0
11
114.8
21
-9
31
0
39
0
210
0
220
0
230
1
0
LINE
5
91
100
AcDbEntity
8
1
62
256
6
ByLayer
370
18
48
1
60
0
100
AcDbLine
10
118.3245
20
-49
30
0
11
118.521897
21
-48.802603
31
0
39
0
210
0
220
0
230
1
0
LINE
5
92
100
AcDbEntity
8
1
62
256
6
ByLayer
370
18
48
1
60
0
100
AcDbLine
10
118.521897
20
-9.197397
30
0
11
118.3245
21
-9
31
0
39
0
210
0
220
0
230
1
0
LINE
5
93
100
AcDbEntity
8
80
62
256
6
ByLayer
370
18
48
1
60
0
100
AcDbLine
10
0
20
0
30
0
11
-5
21
0
31
0
39
0
210
0
220
0
230
1
0
LINE
5
94
100
AcDbEntity
8
81
62
256
6
ByLayer
370
18
48
1
60
0
100
AcDbLine
10
119
20
-29
30
0
11
124
21
-29
31
0
39
0
210
0
220
0
230
1
0
LINE
5
95
100
AcDbEntity
8
4
62
256
6
ByLayer
370
18
48
0.05
60
0
100
AcDbLine
10
0
20
0
30
0
11
119
21
0
31
0
39
0
210
0
220
0
230
1
0
LINE
5
97
100
AcDbEntity
8
SK4
62
256
6
ByLayer
370
18
48
0.05
60
0
100
AcDbLine
10
-5
20
0
30
0
11
124
21
0
31
0
39
0
210
0
220
0
230
1
0
LINE
5
99
100
AcDbEntity
8
1
62
256
6
ByLayer
370
18
48
1
60
0
100
AcDbLine
10
119.3245
20
-10.394373
30
0
11
119.3245
21
-10.710985
31
0
39
0
210
0
220
0
230
1
0
LINE
5
9A
100
AcDbEntity
8
1
62
256
6
ByLayer
370
18
48
1
60
0
100
AcDbLine
10
119.3245
20
-47.646315
30
0
11
119.3245
21
-47.853979
31
0
39
0
210
0
220
0
230
1
0
LINE
5
9B
100
AcDbEntity
8
1
62
256
6
ByLayer
370
18
48
1
60
0
100
AcDbLine
10
119.3245
20
-47.877899
30
0
11
119.3245
21
-47.98093
31
0
39
0
210
0
220
0
230
1
0
LINE
5
9C
100
AcDbEntity
8
1
62
256
6
ByLayer
370
18
48
1
60
0
100
AcDbLine
10
119.3245
20
-10.01907
30
0
11
119.3245
21
-10.122101
31
0
39
0
210
0
220
0
230
1
0
LINE
5
9D
100
AcDbEntity
8
1
62
256
6
ByLayer
370
18
48
1
60
0
100
AcDbLine
10
16
20
-20.735941
30
0
11
16
21
-16.264059
31
0
39
0
210
0
220
0
230
1
0
LINE
5
9E
100
AcDbEntity
8
SK1
62
256
6
ByLayer
370
18
48
1
60
0
100
AcDbLine
10
-15.99868
20
14.987995
30
0
11
-15.99868
21
-14.987995
31
0
39
0
210
0
220
0
230
1
0
LINE
5
9F
100
AcDbEntity
8
SK1
62
256
6
ByLayer
370
18
48
1
60
0
100
AcDbLine
10
-11.99868
20
14.987995
30
0
11
-11.99868
21
-14.987995
31
0
39
0
210
0
220
0
230
1
0
LINE
5
A0
100
AcDbEntity
8
SK1
62
256
6
ByLayer
370
18
48
1
60
0
100
AcDbLine
10
-15.40132
20
14.987995
30
0
11
-15.40132
21
-14.987995
31
0
39
0
210
0
220
0
230
1
0
LINE
5
A1
100
AcDbEntity
8
1
62
256
6
ByLayer
370
18
48
1
60
0
100
AcDbLine
10
25
20
-34.292856
30
0
11
25
21
-44.5
31
0
39
0
210
0
220
0
230
1
0
LINE
5
A2
100
AcDbEntity
8
1
62
256
6
ByLayer
370
18
48
1
60
0
100
AcDbLine
10
25
20
49
30
0
11
25
21
34.292856
31
0
39
0
210
0
220
0
230
1
0
LINE
5
A3
100
AcDbEntity
8
1
62
256
6
ByLayer
370
18
48
1
60
0
100
AcDbLine
10
25
20
-34.292856
30
0
11
0.5
21
-34.292856
31
0
39
0
210
0
220
0
230
1
0
LINE
5
A4
100
AcDbEntity
8
1
62
256
6
ByLayer
370
18
48
1
60
0
100
AcDbLine
10
0.5
20
34.292856
30
0
11
25
21
34.292856
31
0
39
0
210
0
220
0
230
1
0
LINE
5
A5
100
AcDbEntity
8
1
62
256
6
ByLayer
370
18
48
1
60
0
100
AcDbLine
10
0.5
20
-34.292856
30
0
11
0.5
21
-49
31
0
39
0
210
0
220
0
230
1
0
LINE
5
A6
100
AcDbEntity
8
1
62
256
6
ByLayer
370
18
48
1
60
0
100
AcDbLine
10
0.5
20
49
30
0
11
0.5
21
34.292856
31
0
39
0
210
0
220
0
230
1
0
LINE
5
A7
100
AcDbEntity
8
1
62
256
6
ByLayer
370
18
48
1
60
0
100
AcDbLine
10
0.5
20
34.292856
30
0
11
0.5
21
-34.292856
31
0
39
0
210
0
220
0
230
1
0
LINE
5
A8
100
AcDbEntity
8
1
62
256
6
ByLayer
370
18
48
1
60
0
100
AcDbLine
10
25
20
34.292856
30
0
11
25
21
-34.292856
31
0
39
0
210
0
220
0
230
1
0
LINE
5
A9
100
AcDbEntity
8
1
62
256
6
ByLayer
370
18
48
1
60
0
100
AcDbLine
10
0
20
-34.088121
30
0
11
0
21
34.088121
31
0
39
0
210
0
220
0
230
1
0
LINE
5
AA
100
AcDbEntity
8
SK1
62
256
6
ByLayer
370
18
48
1
60
0
100
AcDbLine
10
-78
20
24.058178
30
0
11
-78
21
14.085095
31
0
39
0
210
0
220
0
230
1
0
LINE
5
AB
100
AcDbEntity
8
SK1
62
256
6
ByLayer
370
18
48
1
60
0
100
AcDbLine
10
-78
20
-14.085095
30
0
11
-78
21
-24.058178
31
0
39
0
210
0
220
0
230
1
0
LINE
5
AC
100
AcDbEntity
8
1
62
256
6
ByLayer
370
18
48
1
60
0
100
AcDbLine
10
119.3245
20
-26.625637
30
0
11
119.3245
21
-31.374363
31
0
39
0
210
0
220
0
230
1
0
LINE
5
AD
100
AcDbEntity
8
1
62
256
6
ByLayer
370
13
48
1
60
0
100
AcDbLine
10
29
20
-49
30
0
11
29
21
1
31
0
39
0
210
0
220
0
230
1
0
LINE
5
AE
100
AcDbEntity
8
SK1
62
256
6
ByLayer
370
13
48
1
60
0
100
AcDbLine
10
-0.75
20
-24.325
30
0
11
-0.75
21
24.325
31
0
39
0
210
0
220
0
230
1
0
LINE
5
AF
100
AcDbEntity
8
1
62
256
6
ByLayer
370
18
48
1
60
0
100
AcDbLine
10
119.3245
20
-18.524125
30
0
11
119.3245
21
-20.819979
31
0
39
0
210
0
220
0
230
1
0
LINE
5
B0
100
AcDbEntity
8
1
62
256
6
ByLayer
370
18
48
1
60
0
100
AcDbLine
10
119.3245
20
-37.180021
30
0
11
119.3245
21
-39.475875
31
0
39
0
210
0
220
0
230
1
0
LINE
5
B1
100
AcDbEntity
8
1
62
256
6
ByLayer
370
13
48
1
60
0
100
AcDbLine
10
113.834074
20
-8.258819
30
0
11
113.834074
21
-45.980341
31
0
39
0
210
0
220
0
230
1
0
LINE
5
B2
100
AcDbEntity
8
1
62
256
6
ByLayer
370
18
48
1
60
0
100
AcDbLine
10
0
20
48.5
30
0
11
0
21
34.088121
31
0
39
0
210
0
220
0
230
1
0
LINE
5
B3
100
AcDbEntity
8
1
62
256
6
ByLayer
370
18
48
1
60
0
100
AcDbLine
10
0
20
-34.088121
30
0
11
0
21
-48.5
31
0
39
0
210
0
220
0
230
1
0
LINE
5
B4
100
AcDbEntity
8
1
62
256
6
ByLayer
370
18
48
1
60
0
100
AcDbLine
10
119.3245
20
-10.146021
30
0
11
119.3245
21
-10.353685
31
0
39
0
210
0
220
0
230
1
0
LINE
5
B5
100
AcDbEntity
8
SK1
62
256
6
ByLayer
370
13
48
1
60
0
100
AcDbLine
10
-1.348394
20
-24.365889
30
0
11
-1.348394
21
24.365889
31
0
39
0
210
0
220
0
230
1
0
LINE
5
B6
100
AcDbEntity
8
SK1
62
256
6
ByLayer
370
18
48
1
60
0
100
AcDbLine
10
-3.7
20
-24.996
30
0
11
-3.7
21
24.996
31
0
39
0
210
0
220
0
230
1
0
LINE
5
B7
100
AcDbEntity
8
SK1
62
256
6
ByLayer
370
18
48
1
60
0
100
AcDbLine
10
-55.40132
20
-14.987995
30
0
11
-55.99868
21
-14.987995
31
0
39
0
210
0
220
0
230
1
0
LINE
5
B8
100
AcDbEntity
8
SK1
62
256
6
ByLayer
370
18
48
1
60
0
100
AcDbLine
10
-51.40132
20
-14.987995
30
0
11
-51.99868
21
-14.987995
31
0
39
0
210
0
220
0
230
1
0
LINE
5
B9
100
AcDbEntity
8
SK1
62
256
6
ByLayer
370
18
48
1
60
0
100
AcDbLine
10
-47.40132
20
-14.987995
30
0
11
-47.99868
21
-14.987995
31
0
39
0
210
0
220
0
230
1
0
LINE
5
BA
100
AcDbEntity
8
SK1
62
256
6
ByLayer
370
18
48
1
60
0
100
AcDbLine
10
-43.40132
20
-14.987995
30
0
11
-43.99868
21
-14.987995
31
0
39
0
210
0
220
0
230
1
0
LINE
5
BB
100
AcDbEntity
8
SK1
62
256
6
ByLayer
370
18
48
1
60
0
100
AcDbLine
10
-39.40132
20
-14.987995
30
0
11
-39.99868
21
-14.987995
31
0
39
0
210
0
220
0
230
1
0
LINE
5
BC
100
AcDbEntity
8
SK1
62
256
6
ByLayer
370
18
48
1
60
0
100
AcDbLine
10
-35.40132
20
-14.987995
30
0
11
-35.99868
21
-14.987995
31
0
39
0
210
0
220
0
230
1
0
LINE
5
BD
100
AcDbEntity
8
SK1
62
256
6
ByLayer
370
18
48
1
60
0
100
AcDbLine
10
-31.40132
20
-14.987995
30
0
11
-31.99868
21
-14.987995
31
0
39
0
210
0
220
0
230
1
0
LINE
5
BE
100
AcDbEntity
8
SK1
62
256
6
ByLayer
370
18
48
1
60
0
100
AcDbLine
10
-27.40132
20
-14.987995
30
0
11
-27.99868
21
-14.987995
31
0
39
0
210
0
220
0
230
1
0
LINE
5
BF
100
AcDbEntity
8
SK1
62
256
6
ByLayer
370
18
48
1
60
0
100
AcDbLine
10
-23.40132
20
-14.987995
30
0
11
-23.99868
21
-14.987995
31
0
39
0
210
0
220
0
230
1
0
LINE
5
C0
100
AcDbEntity
8
SK1
62
256
6
ByLayer
370
18
48
1
60
0
100
AcDbLine
10
-19.40132
20
-14.987995
30
0
11
-19.99868
21
-14.987995
31
0
39
0
210
0
220
0
230
1
0
LINE
5
C1
100
AcDbEntity
8
SK1
62
256
6
ByLayer
370
18
48
1
60
0
100
AcDbLine
10
-15.40132
20
-14.987995
30
0
11
-15.99868
21
-14.987995
31
0
39
0
210
0
220
0
230
1
0
LINE
5
C2
100
AcDbEntity
8
SK1
62
256
6
ByLayer
370
18
48
1
60
0
100
AcDbLine
10
-8
20
-14.987995
30
0
11
-11.99868
21
-14.987995
31
0
39
0
210
0
220
0
230
1
0
LINE
5
C3
100
AcDbEntity
8
SK1
62
256
6
ByLayer
370
18
48
1
60
0
100
AcDbLine
10
-8
20
14.987995
30
0
11
-8
21
-14.987995
31
0
39
0
210
0
220
0
230
1
0
LINE
5
C4
100
AcDbEntity
8
SK1
62
256
6
ByLayer
370
18
48
1
60
0
100
AcDbLine
10
-11.99868
20
14.987995
30
0
11
-8
21
14.987995
31
0
39
0
210
0
220
0
230
1
0
LINE
5
C5
100
AcDbEntity
8
SK1
62
256
6
ByLayer
370
18
48
1
60
0
100
AcDbLine
10
-15.99868
20
14.987995
30
0
11
-15.40132
21
14.987995
31
0
39
0
210
0
220
0
230
1
0
LINE
5
C6
100
AcDbEntity
8
SK1
62
256
6
ByLayer
370
18
48
1
60
0
100
AcDbLine
10
-19.99868
20
14.987995
30
0
11
-19.40132
21
14.987995
31
0
39
0
210
0
220
0
230
1
0
LINE
5
C7
100
AcDbEntity
8
SK1
62
256
6
ByLayer
370
18
48
1
60
0
100
AcDbLine
10
-23.99868
20
14.987995
30
0
11
-23.40132
21
14.987995
31
0
39
0
210
0
220
0
230
1
0
LINE
5
C8
100
AcDbEntity
8
SK1
62
256
6
ByLayer
370
18
48
1
60
0
100
AcDbLine
10
-27.99868
20
14.987995
30
0
11
-27.40132
21
14.987995
31
0
39
0
210
0
220
0
230
1
0
LINE
5
C9
100
AcDbEntity
8
SK1
62
256
6
ByLayer
370
18
48
1
60
0
100
AcDbLine
10
-31.99868
20
14.987995
30
0
11
-31.40132
21
14.987995
31
0
39
0
210
0
220
0
230
1
0
LINE
5
CA
100
AcDbEntity
8
SK1
62
256
6
ByLayer
370
18
48
1
60
0
100
AcDbLine
10
-35.99868
20
14.987995
30
0
11
-35.40132
21
14.987995
31
0
39
0
210
0
220
0
230
1
0
LINE
5
CB
100
AcDbEntity
8
SK1
62
256
6
ByLayer
370
18
48
1
60
0
100
AcDbLine
10
-39.99868
20
14.987995
30
0
11
-39.40132
21
14.987995
31
0
39
0
210
0
220
0
230
1
0
LINE
5
CC
100
AcDbEntity
8
SK1
62
256
6
ByLayer
370
18
48
1
60
0
100
AcDbLine
10
-43.99868
20
14.987995
30
0
11
-43.40132
21
14.987995
31
0
39
0
210
0
220
0
230
1
0
LINE
5
CD
100
AcDbEntity
8
SK1
62
256
6
ByLayer
370
18
48
1
60
0
100
AcDbLine
10
-47.99868
20
14.987995
30
0
11
-47.40132
21
14.987995
31
0
39
0
210
0
220
0
230
1
0
LINE
5
CE
100
AcDbEntity
8
SK1
62
256
6
ByLayer
370
18
48
1
60
0
100
AcDbLine
10
-51.99868
20
14.987995
30
0
11
-51.40132
21
14.987995
31
0
39
0
210
0
220
0
230
1
0
LINE
5
CF
100
AcDbEntity
8
SK1
62
256
6
ByLayer
370
18
48
1
60
0
100
AcDbLine
10
-55.99868
20
14.987995
30
0
11
-55.40132
21
14.987995
31
0
39
0
210
0
220
0
230
1
0
LINE
5
D0
100
AcDbEntity
8
SK1
62
256
6
ByLayer
370
18
48
1
60
0
100
AcDbLine
10
-74.5
20
14.987995
30
0
11
-59.40132
21
14.987995
31
0
39
0
210
0
220
0
230
1
0
LINE
5
D1
100
AcDbEntity
8
1
62
256
6
ByLayer
370
18
48
1
60
0
100
AcDbLine
10
119.3245
20
-10.769087
30
0
11
119.3245
21
-11.201419
31
0
39
0
210
0
220
0
230
1
0
LINE
5
D2
100
AcDbEntity
8
SK1
62
256
6
ByLayer
370
13
48
1
60
0
100
AcDbLine
10
-1.037811
20
-24.325
30
0
11
-1.037811
21
24.325
31
0
39
0
210
0
220
0
230
1
0
LINE
5
D3
100
AcDbEntity
8
SK1
62
256
6
ByLayer
370
18
48
1
60
0
100
AcDbLine
10
-59.40132
20
-14.987995
30
0
11
-74.5
21
-14.987995
31
0
39
0
210
0
220
0
230
1
0
LINE
5
D4
100
AcDbEntity
8
1
62
256
6
ByLayer
370
13
48
1
60
0
100
AcDbLine
10
114.8
20
-9
30
0
11
114.8
21
-49
31
0
39
0
210
0
220
0
230
1
0
LINE
5
D5
100
AcDbEntity
8
SK1
62
256
6
ByLayer
370
18
48
1
60
0
100
AcDbLine
10
-78
20
-14.085095
30
0
11
-78
21
14.085095
31
0
39
0
210
0
220
0
230
1
0
LINE
5
D6
100
AcDbEntity
8
SK1
62
256
6
ByLayer
370
18
48
1
60
0
100
AcDbLine
10
-74.5
20
-14.987995
30
0
11
-74.5
21
-24.996
31
0
39
0
210
0
220
0
230
1
0
LINE
5
D7
100
AcDbEntity
8
SK1
62
256
6
ByLayer
370
18
48
1
60
0
100
AcDbLine
10
-74.5
20
24.996
30
0
11
-74.5
21
14.987995
31
0
39
0
210
0
220
0
230
1
0
LINE
5
D8
100
AcDbEntity
8
SK1
62
256
6
ByLayer
370
18
48
1
60
0
100
AcDbLine
10
-77.5
20
13.605154
30
0
11
-77.5
21
-13.605154
31
0
39
0
210
0
220
0
230
1
0
LINE
5
D9
100
AcDbEntity
8
SK1
62
256
6
ByLayer
370
13
48
1
60
0
100
AcDbLine
10
-45.487868
20
-16.792908
30
0
11
-45.487868
21
16.792908
31
0
39
0
210
0
220
0
230
1
0
LINE
5
DA
100
AcDbEntity
8
SK1
62
256
6
ByLayer
370
13
48
1
60
0
100
AcDbLine
10
-41.912132
20
-16.792908
30
0
11
-41.912132
21
16.792908
31
0
39
0
210
0
220
0
230
1
0
LINE
5
DB
100
AcDbEntity
8
SK1
62
256
6
ByLayer
370
18
48
1
60
0
100
AcDbLine
10
-47.99868
20
-14.987995
30
0
11
-47.99868
21
14.987995
31
0
39
0
210
0
220
0
230
1
0
LINE
5
DC
100
AcDbEntity
8
SK1
62
256
6
ByLayer
370
13
48
1
60
0
100
AcDbLine
10
-49.487868
20
-16.792908
30
0
11
-49.487868
21
16.792908
31
0
39
0
210
0
220
0
230
1
0
LINE
5
DD
100
AcDbEntity
8
SK1
62
256
6
ByLayer
370
13
48
1
60
0
100
AcDbLine
10
-57.912132
20
-16.792908
30
0
11
-57.912132
21
16.792908
31
0
39
0
210
0
220
0
230
1
0
LINE
5
DE
100
AcDbEntity
8
SK1
62
256
6
ByLayer
370
13
48
1
60
0
100
AcDbLine
10
-49.912132
20
-16.792908
30
0
11
-49.912132
21
16.792908
31
0
39
0
210
0
220
0
230
1
0
LINE
5
DF
100
AcDbEntity
8
SK1
62
256
6
ByLayer
370
18
48
1
60
0
100
AcDbLine
10
-47.40132
20
14.987995
30
0
11
-47.40132
21
-14.987995
31
0
39
0
210
0
220
0
230
1
0
LINE
5
E0
100
AcDbEntity
8
SK1
62
256
6
ByLayer
370
18
48
1
60
0
100
AcDbLine
10
-39.40132
20
14.987995
30
0
11
-39.40132
21
-14.987995
31
0
39
0
210
0
220
0
230
1
0
LINE
5
E1
100
AcDbEntity
8
SK1
62
256
6
ByLayer
370
13
48
1
60
0
100
AcDbLine
10
-53.487868
20
-16.792908
30
0
11
-53.487868
21
16.792908
31
0
39
0
210
0
220
0
230
1
0
LINE
5
E2
100
AcDbEntity
8
SK1
62
256
6
ByLayer
370
18
48
1
60
0
100
AcDbLine
10
-55.99868
20
-14.987995
30
0
11
-55.99868
21
14.987995
31
0
39
0
210
0
220
0
230
1
0
LINE
5
E3
100
AcDbEntity
8
SK1
62
256
6
ByLayer
370
13
48
1
60
0
100
AcDbLine
10
-45.912132
20
-16.792908
30
0
11
-45.912132
21
16.792908
31
0
39
0
210
0
220
0
230
1
0
LINE
5
E4
100
AcDbEntity
8
SK1
62
256
6
ByLayer
370
18
48
1
60
0
100
AcDbLine
10
-31.40132
20
14.987995
30
0
11
-31.40132
21
-14.987995
31
0
39
0
210
0
220
0
230
1
0
LINE
5
E5
100
AcDbEntity
8
SK1
62
256
6
ByLayer
370
13
48
1
60
0
100
AcDbLine
10
-57.487868
20
-16.792908
30
0
11
-57.487868
21
16.792908
31
0
39
0
210
0
220
0
230
1
0
LINE
5
E6
100
AcDbEntity
8
SK1
62
256
6
ByLayer
370
18
48
1
60
0
100
AcDbLine
10
-43.99868
20
-14.987995
30
0
11
-43.99868
21
14.987995
31
0
39
0
210
0
220
0
230
1
0
LINE
5
E7
100
AcDbEntity
8
SK1
62
256
6
ByLayer
370
13
48
1
60
0
100
AcDbLine
10
-41.487868
20
-16.792908
30
0
11
-41.487868
21
16.792908
31
0
39
0
210
0
220
0
230
1
0
LINE
5
E8
100
AcDbEntity
8
SK1
62
256
6
ByLayer
370
18
48
1
60
0
100
AcDbLine
10
-51.99868
20
-14.987995
30
0
11
-51.99868
21
14.987995
31
0
39
0
210
0
220
0
230
1
0
LINE
5
E9
100
AcDbEntity
8
SK1
62
256
6
ByLayer
370
13
48
1
60
0
100
AcDbLine
10
-33.487868
20
-16.792908
30
0
11
-33.487868
21
16.792908
31
0
39
0
210
0
220
0
230
1
0
LINE
5
EA
100
AcDbEntity
8
SK1
62
256
6
ByLayer
370
18
48
1
60
0
100
AcDbLine
10
-55.40132
20
14.987995
30
0
11
-55.40132
21
-14.987995
31
0
39
0
210
0
220
0
230
1
0
LINE
5
EB
100
AcDbEntity
8
SK1
62
256
6
ByLayer
370
18
48
1
60
0
100
AcDbLine
10
-43.40132
20
14.987995
30
0
11
-43.40132
21
-14.987995
31
0
39
0
210
0
220
0
230
1
0
LINE
5
EC
100
AcDbEntity
8
SK1
62
256
6
ByLayer
370
13
48
1
60
0
100
AcDbLine
10
-29.487868
20
-16.792908
30
0
11
-29.487868
21
16.792908
31
0
39
0
210
0
220
0
230
1
0
LINE
5
ED
100
AcDbEntity
8
SK1
62
256
6
ByLayer
370
18
48
1
60
0
100
AcDbLine
10
-51.40132
20
14.987995
30
0
11
-51.40132
21
-14.987995
31
0
39
0
210
0
220
0
230
1
0
LINE
5
EE
100
AcDbEntity
8
SK1
62
256
6
ByLayer
370
13
48
1
60
0
100
AcDbLine
10
-37.487868
20
-16.792908
30
0
11
-37.487868
21
16.792908
31
0
39
0
210
0
220
0
230
1
0
LINE
5
EF
100
AcDbEntity
8
SK1
62
256
6
ByLayer
370
13
48
1
60
0
100
AcDbLine
10
-29.912132
20
-16.792908
30
0
11
-29.912132
21
16.792908
31
0
39
0
210
0
220
0
230
1
0
LINE
5
F0
100
AcDbEntity
8
SK1
62
256
6
ByLayer
370
18
48
1
60
0
100
AcDbLine
10
-35.40132
20
14.987995
30
0
11
-35.40132
21
-14.987995
31
0
39
0
210
0
220
0
230
1
0
LINE
5
F1
100
AcDbEntity
8
SK1
62
256
6
ByLayer
370
13
48
1
60
0
100
AcDbLine
10
-53.912132
20
-16.792908
30
0
11
-53.912132
21
16.792908
31
0
39
0
210
0
220
0
230
1
0
LINE
5
F2
100
AcDbEntity
8
SK1
62
256
6
ByLayer
370
13
48
1
60
0
100
AcDbLine
10
-33.912132
20
-16.792908
30
0
11
-33.912132
21
16.792908
31
0
39
0
210
0
220
0
230
1
0
LINE
5
F3
100
AcDbEntity
8
SK1
62
256
6
ByLayer
370
18
48
1
60
0
100
AcDbLine
10
-59.40132
20
14.987995
30
0
11
-59.40132
21
-14.987995
31
0
39
0
210
0
220
0
230
1
0
LINE
5
F4
100
AcDbEntity
8
SK1
62
256
6
ByLayer
370
13
48
1
60
0
100
AcDbLine
10
-37.912132
20
-16.792908
30
0
11
-37.912132
21
16.792908
31
0
39
0
210
0
220
0
230
1
0
LINE
5
F5
100
AcDbEntity
8
SK1
62
256
6
ByLayer
370
13
48
1
60
0
100
AcDbLine
10
-25.912132
20
-16.792908
30
0
11
-25.912132
21
16.792908
31
0
39
0
210
0
220
0
230
1
0
LINE
5
F6
100
AcDbEntity
8
SK1
62
256
6
ByLayer
370
18
48
1
60
0
100
AcDbLine
10
-35.99868
20
-14.987995
30
0
11
-35.99868
21
14.987995
31
0
39
0
210
0
220
0
230
1
0
LINE
5
F7
100
AcDbEntity
8
SK1
62
256
6
ByLayer
370
13
48
1
60
0
100
AcDbLine
10
-13.487868
20
-16.792908
30
0
11
-13.487868
21
16.792908
31
0
39
0
210
0
220
0
230
1
0
LINE
5
F8
100
AcDbEntity
8
SK1
62
256
6
ByLayer
370
18
48
1
60
0
100
AcDbLine
10
-39.99868
20
-14.987995
30
0
11
-39.99868
21
14.987995
31
0
39
0
210
0
220
0
230
1
0
LINE
5
F9
100
AcDbEntity
8
SK1
62
256
6
ByLayer
370
13
48
1
60
0
100
AcDbLine
10
-21.487868
20
-16.792908
30
0
11
-21.487868
21
16.792908
31
0
39
0
210
0
220
0
230
1
0
LINE
5
FA
100
AcDbEntity
8
SK1
62
256
6
ByLayer
370
18
48
1
60
0
100
AcDbLine
10
-23.40132
20
14.987995
30
0
11
-23.40132
21
-14.987995
31
0
39
0
210
0
220
0
230
1
0
LINE
5
FB
100
AcDbEntity
8
SK1
62
256
6
ByLayer
370
18
48
1
60
0
100
AcDbLine
10
-19.40132
20
14.987995
30
0
11
-19.40132
21
-14.987995
31
0
39
0
210
0
220
0
230
1
0
LINE
5
FC
100
AcDbEntity
8
SK1
62
256
6
ByLayer
370
18
48
1
60
0
100
AcDbLine
10
-23.99868
20
14.987995
30
0
11
-23.99868
21
-14.987995
31
0
39
0
210
0
220
0
230
1
0
LINE
5
FD
100
AcDbEntity
8
SK1
62
256
6
ByLayer
370
18
48
1
60
0
100
AcDbLine
10
-19.99868
20
14.987995
30
0
11
-19.99868
21
-14.987995
31
0
39
0
210
0
220
0
230
1
0
LINE
5
FE
100
AcDbEntity
8
SK1
62
256
6
ByLayer
370
13
48
1
60
0
100
AcDbLine
10
-25.487868
20
-16.792908
30
0
11
-25.487868
21
16.792908
31
0
39
0
210
0
220
0
230
1
0
LINE
5
FF
100
AcDbEntity
8
SK1
62
256
6
ByLayer
370
18
48
1
60
0
100
AcDbLine
10
-31.99868
20
14.987995
30
0
11
-31.99868
21
-14.987995
31
0
39
0
210
0
220
0
230
1
0
LINE
5
100
100
AcDbEntity
8
SK1
62
256
6
ByLayer
370
13
48
1
60
0
100
AcDbLine
10
-17.487868
20
-16.792908
30
0
11
-17.487868
21
16.792908
31
0
39
0
210
0
220
0
230
1
0
LINE
5
101
100
AcDbEntity
8
SK1
62
256
6
ByLayer
370
13
48
1
60
0
100
AcDbLine
10
-13.912132
20
-16.792908
30
0
11
-13.912132
21
16.792908
31
0
39
0
210
0
220
0
230
1
0
LINE
5
102
100
AcDbEntity
8
SK1
62
256
6
ByLayer
370
13
48
1
60
0
100
AcDbLine
10
-17.912132
20
-16.792908
30
0
11
-17.912132
21
16.792908
31
0
39
0
210
0
220
0
230
1
0
LINE
5
103
100
AcDbEntity
8
SK1
62
256
6
ByLayer
370
13
48
1
60
0
100
AcDbLine
10
-21.912132
20
-16.792908
30
0
11
-21.912132
21
16.792908
31
0
39
0
210
0
220
0
230
1
0
LINE
5
104
100
AcDbEntity
8
SK1
62
256
6
ByLayer
370
18
48
1
60
0
100
AcDbLine
10
-27.40132
20
14.987995
30
0
11
-27.40132
21
-14.987995
31
0
39
0
210
0
220
0
230
1
0
LINE
5
105
100
AcDbEntity
8
SK1
62
256
6
ByLayer
370
18
48
1
60
0
100
AcDbLine
10
-27.99868
20
14.987995
30
0
11
-27.99868
21
-14.987995
31
0
39
0
210
0
220
0
230
1
0
LINE
5
106
100
AcDbEntity
8
1
62
256
6
ByLayer
370
18
48
1
60
0
100
AcDbLine
10
118.3245
20
-9
30
0
11
118.3245
21
-49
31
0
39
0
210
0
220
0
230
1
0
LINE
5
107
100
AcDbEntity
8
1
62
256
6
ByLayer
370
18
48
1
60
0
100
AcDbLine
10
119.3245
20
-31.374363
30
0
11
119.3245
21
-32.635516
31
0
39
0
210
0
220
0
230
1
0
LINE
5
108
100
AcDbEntity
8
1
62
256
6
ByLayer
370
18
48
1
60
0
100
AcDbLine
10
119.3245
20
-36.742143
30
0
11
119.3245
21
-37.180085
31
0
39
0
210
0
220
0
230
1
0
LINE
5
109
100
AcDbEntity
8
1
62
256
6
ByLayer
370
18
48
1
60
0
100
AcDbLine
10
119.3245
20
-39.475875
30
0
11
119.3245
21
-39.775464
31
0
39
0
210
0
220
0
230
1
0
LINE
5
10A
100
AcDbEntity
8
1
62
256
6
ByLayer
370
18
48
1
60
0
100
AcDbLine
10
119.3245
20
-41.451792
30
0
11
119.3245
21
-41.680988
31
0
39
0
210
0
220
0
230
1
0
LINE
5
10B
100
AcDbEntity
8
1
62
256
6
ByLayer
370
18
48
1
60
0
100
AcDbLine
10
119.3245
20
-42.994653
30
0
11
119.3245
21
-43.177598
31
0
39
0
210
0
220
0
230
1
0
LINE
5
10C
100
AcDbEntity
8
1
62
256
6
ByLayer
370
18
48
1
60
0
100
AcDbLine
10
119.3245
20
-44.236583
30
0
11
119.3245
21
-44.385093
31
0
39
0
210
0
220
0
230
1
0
LINE
5
10D
100
AcDbEntity
8
1
62
256
6
ByLayer
370
18
48
1
60
0
100
AcDbLine
10
119.3245
20
-45.246743
30
0
11
119.3245
21
-45.367588
31
0
39
0
210
0
220
0
230
1
0
LINE
5
10E
100
AcDbEntity
8
1
62
256
6
ByLayer
370
18
48
1
60
0
100
AcDbLine
10
119.3245
20
-46.066336
30
0
11
119.3245
21
-46.163763
31
0
39
0
210
0
220
0
230
1
0
LINE
5
10F
100
AcDbEntity
8
1
62
256
6
ByLayer
370
18
48
1
60
0
100
AcDbLine
10
119.3245
20
-46.721823
30
0
11
119.3245
21
-46.79864
31
0
39
0
210
0
220
0
230
1
0
LINE
5
110
100
AcDbEntity
8
1
62
256
6
ByLayer
370
18
48
1
60
0
100
AcDbLine
10
119.3245
20
-47.230913
30
0
11
119.3245
21
-47.289024
31
0
39
0
210
0
220
0
230
1
0
LINE
5
111
100
AcDbEntity
8
1
62
256
6
ByLayer
370
18
48
1
60
0
100
AcDbLine
10
119.3245
20
-47.605627
30
0
11
119.3245
21
-47.646319
31
0
39
0
210
0
220
0
230
1
0
LINE
5
112
100
AcDbEntity
8
1
62
256
6
ByLayer
370
18
48
1
60
0
100
AcDbLine
10
119.3245
20
-21.257857
30
0
11
119.3245
21
-25.36458
31
0
39
0
210
0
220
0
230
1
0
LINE
5
113
100
AcDbEntity
8
1
62
256
6
ByLayer
370
18
48
1
60
0
100
AcDbLine
10
119.3245
20
-32.63542
30
0
11
119.3245
21
-36.742143
31
0
39
0
210
0
220
0
230
1
0
LINE
5
114
100
AcDbEntity
8
1
62
256
6
ByLayer
370
18
48
1
60
0
100
AcDbLine
10
119.3245
20
-47.853979
30
0
11
119.3245
21
-47.878084
31
0
39
0
210
0
220
0
230
1
0
LINE
5
115
100
AcDbEntity
8
1
62
256
6
ByLayer
370
18
48
1
60
0
100
AcDbLine
10
119.3245
20
-47.98093
30
0
11
119.3245
21
-47.988915
31
0
39
0
210
0
220
0
230
1
0
LINE
5
116
100
AcDbEntity
8
1
62
256
6
ByLayer
370
18
48
1
60
0
100
AcDbLine
10
119.3245
20
-16.548208
30
0
11
119.3245
21
-18.22492
31
0
39
0
210
0
220
0
230
1
0
LINE
5
117
100
AcDbEntity
8
1
62
256
6
ByLayer
370
18
48
1
60
0
100
AcDbLine
10
119.3245
20
-39.77508
30
0
11
119.3245
21
-41.451792
31
0
39
0
210
0
220
0
230
1
0
LINE
5
118
100
AcDbEntity
8
1
62
256
6
ByLayer
370
18
48
1
60
0
100
AcDbLine
10
119.3245
20
-10.011085
30
0
11
119.3245
21
-10.01907
31
0
39
0
210
0
220
0
230
1
0
LINE
5
119
100
AcDbEntity
8
1
62
256
6
ByLayer
370
18
48
1
60
0
100
AcDbLine
10
119.3245
20
-10.121916
30
0
11
119.3245
21
-10.146021
31
0
39
0
210
0
220
0
230
1
0
LINE
5
11A
100
AcDbEntity
8
1
62
256
6
ByLayer
370
18
48
1
60
0
100
AcDbLine
10
119.3245
20
-10.353681
30
0
11
119.3245
21
-10.394373
31
0
39
0
210
0
220
0
230
1
0
LINE
5
11B
100
AcDbEntity
8
1
62
256
6
ByLayer
370
18
48
1
60
0
100
AcDbLine
10
119.3245
20
-10.710976
30
0
11
119.3245
21
-10.769087
31
0
39
0
210
0
220
0
230
1
0
LINE
5
11C
100
AcDbEntity
8
1
62
256
6
ByLayer
370
18
48
1
60
0
100
AcDbLine
10
119.3245
20
-11.20136
30
0
11
119.3245
21
-11.278177
31
0
39
0
210
0
220
0
230
1
0
LINE
5
11D
100
AcDbEntity
8
1
62
256
6
ByLayer
370
18
48
1
60
0
100
AcDbLine
10
119.3245
20
-11.836237
30
0
11
119.3245
21
-11.933664
31
0
39
0
210
0
220
0
230
1
0
LINE
5
11E
100
AcDbEntity
8
1
62
256
6
ByLayer
370
18
48
1
60
0
100
AcDbLine
10
119.3245
20
-12.632412
30
0
11
119.3245
21
-12.753257
31
0
39
0
210
0
220
0
230
1
0
LINE
5
11F
100
AcDbEntity
8
1
62
256
6
ByLayer
370
18
48
1
60
0
100
AcDbLine
10
119.3245
20
-13.614907
30
0
11
119.3245
21
-13.763417
31
0
39
0
210
0
220
0
230
1
0
LINE
5
120
100
AcDbEntity
8
1
62
256
6
ByLayer
370
18
48
1
60
0
100
AcDbLine
10
119.3245
20
-14.822402
30
0
11
119.3245
21
-15.005347
31
0
39
0
210
0
220
0
230
1
0
LINE
5
121
100
AcDbEntity
8
1
62
256
6
ByLayer
370
18
48
1
60
0
100
AcDbLine
10
119.3245
20
-16.319012
30
0
11
119.3245
21
-16.548208
31
0
39
0
210
0
220
0
230
1
0
LINE
5
122
100
AcDbEntity
8
1
62
256
6
ByLayer
370
18
48
1
60
0
100
AcDbLine
10
119.3245
20
-18.224536
30
0
11
119.3245
21
-18.524125
31
0
39
0
210
0
220
0
230
1
0
LINE
5
123
100
AcDbEntity
8
1
62
256
6
ByLayer
370
18
48
1
60
0
100
AcDbLine
10
119.3245
20
-20.819915
30
0
11
119.3245
21
-21.257857
31
0
39
0
210
0
220
0
230
1
0
LINE
5
124
100
AcDbEntity
8
1
62
256
6
ByLayer
370
18
48
1
60
0
100
AcDbLine
10
119.3245
20
-25.364484
30
0
11
119.3245
21
-26.625637
31
0
39
0
210
0
220
0
230
1
0
LINE
5
125
100
AcDbEntity
8
1
62
256
6
ByLayer
370
13
48
1
60
0
100
AcDbLine
10
118.6055
20
-25.217272
30
0
11
118.6055
21
-27.319168
31
0
39
0
210
0
220
0
230
1
0
LINE
5
126
100
AcDbEntity
8
1
62
256
6
ByLayer
370
13
48
1
60
0
100
AcDbLine
10
118.6055
20
-30.680832
30
0
11
118.6055
21
-32.782728
31
0
39
0
210
0
220
0
230
1
0
LINE
5
127
100
AcDbEntity
8
1
62
256
6
ByLayer
370
13
48
1
60
0
100
AcDbLine
10
119.2495
20
-30.891746
30
0
11
119.2495
21
-27.108254
31
0
39
0
210
0
220
0
230
1
0
LINE
5
128
100
AcDbEntity
8
1
62
256
6
ByLayer
370
13
48
1
60
0
100
AcDbLine
10
118.6055
20
-20.626389
30
0
11
118.6055
21
-21.285287
31
0
39
0
210
0
220
0
230
1
0
LINE
5
129
100
AcDbEntity
8
1
62
256
6
ByLayer
370
13
48
1
60
0
100
AcDbLine
10
118.6055
20
-36.714713
30
0
11
118.6055
21
-37.373611
31
0
39
0
210
0
220
0
230
1
0
LINE
5
12A
100
AcDbEntity
8
1
62
256
6
ByLayer
370
13
48
1
60
0
100
AcDbLine
10
119.2495
20
-36.633583
30
0
11
119.2495
21
-33.571562
31
0
39
0
210
0
220
0
230
1
0
LINE
5
12B
100
AcDbEntity
8
1
62
256
6
ByLayer
370
13
48
1
60
0
100
AcDbLine
10
119.2495
20
-24.428438
30
0
11
119.2495
21
-21.366417
31
0
39
0
210
0
220
0
230
1
0
LINE
5
12C
100
AcDbEntity
8
1
62
256
6
ByLayer
370
13
48
1
60
0
100
AcDbLine
10
118.6055
20
-17.980668
30
0
11
118.6055
21
-18.431083
31
0
39
0
210
0
220
0
230
1
0
LINE
5
12D
100
AcDbEntity
8
1
62
256
6
ByLayer
370
13
48
1
60
0
100
AcDbLine
10
118.6055
20
-39.568917
30
0
11
118.6055
21
-40.019332
31
0
39
0
210
0
220
0
230
1
0
LINE
5
12E
100
AcDbEntity
8
1
62
256
6
ByLayer
370
13
48
1
60
0
100
AcDbLine
10
119.2495
20
-39.414628
30
0
11
119.2495
21
-37.614199
31
0
39
0
210
0
220
0
230
1
0
LINE
5
12F
100
AcDbEntity
8
1
62
256
6
ByLayer
370
13
48
1
60
0
100
AcDbLine
10
119.2495
20
-20.385801
30
0
11
119.2495
21
-18.585372
31
0
39
0
210
0
220
0
230
1
0
LINE
5
130
100
AcDbEntity
8
1
62
256
6
ByLayer
370
13
48
1
60
0
100
AcDbLine
10
118.6055
20
-16.029494
30
0
11
118.6055
21
-16.374834
31
0
39
0
210
0
220
0
230
1
0
LINE
5
131
100
AcDbEntity
8
1
62
256
6
ByLayer
370
13
48
1
60
0
100
AcDbLine
10
118.6055
20
-41.625166
30
0
11
118.6055
21
-41.970506
31
0
39
0
210
0
220
0
230
1
0
LINE
5
132
100
AcDbEntity
8
1
62
256
6
ByLayer
370
13
48
1
60
0
100
AcDbLine
10
119.2495
20
-41.416012
30
0
11
119.2495
21
-40.090991
31
0
39
0
210
0
220
0
230
1
0
LINE
5
133
100
AcDbEntity
8
1
62
256
6
ByLayer
370
13
48
1
60
0
100
AcDbLine
10
119.2495
20
-17.909009
30
0
11
119.2495
21
-16.583988
31
0
39
0
210
0
220
0
230
1
0
LINE
5
134
100
AcDbEntity
8
1
62
256
6
ByLayer
370
13
48
1
60
0
100
AcDbLine
10
118.6055
20
-14.489923
30
0
11
118.6055
21
-14.766521
31
0
39
0
210
0
220
0
230
1
0
LINE
5
135
100
AcDbEntity
8
1
62
256
6
ByLayer
370
13
48
1
60
0
100
AcDbLine
10
118.6055
20
-43.233479
30
0
11
118.6055
21
-43.510077
31
0
39
0
210
0
220
0
230
1
0
LINE
5
136
100
AcDbEntity
8
1
62
256
6
ByLayer
370
13
48
1
60
0
100
AcDbLine
10
119.2495
20
-42.976775
30
0
11
119.2495
21
-41.935311
31
0
39
0
210
0
220
0
230
1
0
LINE
5
137
100
AcDbEntity
8
1
62
256
6
ByLayer
370
13
48
1
60
0
100
AcDbLine
10
119.2495
20
-16.064689
30
0
11
119.2495
21
-15.023225
31
0
39
0
210
0
220
0
230
1
0
LINE
5
138
100
AcDbEntity
8
1
62
256
6
ByLayer
370
13
48
1
60
0
100
AcDbLine
10
118.6055
20
-13.240854
30
0
11
118.6055
21
-13.466693
31
0
39
0
210
0
220
0
230
1
0
LINE
5
139
100
AcDbEntity
8
1
62
256
6
ByLayer
370
13
48
1
60
0
100
AcDbLine
10
118.6055
20
-44.533307
30
0
11
118.6055
21
-44.759146
31
0
39
0
210
0
220
0
230
1
0
LINE
5
13A
100
AcDbEntity
8
1
62
256
6
ByLayer
370
13
48
1
60
0
100
AcDbLine
10
119.2495
20
-14.608026
30
0
11
119.2495
21
-13.767038
31
0
39
0
210
0
220
0
230
1
0
LINE
5
13B
100
AcDbEntity
8
1
62
256
6
ByLayer
370
13
48
1
60
0
100
AcDbLine
10
119.2495
20
-44.232962
30
0
11
119.2495
21
-43.391974
31
0
39
0
210
0
220
0
230
1
0
LINE
5
13C
100
AcDbEntity
8
1
62
256
6
ByLayer
370
13
48
1
60
0
100
AcDbLine
10
118.6055
20
-12.217301
30
0
11
118.6055
21
-12.402554
31
0
39
0
210
0
220
0
230
1
0
LINE
5
13D
100
AcDbEntity
8
1
62
256
6
ByLayer
370
13
48
1
60
0
100
AcDbLine
10
118.6055
20
-45.597446
30
0
11
118.6055
21
-45.782699
31
0
39
0
210
0
220
0
230
1
0
LINE
5
13E
100
AcDbEntity
8
1
62
256
6
ByLayer
370
13
48
1
60
0
100
AcDbLine
10
119.2495
20
-45.255338
30
0
11
119.2495
21
-44.570347
31
0
39
0
210
0
220
0
230
1
0
LINE
5
13F
100
AcDbEntity
8
1
62
256
6
ByLayer
370
13
48
1
60
0
100
AcDbLine
10
119.2495
20
-13.429653
30
0
11
119.2495
21
-12.744662
31
0
39
0
210
0
220
0
230
1
0
LINE
5
140
100
AcDbEntity
8
1
62
256
6
ByLayer
370
18
48
1
60
0
100
AcDbLine
10
119.3245
20
-15.005347
30
0
11
119.3245
21
-16.318986
31
0
39
0
210
0
220
0
230
1
0
LINE
5
141
100
AcDbEntity
8
1
62
256
6
ByLayer
370
13
48
1
60
0
100
AcDbLine
10
118.6055
20
-11.379917
30
0
11
118.6055
21
-11.531008
31
0
39
0
210
0
220
0
230
1
0
LINE
5
142
100
AcDbEntity
8
1
62
256
6
ByLayer
370
13
48
1
60
0
100
AcDbLine
10
118.6055
20
-46.468992
30
0
11
118.6055
21
-46.620083
31
0
39
0
210
0
220
0
230
1
0
LINE
5
143
100
AcDbEntity
8
1
62
256
6
ByLayer
370
13
48
1
60
0
100
AcDbLine
10
119.2495
20
-12.469951
30
0
11
119.2495
21
-11.914073
31
0
39
0
210
0
220
0
230
1
0
LINE
5
144
100
AcDbEntity
8
1
62
256
6
ByLayer
370
13
48
1
60
0
100
AcDbLine
10
119.2495
20
-46.085927
30
0
11
119.2495
21
-45.530049
31
0
39
0
210
0
220
0
230
1
0
LINE
5
145
100
AcDbEntity
8
1
62
256
6
ByLayer
370
18
48
1
60
0
100
AcDbLine
10
119.3245
20
-41.681014
30
0
11
119.3245
21
-42.994653
31
0
39
0
210
0
220
0
230
1
0
LINE
5
146
100
AcDbEntity
8
1
62
256
6
ByLayer
370
18
48
1
60
0
100
AcDbLine
10
119.3245
20
-43.177621
30
0
11
119.3245
21
-44.236583
31
0
39
0
210
0
220
0
230
1
0
LINE
5
147
100
AcDbEntity
8
1
62
256
6
ByLayer
370
13
48
1
60
0
100
AcDbLine
10
118.6055
20
-47.175685
30
0
11
118.6055
21
-47.296875
31
0
39
0
210
0
220
0
230
1
0
LINE
5
148
100
AcDbEntity
8
1
62
256
6
ByLayer
370
13
48
1
60
0
100
AcDbLine
10
118.6055
20
-10.703125
30
0
11
118.6055
21
-10.824315
31
0
39
0
210
0
220
0
230
1
0
LINE
5
149
100
AcDbEntity
8
1
62
256
6
ByLayer
370
13
48
1
60
0
100
AcDbLine
10
119.2495
20
-11.69254
30
0
11
119.2495
21
-11.24833
31
0
39
0
210
0
220
0
230
1
0
LINE
5
14A
100
AcDbEntity
8
1
62
256
6
ByLayer
370
13
48
1
60
0
100
AcDbLine
10
119.2495
20
-46.75167
30
0
11
119.2495
21
-46.30746
31
0
39
0
210
0
220
0
230
1
0
LINE
5
14B
100
AcDbEntity
8
1
62
256
6
ByLayer
370
18
48
1
60
0
100
AcDbLine
10
119.3245
20
-12.753257
30
0
11
119.3245
21
-13.614928
31
0
39
0
210
0
220
0
230
1
0
LINE
5
14C
100
AcDbEntity
8
1
62
256
6
ByLayer
370
18
48
1
60
0
100
AcDbLine
10
119.3245
20
-13.763417
30
0
11
119.3245
21
-14.822379
31
0
39
0
210
0
220
0
230
1
0
LINE
5
14D
100
AcDbEntity
8
1
62
256
6
ByLayer
370
13
48
1
60
0
100
AcDbLine
10
118.6055
20
-10.1696
30
0
11
118.6055
21
-10.263733
31
0
39
0
210
0
220
0
230
1
0
LINE
5
14E
100
AcDbEntity
8
1
62
256
6
ByLayer
370
13
48
1
60
0
100
AcDbLine
10
118.6055
20
-47.736267
30
0
11
118.6055
21
-47.8304
31
0
39
0
210
0
220
0
230
1
0
LINE
5
14F
100
AcDbEntity
8
1
62
256
6
ByLayer
370
13
48
1
60
0
100
AcDbLine
10
119.2495
20
-47.270596
30
0
11
119.2495
21
-46.926445
31
0
39
0
210
0
220
0
230
1
0
LINE
5
150
100
AcDbEntity
8
1
62
256
6
ByLayer
370
13
48
1
60
0
100
AcDbLine
10
119.2495
20
-11.073555
30
0
11
119.2495
21
-10.729404
31
0
39
0
210
0
220
0
230
1
0
LINE
5
151
100
AcDbEntity
8
1
62
256
6
ByLayer
370
18
48
1
60
0
100
AcDbLine
10
119.3245
20
-44.385072
30
0
11
119.3245
21
-45.246743
31
0
39
0
210
0
220
0
230
1
0
LINE
5
152
100
AcDbEntity
8
1
62
256
6
ByLayer
370
18
48
1
60
0
100
AcDbLine
10
119.3245
20
-11.933664
30
0
11
119.3245
21
-12.632443
31
0
39
0
210
0
220
0
230
1
0
LINE
5
153
100
AcDbEntity
8
1
62
256
6
ByLayer
370
13
48
1
60
0
100
AcDbLine
10
118.6055
20
-9.767416
30
0
11
118.6055
21
-9.836572
31
0
39
0
210
0
220
0
230
1
0
LINE
5
154
100
AcDbEntity
8
1
62
256
6
ByLayer
370
13
48
1
60
0
100
AcDbLine
10
118.6055
20
-48.163428
30
0
11
118.6055
21
-48.232584
31
0
39
0
210
0
220
0
230
1
0
LINE
5
155
100
AcDbEntity
8
1
62
256
6
ByLayer
370
13
48
1
60
0
100
AcDbLine
10
119.2495
20
-10.597302
30
0
11
119.2495
21
-10.345039
31
0
39
0
210
0
220
0
230
1
0
LINE
5
156
100
AcDbEntity
8
1
62
256
6
ByLayer
370
13
48
1
60
0
100
AcDbLine
10
119.2495
20
-47.654961
30
0
11
119.2495
21
-47.402698
31
0
39
0
210
0
220
0
230
1
0
LINE
5
157
100
AcDbEntity
8
1
62
256
6
ByLayer
370
18
48
1
60
0
100
AcDbLine
10
119.3245
20
-45.367557
30
0
11
119.3245
21
-46.066336
31
0
39
0
210
0
220
0
230
1
0
LINE
5
158
100
AcDbEntity
8
1
62
256
6
ByLayer
370
18
48
1
60
0
100
AcDbLine
10
119.3245
20
-46.163684
30
0
11
119.3245
21
-46.721823
31
0
39
0
210
0
220
0
230
1
0
LINE
5
159
100
AcDbEntity
8
1
62
256
6
ByLayer
370
13
48
1
60
0
100
AcDbLine
10
118.6055
20
-9.488449
30
0
11
118.6055
21
-9.533892
31
0
39
0
210
0
220
0
230
1
0
LINE
5
15A
100
AcDbEntity
8
1
62
256
6
ByLayer
370
13
48
1
60
0
100
AcDbLine
10
118.6055
20
-48.466108
30
0
11
118.6055
21
-48.511551
31
0
39
0
210
0
220
0
230
1
0
LINE
5
15B
100
AcDbEntity
8
1
62
256
6
ByLayer
370
13
48
1
60
0
100
AcDbLine
10
119.2495
20
-47.91297
30
0
11
119.2495
21
-47.747456
31
0
39
0
210
0
220
0
230
1
0
LINE
5
15C
100
AcDbEntity
8
1
62
256
6
ByLayer
370
13
48
1
60
0
100
AcDbLine
10
119.2495
20
-10.252544
30
0
11
119.2495
21
-10.08703
31
0
39
0
210
0
220
0
230
1
0
LINE
5
15D
100
AcDbEntity
8
1
62
256
6
ByLayer
370
18
48
1
60
0
100
AcDbLine
10
119.3245
20
-46.798581
30
0
11
119.3245
21
-47.230913
31
0
39
0
210
0
220
0
230
1
0
LINE
5
15E
100
AcDbEntity
8
1
62
256
6
ByLayer
370
18
48
1
60
0
100
AcDbLine
10
119.3245
20
-11.278177
30
0
11
119.3245
21
-11.836316
31
0
39
0
210
0
220
0
230
1
0
LINE
5
15F
100
AcDbEntity
8
1
62
256
6
ByLayer
370
13
48
1
60
0
100
AcDbLine
10
118.6055
20
-48.649908
30
0
11
118.6055
21
-48.672543
31
0
39
0
210
0
220
0
230
1
0
LINE
5
160
100
AcDbEntity
8
1
62
256
6
ByLayer
370
13
48
1
60
0
100
AcDbLine
10
118.6055
20
-9.327457
30
0
11
118.6055
21
-9.350092
31
0
39
0
210
0
220
0
230
1
0
LINE
5
161
100
AcDbEntity
8
1
62
256
6
ByLayer
370
13
48
1
60
0
100
AcDbLine
10
119.2495
20
-10.032173
30
0
11
119.2495
21
-9.95024
31
0
39
0
210
0
220
0
230
1
0
LINE
5
162
100
AcDbEntity
8
1
62
256
6
ByLayer
370
13
48
1
60
0
100
AcDbLine
10
119.2495
20
-48.04976
30
0
11
119.2495
21
-47.967827
31
0
39
0
210
0
220
0
230
1
0
LINE
5
163
100
AcDbEntity
8
1
62
256
6
ByLayer
370
18
48
1
60
0
100
AcDbLine
10
119.3245
20
-47.289015
30
0
11
119.3245
21
-47.605627
31
0
39
0
210
0
220
0
230
1
0
LINE
5
164
100
AcDbEntity
8
1
62
256
6
ByLayer
370
13
48
1
60
0
100
AcDbLine
10
128.9255
20
-33.899495
30
0
11
128.9255
21
-43.899495
31
0
39
0
210
0
220
0
230
1
0
LINE
5
165
100
AcDbEntity
8
1
62
256
6
ByLayer
370
18
48
1
60
0
100
AcDbLine
10
123.6755
20
-43.899495
30
0
11
123.6755
21
-33.899495
31
0
39
0
210
0
220
0
230
1
0
LINE
5
166
100
AcDbEntity
8
1
62
256
6
ByLayer
370
13
48
1
60
0
100
AcDbLine
10
123.4255
20
-35.899495
30
0
11
123.4255
21
-41.899495
31
0
39
0
210
0
220
0
230
1
0
LINE
5
167
100
AcDbEntity
8
1
62
256
6
ByLayer
370
18
48
1
60
0
100
AcDbLine
10
129.5255
20
-14.700505
30
0
11
129.5255
21
-23.500505
31
0
39
0
210
0
220
0
230
1
0
LINE
5
168
100
AcDbEntity
8
1
62
256
6
ByLayer
370
18
48
1
60
0
100
AcDbLine
10
129.5255
20
-43.299495
30
0
11
129.5255
21
-34.499495
31
0
39
0
210
0
220
0
230
1
0
LINE
5
169
100
AcDbEntity
8
1
62
256
6
ByLayer
370
13
48
1
60
0
100
AcDbLine
10
128.9255
20
-14.100505
30
0
11
128.9255
21
-24.100505
31
0
39
0
210
0
220
0
230
1
0
LINE
5
16A
100
AcDbEntity
8
1
62
256
6
ByLayer
370
18
48
1
60
0
100
AcDbLine
10
123.6755
20
-14.100505
30
0
11
123.6755
21
-24.100505
31
0
39
0
210
0
220
0
230
1
0
LINE
5
16B
100
AcDbEntity
8
1
62
256
6
ByLayer
370
13
48
1
60
0
100
AcDbLine
10
123.4255
20
-16.100505
30
0
11
123.4255
21
-22.100505
31
0
39
0
210
0
220
0
230
1
0
MTEXT
5
254
100
AcDbEntity
8
SK6
62
256
6
ByLayer
370
18
48
1
60
0
100
AcDbMText
10
0.875
20
-59.874866
30
0
210
0
220
0
230
1
1
\W0.7566;VDI50-50-SL40L 119
40
3.5
41
0
44
1.084337
50
0
71
7
72
5
7
iso_b_vert
0
DIMENSION
5
261
100
AcDbEntity
8
SK2
62
256
6
ByLayer
370
13
48
1
60
0
100
AcDbDimension
2
DimnDraft3D1
10
119
20
55.600025
30
0
11
69.892801
21
55.600025
31
0
70
32
71
5
72
1
41
1
210
0
220
0
230
1
3
Standard
100
AcDbAlignedDimension
13
29
23
2.5875
33
0
14
119
24
-7.4125
34
0
50
0
100
AcDbRotatedDimension
1001
ACAD
1000
DSTYLE
1002
{
1070
   279
1070
     0
1070
   172
1070
     1
1070
   173
1070
     1
1070
   340
1005
255
1070
   271
1070
     2
1070
   272
1070
     2
1070
    77
1070
     1
1070
    73
1070
     0
1070
   171
1070
     3
1070
   274
1070
     4
1070
   177
1070
     2
1070
   176
1070
     2
1070
   178
1070
     2
1070
    78
1070
     8
1070
    48
1040
-0.005
1070
    41
1041
3.5
1070
   147
1041
1.75
1070
    42
1041
1.5875
1070
    44
1041
2.0
1070
   140
1041
3.5
1070
   343
1005
0
1070
   344
1005
0
1002
}
0
DIMENSION
5
26B
100
AcDbEntity
8
SK2
62
256
6
ByLayer
370
13
48
1
60
0
100
AcDbDimension
2
DimnDraft3D2
10
139.888211
20
0
30
0
11
139.888211
21
-18.607199
31
0
70
32
71
5
72
1
41
1
210
0
220
0
230
1
3
Standard
100
AcDbAlignedDimension
13
120.5875
23
-29
33
0
14
120.5875
24
0
34
0
50
90
100
AcDbRotatedDimension
1001
ACAD
1000
DSTYLE
1002
{
1070
    74
1070
     0
1070
   279
1070
     0
1070
   172
1070
     1
1070
   173
1070
     1
1070
   340
1005
255
1070
   271
1070
     2
1070
   272
1070
     2
1070
    77
1070
     1
1070
    73
1070
     0
1070
   171
1070
     3
1070
   274
1070
     4
1070
   177
1070
     2
1070
   176
1070
     2
1070
   178
1070
     2
1070
    78
1070
     8
1070
    48
1040
-0.005
1070
    41
1041
3.5
1070
   147
1041
1.75
1070
    42
1041
1.5875
1070
    44
1041
2.0
1070
   140
1041
3.5
1070
   343
1005
0
1070
   344
1005
0
1002
}
0
DIMENSION
5
276
100
AcDbEntity
8
2
62
256
6
ByLayer
370
13
48
1
60
0
100
AcDbDimension
2
DimnDraft3D3
10
119
20
65.600025
30
0
11
54.959934
21
65.600025
31
0
70
32
71
5
72
1
41
1
210
0
220
0
230
1
3
Standard
100
AcDbAlignedDimension
13
0
23
50.5875
33
0
14
119
24
-7.4125
34
0
50
0
100
AcDbRotatedDimension
1001
ACAD
1000
DSTYLE
1002
{
1070
   279
1070
     0
1070
   172
1070
     1
1070
   173
1070
     1
1070
   340
1005
255
1070
   271
1070
     2
1070
   272
1070
     2
1070
    77
1070
     1
1070
    73
1070
     0
1070
   171
1070
     3
1070
   274
1070
     4
1070
   177
1070
     2
1070
   176
1070
     2
1070
   178
1070
     2
1070
    78
1070
     8
1070
    48
1040
-0.005
1070
    41
1041
3.5
1070
   147
1041
1.75
1070
    42
1041
1.5875
1070
    44
1041
2.0
1070
   140
1041
3.5
1070
   343
1005
0
1070
   344
1005
0
1002
}
0
DIMENSION
5
281
100
AcDbEntity
8
SK2
62
256
6
ByLayer
370
13
48
1
60
0
100
AcDbDimension
2
DimnDraft3D4
10
-96.6
20
-49
30
0
11
-97.225
21
2.284534
31
0
70
33
71
5
72
1
41
1
210
0
220
0
230
1
3
Standard
100
AcDbAlignedDimension
13
-1.5875
23
49
33
0
14
-1.5875
24
-49
34
0
1001
ACAD
1000
DSTYLE
1002
{
1070
   279
1070
     0
1070
    74
1070
     0
1070
   173
1070
     1
1070
   340
1005
255
1070
   271
1070
     2
1070
   272
1070
     2
1070
    77
1070
     1
1070
    73
1070
     0
1070
   171
1070
     3
1070
   274
1070
     4
1070
   177
1070
     2
1070
   176
1070
     2
1070
   178
1070
     2
1070
    78
1070
     8
1070
    48
1040
-0.005
1070
    41
1041
3.5
1070
   147
1041
1.75
1070
    42
1041
1.5875
1070
    44
1041
2.0
1070
   140
1041
3.5
1070
   343
1005
0
1070
   344
1005
0
1002
}
0
DIMENSION
5
28C
100
AcDbEntity
8
SK2
62
256
6
ByLayer
370
13
48
1
60
0
100
AcDbDimension
2
DimnDraft3D5
10
151.888211
20
-49
30
0
11
147.263211
21
-26.899733
31
0
70
33
71
5
72
1
41
1
210
0
220
0
230
1
3
Standard
100
AcDbAlignedDimension
13
120.5875
23
-9
33
0
14
120.5875
24
-49
34
0
1001
ACAD
1000
DSTYLE
1002
{
1070
   279
1070
     0
1070
    74
1070
     0
1070
   173
1070
     1
1070
   340
1005
255
1070
   271
1070
     2
1070
   272
1070
     2
1070
    77
1070
     1
1070
    73
1070
     0
1070
   171
1070
     3
1070
   274
1070
     4
1070
   177
1070
     2
1070
   176
1070
     2
1070
   178
1070
     2
1070
    78
1070
     8
1070
    48
1040
-0.005
1070
    41
1041
3.5
1070
   147
1041
1.75
1070
    42
1041
1.5875
1070
    44
1041
2.0
1070
   140
1041
3.5
1070
   343
1005
0
1070
   344
1005
0
1002
}
0
DIMENSION
5
297
100
AcDbEntity
8
SK2
62
256
6
ByLayer
370
13
48
1
60
0
100
AcDbDimension
2
DimnDraft3D6
10
161.888211
20
1
30
0
11
157.263211
21
-21.715466
31
0
70
33
71
5
72
1
41
1
210
0
220
0
230
1
3
Standard
100
AcDbAlignedDimension
13
120.5875
23
-49
33
0
14
113.708008
24
1
34
0
1001
ACAD
1000
DSTYLE
1002
{
1070
   279
1070
     0
1070
    74
1070
     0
1070
   173
1070
     1
1070
   340
1005
255
1070
   271
1070
     2
1070
   272
1070
     2
1070
    77
1070
     1
1070
    73
1070
     0
1070
   171
1070
     3
1070
   274
1070
     4
1070
   177
1070
     2
1070
   176
1070
     2
1070
   178
1070
     2
1070
    78
1070
     8
1070
    48
1040
-0.005
1070
    41
1041
3.5
1070
   147
1041
1.75
1070
    42
1041
1.5875
1070
    44
1041
2.0
1070
   140
1041
3.5
1070
   343
1005
0
1070
   344
1005
0
1002
}
0
ENDSEC
0
SECTION
2
OBJECTS
0
DICTIONARY
5
302
330
0
100
AcDbDictionary
280
0
281
1
3
ACAD_GROUP
350
303
3
ACAD_MLINESTYLE
350
304
0
DICTIONARY
5
303
330
0
100
AcDbDictionary
280
0
281
1
0
DICTIONARY
5
304
330
0
100
AcDbDictionary
280
0
281
1
3
Standard
350
18
0
MLINESTYLE
5
18
330
304
100
AcDbMlineStyle
2
Standard
70
0
3

62
256
51
90
52
90
71
2
49
-0.5
62
256
6
ByLayer
49
0.5
62
256
6
ByLayer
0
RASTERVARIABLES
5
2f0
330

100
AcDbRasterVariables
90
0
70
1
71
1
72
1
0
ENDSEC
0
EOF
