0
SECTION
2
HEADER
9
$ACADVER
1
AC1015
9
$DWGCODEPAGE
3
ANSI_1252
9
$HANDSEED
5
299
9
$ANGBASE
50
0
9
$ANGDIR
70
0
9
$ATTMODE
70
1
9
$AUNITS
70
0
9
$AUPREC
70
0
9
$CECOLOR
62
256
9
$CELTSCALE
40
1
9
$CELTYPE
6
ByLayer
9
$CELWEIGHT
370
18
9
$CLAYER
8
0
9
$CMLJUST
70
0
9
$CMLSCALE
40
1
9
$CMLSTYLE
2
Standard
9
$DIMSTYLE
2
Standard
9
$TEXTSIZE
40
0.2
9
$TEXTSTYLE
7
Standard
9
$LUNITS
70
2
9
$LUPREC
70
4
9
$EXTNAMES
290
1
9
$INSUNITS
70
4
9
$LTSCALE
40
1
9
$LWDISPLAY
290
1
9
$PDMODE
70
0
9
$PDSIZE
40
0
9
$PLINEGEN
70
0
0
ENDSEC
0
SECTION
2
CLASSES
0
CLASS
1
RASTERVARIABLES
2
AcDbRasterVariables
3
ISM
90
0
280
0
281
0
0
ENDSEC
0
SECTION
2
TABLES
0
TABLE
2
VPORT
5
28f
100
AcDbSymbolTable
0
VPORT
5
1
100
AcDbSymbolTableRecord
100
AcDbViewportTableRecord
2
*Active
70
0
10
0
20
0
11
1
21
1
12
-1
22
1
13
0
23
0
14
0.5
24
0.5
15
10
25
10
16
0
26
0
36
1
17
0
27
0
37
0
0
ENDTAB
0
TABLE
2
LTYPE
5
290
100
AcDbSymbolTable
0
LTYPE
5
14
100
AcDbSymbolTableRecord
100
AcDbLinetypeTableRecord
70
0
2
ByBlock
3

72
65
73
0
40
0
0
LTYPE
5
15
100
AcDbSymbolTableRecord
100
AcDbLinetypeTableRecord
70
0
2
ByLayer
3

72
65
73
0
40
0
0
LTYPE
5
16
100
AcDbSymbolTableRecord
100
AcDbLinetypeTableRecord
70
0
2
CONTINUOUS
3
Solid line
72
65
73
0
40
0
0
LTYPE
5
6A
100
AcDbSymbolTableRecord
100
AcDbLinetypeTableRecord
70
0
2
CENTER
3
____ _ ____ _ ____ _ ____
72
65
73
4
40
47.5
49
22
74
0
49
-8.5
74
0
49
8.5
74
0
49
-8.5
74
0
0
LTYPE
5
6B
100
AcDbSymbolTableRecord
100
AcDbLinetypeTableRecord
70
0
2
DASHED
3
__ __ __ __ __ __ __ __ __
72
65
73
2
40
25.72
49
12.86
74
0
49
-12.86
74
0
0
ENDTAB
0
TABLE
2
LAYER
5
291
100
AcDbSymbolTable
0
LAYER
5
10
100
AcDbSymbolTableRecord
100
AcDbLayerTableRecord
2
0
70
0
62
7
6
CONTINUOUS
290
1
370
-3
390
0
0
LAYER
5
6D
100
AcDbSymbolTableRecord
100
AcDbLayerTableRecord
2
80
70
0
62
-6
6
CONTINUOUS
290
1
370
-3
390
0
0
LAYER
5
6F
100
AcDbSymbolTableRecord
100
AcDbLayerTableRecord
2
81
70
0
62
-3
6
CONTINUOUS
290
1
370
-3
390
0
0
LAYER
5
76
100
AcDbSymbolTableRecord
100
AcDbLayerTableRecord
2
1
70
0
62
4
6
CONTINUOUS
290
1
370
-3
390
0
0
LAYER
5
96
100
AcDbSymbolTableRecord
100
AcDbLayerTableRecord
2
4
70
0
62
-2
6
CENTER
290
1
370
-3
390
0
0
LAYER
5
203
100
AcDbSymbolTableRecord
100
AcDbLayerTableRecord
2
2
70
0
62
7
6
CONTINUOUS
290
1
370
-3
390
0
0
LAYER
5
27b
100
AcDbSymbolTableRecord
100
AcDbLayerTableRecord
2
SK2
70
0
62
7
6
CONTINUOUS
290
1
370
-3
390
0
0
LAYER
5
27c
100
AcDbSymbolTableRecord
100
AcDbLayerTableRecord
2
SK1
70
0
62
4
6
CONTINUOUS
290
1
370
-3
390
0
0
LAYER
5
27d
100
AcDbSymbolTableRecord
100
AcDbLayerTableRecord
2
SK4
70
0
62
2
6
CENTER
290
1
370
-3
390
0
0
LAYER
5
27e
100
AcDbSymbolTableRecord
100
AcDbLayerTableRecord
2
SK6
70
0
62
5
6
CONTINUOUS
290
1
370
-3
390
0
0
ENDTAB
0
TABLE
2
STYLE
5
292
100
AcDbSymbolTable
0
STYLE
5
11
100
AcDbSymbolTableRecord
100
AcDbTextStyleTableRecord
2
Standard
3
txt
70
0
71
0
40
0
41
1
42
0
50
0
0
STYLE
5
1F4
100
AcDbSymbolTableRecord
100
AcDbTextStyleTableRecord
2
iso_b_vert
3
simplex.shx
70
0
71
0
40
0
41
1
42
0
50
0
0
STYLE
5
1F5
100
AcDbSymbolTableRecord
100
AcDbTextStyleTableRecord
2
DWGDirectTextStyle
3
simplex
70
0
71
0
40
0
41
1
42
0
50
0
0
ENDTAB
0
TABLE
2
DIMSTYLE
5
293
100
AcDbSymbolTable
100
AcDbDimStyleTable
0
DIMSTYLE
105
27
100
AcDbSymbolTableRecord
100
AcDbDimStyleTableRecord
2
Standard
70
0
3
<>
41
0.18
42
0.0625
44
0.18
140
0.18
147
0.09
73
0
74
0
77
1
271
2
275
0
278
52
280
0
340
11
0
ENDTAB
0
TABLE
2
VIEW
5
294
100
AcDbSymbolTable
0
ENDTAB
0
TABLE
2
UCS
5
295
100
AcDbSymbolTable
0
ENDTAB
0
TABLE
2
APPID
5
296
100
AcDbSymbolTable
0
APPID
5
12
100
AcDbSymbolTableRecord
100
AcDbRegAppTableRecord
2
ACAD
70
0
0
ENDTAB
0
TABLE
2
BLOCK_RECORD
5
297
100
AcDbSymbolTable
0
BLOCK_RECORD
5
1F
100
AcDbSymbolTableRecord
100
AcDbBlockTableRecord
2
*Model_Space
340
0
70
0
0
BLOCK_RECORD
5
1B
100
AcDbSymbolTableRecord
100
AcDbBlockTableRecord
2
*Paper_Space
340
0
70
0
0
BLOCK_RECORD
5
23
100
AcDbSymbolTableRecord
100
AcDbBlockTableRecord
2
*Paper_Space0
340
0
70
0
0
BLOCK_RECORD
5
1F7
100
AcDbSymbolTableRecord
100
AcDbBlockTableRecord
2
DimnDraft3D1
340
0
70
0
0
BLOCK_RECORD
5
201
100
AcDbSymbolTableRecord
100
AcDbBlockTableRecord
2
DimnDraft3D2
340
0
70
0
0
BLOCK_RECORD
5
20C
100
AcDbSymbolTableRecord
100
AcDbBlockTableRecord
2
DimnDraft3D3
340
0
70
0
0
BLOCK_RECORD
5
217
100
AcDbSymbolTableRecord
100
AcDbBlockTableRecord
2
DimnDraft3D4
340
0
70
0
0
ENDTAB
0
ENDSEC
0
SECTION
2
BLOCKS
0
BLOCK
5
20
100
AcDbEntity
8
0
100
AcDbBlockBegin
2
*Model_Space
70
0
10
0
20
0
30
0
3
*Model_Space
0
ENDBLK
5
21
100
AcDbEntity
8
0
100
AcDbBlockEnd
0
BLOCK
5
1C
100
AcDbEntity
8
0
100
AcDbBlockBegin
2
*Paper_Space
70
0
10
0
20
0
30
0
3
*Paper_Space
0
ENDBLK
5
1D
100
AcDbEntity
8
0
100
AcDbBlockEnd
0
BLOCK
5
24
100
AcDbEntity
8
0
100
AcDbBlockBegin
2
*Paper_Space0
70
0
10
0
20
0
30
0
3
*Paper_Space0
0
ENDBLK
5
25
100
AcDbEntity
8
0
100
AcDbBlockEnd
0
BLOCK
5
1FE
100
AcDbEntity
8
0
100
AcDbBlockBegin
2
DimnDraft3D1
70
0
10
0
20
0
30
0
3
DimnDraft3D1
0
MTEXT
5
1F8
100
AcDbEntity
8
SK2
62
256
6
ByLayer
370
18
48
1
60
0
100
AcDbMText
10
66.767801
20
-40.694866
30
0
210
0
220
0
230
1
1
\W0.7346;80.0
40
3.5
41
0
44
1.084337
50
0
71
7
72
5
7
iso_b_vert
0
LINE
5
1F9
100
AcDbEntity
8
SK2
62
256
6
ByLayer
370
13
48
1
60
0
100
AcDbLine
10
30
20
-21.5875
30
0
11
30
21
-43.57
31
0
39
0
210
0
220
0
230
1
0
LINE
5
1FA
100
AcDbEntity
8
SK2
62
256
6
ByLayer
370
13
48
1
60
0
100
AcDbLine
10
110
20
-21.5875
30
0
11
110
21
-43.57
31
0
39
0
210
0
220
0
230
1
0
LINE
5
1FB
100
AcDbEntity
8
SK2
62
256
6
ByLayer
370
13
48
1
60
0
100
AcDbLine
10
30
20
-41.57
30
0
11
110
21
-41.57
31
0
39
0
210
0
220
0
230
1
0
SOLID
5
1FC
100
AcDbEntity
8
SK2
62
256
6
ByLayer
370
13
48
1
60
0
100
AcDbTrace
10
30
20
-41.57
30
0
11
33.499998
21
-41.109216
31
0
12
33.500002
22
-42.030784
32
0
13
30
23
-41.57
33
0
39
0
210
0
220
0
230
1
0
SOLID
5
1FD
100
AcDbEntity
8
SK2
62
256
6
ByLayer
370
13
48
1
60
0
100
AcDbTrace
10
110
20
-41.57
30
0
11
106.500002
21
-42.030784
31
0
12
106.499998
22
-41.109216
32
0
13
110
23
-41.57
33
0
39
0
210
0
220
0
230
1
0
ENDBLK
5
1FF
100
AcDbEntity
8
0
100
AcDbBlockEnd
0
BLOCK
5
209
100
AcDbEntity
8
0
100
AcDbBlockBegin
2
DimnDraft3D2
70
0
10
0
20
0
30
0
3
DimnDraft3D2
0
MTEXT
5
202
100
AcDbEntity
8
2
62
256
6
ByLayer
370
18
48
1
60
0
100
AcDbMText
10
51.334934
20
-50.694866
30
0
210
0
220
0
230
1
1
\W0.6261;110.0
40
3.5
41
0
44
1.084337
50
0
71
7
72
5
7
iso_b_vert
0
LINE
5
204
100
AcDbEntity
8
2
62
256
6
ByLayer
370
13
48
1
60
0
100
AcDbLine
10
0
20
-33.0875
30
0
11
0
21
-53.57
31
0
39
0
210
0
220
0
230
1
0
LINE
5
205
100
AcDbEntity
8
2
62
256
6
ByLayer
370
13
48
1
60
0
100
AcDbLine
10
110
20
-21.5875
30
0
11
110
21
-53.57
31
0
39
0
210
0
220
0
230
1
0
LINE
5
206
100
AcDbEntity
8
2
62
256
6
ByLayer
370
13
48
1
60
0
100
AcDbLine
10
0
20
-51.57
30
0
11
110
21
-51.57
31
0
39
0
210
0
220
0
230
1
0
SOLID
5
207
100
AcDbEntity
8
2
62
256
6
ByLayer
370
13
48
1
60
0
100
AcDbTrace
10
0
20
-51.57
30
0
11
3.499998
21
-51.109216
31
0
12
3.500002
22
-52.030784
32
0
13
0
23
-51.57
33
0
39
0
210
0
220
0
230
1
0
SOLID
5
208
100
AcDbEntity
8
2
62
256
6
ByLayer
370
13
48
1
60
0
100
AcDbTrace
10
110
20
-51.57
30
0
11
106.500002
21
-52.030784
31
0
12
106.499998
22
-51.109216
32
0
13
110
23
-51.57
33
0
39
0
210
0
220
0
230
1
0
ENDBLK
5
20A
100
AcDbEntity
8
0
100
AcDbBlockEnd
0
BLOCK
5
214
100
AcDbEntity
8
0
100
AcDbBlockBegin
2
DimnDraft3D3
70
0
10
0
20
0
30
0
3
DimnDraft3D3
0
MTEXT
5
20D
100
AcDbEntity
8
SK2
62
256
6
ByLayer
370
18
48
1
60
0
100
AcDbMText
10
-50.250134
20
3.159534
30
0
210
0
220
0
230
1
1
\W0.6740;63
40
3.5
41
0
44
1.084337
50
90
71
7
72
5
7
iso_b_vert
0
MTEXT
5
20E
100
AcDbEntity
8
SK2
62
256
6
ByLayer
370
18
48
1
60
0
100
AcDbMText
10
-50.250134
20
-3.813122
30
0
210
0
220
0
230
1
1
%%c
40
3.5
41
0
44
1.084337
50
90
71
7
72
5
7
iso_b_vert
0
LINE
5
20F
100
AcDbEntity
8
SK2
62
256
6
ByLayer
370
13
48
1
60
0
100
AcDbLine
10
-1.5875
20
31.5
30
0
11
-50.5
21
31.5
31
0
39
0
210
0
220
0
230
1
0
LINE
5
210
100
AcDbEntity
8
SK2
62
256
6
ByLayer
370
13
48
1
60
0
100
AcDbLine
10
-1.5875
20
-31.5
30
0
11
-50.5
21
-31.5
31
0
39
0
210
0
220
0
230
1
0
LINE
5
211
100
AcDbEntity
8
SK2
62
256
6
ByLayer
370
13
48
1
60
0
100
AcDbLine
10
-48.5
20
31.5
30
0
11
-48.5
21
-31.5
31
0
39
0
210
0
220
0
230
1
0
SOLID
5
212
100
AcDbEntity
8
SK2
62
256
6
ByLayer
370
13
48
1
60
0
100
AcDbTrace
10
-48.5
20
31.5
30
0
11
-48.039216
21
28.000002
31
0
12
-48.960784
22
27.999998
32
0
13
-48.5
23
31.5
33
0
39
0
210
0
220
0
230
1
0
SOLID
5
213
100
AcDbEntity
8
SK2
62
256
6
ByLayer
370
13
48
1
60
0
100
AcDbTrace
10
-48.5
20
-31.5
30
0
11
-48.960784
21
-28.000002
31
0
12
-48.039216
22
-27.999998
32
0
13
-48.5
23
-31.5
33
0
39
0
210
0
220
0
230
1
0
ENDBLK
5
215
100
AcDbEntity
8
0
100
AcDbBlockEnd
0
BLOCK
5
21F
100
AcDbEntity
8
0
100
AcDbBlockBegin
2
DimnDraft3D4
70
0
10
0
20
0
30
0
3
DimnDraft3D4
0
MTEXT
5
218
100
AcDbEntity
8
SK2
62
256
6
ByLayer
370
18
48
1
60
0
100
AcDbMText
10
129.138077
20
2.975267
30
0
210
0
220
0
230
1
1
\W0.7361;40
40
3.5
41
0
44
1.084337
50
90
71
7
72
5
7
iso_b_vert
0
MTEXT
5
219
100
AcDbEntity
8
SK2
62
256
6
ByLayer
370
18
48
1
60
0
100
AcDbMText
10
129.138077
20
-3.997389
30
0
210
0
220
0
230
1
1
%%c
40
3.5
41
0
44
1.084337
50
90
71
7
72
5
7
iso_b_vert
0
LINE
5
21A
100
AcDbEntity
8
SK2
62
256
6
ByLayer
370
13
48
1
60
0
100
AcDbLine
10
111.5875
20
20
30
0
11
132.888211
21
20
31
0
39
0
210
0
220
0
230
1
0
LINE
5
21B
100
AcDbEntity
8
SK2
62
256
6
ByLayer
370
13
48
1
60
0
100
AcDbLine
10
111.5875
20
-20
30
0
11
132.888211
21
-20
31
0
39
0
210
0
220
0
230
1
0
LINE
5
21C
100
AcDbEntity
8
SK2
62
256
6
ByLayer
370
13
48
1
60
0
100
AcDbLine
10
130.888211
20
20
30
0
11
130.888211
21
-20
31
0
39
0
210
0
220
0
230
1
0
SOLID
5
21D
100
AcDbEntity
8
SK2
62
256
6
ByLayer
370
13
48
1
60
0
100
AcDbTrace
10
130.888211
20
20
30
0
11
131.348994
21
16.500002
31
0
12
130.427427
22
16.499998
32
0
13
130.888211
23
20
33
0
39
0
210
0
220
0
230
1
0
SOLID
5
21E
100
AcDbEntity
8
SK2
62
256
6
ByLayer
370
13
48
1
60
0
100
AcDbTrace
10
130.888211
20
-20
30
0
11
130.427427
21
-16.500002
31
0
12
131.348994
22
-16.499998
32
0
13
130.888211
23
-20
33
0
39
0
210
0
220
0
230
1
0
ENDBLK
5
220
100
AcDbEntity
8
0
100
AcDbBlockEnd
0
ENDSEC
0
SECTION
2
ENTITIES
0
ARC
5
138
100
AcDbEntity
8
1
62
256
6
ByLayer
370
18
48
1
60
0
100
AcDbCircle
39
0
10
119.9255
20
14.299495
30
0
40
0.6
210
0
220
0
230
1
100
AcDbArc
50
0
51
90
0
ARC
5
139
100
AcDbEntity
8
SK1
62
256
6
ByLayer
370
18
48
1
60
0
100
AcDbCircle
39
0
10
27.2
20
22.245
30
0
40
1.4
210
0
220
0
230
-1
100
AcDbArc
50
235.090178
51
270
0
ARC
5
13A
100
AcDbEntity
8
SK1
62
256
6
ByLayer
370
18
48
1
60
0
100
AcDbCircle
39
0
10
23.2
20
-22.245
30
0
40
1.4
210
0
220
0
230
-1
100
AcDbArc
50
90
51
140.287451
0
ARC
5
13B
100
AcDbEntity
8
1
62
256
6
ByLayer
370
18
48
1
60
0
100
AcDbCircle
39
0
10
119.9255
20
5.499495
30
0
40
0.6
210
0
220
0
230
1
100
AcDbArc
50
270
51
0
0
ARC
5
13C
100
AcDbEntity
8
1
62
256
6
ByLayer
370
18
48
1
60
0
100
AcDbCircle
39
0
10
-114.4255
20
13.149495
30
0
40
0.25
210
0
220
0
230
-1
100
AcDbArc
50
180
51
270
0
ARC
5
13D
100
AcDbEntity
8
1
62
256
6
ByLayer
370
18
48
1
60
0
100
AcDbCircle
39
0
10
119.9255
20
-5.499495
30
0
40
0.6
210
0
220
0
230
1
100
AcDbArc
50
0
51
90
0
ARC
5
13E
100
AcDbEntity
8
1
62
256
6
ByLayer
370
18
48
1
60
0
100
AcDbCircle
39
0
10
119.9255
20
-14.299495
30
0
40
0.6
210
0
220
0
230
1
100
AcDbArc
50
270
51
0
0
ARC
5
13F
100
AcDbEntity
8
1
62
256
6
ByLayer
370
18
48
1
60
0
100
AcDbCircle
39
0
10
-114.4255
20
-6.649495
30
0
40
0.25
210
0
220
0
230
-1
100
AcDbArc
50
180
51
270
0
ARC
5
140
100
AcDbEntity
8
1
62
256
6
ByLayer
370
18
48
1
60
0
100
AcDbCircle
39
0
10
-114.4255
20
6.649495
30
0
40
0.25
210
0
220
0
230
-1
100
AcDbArc
50
90
51
180
0
ARC
5
141
100
AcDbEntity
8
1
62
256
6
ByLayer
370
18
48
1
60
0
100
AcDbCircle
39
0
10
-114.4255
20
-13.149495
30
0
40
0.25
210
0
220
0
230
-1
100
AcDbArc
50
90
51
180
0
ARC
5
142
100
AcDbEntity
8
SK1
62
256
6
ByLayer
370
18
48
1
60
0
100
AcDbCircle
39
0
10
0.493464
20
24.570431
30
0
40
0.600000000000001
210
0
220
0
230
-1
100
AcDbArc
50
214.670223
51
270
0
ARC
5
143
100
AcDbEntity
8
SK1
62
256
6
ByLayer
370
18
48
1
60
0
100
AcDbCircle
39
0
10
0.493464
20
-24.570431
30
0
40
0.600000000000001
210
0
220
0
230
-1
100
AcDbArc
50
90
51
145.329777
0
ARC
5
144
100
AcDbEntity
8
1
62
256
6
ByLayer
370
18
48
1
60
0
100
AcDbCircle
39
0
10
-29.95
20
-24
30
0
40
4
210
0
220
0
230
-1
100
AcDbArc
50
0
51
90
0
ARC
5
145
100
AcDbEntity
8
1
62
256
6
ByLayer
370
18
48
1
60
0
100
AcDbCircle
39
0
10
-29.95
20
24
30
0
40
4
210
0
220
0
230
-1
100
AcDbArc
50
270
51
0
0
ELLIPSE
5
146
100
AcDbEntity
8
SK1
62
256
6
ByLayer
370
13
48
1
60
0
100
AcDbEllipse
10
-23.2
20
-21.778508
30
0
11
-1.4
21
1.71444889535133E-16
31
0
210
0
220
0
230
1
40
0.891007
41
-2.07355898834546
42
-1.5707963267949
0
POINT
5
6C
100
AcDbEntity
8
80
62
256
6
ByLayer
370
18
48
1
60
0
100
AcDbPoint
10
0
20
0
30
0
39
0
210
0
220
0
230
1
50
360
0
POINT
5
6E
100
AcDbEntity
8
81
62
256
6
ByLayer
370
18
48
1
60
0
100
AcDbPoint
10
110
20
0
30
0
39
0
210
0
220
0
230
1
50
360
0
POINT
5
70
100
AcDbEntity
8
SK2
62
256
6
ByLayer
370
18
48
1
60
1
100
AcDbPoint
10
0
20
31.5
30
0
39
0
210
0
220
0
230
1
50
360
0
POINT
5
72
100
AcDbEntity
8
SK2
62
256
6
ByLayer
370
18
48
1
60
1
100
AcDbPoint
10
0
20
-31.5
30
0
39
0
210
0
220
0
230
1
50
360
0
POINT
5
73
100
AcDbEntity
8
SK2
62
256
6
ByLayer
370
18
48
1
60
1
100
AcDbPoint
10
110
20
20
30
0
39
0
210
0
220
0
230
1
50
360
0
POINT
5
74
100
AcDbEntity
8
SK2
62
256
6
ByLayer
370
18
48
1
60
1
100
AcDbPoint
10
110
20
-20
30
0
39
0
210
0
220
0
230
1
50
360
0
SPLINE
5
147
100
AcDbEntity
8
1
62
256
6
ByLayer
370
18
48
1
60
0
100
AcDbSpline
70
4
71
3
72
8
73
4
40
0
40
0
40
0
40
0
40
1
40
1
40
1
40
1
41
1
10
110.2495
20
18.654960886978
30
0
41
1
10
110.035047370323
20
18.8478202535533
30
0
41
1
10
109.820374683942
20
19.0403524947096
30
0
41
1
10
109.6055
20
19.232584456276
30
0
0
SPLINE
5
148
100
AcDbEntity
8
1
62
256
6
ByLayer
370
18
48
1
60
0
100
AcDbSpline
70
4
71
3
72
14
73
10
40
0
40
0
40
0
40
0
40
0.25
40
0.25
40
0.5
40
0.5
40
0.75
40
0.75
40
1
40
1
40
1
40
1
41
1
10
110.3245
20
-15.2365834598287
30
0
41
1
10
110.3245
20
-15.2280574715485
30
0
41
1
10
110.323226579452
20
-15.2206332405457
30
0
41
1
10
110.31687672309
20
-15.2094874469186
30
0
41
1
10
110.311677177387
20
-15.2060071462587
30
0
41
1
10
110.297631713328
20
-15.2051536604222
30
0
41
1
10
110.28871910896
20
-15.207793710342
30
0
41
1
10
110.269715629015
20
-15.217628287636
30
0
41
1
10
110.259536321132
20
-15.2247616701736
30
0
41
1
10
110.2495
20
-15.2329620912906
30
0
0
SPLINE
5
149
100
AcDbEntity
8
1
62
256
6
ByLayer
370
18
48
1
60
0
100
AcDbSpline
70
4
71
3
72
8
73
4
40
0
40
0
40
0
40
0
40
1
40
1
40
1
40
1
41
1
10
110.2495
20
17.0859271543189
30
0
41
1
10
110.034868684835
20
17.2640359061465
30
0
41
1
10
109.820200946825
20
17.4420861479081
30
0
41
1
10
109.6055
20
17.6200829661946
30
0
0
SPLINE
5
14A
100
AcDbEntity
8
1
62
256
6
ByLayer
370
18
48
1
60
0
100
AcDbSpline
70
4
71
3
72
12
73
8
40
0
40
0
40
0
40
0
40
0.25
40
0.25
40
0.5
40
0.5
40
1
40
1
40
1
40
1
41
1
10
110.3245
20
8.18008548133093
30
0
41
1
10
110.3245
20
8.21493915084116
30
0
41
1
10
110.321916951756
20
8.25054591711083
30
0
41
1
10
110.313952554405
20
8.32253866084028
30
0
41
1
10
110.308463266611
20
8.35905903325764
30
0
41
1
10
110.288693751875
20
8.46847945251002
30
0
41
1
10
110.271251087085
20
8.54143111158004
30
0
41
1
10
110.2495
20
8.61440504217293
30
0
0
SPLINE
5
14B
100
AcDbEntity
8
1
62
256
6
ByLayer
370
18
48
1
60
0
100
AcDbSpline
70
4
71
3
72
8
73
4
40
0
40
0
40
0
40
0
40
1
40
1
40
1
40
1
41
1
10
109.6055
20
-18.2968754376164
30
0
41
1
10
109.820244754008
20
-18.11526338816
30
0
41
1
10
110.034913814811
20
-17.9335319303368
30
0
41
1
10
110.2495
20
-17.7516701480928
30
0
0
SPLINE
5
14C
100
AcDbEntity
8
1
62
256
6
ByLayer
370
18
48
1
60
0
100
AcDbSpline
70
4
71
3
72
12
73
8
40
0
40
0
40
0
40
0
40
0.567291002799396
40
0.567291002799396
40
0.850936504199105
40
0.850936504199105
40
1
40
1
40
1
40
1
41
1
10
109.6055
20
19.67254327625
30
0
41
1
10
109.582995531699
20
19.6942074323789
30
0
41
1
10
109.561880388332
20
19.7140674209438
30
0
41
1
10
109.537703837473
20
19.7354993425979
30
0
41
1
10
109.531044068949
20
19.7411000824371
30
0
41
1
10
109.524328360078
20
19.7460435311609
30
0
41
1
10
109.522644752756
20
19.7470829990583
30
0
41
1
10
109.52163204422
20
19.7474377072068
30
0
0
SPLINE
5
14D
100
AcDbEntity
8
1
62
256
6
ByLayer
370
18
48
1
60
0
100
AcDbSpline
70
4
71
3
72
16
73
12
40
0
40
0
40
0
40
0
40
0.0197386846126939
40
0.0197386846126939
40
0.26480401345952
40
0.26480401345952
40
0.509869342306347
40
0.509869342306347
40
0.754934671153173
40
0.754934671153173
40
1
40
1
40
1
40
1
41
1
10
109.520502875857
20
19.7470721475968
30
0
41
1
10
109.520505348206
20
19.7469673436312
30
0
41
1
10
109.520524302163
20
19.7468460802935
30
0
41
1
10
109.521001668514
20
19.7449974364367
30
0
41
1
10
109.523988903455
20
19.7407194293516
30
0
41
1
10
109.533694886272
20
19.7286365874095
30
0
41
1
10
109.540469432587
20
19.7207454646148
30
0
41
1
10
109.556128818467
20
19.703103159907
30
0
41
1
10
109.565209562342
20
19.6931288968652
30
0
41
1
10
109.584481683939
20
19.6723146861223
30
0
41
1
10
109.594730817489
20
19.6614073739258
30
0
41
1
10
109.6055
20
19.6500792121576
30
0
0
SPLINE
5
14E
100
AcDbEntity
8
1
62
256
6
ByLayer
370
18
48
1
60
0
100
AcDbSpline
70
4
71
3
72
24
73
20
40
0
40
0
40
0
40
0
40
0.0624999999999923
40
0.0624999999999923
40
0.124999999999985
40
0.124999999999985
40
0.187499999999977
40
0.187499999999977
40
0.249999999999969
40
0.249999999999969
40
0.374999999999976
40
0.374999999999976
40
0.499999999999983
40
0.499999999999983
40
0.624999999999989
40
0.624999999999989
40
0.749999999999995
40
0.749999999999995
40
1
40
1
40
1
40
1
41
1
10
109.6055
20
12.9705056015291
30
0
41
1
10
109.597228437567
20
12.9776122011715
30
0
41
1
10
109.588914419841
20
12.9837280890157
30
0
41
1
10
109.57215708379
20
12.9929284146393
30
0
41
1
10
109.563911018039
20
12.9957843445631
30
0
41
1
10
109.549332527511
20
12.996607926873
30
0
41
1
10
109.543058514406
20
12.9945698287034
30
0
41
1
10
109.533175608736
20
12.9866643331886
30
0
41
1
10
109.529511798149
20
12.9808577601683
30
0
41
1
10
109.521618643724
20
12.9606395868765
30
0
41
1
10
109.520184061725
20
12.9433949621493
30
0
41
1
10
109.520919902298
20
12.9077348478638
30
0
41
1
10
109.523123853493
20
12.8888737778532
30
0
41
1
10
109.529813307373
20
12.8498542855238
30
0
41
1
10
109.534358710199
20
12.8296306068069
30
0
41
1
10
109.544946601497
20
12.7892938647489
30
0
41
1
10
109.551022507126
20
12.7690160851207
30
0
41
1
10
109.571175868445
20
12.7079111464973
30
0
41
1
10
109.58712561472
20
12.6668188134641
30
0
41
1
10
109.6055
20
12.6253933182574
30
0
0
SPLINE
5
14F
100
AcDbEntity
8
1
62
256
6
ByLayer
370
18
48
1
60
0
100
AcDbSpline
70
4
71
3
72
28
73
24
40
0
40
0
40
0
40
0
40
0.0312500000000008
40
0.0312500000000008
40
0.0625000000000014
40
0.0625000000000014
40
0.0937500000000022
40
0.0937500000000022
40
0.125000000000003
40
0.125000000000003
40
0.156250000000004
40
0.156250000000004
40
0.187500000000004
40
0.187500000000004
40
0.250000000000001
40
0.250000000000001
40
0.375000000000002
40
0.375000000000002
40
0.500000000000003
40
0.500000000000003
40
0.750000000000001
40
0.750000000000001
40
1
40
1
40
1
40
1
41
1
10
109.6055
20
8.37361101742647
30
0
41
1
10
109.600004737356
20
8.37978753275456
30
0
41
1
10
109.594211799427
20
8.38544000419898
30
0
41
1
10
109.582136331548
20
8.39446580599039
30
0
41
1
10
109.57576477563
20
8.39785124933761
30
0
41
1
10
109.563317296278
20
8.40029497592624
30
0
41
1
10
109.557514772273
20
8.3991964835391
30
0
41
1
10
109.547823371798
20
8.39340034883699
30
0
41
1
10
109.543809077888
20
8.38877626134595
30
0
41
1
10
109.537237166688
20
8.37796395532249
30
0
41
1
10
109.534613239458
20
8.37171127711872
30
0
41
1
10
109.530308572924
20
8.35860754730555
30
0
41
1
10
109.528603869242
20
8.35169550185046
30
0
41
1
10
109.524370352316
20
8.33024655544966
30
0
41
1
10
109.52272221291
20
8.3150076820547
30
0
41
1
10
109.519763477303
20
8.26920455495917
30
0
41
1
10
109.520294258414
20
8.23786352107061
30
0
41
1
10
109.523619220996
20
8.17441960623145
30
0
41
1
10
109.526514159926
20
8.14228555379793
30
0
41
1
10
109.537644146478
20
8.04503534315194
30
0
41
1
10
109.548337322641
20
7.97887805299857
30
0
41
1
10
109.573783904193
20
7.84691878935342
30
0
41
1
10
109.588606152318
20
7.78086412303699
30
0
41
1
10
109.6055
20
7.71473982249799
30
0
0
SPLINE
5
150
100
AcDbEntity
8
1
62
256
6
ByLayer
370
18
48
1
60
0
100
AcDbSpline
70
4
71
3
72
12
73
8
40
0
40
0
40
0
40
0
40
0.499999999999984
40
0.499999999999984
40
0.749999999999992
40
0.749999999999992
40
1
40
1
40
1
40
1
41
1
10
110.2495
20
-18.7475864397169
30
0
41
1
10
110.269096039341
20
-18.7255245029813
30
0
41
1
10
110.287055571439
20
-18.7041980616753
30
0
41
1
10
110.307771252659
20
-18.6769230565226
30
0
41
1
10
110.313708424421
20
-18.6685026888432
30
0
41
1
10
110.322055283879
20
-18.6547549787377
30
0
41
1
10
110.3245
20
-18.6493424979473
30
0
41
1
10
110.3245
20
-18.6463193271822
30
0
0
SPLINE
5
151
100
AcDbEntity
8
1
62
256
6
ByLayer
370
18
48
1
60
0
100
AcDbSpline
70
4
71
3
72
8
73
4
40
0
40
0
40
0
40
0
40
1
40
1
40
1
40
1
41
1
10
21.3746123234134
20
-30.1503829784963
30
0
41
1
10
20.8857665817206
20
-29.266618842169
30
0
41
1
10
20.3982595400866
20
-28.3821097116547
30
0
41
1
10
19.9125
20
-27.4966603414964
30
0
0
SPLINE
5
152
100
AcDbEntity
8
1
62
256
6
ByLayer
370
18
48
1
60
0
100
AcDbSpline
70
4
71
3
72
8
73
4
40
0
40
0
40
0
40
0
40
1
40
1
40
1
40
1
41
1
10
109.6055
20
19.4662256251215
30
0
41
1
10
109.821059437748
20
19.2277459581948
30
0
41
1
10
110.03575253422
20
18.9882311427327
30
0
41
1
10
110.2495
20
18.7475864397169
30
0
0
SPLINE
5
153
100
AcDbEntity
8
1
62
256
6
ByLayer
370
18
48
1
60
0
100
AcDbSpline
70
4
71
3
72
38
73
34
40
0
40
0
40
0
40
0
40
0.124999999999999
40
0.124999999999999
40
0.187499999999998
40
0.187499999999998
40
0.218749999999998
40
0.218749999999998
40
0.249999999999998
40
0.249999999999998
40
0.374999999999997
40
0.374999999999997
40
0.406249999999997
40
0.406249999999997
40
0.437499999999997
40
0.437499999999997
40
0.499999999999997
40
0.499999999999997
40
0.624999999999997
40
0.624999999999997
40
0.656249999999997
40
0.656249999999997
40
0.687499999999997
40
0.687499999999997
40
0.749999999999998
40
0.749999999999998
40
0.812499999999998
40
0.812499999999998
40
0.843749999999999
40
0.843749999999999
40
0.874999999999999
40
0.874999999999999
40
1
40
1
40
1
40
1
41
1
10
12.95
20
-30.1503829784963
30
0
41
1
10
12.4182627187732
20
-30.1503829784963
30
0
41
1
10
11.8959989210176
20
-30.1662190884818
30
0
41
1
10
11.1260959657865
20
-30.2113619657957
30
0
41
1
10
10.8717264718107
20
-30.2299778939183
30
0
41
1
10
10.4936216560128
20
-30.2629761000306
30
0
41
1
10
10.3678086409658
20
-30.2748587965686
30
0
41
1
10
10.1194618268704
20
-30.3000493570684
30
0
41
1
10
9.99692951457195
20
-30.3133501209502
30
0
41
1
10
9.39226886038051
20
-30.3830824778242
30
0
41
1
10
8.93391089121616
20
-30.4491689339867
30
0
41
1
10
8.39183435684626
20
-30.5402922027968
30
0
41
1
10
8.28497698908882
20
-30.5589441303185
30
0
41
1
10
8.07441560051001
20
-30.5969970538394
30
0
41
1
10
7.97072778568187
20
-30.6163994640843
30
0
41
1
10
7.66769106088228
20
-30.674925228277
30
0
41
1
10
7.47519443651623
20
-30.7145691260908
30
0
41
1
10
6.92538504075446
20
-30.8339192459421
30
0
41
1
10
6.59546778476644
20
-30.9140497914083
30
0
41
1
10
6.23018156491224
20
-31.0102994103381
30
0
41
1
10
6.1597699232795
20
-31.0292845486695
30
0
41
1
10
6.02512185094676
20
-31.0663691769891
30
0
41
1
10
5.9607330741635
20
-31.0845086951601
30
0
41
1
10
5.7762484438189
20
-31.137589019802
30
0
41
1
10
5.66481288123552
20
-31.1711913504447
30
0
41
1
10
5.46492163805172
20
-31.2341535567075
30
0
41
1
10
5.37646500709747
20
-31.2635146855691
30
0
41
1
10
5.26144287268465
20
-31.3038663020077
30
0
41
1
10
5.22605148530559
20
-31.3167016610253
30
0
41
1
10
5.1613102848421
20
-31.3410532662208
30
0
41
1
10
5.13208078625158
20
-31.3525260343476
30
0
41
1
10
5.00241912655019
20
-31.4059316510968
30
0
41
1
10
4.94999999999999
20
-31.4363570809238
30
0
41
1
10
4.94999999999999
20
-31.4535466005028
30
0
0
SPLINE
5
154
100
AcDbEntity
8
1
62
256
6
ByLayer
370
18
48
1
60
0
100
AcDbSpline
70
4
71
3
72
8
73
4
40
0
40
0
40
0
40
0
40
1
40
1
40
1
40
1
41
1
10
110.2495
20
-15.5703702247132
30
0
41
1
10
110.038207131738
20
-15.9155530145199
30
0
41
1
10
109.823431123556
20
-16.2578238253876
30
0
41
1
10
109.6055
20
-16.5974568928041
30
0
0
SPLINE
5
155
100
AcDbEntity
8
1
62
256
6
ByLayer
370
18
48
1
60
0
100
AcDbSpline
70
4
71
3
72
8
73
4
40
0
40
0
40
0
40
0
40
1
40
1
40
1
40
1
41
1
10
109.6055
20
15.5333158840139
30
0
41
1
10
109.824618246661
20
15.1562223165521
30
0
41
1
10
110.039439331602
20
14.7758958248991
30
0
41
1
10
110.2495
20
14.3919878841885
30
0
0
SPLINE
5
156
100
AcDbEntity
8
1
62
256
6
ByLayer
370
18
48
1
60
0
100
AcDbSpline
70
4
71
3
72
14
73
10
40
0
40
0
40
0
40
0
40
0.249137037271688
40
0.249137037271688
40
0.499424691514459
40
0.499424691514459
40
0.74971234575723
40
0.74971234575723
40
1
40
1
40
1
40
1
41
1
10
109.520501007096
20
19.803998984236
30
0
41
1
10
109.520559199609
20
19.8039402888749
30
0
41
1
10
109.52317820528
20
19.8012984445084
30
0
41
1
10
109.532509978376
20
19.791889964152
30
0
41
1
10
109.539284482808
20
19.7850614653389
30
0
41
1
10
109.555149357874
20
19.7690814809519
30
0
41
1
10
109.564434787015
20
19.7597336572633
30
0
41
1
10
109.584091600717
20
19.7399607665405
30
0
41
1
10
109.59453851892
20
19.729459433587
30
0
41
1
10
109.6055
20
19.7184503955052
30
0
0
SPLINE
5
157
100
AcDbEntity
8
1
62
256
6
ByLayer
370
18
48
1
60
0
100
AcDbSpline
70
4
71
3
72
14
73
10
40
0
40
0
40
0
40
0
40
0.25
40
0.25
40
0.5
40
0.5
40
0.75
40
0.75
40
1
40
1
40
1
40
1
41
1
10
110.3245
20
17.7986396737458
30
0
41
1
10
110.3245
20
17.8046677602699
30
0
41
1
10
110.321958595129
20
17.8129038412025
30
0
41
1
10
110.31345050483
20
17.8320919898525
30
0
41
1
10
110.30764570247
20
17.8426975094091
30
0
41
1
10
110.293816071692
20
17.8653586799415
30
0
41
1
10
110.285845445367
20
17.8772918268094
30
0
41
1
10
110.268672225887
20
17.9014801599266
30
0
41
1
10
110.259398489399
20
17.9138435403137
30
0
41
1
10
110.2495
20
17.9264544727241
30
0
0
SPLINE
5
158
100
AcDbEntity
8
1
62
256
6
ByLayer
370
18
48
1
60
0
100
AcDbSpline
70
4
71
3
72
8
73
4
40
0
40
0
40
0
40
0
40
1
40
1
40
1
40
1
41
1
10
109.6055
20
12.6253933182574
30
0
41
1
10
109.829910422179
20
12.1194546037457
30
0
41
1
10
110.044943589855
20
11.608267525243
30
0
41
1
10
110.2495
20
11.0912167009134
30
0
0
SPLINE
5
159
100
AcDbEntity
8
1
62
256
6
ByLayer
370
18
48
1
60
0
100
AcDbSpline
70
4
71
3
72
8
73
4
40
0
40
0
40
0
40
0
40
1
40
1
40
1
40
1
41
1
10
109.6055
20
1.68093354208466
30
0
41
1
10
109.666142318209
20
0.560311180694896
30
0
41
1
10
109.666142318209
20
-0.560311180694896
30
0
41
1
10
109.6055
20
-1.68093354208466
30
0
0
SPLINE
5
15A
100
AcDbEntity
8
1
62
256
6
ByLayer
370
18
48
1
60
0
100
AcDbSpline
70
4
71
3
72
22
73
18
40
0
40
0
40
0
40
0
40
0.125
40
0.125
40
0.25
40
0.25
40
0.375
40
0.375
40
0.5
40
0.5
40
0.625
40
0.625
40
0.75
40
0.75
40
0.875
40
0.875
40
1
40
1
40
1
40
1
41
1
10
109.6055
20
19.232584456276
30
0
41
1
10
109.593739100244
20
19.2431060346604
30
0
41
1
10
109.582242551691
20
19.2529637034773
30
0
41
1
10
109.561004489412
20
19.2700210168543
30
0
41
1
10
109.551171313917
20
19.2772898909988
30
0
41
1
10
109.534859454679
20
19.287508216025
30
0
41
1
10
109.528448239208
20
19.2903652507063
30
0
41
1
10
109.520922723968
20
19.2903897893651
30
0
41
1
10
109.519748598788
20
19.2875543836234
30
0
41
1
10
109.522224174389
20
19.277369159435
30
0
41
1
10
109.52578250787
20
19.2700835318898
30
0
41
1
10
109.536008302682
20
19.2529765435596
30
0
41
1
10
109.542700715944
20
19.2431003754386
30
0
41
1
10
109.55792775034
20
19.2221399537161
30
0
41
1
10
109.566628668
20
19.2108285302577
30
0
41
1
10
109.585192455251
20
19.1876523821413
30
0
41
1
10
109.595079721552
20
19.1757473715766
30
0
41
1
10
109.6055
20
19.163566138175
30
0
0
SPLINE
5
15B
100
AcDbEntity
8
1
62
256
6
ByLayer
370
18
48
1
60
0
100
AcDbSpline
70
4
71
3
72
24
73
20
40
0
40
0
40
0
40
0
40
0.0467752833350612
40
0.0467752833350612
40
0.0935505666701223
40
0.0935505666701223
40
0.140325850005183
40
0.140325850005183
40
0.187101133340245
40
0.187101133340245
40
0.280651700010359
40
0.280651700010359
40
0.374202266680475
40
0.374202266680475
40
0.561303400020707
40
0.561303400020707
40
0.748404533360939
40
0.748404533360939
40
1
40
1
40
1
40
1
41
1
10
16.4875
20
-26.4
30
0
41
1
10
16.4721119664497
20
-26.4
30
0
41
1
10
16.456566754659
20
-26.4
30
0
41
1
10
16.4278814816286
20
-26.4
30
0
41
1
10
16.4145650247233
20
-26.4
30
0
41
1
10
16.3902994712361
20
-26.4
30
0
41
1
10
16.3790715905153
20
-26.4
30
0
41
1
10
16.3584547685038
20
-26.4
30
0
41
1
10
16.3490048365685
20
-26.4
30
0
41
1
10
16.3224037015849
20
-26.4
30
0
41
1
10
16.3068950868852
20
-26.4
30
0
41
1
10
16.2790535114736
20
-26.4
30
0
41
1
10
16.2666961004758
20
-26.4
30
0
41
1
10
16.232674574641
20
-26.4
30
0
41
1
10
16.2140107518359
20
-26.4
30
0
41
1
10
16.1813976965132
20
-26.4
30
0
41
1
10
16.1675020073595
20
-26.4
30
0
41
1
10
16.1394498905908
20
-26.4
30
0
41
1
10
16.1267303143142
20
-26.4
30
0
41
1
10
16.1167620000014
20
-26.4
30
0
0
SPLINE
5
15C
100
AcDbEntity
8
1
62
256
6
ByLayer
370
18
48
1
60
0
100
AcDbSpline
70
4
71
3
72
8
73
4
40
0
40
0
40
0
40
0
40
1
40
1
40
1
40
1
41
1
10
110.2495
20
15.2329620912907
30
0
41
1
10
110.034835023948
20
15.4083593488627
30
0
41
1
10
109.820168300833
20
15.5837537555397
30
0
41
1
10
109.6055
20
15.7591455874816
30
0
0
SPLINE
5
15D
100
AcDbEntity
8
1
62
256
6
ByLayer
370
18
48
1
60
0
100
AcDbSpline
70
4
71
3
72
8
73
4
40
0
40
0
40
0
40
0
40
1
40
1
40
1
40
1
41
1
10
110.2495
20
-18.4028498781752
30
0
41
1
10
110.036011628907
20
-18.6577519784764
30
0
41
1
10
109.821310496289
20
-18.9112851613349
30
0
41
1
10
109.6055
20
-19.1635661381751
30
0
0
SPLINE
5
15E
100
AcDbEntity
8
1
62
256
6
ByLayer
370
18
48
1
60
0
100
AcDbSpline
70
4
71
3
72
22
73
18
40
0
40
0
40
0
40
0
40
0.125000000000011
40
0.125000000000011
40
0.250000000000022
40
0.250000000000022
40
0.312500000000025
40
0.312500000000025
40
0.375000000000028
40
0.375000000000028
40
0.500000000000034
40
0.500000000000034
40
0.62500000000004
40
0.62500000000004
40
0.750000000000046
40
0.750000000000046
40
1
40
1
40
1
40
1
41
1
10
109.6055
20
18.2968754376164
30
0
41
1
10
109.592993500049
20
18.3074523250384
30
0
41
1
10
109.580706276432
20
18.3169884662057
30
0
41
1
10
109.558138730979
20
18.3320952215856
30
0
41
1
10
109.547727595054
20
18.3377169168032
30
0
41
1
10
109.535443493164
20
18.3413685698684
30
0
41
1
10
109.531968282765
20
18.3417770780818
30
0
41
1
10
109.526382198925
20
18.3409817366965
30
0
41
1
10
109.52422997549
20
18.3397516724482
30
0
41
1
10
109.519946272536
20
18.3338790234322
30
0
41
1
10
109.519899733555
20
18.3270135233085
30
0
41
1
10
109.523871617955
20
18.3100249021396
30
0
41
1
10
109.52788622281
20
18.299761289305
30
0
41
1
10
109.538430599233
20
18.2776904215159
30
0
41
1
10
109.544991563262
20
18.2657814976337
30
0
41
1
10
109.567418182231
20
18.228501555755
30
0
41
1
10
109.585340647127
20
18.2025463743235
30
0
41
1
10
109.6055
20
18.1757784213042
30
0
0
SPLINE
5
15F
100
AcDbEntity
8
1
62
256
6
ByLayer
370
18
48
1
60
0
100
AcDbSpline
70
4
71
3
72
14
73
10
40
0
40
0
40
0
40
0
40
0.25
40
0.25
40
0.5
40
0.5
40
0.75
40
0.75
40
1
40
1
40
1
40
1
41
1
10
110.3245
20
-18.8539790198802
30
0
41
1
10
110.3245
20
-18.852185749926
30
0
41
1
10
110.322387809429
20
-18.8524939229067
30
0
41
1
10
110.31432502053
20
-18.8571560020603
30
0
41
1
10
110.308413901572
20
-18.8614855289317
30
0
41
1
10
110.294315803534
20
-18.8728206174963
30
0
41
1
10
110.286083471685
20
-18.879854510313
30
0
41
1
10
110.268476646095
20
-18.8954524968059
30
0
41
1
10
110.259181964881
20
-18.9039388280576
30
0
41
1
10
110.2495
20
-18.9129704705177
30
0
0
SPLINE
5
160
100
AcDbEntity
8
1
62
256
6
ByLayer
370
18
48
1
60
0
100
AcDbSpline
70
4
71
3
72
12
73
8
40
0
40
0
40
0
40
0
40
0.250000000000014
40
0.250000000000014
40
0.500000000000028
40
0.500000000000028
40
1
40
1
40
1
40
1
41
1
10
110.324500000007
20
14.177597603433
30
0
41
1
10
110.324500000006
20
14.1924378510664
30
0
41
1
10
110.321810105843
20
14.2092659533737
30
0
41
1
10
110.313502648554
20
14.2438881515721
30
0
41
1
10
110.307829005166
20
14.2618847017251
30
0
41
1
10
110.287476650065
20
14.3171419602466
30
0
41
1
10
110.270072992639
20
14.3543885787198
30
0
41
1
10
110.2495
20
14.3919878841886
30
0
0
SPLINE
5
161
100
AcDbEntity
8
1
62
256
6
ByLayer
370
18
48
1
60
0
100
AcDbSpline
70
4
71
3
72
8
73
4
40
0
40
0
40
0
40
0
40
1
40
1
40
1
40
1
41
1
10
109.6055
20
-8.37361101742599
30
0
41
1
10
109.822529300301
20
-8.1296763983232
30
0
41
1
10
110.037366545293
20
-7.88319830325059
30
0
41
1
10
110.2495
20
-7.63358295813416
30
0
0
SPLINE
5
162
100
AcDbEntity
8
1
62
256
6
ByLayer
370
18
48
1
60
0
100
AcDbSpline
70
4
71
3
72
8
73
4
40
0
40
0
40
0
40
0
40
1
40
1
40
1
40
1
41
1
10
25.95
20
19.85
30
0
41
1
10
25.783942838918
20
19.85
30
0
41
1
10
25.6172335326703
20
19.85
30
0
41
1
10
25.45
20
19.85
30
0
0
SPLINE
5
163
100
AcDbEntity
8
1
62
256
6
ByLayer
370
18
48
1
60
0
100
AcDbSpline
70
4
71
3
72
8
73
4
40
0
40
0
40
0
40
0
40
1
40
1
40
1
40
1
41
1
10
110.2495
20
-17.3075317791603
30
0
41
1
10
110.036782319601
20
-17.598874807819
30
0
41
1
10
109.822056039247
20
-17.8882313992868
30
0
41
1
10
109.6055
20
-18.1757784213042
30
0
0
SPLINE
5
164
100
AcDbEntity
8
1
62
256
6
ByLayer
370
18
48
1
60
0
100
AcDbSpline
70
4
71
3
72
14
73
10
40
0
40
0
40
0
40
0
40
0.25
40
0.25
40
0.5
40
0.5
40
0.75
40
0.75
40
1
40
1
40
1
40
1
41
1
10
110.249500000001
20
19.0497595350347
30
0
41
1
10
110.259250762044
20
19.0402857484307
30
0
41
1
10
110.268531564471
20
19.0313407515936
30
0
41
1
10
110.285956831417
20
19.0147203145367
30
0
41
1
10
110.294181236189
20
19.006972118358
30
0
41
1
10
110.308177764175
20
18.9940407991515
30
0
41
1
10
110.314130113209
20
18.9886933373445
30
0
41
1
10
110.322274316532
20
18.9818216055315
30
0
41
1
10
110.3245
20
18.9802755671428
30
0
41
1
10
110.3245
20
18.9809298975149
30
0
0
SPLINE
5
165
100
AcDbEntity
8
1
62
256
6
ByLayer
370
18
48
1
60
0
100
AcDbSpline
70
4
71
3
72
12
73
8
40
0
40
0
40
0
40
0
40
0.25
40
0.25
40
0.500000000000001
40
0.500000000000001
40
1
40
1
40
1
40
1
41
1
10
110.3245
20
3.63551555823577
30
0
41
1
10
110.3245
20
3.71325324495874
30
0
41
1
10
110.322321213052
20
3.79113360413095
30
0
41
1
10
110.315157628452
20
3.94702554953713
30
0
41
1
10
110.310118654055
20
4.0250425553989
30
0
41
1
10
110.29112293735
20
4.25925970937647
30
0
41
1
10
110.273453541426
20
4.41578263980514
30
0
41
1
10
110.2495
20
4.57174589786112
30
0
0
SPLINE
5
166
100
AcDbEntity
8
1
62
256
6
ByLayer
370
18
48
1
60
0
100
AcDbSpline
70
4
71
3
72
8
73
4
40
0
40
0
40
0
40
0
40
1
40
1
40
1
40
1
41
1
10
109.6055
20
-19.232584456276
30
0
41
1
10
109.820374683942
20
-19.0403524947096
30
0
41
1
10
110.035047370323
20
-18.8478202535533
30
0
41
1
10
110.2495
20
-18.654960886978
30
0
0
SPLINE
5
167
100
AcDbEntity
8
1
62
256
6
ByLayer
370
18
48
1
60
0
100
AcDbSpline
70
4
71
3
72
8
73
4
40
0
40
0
40
0
40
0
40
1
40
1
40
1
40
1
41
1
10
21.3746123234134
20
30.4315723180712
30
0
41
1
10
20.8861066045607
20
29.5565832425009
30
0
41
1
10
20.3986317098494
20
28.6810104197576
30
0
41
1
10
19.9125
20
27.804699781433
30
0
0
SPLINE
5
168
100
AcDbEntity
8
1
62
256
6
ByLayer
370
18
48
1
60
0
100
AcDbSpline
70
4
71
3
72
8
73
4
40
0
40
0
40
0
40
0
40
1
40
1
40
1
40
1
41
1
10
109.6055
20
-14.5100772776498
30
0
41
1
10
109.820203979195
20
-14.3323700434184
30
0
41
1
10
110.034872069188
20
-14.1546049768551
30
0
41
1
10
110.2495
20
-13.9767752987127
30
0
0
SPLINE
5
169
100
AcDbEntity
8
1
62
256
6
ByLayer
370
18
48
1
60
0
100
AcDbSpline
70
4
71
3
72
14
73
10
40
0
40
0
40
0
40
0
40
0.25
40
0.25
40
0.5
40
0.5
40
0.75
40
0.75
40
1
40
1
40
1
40
1
41
1
10
110.3245
20
-18.9809298975149
30
0
41
1
10
110.3245
20
-18.9802749397073
30
0
41
1
10
110.322268657052
20
-18.9818256856907
30
0
41
1
10
110.314108956146
20
-18.9887118861319
30
0
41
1
10
110.308141619218
20
-18.9940733211361
30
0
41
1
10
110.294092745741
20
-19.0070547541498
30
0
41
1
10
110.285840184445
20
-19.0148307852947
30
0
41
1
10
110.268427871024
20
-19.0314404543229
30
0
41
1
10
110.259184127082
20
-19.040350490592
30
0
41
1
10
110.2495
20
-19.0497595350354
30
0
0
SPLINE
5
16A
100
AcDbEntity
8
1
62
256
6
ByLayer
370
18
48
1
60
0
100
AcDbSpline
70
4
71
3
72
10
73
6
40
0
40
0
40
0
40
0
40
0.5
40
0.5
40
1
40
1
40
1
40
1
41
1
10
21.3746123234134
20
19.85
30
0
41
1
10
21.1247500405127
20
19.85
30
0
41
1
10
20.8776825838395
20
19.85
30
0
41
1
10
20.389981348978
20
19.85
30
0
41
1
10
20.1492474359547
20
19.85
30
0
41
1
10
19.9125
20
19.85
30
0
0
SPLINE
5
16B
100
AcDbEntity
8
1
62
256
6
ByLayer
370
18
48
1
60
0
100
AcDbSpline
70
4
71
3
72
8
73
4
40
0
40
0
40
0
40
0
40
1
40
1
40
1
40
1
41
1
10
16.0875
20
-27.4966603414964
30
0
41
1
10
15.6017404599134
20
-28.3821097116547
30
0
41
1
10
15.1142334182793
20
-29.266618842169
30
0
41
1
10
14.6253876765866
20
-30.1503829784963
30
0
0
SPLINE
5
16C
100
AcDbEntity
8
1
62
256
6
ByLayer
370
18
48
1
60
0
100
AcDbSpline
70
4
71
3
72
14
73
10
40
0
40
0
40
0
40
0
40
0.25
40
0.25
40
0.5
40
0.5
40
0.75
40
0.75
40
1
40
1
40
1
40
1
41
1
10
110.2495
20
18.2705960321683
30
0
41
1
10
110.259229511984
20
18.2621232908817
30
0
41
1
10
110.268802577543
20
18.2542265447333
30
0
41
1
10
110.286601863368
20
18.2406968240446
30
0
41
1
10
110.29495424747
20
18.2349725137476
30
0
41
1
10
110.309141149508
20
18.2269970357157
30
0
41
1
10
110.314957231867
20
18.2247944411961
30
0
41
1
10
110.322603033857
20
18.2247762044744
30
0
41
1
10
110.3245
20
18.2269651603499
30
0
41
1
10
110.3245
20
18.2309126238237
30
0
0
SPLINE
5
16D
100
AcDbEntity
8
1
62
256
6
ByLayer
370
18
48
1
60
0
100
AcDbSpline
70
4
71
3
72
16
73
12
40
0
40
0
40
0
40
0
40
0.250000000000054
40
0.250000000000054
40
0.500000000000109
40
0.500000000000109
40
0.625000000000081
40
0.625000000000081
40
0.750000000000054
40
0.750000000000054
40
1
40
1
40
1
40
1
41
1
10
110.324500000002
20
-12.4517920695657
30
0
41
1
10
110.324500000002
20
-12.440367383973
30
0
41
1
10
110.323574330635
20
-12.4296257544309
30
0
41
1
10
110.318509386911
20
-12.4105343684028
30
0
41
1
10
110.314345247719
20
-12.4023667097375
30
0
41
1
10
110.304383043625
20
-12.3952686195636
30
0
41
1
10
110.300413994865
20
-12.3938031093932
30
0
41
1
10
110.291511208776
20
-12.3931584348767
30
0
41
1
10
110.286527021205
20
-12.3939796046376
30
0
41
1
10
110.271023676201
20
-12.3994427929494
30
0
41
1
10
110.260027379858
20
-12.4069276847058
30
0
41
1
10
110.2495
20
-12.4160122997157
30
0
0
SPLINE
5
16E
100
AcDbEntity
8
1
62
256
6
ByLayer
370
18
48
1
60
0
100
AcDbSpline
70
4
71
3
72
26
73
22
40
0
40
0
40
0
40
0
40
0.249999999999976
40
0.249999999999976
40
0.499999999999952
40
0.499999999999952
40
0.624999999999939
40
0.624999999999939
40
0.687499999999938
40
0.687499999999938
40
0.749999999999936
40
0.749999999999936
40
0.812499999999934
40
0.812499999999934
40
0.843749999999933
40
0.843749999999933
40
0.874999999999932
40
0.874999999999932
40
0.937499999999966
40
0.937499999999966
40
1
40
1
40
1
40
1
41
1
10
109.6055
20
-10.5692423325784
30
0
41
1
10
109.587643156855
20
-10.6187961400231
30
0
41
1
10
109.572015153518
20
-10.6685126312753
30
0
41
1
10
109.545768365898
20
-10.766660157988
30
0
41
1
10
109.534984812796
20
-10.815302279654
30
0
41
1
10
109.524406680009
20
-10.8872728105715
30
0
41
1
10
109.521852859371
20
-10.9110436505429
30
0
41
1
10
109.520418804176
20
-10.9452806611475
30
0
41
1
10
109.520340103259
20
-10.956485071097
30
0
41
1
10
109.521316572032
20
-10.9783092712761
30
0
41
1
10
109.522379144929
20
-10.9889959860531
30
0
41
1
10
109.526211670088
20
-11.00878926678
30
0
41
1
10
109.528987116134
20
-11.0180751916216
30
0
41
1
10
109.535310298849
20
-11.0297189979099
30
0
41
1
10
109.537755477579
20
-11.0331628737238
30
0
41
1
10
109.543557893523
20
-11.0388720525553
30
0
41
1
10
109.546935275676
20
-11.0411137199877
30
0
41
1
10
109.558257275307
20
-11.045142446326
30
0
41
1
10
109.567713171199
20
-11.0439723663317
30
0
41
1
10
109.586740793639
20
-11.0351534278305
30
0
41
1
10
109.596375598404
20
-11.0278428099312
30
0
41
1
10
109.605500000001
20
-11.0193324895504
30
0
0
SPLINE
5
16F
100
AcDbEntity
8
1
62
256
6
ByLayer
370
18
48
1
60
0
100
AcDbSpline
70
4
71
3
72
26
73
22
40
0
40
0
40
0
40
0
40
0.124999999999994
40
0.124999999999994
40
0.249999999999989
40
0.249999999999989
40
0.374999999999984
40
0.374999999999984
40
0.499999999999978
40
0.499999999999978
40
0.624999999999972
40
0.624999999999972
40
0.687499999999967
40
0.687499999999967
40
0.749999999999962
40
0.749999999999962
40
0.812499999999957
40
0.812499999999957
40
0.874999999999952
40
0.874999999999952
40
1
40
1
40
1
40
1
41
1
10
109.6055
20
-15.5333158840139
30
0
41
1
10
109.595891848487
20
-15.5498511209733
30
0
41
1
10
109.586867923903
20
-15.5663315893323
30
0
41
1
10
109.570018960149
20
-15.5991763737714
30
0
41
1
10
109.562162348524
20
-15.615616498999
30
0
41
1
10
109.54808217205
20
-15.6477765695351
30
0
41
1
10
109.541826548599
20
-15.6635402037759
30
0
41
1
10
109.531248218515
20
-15.6942882460049
30
0
41
1
10
109.526880540947
20
-15.7094347697568
30
0
41
1
10
109.521184962534
20
-15.7376553641792
30
0
41
1
10
109.519788361478
20
-15.7508866646789
30
0
41
1
10
109.521376195424
20
-15.7677676580936
30
0
41
1
10
109.522519045604
20
-15.7728014149721
30
0
41
1
10
109.526402372343
20
-15.7813297714473
30
0
41
1
10
109.529173651342
20
-15.7847936570811
30
0
41
1
10
109.536453758024
20
-15.789331006793
30
0
41
1
10
109.541055609124
20
-15.7904205302318
30
0
41
1
10
109.551571459623
20
-15.7899479027122
30
0
41
1
10
109.557659690864
20
-15.7883850305745
30
0
41
1
10
109.576989835237
20
-15.7803707613262
30
0
41
1
10
109.591355988743
20
-15.7707017605909
30
0
41
1
10
109.6055
20
-15.7591455874818
30
0
0
SPLINE
5
170
100
AcDbEntity
8
1
62
256
6
ByLayer
370
18
48
1
60
0
100
AcDbSpline
70
4
71
3
72
10
73
6
40
0
40
0
40
0
40
0
40
0.5
40
0.5
40
1
40
1
40
1
40
1
41
1
10
21.3746123234134
20
24.4200409500067
30
0
41
1
10
21.1247500405127
20
23.8623267708001
30
0
41
1
10
20.8776825838395
20
23.3032654408426
30
0
41
1
10
20.389981348978
20
22.1820416454377
30
0
41
1
10
20.1492474359547
20
21.6196415406308
30
0
41
1
10
19.9125
20
21.0560949889959
30
0
0
SPLINE
5
171
100
AcDbEntity
8
1
62
256
6
ByLayer
370
18
48
1
60
0
100
AcDbSpline
70
4
71
3
72
18
73
14
40
0
40
0
40
0
40
0
40
0.125000000000026
40
0.125000000000026
40
0.250000000000053
40
0.250000000000053
40
0.375000000000079
40
0.375000000000079
40
0.500000000000105
40
0.500000000000105
40
0.750000000000053
40
0.750000000000053
40
1
40
1
40
1
40
1
41
1
10
110.2495
20
10.414627938755
30
0
41
1
10
110.25500497881
20
10.4094222642643
30
0
41
1
10
110.260747198982
20
10.4047102840506
30
0
41
1
10
110.272271983717
20
10.3973363917774
30
0
41
1
10
110.278205664729
20
10.3946217725859
30
0
41
1
10
110.2893124648
20
10.3923988253767
30
0
41
1
10
110.294555762787
20
10.3929125974018
30
0
41
1
10
110.303434328157
20
10.3969130794659
30
0
41
1
10
110.307128635141
20
10.4003404441785
30
0
41
1
10
110.316095454751
20
10.4129759221182
30
0
41
1
10
110.319554238696
20
10.4245951089763
30
0
41
1
10
110.323742183536
20
10.4491802546458
30
0
41
1
10
110.3245
20
10.4622966572633
30
0
41
1
10
110.3245
20
10.4758747057916
30
0
0
SPLINE
5
172
100
AcDbEntity
8
1
62
256
6
ByLayer
370
18
48
1
60
0
100
AcDbSpline
70
4
71
3
72
22
73
18
40
0
40
0
40
0
40
0
40
0.125000000000018
40
0.125000000000018
40
0.250000000000037
40
0.250000000000037
40
0.312500000000041
40
0.312500000000041
40
0.375000000000045
40
0.375000000000045
40
0.500000000000034
40
0.500000000000034
40
0.625000000000023
40
0.625000000000023
40
0.750000000000012
40
0.750000000000012
40
1
40
1
40
1
40
1
41
1
10
109.6055
20
17.6200829661946
30
0
41
1
10
109.592533498862
20
17.630832783468
30
0
41
1
10
109.579753193094
20
17.6402864467316
30
0
41
1
10
109.556254451705
20
17.654302916153
30
0
41
1
10
109.545490827475
20
17.6587687434616
30
0
41
1
10
109.533489226953
20
17.6596867674202
30
0
41
1
10
109.530205563054
20
17.6590766548954
30
0
41
1
10
109.525017733385
20
17.6560886458349
30
0
41
1
10
109.523156119715
20
17.653697451913
30
0
41
1
10
109.519717166478
20
17.6445192588561
30
0
41
1
10
109.520181417857
20
17.6355833444457
30
0
41
1
10
109.524792588522
20
17.6150938819369
30
0
41
1
10
109.528964218601
20
17.6033152733689
30
0
41
1
10
109.539577226902
20
17.5786246428309
30
0
41
1
10
109.546127538049
20
17.5654512705205
30
0
41
1
10
109.568108475269
20
17.5251641327108
30
0
41
1
10
109.585654455034
20
17.4974380464925
30
0
41
1
10
109.6055
20
17.4690368442115
30
0
0
SPLINE
5
173
100
AcDbEntity
8
1
62
256
6
ByLayer
370
18
48
1
60
0
100
AcDbSpline
70
4
71
3
72
18
73
14
40
0
40
0
40
0
40
0
40
0.249968095367302
40
0.249968095367302
40
0.499936190734604
40
0.499936190734604
40
0.749904286101906
40
0.749904286101906
40
0.87488833378555
40
0.87488833378555
40
0.999872381469194
40
0.999872381469194
40
1
40
1
40
1
40
1
41
1
10
109.6055
20
-19.7184503955052
30
0
41
1
10
109.594473615081
20
-19.7295246190149
30
0
41
1
10
109.583803369287
20
-19.7402505448278
30
0
41
1
10
109.564083431371
20
-19.760087248044
30
0
41
1
10
109.555014921523
20
-19.7692168101359
30
0
41
1
10
109.538999468337
20
-19.7853486325378
30
0
41
1
10
109.53232660182
20
-19.7920748098037
30
0
41
1
10
109.525334326431
20
-19.7991246202075
30
0
41
1
10
109.523536304035
20
-19.8009378239266
30
0
41
1
10
109.521100737935
20
-19.8033940774064
30
0
41
1
10
109.520483021234
20
-19.8040171245136
30
0
41
1
10
109.520499697022
20
-19.8040003055788
30
0
41
1
10
109.520500401171
20
-19.8039995953855
30
0
41
1
10
109.520501105316
20
-19.803998885189
30
0
0
SPLINE
5
174
100
AcDbEntity
8
1
62
256
6
ByLayer
370
18
48
1
60
0
100
AcDbSpline
70
4
71
3
72
22
73
18
40
0
40
0
40
0
40
0
40
0.250000000000017
40
0.250000000000017
40
0.375000000000012
40
0.375000000000012
40
0.500000000000007
40
0.500000000000007
40
0.625000000000002
40
0.625000000000002
40
0.749999999999997
40
0.749999999999997
40
0.812499999999998
40
0.812499999999998
40
0.875
40
0.875
40
1
40
1
40
1
40
1
41
1
10
109.6055
20
-18.1757784213043
30
0
41
1
10
109.585273555258
20
-18.2026354601183
30
0
41
1
10
109.566956451892
20
-18.2292229400242
30
0
41
1
10
109.544833531636
20
-18.2660678844065
30
0
41
1
10
109.538266574183
20
-18.2779981266209
30
0
41
1
10
109.527742828944
20
-18.3000981082553
30
0
41
1
10
109.523823971669
20
-18.3101313539303
30
0
41
1
10
109.519863891674
20
-18.3272662268364
30
0
41
1
10
109.519984207007
20
-18.3340533284694
30
0
41
1
10
109.525780981227
20
-18.3417522150087
30
0
41
1
10
109.531601008418
20
-18.3425395578433
30
0
41
1
10
109.54372645532
20
-18.3388915542782
30
0
41
1
10
109.548412658276
20
-18.3368666430987
30
0
41
1
10
109.558472329125
20
-18.3315512620657
30
0
41
1
10
109.563846554174
20
-18.3282779831857
30
0
41
1
10
109.580853219547
20
-18.3168828358452
30
0
41
1
10
109.593068792019
20
-18.3073886497742
30
0
41
1
10
109.6055
20
-18.2968754376165
30
0
0
SPLINE
5
175
100
AcDbEntity
8
1
62
256
6
ByLayer
370
18
48
1
60
0
100
AcDbSpline
70
4
71
3
72
8
73
4
40
0
40
0
40
0
40
0
40
1
40
1
40
1
40
1
41
1
10
110.2495
20
-12.9353083296311
30
0
41
1
10
110.04140572646
20
-13.3723826835175
30
0
41
1
10
109.826510348702
20
-13.8049585330931
30
0
41
1
10
109.6055
20
-14.2334897125276
30
0
0
SPLINE
5
176
100
AcDbEntity
8
1
62
256
6
ByLayer
370
18
48
1
60
0
100
AcDbSpline
70
4
71
3
72
34
73
30
40
0
40
0
40
0
40
0
40
0.250000000000007
40
0.250000000000007
40
0.500000000000015
40
0.500000000000015
40
0.625000000000019
40
0.625000000000019
40
0.750000000000023
40
0.750000000000023
40
0.812500000000025
40
0.812500000000025
40
0.875000000000028
40
0.875000000000028
40
0.906250000000029
40
0.906250000000029
40
0.937500000000031
40
0.937500000000031
40
0.953125000000029
40
0.953125000000029
40
0.960937500000026
40
0.960937500000026
40
0.968750000000022
40
0.968750000000022
40
0.976562500000018
40
0.976562500000018
40
0.984375000000015
40
0.984375000000015
40
1
40
1
40
1
40
1
41
1
10
109.6055
20
-1.68093354208466
30
0
41
1
10
109.595346533292
20
-1.86856162383083
30
0
41
1
10
109.584370807237
20
-2.0560262286989
30
0
41
1
10
109.562481488741
20
-2.43060998840053
30
0
41
1
10
109.551513851723
20
-2.61772984290343
30
0
41
1
10
109.537202736881
20
-2.89812543294025
30
0
41
1
10
109.532796830085
20
-2.99154315427879
30
0
41
1
10
109.525483149715
20
-3.17827399044799
30
0
41
1
10
109.522535167938
20
-3.2715458172689
30
0
41
1
10
109.520533676288
20
-3.41078910394768
30
0
41
1
10
109.520274752555
20
-3.4571062118799
30
0
41
1
10
109.52115465809
20
-3.54944772811402
30
0
41
1
10
109.522240748443
20
-3.5954810364488
30
0
41
1
10
109.52608172868
20
-3.66411512076053
30
0
41
1
10
109.527736744004
20
-3.68693139674195
30
0
41
1
10
109.532408665708
20
-3.73185536769728
30
0
41
1
10
109.535313860698
20
-3.75405257873052
30
0
41
1
10
109.542369992768
20
-3.78613748291846
30
0
41
1
10
109.545178365622
20
-3.796712571602
30
0
41
1
10
109.551015675626
20
-3.81100700088174
30
0
41
1
10
109.553273328892
20
-3.81559505581686
30
0
41
1
10
109.55884924938
20
-3.82332137784184
30
0
41
1
10
109.562256999408
20
-3.82651238166133
30
0
41
1
10
109.570382070726
20
-3.82858172104309
30
0
41
1
10
109.574817602389
20
-3.82712919062158
30
0
41
1
10
109.582709235835
20
-3.82124552398864
30
0
41
1
10
109.586129694689
20
-3.81718720805876
30
0
41
1
10
109.595657580156
20
-3.80371592831889
30
0
41
1
10
109.600811615614
20
-3.79332009981621
30
0
41
1
10
109.6055
20
-3.78272843686764
30
0
0
SPLINE
5
177
100
AcDbEntity
8
1
62
256
6
ByLayer
370
18
48
1
60
0
100
AcDbSpline
70
4
71
3
72
14
73
10
40
0
40
0
40
0
40
0
40
0.25
40
0.25
40
0.5
40
0.5
40
0.75
40
0.75
40
1
40
1
40
1
40
1
41
1
10
110.3245
20
-16.2467427634162
30
0
41
1
10
110.3245
20
-16.2394710002288
30
0
41
1
10
110.32305055261
20
-16.2333911075695
30
0
41
1
10
110.316255949266
20
-16.2254590605736
30
0
41
1
10
110.31080187969
20
-16.2237332697389
30
0
41
1
10
110.296702547042
20
-16.225613605279
30
0
41
1
10
110.287942439373
20
-16.2292077635721
30
0
41
1
10
110.269327473126
20
-16.2400317807444
30
0
41
1
10
110.259405815922
20
-16.2472257349727
30
0
41
1
10
110.2495
20
-16.2553382123748
30
0
0
SPLINE
5
178
100
AcDbEntity
8
1
62
256
6
ByLayer
370
18
48
1
60
0
100
AcDbSpline
70
4
71
3
72
14
73
10
40
0
40
0
40
0
40
0
40
0.25
40
0.25
40
0.5
40
0.5
40
0.75
40
0.75
40
1
40
1
40
1
40
1
41
1
10
110.2495
20
16.2553382123748
30
0
41
1
10
110.259398868046
20
16.2472314250126
30
0
41
1
10
110.269223229739
20
16.2400961103482
30
0
41
1
10
110.287974418792
20
16.2291854674856
30
0
41
1
10
110.296731434281
20
16.2256010647453
30
0
41
1
10
110.310852246407
20
16.2237352895698
30
0
41
1
10
110.316292465155
20
16.2254991105442
30
0
41
1
10
110.323020110113
20
16.2333581500304
30
0
41
1
10
110.3245
20
16.2394805992425
30
0
41
1
10
110.3245
20
16.2467427634159
30
0
0
SPLINE
5
179
100
AcDbEntity
8
1
62
256
6
ByLayer
370
18
48
1
60
0
100
AcDbSpline
70
4
71
3
72
12
73
8
40
0
40
0
40
0
40
0
40
0.499999999999938
40
0.499999999999938
40
0.749999999999969
40
0.749999999999969
40
1
40
1
40
1
40
1
41
1
10
110.2495
20
-18.4028498781752
30
0
41
1
10
110.269213771312
20
-18.3793119136173
30
0
41
1
10
110.287076122895
20
-18.3563670284796
30
0
41
1
10
110.307711737403
20
-18.3260475722174
30
0
41
1
10
110.313626340585
20
-18.3165008078665
30
0
41
1
10
110.322002481336
20
-18.3002470594535
30
0
41
1
10
110.3245
20
-18.293440494456
30
0
41
1
10
110.3245
20
-18.2890240128755
30
0
0
SPLINE
5
17A
100
AcDbEntity
8
1
62
256
6
ByLayer
370
18
48
1
60
0
100
AcDbSpline
70
4
71
3
72
20
73
16
40
0
40
0
40
0
40
0
40
0.249999999999998
40
0.249999999999998
40
0.499999999999996
40
0.499999999999996
40
0.624999999999993
40
0.624999999999993
40
0.749999999999989
40
0.749999999999989
40
0.874999999999986
40
0.874999999999986
40
0.937499999999993
40
0.937499999999993
40
1
40
1
40
1
40
1
41
1
10
19.7937602725373
20
26.4
30
0
41
1
10
19.7815965948292
20
26.4
30
0
41
1
10
19.7680948871376
20
26.4
30
0
41
1
10
19.7370881248165
20
26.4
30
0
41
1
10
19.7197628903191
20
26.4
30
0
41
1
10
19.6890999939951
20
26.4
30
0
41
1
10
19.6780668771769
20
26.4
30
0
41
1
10
19.6536255684364
20
26.4
30
0
41
1
10
19.6403645548572
20
26.4
30
0
41
1
10
19.610286694054
20
26.4
30
0
41
1
10
19.5938520156439
20
26.4
30
0
41
1
10
19.5654178393999
20
26.4
30
0
41
1
10
19.5552938794341
20
26.4
30
0
41
1
10
19.5343992171813
20
26.4
30
0
41
1
10
19.5233590822777
20
26.4
30
0
41
1
10
19.5125
20
26.4
30
0
0
SPLINE
5
17B
100
AcDbEntity
8
1
62
256
6
ByLayer
370
18
48
1
60
0
100
AcDbSpline
70
4
71
3
72
14
73
10
40
0
40
0
40
0
40
0
40
0.25
40
0.25
40
0.5
40
0.5
40
0.75
40
0.75
40
1
40
1
40
1
40
1
41
1
10
110.2495
20
-15.5703702247132
30
0
41
1
10
110.259689218242
20
-15.5537244060085
30
0
41
1
10
110.269141071217
20
-15.5371479955473
30
0
41
1
10
110.286488561992
20
-15.5041362228495
30
0
41
1
10
110.294346422854
20
-15.4877581462691
30
0
41
1
10
110.307827214093
20
-15.4560122948547
30
0
41
1
10
110.313524884287
20
-15.4405314920262
30
0
41
1
10
110.321919534253
20
-15.4107737469564
30
0
41
1
10
110.3245
20
-15.397025683911
30
0
41
1
10
110.3245
20
-15.3850933995447
30
0
0
SPLINE
5
17C
100
AcDbEntity
8
1
62
256
6
ByLayer
370
18
48
1
60
0
100
AcDbSpline
70
4
71
3
72
8
73
4
40
0
40
0
40
0
40
0
40
1
40
1
40
1
40
1
41
1
10
110.2495
20
13.9767752987127
30
0
41
1
10
110.034872069188
20
14.1546049768551
30
0
41
1
10
109.820203979195
20
14.3323700434184
30
0
41
1
10
109.6055
20
14.5100772776498
30
0
0
SPLINE
5
17D
100
AcDbEntity
8
1
62
256
6
ByLayer
370
18
48
1
60
0
100
AcDbSpline
70
4
71
3
72
14
73
10
40
0
40
0
40
0
40
0
40
0.25
40
0.25
40
0.5
40
0.5
40
0.75
40
0.75
40
1
40
1
40
1
40
1
41
1
10
110.2495
20
-17.9264544727241
30
0
41
1
10
110.25944527166
20
-17.9137839384981
30
0
41
1
10
110.268857873782
20
-17.9012296925005
30
0
41
1
10
110.286063126254
20
-17.8769739480124
30
0
41
1
10
110.293918864435
20
-17.865200408821
30
0
41
1
10
110.307730134248
20
-17.8425488566719
30
0
41
1
10
110.313549981919
20
-17.831883452387
30
0
41
1
10
110.321938888577
20
-17.8129323227157
30
0
41
1
10
110.324500000001
20
-17.8045938255255
30
0
41
1
10
110.324500000001
20
-17.7986396737448
30
0
0
SPLINE
5
17E
100
AcDbEntity
8
1
62
256
6
ByLayer
370
18
48
1
60
0
100
AcDbSpline
70
4
71
3
72
16
73
12
40
0
40
0
40
0
40
0
40
0.244870256098635
40
0.244870256098635
40
0.489740512197271
40
0.489740512197271
40
0.734610768295906
40
0.734610768295906
40
0.979481024394542
40
0.979481024394542
40
1
40
1
40
1
40
1
41
1
10
109.6055
20
-19.6500792121576
30
0
41
1
10
109.594645499765
20
-19.6614971201053
30
0
41
1
10
109.584309331155
20
-19.6724989869337
30
0
41
1
10
109.56505550703
20
-19.6932971537009
30
0
41
1
10
109.555990486058
20
-19.7032556166844
30
0
41
1
10
109.54029226655
20
-19.7209485260459
30
0
41
1
10
109.533596073865
20
-19.7287511946129
30
0
41
1
10
109.523858984405
20
-19.740889765792
30
0
41
1
10
109.520927423352
20
-19.7451121254574
30
0
41
1
10
109.520512363119
20
-19.7469103574364
30
0
41
1
10
109.520498569531
20
-19.7470311500933
30
0
41
1
10
109.520502839793
20
-19.7471338530942
30
0
0
SPLINE
5
17F
100
AcDbEntity
8
1
62
256
6
ByLayer
370
18
48
1
60
0
100
AcDbSpline
70
4
71
3
72
14
73
10
40
0
40
0
40
0
40
0
40
0.137563763828808
40
0.137563763828808
40
0.425042509219205
40
0.425042509219205
40
0.712521254609602
40
0.712521254609602
40
1
40
1
40
1
40
1
41
1
10
109.522014959552
20
-19.7472840728839
30
0
41
1
10
109.523080566016
20
-19.7468148993611
30
0
41
1
10
109.524695456823
20
-19.7457814913064
30
0
41
1
10
109.531247893089
20
-19.7409318597074
30
0
41
1
10
109.537981591735
20
-19.7352591146846
30
0
41
1
10
109.554046439389
20
-19.721005839838
30
0
41
1
10
109.563557694582
20
-19.7122726293567
30
0
41
1
10
109.583646628483
20
-19.6934639928731
30
0
41
1
10
109.594317921063
20
-19.6833078186817
30
0
41
1
10
109.6055
20
-19.67254327625
30
0
0
SPLINE
5
180
100
AcDbEntity
8
1
62
256
6
ByLayer
370
18
48
1
60
0
100
AcDbSpline
70
4
71
3
72
12
73
8
40
0
40
0
40
0
40
0
40
0.5
40
0.5
40
0.75
40
0.75
40
1
40
1
40
1
40
1
41
1
10
110.2495
20
-11.0912167009134
30
0
41
1
10
110.270749376286
20
-11.037505318721
30
0
41
1
10
110.288114006892
20
-10.9840923527969
30
0
41
1
10
110.308033340519
20
-10.9044186364488
30
0
41
1
10
110.313647104952
20
-10.8778062422474
30
0
41
1
10
110.321857566803
20
-10.8254042330728
30
0
41
1
10
110.3245
20
-10.7998432734028
30
0
41
1
10
110.3245
20
-10.7754639616859
30
0
0
SPLINE
5
181
100
AcDbEntity
8
1
62
256
6
ByLayer
370
18
48
1
60
0
100
AcDbSpline
70
4
71
3
72
12
73
8
40
0
40
0
40
0
40
0
40
0.250000000000011
40
0.250000000000011
40
0.500000000000023
40
0.500000000000023
40
1
40
1
40
1
40
1
41
1
10
110.324500000003
20
15.3850933995421
30
0
41
1
10
110.324500000003
20
15.3970787264872
30
0
41
1
10
110.321814823682
20
15.4112191757295
30
0
41
1
10
110.313432917887
20
15.440781483875
30
0
41
1
10
110.307644159211
20
15.4564966194783
30
0
41
1
10
110.287203970073
20
15.5044683083614
30
0
41
1
10
110.269842865355
20
15.5371366987856
30
0
41
1
10
110.2495
20
15.5703702247132
30
0
0
SPLINE
5
182
100
AcDbEntity
8
1
62
256
6
ByLayer
370
18
48
1
60
0
100
AcDbSpline
70
4
71
3
72
24
73
20
40
0
40
0
40
0
40
0
40
0.249999999999984
40
0.249999999999984
40
0.374999999999975
40
0.374999999999975
40
0.499999999999967
40
0.499999999999967
40
0.624999999999959
40
0.624999999999959
40
0.687499999999964
40
0.687499999999964
40
0.74999999999997
40
0.74999999999997
40
0.812499999999976
40
0.812499999999976
40
0.874999999999981
40
0.874999999999981
40
1
40
1
40
1
40
1
41
1
10
109.6055
20
-18.7363442052146
30
0
41
1
10
109.584933659893
20
-18.7618849236291
30
0
41
1
10
109.566264229824
20
-18.7868862910127
30
0
41
1
10
109.543766769786
20
-18.8209469214415
30
0
41
1
10
109.537092163987
20
-18.8318990550104
30
0
41
1
10
109.526746101153
20
-18.8513838063828
30
0
41
1
10
109.522951087146
20
-18.8601468439844
30
0
41
1
10
109.519744344447
20
-18.8737149412441
30
0
41
1
10
109.520396419323
20
-18.8785001258787
30
0
41
1
10
109.525477759379
20
-18.8812221123845
30
0
41
1
10
109.527888375931
20
-18.8813989058138
30
0
41
1
10
109.533838386635
20
-18.8802752371659
30
0
41
1
10
109.537384868344
20
-18.8789999511004
30
0
41
1
10
109.545559270928
20
-18.8751024509132
30
0
41
1
10
109.550188285926
20
-18.8724678743436
30
0
41
1
10
109.559992242756
20
-18.866232942027
30
0
41
1
10
109.565218656667
20
-18.8626093330226
30
0
41
1
10
109.581754020229
20
-18.8504066896326
30
0
41
1
10
109.593447968638
20
-18.8408583968401
30
0
41
1
10
109.6055
20
-18.8304003628102
30
0
0
SPLINE
5
183
100
AcDbEntity
8
1
62
256
6
ByLayer
370
18
48
1
60
0
100
AcDbSpline
70
4
71
3
72
10
73
6
40
0
40
0
40
0
40
0
40
0.5
40
0.5
40
1
40
1
40
1
40
1
41
1
10
110.2495
20
1.8917458747728
30
0
41
1
10
110.172800078506
20
2.22081880911631
30
0
41
1
10
110.078711071859
20
2.54199618771006
30
0
41
1
10
109.862125005522
20
3.17145220039211
30
0
41
1
10
109.739622539874
20
3.47972837989261
30
0
41
1
10
109.605500000001
20
3.78272843686801
30
0
0
SPLINE
5
184
100
AcDbEntity
8
1
62
256
6
ByLayer
370
18
48
1
60
0
100
AcDbSpline
70
4
71
3
72
12
73
8
40
0
40
0
40
0
40
0
40
0.499999999999985
40
0.499999999999985
40
0.749999999999992
40
0.749999999999992
40
1
40
1
40
1
40
1
41
1
10
110.2495
20
-12.9353083296311
30
0
41
1
10
110.270400739195
20
-12.891409105862
30
0
41
1
10
110.287982247592
20
-12.8472681461817
30
0
41
1
10
110.307957251677
20
-12.7828646621749
30
0
41
1
10
110.313571379324
20
-12.7616176300328
30
0
41
1
10
110.3218661042
20
-12.7197509393173
30
0
41
1
10
110.3245
20
-12.6996254052807
30
0
41
1
10
110.3245
20
-12.6809876861898
30
0
0
SPLINE
5
185
100
AcDbEntity
8
1
62
256
6
ByLayer
370
18
48
1
60
0
100
AcDbSpline
70
4
71
3
72
8
73
4
40
0
40
0
40
0
40
0
40
1
40
1
40
1
40
1
41
1
10
109.6055
20
16.5974568928041
30
0
41
1
10
109.823431123556
20
16.2578238253876
30
0
41
1
10
110.038207131738
20
15.9155530145199
30
0
41
1
10
110.2495
20
15.5703702247132
30
0
0
SPLINE
5
186
100
AcDbEntity
8
1
62
256
6
ByLayer
370
18
48
1
60
0
100
AcDbSpline
70
4
71
3
72
14
73
10
40
0
40
0
40
0
40
0
40
0.25
40
0.25
40
0.5
40
0.5
40
0.75
40
0.75
40
1
40
1
40
1
40
1
41
1
10
110.2495
20
17.7516701480928
30
0
41
1
10
110.259247241143
20
17.7434093616651
30
0
41
1
10
110.268784239155
20
17.7358911180699
30
0
41
1
10
110.286942676012
20
17.7231617994199
30
0
41
1
10
110.295401197738
20
17.7180938406677
30
0
41
1
10
110.309600369956
20
17.7119377182011
30
0
41
1
10
110.31533264485
20
17.7109091615286
30
0
41
1
10
110.322732668699
20
17.7133385198427
30
0
41
1
10
110.3245
20
17.7167960692811
30
0
41
1
10
110.3245
20
17.7218227111435
30
0
0
SPLINE
5
187
100
AcDbEntity
8
1
62
256
6
ByLayer
370
18
48
1
60
0
100
AcDbSpline
70
4
71
3
72
20
73
16
40
0
40
0
40
0
40
0
40
0.124999999999961
40
0.124999999999961
40
0.187499999999945
40
0.187499999999945
40
0.249999999999929
40
0.249999999999929
40
0.374999999999942
40
0.374999999999942
40
0.499999999999955
40
0.499999999999955
40
0.749999999999973
40
0.749999999999973
40
1
40
1
40
1
40
1
41
1
10
109.6055
20
15.7591455874816
30
0
41
1
10
109.591241209992
20
15.7707955390167
30
0
41
1
10
109.576882009736
20
15.7804531729583
30
0
41
1
10
109.557418433899
20
15.7884657702569
30
0
41
1
10
109.55141786387
20
15.7899919676717
30
0
41
1
10
109.540736957698
20
15.7903960135115
30
0
41
1
10
109.536294750605
20
15.789278403277
30
0
41
1
10
109.525397558399
20
15.7823442394068
30
0
41
1
10
109.521806464736
20
15.77297526137
30
0
41
1
10
109.519817784919
20
15.7505443210121
30
0
41
1
10
109.521200723363
20
15.7375040508775
30
0
41
1
10
109.529841545333
20
15.6949118150192
30
0
41
1
10
109.541334881166
20
15.663103963605
30
0
41
1
10
109.569508859252
20
15.598922252976
30
0
41
1
10
109.586315553106
20
15.5663315348299
30
0
41
1
10
109.6055
20
15.5333158840139
30
0
0
SPLINE
5
188
100
AcDbEntity
8
1
62
256
6
ByLayer
370
18
48
1
60
0
100
AcDbSpline
70
4
71
3
72
24
73
20
40
0
40
0
40
0
40
0
40
0.250000000000026
40
0.250000000000026
40
0.375000000000022
40
0.375000000000022
40
0.500000000000017
40
0.500000000000017
40
0.625000000000013
40
0.625000000000013
40
0.750000000000009
40
0.750000000000009
40
0.812500000000007
40
0.812500000000007
40
0.875000000000004
40
0.875000000000004
40
0.937500000000002
40
0.937500000000002
40
1
40
1
40
1
40
1
41
1
10
109.6055
20
-16.5974568928041
30
0
41
1
10
109.585930635048
20
-16.627954617671
30
0
41
1
10
109.568404377661
20
-16.6584924379041
30
0
41
1
10
109.546981041172
20
-16.7021612457542
30
0
41
1
10
109.540636798332
20
-16.7163852039587
30
0
41
1
10
109.530004961665
20
-16.7439749121277
30
0
41
1
10
109.525755068741
20
-16.7572748958537
30
0
41
1
10
109.520602301041
20
-16.7813697613153
30
0
41
1
10
109.519658004616
20
-16.7924512939753
30
0
41
1
10
109.523058586786
20
-16.8094781184495
30
0
41
1
10
109.527571821705
20
-16.8154965617001
30
0
41
1
10
109.53929320376
20
-16.8179133314042
30
0
41
1
10
109.543873715488
20
-16.817642095108
30
0
41
1
10
109.55432599517
20
-16.8150413247482
30
0
41
1
10
109.56020425055
20
-16.8126777169457
30
0
41
1
10
109.572428193163
20
-16.8063867311992
30
0
41
1
10
109.578926831088
20
-16.8023930464153
30
0
41
1
10
109.592111319828
20
-16.7932881819859
30
0
41
1
10
109.598776586911
20
-16.7882045166474
30
0
41
1
10
109.6055
20
-16.7826993267327
30
0
0
SPLINE
5
189
100
AcDbEntity
8
1
62
256
6
ByLayer
370
18
48
1
60
0
100
AcDbSpline
70
4
71
3
72
14
73
10
40
0
40
0
40
0
40
0
40
0.25
40
0.25
40
0.5
40
0.5
40
0.75
40
0.75
40
1
40
1
40
1
40
1
41
1
10
110.3245
20
-17.0663360248446
30
0
41
1
10
110.3245
20
-17.0602063448816
30
0
41
1
10
110.322879088429
20
-17.0554417118855
30
0
41
1
10
110.315723768599
20
-17.050394459048
30
0
41
1
10
110.31012433525
20
-17.0501458087765
30
0
41
1
10
110.2959401497
20
-17.0543147310198
30
0
41
1
10
110.287363709046
20
-17.0586844662361
30
0
41
1
10
110.269011155193
20
-17.0704653043412
30
0
41
1
10
110.259309512901
20
-17.0777868692096
30
0
41
1
10
110.2495
20
-17.0859271543189
30
0
0
SPLINE
5
18A
100
AcDbEntity
8
1
62
256
6
ByLayer
370
18
48
1
60
0
100
AcDbSpline
70
4
71
3
72
28
73
24
40
0
40
0
40
0
40
0
40
0.250000000000009
40
0.250000000000009
40
0.500000000000019
40
0.500000000000019
40
0.625000000000024
40
0.625000000000024
40
0.75000000000003
40
0.75000000000003
40
0.812500000000032
40
0.812500000000032
40
0.843750000000026
40
0.843750000000026
40
0.875000000000021
40
0.875000000000021
40
0.906250000000016
40
0.906250000000016
40
0.937500000000011
40
0.937500000000011
40
0.968750000000005
40
0.968750000000005
40
1
40
1
40
1
40
1
41
1
10
109.6055
20
-7.71473982249802
30
0
41
1
10
109.588576985242
20
-7.78097828604771
30
0
41
1
10
109.573778640626
20
-7.84696793614918
30
0
41
1
10
109.548417493048
20
-7.97844052354017
30
0
41
1
10
109.537797636014
20
-8.04392844473293
30
0
41
1
10
109.526574325012
20
-8.1416448640675
30
0
41
1
10
109.523621888495
20
-8.17419635525948
30
0
41
1
10
109.520256070083
20
-8.23876637118312
30
0
41
1
10
109.51977379898
20
-8.27045006288571
30
0
41
1
10
109.522833074229
20
-8.31614906135476
30
0
41
1
10
109.524493209776
20
-8.33114878934825
30
0
41
1
10
109.528800694706
20
-8.35253976664796
30
0
41
1
10
109.53053112703
20
-8.35940949468355
30
0
41
1
10
109.53487591584
20
-8.37237160833817
30
0
41
1
10
109.53751759955
20
-8.37854005955052
30
0
41
1
10
109.544135407032
20
-8.38918735486618
30
0
41
1
10
109.548160280846
20
-8.39371783465444
30
0
41
1
10
109.557970832039
20
-8.39934345018193
30
0
41
1
10
109.563796586259
20
-8.40028225526351
30
0
41
1
10
109.576048721416
20
-8.39770888838578
30
0
41
1
10
109.582429655099
20
-8.39428785304651
30
0
41
1
10
109.594489804997
20
-8.385188912308
30
0
41
1
10
109.600109447799
20
-8.37966984126282
30
0
41
1
10
109.6055
20
-8.37361101742596
30
0
0
SPLINE
5
18B
100
AcDbEntity
8
1
62
256
6
ByLayer
370
18
48
1
60
0
100
AcDbSpline
70
4
71
3
72
8
73
4
40
0
40
0
40
0
40
0
40
1
40
1
40
1
40
1
41
1
10
109.6055
20
-19.5115512430934
30
0
41
1
10
109.820462678659
20
-19.31244894935
30
0
41
1
10
110.035137860735
20
-19.1129342405493
30
0
41
1
10
110.2495
20
-18.9129704705177
30
0
0
SPLINE
5
18C
100
AcDbEntity
8
1
62
256
6
ByLayer
370
18
48
1
60
0
100
AcDbSpline
70
4
71
3
72
8
73
4
40
0
40
0
40
0
40
0
40
1
40
1
40
1
40
1
41
1
10
109.6055
20
10.5692423325784
30
0
41
1
10
109.837557523584
20
9.92526882917281
30
0
41
1
10
110.052909503293
20
9.27395742250874
30
0
41
1
10
110.2495
20
8.61440504217293
30
0
0
SPLINE
5
18D
100
AcDbEntity
8
1
62
256
6
ByLayer
370
18
48
1
60
0
100
AcDbSpline
70
4
71
3
72
8
73
4
40
0
40
0
40
0
40
0
40
1
40
1
40
1
40
1
41
1
10
110.2495
20
16.2553382123749
30
0
41
1
10
110.034840117021
20
16.4311362953957
30
0
41
1
10
109.820173237194
20
16.6069229874503
30
0
41
1
10
109.6055
20
16.7826993267326
30
0
0
SPLINE
5
18E
100
AcDbEntity
8
1
62
256
6
ByLayer
370
18
48
1
60
0
100
AcDbSpline
70
4
71
3
72
12
73
8
40
0
40
0
40
0
40
0
40
0.5
40
0.5
40
0.75
40
0.75
40
1
40
1
40
1
40
1
41
1
10
110.2495
20
-17.3075317791603
30
0
41
1
10
110.269569104578
20
-17.2800446718393
30
0
41
1
10
110.287037981678
20
-17.253389227797
30
0
41
1
10
110.307741596853
20
-17.2153783121061
30
0
41
1
10
110.313491339927
20
-17.2034216639815
30
0
41
1
10
110.321898093649
20
-17.1814239866425
30
0
41
1
10
110.324500000003
20
-17.1714323312695
30
0
41
1
10
110.324500000003
20
-17.1637626739603
30
0
0
SPLINE
5
18F
100
AcDbEntity
8
1
62
256
6
ByLayer
370
18
48
1
60
0
100
AcDbSpline
70
4
71
3
72
18
73
14
40
0
40
0
40
0
40
0
40
0.125000000000011
40
0.125000000000011
40
0.250000000000022
40
0.250000000000022
40
0.375000000000033
40
0.375000000000033
40
0.500000000000044
40
0.500000000000044
40
0.750000000000022
40
0.750000000000022
40
1
40
1
40
1
40
1
41
1
10
110.249499999998
20
7.63358295813134
30
0
41
1
10
110.255413958302
20
7.62662406169016
30
0
41
1
10
110.261770458563
20
7.62030972372798
30
0
41
1
10
110.275305680587
20
7.61142405447737
30
0
41
1
10
110.282553982376
20
7.60917728824248
30
0
41
1
10
110.295087758634
20
7.61165495551492
30
0
41
1
10
110.300230069096
20
7.61609947706577
30
0
41
1
10
110.308159051547
20
7.62751165373595
30
0
41
1
10
110.31112797194
20
7.634517079592
30
0
41
1
10
110.318222409956
20
7.65669355896836
30
0
41
1
10
110.32074518818
20
7.67337802668825
30
0
41
1
10
110.323912195392
20
7.70715170013813
30
0
41
1
10
110.3245
20
7.72451069592998
30
0
41
1
10
110.3245
20
7.74214285318683
30
0
0
SPLINE
5
190
100
AcDbEntity
8
1
62
256
6
ByLayer
370
18
48
1
60
0
100
AcDbSpline
70
4
71
3
72
8
73
4
40
0
40
0
40
0
40
0
40
1
40
1
40
1
40
1
41
1
10
109.6055
20
19.6500792121576
30
0
41
1
10
109.820860303431
20
19.4235405354009
30
0
41
1
10
110.035547222369
20
19.1961543314658
30
0
41
1
10
110.2495
20
18.9678441313361
30
0
0
SPLINE
5
191
100
AcDbEntity
8
1
62
256
6
ByLayer
370
18
48
1
60
0
100
AcDbSpline
70
4
71
3
72
8
73
4
40
0
40
0
40
0
40
0
40
1
40
1
40
1
40
1
41
1
10
110.2495
20
-11.0912167009134
30
0
41
1
10
110.044943589855
20
-11.608267525243
30
0
41
1
10
109.829910422179
20
-12.1194546037457
30
0
41
1
10
109.6055
20
-12.6253933182574
30
0
0
SPLINE
5
192
100
AcDbEntity
8
1
62
256
6
ByLayer
370
18
48
1
60
0
100
AcDbSpline
70
4
71
3
72
8
73
4
40
0
40
0
40
0
40
0
40
1
40
1
40
1
40
1
41
1
10
110.2495
20
-16.5300799335829
30
0
41
1
10
110.037374649206
20
-16.845389577551
30
0
41
1
10
109.822628100131
20
-17.1583021627902
30
0
41
1
10
109.6055
20
-17.4690368442115
30
0
0
SPLINE
5
193
100
AcDbEntity
8
1
62
256
6
ByLayer
370
18
48
1
60
0
100
AcDbSpline
70
4
71
3
72
10
73
6
40
0
40
0
40
0
40
0
40
0.5
40
0.5
40
1
40
1
40
1
40
1
41
1
10
109.605500000001
20
-3.78272843686801
30
0
41
1
10
109.739622539874
20
-3.47972837989218
30
0
41
1
10
109.862125005522
20
-3.17145220039126
30
0
41
1
10
110.07871107186
20
-2.54199618770832
30
0
41
1
10
110.172800078506
20
-2.22081880911409
30
0
41
1
10
110.249500000001
20
-1.89174587477007
30
0
0
SPLINE
5
194
100
AcDbEntity
8
1
62
256
6
ByLayer
370
18
48
1
60
0
100
AcDbSpline
70
4
71
3
72
14
73
10
40
0
40
0
40
0
40
0
40
0.25
40
0.25
40
0.5
40
0.5
40
0.75
40
0.75
40
1
40
1
40
1
40
1
41
1
10
110.2495
20
13.9767752987123
30
0
41
1
10
110.259733022903
20
13.9682967416001
30
0
41
1
10
110.270234663605
20
13.9611039699823
30
0
41
1
10
110.289965723692
20
13.9523389980603
30
0
41
1
10
110.299095384783
20
13.9510252133538
30
0
41
1
10
110.31290217886
20
13.9555071749107
30
0
41
1
10
110.317639435507
20
13.9611014471509
30
0
41
1
10
110.323378773838
20
13.9757839108189
30
0
41
1
10
110.324500000004
20
13.9848636445606
30
0
41
1
10
110.324500000004
20
13.9946525728915
30
0
0
SPLINE
5
195
100
AcDbEntity
8
1
62
256
6
ByLayer
370
18
48
1
60
0
100
AcDbSpline
70
4
71
3
72
24
73
20
40
0
40
0
40
0
40
0
40
0.0625000000000364
40
0.0625000000000364
40
0.0937500000000321
40
0.0937500000000321
40
0.125000000000028
40
0.125000000000028
40
0.187500000000021
40
0.187500000000021
40
0.250000000000013
40
0.250000000000013
40
0.375000000000013
40
0.375000000000013
40
0.500000000000013
40
0.500000000000013
40
0.750000000000006
40
0.750000000000006
40
1
40
1
40
1
40
1
41
1
10
109.605500000001
20
11.0193324895506
30
0
41
1
10
109.596351499942
20
11.0278652865441
30
0
41
1
10
109.586687669786
20
11.0351999066992
30
0
41
1
10
109.572333089937
20
11.0418200062379
30
0
41
1
10
109.567554778791
20
11.0432723168304
30
0
41
1
10
109.558641496353
20
11.0442508533819
30
0
41
1
10
109.554365500145
20
11.0437754546187
30
0
41
1
10
109.543093981622
20
11.0397104876866
30
0
41
1
10
109.537346922296
20
11.0335113934086
30
0
41
1
10
109.5289338815
20
11.0179344761299
30
0
41
1
10
109.526157472395
20
11.0085824314792
30
0
41
1
10
109.520450088133
20
10.9788847800533
30
0
41
1
10
109.519936430234
20
10.9563668452073
30
0
41
1
10
109.521890124223
20
10.9105914997112
30
0
41
1
10
109.524441710891
20
10.8869493256595
30
0
41
1
10
109.53512134905
20
10.814546117304
30
0
41
1
10
109.545959817937
20
10.7658633474734
30
0
41
1
10
109.572183989675
20
10.6679632963494
30
0
41
1
10
109.58766472211
20
10.6187362951507
30
0
41
1
10
109.6055
20
10.5692423325784
30
0
0
SPLINE
5
196
100
AcDbEntity
8
1
62
256
6
ByLayer
370
18
48
1
60
0
100
AcDbSpline
70
4
71
3
72
18
73
14
40
0
40
0
40
0
40
0
40
0.249999999999983
40
0.249999999999983
40
0.499999999999965
40
0.499999999999965
40
0.624999999999974
40
0.624999999999974
40
0.749999999999982
40
0.749999999999982
40
0.874999999999991
40
0.874999999999991
40
1
40
1
40
1
40
1
41
1
10
110.3245
20
-7.74214285318683
30
0
41
1
10
110.3245
20
-7.72451769938337
30
0
41
1
10
110.32391229198
20
-7.70717174850174
30
0
41
1
10
110.32075290832
20
-7.67344138464111
30
0
41
1
10
110.31823321225
20
-7.65674285087988
30
0
41
1
10
110.311139893003
20
-7.63454660946661
30
0
41
1
10
110.30817714617
20
-7.62754219862643
30
0
41
1
10
110.300230880857
20
-7.61609615481925
30
0
41
1
10
110.295135545578
20
-7.61165458521367
30
0
41
1
10
110.282451033099
20
-7.60916679688745
30
0
41
1
10
110.275264485858
20
-7.61143589895369
30
0
41
1
10
110.261672465469
20
-7.62038941044787
30
0
41
1
10
110.255362671196
20
-7.62668441072717
30
0
41
1
10
110.2495
20
-7.63358295813416
30
0
0
SPLINE
5
197
100
AcDbEntity
8
1
62
256
6
ByLayer
370
18
48
1
60
0
100
AcDbSpline
70
4
71
3
72
8
73
4
40
0
40
0
40
0
40
0
40
1
40
1
40
1
40
1
41
1
10
25.95
20
-29.6281216709733
30
0
41
1
10
25.7833972320879
20
-29.8022699946348
30
0
41
1
10
25.6167293283391
20
-29.9763562682362
30
0
41
1
10
25.45
20
-30.1503829784963
30
0
0
SPLINE
5
198
100
AcDbEntity
8
1
62
256
6
ByLayer
370
18
48
1
60
0
100
AcDbSpline
70
4
71
3
72
8
73
4
40
0
40
0
40
0
40
0
40
1
40
1
40
1
40
1
41
1
10
109.6055
20
-19.67254327625
30
0
41
1
10
109.820569637573
20
-19.4655042942751
30
0
41
1
10
110.035247896482
20
-19.2579256967411
30
0
41
1
10
110.2495
20
-19.0497595350354
30
0
0
SPLINE
5
199
100
AcDbEntity
8
1
62
256
6
ByLayer
370
18
48
1
60
0
100
AcDbSpline
70
4
71
3
72
12
73
8
40
0
40
0
40
0
40
0
40
0.250000000000006
40
0.250000000000006
40
0.500000000000013
40
0.500000000000013
40
1
40
1
40
1
40
1
41
1
10
110.324500000001
20
17.1637626739618
30
0
41
1
10
110.324500000001
20
17.1715373958858
30
0
41
1
10
110.321911983203
20
17.1813988967017
30
0
41
1
10
110.313432961461
20
17.2035631073316
30
0
41
1
10
110.307648294226
20
17.2155633646174
30
0
41
1
10
110.28692603742
20
17.2535669467308
30
0
41
1
10
110.26945325247
20
17.2802033455514
30
0
41
1
10
110.2495
20
17.3075317791603
30
0
0
SPLINE
5
19A
100
AcDbEntity
8
1
62
256
6
ByLayer
370
18
48
1
60
0
100
AcDbSpline
70
4
71
3
72
8
73
4
40
0
40
0
40
0
40
0
40
1
40
1
40
1
40
1
41
1
10
109.6055
20
-17.6200829661946
30
0
41
1
10
109.820200946825
20
-17.4420861479081
30
0
41
1
10
110.034868684835
20
-17.2640359061465
30
0
41
1
10
110.2495
20
-17.0859271543189
30
0
0
SPLINE
5
19B
100
AcDbEntity
8
1
62
256
6
ByLayer
370
18
48
1
60
0
100
AcDbSpline
70
4
71
3
72
8
73
4
40
0
40
0
40
0
40
0
40
1
40
1
40
1
40
1
41
1
10
110.2495
20
10.4146279387558
30
0
41
1
10
110.035436607666
20
10.6170527580396
30
0
41
1
10
109.820739969169
20
10.8185783823276
30
0
41
1
10
109.6055
20
11.0193324895489
30
0
0
SPLINE
5
19C
100
AcDbEntity
8
1
62
256
6
ByLayer
370
18
48
1
60
0
100
AcDbSpline
70
4
71
3
72
8
73
4
40
0
40
0
40
0
40
0
40
1
40
1
40
1
40
1
41
1
10
110.2495
20
-14.3919878841885
30
0
41
1
10
110.039439331602
20
-14.7758958248991
30
0
41
1
10
109.824618246661
20
-15.1562223165521
30
0
41
1
10
109.6055
20
-15.5333158840139
30
0
0
SPLINE
5
19D
100
AcDbEntity
8
1
62
256
6
ByLayer
370
18
48
1
60
0
100
AcDbSpline
70
4
71
3
72
22
73
18
40
0
40
0
40
0
40
0
40
0.124999999999951
40
0.124999999999951
40
0.18749999999996
40
0.18749999999996
40
0.249999999999969
40
0.249999999999969
40
0.312499999999978
40
0.312499999999978
40
0.374999999999986
40
0.374999999999986
40
0.499999999999986
40
0.499999999999986
40
0.749999999999993
40
0.749999999999993
40
1
40
1
40
1
40
1
41
1
10
109.6055
20
16.7826993267326
30
0
41
1
10
109.591974522899
20
16.79377410663
30
0
41
1
10
109.578572891949
20
16.8032351891506
30
0
41
1
10
109.560072832448
20
16.8127399031511
30
0
41
1
10
109.554246459773
20
16.8150706091348
30
0
41
1
10
109.543782254935
20
16.8176552021779
30
0
41
1
10
109.539080357025
20
16.8178985994964
30
0
41
1
10
109.531404308881
20
16.8162564980175
30
0
41
1
10
109.52830691468
20
16.814376925707
30
0
41
1
10
109.523684963868
20
16.8087898475587
30
0
41
1
10
109.522185737906
20
16.8051654829401
30
0
41
1
10
109.519647436547
20
16.792280964629
30
0
41
1
10
109.52060442944
20
16.7813013056084
30
0
41
1
10
109.528430006134
20
16.7448847871389
30
0
41
1
10
109.540081448102
20
16.7161474341273
30
0
41
1
10
109.568801388406
20
16.6577627074369
30
0
41
1
10
109.585973014625
20
16.627888571547
30
0
41
1
10
109.6055
20
16.5974568928041
30
0
0
SPLINE
5
19E
100
AcDbEntity
8
1
62
256
6
ByLayer
370
18
48
1
60
0
100
AcDbSpline
70
4
71
3
72
8
73
4
40
0
40
0
40
0
40
0
40
1
40
1
40
1
40
1
41
1
10
16.0875
20
27.804699781433
30
0
41
1
10
15.6013682901506
20
28.6810104197576
30
0
41
1
10
15.1138933954393
20
29.5565832425009
30
0
41
1
10
14.6253876765866
20
30.4315723180712
30
0
0
SPLINE
5
19F
100
AcDbEntity
8
1
62
256
6
ByLayer
370
18
48
1
60
0
100
AcDbSpline
70
4
71
3
72
14
73
10
40
0
40
0
40
0
40
0
40
0.25
40
0.25
40
0.5
40
0.5
40
0.75
40
0.75
40
1
40
1
40
1
40
1
41
1
10
110.2495
20
17.0859271543188
30
0
41
1
10
110.259305222304
20
17.0777904297006
30
0
41
1
10
110.268941650508
20
17.070512356637
30
0
41
1
10
110.287372796518
20
17.0586762048216
30
0
41
1
10
110.295964745964
20
17.0543030091874
30
0
41
1
10
110.310152692604
20
17.0501419836255
30
0
41
1
10
110.315769240382
20
17.0504143348533
30
0
41
1
10
110.322871011082
20
17.05544827789
30
0
41
1
10
110.3245
20
17.0602107169181
30
0
41
1
10
110.3245
20
17.0663360248446
30
0
0
SPLINE
5
1A0
100
AcDbEntity
8
1
62
256
6
ByLayer
370
18
48
1
60
0
100
AcDbSpline
70
4
71
3
72
20
73
16
40
0
40
0
40
0
40
0
40
0.249999999999965
40
0.249999999999965
40
0.374999999999971
40
0.374999999999971
40
0.499999999999977
40
0.499999999999977
40
0.624999999999982
40
0.624999999999982
40
0.749999999999988
40
0.749999999999988
40
0.874999999999994
40
0.874999999999994
40
1
40
1
40
1
40
1
41
1
10
109.6055
20
-19.4662256251216
30
0
41
1
10
109.584252717749
20
-19.4897321106051
30
0
41
1
10
109.564759178412
20
-19.512245602338
30
0
41
1
10
109.541538810157
20
-19.541245591061
30
0
41
1
10
109.534819153131
20
-19.5501143780702
30
0
41
1
10
109.524848890269
20
-19.5647104400402
30
0
41
1
10
109.52154227505
20
-19.5705386140865
30
0
41
1
10
109.519879790056
20
-19.5773439817586
30
0
41
1
10
109.521526851207
20
-19.5782810305198
30
0
41
1
10
109.529927354216
20
-19.5747851907473
30
0
41
1
10
109.536474905501
20
-19.5704541370685
30
0
41
1
10
109.552728930923
20
-19.5580671841504
30
0
41
1
10
109.562321241512
20
-19.5501066098877
30
0
41
1
10
109.583076711062
20
-19.5320647148509
30
0
41
1
10
109.594055349581
20
-19.5221514838591
30
0
41
1
10
109.6055
20
-19.5115512430934
30
0
0
SPLINE
5
1A1
100
AcDbEntity
8
1
62
256
6
ByLayer
370
18
48
1
60
0
100
AcDbSpline
70
4
71
3
72
22
73
18
40
0
40
0
40
0
40
0
40
0.124999999999958
40
0.124999999999958
40
0.249999999999915
40
0.249999999999915
40
0.312499999999917
40
0.312499999999917
40
0.374999999999919
40
0.374999999999919
40
0.499999999999938
40
0.499999999999938
40
0.624999999999958
40
0.624999999999958
40
0.749999999999977
40
0.749999999999977
40
1
40
1
40
1
40
1
41
1
10
109.6055
20
18.8304003628101
30
0
41
1
10
109.593380808039
20
18.8409166748025
30
0
41
1
10
109.581502968404
20
18.850599351319
30
0
41
1
10
109.559693945803
20
18.8666789353283
30
0
41
1
10
109.549522162378
20
18.8732288666946
30
0
41
1
10
109.537271537993
20
18.8790458665807
30
0
41
1
10
109.533636580047
20
18.8803378471185
30
0
41
1
10
109.527722419873
20
18.8814041831677
30
0
41
1
10
109.525390108167
20
18.8812105482548
30
0
41
1
10
109.520318726839
20
18.8783850311454
30
0
41
1
10
109.51974863245
20
18.8735609996964
30
0
41
1
10
109.523039271001
20
18.8599134489843
30
0
41
1
10
109.526840175741
20
18.8511757274978
30
0
41
1
10
109.537301085598
20
18.8315374121517
30
0
41
1
10
109.54386990924
20
18.8207762383678
30
0
41
1
10
109.56664699131
20
18.7863364356785
30
0
41
1
10
109.585022833209
20
18.7617741819729
30
0
41
1
10
109.6055
20
18.7363442052146
30
0
0
SPLINE
5
1A2
100
AcDbEntity
8
1
62
256
6
ByLayer
370
18
48
1
60
0
100
AcDbSpline
70
4
71
3
72
8
73
4
40
0
40
0
40
0
40
0
40
1
40
1
40
1
40
1
41
1
10
110.2495
20
-19.0679370847154
30
0
41
1
10
110.035382142102
20
-19.2854992733109
30
0
41
1
10
109.820700052471
20
-19.5023166855204
30
0
41
1
10
109.6055
20
-19.7184503955052
30
0
0
SPLINE
5
1A3
100
AcDbEntity
8
1
62
256
6
ByLayer
370
18
48
1
60
0
100
AcDbSpline
70
4
71
3
72
8
73
4
40
0
40
0
40
0
40
0
40
1
40
1
40
1
40
1
41
1
10
109.6055
20
-12.9705056015291
30
0
41
1
10
109.820331960648
20
-12.7859304687194
30
0
41
1
10
110.035005737834
20
-12.6011103791873
30
0
41
1
10
110.2495
20
-12.4160122997164
30
0
0
SPLINE
5
1A4
100
AcDbEntity
8
1
62
256
6
ByLayer
370
18
48
1
60
0
100
AcDbSpline
70
4
71
3
72
8
73
4
40
0
40
0
40
0
40
0
40
1
40
1
40
1
40
1
41
1
10
109.6055
20
19.7184503955052
30
0
41
1
10
109.820700052471
20
19.5023166855204
30
0
41
1
10
110.035382142102
20
19.2854992733109
30
0
41
1
10
110.2495
20
19.0679370847154
30
0
0
SPLINE
5
1A5
100
AcDbEntity
8
1
62
256
6
ByLayer
370
18
48
1
60
0
100
AcDbSpline
70
4
71
3
72
8
73
4
40
0
40
0
40
0
40
0
40
1
40
1
40
1
40
1
41
1
10
110.2495
20
-8.61440504217293
30
0
41
1
10
110.052909503293
20
-9.27395742250872
30
0
41
1
10
109.837557523584
20
-9.92526882917281
30
0
41
1
10
109.6055
20
-10.5692423325784
30
0
0
SPLINE
5
1A6
100
AcDbEntity
8
1
62
256
6
ByLayer
370
18
48
1
60
0
100
AcDbSpline
70
4
71
3
72
12
73
8
40
0
40
0
40
0
40
0
40
0.5
40
0.5
40
0.75
40
0.75
40
1
40
1
40
1
40
1
41
1
10
110.2495
20
-14.3919878841886
30
0
41
1
10
110.27010032095
20
-14.3543386333589
30
0
41
1
10
110.287778739477
20
-14.3163913811337
30
0
41
1
10
110.307880398042
20
-14.2617098394658
30
0
41
1
10
110.313525962551
20
-14.2438253173232
30
0
41
1
10
110.321860478618
20
-14.2090213858311
30
0
41
1
10
110.3245
20
-14.1924069066608
30
0
41
1
10
110.3245
20
-14.1775976034378
30
0
0
SPLINE
5
1A7
100
AcDbEntity
8
1
62
256
6
ByLayer
370
18
48
1
60
0
100
AcDbSpline
70
4
71
3
72
22
73
18
40
0
40
0
40
0
40
0
40
0.250000000000084
40
0.250000000000084
40
0.312500000000088
40
0.312500000000088
40
0.375000000000091
40
0.375000000000091
40
0.500000000000073
40
0.500000000000073
40
0.625000000000055
40
0.625000000000055
40
0.750000000000036
40
0.750000000000036
40
0.875000000000018
40
0.875000000000018
40
1
40
1
40
1
40
1
41
1
10
109.6055
20
19.5115512430934
30
0
41
1
10
109.582537997433
20
19.5328190622729
30
0
41
1
10
109.560753547666
20
19.5519654120075
30
0
41
1
10
109.54040488847
20
19.5674556705879
30
0
41
1
10
109.536759223766
20
19.5700669054193
30
0
41
1
10
109.530414457453
20
19.574200409037
30
0
41
1
10
109.527719044753
20
19.5757123360829
30
0
41
1
10
109.521544858164
20
19.5782568081098
30
0
41
1
10
109.519876109205
20
19.5773008110934
30
0
41
1
10
109.521565633523
20
19.5705019246575
30
0
41
1
10
109.5248695786
20
19.5646759138372
30
0
41
1
10
109.534864493797
20
19.5500522686143
30
0
41
1
10
109.541609733461
20
19.5411548521571
30
0
41
1
10
109.557055124618
20
19.521869396227
30
0
41
1
10
109.565941228382
20
19.5112472832549
30
0
41
1
10
109.584848961551
20
19.4893103171526
30
0
41
1
10
109.594911439579
20
19.4779400570609
30
0
41
1
10
109.6055
20
19.4662256251216
30
0
0
SPLINE
5
1A8
100
AcDbEntity
8
1
62
256
6
ByLayer
370
18
48
1
60
0
100
AcDbSpline
70
4
71
3
72
8
73
4
40
0
40
0
40
0
40
0
40
1
40
1
40
1
40
1
41
1
10
110.2495
20
19.0497595350354
30
0
41
1
10
110.035247896482
20
19.2579256967411
30
0
41
1
10
109.820569637573
20
19.4655042942751
30
0
41
1
10
109.6055
20
19.67254327625
30
0
0
SPLINE
5
1A9
100
AcDbEntity
8
1
62
256
6
ByLayer
370
18
48
1
60
0
100
AcDbSpline
70
4
71
3
72
8
73
4
40
0
40
0
40
0
40
0
40
1
40
1
40
1
40
1
41
1
10
110.2495
20
-4.57174589786121
30
0
41
1
10
110.086430061288
20
-5.63350618125841
30
0
41
1
10
109.869706220596
20
-6.68060882615367
30
0
41
1
10
109.6055
20
-7.71473982249799
30
0
0
SPLINE
5
1AA
100
AcDbEntity
8
1
62
256
6
ByLayer
370
18
48
1
60
0
100
AcDbSpline
70
4
71
3
72
8
73
4
40
0
40
0
40
0
40
0
40
1
40
1
40
1
40
1
41
1
10
109.6055
20
-16.7826993267326
30
0
41
1
10
109.820173237194
20
-16.6069229874503
30
0
41
1
10
110.034840117021
20
-16.4311362953957
30
0
41
1
10
110.2495
20
-16.2553382123749
30
0
0
SPLINE
5
1AB
100
AcDbEntity
8
1
62
256
6
ByLayer
370
18
48
1
60
0
100
AcDbSpline
70
4
71
3
72
8
73
4
40
0
40
0
40
0
40
0
40
1
40
1
40
1
40
1
41
1
10
25.95
20
29.9142205940586
30
0
41
1
10
25.7833823365861
20
30.086718788344
30
0
41
1
10
25.6167148649415
20
30.259168580766
30
0
41
1
10
25.45
20
30.4315723180712
30
0
0
SPLINE
5
1AC
100
AcDbEntity
8
1
62
256
6
ByLayer
370
18
48
1
60
0
100
AcDbSpline
70
4
71
3
72
8
73
4
40
0
40
0
40
0
40
0
40
1
40
1
40
1
40
1
41
1
10
109.6055
20
14.2334897125276
30
0
41
1
10
109.826510348702
20
13.8049585330931
30
0
41
1
10
110.04140572646
20
13.3723826835175
30
0
41
1
10
110.2495
20
12.9353083296311
30
0
0
SPLINE
5
1AD
100
AcDbEntity
8
1
62
256
6
ByLayer
370
18
48
1
60
0
100
AcDbSpline
70
4
71
3
72
12
73
8
40
0
40
0
40
0
40
0
40
0.250000000000002
40
0.250000000000002
40
0.500000000000004
40
0.500000000000004
40
1
40
1
40
1
40
1
41
1
10
110.3245
20
12.6809876861898
30
0
41
1
10
110.3245
20
12.6997071452707
30
0
41
1
10
110.321855324873
20
12.719794914746
30
0
41
1
10
110.313599942066
20
12.7614838723725
30
0
41
1
10
110.30788129739
20
12.78314743734
30
0
41
1
10
110.287783443018
20
12.8478323650262
30
0
41
1
10
110.270417001908
20
12.8913749481953
30
0
41
1
10
110.2495
20
12.9353083296311
30
0
0
SPLINE
5
1AE
100
AcDbEntity
8
1
62
256
6
ByLayer
370
18
48
1
60
0
100
AcDbSpline
70
4
71
3
72
12
73
8
40
0
40
0
40
0
40
0
40
0.499999999999999
40
0.499999999999999
40
0.75
40
0.75
40
1
40
1
40
1
40
1
41
1
10
110.2495
20
-4.57174589786112
30
0
41
1
10
110.273449874967
20
-4.41580651238814
30
0
41
1
10
110.291067937376
20
-4.25978962707725
30
0
41
1
10
110.310080956516
20
-4.02558110117675
30
0
41
1
10
110.315133100644
20
-3.9474823744188
30
0
41
1
10
110.322320194146
20
-3.79123244661992
30
0
41
1
10
110.3245
20
-3.71323815752763
30
0
41
1
10
110.3245
20
-3.63551555823577
30
0
0
SPLINE
5
1AF
100
AcDbEntity
8
1
62
256
6
ByLayer
370
18
48
1
60
0
100
AcDbSpline
70
4
71
3
72
8
73
4
40
0
40
0
40
0
40
0
40
1
40
1
40
1
40
1
41
1
10
110.2495
20
7.63358295813416
30
0
41
1
10
110.037366545293
20
7.88319830325059
30
0
41
1
10
109.822529300301
20
8.1296763983232
30
0
41
1
10
109.6055
20
8.37361101742599
30
0
0
SPLINE
5
1B0
100
AcDbEntity
8
1
62
256
6
ByLayer
370
18
48
1
60
0
100
AcDbSpline
70
4
71
3
72
10
73
6
40
0
40
0
40
0
40
0
40
0.5
40
0.5
40
1
40
1
40
1
40
1
41
1
10
16.0875
20
19.85
30
0
41
1
10
15.8506599010489
20
19.85
30
0
41
1
10
15.6099904417374
20
19.85
30
0
41
1
10
15.1223030300325
20
19.85
30
0
41
1
10
14.8752426852367
20
19.85
30
0
41
1
10
14.6253876765866
20
19.85
30
0
0
SPLINE
5
1B1
100
AcDbEntity
8
1
62
256
6
ByLayer
370
18
48
1
60
0
100
AcDbSpline
70
4
71
3
72
14
73
10
40
0
40
0
40
0
40
0
40
0.25
40
0.25
40
0.5
40
0.5
40
0.75
40
0.75
40
1
40
1
40
1
40
1
41
1
10
110.3245
20
18.988914520495
30
0
41
1
10
110.3245
20
18.9894247455032
30
0
41
1
10
110.322179475846
20
18.9922388158724
30
0
41
1
10
110.313940423871
20
19.0013490604847
30
0
41
1
10
110.307976181869
20
19.0077021283887
30
0
41
1
10
110.294003407622
20
19.0223363275757
30
0
41
1
10
110.285821046889
20
19.0308010647053
30
0
41
1
10
110.268451733647
20
19.0486391867036
30
0
41
1
10
110.259208205955
20
19.0580727111611
30
0
41
1
10
110.2495
20
19.0679370847154
30
0
0
SPLINE
5
1B2
100
AcDbEntity
8
1
62
256
6
ByLayer
370
18
48
1
60
0
100
AcDbSpline
70
4
71
3
72
14
73
10
40
0
40
0
40
0
40
0
40
0.25
40
0.25
40
0.5
40
0.5
40
0.75
40
0.75
40
1
40
1
40
1
40
1
41
1
10
110.3245
20
-18.2309126238237
30
0
41
1
10
110.3245
20
-18.2269178971008
30
0
41
1
10
110.322626132983
20
-18.2247594643014
30
0
41
1
10
110.314843542028
20
-18.2248115931792
30
0
41
1
10
110.309162894578
20
-18.226981040974
30
0
41
1
10
110.294854222523
20
-18.2350325359301
30
0
41
1
10
110.286589612437
20
-18.2407014516844
30
0
41
1
10
110.26861271811
20
-18.254375599661
30
0
41
1
10
110.259209704467
20
-18.2621405398416
30
0
41
1
10
110.2495
20
-18.2705960321683
30
0
0
SPLINE
5
1B3
100
AcDbEntity
8
1
62
256
6
ByLayer
370
18
48
1
60
0
100
AcDbSpline
70
4
71
3
72
22
73
18
40
0
40
0
40
0
40
0
40
0.249999999999947
40
0.249999999999947
40
0.37499999999993
40
0.37499999999993
40
0.499999999999913
40
0.499999999999913
40
0.624999999999896
40
0.624999999999896
40
0.687499999999896
40
0.687499999999896
40
0.749999999999896
40
0.749999999999896
40
0.874999999999948
40
0.874999999999948
40
1
40
1
40
1
40
1
41
1
10
109.6055
20
-19.1635661381751
30
0
41
1
10
109.58461800242
20
-19.1879770488517
30
0
41
1
10
109.565507179618
20
-19.2117045234637
30
0
41
1
10
109.542689990122
20
-19.2431162129388
30
0
41
1
10
109.5359677808
20
-19.2530413976178
30
0
41
1
10
109.525788698556
20
-19.2700761212655
30
0
41
1
10
109.522209442212
20
-19.2774045374631
30
0
41
1
10
109.519750506565
20
-19.2875719003495
30
0
41
1
10
109.520917187491
20
-19.290403795087
30
0
41
1
10
109.526613240173
20
-19.2903641595357
30
0
41
1
10
109.529188583589
20
-19.2896418406777
30
0
41
1
10
109.535367825739
20
-19.2869190401382
30
0
41
1
10
109.53899628437
20
-19.2849212703509
30
0
41
1
10
109.551354752463
20
-19.2771657902722
30
0
41
1
10
109.561088840106
20
-19.2699596696235
30
0
41
1
10
109.58248539173
20
-19.2527621693601
30
0
41
1
10
109.593773139625
20
-19.2430755822269
30
0
41
1
10
109.6055
20
-19.232584456276
30
0
0
SPLINE
5
1B4
100
AcDbEntity
8
1
62
256
6
ByLayer
370
18
48
1
60
0
100
AcDbSpline
70
4
71
3
72
14
73
10
40
0
40
0
40
0
40
0
40
0.25
40
0.25
40
0.5
40
0.5
40
0.75
40
0.75
40
1
40
1
40
1
40
1
41
1
10
110.3245
20
-17.7218227111435
30
0
41
1
10
110.3245
20
-17.7167636827918
30
0
41
1
10
110.322749381051
20
-17.7133264469951
30
0
41
1
10
110.315245830478
20
-17.7108983856196
30
0
41
1
10
110.309604124007
20
-17.7119307814348
30
0
41
1
10
110.295315870072
20
-17.7181361744954
30
0
41
1
10
110.286939122699
20
-17.7231633913709
30
0
41
1
10
110.268758907568
20
-17.7359097762675
30
0
41
1
10
110.259245573468
20
-17.7434107750192
30
0
41
1
10
110.2495
20
-17.7516701480928
30
0
0
SPLINE
5
1B5
100
AcDbEntity
8
1
62
256
6
ByLayer
370
18
48
1
60
0
100
AcDbSpline
70
4
71
3
72
14
73
10
40
0
40
0
40
0
40
0
40
0.25
40
0.25
40
0.5
40
0.5
40
0.75
40
0.75
40
1
40
1
40
1
40
1
41
1
10
16.2062397274627
20
26.4
30
0
41
1
10
16.1872440502631
20
26.4196320467251
30
0
41
1
10
16.1703664170265
20
26.4409679378911
30
0
41
1
10
16.14075881328
20
26.4869762761221
30
0
41
1
10
16.1281150339106
20
26.5116142499544
30
0
41
1
10
16.107860344183
20
26.5626591458558
30
0
41
1
10
16.1002099543198
20
26.5891570836059
30
0
41
1
10
16.090074385795
20
26.6425301282703
30
0
41
1
10
16.0875
20
26.6696123719336
30
0
41
1
10
16.0875
20
26.697103190234
30
0
0
SPLINE
5
1B6
100
AcDbEntity
8
1
62
256
6
ByLayer
370
18
48
1
60
0
100
AcDbSpline
70
4
71
3
72
8
73
4
40
0
40
0
40
0
40
0
40
1
40
1
40
1
40
1
41
1
10
109.6055
20
18.1757784213042
30
0
41
1
10
109.822056039247
20
17.8882313992868
30
0
41
1
10
110.036782319601
20
17.598874807819
30
0
41
1
10
110.2495
20
17.3075317791603
30
0
0
SPLINE
5
1B7
100
AcDbEntity
8
1
62
256
6
ByLayer
370
18
48
1
60
0
100
AcDbSpline
70
4
71
3
72
12
73
8
40
0
40
0
40
0
40
0
40
0.249999999999984
40
0.249999999999984
40
0.499999999999967
40
0.499999999999967
40
1
40
1
40
1
40
1
41
1
10
110.324500000009
20
16.3675876053922
30
0
41
1
10
110.324500000008
20
16.3772221576382
30
0
41
1
10
110.321873699401
20
16.3890583159478
30
0
41
1
10
110.313449392423
20
16.4145929308426
30
0
41
1
10
110.307670540604
20
16.4282616213631
30
0
41
1
10
110.287041271642
20
16.4708624306539
30
0
41
1
10
110.269646391906
20
16.5001337171808
30
0
41
1
10
110.2495
20
16.5300799335829
30
0
0
SPLINE
5
1B8
100
AcDbEntity
8
1
62
256
6
ByLayer
370
18
48
1
60
0
100
AcDbSpline
70
4
71
3
72
14
73
10
40
0
40
0
40
0
40
0
40
0.25
40
0.25
40
0.5
40
0.5
40
0.75
40
0.75
40
1
40
1
40
1
40
1
41
1
10
110.2495
20
18.654960886978
30
0
41
1
10
110.259215998502
20
18.646223193626
30
0
41
1
10
110.268726165071
20
18.6379823211317
30
0
41
1
10
110.286346638797
20
18.6235082432094
30
0
41
1
10
110.294625799941
20
18.6171378972796
30
0
41
1
10
110.308773781988
20
18.6074583306913
30
0
41
1
10
110.314644882502
20
18.6041706494088
30
0
41
1
10
110.322485000347
20
18.6018182843393
30
0
41
1
10
110.3245
20
18.6027592296193
30
0
41
1
10
110.3245
20
18.6056268367875
30
0
0
SPLINE
5
1B9
100
AcDbEntity
8
1
62
256
6
ByLayer
370
18
48
1
60
0
100
AcDbSpline
70
4
71
3
72
20
73
16
40
0
40
0
40
0
40
0
40
0.0624999999999908
40
0.0624999999999908
40
0.124999999999982
40
0.124999999999982
40
0.249999999999983
40
0.249999999999983
40
0.374999999999984
40
0.374999999999984
40
0.499999999999985
40
0.499999999999985
40
0.749999999999993
40
0.749999999999993
40
1
40
1
40
1
40
1
41
1
10
16.4875
20
26.4
30
0
41
1
10
16.4766165402577
20
26.4
30
0
41
1
10
16.4655455253309
20
26.4
30
0
41
1
10
16.4445183074969
20
26.4
30
0
41
1
10
16.4343625285885
20
26.4
30
0
41
1
10
16.4057907094584
20
26.4
30
0
41
1
10
16.3891059637794
20
26.4
30
0
41
1
10
16.3590767124945
20
26.4
30
0
41
1
10
16.3458755603429
20
26.4
30
0
41
1
10
16.3215693607135
20
26.4
30
0
41
1
10
16.3104536050508
20
26.4
30
0
41
1
10
16.2797178955031
20
26.4
30
0
41
1
10
16.2625609792539
20
26.4
30
0
41
1
10
16.2318627027304
20
26.4
30
0
41
1
10
16.2184015065035
20
26.4
30
0
41
1
10
16.2062397274627
20
26.4
30
0
0
SPLINE
5
1BA
100
AcDbEntity
8
1
62
256
6
ByLayer
370
18
48
1
60
0
100
AcDbSpline
70
4
71
3
72
22
73
18
40
0
40
0
40
0
40
0
40
0.0624999999999909
40
0.0624999999999909
40
0.124999999999982
40
0.124999999999982
40
0.187499999999973
40
0.187499999999973
40
0.249999999999963
40
0.249999999999963
40
0.37499999999997
40
0.37499999999997
40
0.499999999999976
40
0.499999999999976
40
0.749999999999988
40
0.749999999999988
40
1
40
1
40
1
40
1
41
1
10
109.6055
20
14.5100772776504
30
0
41
1
10
109.597953135099
20
14.5163237035142
30
0
41
1
10
109.590330974831
20
14.5219282456636
30
0
41
1
10
109.575215001469
20
14.5310758420371
30
0
41
1
10
109.567808263291
20
14.5345413709489
30
0
41
1
10
109.554107443175
20
14.5383181156671
30
0
41
1
10
109.547904073597
20
14.5385925023582
30
0
41
1
10
109.537369962298
20
14.5357904907593
30
0
41
1
10
109.533213831342
20
14.532825207766
30
0
41
1
10
109.52342445853
20
14.52014194122
30
0
41
1
10
109.520891479662
20
14.5072078372263
30
0
41
1
10
109.520192653502
20
14.4789157426782
30
0
41
1
10
109.521965579882
20
14.4633166237993
30
0
41
1
10
109.53125227634
20
14.4137784840491
30
0
41
1
10
109.542520094208
20
14.3781366276164
30
0
41
1
10
109.570215633343
20
14.3062248876231
30
0
41
1
10
109.586679720459
20
14.2699815629601
30
0
41
1
10
109.6055
20
14.2334897125276
30
0
0
SPLINE
5
1BB
100
AcDbEntity
8
1
62
256
6
ByLayer
370
18
48
1
60
0
100
AcDbSpline
70
4
71
3
72
12
73
8
40
0
40
0
40
0
40
0
40
0.499999999999995
40
0.499999999999995
40
0.749999999999997
40
0.749999999999997
40
1
40
1
40
1
40
1
41
1
10
110.2495
20
-8.61440504217293
30
0
41
1
10
110.27125461873
20
-8.54141926306795
30
0
41
1
10
110.288718680672
20
-8.46839262995709
30
0
41
1
10
110.308511489959
20
-8.35876643188203
30
0
41
1
10
110.313971523825
20
-8.32238837700731
30
0
41
1
10
110.321917021225
20
-8.25052405150072
30
0
41
1
10
110.3245
20
-8.21495282829216
30
0
41
1
10
110.3245
20
-8.18008548133096
30
0
0
SPLINE
5
1BC
100
AcDbEntity
8
1
62
256
6
ByLayer
370
18
48
1
60
0
100
AcDbSpline
70
4
71
3
72
8
73
4
40
0
40
0
40
0
40
0
40
1
40
1
40
1
40
1
41
1
10
110.2495
20
18.2705960321683
30
0
41
1
10
110.034973355329
20
18.4574120577276
30
0
41
1
10
109.820302546545
20
18.6440075237985
30
0
41
1
10
109.6055
20
18.8304003628101
30
0
0
SPLINE
5
1BD
100
AcDbEntity
8
1
62
256
6
ByLayer
370
18
48
1
60
0
100
AcDbSpline
70
4
71
3
72
8
73
4
40
0
40
0
40
0
40
0
40
1
40
1
40
1
40
1
41
1
10
110.2495
20
18.9129704705177
30
0
41
1
10
110.035137860735
20
19.1129342405493
30
0
41
1
10
109.820462678659
20
19.31244894935
30
0
41
1
10
109.6055
20
19.5115512430934
30
0
0
SPLINE
5
1BE
100
AcDbEntity
8
1
62
256
6
ByLayer
370
18
48
1
60
0
100
AcDbSpline
70
4
71
3
72
8
73
4
40
0
40
0
40
0
40
0
40
1
40
1
40
1
40
1
41
1
10
25.95
20
23.7722190802626
30
0
41
1
10
25.7839428389179
20
23.9885552271468
30
0
41
1
10
25.6172335326703
20
24.2045278276532
30
0
41
1
10
25.4499999999999
20
24.4200409500067
30
0
0
SPLINE
5
1BF
100
AcDbEntity
8
1
62
256
6
ByLayer
370
18
48
1
60
0
100
AcDbSpline
70
4
71
3
72
14
73
10
40
0
40
0
40
0
40
0
40
0.25
40
0.25
40
0.5
40
0.5
40
0.75
40
0.75
40
1
40
1
40
1
40
1
41
1
10
110.3245
20
18.2890240128757
30
0
41
1
10
110.3245
20
18.2934918735213
30
0
41
1
10
110.321992346342
20
18.3002811047651
30
0
41
1
10
110.313542185526
20
18.3166495690633
30
0
41
1
10
110.307671738472
20
18.326113517657
30
0
41
1
10
110.293819783589
20
18.3464514484414
30
0
41
1
10
110.285784157645
20
18.3573907805796
30
0
41
1
10
110.268585224205
20
18.3796566607554
30
0
41
1
10
110.259332829839
20
18.3911096182016
30
0
41
1
10
110.2495
20
18.4028498781752
30
0
0
SPLINE
5
1C0
100
AcDbEntity
8
1
62
256
6
ByLayer
370
18
48
1
60
0
100
AcDbSpline
70
4
71
3
72
20
73
16
40
0
40
0
40
0
40
0
40
0.250000000000046
40
0.250000000000046
40
0.375000000000039
40
0.375000000000039
40
0.500000000000031
40
0.500000000000031
40
0.625000000000023
40
0.625000000000023
40
0.750000000000015
40
0.750000000000015
40
0.875000000000008
40
0.875000000000008
40
1
40
1
40
1
40
1
41
1
10
110.32450000001
20
-10.4758747057857
30
0
41
1
10
110.324500000011
20
-10.4622480685124
30
0
41
1
10
110.323720006666
20
-10.4489518311853
30
0
41
1
10
110.32056082149
20
-10.4305545407477
30
0
41
1
10
110.319177438201
20
-10.4247046537609
30
0
41
1
10
110.315460180535
20
-10.4138219207664
30
0
41
1
10
110.313094294282
20
-10.4087403605801
30
0
41
1
10
110.307107301193
20
-10.4003169334064
30
0
41
1
10
110.30339385025
20
-10.3968847392199
30
0
41
1
10
110.294518318095
20
-10.3929059165862
30
0
41
1
10
110.289273781814
20
-10.3923980908057
30
0
41
1
10
110.278148020212
20
-10.394641860152
30
0
41
1
10
110.272240259158
20
-10.3973541368363
30
0
41
1
10
110.26073610745
20
-10.4047199434932
30
0
41
1
10
110.254995241478
20
-10.4094314721798
30
0
41
1
10
110.2495
20
-10.4146279387545
30
0
0
SPLINE
5
1C1
100
AcDbEntity
8
1
62
256
6
ByLayer
370
18
48
1
60
0
100
AcDbSpline
70
4
71
3
72
8
73
4
40
0
40
0
40
0
40
0
40
1
40
1
40
1
40
1
41
1
10
109.6055
20
19.163566138175
30
0
41
1
10
109.821310496289
20
18.9112851613349
30
0
41
1
10
110.036011628907
20
18.6577519784764
30
0
41
1
10
110.2495
20
18.4028498781752
30
0
0
SPLINE
5
1C2
100
AcDbEntity
8
1
62
256
6
ByLayer
370
18
48
1
60
0
100
AcDbSpline
70
4
71
3
72
29
73
25
40
0
40
0
40
0
40
0
40
0.249999999999962
40
0.249999999999962
40
0.499999999999925
40
0.624999999999905
40
0.624999999999905
40
0.749999999999885
40
0.749999999999885
40
0.812499999999872
40
0.812499999999872
40
0.843749999999873
40
0.843749999999873
40
0.859374999999886
40
0.859374999999886
40
0.874999999999898
40
0.874999999999898
40
0.890624999999911
40
0.890624999999911
40
0.906249999999924
40
0.906249999999924
40
0.93749999999995
40
0.93749999999995
40
1
40
1
40
1
40
1
41
1
10
110.3245
20
-2.37436329715084
30
0
41
1
10
110.3245
20
-2.31940641055041
30
0
41
1
10
110.324032399932
20
-2.26449631457541
30
0
41
1
10
110.321844723872
20
-2.15482541361501
30
0
41
1
10
110.319316428687
20
-2.07267512182673
30
0
41
1
10
110.314310421224
20
-1.99088027341142
30
0
41
1
10
110.309978969288
20
-1.93650712811805
30
0
41
1
10
110.307406823544
20
-1.90939960539185
30
0
41
1
10
110.301580753402
20
-1.86948409506022
30
0
41
1
10
110.299363093008
20
-1.85625551520081
30
0
41
1
10
110.294437082563
20
-1.83706853659587
30
0
41
1
10
110.29259372161
20
-1.83082493458778
30
0
41
1
10
110.288543171497
20
-1.82243858632793
30
0
41
1
10
110.286963273436
20
-1.81977404820634
30
0
41
1
10
110.282840776615
20
-1.81622276581061
30
0
41
1
10
110.280153150168
20
-1.81579903545102
30
0
41
1
10
110.275457159849
20
-1.81847965298232
30
0
41
1
10
110.273463656978
20
-1.82104485592836
30
0
41
1
10
110.270073900227
20
-1.82643038646171
30
0
41
1
10
110.268601361044
20
-1.82940234054735
30
0
41
1
10
110.264535543431
20
-1.83857501600116
30
0
41
1
10
110.262285393521
20
-1.84504506658234
30
0
41
1
10
110.256068674689
20
-1.86469526426097
30
0
41
1
10
110.252660481925
20
-1.87818615996372
30
0
41
1
10
110.2495
20
-1.89174587476978
30
0
0
SPLINE
5
1C3
100
AcDbEntity
8
1
62
256
6
ByLayer
370
18
48
1
60
0
100
AcDbSpline
70
4
71
3
72
14
73
10
40
0
40
0
40
0
40
0
40
0.25
40
0.25
40
0.5
40
0.5
40
0.75
40
0.75
40
1
40
1
40
1
40
1
41
1
10
110.2495
20
12.4160122997162
30
0
41
1
10
110.260085369069
20
12.4068776428476
30
0
41
1
10
110.27112172787
20
12.3993650651571
30
0
41
1
10
110.291967553371
20
12.3921063777257
30
0
41
1
10
110.301175936096
20
12.3929374305926
30
0
41
1
10
110.31440749166
20
12.4024577934997
30
0
41
1
10
110.318609915423
20
12.4108018870576
30
0
41
1
10
110.323586945423
20
12.4297872600657
30
0
41
1
10
110.3245
20
12.4404527178703
30
0
41
1
10
110.3245
20
12.4517920695673
30
0
0
SPLINE
5
1C4
100
AcDbEntity
8
1
62
256
6
ByLayer
370
18
48
1
60
0
100
AcDbSpline
70
4
71
3
72
14
73
10
40
0
40
0
40
0
40
0
40
0.25
40
0.25
40
0.5
40
0.5
40
0.75
40
0.75
40
1
40
1
40
1
40
1
41
1
10
110.2495
20
-16.5300799335829
30
0
41
1
10
110.259575518723
20
-16.515103372745
30
0
41
1
10
110.26893994717
20
-16.500282137731
30
0
41
1
10
110.286161317257
20
-16.4709631921383
30
0
41
1
10
110.294078365003
20
-16.4563504489578
30
0
41
1
10
110.307745770548
20
-16.4280858342372
30
0
41
1
10
110.313467963412
20
-16.414541490867
30
0
41
1
10
110.321870739995
20
-16.389062427217
30
0
41
1
10
110.324500000008
20
-16.3772185365104
30
0
41
1
10
110.324500000009
20
-16.3675876053921
30
0
0
SPLINE
5
1C5
100
AcDbEntity
8
1
62
256
6
ByLayer
370
18
48
1
60
0
100
AcDbSpline
70
4
71
3
72
14
73
10
40
0
40
0
40
0
40
0
40
0.25
40
0.25
40
0.5
40
0.5
40
0.75
40
0.75
40
1
40
1
40
1
40
1
41
1
10
110.2495
20
-18.9678441313361
30
0
41
1
10
110.259249604116
20
-18.9574402745057
30
0
41
1
10
110.268519251578
20
-18.9473921852377
30
0
41
1
10
110.285911691607
20
-18.9281390396628
30
0
41
1
10
110.293983863503
20
-18.918985371031
30
0
41
1
10
110.307857926255
20
-18.9026525202924
30
0
41
1
10
110.313812257457
20
-18.8952874257051
30
0
41
1
10
110.322116596227
20
-18.883899953024
30
0
41
1
10
110.3245
20
-18.8798131548509
30
0
41
1
10
110.3245
20
-18.8780838423543
30
0
0
SPLINE
5
1C6
100
AcDbEntity
8
1
62
256
6
ByLayer
370
18
48
1
60
0
100
AcDbSpline
70
4
71
3
72
8
73
4
40
0
40
0
40
0
40
0
40
1
40
1
40
1
40
1
41
1
10
109.6055
20
18.7363442052146
30
0
41
1
10
109.821632798019
20
18.46793539229
30
0
41
1
10
110.036344592726
20
18.1980199940686
30
0
41
1
10
110.2495
20
17.9264544727241
30
0
0
SPLINE
5
1C7
100
AcDbEntity
8
1
62
256
6
ByLayer
370
18
48
1
60
0
100
AcDbSpline
70
4
71
3
72
8
73
4
40
0
40
0
40
0
40
0
40
1
40
1
40
1
40
1
41
1
10
110.2495
20
-17.9264544727241
30
0
41
1
10
110.036344592726
20
-18.1980199940686
30
0
41
1
10
109.821632798019
20
-18.46793539229
30
0
41
1
10
109.6055
20
-18.7363442052146
30
0
0
SPLINE
5
1C8
100
AcDbEntity
8
1
62
256
6
ByLayer
370
18
48
1
60
0
100
AcDbSpline
70
4
71
3
72
40
73
36
40
0
40
0
40
0
40
0
40
0.125
40
0.125
40
0.187499999999999
40
0.187499999999999
40
0.203124999999999
40
0.203124999999999
40
0.218749999999999
40
0.218749999999999
40
0.249999999999999
40
0.249999999999999
40
0.375
40
0.375
40
0.40625
40
0.40625
40
0.437500000000001
40
0.437500000000001
40
0.500000000000001
40
0.500000000000001
40
0.625000000000002
40
0.625000000000002
40
0.656250000000002
40
0.656250000000002
40
0.687500000000002
40
0.687500000000002
40
0.750000000000002
40
0.750000000000002
40
0.812500000000002
40
0.812500000000002
40
0.843750000000001
40
0.843750000000001
40
0.875000000000001
40
0.875000000000001
40
1
40
1
40
1
40
1
41
1
10
4.94999999999999
20
31.4699951342545
30
0
41
1
10
4.94999999999999
20
31.4697000836074
30
0
41
1
10
5.00225860970696
20
31.4560105003226
30
0
41
1
10
5.15552174838174
20
31.4173251944317
30
0
41
1
10
5.21918321366857
20
31.4014014637225
30
0
41
1
10
5.31481265858471
20
31.3779016832463
30
0
41
1
10
5.33474305466237
20
31.373021977824
30
0
41
1
10
5.37622898172663
20
31.3629078986405
30
0
41
1
10
5.39780590833243
20
31.3576684102907
30
0
41
1
10
5.46462463571703
20
31.3415165236844
30
0
41
1
10
5.51204881427509
20
31.3301472965835
30
0
41
1
10
5.76326082458743
20
31.2705506275799
30
0
41
1
10
6.00890178299107
20
31.2140804386033
30
0
41
1
10
6.37134836873926
20
31.1363910865799
30
0
41
1
10
6.4466335983623
20
31.1204980223429
30
0
41
1
10
6.60289183629999
20
31.0881011300063
30
0
41
1
10
6.68400947698649
20
31.0715699344139
30
0
41
1
10
6.9333864788523
20
31.0217492547395
30
0
41
1
10
7.10836961999723
20
30.9880811451731
30
0
41
1
10
7.65892113162218
20
30.8871352880932
30
0
41
1
10
8.05982788506611
20
30.8198898796404
30
0
41
1
10
8.60529161727871
20
30.7406942062908
30
0
41
1
10
8.71657661171096
20
30.7251111871225
30
0
41
1
10
8.94117254993216
20
30.6948946380379
30
0
41
1
10
9.05478427646679
20
30.6802165246349
30
0
41
1
10
9.39951696413306
20
30.6376146650815
30
0
41
1
10
9.63452623072504
20
30.6111232682603
30
0
41
1
10
10.1149153789438
20
30.5627093850563
30
0
41
1
10
10.3602948471897
20
30.5407858131469
30
0
41
1
10
10.7363641534851
20
30.5119001269116
30
0
41
1
10
10.8630563144908
20
30.5029384070804
30
0
41
1
10
11.1191798921666
20
30.4864487250089
30
0
41
1
10
11.2484692877034
20
30.478934879184
30
0
41
1
10
11.8954136839746
20
30.4454828806657
30
0
41
1
10
12.4194187497885
20
30.4315723180712
30
0
41
1
10
12.95
20
30.4315723180712
30
0
0
SPLINE
5
1C9
100
AcDbEntity
8
1
62
256
6
ByLayer
370
18
48
1
60
0
100
AcDbSpline
70
4
71
3
72
34
73
30
40
0
40
0
40
0
40
0
40
0.0156250000000014
40
0.0156250000000014
40
0.0234375000000022
40
0.0234375000000022
40
0.031250000000003
40
0.031250000000003
40
0.0390625000000038
40
0.0390625000000038
40
0.0468750000000044
40
0.0468750000000044
40
0.0625000000000023
40
0.0625000000000023
40
0.0937500000000028
40
0.0937500000000028
40
0.125000000000003
40
0.125000000000003
40
0.187500000000003
40
0.187500000000003
40
0.250000000000003
40
0.250000000000003
40
0.375000000000002
40
0.375000000000002
40
0.500000000000001
40
0.500000000000001
40
0.75
40
0.75
40
1
40
1
40
1
40
1
41
1
10
109.6055
20
3.78272843686764
30
0
41
1
10
109.600770565557
20
3.79341283717139
30
0
41
1
10
109.595549054338
20
3.80393894997152
30
0
41
1
10
109.585900390277
20
3.81747507150743
30
0
41
1
10
109.582318343786
20
3.8216552662912
30
0
41
1
10
109.574314046877
20
3.82737232957558
30
0
41
1
10
109.56971601516
20
3.82862227898559
30
0
41
1
10
109.561718660099
20
3.82613095390121
30
0
41
1
10
109.558300967182
20
3.82273280877342
30
0
41
1
10
109.552786193003
20
3.8147135537977
30
0
41
1
10
109.550603107456
20
3.8101189826931
30
0
41
1
10
109.544820911684
20
3.79555104104068
30
0
41
1
10
109.542027970043
20
3.78480993104287
30
0
41
1
10
109.534988669662
20
3.75206608762727
30
0
41
1
10
109.532125846609
20
3.7295957892226
30
0
41
1
10
109.527546360837
20
3.68459100105326
30
0
41
1
10
109.525936675823
20
3.66192772349035
30
0
41
1
10
109.522187937599
20
3.59367053200697
30
0
41
1
10
109.521123714516
20
3.54781048965805
30
0
41
1
10
109.520277547574
20
3.45573587755672
30
0
41
1
10
109.520544772605
20
3.40951027799281
30
0
41
1
10
109.522565645691
20
3.27045940636342
30
0
41
1
10
109.525520224338
20
3.17719305974339
30
0
41
1
10
109.532835222886
20
2.99069866673443
30
0
41
1
10
109.537238897876
20
2.89738223912451
30
0
41
1
10
109.551541689553
20
2.61725417967037
30
0
41
1
10
109.562501630545
20
2.4302646099126
30
0
41
1
10
109.584379308983
20
2.05588144168067
30
0
41
1
10
109.595352138883
20
1.86845803691801
30
0
41
1
10
109.6055
20
1.68093354208466
30
0
0
SPLINE
5
1CA
100
AcDbEntity
8
1
62
256
6
ByLayer
370
18
48
1
60
0
100
AcDbSpline
70
4
71
3
72
8
73
4
40
0
40
0
40
0
40
0
40
1
40
1
40
1
40
1
41
1
10
110.2495
20
17.7516701480928
30
0
41
1
10
110.034913814811
20
17.9335319303368
30
0
41
1
10
109.820244754008
20
18.11526338816
30
0
41
1
10
109.6055
20
18.2968754376164
30
0
0
SPLINE
5
1CB
100
AcDbEntity
8
1
62
256
6
ByLayer
370
18
48
1
60
0
100
AcDbSpline
70
4
71
3
72
8
73
4
40
0
40
0
40
0
40
0
40
1
40
1
40
1
40
1
41
1
10
109.6055
20
7.71473982249799
30
0
41
1
10
109.869706220596
20
6.68060882615367
30
0
41
1
10
110.086430061288
20
5.63350618125841
30
0
41
1
10
110.2495
20
4.57174589786121
30
0
0
SPLINE
5
1CC
100
AcDbEntity
8
1
62
256
6
ByLayer
370
18
48
1
60
0
100
AcDbSpline
70
4
71
3
72
16
73
12
40
0
40
0
40
0
40
0
40
0.24999999999989
40
0.24999999999989
40
0.499999999999779
40
0.499999999999779
40
0.624999999999794
40
0.624999999999794
40
0.749999999999808
40
0.749999999999808
40
1
40
1
40
1
40
1
41
1
10
110.3245
20
-13.9946525728946
30
0
41
1
10
110.3245
20
-13.9847939311249
30
0
41
1
10
110.323364700352
20
-13.9757224015113
30
0
41
1
10
110.317618439847
20
-13.9610733983106
30
0
41
1
10
110.312832257615
20
-13.9554349467432
30
0
41
1
10
110.302386234609
20
-13.9521189582845
30
0
41
1
10
110.298459762373
20
-13.9518627336725
30
0
41
1
10
110.289703529877
20
-13.9530805456518
30
0
41
1
10
110.284909287438
20
-13.9545789497623
30
0
41
1
10
110.270258456793
20
-13.961106001764
30
0
41
1
10
110.25972922897
20
-13.968299885058
30
0
41
1
10
110.2495
20
-13.9767752987123
30
0
0
SPLINE
5
1CD
100
AcDbEntity
8
1
62
256
6
ByLayer
370
18
48
1
60
0
100
AcDbSpline
70
4
71
3
72
22
73
18
40
0
40
0
40
0
40
0
40
0.249999999999998
40
0.249999999999998
40
0.499999999999996
40
0.499999999999996
40
0.625000000000001
40
0.625000000000001
40
0.687500000000013
40
0.687500000000013
40
0.750000000000025
40
0.750000000000025
40
0.875000000000008
40
0.875000000000008
40
0.937500000000004
40
0.937500000000004
40
1
40
1
40
1
40
1
41
1
10
109.6055
20
-17.4690368442115
30
0
41
1
10
109.585591553727
20
-17.4975280653221
30
0
41
1
10
109.56769567603
20
-17.52586355086
30
0
41
1
10
109.53866727079
20
-17.5791828628332
30
0
41
1
10
109.527054952205
20
-17.6049237622154
30
0
41
1
10
109.520158147362
20
-17.6357460390406
30
0
41
1
10
109.519699948155
20
-17.6445659272814
30
0
41
1
10
109.523212287993
20
-17.6538000958583
30
0
41
1
10
109.525072332122
20
-17.6561404219928
30
0
41
1
10
109.53027554466
20
-17.659096138969
30
0
41
1
10
109.533673850252
20
-17.6596962012999
30
0
41
1
10
109.545626844133
20
-17.6587096977065
30
0
41
1
10
109.556327295088
20
-17.6542651322379
30
0
41
1
10
109.573923678963
20
-17.6437607679609
30
0
41
1
10
109.580143203835
20
-17.6395811173996
30
0
41
1
10
109.592686016535
20
-17.630425455486
30
0
41
1
10
109.599053312079
20
-17.6254275627388
30
0
41
1
10
109.6055
20
-17.6200829661947
30
0
0
SPLINE
5
1CE
100
AcDbEntity
8
1
62
256
6
ByLayer
370
18
48
1
60
0
100
AcDbSpline
70
4
71
3
72
14
73
10
40
0
40
0
40
0
40
0
40
0.25
40
0.25
40
0.5
40
0.5
40
0.75
40
0.75
40
1
40
1
40
1
40
1
41
1
10
110.3245
20
18.6463193271823
30
0
41
1
10
110.3245
20
18.6493536764683
30
0
41
1
10
110.322034011465
20
18.6547938153032
30
0
41
1
10
110.313694135752
20
18.6685224069777
30
0
41
1
10
110.307759088246
20
18.6769402543422
30
0
41
1
10
110.293931735253
20
18.6951434737655
30
0
41
1
10
110.285875277587
20
18.7051515681115
30
0
41
1
10
110.268553746702
20
18.7258583546616
30
0
41
1
10
110.259286714282
20
18.7365681993686
30
0
41
1
10
110.2495
20
18.7475864397169
30
0
0
SPLINE
5
1CF
100
AcDbEntity
8
1
62
256
6
ByLayer
370
18
48
1
60
0
100
AcDbSpline
70
4
71
3
72
14
73
10
40
0
40
0
40
0
40
0
40
0.25
40
0.25
40
0.5
40
0.5
40
0.75
40
0.75
40
1
40
1
40
1
40
1
41
1
10
19.9125
20
26.697103190234
30
0
41
1
10
19.9125
20
26.6698685852525
30
0
41
1
10
19.9099731220319
20
26.6428008079355
30
0
41
1
10
19.8997651534097
20
26.5890055409114
30
0
41
1
10
19.8920629796133
20
26.5624370814234
30
0
41
1
10
19.8718384529028
20
26.5115260346246
30
0
41
1
10
19.8591673880511
20
26.4868609514179
30
0
41
1
10
19.8297015430664
20
26.4410741899466
30
0
41
1
10
19.8128462606136
20
26.4197253830843
30
0
41
1
10
19.7937602725373
20
26.4
30
0
0
SPLINE
5
1D0
100
AcDbEntity
8
1
62
256
6
ByLayer
370
18
48
1
60
0
100
AcDbSpline
70
4
71
3
72
14
73
10
40
0
40
0
40
0
40
0
40
0.25
40
0.25
40
0.5
40
0.5
40
0.75
40
0.75
40
1
40
1
40
1
40
1
41
1
10
110.3245
20
18.8780838423543
30
0
41
1
10
110.3245
20
18.8798173955346
30
0
41
1
10
110.322101363894
20
18.8839223696908
30
0
41
1
10
110.313803229543
20
18.8952982718544
30
0
41
1
10
110.307850216532
20
18.9026622738455
30
0
41
1
10
110.293951093776
20
18.9190232687972
30
0
41
1
10
110.285833579189
20
18.928226363608
30
0
41
1
10
110.268493944553
20
18.9474193398036
30
0
41
1
10
110.259242453395
20
18.9574479050799
30
0
41
1
10
110.2495
20
18.9678441313361
30
0
0
SPLINE
5
1D1
100
AcDbEntity
8
1
62
256
6
ByLayer
370
18
48
1
60
0
100
AcDbSpline
70
4
71
3
72
8
73
4
40
0
40
0
40
0
40
0
40
1
40
1
40
1
40
1
41
1
10
109.6055
20
-18.8304003628101
30
0
41
1
10
109.820302546545
20
-18.6440075237985
30
0
41
1
10
110.034973355329
20
-18.4574120577275
30
0
41
1
10
110.2495
20
-18.2705960321683
30
0
0
SPLINE
5
1D2
100
AcDbEntity
8
1
62
256
6
ByLayer
370
18
48
1
60
0
100
AcDbSpline
70
4
71
3
72
8
73
4
40
0
40
0
40
0
40
0
40
1
40
1
40
1
40
1
41
1
10
109.6055
20
17.4690368442115
30
0
41
1
10
109.822628100131
20
17.1583021627902
30
0
41
1
10
110.037374649206
20
16.845389577551
30
0
41
1
10
110.2495
20
16.5300799335829
30
0
0
SPLINE
5
1D3
100
AcDbEntity
8
1
62
256
6
ByLayer
370
18
48
1
60
0
100
AcDbSpline
70
4
71
3
72
14
73
10
40
0
40
0
40
0
40
0
40
0.25
40
0.25
40
0.5
40
0.5
40
0.75
40
0.75
40
1
40
1
40
1
40
1
41
1
10
110.2495
20
15.2329620912907
30
0
41
1
10
110.259575474704
20
15.224729678792
30
0
41
1
10
110.26966349178
20
15.2176576935563
30
0
41
1
10
110.288734068695
20
15.2077835490402
30
0
41
1
10
110.297672368402
20
15.2051360238347
30
0
41
1
10
110.31177716259
20
15.2060335303122
30
0
41
1
10
110.316905532375
20
15.2095373596981
30
0
41
1
10
110.323198953868
20
15.2205854056193
30
0
41
1
10
110.324500000001
20
15.228127808386
30
0
41
1
10
110.324500000001
20
15.2365834598277
30
0
0
SPLINE
5
1D4
100
AcDbEntity
8
1
62
256
6
ByLayer
370
18
48
1
60
0
100
AcDbSpline
70
4
71
3
72
10
73
6
40
0
40
0
40
0
40
0
40
0.5
40
0.5
40
1
40
1
40
1
40
1
41
1
10
16.0875
20
21.0560949889959
30
0
41
1
10
15.8506599010489
20
21.6198621128699
30
0
41
1
10
15.6099904417374
20
22.182107020352
30
0
41
1
10
15.1223030300325
20
23.3032979926191
30
0
41
1
10
14.8752426852367
20
23.8623430075551
30
0
41
1
10
14.6253876765866
20
24.4200409500067
30
0
0
SPLINE
5
1D5
100
AcDbEntity
8
1
62
256
6
ByLayer
370
18
48
1
60
0
100
AcDbSpline
70
4
71
3
72
14
73
10
40
0
40
0
40
0
40
0
40
0.249999999999994
40
0.249999999999994
40
0.499999999999996
40
0.499999999999996
40
0.749999999999998
40
0.749999999999998
40
1
40
1
40
1
40
1
41
1
10
110.3245
20
-18.6056268367875
30
0
41
1
10
110.3245
20
-18.6027236160964
30
0
41
1
10
110.322517994515
20
-18.6018009379686
30
0
41
1
10
110.314553010295
20
-18.6042057169858
30
0
41
1
10
110.308714308758
20
-18.6074938193305
30
0
41
1
10
110.294527150197
20
-18.6172106493221
30
0
41
1
10
110.286278550289
20
-18.6235597234353
30
0
41
1
10
110.268517881695
20
-18.6381579323392
30
0
41
1
10
110.259182938242
20
-18.646252925044
30
0
41
1
10
110.2495
20
-18.654960886978
30
0
0
SPLINE
5
1D6
100
AcDbEntity
8
1
62
256
6
ByLayer
370
18
48
1
60
0
100
AcDbSpline
70
4
71
3
72
8
73
4
40
0
40
0
40
0
40
0
40
1
40
1
40
1
40
1
41
1
10
110.2495
20
-18.7475864397169
30
0
41
1
10
110.03575253422
20
-18.9882311427327
30
0
41
1
10
109.821059437748
20
-19.2277459581948
30
0
41
1
10
109.6055
20
-19.4662256251216
30
0
0
SPLINE
5
1D7
100
AcDbEntity
8
1
62
256
6
ByLayer
370
18
48
1
60
0
100
AcDbSpline
70
4
71
3
72
20
73
16
40
0
40
0
40
0
40
0
40
0.249999999999981
40
0.249999999999981
40
0.499999999999962
40
0.499999999999962
40
0.624999999999959
40
0.624999999999959
40
0.749999999999956
40
0.749999999999956
40
0.812499999999952
40
0.812499999999952
40
0.874999999999948
40
0.874999999999948
40
1
40
1
40
1
40
1
41
1
10
109.6055
20
-14.2334897125276
30
0
41
1
10
109.58665178262
20
-14.2700357334336
30
0
41
1
10
109.570003929807
20
-14.3067132975129
30
0
41
1
10
109.54235401958
20
-14.3786299644914
30
0
41
1
10
109.531260620271
20
-14.4137052273499
30
0
41
1
10
109.521945970035
20
-14.4634356383719
30
0
41
1
10
109.520163421698
20
-14.4791290996216
30
0
41
1
10
109.520937540741
20
-14.5076437025054
30
0
41
1
10
109.523531889678
20
-14.520413368311
30
0
41
1
10
109.533361056321
20
-14.5329477804307
30
0
41
1
10
109.53766255767
20
-14.5359341976592
30
0
41
1
10
109.548184540343
20
-14.5385975268389
30
0
41
1
10
109.554395521324
20
-14.538278325242
30
0
41
1
10
109.574973031665
20
-14.5324844686063
30
0
41
1
10
109.590454765483
20
-14.5225299905646
30
0
41
1
10
109.6055
20
-14.5100772776503
30
0
0
SPLINE
5
1D8
100
AcDbEntity
8
1
62
256
6
ByLayer
370
18
48
1
60
0
100
AcDbSpline
70
4
71
3
72
8
73
4
40
0
40
0
40
0
40
0
40
1
40
1
40
1
40
1
41
1
10
110.2495
20
12.4160122997164
30
0
41
1
10
110.035005737834
20
12.6011103791873
30
0
41
1
10
109.820331960648
20
12.7859304687194
30
0
41
1
10
109.6055
20
12.9705056015291
30
0
0
SPLINE
5
1D9
100
AcDbEntity
8
1
62
256
6
ByLayer
370
18
48
1
60
0
100
AcDbSpline
70
4
71
3
72
14
73
10
40
0
40
0
40
0
40
0
40
0.25
40
0.25
40
0.5
40
0.5
40
0.75
40
0.75
40
1
40
1
40
1
40
1
41
1
10
110.2495
20
18.9129704705177
30
0
41
1
10
110.259218158141
20
18.903905065842
30
0
41
1
10
110.268664569286
20
18.8952835726591
30
0
41
1
10
110.286149535274
20
18.8797984618444
30
0
41
1
10
110.294375221403
20
18.8727705037188
30
0
41
1
10
110.308474637326
20
18.8614390573629
30
0
41
1
10
110.314381647126
20
18.8571198467058
30
0
41
1
10
110.322377751326
20
18.8525031712641
30
0
41
1
10
110.3245
20
18.8522049260041
30
0
41
1
10
110.3245
20
18.8539790198801
30
0
0
SPLINE
5
1DA
100
AcDbEntity
8
1
62
256
6
ByLayer
370
18
48
1
60
0
100
AcDbSpline
70
4
71
3
72
24
73
20
40
0
40
0
40
0
40
0
40
0.249999999999999
40
0.249999999999999
40
0.499999999999998
40
0.499999999999998
40
0.625000000000003
40
0.625000000000003
40
0.687500000000003
40
0.687500000000003
40
0.750000000000002
40
0.750000000000002
40
0.812500000000002
40
0.812500000000002
40
0.875000000000001
40
0.875000000000001
40
0.937500000000001
40
0.937500000000001
40
1
40
1
40
1
40
1
41
1
10
109.6055
20
-12.6253933182574
30
0
41
1
10
109.587105291382
20
-12.6668646329222
30
0
41
1
10
109.571091296136
20
-12.7081105915472
30
0
41
1
10
109.54408524399
20
-12.7901074712467
30
0
41
1
10
109.532951748391
20
-12.831233525782
30
0
41
1
10
109.523038409465
20
-12.8895338130815
30
0
41
1
10
109.520831971449
20
-12.9086042462074
30
0
41
1
10
109.520383997625
20
-12.935547051479
30
0
41
1
10
109.520719822513
20
-12.9441587757889
30
0
41
1
10
109.522734725193
20
-12.9603661394202
30
0
41
1
10
109.524438115292
20
-12.9680544303652
30
0
41
1
10
109.529778126137
20
-12.9813298323848
30
0
41
1
10
109.533454559674
20
-12.9870033162869
30
0
41
1
10
109.543404949431
20
-12.9947235523582
30
0
41
1
10
109.549750260255
20
-12.9966617979702
30
0
41
1
10
109.564259028937
20
-12.9956830047327
30
0
41
1
10
109.572454592052
20
-12.9927821279148
30
0
41
1
10
109.588892883095
20
-12.9837225694704
30
0
41
1
10
109.59733722664
20
-12.9775187338987
30
0
41
1
10
109.6055
20
-12.97050560153
30
0
0
SPLINE
5
1DB
100
AcDbEntity
8
1
62
256
6
ByLayer
370
18
48
1
60
0
100
AcDbSpline
70
4
71
3
72
8
73
4
40
0
40
0
40
0
40
0
40
1
40
1
40
1
40
1
41
1
10
110.2495
20
-18.9678441313361
30
0
41
1
10
110.035547222369
20
-19.1961543314658
30
0
41
1
10
109.820860303431
20
-19.4235405354009
30
0
41
1
10
109.6055
20
-19.6500792121576
30
0
0
SPLINE
5
1DC
100
AcDbEntity
8
1
62
256
6
ByLayer
370
18
48
1
60
0
100
AcDbSpline
70
4
71
3
72
14
73
10
40
0
40
0
40
0
40
0
40
0.25
40
0.25
40
0.5
40
0.5
40
0.75
40
0.75
40
1
40
1
40
1
40
1
41
1
10
110.2495
20
-19.0679370847154
30
0
41
1
10
110.259211278108
20
-19.0580695895894
30
0
41
1
10
110.268463174683
20
-19.0486275483861
30
0
41
1
10
110.285857479136
20
-19.0307635373025
30
0
41
1
10
110.294025317656
20
-19.0223134800282
30
0
41
1
10
110.307974433677
20
-19.0077038595556
30
0
41
1
10
110.313940209129
20
-19.0013494349122
30
0
41
1
10
110.322186827721
20
-18.9922305495165
30
0
41
1
10
110.3245
20
-18.9894242585628
30
0
41
1
10
110.3245
20
-18.988914520495
30
0
0
SPLINE
5
1DD
100
AcDbEntity
8
1
62
256
6
ByLayer
370
18
48
1
60
0
100
AcDbSpline
70
4
71
3
72
12
73
8
40
0
40
0
40
0
40
0
40
0.250000000000003
40
0.250000000000003
40
0.500000000000007
40
0.500000000000007
40
1
40
1
40
1
40
1
41
1
10
110.3245
20
10.7754639616859
30
0
41
1
10
110.3245
20
10.7999091198558
30
0
41
1
10
110.321817981306
20
10.8257509458841
30
0
41
1
10
110.313562475329
20
10.8782508842314
30
0
41
1
10
110.307981564277
20
10.9046421962933
30
0
41
1
10
110.288101027238
20
10.984111195255
30
0
41
1
10
110.270762412543
20
11.0374723673838
30
0
41
1
10
110.2495
20
11.0912167009133
30
0
0
SPLINE
5
1DE
100
AcDbEntity
8
1
62
256
6
ByLayer
370
18
48
1
60
0
100
AcDbSpline
70
4
71
3
72
24
73
20
40
0
40
0
40
0
40
0
40
0.250000000000004
40
0.250000000000004
40
0.500000000000008
40
0.500000000000008
40
0.625000000000011
40
0.625000000000011
40
0.750000000000013
40
0.750000000000013
40
0.812500000000012
40
0.812500000000012
40
0.87500000000001
40
0.87500000000001
40
0.937500000000008
40
0.937500000000008
40
0.968750000000004
40
0.968750000000004
40
1
40
1
40
1
40
1
41
1
10
19.9125050005
20
-26.4000000000001
30
0
41
1
10
19.9124949995
20
-26.4
30
0
41
1
10
19.9069176880975
20
-26.4
30
0
41
1
10
19.8846765931943
20
-26.4
30
0
41
1
10
19.8681247928415
20
-26.4
30
0
41
1
10
19.8322216688482
20
-26.4
30
0
41
1
10
19.8183361704044
20
-26.4
30
0
41
1
10
19.7858042930228
20
-26.4
30
0
41
1
10
19.7672091069024
20
-26.4
30
0
41
1
10
19.7334364641738
20
-26.4
30
0
41
1
10
19.7211864060722
20
-26.4
30
0
41
1
10
19.6936726787183
20
-26.4
30
0
41
1
10
19.6784725350734
20
-26.4
30
0
41
1
10
19.6425633311634
20
-26.4
30
0
41
1
10
19.622628894426
20
-26.4
30
0
41
1
10
19.585647986261
20
-26.4
30
0
41
1
10
19.5724441081097
20
-26.4
30
0
41
1
10
19.5433575509739
20
-26.4
30
0
41
1
10
19.5282541033155
20
-26.4
30
0
41
1
10
19.5124999999999
20
-26.4
30
0
0
SPLINE
5
1DF
100
AcDbEntity
8
1
62
256
6
ByLayer
370
18
48
1
60
0
100
AcDbSpline
70
4
71
3
72
8
73
4
40
0
40
0
40
0
40
0
40
1
40
1
40
1
40
1
41
1
10
109.6055
20
-11.0193324895489
30
0
41
1
10
109.820739969169
20
-10.8185783823276
30
0
41
1
10
110.035436607666
20
-10.6170527580396
30
0
41
1
10
110.2495
20
-10.4146279387558
30
0
0
SPLINE
5
1E0
100
AcDbEntity
8
1
62
256
6
ByLayer
370
18
48
1
60
0
100
AcDbSpline
70
4
71
3
72
8
73
4
40
0
40
0
40
0
40
0
40
1
40
1
40
1
40
1
41
1
10
109.6055
20
-15.7591455874816
30
0
41
1
10
109.820168300833
20
-15.5837537555397
30
0
41
1
10
110.034835023948
20
-15.4083593488627
30
0
41
1
10
110.2495
20
-15.2329620912907
30
0
0
SPLINE
5
1E1
100
AcDbEntity
8
1
62
256
6
ByLayer
370
18
48
1
60
0
100
AcDbSpline
70
4
71
3
72
34
73
30
40
0
40
0
40
0
40
0
40
0.124999999999998
40
0.124999999999998
40
0.187499999999997
40
0.187499999999997
40
0.218749999999996
40
0.218749999999996
40
0.249999999999996
40
0.249999999999996
40
0.374999999999996
40
0.374999999999996
40
0.406249999999996
40
0.406249999999996
40
0.437499999999996
40
0.437499999999996
40
0.499999999999997
40
0.499999999999997
40
0.625
40
0.625
40
0.65625
40
0.65625
40
0.687500000000001
40
0.687500000000001
40
0.750000000000001
40
0.750000000000001
40
0.875000000000001
40
0.875000000000001
40
1
40
1
40
1
40
1
41
1
10
12.1956203456893
20
24.4200409500066
30
0
41
1
10
11.7562475112852
20
24.4200409500066
30
0
41
1
10
11.3251302963921
20
24.3909497578602
30
0
41
1
10
10.6901035240454
20
24.3056038437389
30
0
41
1
10
10.4803827549288
20
24.2701435456968
30
0
41
1
10
10.1687516083792
20
24.2061692076128
30
0
41
1
10
10.0651053360807
20
24.1829786000393
30
0
41
1
10
9.86011701382466
20
24.1332343953866
30
0
41
1
10
9.75899909269464
20
24.1067468964487
30
0
41
1
10
9.26006146735202
20
23.9663861964588
30
0
41
1
10
8.88205821250949
20
23.8289334719872
30
0
41
1
10
8.4339120188076
20
23.6260043199278
30
0
41
1
10
8.34550879717324
20
23.5838515747132
30
0
41
1
10
8.1711319880734
20
23.4963787949209
30
0
41
1
10
8.08500476697938
20
23.4509668686439
30
0
41
1
10
7.83231360064809
20
23.311091922816
30
0
41
1
10
7.67087988193626
20
23.212752963373
30
0
41
1
10
7.2060860457928
20
22.9028875991274
30
0
41
1
10
6.92215056716839
20
22.6765668917347
30
0
41
1
10
6.59617755982421
20
22.3692620581667
30
0
41
1
10
6.53232627943751
20
22.3064574329348
30
0
41
1
10
6.40827388836513
20
22.1792342756981
30
0
41
1
10
6.34801389290465
20
22.1147708752695
30
0
41
1
10
6.17226321560699
20
21.9188742079098
30
0
41
1
10
6.06179410768456
20
21.7849365427041
30
0
41
1
10
5.74865705723417
20
21.3734069993164
30
0
41
1
10
5.56418709064181
20
21.0861176330193
30
0
41
1
10
5.23652490731592
20
20.4866364512197
30
0
41
1
10
5.09337039057024
20
20.1744346090999
30
0
41
1
10
4.96821549226033
20
19.85
30
0
0
SPLINE
5
1E2
100
AcDbEntity
8
1
62
256
6
ByLayer
370
18
48
1
60
0
100
AcDbSpline
70
4
71
3
72
30
73
26
40
0
40
0
40
0
40
0
40
0.0624999999999901
40
0.0624999999999901
40
0.0937499999999948
40
0.0937499999999948
40
0.109374999999995
40
0.109374999999995
40
0.124999999999995
40
0.124999999999995
40
0.140624999999995
40
0.140624999999995
40
0.156249999999995
40
0.156249999999995
40
0.187500000000003
40
0.187500000000003
40
0.250000000000002
40
0.250000000000002
40
0.375000000000001
40
0.375000000000001
40
0.5
40
0.5
40
0.75
40
0.75
40
1
40
1
40
1
40
1
41
1
10
110.2495
20
1.89174587477277
30
0
41
1
10
110.252585251602
20
1.8785089277437
30
0
41
1
10
110.255899597279
20
1.86538177429625
30
0
41
1
10
110.261905380729
20
1.84617869895317
30
0
41
1
10
110.264083682185
20
1.83981910006742
30
0
41
1
10
110.267983901483
20
1.83071597389946
30
0
41
1
10
110.269379755249
20
1.82777617856541
30
0
41
1
10
110.272581160924
20
1.8223002413128
30
0
41
1
10
110.27439750269
20
1.81968296497902
30
0
41
1
10
110.27884813873
20
1.81619781034055
30
0
41
1
10
110.281541189178
20
1.81581171408686
30
0
41
1
10
110.285946402378
20
1.81848595671215
30
0
41
1
10
110.287666132916
20
1.82100006371306
30
0
41
1
10
110.291963767712
20
1.82901268865464
30
0
41
1
10
110.293902185556
20
1.83529091828541
30
0
41
1
10
110.298993106347
20
1.85431675174465
30
0
41
1
10
110.301268828837
20
1.86761487411147
30
0
41
1
10
110.307234219055
20
1.90773179577818
30
0
41
1
10
110.30983512522
20
1.93495297752401
30
0
41
1
10
110.314214938181
20
1.98944353727666
30
0
41
1
10
110.315900690146
20
2.01678764403852
30
0
41
1
10
110.320121868679
20
2.09897054954285
30
0
41
1
10
110.321822727285
20
2.15397059930888
30
0
41
1
10
110.324029349182
20
2.26409827845941
30
0
41
1
10
110.324500000005
20
2.31921508841637
30
0
41
1
10
110.324500000005
20
2.37436329711556
30
0
0
SPLINE
5
1E3
100
AcDbEntity
8
SK1
62
256
6
ByLayer
370
18
48
1
60
0
100
AcDbSpline
70
4
71
3
72
58
73
54
40
0
40
0
40
0
40
0
40
0.0624999999999876
40
0.0624999999999876
40
0.124999999999975
40
0.124999999999975
40
0.249999999999951
40
0.249999999999951
40
0.312499999999939
40
0.312499999999939
40
0.374999999999927
40
0.374999999999927
40
0.406249999999922
40
0.406249999999922
40
0.437499999999917
40
0.437499999999917
40
0.453124999999914
40
0.453124999999914
40
0.468749999999912
40
0.468749999999912
40
0.484374999999909
40
0.484374999999909
40
0.492187499999908
40
0.492187499999908
40
0.499999999999906
40
0.499999999999906
40
0.503906249999906
40
0.503906249999906
40
0.507812499999907
40
0.507812499999907
40
0.515624999999908
40
0.515624999999908
40
0.523437499999908
40
0.523437499999908
40
0.531249999999909
40
0.531249999999909
40
0.546874999999911
40
0.546874999999911
40
0.562499999999914
40
0.562499999999914
40
0.578124999999916
40
0.578124999999916
40
0.593749999999918
40
0.593749999999918
40
0.624999999999924
40
0.624999999999924
40
0.687499999999937
40
0.687499999999937
40
0.749999999999949
40
0.749999999999949
40
0.874999999999975
40
0.874999999999975
40
1
40
1
40
1
40
1
41
1
10
-31.067579804184
20
20.2481331121841
30
0
41
1
10
-31.06755349448
20
20.1911598250594
30
0
41
1
10
-31.0690558562391
20
20.132774178548
30
0
41
1
10
-31.0751975156526
20
20.0131046297761
30
0
41
1
10
-31.0798417970885
20
19.9517619312583
30
0
41
1
10
-31.098775367273
20
19.7634783194112
30
0
41
1
10
-31.1178383149614
20
19.6330125932625
30
0
41
1
10
-31.1589044208934
20
19.4277416325859
30
0
41
1
10
-31.1746935451899
20
19.3577058453325
30
0
41
1
10
-31.2117361452845
20
19.213440226088
30
0
41
1
10
-31.2329189748109
20
19.1392646171138
30
0
41
1
10
-31.2709786311793
20
19.0231769716379
30
0
41
1
10
-31.2847249717861
20
18.9836676720972
30
0
41
1
10
-31.3152705420595
20
18.9023058940875
30
0
41
1
10
-31.3321392057089
20
18.8602280123907
30
0
41
1
10
-31.3608223753418
20
18.7952734750922
30
0
41
1
10
-31.3709454828759
20
18.773325188451
30
0
41
1
10
-31.3927907938227
20
18.7285842604353
30
0
41
1
10
-31.4044932816838
20
18.705802029268
30
0
41
1
10
-31.4304849504931
20
18.6588717410434
30
0
41
1
10
-31.4448586495024
20
18.6345269675407
30
0
41
1
10
-31.4694454277664
20
18.5974180443798
30
0
41
1
10
-31.4782505903259
20
18.584810508448
30
0
41
1
10
-31.497132249608
20
18.5597911837258
30
0
41
1
10
-31.5072858709169
20
18.5472732006818
30
0
41
1
10
-31.5235937264866
20
18.5293017997569
30
0
41
1
10
-31.5291328199053
20
18.5235319382215
30
0
41
1
10
-31.540455206301
20
18.5125145240029
30
0
41
1
10
-31.5462733934335
20
18.5072488249712
30
0
41
1
10
-31.5632473120247
20
18.4931061428754
30
0
41
1
10
-31.5743846649152
20
18.4855337427765
30
0
41
1
10
-31.5943555533515
20
18.4746988436822
30
0
41
1
10
-31.603471450781
20
18.4712016914577
30
0
41
1
10
-31.6196892919795
20
18.4669404158795
30
0
41
1
10
-31.626931817693
20
18.4661001055432
30
0
41
1
10
-31.6469990686496
20
18.4660519089551
30
0
41
1
10
-31.6577541926853
20
18.4692049105474
30
0
41
1
10
-31.6768216409587
20
18.4783543828115
30
0
41
1
10
-31.6850662410959
20
18.4844629399589
30
0
41
1
10
-31.7000045832166
20
18.4985252908865
30
0
41
1
10
-31.7066624590572
20
18.5064894105736
30
0
41
1
10
-31.7187819764966
20
18.5235146894652
30
0
41
1
10
-31.7242610332234
20
18.5326059928096
30
0
41
1
10
-31.7394465274052
20
18.5611271858249
30
0
41
1
10
-31.7479242105624
20
18.581781517225
30
0
41
1
10
-31.7703848151252
20
18.6467065239216
30
0
41
1
10
-31.7814491771072
20
18.6938855153513
30
0
41
1
10
-31.7997361246821
20
18.7920717910877
30
0
41
1
10
-31.80685805216
20
18.8432011946923
30
0
41
1
10
-31.8244830413978
20
18.9997232068275
30
0
41
1
10
-31.8313902366222
20
19.1083764196928
30
0
41
1
10
-31.8403742395556
20
19.3299770177408
30
0
41
1
10
-31.8423333179557
20
19.4430290632512
30
0
41
1
10
-31.8423156651183
20
19.557838405569
30
0
0
SPLINE
5
1E4
100
AcDbEntity
8
SK1
62
256
6
ByLayer
370
18
48
1
60
0
100
AcDbSpline
70
4
71
3
72
14
73
10
40
0
40
0
40
0
40
0
40
0.298280617311693
40
0.298280617311693
40
0.596561234623386
40
0.596561234623386
40
0.89484185193508
40
0.89484185193508
40
1
40
1
40
1
40
1
41
1
10
-31.8692807746814
20
-19.4903757489686
30
0
41
1
10
-31.8692299147198
20
-19.526468610613
30
0
41
1
10
-31.8707678265068
20
-19.5562094579244
30
0
41
1
10
-31.876272673535
20
-19.6033031501045
30
0
41
1
10
-31.8801358565004
20
-19.6201100306277
30
0
41
1
10
-31.8880002377309
20
-19.6424693135638
30
0
41
1
10
-31.891999405525
20
-19.6480865530938
30
0
41
1
10
-31.8960645262383
20
-19.6494581932274
30
0
41
1
10
-31.8969978410134
20
-19.6492346143094
30
0
41
1
10
-31.8977622194061
20
-19.6484749122584
30
0
0
SPLINE
5
1E5
100
AcDbEntity
8
SK1
62
256
6
ByLayer
370
18
48
1
60
0
100
AcDbSpline
70
4
71
3
72
70
73
66
40
0
40
0
40
0
40
0
40
0.037677481975361
40
0.037677481975361
40
0.0689295632300072
40
0.0689295632300072
40
0.100181644484653
40
0.100181644484653
40
0.131433725739299
40
0.131433725739299
40
0.147059766366622
40
0.147059766366622
40
0.162685806993945
40
0.162685806993945
40
0.225189969503237
40
0.225189969503237
40
0.256442050757884
40
0.256442050757884
40
0.28769413201253
40
0.28769413201253
40
0.350198294521822
40
0.350198294521822
40
0.365824335149145
40
0.365824335149145
40
0.381450375776468
40
0.381450375776468
40
0.412702457031114
40
0.412702457031114
40
0.475206619540406
40
0.475206619540406
40
0.490832660167729
40
0.490832660167729
40
0.506458700795052
40
0.506458700795052
40
0.537710782049698
40
0.568962863304344
40
0.568962863304344
40
0.584588903931667
40
0.584588903931667
40
0.60021494455899
40
0.60021494455899
40
0.662719107068284
40
0.662719107068284
40
0.69397118832293
40
0.69397118832293
40
0.709597228950253
40
0.709597228950253
40
0.725223269577577
40
0.725223269577577
40
0.787727432086871
40
0.787727432086871
40
0.818979513341518
40
0.818979513341518
40
0.834605553968842
40
0.834605553968842
40
0.850231594596166
40
0.850231594596166
40
0.912735757105461
40
0.912735757105461
40
0.928361797732785
40
0.928361797732785
40
0.943987838360109
40
0.943987838360109
40
0.975239919614757
40
1
40
1
40
1
40
1
41
1
10
-4.30164255065543
20
24.1051168019082
30
0
41
1
10
-4.30117572521618
20
24.1052097006304
30
0
41
1
10
-4.31231790856856
20
24.1029299442455
30
0
41
1
10
-4.35340135419193
20
24.0945493849193
30
0
41
1
10
-4.37987586635512
20
24.0891622982116
30
0
41
1
10
-4.44891908335143
20
24.0752540951658
30
0
41
1
10
-4.49082342534541
20
24.0668680204953
30
0
41
1
10
-4.58858282604817
20
24.0475686672466
30
0
41
1
10
-4.64444078155665
20
24.0366546474642
30
0
41
1
10
-4.73844404924645
20
24.0186053787488
30
0
41
1
10
-4.77148465453786
20
24.0123089624855
30
0
41
1
10
-4.84097688610981
20
23.9991897826944
30
0
41
1
10
-4.87750118543869
20
23.9923535654524
30
0
41
1
10
-5.06788533384201
20
23.9570908435006
30
0
41
1
10
-5.24228467594517
20
23.925910629975
30
0
41
1
10
-5.53433622742125
20
23.8768453162996
30
0
41
1
10
-5.63680740863745
20
23.860102163332
30
0
41
1
10
-5.85203976936378
20
23.8261603582413
30
0
41
1
10
-5.96329638868775
20
23.8092009654145
30
0
41
1
10
-6.30708139111724
20
23.7588701613431
30
0
41
1
10
-6.54969934461792
20
23.7260232940064
30
0
41
1
10
-6.86954869788093
20
23.6872089643952
30
0
41
1
10
-6.93448408531774
20
23.6795432976227
30
0
41
1
10
-7.06542972331471
20
23.6645400714812
30
0
41
1
10
-7.13127877974432
20
23.6572200536679
30
0
41
1
10
-7.32993248204397
20
23.6358336747054
30
0
41
1
10
-7.46384127441934
20
23.6223412259705
30
0
41
1
10
-7.86990228300999
20
23.5843785510033
30
0
41
1
10
-8.14635228172548
20
23.5624227563734
30
0
41
1
10
-8.49937416927264
20
23.5398689265169
30
0
41
1
10
-8.5701525345228
20
23.535616805717
30
0
41
1
10
-8.71114405207814
20
23.5276837185464
30
0
41
1
10
-8.78149389774401
20
23.5239938959419
30
0
41
1
10
-8.99211137104624
20
23.5137463672139
30
0
41
1
10
-9.2717842380296
20
23.5022744878207
30
0
41
1
10
-9.54916793577306
20
23.495097301709
30
0
41
1
10
-9.75632742419702
20
23.4912897893957
30
0
41
1
10
-9.82523395354841
20
23.4902831567796
30
0
41
1
10
-9.96274719730195
20
23.4887887212029
30
0
41
1
10
-10.0314895817818
20
23.4883005745269
30
0
41
1
10
-10.3728457987255
20
23.4871446531958
30
0
41
1
10
-10.6349122273288
20
23.4903182279234
30
0
41
1
10
-11.0117058741089
20
23.4998104833313
30
0
41
1
10
-11.1345680915786
20
23.5037645043528
30
0
41
1
10
-11.3146131107252
20
23.5107053328383
30
0
41
1
10
-11.3739188052124
20
23.5131872031446
30
0
41
1
10
-11.4910706593011
20
23.5184573584661
30
0
41
1
10
-11.5489974216836
20
23.5212507474546
30
0
41
1
10
-11.8316922195073
20
23.5357344754695
30
0
41
1
10
-12.0383242518147
20
23.5490687646915
30
0
41
1
10
-12.3186581544296
20
23.5696743005681
30
0
41
1
10
-12.4071325015711
20
23.5766454521324
30
0
41
1
10
-12.5319951672411
20
23.5870052394677
30
0
41
1
10
-12.5724188476235
20
23.5904522711193
30
0
41
1
10
-12.649958032955
20
23.5972189430162
30
0
41
1
10
-12.6870041217728
20
23.6005318083987
30
0
41
1
10
-12.8637133213365
20
23.6166501436126
30
0
41
1
10
-12.978079796347
20
23.6281078879979
30
0
41
1
10
-13.0861551596526
20
23.6392727492728
30
0
41
1
10
-13.1060090734278
20
23.6413483233522
30
0
41
1
10
-13.1420936814673
20
23.6451516470508
30
0
41
1
10
-13.1583647607109
20
23.6468837548005
30
0
41
1
10
-13.20108176998
20
23.6514592160886
30
0
41
1
10
-13.2378541169734
20
23.6554678373036
30
0
41
1
10
-13.2496675184472
20
23.6567663476681
30
0
41
1
10
-13.2499858542092
20
23.6568017942625
30
0
0
SPLINE
5
1E6
100
AcDbEntity
8
SK1
62
256
6
ByLayer
370
18
48
1
60
0
100
AcDbSpline
70
4
71
3
72
24
73
20
40
0
40
0
40
0
40
0
40
0.0312499999999998
40
0.0312499999999998
40
0.0624999999999995
40
0.0624999999999995
40
0.125
40
0.125
40
0.25
40
0.25
40
0.375
40
0.375
40
0.5
40
0.5
40
0.749999999999999
40
0.749999999999999
40
0.875
40
0.875
40
1
40
1
40
1
40
1
41
1
10
-22.5254125626117
20
-20.6854597771061
30
0
41
1
10
-22.5255511497014
20
-20.701019683818
30
0
41
1
10
-22.5246667587329
20
-20.7166777130932
30
0
41
1
10
-22.5209000969644
20
-20.7477678059889
30
0
41
1
10
-22.5180297482889
20
-20.7631868009728
30
0
41
1
10
-22.5067325290341
20
-20.8090891347931
30
0
41
1
10
-22.4956150185209
20
-20.8392180280166
30
0
41
1
10
-22.4542595871068
20
-20.9283915877081
30
0
41
1
10
-22.4162354953944
20
-20.9862407123951
30
0
41
1
10
-22.3324707959025
20
-21.0995934283552
30
0
41
1
10
-22.2867007020184
20
-21.1550947559621
30
0
41
1
10
-22.1954619614247
20
-21.2640966679272
30
0
41
1
10
-22.1499039898424
20
-21.3176097368587
30
0
41
1
10
-22.0204776730238
20
-21.4755376144719
30
0
41
1
10
-21.9439590455327
20
-21.5773676616478
30
0
41
1
10
-21.8615121435874
20
-21.7252402036645
30
0
41
1
10
-21.8393398492877
20
-21.773709088945
30
0
41
1
10
-21.8085556498904
20
-21.8689764820696
30
0
41
1
10
-21.7999999999999
20
-21.9160034068592
30
0
41
1
10
-21.8
20
-21.9609792783774
30
0
0
SPLINE
5
1E7
100
AcDbEntity
8
SK1
62
256
6
ByLayer
370
18
48
1
60
0
100
AcDbSpline
70
4
71
3
72
12
73
8
40
0
40
0
40
0
40
0
40
0.499999999999999
40
0.499999999999999
40
0.749999999999999
40
0.749999999999999
40
1
40
1
40
1
40
1
41
1
10
-30.7600449304183
20
-20.7759355648241
30
0
41
1
10
-30.8200360234276
20
-20.7023506098415
30
0
41
1
10
-30.872487175981
20
-20.6226340684129
30
0
41
1
10
-30.9290751655626
20
-20.4995348632115
30
0
41
1
10
-30.9441756135538
20
-20.4579549543773
30
0
41
1
10
-30.9646688220374
20
-20.3747617985674
30
0
41
1
10
-30.9700237499846
20
-20.3331712100059
30
0
41
1
10
-30.9697797028105
20
-20.29183707252
30
0
0
SPLINE
5
1E8
100
AcDbEntity
8
SK1
62
256
6
ByLayer
370
18
48
1
60
0
100
AcDbSpline
70
4
71
3
72
37
73
33
40
0
40
0
40
0
40
0
40
0.125
40
0.125
40
0.25
40
0.25
40
0.375
40
0.375
40
0.5
40
0.5
40
0.562500000000001
40
0.562500000000001
40
0.625000000000001
40
0.625000000000001
40
0.687500000000002
40
0.687500000000002
40
0.750000000000002
40
0.750000000000002
40
0.812500000000003
40
0.812500000000003
40
0.875000000000004
40
0.875000000000004
40
0.906250000000004
40
0.906250000000004
40
0.937500000000004
40
0.937500000000004
40
0.953125000000003
40
0.953125000000003
40
0.968750000000002
40
0.984375000000001
40
0.984375000000001
40
1
40
1
40
1
40
1
41
1
10
-25.8
20
21.8338164768251
30
0
41
1
10
-25.8
20
21.7915616932458
30
0
41
1
10
-25.8090351025927
20
21.7478886231866
30
0
41
1
10
-25.8431548692958
20
21.6578071143861
30
0
41
1
10
-25.8684641645678
20
21.611182144405
30
0
41
1
10
-25.9323193271322
20
21.5174811379225
30
0
41
1
10
-25.970895045869
20
21.4701766351094
30
0
41
1
10
-26.0597609446709
20
21.3747376968519
30
0
41
1
10
-26.110046951095
20
21.3266019341388
30
0
41
1
10
-26.1937594442119
20
21.2538676785148
30
0
41
1
10
-26.2230510956807
20
21.2295349064355
30
0
41
1
10
-26.2844522605555
20
21.1807194780491
30
0
41
1
10
-26.3166157214402
20
21.1561959848264
30
0
41
1
10
-26.3836133703913
20
21.1072837145489
30
0
41
1
10
-26.4184363723703
20
21.0828939039856
30
0
41
1
10
-26.4910775441697
20
21.0343527408064
30
0
41
1
10
-26.5289288892006
20
21.0101707773759
30
0
41
1
10
-26.6081703997843
20
20.9624296091495
30
0
41
1
10
-26.64952079047
20
20.9388574261359
30
0
41
1
10
-26.7375692634737
20
20.8928909727541
30
0
41
1
10
-26.7838545339876
20
20.87062177108
30
0
41
1
10
-26.8596629929598
20
20.8397526331818
30
0
41
1
10
-26.8860248460639
20
20.8298902068594
30
0
41
1
10
-26.9422453143891
20
20.811590208813
30
0
41
1
10
-26.9716079141475
20
20.8033202107098
30
0
41
1
10
-27.0182080981107
20
20.793092579121
30
0
41
1
10
-27.0343198512967
20
20.7900288355797
30
0
41
1
10
-27.0667844525407
20
20.7849461963152
30
0
41
1
10
-27.0995297022306
20
20.7808835265937
30
0
41
1
10
-27.1328814273505
20
20.7790296636822
30
0
41
1
10
-27.1665526773182
20
20.7783398272714
30
0
41
1
10
-27.1834248638181
20
20.7785870545739
30
0
41
1
10
-27.2000000000001
20
20.779376124844
30
0
0
SPLINE
5
1E9
100
AcDbEntity
8
SK1
62
256
6
ByLayer
370
18
48
1
60
0
100
AcDbSpline
70
4
71
3
72
16
73
12
40
0
40
0
40
0
40
0
40
0.250000000000001
40
0.250000000000001
40
0.500000000000002
40
0.500000000000002
40
0.750000000000003
40
0.750000000000003
40
0.875000000000001
40
0.875000000000001
40
1
40
1
40
1
40
1
41
1
10
-30.7600449304189
20
20.8343104848551
30
0
41
1
10
-30.8005304147295
20
20.7918881716236
30
0
41
1
10
-30.8391903518078
20
20.7469260622839
30
0
41
1
10
-30.9108217629846
20
20.6529591719925
30
0
41
1
10
-30.9438142125762
20
20.6039429159931
30
0
41
1
10
-31.0007051028082
20
20.5035329800823
30
0
41
1
10
-31.0245900033696
20
20.4521521286418
30
0
41
1
10
-31.0497392687942
20
20.3751260560864
30
0
41
1
10
-31.0563287190668
20
20.3494639188072
30
0
41
1
10
-31.0652639534867
20
20.2984378669062
30
0
41
1
10
-31.0675912850397
20
20.2729947455573
30
0
41
1
10
-31.0675798041817
20
20.2481331121861
30
0
0
SPLINE
5
1EA
100
AcDbEntity
8
SK1
62
256
6
ByLayer
370
18
48
1
60
0
100
AcDbSpline
70
4
71
3
72
34
73
30
40
0
40
0
40
0
40
0
40
0.0156250000000018
40
0.0156250000000018
40
0.0312500000000036
40
0.0312500000000036
40
0.0468750000000054
40
0.0468750000000054
40
0.0625000000000072
40
0.0625000000000072
40
0.078125000000009
40
0.078125000000009
40
0.0937500000000108
40
0.0937500000000108
40
0.125000000000009
40
0.125000000000009
40
0.187500000000008
40
0.187500000000008
40
0.250000000000007
40
0.250000000000007
40
0.375000000000006
40
0.375000000000006
40
0.500000000000004
40
0.500000000000004
40
0.625000000000003
40
0.625000000000003
40
0.750000000000001
40
0.750000000000001
40
1
40
1
40
1
40
1
41
1
10
-23.2
20
-19.3576886388616
30
0
41
1
10
-23.1861263738958
20
-19.3548092998013
30
0
41
1
10
-23.1718181484693
20
-19.3528767085846
30
0
41
1
10
-23.1421547265457
20
-19.351299568976
30
0
41
1
10
-23.1266945958046
20
-19.3517199949159
30
0
41
1
10
-23.0969549032772
20
-19.3549384617363
30
0
41
1
10
-23.082206872545
20
-19.3577536306785
30
0
41
1
10
-23.0541683727243
20
-19.3652090302266
30
0
41
1
10
-23.0410262338589
20
-19.3697655727581
30
0
41
1
10
-23.0160258985917
20
-19.3800853734457
30
0
41
1
10
-23.0041815792201
20
-19.3858618296643
30
0
41
1
10
-22.9821128438073
20
-19.3979646717983
30
0
41
1
10
-22.9717769671596
20
-19.4043384554672
30
0
41
1
10
-22.9423174354007
20
-19.4241644263845
30
0
41
1
10
-22.9246416181742
20
-19.4383911219556
30
0
41
1
10
-22.8765793372274
20
-19.4817019369821
30
0
41
1
10
-22.8504665637792
20
-19.5117125819895
30
0
41
1
10
-22.8038750166303
20
-19.5726045130307
30
0
41
1
10
-22.7835390420773
20
-19.6036156843171
30
0
41
1
10
-22.7286179880406
20
-19.6967014017344
30
0
41
1
10
-22.7001335612323
20
-19.7584025174859
30
0
41
1
10
-22.6515479659095
20
-19.8806706152634
30
0
41
1
10
-22.6316754243824
20
-19.9412491153106
30
0
41
1
10
-22.5979028786882
20
-20.0611279854318
30
0
41
1
10
-22.5840501695142
20
-20.1204308083457
30
0
41
1
10
-22.5610541500343
20
-20.2376735104442
30
0
41
1
10
-22.5519206046208
20
-20.2956569719258
30
0
41
1
10
-22.5306245829581
20
-20.4671764490201
30
0
41
1
10
-22.5244558866072
20
-20.5780486941688
30
0
41
1
10
-22.5254125626117
20
-20.6854597771061
30
0
0
SPLINE
5
1EB
100
AcDbEntity
8
SK1
62
256
6
ByLayer
370
18
48
1
60
0
100
AcDbSpline
70
4
71
3
72
8
73
4
40
0
40
0
40
0
40
0
40
1
40
1
40
1
40
1
41
1
10
-30.7600449304182
20
-20.7759355648241
30
0
41
1
10
-30.7414872158135
20
-20.7986984205293
30
0
41
1
10
-30.7218522549563
20
-20.821176736599
30
0
41
1
10
-30.70125
20
-20.8433892377956
30
0
0
SPLINE
5
1EC
100
AcDbEntity
8
SK1
62
256
6
ByLayer
370
18
48
1
60
0
100
AcDbSpline
70
4
71
3
72
14
73
10
40
0
40
0
40
0
40
0
40
0.25
40
0.25
40
0.5
40
0.5
40
0.75
40
0.75
40
1
40
1
40
1
40
1
41
1
10
-31.8423156651183
20
19.557838405569
30
0
41
1
10
-31.8423091894368
20
19.5999545092391
30
0
41
1
10
-31.8455917378832
20
19.632485699749
30
0
41
1
10
-31.8566881179001
20
19.6799291409913
30
0
41
1
10
-31.8641941814282
20
19.6942133335598
30
0
41
1
10
-31.8789048656756
20
19.7086926317288
30
0
41
1
10
-31.886117982338
20
19.7089022277163
30
0
41
1
10
-31.8967110689173
20
19.6982686387963
30
0
41
1
10
-31.9
20
19.6874626428636
30
0
41
1
10
-31.9
20
19.6726615351915
30
0
0
SPLINE
5
1ED
100
AcDbEntity
8
SK1
62
256
6
ByLayer
370
18
48
1
60
0
100
AcDbSpline
70
4
71
3
72
75
73
71
40
0
40
0
40
0
40
0
40
0.0090384932149111
40
0.0090384932149111
40
0.0246619761442653
40
0.0246619761442653
40
0.0871559078616824
40
0.0871559078616824
40
0.102779390791037
40
0.102779390791037
40
0.118402873720391
40
0.118402873720391
40
0.1496498395791
40
0.1496498395791
40
0.180896805437808
40
0.180896805437808
40
0.196520288367163
40
0.196520288367163
40
0.212143771296517
40
0.212143771296517
40
0.274637703013935
40
0.274637703013935
40
0.290261185943289
40
0.290261185943289
40
0.305884668872643
40
0.305884668872643
40
0.337131634731352
40
0.337131634731352
40
0.399625566448769
40
0.399625566448769
40
0.415249049378123
40
0.415249049378123
40
0.430872532307477
40
0.430872532307477
40
0.462119498166185
40
0.493366464024893
40
0.493366464024893
40
0.524613429883601
40
0.524613429883601
40
0.587107361601018
40
0.587107361601018
40
0.618354327459726
40
0.618354327459726
40
0.63397781038908
40
0.63397781038908
40
0.649601293318433
40
0.649601293318433
40
0.712095225035849
40
0.712095225035849
40
0.743342190894557
40
0.743342190894557
40
0.75896567382391
40
0.75896567382391
40
0.774589156753264
40
0.774589156753264
40
0.83708308847068
40
0.83708308847068
40
0.868330054329387
40
0.868330054329387
40
0.883953537258742
40
0.883953537258742
40
0.899577020188095
40
0.899577020188095
40
0.962070951905511
40
0.962070951905511
40
0.977694434834865
40
0.977694434834865
40
0.993317917764219
40
0.993317917764219
40
1
40
1
40
1
40
1
41
1
10
-13.2499996325912
20
-23.6568035298295
30
0
41
1
10
-13.2500233177011
20
-23.6568061216657
30
0
41
1
10
-13.2493835971908
20
-23.6567358888955
30
0
41
1
10
-13.2458020355485
20
-23.6563427957797
30
0
41
1
10
-13.2415290993887
20
-23.65587389451
30
0
41
1
10
-13.2104646619921
20
-23.6524783212668
30
0
41
1
10
-13.1548191098024
20
-23.6463805607759
30
0
41
1
10
-13.0477814830663
20
-23.6353053849914
30
0
41
1
10
-13.0244813481594
20
-23.6329185076143
30
0
41
1
10
-12.9740463040831
20
-23.6278242494526
30
0
41
1
10
-12.9470052287206
20
-23.6251266201095
30
0
41
1
10
-12.8611124023998
20
-23.6166960900213
30
0
41
1
10
-12.7972883829372
20
-23.6106036598318
30
0
41
1
10
-12.6570409007133
20
-23.5977871756569
30
0
41
1
10
-12.5806158295878
20
-23.5910625891893
30
0
41
1
10
-12.456614037022
20
-23.5807407804376
30
0
41
1
10
-12.4137163910493
20
-23.5772611251988
30
0
41
1
10
-12.3247719806744
20
-23.5702655992686
30
0
41
1
10
-12.2788060047467
20
-23.5667568202466
30
0
41
1
10
-12.043602861947
20
-23.5494134246691
30
0
41
1
10
-11.8367069410026
20
-23.5360453100739
30
0
41
1
10
-11.5559397289975
20
-23.5215939255661
30
0
41
1
10
-11.4986680910106
20
-23.5188166438999
30
0
41
1
10
-11.381878109993
20
-23.5135299347585
30
0
41
1
10
-11.3222065263784
20
-23.5110149125088
30
0
41
1
10
-11.1412090975778
20
-23.5039896941272
30
0
41
1
10
-11.0178624240849
20
-23.4999929024078
30
0
41
1
10
-10.6401288123703
20
-23.4903968596522
30
0
41
1
10
-10.3781142369942
20
-23.487188890985
30
0
41
1
10
-10.0379253701214
20
-23.4882641360031
30
0
41
1
10
-9.96909745915056
20
-23.4887360245954
30
0
41
1
10
-9.83135291982148
20
-23.4902017560846
30
0
41
1
10
-9.76234395534394
20
-23.4911947338096
30
0
41
1
10
-9.55491657989552
20
-23.4949624386457
30
0
41
1
10
-9.27728095010187
20
-23.5020900472767
30
0
41
1
10
-8.99756793694371
20
-23.5135091808747
30
0
41
1
10
-8.71681406060486
20
-23.5271136075498
30
0
41
1
10
-8.575693556386
20
-23.5350227168258
30
0
41
1
10
-8.1521266894392
20
-23.5619962610431
30
0
41
1
10
-7.87587295865654
20
-23.5838813367137
30
0
41
1
10
-7.47029807336821
20
-23.6217081395784
30
0
41
1
10
-7.33658355744123
20
-23.6351503889625
30
0
41
1
10
-7.13826597722019
20
-23.6564527074369
30
0
41
1
10
-7.07253642101864
20
-23.6637432476213
30
0
41
1
10
-6.94184416469395
20
-23.6786844046452
30
0
41
1
10
-6.87677097778638
20
-23.6863493221285
30
0
41
1
10
-6.55652029366897
20
-23.7251328126265
30
0
41
1
10
-6.31432743293055
20
-23.7578740013814
30
0
41
1
10
-5.97193167710211
20
-23.8079061106606
30
0
41
1
10
-5.86130586018859
20
-23.824736486798
30
0
41
1
10
-5.70084746445252
20
-23.8499869407451
30
0
41
1
10
-5.64827648052716
20
-23.8584043682081
30
0
41
1
10
-5.54502547483457
20
-23.8751996594049
30
0
41
1
10
-5.49456757997353
20
-23.8835418529282
30
0
41
1
10
-5.24977254830645
20
-23.9245975882013
30
0
41
1
10
-5.07601012249239
20
-23.9556339690233
30
0
41
1
10
-4.84949796142115
20
-23.9975184722948
30
0
41
1
10
-4.77972332880711
20
-24.0106992370933
30
0
41
1
10
-4.68421548691299
20
-24.0290096966174
30
0
41
1
10
-4.65383577104424
20
-24.0348836587767
30
0
41
1
10
-4.59697075937379
20
-24.0459525421521
30
0
41
1
10
-4.57040176631844
20
-24.0511632490484
30
0
41
1
10
-4.4467902302857
20
-24.075542454453
30
0
41
1
10
-4.37715688181757
20
-24.0897077464883
30
0
41
1
10
-4.32823260598516
20
-24.0996826801603
30
0
41
1
10
-4.32037224999971
20
-24.101289709509
30
0
41
1
10
-4.30861926199503
20
-24.1036947934254
30
0
41
1
10
-4.30476205055422
20
-24.1044855754814
30
0
41
1
10
-4.30215365507652
20
-24.1050203087837
30
0
41
1
10
-4.30173952136912
20
-24.1051051005968
30
0
41
1
10
-4.30169063493119
20
-24.1051150025834
30
0
0
SPLINE
5
1EE
100
AcDbEntity
8
SK1
62
256
6
ByLayer
370
18
48
1
60
0
100
AcDbSpline
70
4
71
3
72
8
73
4
40
0
40
0
40
0
40
0
40
1
40
1
40
1
40
1
41
1
10
-30.7600449304189
20
20.8343104848551
30
0
41
1
10
-30.7567195771122
20
20.8377949233393
30
0
41
1
10
-30.7533711052718
20
20.8412726012229
30
0
41
1
10
-30.7500000000005
20
20.844743512463
30
0
0
SPLINE
5
1EF
100
AcDbEntity
8
SK1
62
256
6
ByLayer
370
18
48
1
60
0
100
AcDbSpline
70
4
71
3
72
58
73
54
40
0
40
0
40
0
40
0
40
0.124999999999998
40
0.124999999999998
40
0.249999999999997
40
0.249999999999997
40
0.312499999999996
40
0.312499999999996
40
0.374999999999995
40
0.374999999999995
40
0.406249999999995
40
0.406249999999995
40
0.437499999999994
40
0.437499999999994
40
0.453124999999994
40
0.453124999999994
40
0.468749999999994
40
0.468749999999994
40
0.476562499999994
40
0.476562499999994
40
0.484374999999993
40
0.484374999999993
40
0.492187499999993
40
0.492187499999993
40
0.499999999999992
40
0.499999999999992
40
0.507812499999992
40
0.507812499999992
40
0.511718749999992
40
0.511718749999992
40
0.515624999999992
40
0.515624999999992
40
0.523437499999993
40
0.523437499999993
40
0.531249999999994
40
0.531249999999994
40
0.539062499999995
40
0.539062499999995
40
0.546874999999996
40
0.546874999999996
40
0.562499999999996
40
0.562499999999996
40
0.593749999999996
40
0.593749999999996
40
0.624999999999997
40
0.624999999999997
40
0.687499999999997
40
0.687499999999997
40
0.749999999999998
40
0.749999999999998
40
0.874999999999999
40
0.874999999999999
40
1
40
1
40
1
40
1
41
1
10
-30.9697797028105
20
-20.29183707252
30
0
41
1
10
-30.9689813939924
20
-20.1566279410794
30
0
41
1
10
-30.9757535307833
20
-20.01496475748
30
0
41
1
10
-31.0054524641219
20
-19.7178660151715
30
0
41
1
10
-31.0282595641667
20
-19.5625325016407
30
0
41
1
10
-31.0783049497967
20
-19.31603260206
30
0
41
1
10
-31.0976806470622
20
-19.2315488168702
30
0
41
1
10
-31.1430179784571
20
-19.0582048790318
30
0
41
1
10
-31.1689309967844
20
-18.9692427711642
30
0
41
1
10
-31.2152517328029
20
-18.8305399151156
30
0
41
1
10
-31.2319480136137
20
-18.7834190135189
30
0
41
1
10
-31.2688834880339
20
-18.6866763223157
30
0
41
1
10
-31.2890663680803
20
-18.6370942835929
30
0
41
1
10
-31.3237443497552
20
-18.5596127480684
30
0
41
1
10
-31.3359968749228
20
-18.533385880177
30
0
41
1
10
-31.3623030742784
20
-18.4801315162846
30
0
41
1
10
-31.3763538144415
20
-18.453074451875
30
0
41
1
10
-31.3996123195162
20
-18.4114437004564
30
0
41
1
10
-31.407733800601
20
-18.3973902377188
30
0
41
1
10
-31.425004475243
20
-18.3687911379527
30
0
41
1
10
-31.4342063227091
20
-18.3541631861869
30
0
41
1
10
-31.4537358335998
20
-18.3248103422876
30
0
41
1
10
-31.4640680013393
20
-18.3100544268218
30
0
41
1
10
-31.4865570590088
20
-18.2802869553543
30
0
41
1
10
-31.4985258471569
20
-18.2655278925693
30
0
41
1
10
-31.5242580292515
20
-18.2371089278984
30
0
41
1
10
-31.5378783271758
20
-18.2236936367942
30
0
41
1
10
-31.55821770016
20
-18.2066943669612
30
0
41
1
10
-31.5648179679004
20
-18.2016701092283
30
0
41
1
10
-31.5776874553989
20
-18.1928057724284
30
0
41
1
10
-31.5839965957656
20
-18.188952387007
30
0
41
1
10
-31.601742959673
20
-18.1793860362997
30
0
41
1
10
-31.612399373726
20
-18.1753935392907
30
0
41
1
10
-31.6314755580391
20
-18.1706489424237
30
0
41
1
10
-31.6398873844073
20
-18.1698643796272
30
0
41
1
10
-31.6553235899367
20
-18.1702511861044
30
0
41
1
10
-31.6623480733507
20
-18.1714548241555
30
0
41
1
10
-31.6751712230682
20
-18.1751566304184
30
0
41
1
10
-31.6810118139045
20
-18.1776593073099
30
0
41
1
10
-31.6973298182024
20
-18.1865414299079
30
0
41
1
10
-31.7066261909751
20
-18.1942690242498
30
0
41
1
10
-31.7317160012727
20
-18.2206471953123
30
0
41
1
10
-31.7447591784197
20
-18.2424994830695
30
0
41
1
10
-31.7669652168291
20
-18.2895741879515
30
0
41
1
10
-31.7761076686093
20
-18.3150034457971
30
0
41
1
10
-31.800060667843
20
-18.3946438982648
30
0
41
1
10
-31.8114604459957
20
-18.452146411917
30
0
41
1
10
-31.8299579674628
20
-18.5713028103297
30
0
41
1
10
-31.8369326384218
20
-18.6330754572666
30
0
41
1
10
-31.8539129486275
20
-18.8221989863497
30
0
41
1
10
-31.8600821674541
20
-18.9530976247636
30
0
41
1
10
-31.867927635967
20
-19.218805778036
30
0
41
1
10
-31.8694732206265
20
-19.3538061438966
30
0
41
1
10
-31.8692807746814
20
-19.4903757489686
30
0
0
SPLINE
5
1F0
100
AcDbEntity
8
SK1
62
256
6
ByLayer
370
18
48
1
60
0
100
AcDbSpline
70
4
71
3
72
36
73
32
40
0
40
0
40
0
40
0
40
0.0078124999999998
40
0.0078124999999998
40
0.0156249999999995
40
0.0156249999999995
40
0.0312499999999999
40
0.0312499999999999
40
0.0468750000000002
40
0.0468750000000002
40
0.0625000000000006
40
0.0625000000000006
40
0.0937500000000018
40
0.0937500000000018
40
0.125000000000003
40
0.125000000000003
40
0.156250000000004
40
0.156250000000004
40
0.187500000000005
40
0.187500000000005
40
0.250000000000006
40
0.250000000000006
40
0.375000000000005
40
0.375000000000005
40
0.500000000000004
40
0.500000000000004
40
0.625000000000003
40
0.625000000000003
40
0.750000000000002
40
0.750000000000002
40
1
40
1
40
1
40
1
41
1
10
-25.9833434997481
20
-20.5310987896625
30
0
41
1
10
-25.9828031618319
20
-20.5371610287379
30
0
41
1
10
-25.983891466009
20
-20.5430390572782
30
0
41
1
10
-25.9890236323275
20
-20.5544608237057
30
0
41
1
10
-25.9931333824192
20
-20.5600445157079
30
0
41
1
10
-26.0086996562673
20
-20.5756772832126
30
0
41
1
10
-26.0235488457277
20
-20.5849769843262
30
0
41
1
10
-26.0572642628514
20
-20.6015324498899
30
0
41
1
10
-26.0760833795906
20
-20.608812761582
30
0
41
1
10
-26.1160593176297
20
-20.62218470368
30
0
41
1
10
-26.137280999578
20
-20.6282647460343
30
0
41
1
10
-26.2021125667175
20
-20.6449688643929
30
0
41
1
10
-26.2473286877582
20
-20.6542648314883
30
0
41
1
10
-26.3398016510716
20
-20.670975007827
30
0
41
1
10
-26.3871071994475
20
-20.6783442839642
30
0
41
1
10
-26.4830721960949
20
-20.691834730802
30
0
41
1
10
-26.5318115234252
20
-20.6979517553182
30
0
41
1
10
-26.6296273769643
20
-20.7092210665845
30
0
41
1
10
-26.6787817533779
20
-20.7143814426966
30
0
41
1
10
-26.826790316971
20
-20.7288132962961
30
0
41
1
10
-26.9261804508357
20
-20.7370537763177
30
0
41
1
10
-27.225693877908
20
-20.7591938653913
30
0
41
1
10
-27.4271348012387
20
-20.7705610478369
30
0
41
1
10
-27.8318508313423
20
-20.7897778683561
30
0
41
1
10
-28.0351676379405
20
-20.7975471747097
30
0
41
1
10
-28.4430293749968
20
-20.8107359004727
30
0
41
1
10
-28.6476200301023
20
-20.8161361676979
30
0
41
1
10
-29.0571977039525
20
-20.8252283040692
30
0
41
1
10
-29.2622565030358
20
-20.8289159475481
30
0
41
1
10
-29.8780477589523
20
-20.8380299878139
30
0
41
1
10
-30.2893853411833
20
-20.8415387546249
30
0
41
1
10
-30.7012499999992
20
-20.8433892377983
30
0
0
SPLINE
5
1F1
100
AcDbEntity
8
SK1
62
256
6
ByLayer
370
18
48
1
60
0
100
AcDbSpline
70
4
71
3
72
28
73
24
40
0
40
0
40
0
40
0
40
0.250000000000002
40
0.250000000000002
40
0.375000000000002
40
0.375000000000002
40
0.500000000000003
40
0.500000000000003
40
0.625000000000003
40
0.625000000000003
40
0.687500000000003
40
0.687500000000003
40
0.750000000000002
40
0.750000000000002
40
0.812500000000001
40
0.812500000000001
40
0.875000000000001
40
0.875000000000001
40
0.906250000000001
40
0.906250000000001
40
0.9375
40
0.9375
40
1
40
1
40
1
40
1
41
1
10
-23.2
20
-19.3576886388616
30
0
41
1
10
-23.5022997397726
20
-19.4204280728151
30
0
41
1
10
-23.8000916308775
20
-19.4871263917513
30
0
41
1
10
-24.2359750148452
20
-19.5966625616914
30
0
41
1
10
-24.3796787987828
20
-19.6348483799632
30
0
41
1
10
-24.6605180310531
20
-19.7150509364068
30
0
41
1
10
-24.797750943214
20
-19.7570664709182
30
0
41
1
10
-25.0633566338274
20
-19.8464198311913
30
0
41
1
10
-25.1917898628867
20
-19.8937213442125
30
0
41
1
10
-25.3744309983707
20
-19.9706858547922
30
0
41
1
10
-25.4338202015676
20
-19.997454223387
30
0
41
1
10
-25.5471770614399
20
-20.0531112354523
30
0
41
1
10
-25.6010398129088
20
-20.0819298668878
30
0
41
1
10
-25.7016461881308
20
-20.1420705509696
30
0
41
1
10
-25.7484454708312
20
-20.1734188465689
30
0
41
1
10
-25.8325202493381
20
-20.2392776407827
30
0
41
1
10
-25.8690266895944
20
-20.2731985289795
30
0
41
1
10
-25.9137039563339
20
-20.3258872551724
30
0
41
1
10
-25.9269103792572
20
-20.3437524001575
30
0
41
1
10
-25.9495684407564
20
-20.3801557817123
30
0
41
1
10
-25.9590521996598
20
-20.3987877548614
30
0
41
1
10
-25.9809200317921
20
-20.4550640119658
30
0
41
1
10
-25.9867474411679
20
-20.4929087866349
30
0
41
1
10
-25.983343499753
20
-20.5310987896623
30
0
0
SPLINE
5
1F2
100
AcDbEntity
8
SK1
62
256
6
ByLayer
370
18
48
1
60
0
100
AcDbSpline
70
4
71
3
72
12
73
8
40
0
40
0
40
0
40
0
40
0.25
40
0.25
40
0.5
40
0.5
40
1
40
1
40
1
40
1
41
1
10
-27.2
20
20.7793761248444
30
0
41
1
10
-27.4930169396388
20
20.7933253891619
30
0
41
1
10
-27.7872843517739
20
20.8034860351553
30
0
41
1
10
-28.3771606131414
20
20.8197595020288
30
0
41
1
10
-28.672796448895
20
20.8257901832185
30
0
41
1
10
-29.5610680020743
20
20.8397833747407
30
0
41
1
10
-30.1550416961172
20
20.843726390558
30
0
41
1
10
-30.7499999999998
20
20.8447435124634
30
0
0
LINE
5
75
100
AcDbEntity
8
1
62
256
6
ByLayer
370
18
48
1
60
0
100
AcDbLine
10
119.9255
20
-4.899495
30
0
11
114.6755
21
-4.899495
31
0
39
0
210
0
220
0
230
1
0
LINE
5
77
100
AcDbEntity
8
1
62
256
6
ByLayer
370
18
48
1
60
0
100
AcDbLine
10
114.6755
20
-14.899495
30
0
11
119.9255
21
-14.899495
31
0
39
0
210
0
220
0
230
1
0
LINE
5
78
100
AcDbEntity
8
1
62
256
6
ByLayer
370
18
48
1
60
0
100
AcDbLine
10
114.4255
20
-6.899495
30
0
11
110.324484
21
-6.899495
31
0
39
0
210
0
220
0
230
1
0
LINE
5
79
100
AcDbEntity
8
1
62
256
6
ByLayer
370
18
48
1
60
0
100
AcDbLine
10
114.4255
20
12.899495
30
0
11
110.324484
21
12.899495
31
0
39
0
210
0
220
0
230
1
0
LINE
5
7A
100
AcDbEntity
8
1
62
256
6
ByLayer
370
18
48
1
60
0
100
AcDbLine
10
114.6755
20
4.899495
30
0
11
119.9255
21
4.899495
31
0
39
0
210
0
220
0
230
1
0
LINE
5
7B
100
AcDbEntity
8
1
62
256
6
ByLayer
370
18
48
1
60
0
100
AcDbLine
10
110.324484
20
6.899495
30
0
11
114.4255
21
6.899495
31
0
39
0
210
0
220
0
230
1
0
LINE
5
7C
100
AcDbEntity
8
1
62
256
6
ByLayer
370
18
48
1
60
0
100
AcDbLine
10
119.9255
20
14.899495
30
0
11
114.6755
21
14.899495
31
0
39
0
210
0
220
0
230
1
0
LINE
5
7D
100
AcDbEntity
8
1
62
256
6
ByLayer
370
18
48
1
60
0
100
AcDbLine
10
110.324484
20
-12.899495
30
0
11
114.4255
21
-12.899495
31
0
39
0
210
0
220
0
230
1
0
LINE
5
7E
100
AcDbEntity
8
SK1
62
256
6
ByLayer
370
18
48
1
60
0
100
AcDbLine
10
-1.066987
20
23.970431
30
0
11
-2
21
24.220431
31
0
39
0
210
0
220
0
230
1
0
LINE
5
80
100
AcDbEntity
8
SK1
62
256
6
ByLayer
370
18
48
1
60
0
100
AcDbLine
10
-2
20
-24.220431
30
0
11
-1.066987
21
-23.970431
31
0
39
0
210
0
220
0
230
1
0
LINE
5
81
100
AcDbEntity
8
SK1
62
256
6
ByLayer
370
18
48
1
60
0
100
AcDbLine
10
-21.8
20
-23.228447
30
0
11
-13.246198
21
-23.656994
31
0
39
0
210
0
220
0
230
1
0
LINE
5
82
100
AcDbEntity
8
SK1
62
256
6
ByLayer
370
18
48
1
60
0
100
AcDbLine
10
-4.314641
20
-24.104467
30
0
11
-2
21
-24.220431
31
0
39
0
210
0
220
0
230
1
0
LINE
5
83
100
AcDbEntity
8
SK1
62
256
6
ByLayer
370
18
48
1
60
0
100
AcDbLine
10
-2
20
24.220431
30
0
11
-4.314784
21
24.10446
31
0
39
0
210
0
220
0
230
1
0
LINE
5
84
100
AcDbEntity
8
SK1
62
256
6
ByLayer
370
18
48
1
60
0
100
AcDbLine
10
-13.237585
20
23.657426
30
0
11
-25.8
21
23.028046
31
0
39
0
210
0
220
0
230
1
0
LINE
5
85
100
AcDbEntity
8
1
62
256
6
ByLayer
370
18
48
1
60
0
100
AcDbLine
10
0
20
-30.97
30
0
11
0.5
21
-31.47
31
0
39
0
210
0
220
0
230
1
0
LINE
5
86
100
AcDbEntity
8
1
62
256
6
ByLayer
370
18
48
1
60
0
100
AcDbLine
10
0.5
20
31.47
30
0
11
0
21
30.97
31
0
39
0
210
0
220
0
230
1
0
LINE
5
87
100
AcDbEntity
8
1
62
256
6
ByLayer
370
18
48
1
60
0
100
AcDbLine
10
4.95
20
31.47
30
0
11
0.5
21
31.47
31
0
39
0
210
0
220
0
230
1
0
LINE
5
88
100
AcDbEntity
8
1
62
256
6
ByLayer
370
18
48
1
60
0
100
AcDbLine
10
0.5
20
-31.47
30
0
11
4.95
21
-31.47
31
0
39
0
210
0
220
0
230
1
0
LINE
5
89
100
AcDbEntity
8
SK1
62
256
6
ByLayer
370
18
48
1
60
0
100
AcDbLine
10
-1.066987
20
-23.970431
30
0
11
-0.493464
21
-23.970431
31
0
39
0
210
0
220
0
230
1
0
LINE
5
8A
100
AcDbEntity
8
SK1
62
256
6
ByLayer
370
18
48
1
60
0
100
AcDbLine
10
-0.493464
20
23.970431
30
0
11
-1.066987
21
23.970431
31
0
39
0
210
0
220
0
230
1
0
LINE
5
8B
100
AcDbEntity
8
1
62
256
6
ByLayer
370
18
48
1
60
0
100
AcDbLine
10
29.95
20
-20
30
0
11
109.3245
21
-20
31
0
39
0
210
0
220
0
230
1
0
LINE
5
8C
100
AcDbEntity
8
1
62
256
6
ByLayer
370
18
48
1
60
0
100
AcDbLine
10
109.3245
20
20
30
0
11
29.95
21
20
31
0
39
0
210
0
220
0
230
1
0
LINE
5
8D
100
AcDbEntity
8
1
62
256
6
ByLayer
370
18
48
1
60
0
100
AcDbLine
10
109.3245
20
-20
30
0
11
109.521897
21
-19.802603
31
0
39
0
210
0
220
0
230
1
0
LINE
5
8E
100
AcDbEntity
8
1
62
256
6
ByLayer
370
18
48
1
60
0
100
AcDbLine
10
109.521897
20
19.802603
30
0
11
109.3245
21
20
31
0
39
0
210
0
220
0
230
1
0
LINE
5
8F
100
AcDbEntity
8
SK1
62
256
6
ByLayer
370
18
48
1
60
0
100
AcDbLine
10
-30.70125
20
-20.845
30
0
11
-23.2
21
-20.845
31
0
39
0
210
0
220
0
230
1
0
LINE
5
90
100
AcDbEntity
8
SK1
62
256
6
ByLayer
370
18
48
1
60
0
100
AcDbLine
10
-27.2
20
20.845
30
0
11
-30.75
21
20.845
31
0
39
0
210
0
220
0
230
1
0
LINE
5
91
100
AcDbEntity
8
SK1
62
256
6
ByLayer
370
18
48
1
60
0
100
AcDbLine
10
-30.75
20
20.845
30
0
11
-31.891886
21
19.703114
31
0
39
0
210
0
220
0
230
1
0
LINE
5
92
100
AcDbEntity
8
SK1
62
256
6
ByLayer
370
18
48
1
60
0
100
AcDbLine
10
-31.898216
20
-19.648034
30
0
11
-30.70125
21
-20.845
31
0
39
0
210
0
220
0
230
1
0
LINE
5
93
100
AcDbEntity
8
80
62
256
6
ByLayer
370
18
48
1
60
0
100
AcDbLine
10
0
20
0
30
0
11
-5
21
0
31
0
39
0
210
0
220
0
230
1
0
LINE
5
94
100
AcDbEntity
8
81
62
256
6
ByLayer
370
18
48
1
60
0
100
AcDbLine
10
110
20
0
30
0
11
115
21
0
31
0
39
0
210
0
220
0
230
1
0
LINE
5
95
100
AcDbEntity
8
4
62
256
6
ByLayer
370
18
48
0.05
60
0
100
AcDbLine
10
0
20
0
30
0
11
110
21
0
31
0
39
0
210
0
220
0
230
1
0
LINE
5
97
100
AcDbEntity
8
SK4
62
256
6
ByLayer
370
18
48
0.05
60
0
100
AcDbLine
10
-5
20
0
30
0
11
115
21
0
31
0
39
0
210
0
220
0
230
1
0
LINE
5
99
100
AcDbEntity
8
1
62
256
6
ByLayer
370
18
48
1
60
0
100
AcDbLine
10
19.9125
20
21.056095
30
0
11
19.9125
21
19.85
31
0
39
0
210
0
220
0
230
1
0
LINE
5
9A
100
AcDbEntity
8
1
62
256
6
ByLayer
370
18
48
1
60
0
100
AcDbLine
10
110.3245
20
2.374363
30
0
11
110.3245
21
-2.374363
31
0
39
0
210
0
220
0
230
1
0
LINE
5
9B
100
AcDbEntity
8
1
62
256
6
ByLayer
370
18
48
1
60
0
100
AcDbLine
10
14.625388
20
30.431572
30
0
11
12.95
21
30.431572
31
0
39
0
210
0
220
0
230
1
0
LINE
5
9C
100
AcDbEntity
8
1
62
256
6
ByLayer
370
18
48
1
60
0
100
AcDbLine
10
110.3245
20
12.451792
30
0
11
110.3245
21
10.77508
31
0
39
0
210
0
220
0
230
1
0
LINE
5
9D
100
AcDbEntity
8
1
62
256
6
ByLayer
370
18
48
1
60
0
100
AcDbLine
10
110.3245
20
-10.77508
30
0
11
110.3245
21
-12.451792
31
0
39
0
210
0
220
0
230
1
0
LINE
5
9E
100
AcDbEntity
8
1
62
256
6
ByLayer
370
18
48
1
60
0
100
AcDbLine
10
110.3245
20
10.475875
30
0
11
110.3245
21
8.180021
31
0
39
0
210
0
220
0
230
1
0
LINE
5
9F
100
AcDbEntity
8
1
62
256
6
ByLayer
370
18
48
1
60
0
100
AcDbLine
10
110.3245
20
-8.180021
30
0
11
110.3245
21
-10.475875
31
0
39
0
210
0
220
0
230
1
0
LINE
5
A0
100
AcDbEntity
8
1
62
256
6
ByLayer
370
13
48
1
60
0
100
AcDbLine
10
19.5125
20
26.4
30
0
11
19.5125
21
-26.4
31
0
39
0
210
0
220
0
230
1
0
LINE
5
A1
100
AcDbEntity
8
1
62
256
6
ByLayer
370
18
48
1
60
0
100
AcDbLine
10
110.3245
20
-16.246743
30
0
11
110.3245
21
-16.367588
31
0
39
0
210
0
220
0
230
1
0
LINE
5
A2
100
AcDbEntity
8
1
62
256
6
ByLayer
370
18
48
1
60
0
100
AcDbLine
10
110.3245
20
15.385093
30
0
11
110.3245
21
15.236583
31
0
39
0
210
0
220
0
230
1
0
LINE
5
A3
100
AcDbEntity
8
1
62
256
6
ByLayer
370
18
48
1
60
0
100
AcDbLine
10
110.3245
20
17.721823
30
0
11
110.3245
21
17.163684
31
0
39
0
210
0
220
0
230
1
0
LINE
5
A4
100
AcDbEntity
8
1
62
256
6
ByLayer
370
18
48
1
60
0
100
AcDbLine
10
19.5125
20
26.4
30
0
11
16.4875
21
26.4
31
0
39
0
210
0
220
0
230
1
0
LINE
5
A5
100
AcDbEntity
8
1
62
256
6
ByLayer
370
18
48
1
60
0
100
AcDbLine
10
110.3245
20
-7.742143
30
0
11
110.3245
21
-8.180085
31
0
39
0
210
0
220
0
230
1
0
LINE
5
A6
100
AcDbEntity
8
1
62
256
6
ByLayer
370
13
48
1
60
0
100
AcDbLine
10
110.2495
20
-17.085927
30
0
11
110.2495
21
-16.530049
31
0
39
0
210
0
220
0
230
1
0
LINE
5
A7
100
AcDbEntity
8
1
62
256
6
ByLayer
370
18
48
1
60
0
100
AcDbLine
10
14.625388
20
-30.150383
30
0
11
14.625388
21
19.85
31
0
39
0
210
0
220
0
230
1
0
LINE
5
A8
100
AcDbEntity
8
1
62
256
6
ByLayer
370
18
48
1
60
0
100
AcDbLine
10
110.3245
20
-15.385072
30
0
11
110.3245
21
-16.246743
31
0
39
0
210
0
220
0
230
1
0
LINE
5
A9
100
AcDbEntity
8
1
62
256
6
ByLayer
370
13
48
1
60
0
100
AcDbLine
10
110.2495
20
12.935311
30
0
11
110.2495
21
13.976775
31
0
39
0
210
0
220
0
230
1
0
LINE
5
AA
100
AcDbEntity
8
1
62
256
6
ByLayer
370
18
48
1
60
0
100
AcDbLine
10
16.0875
20
19.85
30
0
11
16.0875
21
21.056095
31
0
39
0
210
0
220
0
230
1
0
LINE
5
AB
100
AcDbEntity
8
1
62
256
6
ByLayer
370
18
48
1
60
0
100
AcDbLine
10
110.3245
20
-17.798581
30
0
11
110.3245
21
-18.230913
31
0
39
0
210
0
220
0
230
1
0
LINE
5
AC
100
AcDbEntity
8
1
62
256
6
ByLayer
370
18
48
1
60
0
100
AcDbLine
10
110.3245
20
-14.177621
30
0
11
110.3245
21
-15.236583
31
0
39
0
210
0
220
0
230
1
0
LINE
5
AD
100
AcDbEntity
8
1
62
256
6
ByLayer
370
18
48
1
60
0
100
AcDbLine
10
110.3245
20
15.236583
30
0
11
110.3245
21
14.177621
31
0
39
0
210
0
220
0
230
1
0
LINE
5
AE
100
AcDbEntity
8
1
62
256
6
ByLayer
370
18
48
1
60
0
100
AcDbLine
10
110.3245
20
-10.475875
30
0
11
110.3245
21
-10.775464
31
0
39
0
210
0
220
0
230
1
0
LINE
5
AF
100
AcDbEntity
8
1
62
256
6
ByLayer
370
13
48
1
60
0
100
AcDbLine
10
110.2495
20
-18.91297
30
0
11
110.2495
21
-18.747456
31
0
39
0
210
0
220
0
230
1
0
LINE
5
B0
100
AcDbEntity
8
1
62
256
6
ByLayer
370
13
48
1
60
0
100
AcDbLine
10
109.6055
20
16.782699
30
0
11
109.6055
21
16.597446
31
0
39
0
210
0
220
0
230
1
0
LINE
5
B1
100
AcDbEntity
8
1
62
256
6
ByLayer
370
18
48
1
60
0
100
AcDbLine
10
110.3245
20
-18.646315
30
0
11
110.3245
21
-18.853979
31
0
39
0
210
0
220
0
230
1
0
LINE
5
B2
100
AcDbEntity
8
1
62
256
6
ByLayer
370
18
48
1
60
0
100
AcDbLine
10
110.3245
20
18.853979
30
0
11
110.3245
21
18.646315
31
0
39
0
210
0
220
0
230
1
0
LINE
5
B3
100
AcDbEntity
8
1
62
256
6
ByLayer
370
18
48
1
60
0
100
AcDbLine
10
110.3245
20
-17.721823
30
0
11
110.3245
21
-17.79864
31
0
39
0
210
0
220
0
230
1
0
LINE
5
B4
100
AcDbEntity
8
1
62
256
6
ByLayer
370
18
48
1
60
0
100
AcDbLine
10
110.3245
20
17.163763
30
0
11
110.3245
21
17.066336
31
0
39
0
210
0
220
0
230
1
0
LINE
5
B5
100
AcDbEntity
8
1
62
256
6
ByLayer
370
18
48
1
60
0
100
AcDbLine
10
14.625388
20
-30.150383
30
0
11
12.95
21
-30.150383
31
0
39
0
210
0
220
0
230
1
0
LINE
5
B6
100
AcDbEntity
8
1
62
256
6
ByLayer
370
13
48
1
60
0
100
AcDbLine
10
109.6055
20
-19.649908
30
0
11
109.6055
21
-19.672543
31
0
39
0
210
0
220
0
230
1
0
LINE
5
B7
100
AcDbEntity
8
1
62
256
6
ByLayer
370
18
48
1
60
0
100
AcDbLine
10
110.3245
20
17.066336
30
0
11
110.3245
21
16.367557
31
0
39
0
210
0
220
0
230
1
0
LINE
5
B8
100
AcDbEntity
8
1
62
256
6
ByLayer
370
18
48
1
60
0
100
AcDbLine
10
19.5125
20
-26.4
30
0
11
16.4875
21
-26.4
31
0
39
0
210
0
220
0
230
1
0
LINE
5
B9
100
AcDbEntity
8
1
62
256
6
ByLayer
370
13
48
1
60
0
100
AcDbLine
10
110.2495
20
-17.75167
30
0
11
110.2495
21
-17.30746
31
0
39
0
210
0
220
0
230
1
0
LINE
5
BA
100
AcDbEntity
8
1
62
256
6
ByLayer
370
13
48
1
60
0
100
AcDbLine
10
109.6055
20
-16.597446
30
0
11
109.6055
21
-16.782699
31
0
39
0
210
0
220
0
230
1
0
LINE
5
BB
100
AcDbEntity
8
1
62
256
6
ByLayer
370
13
48
1
60
0
100
AcDbLine
10
109.6055
20
19.232584
30
0
11
109.6055
21
19.163428
31
0
39
0
210
0
220
0
230
1
0
LINE
5
BC
100
AcDbEntity
8
1
62
256
6
ByLayer
370
13
48
1
60
0
100
AcDbLine
10
109.6055
20
17.620083
30
0
11
109.6055
21
17.468992
31
0
39
0
210
0
220
0
230
1
0
LINE
5
BD
100
AcDbEntity
8
1
62
256
6
ByLayer
370
18
48
1
60
0
100
AcDbLine
10
110.3245
20
-18.877899
30
0
11
110.3245
21
-18.98093
31
0
39
0
210
0
220
0
230
1
0
LINE
5
BE
100
AcDbEntity
8
1
62
256
6
ByLayer
370
18
48
1
60
0
100
AcDbLine
10
25.45
20
19.85
30
0
11
21.374612
21
19.85
31
0
39
0
210
0
220
0
230
1
0
LINE
5
BF
100
AcDbEntity
8
1
62
256
6
ByLayer
370
18
48
1
60
0
100
AcDbLine
10
109.3245
20
20
30
0
11
109.3245
21
-20
31
0
39
0
210
0
220
0
230
1
0
LINE
5
C0
100
AcDbEntity
8
1
62
256
6
ByLayer
370
13
48
1
60
0
100
AcDbLine
10
109.6055
20
-15.533307
30
0
11
109.6055
21
-15.759146
31
0
39
0
210
0
220
0
230
1
0
LINE
5
C1
100
AcDbEntity
8
1
62
256
6
ByLayer
370
18
48
1
60
0
100
AcDbLine
10
110.3245
20
-13.994653
30
0
11
110.3245
21
-14.177598
31
0
39
0
210
0
220
0
230
1
0
LINE
5
C2
100
AcDbEntity
8
1
62
256
6
ByLayer
370
13
48
1
60
0
100
AcDbLine
10
110.2495
20
18.967827
30
0
11
110.2495
21
19.04976
31
0
39
0
210
0
220
0
230
1
0
LINE
5
C3
100
AcDbEntity
8
1
62
256
6
ByLayer
370
18
48
1
60
0
100
AcDbLine
10
110.3245
20
10.775464
30
0
11
110.3245
21
10.475875
31
0
39
0
210
0
220
0
230
1
0
LINE
5
C4
100
AcDbEntity
8
1
62
256
6
ByLayer
370
18
48
1
60
0
100
AcDbLine
10
110.3245
20
18.605627
30
0
11
110.3245
21
18.289015
31
0
39
0
210
0
220
0
230
1
0
LINE
5
C5
100
AcDbEntity
8
1
62
256
6
ByLayer
370
13
48
1
60
0
100
AcDbLine
10
110.2495
20
-15.232962
30
0
11
110.2495
21
-14.391974
31
0
39
0
210
0
220
0
230
1
0
LINE
5
C6
100
AcDbEntity
8
1
62
256
6
ByLayer
370
13
48
1
60
0
100
AcDbLine
10
110.2495
20
-18.270596
30
0
11
110.2495
21
-17.926445
31
0
39
0
210
0
220
0
230
1
0
LINE
5
C7
100
AcDbEntity
8
1
62
256
6
ByLayer
370
13
48
1
60
0
100
AcDbLine
10
16.4875
20
26.4
30
0
11
16.4875
21
-26.4
31
0
39
0
210
0
220
0
230
1
0
LINE
5
C8
100
AcDbEntity
8
1
62
256
6
ByLayer
370
13
48
1
60
0
100
AcDbLine
10
110.2495
20
14.391974
30
0
11
110.2495
21
15.232962
31
0
39
0
210
0
220
0
230
1
0
LINE
5
C9
100
AcDbEntity
8
1
62
256
6
ByLayer
370
13
48
1
60
0
100
AcDbLine
10
110.2495
20
18.402698
30
0
11
110.2495
21
18.654961
31
0
39
0
210
0
220
0
230
1
0
LINE
5
CA
100
AcDbEntity
8
1
62
256
6
ByLayer
370
18
48
1
60
0
100
AcDbLine
10
110.3245
20
13.994653
30
0
11
110.3245
21
12.681014
31
0
39
0
210
0
220
0
230
1
0
LINE
5
CB
100
AcDbEntity
8
1
62
256
6
ByLayer
370
18
48
1
60
0
100
AcDbLine
10
110.3245
20
12.680988
30
0
11
110.3245
21
12.451792
31
0
39
0
210
0
220
0
230
1
0
LINE
5
CC
100
AcDbEntity
8
1
62
256
6
ByLayer
370
13
48
1
60
0
100
AcDbLine
10
109.6055
20
-18.175685
30
0
11
109.6055
21
-18.296875
31
0
39
0
210
0
220
0
230
1
0
LINE
5
CD
100
AcDbEntity
8
1
62
256
6
ByLayer
370
18
48
1
60
0
100
AcDbLine
10
110.3245
20
-16.367557
30
0
11
110.3245
21
-17.066336
31
0
39
0
210
0
220
0
230
1
0
LINE
5
CE
100
AcDbEntity
8
1
62
256
6
ByLayer
370
13
48
1
60
0
100
AcDbLine
10
110.2495
20
-12.416012
30
0
11
110.2495
21
-11.090991
31
0
39
0
210
0
220
0
230
1
0
LINE
5
CF
100
AcDbEntity
8
1
62
256
6
ByLayer
370
13
48
1
60
0
100
AcDbLine
10
110.2495
20
11.090991
30
0
11
110.2495
21
12.416012
31
0
39
0
210
0
220
0
230
1
0
LINE
5
D0
100
AcDbEntity
8
1
62
256
6
ByLayer
370
18
48
1
60
0
100
AcDbLine
10
110.3245
20
18.646319
30
0
11
110.3245
21
18.605627
31
0
39
0
210
0
220
0
230
1
0
LINE
5
D1
100
AcDbEntity
8
1
62
256
6
ByLayer
370
18
48
1
60
0
100
AcDbLine
10
110.3245
20
16.246743
30
0
11
110.3245
21
15.385072
31
0
39
0
210
0
220
0
230
1
0
LINE
5
D2
100
AcDbEntity
8
1
62
256
6
ByLayer
370
18
48
1
60
0
100
AcDbLine
10
110.3245
20
-2.374363
30
0
11
110.3245
21
-3.635516
31
0
39
0
210
0
220
0
230
1
0
LINE
5
D3
100
AcDbEntity
8
1
62
256
6
ByLayer
370
13
48
1
60
0
100
AcDbLine
10
110.2495
20
17.30746
30
0
11
110.2495
21
17.75167
31
0
39
0
210
0
220
0
230
1
0
LINE
5
D4
100
AcDbEntity
8
1
62
256
6
ByLayer
370
18
48
1
60
0
100
AcDbLine
10
110.3245
20
18.230913
30
0
11
110.3245
21
17.798581
31
0
39
0
210
0
220
0
230
1
0
LINE
5
D5
100
AcDbEntity
8
1
62
256
6
ByLayer
370
18
48
1
60
0
100
AcDbLine
10
110.3245
20
18.878084
30
0
11
110.3245
21
18.853979
31
0
39
0
210
0
220
0
230
1
0
LINE
5
D6
100
AcDbEntity
8
1
62
256
6
ByLayer
370
13
48
1
60
0
100
AcDbLine
10
109.6055
20
3.782728
30
0
11
109.6055
21
1.680832
31
0
39
0
210
0
220
0
230
1
0
LINE
5
D7
100
AcDbEntity
8
1
62
256
6
ByLayer
370
13
48
1
60
0
100
AcDbLine
10
109.6055
20
-1.680832
30
0
11
109.6055
21
-3.782728
31
0
39
0
210
0
220
0
230
1
0
LINE
5
D8
100
AcDbEntity
8
1
62
256
6
ByLayer
370
18
48
1
60
0
100
AcDbLine
10
110.3245
20
-18.853979
30
0
11
110.3245
21
-18.878084
31
0
39
0
210
0
220
0
230
1
0
LINE
5
D9
100
AcDbEntity
8
1
62
256
6
ByLayer
370
18
48
1
60
0
100
AcDbLine
10
110.3245
20
14.177598
30
0
11
110.3245
21
13.994653
31
0
39
0
210
0
220
0
230
1
0
LINE
5
DA
100
AcDbEntity
8
1
62
256
6
ByLayer
370
18
48
1
60
0
100
AcDbLine
10
19.9125
20
27.8047
30
0
11
19.9125
21
21.056095
31
0
39
0
210
0
220
0
230
1
0
LINE
5
DB
100
AcDbEntity
8
1
62
256
6
ByLayer
370
18
48
1
60
0
100
AcDbLine
10
110.3245
20
16.367588
30
0
11
110.3245
21
16.246743
31
0
39
0
210
0
220
0
230
1
0
LINE
5
DC
100
AcDbEntity
8
1
62
256
6
ByLayer
370
18
48
1
60
0
100
AcDbLine
10
110.3245
20
3.635516
30
0
11
110.3245
21
2.374363
31
0
39
0
210
0
220
0
230
1
0
LINE
5
DD
100
AcDbEntity
8
1
62
256
6
ByLayer
370
13
48
1
60
0
100
AcDbLine
10
110.2495
20
-18.654961
30
0
11
110.2495
21
-18.402698
31
0
39
0
210
0
220
0
230
1
0
LINE
5
DE
100
AcDbEntity
8
1
62
256
6
ByLayer
370
18
48
1
60
0
100
AcDbLine
10
110.3245
20
-18.289015
30
0
11
110.3245
21
-18.605627
31
0
39
0
210
0
220
0
230
1
0
LINE
5
DF
100
AcDbEntity
8
1
62
256
6
ByLayer
370
13
48
1
60
0
100
AcDbLine
10
109.6055
20
19.672543
30
0
11
109.6055
21
19.649908
31
0
39
0
210
0
220
0
230
1
0
LINE
5
E0
100
AcDbEntity
8
1
62
256
6
ByLayer
370
18
48
1
60
0
100
AcDbLine
10
110.3245
20
-17.066336
30
0
11
110.3245
21
-17.163763
31
0
39
0
210
0
220
0
230
1
0
LINE
5
E1
100
AcDbEntity
8
1
62
256
6
ByLayer
370
13
48
1
60
0
100
AcDbLine
10
109.6055
20
12.970506
30
0
11
109.6055
21
12.625166
31
0
39
0
210
0
220
0
230
1
0
LINE
5
E2
100
AcDbEntity
8
1
62
256
6
ByLayer
370
13
48
1
60
0
100
AcDbLine
10
109.6055
20
-12.625166
30
0
11
109.6055
21
-12.970506
31
0
39
0
210
0
220
0
230
1
0
LINE
5
E3
100
AcDbEntity
8
1
62
256
6
ByLayer
370
18
48
1
60
0
100
AcDbLine
10
110.3245
20
-12.451792
30
0
11
110.3245
21
-12.680988
31
0
39
0
210
0
220
0
230
1
0
LINE
5
E4
100
AcDbEntity
8
1
62
256
6
ByLayer
370
13
48
1
60
0
100
AcDbLine
10
29.95
20
-20
30
0
11
29.95
21
20
31
0
39
0
210
0
220
0
230
1
0
LINE
5
E5
100
AcDbEntity
8
1
62
256
6
ByLayer
370
13
48
1
60
0
100
AcDbLine
10
110.2495
20
18.747456
30
0
11
110.2495
21
18.91297
31
0
39
0
210
0
220
0
230
1
0
LINE
5
E6
100
AcDbEntity
8
1
62
256
6
ByLayer
370
13
48
1
60
0
100
AcDbLine
10
110.2495
20
17.926445
30
0
11
110.2495
21
18.270596
31
0
39
0
210
0
220
0
230
1
0
LINE
5
E7
100
AcDbEntity
8
1
62
256
6
ByLayer
370
18
48
1
60
0
100
AcDbLine
10
16.0875
20
27.8047
30
0
11
16.0875
21
21.056095
31
0
39
0
210
0
220
0
230
1
0
LINE
5
E8
100
AcDbEntity
8
1
62
256
6
ByLayer
370
18
48
1
60
0
100
AcDbLine
10
25.45
20
24.420041
30
0
11
25.45
21
30.431572
31
0
39
0
210
0
220
0
230
1
0
LINE
5
E9
100
AcDbEntity
8
1
62
256
6
ByLayer
370
13
48
1
60
0
100
AcDbLine
10
109.6055
20
-17.468992
30
0
11
109.6055
21
-17.620083
31
0
39
0
210
0
220
0
230
1
0
LINE
5
EA
100
AcDbEntity
8
1
62
256
6
ByLayer
370
13
48
1
60
0
100
AcDbLine
10
109.6055
20
18.8304
30
0
11
109.6055
21
18.736267
31
0
39
0
210
0
220
0
230
1
0
LINE
5
EB
100
AcDbEntity
8
1
62
256
6
ByLayer
370
18
48
1
60
0
100
AcDbLine
10
25.45
20
24.420041
30
0
11
21.374612
21
24.420041
31
0
39
0
210
0
220
0
230
1
0
LINE
5
EC
100
AcDbEntity
8
1
62
256
6
ByLayer
370
13
48
1
60
0
100
AcDbLine
10
110.2495
20
-19.04976
30
0
11
110.2495
21
-18.967827
31
0
39
0
210
0
220
0
230
1
0
LINE
5
ED
100
AcDbEntity
8
1
62
256
6
ByLayer
370
18
48
1
60
0
100
AcDbLine
10
110.3245
20
8.180085
30
0
11
110.3245
21
7.742143
31
0
39
0
210
0
220
0
230
1
0
LINE
5
EE
100
AcDbEntity
8
1
62
256
6
ByLayer
370
13
48
1
60
0
100
AcDbLine
10
110.2495
20
-7.633583
30
0
11
110.2495
21
-4.571562
31
0
39
0
210
0
220
0
230
1
0
LINE
5
EF
100
AcDbEntity
8
1
62
256
6
ByLayer
370
13
48
1
60
0
100
AcDbLine
10
110.2495
20
4.571562
30
0
11
110.2495
21
7.633583
31
0
39
0
210
0
220
0
230
1
0
LINE
5
F0
100
AcDbEntity
8
1
62
256
6
ByLayer
370
13
48
1
60
0
100
AcDbLine
10
12.19562
20
19.85
30
0
11
12.19562
21
24.420041
31
0
39
0
210
0
220
0
230
1
0
LINE
5
F1
100
AcDbEntity
8
1
62
256
6
ByLayer
370
18
48
1
60
0
100
AcDbLine
10
19.9125
20
19.85
30
0
11
19.9125
21
-27.49666
31
0
39
0
210
0
220
0
230
1
0
LINE
5
F2
100
AcDbEntity
8
1
62
256
6
ByLayer
370
18
48
1
60
0
100
AcDbLine
10
16.0875
20
19.85
30
0
11
16.0875
21
-27.49666
31
0
39
0
210
0
220
0
230
1
0
LINE
5
F3
100
AcDbEntity
8
1
62
256
6
ByLayer
370
13
48
1
60
0
100
AcDbLine
10
109.6055
20
-19.163428
30
0
11
109.6055
21
-19.232584
31
0
39
0
210
0
220
0
230
1
0
LINE
5
F4
100
AcDbEntity
8
1
62
256
6
ByLayer
370
13
48
1
60
0
100
AcDbLine
10
109.6055
20
-19.466108
30
0
11
109.6055
21
-19.511551
31
0
39
0
210
0
220
0
230
1
0
LINE
5
F5
100
AcDbEntity
8
1
62
256
6
ByLayer
370
18
48
1
60
0
100
AcDbLine
10
25.95
20
19.85
30
0
11
25.95
21
23.772219
31
0
39
0
210
0
220
0
230
1
0
LINE
5
F6
100
AcDbEntity
8
1
62
256
6
ByLayer
370
13
48
1
60
0
100
AcDbLine
10
110.2495
20
-10.414628
30
0
11
110.2495
21
-8.614199
31
0
39
0
210
0
220
0
230
1
0
LINE
5
F7
100
AcDbEntity
8
1
62
256
6
ByLayer
370
13
48
1
60
0
100
AcDbLine
10
110.2495
20
8.614199
30
0
11
110.2495
21
10.414628
31
0
39
0
210
0
220
0
230
1
0
LINE
5
F8
100
AcDbEntity
8
1
62
256
6
ByLayer
370
18
48
1
60
0
100
AcDbLine
10
14.625388
20
24.420041
30
0
11
14.625388
21
30.431572
31
0
39
0
210
0
220
0
230
1
0
LINE
5
F9
100
AcDbEntity
8
1
62
256
6
ByLayer
370
13
48
1
60
0
100
AcDbLine
10
110.2495
20
16.530049
30
0
11
110.2495
21
17.085927
31
0
39
0
210
0
220
0
230
1
0
LINE
5
FA
100
AcDbEntity
8
1
62
256
6
ByLayer
370
13
48
1
60
0
100
AcDbLine
10
110.2495
20
-13.976775
30
0
11
110.2495
21
-12.935311
31
0
39
0
210
0
220
0
230
1
0
LINE
5
FB
100
AcDbEntity
8
1
62
256
6
ByLayer
370
18
48
1
60
0
100
AcDbLine
10
110.3245
20
18.289024
30
0
11
110.3245
21
18.230913
31
0
39
0
210
0
220
0
230
1
0
LINE
5
FC
100
AcDbEntity
8
1
62
256
6
ByLayer
370
18
48
1
60
0
100
AcDbLine
10
25.95
20
19.85
30
0
11
25.95
21
-29.628122
31
0
39
0
210
0
220
0
230
1
0
LINE
5
FD
100
AcDbEntity
8
1
62
256
6
ByLayer
370
13
48
1
60
0
100
AcDbLine
10
109.6055
20
14.510077
30
0
11
109.6055
21
14.233479
31
0
39
0
210
0
220
0
230
1
0
LINE
5
FE
100
AcDbEntity
8
1
62
256
6
ByLayer
370
13
48
1
60
0
100
AcDbLine
10
109.6055
20
-14.233479
30
0
11
109.6055
21
-14.510077
31
0
39
0
210
0
220
0
230
1
0
LINE
5
FF
100
AcDbEntity
8
1
62
256
6
ByLayer
370
13
48
1
60
0
100
AcDbLine
10
109.6055
20
15.759146
30
0
11
109.6055
21
15.533307
31
0
39
0
210
0
220
0
230
1
0
LINE
5
100
100
AcDbEntity
8
1
62
256
6
ByLayer
370
18
48
1
60
0
100
AcDbLine
10
4.95
20
31.469995
30
0
11
4.95
21
31.47
31
0
39
0
210
0
220
0
230
1
0
LINE
5
101
100
AcDbEntity
8
1
62
256
6
ByLayer
370
13
48
1
60
0
100
AcDbLine
10
109.6055
20
8.373611
30
0
11
109.6055
21
7.714713
31
0
39
0
210
0
220
0
230
1
0
LINE
5
102
100
AcDbEntity
8
1
62
256
6
ByLayer
370
13
48
1
60
0
100
AcDbLine
10
109.6055
20
-7.714713
30
0
11
109.6055
21
-8.373611
31
0
39
0
210
0
220
0
230
1
0
LINE
5
103
100
AcDbEntity
8
1
62
256
6
ByLayer
370
18
48
1
60
0
100
AcDbLine
10
110.3245
20
-17.163684
30
0
11
110.3245
21
-17.721823
31
0
39
0
210
0
220
0
230
1
0
LINE
5
104
100
AcDbEntity
8
1
62
256
6
ByLayer
370
18
48
1
60
0
100
AcDbLine
10
110.3245
20
-18.230913
30
0
11
110.3245
21
-18.289024
31
0
39
0
210
0
220
0
230
1
0
LINE
5
105
100
AcDbEntity
8
1
62
256
6
ByLayer
370
18
48
1
60
0
100
AcDbLine
10
4.95
20
-31.453547
30
0
11
4.95
21
-31.47
31
0
39
0
210
0
220
0
230
1
0
LINE
5
106
100
AcDbEntity
8
1
62
256
6
ByLayer
370
13
48
1
60
0
100
AcDbLine
10
110.2495
20
-1.891746
30
0
11
110.2495
21
1.891746
31
0
39
0
210
0
220
0
230
1
0
LINE
5
107
100
AcDbEntity
8
1
62
256
6
ByLayer
370
13
48
1
60
0
100
AcDbLine
10
109.6055
20
11.019332
30
0
11
109.6055
21
10.568917
31
0
39
0
210
0
220
0
230
1
0
LINE
5
108
100
AcDbEntity
8
1
62
256
6
ByLayer
370
13
48
1
60
0
100
AcDbLine
10
109.6055
20
-10.568917
30
0
11
109.6055
21
-11.019332
31
0
39
0
210
0
220
0
230
1
0
LINE
5
109
100
AcDbEntity
8
1
62
256
6
ByLayer
370
18
48
1
60
0
100
AcDbLine
10
110.3245
20
-15.236583
30
0
11
110.3245
21
-15.385093
31
0
39
0
210
0
220
0
230
1
0
LINE
5
10A
100
AcDbEntity
8
1
62
256
6
ByLayer
370
18
48
1
60
0
100
AcDbLine
10
110.3245
20
7.742143
30
0
11
110.3245
21
3.63542
31
0
39
0
210
0
220
0
230
1
0
LINE
5
10B
100
AcDbEntity
8
1
62
256
6
ByLayer
370
18
48
1
60
0
100
AcDbLine
10
110.3245
20
-3.63542
30
0
11
110.3245
21
-7.742143
31
0
39
0
210
0
220
0
230
1
0
LINE
5
10C
100
AcDbEntity
8
1
62
256
6
ByLayer
370
18
48
1
60
0
100
AcDbLine
10
25.45
20
30.431572
30
0
11
21.374612
21
30.431572
31
0
39
0
210
0
220
0
230
1
0
LINE
5
10D
100
AcDbEntity
8
1
62
256
6
ByLayer
370
18
48
1
60
0
100
AcDbLine
10
0.5
20
-31.47
30
0
11
0.5
21
31.47
31
0
39
0
210
0
220
0
230
1
0
LINE
5
10E
100
AcDbEntity
8
1
62
256
6
ByLayer
370
13
48
1
60
0
100
AcDbLine
10
110.2495
20
15.570347
30
0
11
110.2495
21
16.255338
31
0
39
0
210
0
220
0
230
1
0
LINE
5
10F
100
AcDbEntity
8
1
62
256
6
ByLayer
370
18
48
1
60
0
100
AcDbLine
10
110.3245
20
-12.681014
30
0
11
110.3245
21
-13.994653
31
0
39
0
210
0
220
0
230
1
0
LINE
5
110
100
AcDbEntity
8
1
62
256
6
ByLayer
370
18
48
1
60
0
100
AcDbLine
10
25.45
20
-30.150383
30
0
11
25.45
21
19.85
31
0
39
0
210
0
220
0
230
1
0
LINE
5
111
100
AcDbEntity
8
1
62
256
6
ByLayer
370
18
48
1
60
0
100
AcDbLine
10
21.374612
20
19.85
30
0
11
21.374612
21
-30.150383
31
0
39
0
210
0
220
0
230
1
0
LINE
5
112
100
AcDbEntity
8
1
62
256
6
ByLayer
370
13
48
1
60
0
100
AcDbLine
10
109.6055
20
18.296875
30
0
11
109.6055
21
18.175685
31
0
39
0
210
0
220
0
230
1
0
LINE
5
113
100
AcDbEntity
8
1
62
256
6
ByLayer
370
13
48
1
60
0
100
AcDbLine
10
109.6055
20
-18.736267
30
0
11
109.6055
21
-18.8304
31
0
39
0
210
0
220
0
230
1
0
LINE
5
114
100
AcDbEntity
8
1
62
256
6
ByLayer
370
18
48
1
60
0
100
AcDbLine
10
25.95
20
29.914221
30
0
11
25.95
21
23.772219
31
0
39
0
210
0
220
0
230
1
0
LINE
5
115
100
AcDbEntity
8
1
62
256
6
ByLayer
370
18
48
1
60
0
100
AcDbLine
10
110.3245
20
18.98093
30
0
11
110.3245
21
18.877899
31
0
39
0
210
0
220
0
230
1
0
LINE
5
116
100
AcDbEntity
8
1
62
256
6
ByLayer
370
18
48
1
60
0
100
AcDbLine
10
110.3245
20
-18.605627
30
0
11
110.3245
21
-18.646319
31
0
39
0
210
0
220
0
230
1
0
LINE
5
117
100
AcDbEntity
8
1
62
256
6
ByLayer
370
13
48
1
60
0
100
AcDbLine
10
110.2495
20
-16.255338
30
0
11
110.2495
21
-15.570347
31
0
39
0
210
0
220
0
230
1
0
LINE
5
118
100
AcDbEntity
8
1
62
256
6
ByLayer
370
18
48
1
60
0
100
AcDbLine
10
14.625388
20
19.85
30
0
11
4.968215
21
19.85
31
0
39
0
210
0
220
0
230
1
0
LINE
5
119
100
AcDbEntity
8
1
62
256
6
ByLayer
370
18
48
1
60
0
100
AcDbLine
10
110.3245
20
-18.98093
30
0
11
110.3245
21
-18.988915
31
0
39
0
210
0
220
0
230
1
0
LINE
5
11A
100
AcDbEntity
8
1
62
256
6
ByLayer
370
18
48
1
60
0
100
AcDbLine
10
0
20
-30.97
30
0
11
0
21
30.97
31
0
39
0
210
0
220
0
230
1
0
LINE
5
11B
100
AcDbEntity
8
1
62
256
6
ByLayer
370
18
48
1
60
0
100
AcDbLine
10
14.625388
20
24.420041
30
0
11
12.19562
21
24.420041
31
0
39
0
210
0
220
0
230
1
0
LINE
5
11C
100
AcDbEntity
8
1
62
256
6
ByLayer
370
18
48
1
60
0
100
AcDbLine
10
21.374612
20
30.431572
30
0
11
21.374612
21
24.420041
31
0
39
0
210
0
220
0
230
1
0
LINE
5
11D
100
AcDbEntity
8
1
62
256
6
ByLayer
370
13
48
1
60
0
100
AcDbLine
10
109.6055
20
19.511551
30
0
11
109.6055
21
19.466108
31
0
39
0
210
0
220
0
230
1
0
LINE
5
11E
100
AcDbEntity
8
1
62
256
6
ByLayer
370
18
48
1
60
0
100
AcDbLine
10
25.45
20
-30.150383
30
0
11
21.374612
21
-30.150383
31
0
39
0
210
0
220
0
230
1
0
LINE
5
11F
100
AcDbEntity
8
1
62
256
6
ByLayer
370
18
48
1
60
0
100
AcDbLine
10
110.3245
20
18.988915
30
0
11
110.3245
21
18.98093
31
0
39
0
210
0
220
0
230
1
0
LINE
5
120
100
AcDbEntity
8
1
62
256
6
ByLayer
370
18
48
1
60
0
100
AcDbLine
10
110.3245
20
17.79864
30
0
11
110.3245
21
17.721823
31
0
39
0
210
0
220
0
230
1
0
LINE
5
121
100
AcDbEntity
8
SK1
62
256
6
ByLayer
370
18
48
1
60
0
100
AcDbLine
10
-2
20
-24.220431
30
0
11
-2
21
24.220431
31
0
39
0
210
0
220
0
230
1
0
LINE
5
122
100
AcDbEntity
8
SK1
62
256
6
ByLayer
370
18
48
1
60
0
100
AcDbLine
10
-21.8
20
-23.228447
30
0
11
-21.8
21
-21.960979
31
0
39
0
210
0
220
0
230
1
0
LINE
5
123
100
AcDbEntity
8
SK1
62
256
6
ByLayer
370
18
48
1
60
0
100
AcDbLine
10
-1.066987
20
-23.970431
30
0
11
-1.066987
21
23.970431
31
0
39
0
210
0
220
0
230
1
0
LINE
5
124
100
AcDbEntity
8
SK1
62
256
6
ByLayer
370
13
48
1
60
0
100
AcDbLine
10
-27.2
20
20.845
30
0
11
-27.2
21
20.779376
31
0
39
0
210
0
220
0
230
1
0
LINE
5
125
100
AcDbEntity
8
SK1
62
256
6
ByLayer
370
13
48
1
60
0
100
AcDbLine
10
-0.493464
20
-23.970431
30
0
11
-0.493464
21
23.970431
31
0
39
0
210
0
220
0
230
1
0
LINE
5
126
100
AcDbEntity
8
SK1
62
256
6
ByLayer
370
13
48
1
60
0
100
AcDbLine
10
-30.760045
20
20.83431
30
0
11
-30.760045
21
-20.775936
31
0
39
0
210
0
220
0
230
1
0
LINE
5
127
100
AcDbEntity
8
SK1
62
256
6
ByLayer
370
13
48
1
60
0
100
AcDbLine
10
-23.2
20
-20.531099
30
0
11
-25.983343
21
-20.531099
31
0
39
0
210
0
220
0
230
1
0
LINE
5
128
100
AcDbEntity
8
SK1
62
256
6
ByLayer
370
18
48
1
60
0
100
AcDbLine
10
-30.70125
20
-20.845
30
0
11
-30.70125
21
-20.843389
31
0
39
0
210
0
220
0
230
1
0
LINE
5
129
100
AcDbEntity
8
SK1
62
256
6
ByLayer
370
18
48
1
60
0
100
AcDbLine
10
-30.75
20
20.845
30
0
11
-30.75
21
20.844744
31
0
39
0
210
0
220
0
230
1
0
LINE
5
12A
100
AcDbEntity
8
SK1
62
256
6
ByLayer
370
18
48
1
60
0
100
AcDbLine
10
-25.8
20
21.833816
30
0
11
-25.8
21
23.028046
31
0
39
0
210
0
220
0
230
1
0
LINE
5
12B
100
AcDbEntity
8
SK1
62
256
6
ByLayer
370
13
48
1
60
0
100
AcDbLine
10
-31.869281
20
-19.490376
30
0
11
-30.96978
21
-20.291837
31
0
39
0
210
0
220
0
230
1
0
LINE
5
12C
100
AcDbEntity
8
SK1
62
256
6
ByLayer
370
13
48
1
60
0
100
AcDbLine
10
-31.842316
20
19.557838
30
0
11
-31.06758
21
20.248133
31
0
39
0
210
0
220
0
230
1
0
LINE
5
12D
100
AcDbEntity
8
SK1
62
256
6
ByLayer
370
18
48
1
60
0
100
AcDbLine
10
-31.9
20
-19.639143
30
0
11
-31.9
21
19.672662
31
0
39
0
210
0
220
0
230
1
0
LINE
5
12E
100
AcDbEntity
8
SK1
62
256
6
ByLayer
370
13
48
1
60
0
100
AcDbLine
10
-23.2
20
-20.531099
30
0
11
-23.2
21
-20.845
31
0
39
0
210
0
220
0
230
1
0
LINE
5
12F
100
AcDbEntity
8
SK1
62
256
6
ByLayer
370
13
48
1
60
0
100
AcDbLine
10
-23.2
20
-20.531099
30
0
11
-23.2
21
-19.357689
31
0
39
0
210
0
220
0
230
1
0
LINE
5
130
100
AcDbEntity
8
1
62
256
6
ByLayer
370
13
48
1
60
0
100
AcDbLine
10
119.9255
20
14.899495
30
0
11
119.9255
21
4.899495
31
0
39
0
210
0
220
0
230
1
0
LINE
5
131
100
AcDbEntity
8
1
62
256
6
ByLayer
370
18
48
1
60
0
100
AcDbLine
10
114.6755
20
14.899495
30
0
11
114.6755
21
4.899495
31
0
39
0
210
0
220
0
230
1
0
LINE
5
132
100
AcDbEntity
8
1
62
256
6
ByLayer
370
13
48
1
60
0
100
AcDbLine
10
114.4255
20
12.899495
30
0
11
114.4255
21
6.899495
31
0
39
0
210
0
220
0
230
1
0
LINE
5
133
100
AcDbEntity
8
1
62
256
6
ByLayer
370
18
48
1
60
0
100
AcDbLine
10
120.5255
20
14.299495
30
0
11
120.5255
21
5.499495
31
0
39
0
210
0
220
0
230
1
0
LINE
5
134
100
AcDbEntity
8
1
62
256
6
ByLayer
370
13
48
1
60
0
100
AcDbLine
10
119.9255
20
-4.899495
30
0
11
119.9255
21
-14.899495
31
0
39
0
210
0
220
0
230
1
0
LINE
5
135
100
AcDbEntity
8
1
62
256
6
ByLayer
370
18
48
1
60
0
100
AcDbLine
10
120.5255
20
-14.299495
30
0
11
120.5255
21
-5.499495
31
0
39
0
210
0
220
0
230
1
0
LINE
5
136
100
AcDbEntity
8
1
62
256
6
ByLayer
370
13
48
1
60
0
100
AcDbLine
10
114.4255
20
-6.899495
30
0
11
114.4255
21
-12.899495
31
0
39
0
210
0
220
0
230
1
0
LINE
5
137
100
AcDbEntity
8
1
62
256
6
ByLayer
370
18
48
1
60
0
100
AcDbLine
10
114.6755
20
-14.899495
30
0
11
114.6755
21
-4.899495
31
0
39
0
210
0
220
0
230
1
0
MTEXT
5
1F3
100
AcDbEntity
8
SK6
62
256
6
ByLayer
370
18
48
1
60
0
100
AcDbMText
10
0.875
20
40.625134
30
0
210
0
220
0
230
1
1
\W0.7499;HT06-40-SL40N 110
40
3.5
41
0
44
1.084337
50
0
71
7
72
5
7
iso_b_vert
0
DIMENSION
5
200
100
AcDbEntity
8
SK2
62
256
6
ByLayer
370
13
48
1
60
0
100
AcDbDimension
2
DimnDraft3D1
10
110
20
-41.57
30
0
11
65.892801
21
-41.57
31
0
70
32
71
5
72
1
41
1
210
0
220
0
230
1
3
Standard
100
AcDbAlignedDimension
13
30
23
-21.5875
33
0
14
110
24
-21.5875
34
0
50
0
100
AcDbRotatedDimension
1001
ACAD
1000
DSTYLE
1002
{
1070
   279
1070
     0
1070
   172
1070
     1
1070
   173
1070
     1
1070
   340
1005
1F4
1070
   271
1070
     2
1070
   272
1070
     2
1070
    77
1070
     1
1070
    73
1070
     0
1070
   171
1070
     3
1070
   274
1070
     4
1070
   177
1070
     2
1070
   176
1070
     2
1070
   178
1070
     2
1070
    78
1070
     8
1070
    48
1040
-0.005
1070
    41
1041
3.5
1070
   147
1041
1.75
1070
    42
1041
1.5875
1070
    44
1041
2.0
1070
   140
1041
3.5
1070
   343
1005
0
1070
   344
1005
0
1002
}
0
DIMENSION
5
20B
100
AcDbEntity
8
2
62
256
6
ByLayer
370
13
48
1
60
0
100
AcDbDimension
2
DimnDraft3D2
10
110
20
-51.57
30
0
11
50.459934
21
-51.57
31
0
70
32
71
5
72
1
41
1
210
0
220
0
230
1
3
Standard
100
AcDbAlignedDimension
13
0
23
-33.0875
33
0
14
110
24
-21.5875
34
0
50
0
100
AcDbRotatedDimension
1001
ACAD
1000
DSTYLE
1002
{
1070
   279
1070
     0
1070
   172
1070
     1
1070
   173
1070
     1
1070
   340
1005
1F4
1070
   271
1070
     2
1070
   272
1070
     2
1070
    77
1070
     1
1070
    73
1070
     0
1070
   171
1070
     3
1070
   274
1070
     4
1070
   177
1070
     2
1070
   176
1070
     2
1070
   178
1070
     2
1070
    78
1070
     8
1070
    48
1040
-0.005
1070
    41
1041
3.5
1070
   147
1041
1.75
1070
    42
1041
1.5875
1070
    44
1041
2.0
1070
   140
1041
3.5
1070
   343
1005
0
1070
   344
1005
0
1002
}
0
DIMENSION
5
216
100
AcDbEntity
8
SK2
62
256
6
ByLayer
370
13
48
1
60
0
100
AcDbDimension
2
DimnDraft3D3
10
-50.5
20
-31.5
30
0
11
-51.125
21
2.284534
31
0
70
33
71
5
72
1
41
1
210
0
220
0
230
1
3
Standard
100
AcDbAlignedDimension
13
-1.5875
23
31.5
33
0
14
-1.5875
24
-31.5
34
0
1001
ACAD
1000
DSTYLE
1002
{
1070
   279
1070
     0
1070
    74
1070
     0
1070
   173
1070
     1
1070
   340
1005
1F4
1070
   271
1070
     2
1070
   272
1070
     2
1070
    77
1070
     1
1070
    73
1070
     0
1070
   171
1070
     3
1070
   274
1070
     4
1070
   177
1070
     2
1070
   176
1070
     2
1070
   178
1070
     2
1070
    78
1070
     8
1070
    48
1040
-0.005
1070
    41
1041
3.5
1070
   147
1041
1.75
1070
    42
1041
1.5875
1070
    44
1041
2.0
1070
   140
1041
3.5
1070
   343
1005
0
1070
   344
1005
0
1002
}
0
DIMENSION
5
221
100
AcDbEntity
8
SK2
62
256
6
ByLayer
370
13
48
1
60
0
100
AcDbDimension
2
DimnDraft3D4
10
132.888211
20
-20
30
0
11
128.263211
21
2.100267
31
0
70
33
71
5
72
1
41
1
210
0
220
0
230
1
3
Standard
100
AcDbAlignedDimension
13
111.5875
23
20
33
0
14
111.5875
24
-20
34
0
1001
ACAD
1000
DSTYLE
1002
{
1070
   279
1070
     0
1070
    74
1070
     0
1070
   173
1070
     1
1070
   340
1005
1F4
1070
   271
1070
     2
1070
   272
1070
     2
1070
    77
1070
     1
1070
    73
1070
     0
1070
   171
1070
     3
1070
   274
1070
     4
1070
   177
1070
     2
1070
   176
1070
     2
1070
   178
1070
     2
1070
    78
1070
     8
1070
    48
1040
-0.005
1070
    41
1041
3.5
1070
   147
1041
1.75
1070
    42
1041
1.5875
1070
    44
1041
2.0
1070
   140
1041
3.5
1070
   343
1005
0
1070
   344
1005
0
1002
}
0
ENDSEC
0
SECTION
2
OBJECTS
0
DICTIONARY
5
28c
330
0
100
AcDbDictionary
280
0
281
1
3
ACAD_GROUP
350
28d
3
ACAD_MLINESTYLE
350
28e
0
DICTIONARY
5
28d
330
0
100
AcDbDictionary
280
0
281
1
0
DICTIONARY
5
28e
330
0
100
AcDbDictionary
280
0
281
1
3
Standard
350
18
0
MLINESTYLE
5
18
330
28e
100
AcDbMlineStyle
2
Standard
70
0
3

62
256
51
90
52
90
71
2
49
-0.5
62
256
6
ByLayer
49
0.5
62
256
6
ByLayer
0
RASTERVARIABLES
5
27a
330

100
AcDbRasterVariables
90
0
70
1
71
1
72
1
0
ENDSEC
0
EOF
