0
SECTION
2
HEADER
9
$ACADVER
1
AC1015
9
$DWGCODEPAGE
3
ANSI_1252
9
$HANDSEED
5
2b6
9
$ANGBASE
50
0
9
$ANGDIR
70
0
9
$ATTMODE
70
1
9
$AUNITS
70
0
9
$AUPREC
70
0
9
$CECOLOR
62
256
9
$CELTSCALE
40
1
9
$CELTYPE
6
ByLayer
9
$CELWEIGHT
370
18
9
$CLAYER
8
0
9
$CMLJUST
70
0
9
$CMLSCALE
40
1
9
$CMLSTYLE
2
Standard
9
$DIMSTYLE
2
Standard
9
$TEXTSIZE
40
0.2
9
$TEXTSTYLE
7
Standard
9
$LUNITS
70
2
9
$LUPREC
70
4
9
$EXTNAMES
290
1
9
$INSUNITS
70
4
9
$LTSCALE
40
1
9
$LWDISPLAY
290
1
9
$PDMODE
70
0
9
$PDSIZE
40
0
9
$PLINEGEN
70
0
0
ENDSEC
0
SECTION
2
CLASSES
0
CLASS
1
RASTERVARIABLES
2
AcDbRasterVariables
3
ISM
90
0
280
0
281
0
0
ENDSEC
0
SECTION
2
TABLES
0
TABLE
2
VPORT
5
2ac
100
AcDbSymbolTable
0
VPORT
5
1
100
AcDbSymbolTableRecord
100
AcDbViewportTableRecord
2
*Active
70
0
10
0
20
0
11
1
21
1
12
-1
22
1
13
0
23
0
14
0.5
24
0.5
15
10
25
10
16
0
26
0
36
1
17
0
27
0
37
0
0
ENDTAB
0
TABLE
2
LTYPE
5
2ad
100
AcDbSymbolTable
0
LTYPE
5
14
100
AcDbSymbolTableRecord
100
AcDbLinetypeTableRecord
70
0
2
ByBlock
3

72
65
73
0
40
0
0
LTYPE
5
15
100
AcDbSymbolTableRecord
100
AcDbLinetypeTableRecord
70
0
2
ByLayer
3

72
65
73
0
40
0
0
LTYPE
5
16
100
AcDbSymbolTableRecord
100
AcDbLinetypeTableRecord
70
0
2
CONTINUOUS
3
Solid line
72
65
73
0
40
0
0
LTYPE
5
6A
100
AcDbSymbolTableRecord
100
AcDbLinetypeTableRecord
70
0
2
CENTER
3
____ _ ____ _ ____ _ ____
72
65
73
4
40
47.5
49
22
74
0
49
-8.5
74
0
49
8.5
74
0
49
-8.5
74
0
0
LTYPE
5
6B
100
AcDbSymbolTableRecord
100
AcDbLinetypeTableRecord
70
0
2
DASHED
3
__ __ __ __ __ __ __ __ __
72
65
73
2
40
25.72
49
12.86
74
0
49
-12.86
74
0
0
ENDTAB
0
TABLE
2
LAYER
5
2ae
100
AcDbSymbolTable
0
LAYER
5
10
100
AcDbSymbolTableRecord
100
AcDbLayerTableRecord
2
0
70
0
62
7
6
CONTINUOUS
290
1
370
-3
390
0
0
LAYER
5
6D
100
AcDbSymbolTableRecord
100
AcDbLayerTableRecord
2
80
70
0
62
-6
6
CONTINUOUS
290
1
370
-3
390
0
0
LAYER
5
6F
100
AcDbSymbolTableRecord
100
AcDbLayerTableRecord
2
81
70
0
62
-3
6
CONTINUOUS
290
1
370
-3
390
0
0
LAYER
5
78
100
AcDbSymbolTableRecord
100
AcDbLayerTableRecord
2
1
70
0
62
4
6
CONTINUOUS
290
1
370
-3
390
0
0
LAYER
5
99
100
AcDbSymbolTableRecord
100
AcDbLayerTableRecord
2
4
70
0
62
-2
6
CENTER
290
1
370
-3
390
0
0
LAYER
5
215
100
AcDbSymbolTableRecord
100
AcDbLayerTableRecord
2
2
70
0
62
7
6
CONTINUOUS
290
1
370
-3
390
0
0
LAYER
5
298
100
AcDbSymbolTableRecord
100
AcDbLayerTableRecord
2
SK2
70
0
62
7
6
CONTINUOUS
290
1
370
-3
390
0
0
LAYER
5
299
100
AcDbSymbolTableRecord
100
AcDbLayerTableRecord
2
SK1
70
0
62
4
6
CONTINUOUS
290
1
370
-3
390
0
0
LAYER
5
29a
100
AcDbSymbolTableRecord
100
AcDbLayerTableRecord
2
SK4
70
0
62
2
6
CENTER
290
1
370
-3
390
0
0
LAYER
5
29b
100
AcDbSymbolTableRecord
100
AcDbLayerTableRecord
2
SK6
70
0
62
5
6
CONTINUOUS
290
1
370
-3
390
0
0
ENDTAB
0
TABLE
2
STYLE
5
2af
100
AcDbSymbolTable
0
STYLE
5
11
100
AcDbSymbolTableRecord
100
AcDbTextStyleTableRecord
2
Standard
3
txt
70
0
71
0
40
0
41
1
42
0
50
0
0
STYLE
5
1FC
100
AcDbSymbolTableRecord
100
AcDbTextStyleTableRecord
2
iso_b_vert
3
simplex.shx
70
0
71
0
40
0
41
1
42
0
50
0
0
STYLE
5
1FD
100
AcDbSymbolTableRecord
100
AcDbTextStyleTableRecord
2
DWGDirectTextStyle
3
simplex
70
0
71
0
40
0
41
1
42
0
50
0
0
ENDTAB
0
TABLE
2
DIMSTYLE
5
2b0
100
AcDbSymbolTable
100
AcDbDimStyleTable
0
DIMSTYLE
105
27
100
AcDbSymbolTableRecord
100
AcDbDimStyleTableRecord
2
Standard
70
0
3
<>
41
0.18
42
0.0625
44
0.18
140
0.18
147
0.09
73
0
74
0
77
1
271
2
275
0
278
52
280
0
340
11
0
ENDTAB
0
TABLE
2
VIEW
5
2b1
100
AcDbSymbolTable
0
ENDTAB
0
TABLE
2
UCS
5
2b2
100
AcDbSymbolTable
0
ENDTAB
0
TABLE
2
APPID
5
2b3
100
AcDbSymbolTable
0
APPID
5
12
100
AcDbSymbolTableRecord
100
AcDbRegAppTableRecord
2
ACAD
70
0
0
ENDTAB
0
TABLE
2
BLOCK_RECORD
5
2b4
100
AcDbSymbolTable
0
BLOCK_RECORD
5
1F
100
AcDbSymbolTableRecord
100
AcDbBlockTableRecord
2
*Model_Space
340
0
70
0
0
BLOCK_RECORD
5
1B
100
AcDbSymbolTableRecord
100
AcDbBlockTableRecord
2
*Paper_Space
340
0
70
0
0
BLOCK_RECORD
5
23
100
AcDbSymbolTableRecord
100
AcDbBlockTableRecord
2
*Paper_Space0
340
0
70
0
0
BLOCK_RECORD
5
1FF
100
AcDbSymbolTableRecord
100
AcDbBlockTableRecord
2
DimnDraft3D1
340
0
70
0
0
BLOCK_RECORD
5
209
100
AcDbSymbolTableRecord
100
AcDbBlockTableRecord
2
DimnDraft3D2
340
0
70
0
0
BLOCK_RECORD
5
213
100
AcDbSymbolTableRecord
100
AcDbBlockTableRecord
2
DimnDraft3D3
340
0
70
0
0
BLOCK_RECORD
5
21E
100
AcDbSymbolTableRecord
100
AcDbBlockTableRecord
2
DimnDraft3D4
340
0
70
0
0
BLOCK_RECORD
5
229
100
AcDbSymbolTableRecord
100
AcDbBlockTableRecord
2
DimnDraft3D5
340
0
70
0
0
BLOCK_RECORD
5
234
100
AcDbSymbolTableRecord
100
AcDbBlockTableRecord
2
DimnDraft3D6
340
0
70
0
0
ENDTAB
0
ENDSEC
0
SECTION
2
BLOCKS
0
BLOCK
5
20
100
AcDbEntity
8
0
100
AcDbBlockBegin
2
*Model_Space
70
0
10
0
20
0
30
0
3
*Model_Space
0
ENDBLK
5
21
100
AcDbEntity
8
0
100
AcDbBlockEnd
0
BLOCK
5
1C
100
AcDbEntity
8
0
100
AcDbBlockBegin
2
*Paper_Space
70
0
10
0
20
0
30
0
3
*Paper_Space
0
ENDBLK
5
1D
100
AcDbEntity
8
0
100
AcDbBlockEnd
0
BLOCK
5
24
100
AcDbEntity
8
0
100
AcDbBlockBegin
2
*Paper_Space0
70
0
10
0
20
0
30
0
3
*Paper_Space0
0
ENDBLK
5
25
100
AcDbEntity
8
0
100
AcDbBlockEnd
0
BLOCK
5
206
100
AcDbEntity
8
0
100
AcDbBlockBegin
2
DimnDraft3D1
70
0
10
0
20
0
30
0
3
DimnDraft3D1
0
MTEXT
5
200
100
AcDbEntity
8
SK2
62
256
6
ByLayer
370
18
48
1
60
0
100
AcDbMText
10
75.897501
20
38.945134
30
0
210
0
220
0
230
1
1
\W0.6864;100.0
40
3.5
41
0
44
1.084337
50
0
71
7
72
5
7
iso_b_vert
0
LINE
5
201
100
AcDbEntity
8
SK2
62
256
6
ByLayer
370
13
48
1
60
0
100
AcDbLine
10
30
20
26.5875
30
0
11
30
21
40.07
31
0
39
0
210
0
220
0
230
1
0
LINE
5
202
100
AcDbEntity
8
SK2
62
256
6
ByLayer
370
13
48
1
60
0
100
AcDbLine
10
130
20
16.5875
30
0
11
130
21
40.07
31
0
39
0
210
0
220
0
230
1
0
LINE
5
203
100
AcDbEntity
8
SK2
62
256
6
ByLayer
370
13
48
1
60
0
100
AcDbLine
10
30
20
38.07
30
0
11
130
21
38.07
31
0
39
0
210
0
220
0
230
1
0
SOLID
5
204
100
AcDbEntity
8
SK2
62
256
6
ByLayer
370
13
48
1
60
0
100
AcDbTrace
10
30
20
38.07
30
0
11
33.499998
21
38.530784
31
0
12
33.500002
22
37.609216
32
0
13
30
23
38.07
33
0
39
0
210
0
220
0
230
1
0
SOLID
5
205
100
AcDbEntity
8
SK2
62
256
6
ByLayer
370
13
48
1
60
0
100
AcDbTrace
10
130
20
38.07
30
0
11
126.500002
21
37.609216
31
0
12
126.499998
22
38.530784
32
0
13
130
23
38.07
33
0
39
0
210
0
220
0
230
1
0
ENDBLK
5
207
100
AcDbEntity
8
0
100
AcDbBlockEnd
0
BLOCK
5
210
100
AcDbEntity
8
0
100
AcDbBlockBegin
2
DimnDraft3D2
70
0
10
0
20
0
30
0
3
DimnDraft3D2
0
MTEXT
5
20A
100
AcDbEntity
8
SK2
62
256
6
ByLayer
370
18
48
1
60
0
100
AcDbMText
10
150.013077
20
10.875
30
0
210
0
220
0
230
1
1
\W0.7121;5.0
40
3.5
41
0
44
1.084337
50
90
71
7
72
5
7
iso_b_vert
0
LINE
5
20B
100
AcDbEntity
8
SK2
62
256
6
ByLayer
370
13
48
1
60
0
100
AcDbLine
10
131.5875
20
-5
30
0
11
152.888211
21
-5
31
0
39
0
210
0
220
0
230
1
0
LINE
5
20C
100
AcDbEntity
8
SK2
62
256
6
ByLayer
370
13
48
1
60
0
100
AcDbLine
10
131.5875
20
0
30
0
11
152.888211
21
0
31
0
39
0
210
0
220
0
230
1
0
LINE
5
20D
100
AcDbEntity
8
SK2
62
256
6
ByLayer
370
13
48
1
60
0
100
AcDbLine
10
150.888211
20
15.598932
30
0
11
150.888211
21
-13.75
31
0
39
0
210
0
220
0
230
1
0
SOLID
5
20E
100
AcDbEntity
8
SK2
62
256
6
ByLayer
370
13
48
1
60
0
100
AcDbTrace
10
150.888211
20
-5
30
0
11
151.348994
21
-8.499998
31
0
12
150.427427
22
-8.500002
32
0
13
150.888211
23
-5
33
0
39
0
210
0
220
0
230
1
0
SOLID
5
20F
100
AcDbEntity
8
SK2
62
256
6
ByLayer
370
13
48
1
60
0
100
AcDbTrace
10
150.888211
20
0
30
0
11
150.427427
21
3.499998
31
0
12
151.348994
22
3.500002
32
0
13
150.888211
23
0
33
0
39
0
210
0
220
0
230
1
0
ENDBLK
5
211
100
AcDbEntity
8
0
100
AcDbBlockEnd
0
BLOCK
5
21B
100
AcDbEntity
8
0
100
AcDbBlockBegin
2
DimnDraft3D3
70
0
10
0
20
0
30
0
3
DimnDraft3D3
0
MTEXT
5
214
100
AcDbEntity
8
2
62
256
6
ByLayer
370
18
48
1
60
0
100
AcDbMText
10
60.897501
20
48.945134
30
0
210
0
220
0
230
1
1
\W0.6864;130.0
40
3.5
41
0
44
1.084337
50
0
71
7
72
5
7
iso_b_vert
0
LINE
5
216
100
AcDbEntity
8
2
62
256
6
ByLayer
370
13
48
1
60
0
100
AcDbLine
10
0
20
33.0875
30
0
11
0
21
50.07
31
0
39
0
210
0
220
0
230
1
0
LINE
5
217
100
AcDbEntity
8
2
62
256
6
ByLayer
370
13
48
1
60
0
100
AcDbLine
10
130
20
16.5875
30
0
11
130
21
50.07
31
0
39
0
210
0
220
0
230
1
0
LINE
5
218
100
AcDbEntity
8
2
62
256
6
ByLayer
370
13
48
1
60
0
100
AcDbLine
10
0
20
48.07
30
0
11
130
21
48.07
31
0
39
0
210
0
220
0
230
1
0
SOLID
5
219
100
AcDbEntity
8
2
62
256
6
ByLayer
370
13
48
1
60
0
100
AcDbTrace
10
0
20
48.07
30
0
11
3.499998
21
48.530784
31
0
12
3.500002
22
47.609216
32
0
13
0
23
48.07
33
0
39
0
210
0
220
0
230
1
0
SOLID
5
21A
100
AcDbEntity
8
2
62
256
6
ByLayer
370
13
48
1
60
0
100
AcDbTrace
10
130
20
48.07
30
0
11
126.500002
21
47.609216
31
0
12
126.499998
22
48.530784
32
0
13
130
23
48.07
33
0
39
0
210
0
220
0
230
1
0
ENDBLK
5
21C
100
AcDbEntity
8
0
100
AcDbBlockEnd
0
BLOCK
5
226
100
AcDbEntity
8
0
100
AcDbBlockBegin
2
DimnDraft3D4
70
0
10
0
20
0
30
0
3
DimnDraft3D4
0
MTEXT
5
21F
100
AcDbEntity
8
SK2
62
256
6
ByLayer
370
18
48
1
60
0
100
AcDbMText
10
-50.250134
20
3.159534
30
0
210
0
220
0
230
1
1
\W0.6740;63
40
3.5
41
0
44
1.084337
50
90
71
7
72
5
7
iso_b_vert
0
MTEXT
5
220
100
AcDbEntity
8
SK2
62
256
6
ByLayer
370
18
48
1
60
0
100
AcDbMText
10
-50.250134
20
-3.813122
30
0
210
0
220
0
230
1
1
%%c
40
3.5
41
0
44
1.084337
50
90
71
7
72
5
7
iso_b_vert
0
LINE
5
221
100
AcDbEntity
8
SK2
62
256
6
ByLayer
370
13
48
1
60
0
100
AcDbLine
10
-1.5875
20
31.5
30
0
11
-50.5
21
31.5
31
0
39
0
210
0
220
0
230
1
0
LINE
5
222
100
AcDbEntity
8
SK2
62
256
6
ByLayer
370
13
48
1
60
0
100
AcDbLine
10
-1.5875
20
-31.5
30
0
11
-50.5
21
-31.5
31
0
39
0
210
0
220
0
230
1
0
LINE
5
223
100
AcDbEntity
8
SK2
62
256
6
ByLayer
370
13
48
1
60
0
100
AcDbLine
10
-48.5
20
31.5
30
0
11
-48.5
21
-31.5
31
0
39
0
210
0
220
0
230
1
0
SOLID
5
224
100
AcDbEntity
8
SK2
62
256
6
ByLayer
370
13
48
1
60
0
100
AcDbTrace
10
-48.5
20
31.5
30
0
11
-48.039216
21
28.000002
31
0
12
-48.960784
22
27.999998
32
0
13
-48.5
23
31.5
33
0
39
0
210
0
220
0
230
1
0
SOLID
5
225
100
AcDbEntity
8
SK2
62
256
6
ByLayer
370
13
48
1
60
0
100
AcDbTrace
10
-48.5
20
-31.5
30
0
11
-48.960784
21
-28.000002
31
0
12
-48.039216
22
-27.999998
32
0
13
-48.5
23
-31.5
33
0
39
0
210
0
220
0
230
1
0
ENDBLK
5
227
100
AcDbEntity
8
0
100
AcDbBlockEnd
0
BLOCK
5
231
100
AcDbEntity
8
0
100
AcDbBlockBegin
2
DimnDraft3D5
70
0
10
0
20
0
30
0
3
DimnDraft3D5
0
MTEXT
5
22A
100
AcDbEntity
8
SK2
62
256
6
ByLayer
370
18
48
1
60
0
100
AcDbMText
10
159.138077
20
-2.024733
30
0
210
0
220
0
230
1
1
\W0.7361;40
40
3.5
41
0
44
1.084337
50
90
71
7
72
5
7
iso_b_vert
0
MTEXT
5
22B
100
AcDbEntity
8
SK2
62
256
6
ByLayer
370
18
48
1
60
0
100
AcDbMText
10
159.138077
20
-8.997389
30
0
210
0
220
0
230
1
1
%%c
40
3.5
41
0
44
1.084337
50
90
71
7
72
5
7
iso_b_vert
0
LINE
5
22C
100
AcDbEntity
8
SK2
62
256
6
ByLayer
370
13
48
1
60
0
100
AcDbLine
10
131.5875
20
15
30
0
11
162.888211
21
15
31
0
39
0
210
0
220
0
230
1
0
LINE
5
22D
100
AcDbEntity
8
SK2
62
256
6
ByLayer
370
13
48
1
60
0
100
AcDbLine
10
131.5875
20
-25
30
0
11
162.888211
21
-25
31
0
39
0
210
0
220
0
230
1
0
LINE
5
22E
100
AcDbEntity
8
SK2
62
256
6
ByLayer
370
13
48
1
60
0
100
AcDbLine
10
160.888211
20
15
30
0
11
160.888211
21
-25
31
0
39
0
210
0
220
0
230
1
0
SOLID
5
22F
100
AcDbEntity
8
SK2
62
256
6
ByLayer
370
13
48
1
60
0
100
AcDbTrace
10
160.888211
20
15
30
0
11
161.348994
21
11.500002
31
0
12
160.427427
22
11.499998
32
0
13
160.888211
23
15
33
0
39
0
210
0
220
0
230
1
0
SOLID
5
230
100
AcDbEntity
8
SK2
62
256
6
ByLayer
370
13
48
1
60
0
100
AcDbTrace
10
160.888211
20
-25
30
0
11
160.427427
21
-21.500002
31
0
12
161.348994
22
-21.499998
32
0
13
160.888211
23
-25
33
0
39
0
210
0
220
0
230
1
0
ENDBLK
5
232
100
AcDbEntity
8
0
100
AcDbBlockEnd
0
BLOCK
5
23C
100
AcDbEntity
8
0
100
AcDbBlockBegin
2
DimnDraft3D6
70
0
10
0
20
0
30
0
3
DimnDraft3D6
0
MTEXT
5
235
100
AcDbEntity
8
SK2
62
256
6
ByLayer
370
18
48
1
60
0
100
AcDbMText
10
169.138077
20
3.159534
30
0
210
0
220
0
230
1
1
\W0.6740;50
40
3.5
41
0
44
1.084337
50
90
71
7
72
5
7
iso_b_vert
0
MTEXT
5
236
100
AcDbEntity
8
SK2
62
256
6
ByLayer
370
18
48
1
60
0
100
AcDbMText
10
169.138077
20
-3.813122
30
0
210
0
220
0
230
1
1
%%c
40
3.5
41
0
44
1.084337
50
90
71
7
72
5
7
iso_b_vert
0
LINE
5
237
100
AcDbEntity
8
SK2
62
256
6
ByLayer
370
13
48
1
60
0
100
AcDbLine
10
131.5875
20
-25
30
0
11
172.888211
21
-25
31
0
39
0
210
0
220
0
230
1
0
LINE
5
238
100
AcDbEntity
8
SK2
62
256
6
ByLayer
370
13
48
1
60
0
100
AcDbLine
10
124.708008
20
25
30
0
11
172.888211
21
25
31
0
39
0
210
0
220
0
230
1
0
LINE
5
239
100
AcDbEntity
8
SK2
62
256
6
ByLayer
370
13
48
1
60
0
100
AcDbLine
10
170.888211
20
-25
30
0
11
170.888211
21
25
31
0
39
0
210
0
220
0
230
1
0
SOLID
5
23A
100
AcDbEntity
8
SK2
62
256
6
ByLayer
370
13
48
1
60
0
100
AcDbTrace
10
170.888211
20
-25
30
0
11
170.427427
21
-21.500002
31
0
12
171.348994
22
-21.499998
32
0
13
170.888211
23
-25
33
0
39
0
210
0
220
0
230
1
0
SOLID
5
23B
100
AcDbEntity
8
SK2
62
256
6
ByLayer
370
13
48
1
60
0
100
AcDbTrace
10
170.888211
20
25
30
0
11
171.348994
21
21.500002
31
0
12
170.427427
22
21.499998
32
0
13
170.888211
23
25
33
0
39
0
210
0
220
0
230
1
0
ENDBLK
5
23D
100
AcDbEntity
8
0
100
AcDbBlockEnd
0
ENDSEC
0
SECTION
2
ENTITIES
0
ARC
5
13D
100
AcDbEntity
8
1
62
256
6
ByLayer
370
18
48
1
60
0
100
AcDbCircle
39
0
10
139.9255
20
-10.499495
30
0
40
0.6
210
0
220
0
230
1
100
AcDbArc
50
0
51
90
0
ARC
5
13E
100
AcDbEntity
8
1
62
256
6
ByLayer
370
18
48
1
60
0
100
AcDbCircle
39
0
10
139.9255
20
-19.299495
30
0
40
0.6
210
0
220
0
230
1
100
AcDbArc
50
270
51
0
0
ARC
5
13F
100
AcDbEntity
8
1
62
256
6
ByLayer
370
18
48
1
60
0
100
AcDbCircle
39
0
10
-134.4255
20
-11.649495
30
0
40
0.25
210
0
220
0
230
-1
100
AcDbArc
50
180
51
270
0
ARC
5
140
100
AcDbEntity
8
1
62
256
6
ByLayer
370
18
48
1
60
0
100
AcDbCircle
39
0
10
139.9255
20
9.299495
30
0
40
0.6
210
0
220
0
230
1
100
AcDbArc
50
0
51
90
0
ARC
5
141
100
AcDbEntity
8
1
62
256
6
ByLayer
370
18
48
1
60
0
100
AcDbCircle
39
0
10
139.9255
20
0.499495
30
0
40
0.6
210
0
220
0
230
1
100
AcDbArc
50
270
51
0
0
ARC
5
142
100
AcDbEntity
8
1
62
256
6
ByLayer
370
18
48
1
60
0
100
AcDbCircle
39
0
10
-134.4255
20
8.149495
30
0
40
0.25
210
0
220
0
230
-1
100
AcDbArc
50
180
51
270
0
ARC
5
143
100
AcDbEntity
8
SK1
62
256
6
ByLayer
370
18
48
1
60
0
100
AcDbCircle
39
0
10
27.2
20
22.245
30
0
40
1.4
210
0
220
0
230
-1
100
AcDbArc
50
235.090178
51
270
0
ARC
5
144
100
AcDbEntity
8
SK1
62
256
6
ByLayer
370
18
48
1
60
0
100
AcDbCircle
39
0
10
23.2
20
-22.245
30
0
40
1.4
210
0
220
0
230
-1
100
AcDbArc
50
90
51
140.287451
0
ARC
5
145
100
AcDbEntity
8
1
62
256
6
ByLayer
370
18
48
1
60
0
100
AcDbCircle
39
0
10
-26.95
20
-26
30
0
40
1
210
0
220
0
230
-1
100
AcDbArc
50
0
51
90
0
ARC
5
146
100
AcDbEntity
8
1
62
256
6
ByLayer
370
18
48
1
60
0
100
AcDbCircle
39
0
10
-26.95
20
26
30
0
40
1
210
0
220
0
230
-1
100
AcDbArc
50
270
51
0
0
ARC
5
147
100
AcDbEntity
8
1
62
256
6
ByLayer
370
18
48
1
60
0
100
AcDbCircle
39
0
10
-134.4255
20
1.649495
30
0
40
0.25
210
0
220
0
230
-1
100
AcDbArc
50
90
51
180
0
ARC
5
148
100
AcDbEntity
8
SK1
62
256
6
ByLayer
370
18
48
1
60
0
100
AcDbCircle
39
0
10
0.493464
20
24.570431
30
0
40
0.600000000000001
210
0
220
0
230
-1
100
AcDbArc
50
214.670223
51
270
0
ARC
5
149
100
AcDbEntity
8
SK1
62
256
6
ByLayer
370
18
48
1
60
0
100
AcDbCircle
39
0
10
0.493464
20
-24.570431
30
0
40
0.600000000000001
210
0
220
0
230
-1
100
AcDbArc
50
90
51
145.329777
0
ARC
5
14A
100
AcDbEntity
8
1
62
256
6
ByLayer
370
18
48
1
60
0
100
AcDbCircle
39
0
10
-125.8
20
16
30
0
40
1
210
0
220
0
230
-1
100
AcDbArc
50
270
51
345
0
ARC
5
14B
100
AcDbEntity
8
1
62
256
6
ByLayer
370
18
48
1
60
0
100
AcDbCircle
39
0
10
-134.4255
20
-18.149495
30
0
40
0.25
210
0
220
0
230
-1
100
AcDbArc
50
90
51
180
0
ELLIPSE
5
14C
100
AcDbEntity
8
SK1
62
256
6
ByLayer
370
13
48
1
60
0
100
AcDbEllipse
10
-23.2
20
-21.778508
30
0
11
-1.4
21
1.71444889535133E-16
31
0
210
0
220
0
230
1
40
0.891007
41
-2.07355898834546
42
-1.5707963267949
0
POINT
5
6C
100
AcDbEntity
8
80
62
256
6
ByLayer
370
18
48
1
60
0
100
AcDbPoint
10
0
20
0
30
0
39
0
210
0
220
0
230
1
50
360
0
POINT
5
6E
100
AcDbEntity
8
81
62
256
6
ByLayer
370
18
48
1
60
0
100
AcDbPoint
10
130
20
-5
30
0
39
0
210
0
220
0
230
1
50
360
0
POINT
5
70
100
AcDbEntity
8
SK2
62
256
6
ByLayer
370
18
48
1
60
1
100
AcDbPoint
10
0
20
31.5
30
0
39
0
210
0
220
0
230
1
50
360
0
POINT
5
72
100
AcDbEntity
8
SK2
62
256
6
ByLayer
370
18
48
1
60
1
100
AcDbPoint
10
0
20
-31.5
30
0
39
0
210
0
220
0
230
1
50
360
0
POINT
5
73
100
AcDbEntity
8
SK2
62
256
6
ByLayer
370
18
48
1
60
1
100
AcDbPoint
10
130
20
15
30
0
39
0
210
0
220
0
230
1
50
360
0
POINT
5
74
100
AcDbEntity
8
SK2
62
256
6
ByLayer
370
18
48
1
60
1
100
AcDbPoint
10
130
20
-25
30
0
39
0
210
0
220
0
230
1
50
360
0
SPLINE
5
14D
100
AcDbEntity
8
1
62
256
6
ByLayer
370
18
48
1
60
0
100
AcDbSpline
70
4
71
3
72
10
73
6
40
0
40
0
40
0
40
0
40
0.5
40
0.5
40
1
40
1
40
1
40
1
41
1
10
21.3746123234133
20
19.85
30
0
41
1
10
21.1247500405127
20
19.85
30
0
41
1
10
20.8776825838395
20
19.85
30
0
41
1
10
20.389981348978
20
19.85
30
0
41
1
10
20.1492474359547
20
19.85
30
0
41
1
10
19.9125
20
19.85
30
0
0
SPLINE
5
14E
100
AcDbEntity
8
1
62
256
6
ByLayer
370
18
48
1
60
0
100
AcDbSpline
70
4
71
3
72
8
73
4
40
0
40
0
40
0
40
0
40
1
40
1
40
1
40
1
41
1
10
21.3746123234133
20
-30.1503829784963
30
0
41
1
10
20.8857665817206
20
-29.266618842169
30
0
41
1
10
20.3982595400866
20
-28.3821097116547
30
0
41
1
10
19.9125
20
-27.4966603414964
30
0
0
SPLINE
5
14F
100
AcDbEntity
8
1
62
256
6
ByLayer
370
18
48
1
60
0
100
AcDbSpline
70
4
71
3
72
10
73
6
40
0
40
0
40
0
40
0
40
0.5
40
0.5
40
1
40
1
40
1
40
1
41
1
10
16.0875
20
19.85
30
0
41
1
10
15.8506599010489
20
19.85
30
0
41
1
10
15.6099904417374
20
19.85
30
0
41
1
10
15.1223030300325
20
19.85
30
0
41
1
10
14.8752426852367
20
19.85
30
0
41
1
10
14.6253876765866
20
19.85
30
0
0
SPLINE
5
150
100
AcDbEntity
8
1
62
256
6
ByLayer
370
18
48
1
60
0
100
AcDbSpline
70
4
71
3
72
38
73
34
40
0
40
0
40
0
40
0
40
0.124999999999999
40
0.124999999999999
40
0.187499999999998
40
0.187499999999998
40
0.218749999999998
40
0.218749999999998
40
0.249999999999998
40
0.249999999999998
40
0.374999999999997
40
0.374999999999997
40
0.406249999999997
40
0.406249999999997
40
0.437499999999997
40
0.437499999999997
40
0.499999999999997
40
0.499999999999997
40
0.624999999999997
40
0.624999999999997
40
0.656249999999997
40
0.656249999999997
40
0.687499999999997
40
0.687499999999997
40
0.749999999999998
40
0.749999999999998
40
0.812499999999998
40
0.812499999999998
40
0.843749999999999
40
0.843749999999999
40
0.874999999999999
40
0.874999999999999
40
1
40
1
40
1
40
1
41
1
10
12.95
20
-30.1503829784963
30
0
41
1
10
12.4182627187732
20
-30.1503829784963
30
0
41
1
10
11.8959989210176
20
-30.1662190884818
30
0
41
1
10
11.1260959657865
20
-30.2113619657957
30
0
41
1
10
10.8717264718107
20
-30.2299778939183
30
0
41
1
10
10.4936216560128
20
-30.2629761000306
30
0
41
1
10
10.3678086409658
20
-30.2748587965686
30
0
41
1
10
10.1194618268704
20
-30.3000493570684
30
0
41
1
10
9.99692951457195
20
-30.3133501209502
30
0
41
1
10
9.39226886038051
20
-30.3830824778242
30
0
41
1
10
8.93391089121616
20
-30.4491689339867
30
0
41
1
10
8.39183435684626
20
-30.5402922027968
30
0
41
1
10
8.28497698908882
20
-30.5589441303185
30
0
41
1
10
8.07441560051001
20
-30.5969970538394
30
0
41
1
10
7.97072778568187
20
-30.6163994640843
30
0
41
1
10
7.66769106088228
20
-30.674925228277
30
0
41
1
10
7.47519443651623
20
-30.7145691260908
30
0
41
1
10
6.92538504075446
20
-30.8339192459421
30
0
41
1
10
6.59546778476644
20
-30.9140497914083
30
0
41
1
10
6.23018156491224
20
-31.0102994103381
30
0
41
1
10
6.1597699232795
20
-31.0292845486695
30
0
41
1
10
6.02512185094676
20
-31.0663691769891
30
0
41
1
10
5.9607330741635
20
-31.0845086951601
30
0
41
1
10
5.7762484438189
20
-31.137589019802
30
0
41
1
10
5.66481288123552
20
-31.1711913504447
30
0
41
1
10
5.46492163805172
20
-31.2341535567075
30
0
41
1
10
5.37646500709747
20
-31.2635146855691
30
0
41
1
10
5.26144287268465
20
-31.3038663020077
30
0
41
1
10
5.22605148530559
20
-31.3167016610253
30
0
41
1
10
5.1613102848421
20
-31.3410532662208
30
0
41
1
10
5.13208078625158
20
-31.3525260343476
30
0
41
1
10
5.00241912655019
20
-31.4059316510968
30
0
41
1
10
4.94999999999999
20
-31.4363570809238
30
0
41
1
10
4.94999999999999
20
-31.4535466005028
30
0
0
SPLINE
5
151
100
AcDbEntity
8
1
62
256
6
ByLayer
370
18
48
1
60
0
100
AcDbSpline
70
4
71
3
72
8
73
4
40
0
40
0
40
0
40
0
40
1
40
1
40
1
40
1
41
1
10
25.95
20
19.85
30
0
41
1
10
25.783942838918
20
19.85
30
0
41
1
10
25.6172335326703
20
19.85
30
0
41
1
10
25.45
20
19.85
30
0
0
SPLINE
5
152
100
AcDbEntity
8
1
62
256
6
ByLayer
370
18
48
1
60
0
100
AcDbSpline
70
4
71
3
72
8
73
4
40
0
40
0
40
0
40
0
40
1
40
1
40
1
40
1
41
1
10
25.95
20
-29.6281216709733
30
0
41
1
10
25.7833972320879
20
-29.8022699946348
30
0
41
1
10
25.6167293283391
20
-29.9763562682362
30
0
41
1
10
25.45
20
-30.1503829784963
30
0
0
SPLINE
5
153
100
AcDbEntity
8
1
62
256
6
ByLayer
370
18
48
1
60
0
100
AcDbSpline
70
4
71
3
72
40
73
36
40
0
40
0
40
0
40
0
40
0.125
40
0.125
40
0.187499999999999
40
0.187499999999999
40
0.203124999999999
40
0.203124999999999
40
0.218749999999999
40
0.218749999999999
40
0.249999999999999
40
0.249999999999999
40
0.375
40
0.375
40
0.40625
40
0.40625
40
0.437500000000001
40
0.437500000000001
40
0.500000000000001
40
0.500000000000001
40
0.625000000000002
40
0.625000000000002
40
0.656250000000002
40
0.656250000000002
40
0.687500000000002
40
0.687500000000002
40
0.750000000000002
40
0.750000000000002
40
0.812500000000002
40
0.812500000000002
40
0.843750000000001
40
0.843750000000001
40
0.875000000000001
40
0.875000000000001
40
1
40
1
40
1
40
1
41
1
10
4.94999999999999
20
31.4699951342545
30
0
41
1
10
4.94999999999999
20
31.4697000836074
30
0
41
1
10
5.00225860970696
20
31.4560105003226
30
0
41
1
10
5.15552174838174
20
31.4173251944317
30
0
41
1
10
5.21918321366857
20
31.4014014637225
30
0
41
1
10
5.31481265858471
20
31.3779016832463
30
0
41
1
10
5.33474305466237
20
31.373021977824
30
0
41
1
10
5.37622898172663
20
31.3629078986405
30
0
41
1
10
5.39780590833243
20
31.3576684102907
30
0
41
1
10
5.46462463571703
20
31.3415165236844
30
0
41
1
10
5.51204881427509
20
31.3301472965835
30
0
41
1
10
5.76326082458743
20
31.2705506275799
30
0
41
1
10
6.00890178299107
20
31.2140804386033
30
0
41
1
10
6.37134836873926
20
31.1363910865799
30
0
41
1
10
6.4466335983623
20
31.1204980223429
30
0
41
1
10
6.60289183629999
20
31.0881011300063
30
0
41
1
10
6.68400947698649
20
31.0715699344139
30
0
41
1
10
6.9333864788523
20
31.0217492547395
30
0
41
1
10
7.10836961999723
20
30.9880811451731
30
0
41
1
10
7.65892113162218
20
30.8871352880932
30
0
41
1
10
8.05982788506611
20
30.8198898796405
30
0
41
1
10
8.60529161727871
20
30.7406942062908
30
0
41
1
10
8.71657661171096
20
30.7251111871225
30
0
41
1
10
8.94117254993216
20
30.6948946380379
30
0
41
1
10
9.05478427646679
20
30.6802165246349
30
0
41
1
10
9.39951696413306
20
30.6376146650815
30
0
41
1
10
9.63452623072504
20
30.6111232682603
30
0
41
1
10
10.1149153789438
20
30.5627093850563
30
0
41
1
10
10.3602948471897
20
30.5407858131469
30
0
41
1
10
10.7363641534851
20
30.5119001269116
30
0
41
1
10
10.8630563144908
20
30.5029384070804
30
0
41
1
10
11.1191798921666
20
30.4864487250089
30
0
41
1
10
11.2484692877034
20
30.478934879184
30
0
41
1
10
11.8954136839746
20
30.4454828806657
30
0
41
1
10
12.4194187497885
20
30.4315723180712
30
0
41
1
10
12.95
20
30.4315723180712
30
0
0
SPLINE
5
154
100
AcDbEntity
8
1
62
256
6
ByLayer
370
18
48
1
60
0
100
AcDbSpline
70
4
71
3
72
34
73
30
40
0
40
0
40
0
40
0
40
0.124999999999998
40
0.124999999999998
40
0.187499999999997
40
0.187499999999997
40
0.218749999999996
40
0.218749999999996
40
0.249999999999996
40
0.249999999999996
40
0.374999999999996
40
0.374999999999996
40
0.406249999999996
40
0.406249999999996
40
0.437499999999996
40
0.437499999999996
40
0.499999999999997
40
0.499999999999997
40
0.625
40
0.625
40
0.65625
40
0.65625
40
0.687500000000001
40
0.687500000000001
40
0.750000000000001
40
0.750000000000001
40
0.875000000000001
40
0.875000000000001
40
1
40
1
40
1
40
1
41
1
10
12.1956203456893
20
24.4200409500066
30
0
41
1
10
11.7562475112852
20
24.4200409500066
30
0
41
1
10
11.3251302963921
20
24.3909497578602
30
0
41
1
10
10.6901035240454
20
24.3056038437389
30
0
41
1
10
10.4803827549288
20
24.2701435456968
30
0
41
1
10
10.1687516083792
20
24.2061692076128
30
0
41
1
10
10.0651053360807
20
24.1829786000393
30
0
41
1
10
9.86011701382466
20
24.1332343953866
30
0
41
1
10
9.75899909269464
20
24.1067468964487
30
0
41
1
10
9.26006146735202
20
23.9663861964588
30
0
41
1
10
8.88205821250949
20
23.8289334719872
30
0
41
1
10
8.4339120188076
20
23.6260043199279
30
0
41
1
10
8.34550879717324
20
23.5838515747132
30
0
41
1
10
8.1711319880734
20
23.4963787949209
30
0
41
1
10
8.08500476697938
20
23.4509668686439
30
0
41
1
10
7.83231360064809
20
23.311091922816
30
0
41
1
10
7.67087988193626
20
23.212752963373
30
0
41
1
10
7.2060860457928
20
22.9028875991274
30
0
41
1
10
6.92215056716839
20
22.6765668917347
30
0
41
1
10
6.59617755982421
20
22.3692620581667
30
0
41
1
10
6.53232627943751
20
22.3064574329348
30
0
41
1
10
6.40827388836513
20
22.179234275698
30
0
41
1
10
6.34801389290465
20
22.1147708752695
30
0
41
1
10
6.17226321560699
20
21.9188742079098
30
0
41
1
10
6.06179410768456
20
21.7849365427041
30
0
41
1
10
5.74865705723417
20
21.3734069993164
30
0
41
1
10
5.56418709064181
20
21.0861176330193
30
0
41
1
10
5.23652490731592
20
20.4866364512197
30
0
41
1
10
5.09337039057024
20
20.1744346090999
30
0
41
1
10
4.96821549226033
20
19.85
30
0
0
SPLINE
5
155
100
AcDbEntity
8
1
62
256
6
ByLayer
370
18
48
1
60
0
100
AcDbSpline
70
4
71
3
72
8
73
4
40
0
40
0
40
0
40
0
40
1
40
1
40
1
40
1
41
1
10
16.0875
20
-27.4966603414964
30
0
41
1
10
15.6017404599134
20
-28.3821097116547
30
0
41
1
10
15.1142334182794
20
-29.266618842169
30
0
41
1
10
14.6253876765867
20
-30.1503829784963
30
0
0
SPLINE
5
156
100
AcDbEntity
8
1
62
256
6
ByLayer
370
18
48
1
60
0
100
AcDbSpline
70
4
71
3
72
24
73
20
40
0
40
0
40
0
40
0
40
0.249999999999999
40
0.249999999999999
40
0.499999999999997
40
0.499999999999997
40
0.624999999999998
40
0.624999999999998
40
0.749999999999999
40
0.749999999999999
40
0.812499999999999
40
0.812499999999999
40
0.875
40
0.875
40
0.9375
40
0.9375
40
0.96875
40
0.96875
40
1
40
1
40
1
40
1
41
1
10
19.9125050005
20
-26.4
30
0
41
1
10
19.9124949995
20
-26.4
30
0
41
1
10
19.9069176880975
20
-26.4
30
0
41
1
10
19.8846765931943
20
-26.4
30
0
41
1
10
19.8681247928415
20
-26.4
30
0
41
1
10
19.8322216688482
20
-26.4
30
0
41
1
10
19.8183361704044
20
-26.4
30
0
41
1
10
19.7858042930228
20
-26.4
30
0
41
1
10
19.7672091069024
20
-26.4
30
0
41
1
10
19.7334364641737
20
-26.4
30
0
41
1
10
19.7211864060722
20
-26.4
30
0
41
1
10
19.6936726787183
20
-26.4
30
0
41
1
10
19.6784725350734
20
-26.4
30
0
41
1
10
19.6425633311634
20
-26.4
30
0
41
1
10
19.622628894426
20
-26.4
30
0
41
1
10
19.585647986261
20
-26.4
30
0
41
1
10
19.5724441081097
20
-26.4
30
0
41
1
10
19.5433575509739
20
-26.4
30
0
41
1
10
19.5282541033155
20
-26.4
30
0
41
1
10
19.5125
20
-26.4
30
0
0
SPLINE
5
157
100
AcDbEntity
8
1
62
256
6
ByLayer
370
18
48
1
60
0
100
AcDbSpline
70
4
71
3
72
20
73
16
40
0
40
0
40
0
40
0
40
0.250000000000005
40
0.250000000000005
40
0.50000000000001
40
0.50000000000001
40
0.625000000000012
40
0.625000000000012
40
0.750000000000015
40
0.750000000000015
40
0.875000000000017
40
0.875000000000017
40
0.937500000000009
40
0.937500000000009
40
1
40
1
40
1
40
1
41
1
10
19.7937602725373
20
26.4
30
0
41
1
10
19.7815965948292
20
26.4
30
0
41
1
10
19.7680948871376
20
26.4
30
0
41
1
10
19.7370881248165
20
26.4
30
0
41
1
10
19.7197628903191
20
26.4
30
0
41
1
10
19.6890999939951
20
26.4
30
0
41
1
10
19.6780668771769
20
26.4
30
0
41
1
10
19.6536255684364
20
26.4
30
0
41
1
10
19.6403645548572
20
26.4
30
0
41
1
10
19.610286694054
20
26.4
30
0
41
1
10
19.5938520156439
20
26.4
30
0
41
1
10
19.5654178393999
20
26.4
30
0
41
1
10
19.5552938794341
20
26.4
30
0
41
1
10
19.5343992171813
20
26.4
30
0
41
1
10
19.5233590822778
20
26.4
30
0
41
1
10
19.5125
20
26.4
30
0
0
SPLINE
5
158
100
AcDbEntity
8
1
62
256
6
ByLayer
370
18
48
1
60
0
100
AcDbSpline
70
4
71
3
72
14
73
10
40
0
40
0
40
0
40
0
40
0.25
40
0.25
40
0.5
40
0.5
40
0.75
40
0.75
40
1
40
1
40
1
40
1
41
1
10
19.9125
20
26.697103190234
30
0
41
1
10
19.9125
20
26.6698685852525
30
0
41
1
10
19.9099731220319
20
26.6428008079355
30
0
41
1
10
19.8997651534097
20
26.5890055409114
30
0
41
1
10
19.8920629796133
20
26.5624370814234
30
0
41
1
10
19.8718384529028
20
26.5115260346246
30
0
41
1
10
19.8591673880511
20
26.4868609514179
30
0
41
1
10
19.8297015430664
20
26.4410741899466
30
0
41
1
10
19.8128462606136
20
26.4197253830843
30
0
41
1
10
19.7937602725373
20
26.4
30
0
0
SPLINE
5
159
100
AcDbEntity
8
1
62
256
6
ByLayer
370
18
48
1
60
0
100
AcDbSpline
70
4
71
3
72
24
73
20
40
0
40
0
40
0
40
0
40
0.046775283335171
40
0.046775283335171
40
0.0935505666703421
40
0.0935505666703421
40
0.140325850005513
40
0.140325850005513
40
0.187101133340684
40
0.187101133340684
40
0.280651700011018
40
0.280651700011018
40
0.374202266681349
40
0.374202266681349
40
0.561303400022016
40
0.561303400022016
40
0.748404533362683
40
0.748404533362683
40
1
40
1
40
1
40
1
41
1
10
16.4875
20
-26.4
30
0
41
1
10
16.4721119664497
20
-26.4
30
0
41
1
10
16.456566754659
20
-26.4
30
0
41
1
10
16.4278814816286
20
-26.4
30
0
41
1
10
16.4145650247233
20
-26.4
30
0
41
1
10
16.3902994712361
20
-26.4
30
0
41
1
10
16.3790715905153
20
-26.4
30
0
41
1
10
16.3584547685038
20
-26.4
30
0
41
1
10
16.3490048365685
20
-26.4
30
0
41
1
10
16.3224037015849
20
-26.4
30
0
41
1
10
16.3068950868852
20
-26.4
30
0
41
1
10
16.2790535114736
20
-26.4
30
0
41
1
10
16.2666961004758
20
-26.4
30
0
41
1
10
16.232674574641
20
-26.4
30
0
41
1
10
16.2140107518359
20
-26.4
30
0
41
1
10
16.1813976965132
20
-26.4
30
0
41
1
10
16.1675020073595
20
-26.4
30
0
41
1
10
16.1394498905909
20
-26.4
30
0
41
1
10
16.1267303143144
20
-26.4
30
0
41
1
10
16.1167620000016
20
-26.4
30
0
0
SPLINE
5
15A
100
AcDbEntity
8
1
62
256
6
ByLayer
370
18
48
1
60
0
100
AcDbSpline
70
4
71
3
72
14
73
10
40
0
40
0
40
0
40
0
40
0.25
40
0.25
40
0.5
40
0.5
40
0.75
40
0.75
40
1
40
1
40
1
40
1
41
1
10
16.2062397274627
20
26.4
30
0
41
1
10
16.1872440502631
20
26.4196320467251
30
0
41
1
10
16.1703664170265
20
26.4409679378911
30
0
41
1
10
16.14075881328
20
26.4869762761222
30
0
41
1
10
16.1281150339106
20
26.5116142499544
30
0
41
1
10
16.107860344183
20
26.5626591458557
30
0
41
1
10
16.1002099543198
20
26.5891570836059
30
0
41
1
10
16.090074385795
20
26.6425301282703
30
0
41
1
10
16.0875
20
26.6696123719336
30
0
41
1
10
16.0875
20
26.697103190234
30
0
0
SPLINE
5
15B
100
AcDbEntity
8
1
62
256
6
ByLayer
370
18
48
1
60
0
100
AcDbSpline
70
4
71
3
72
20
73
16
40
0
40
0
40
0
40
0
40
0.0625000000000022
40
0.0625000000000022
40
0.125000000000004
40
0.125000000000004
40
0.250000000000006
40
0.250000000000006
40
0.375000000000008
40
0.375000000000008
40
0.500000000000011
40
0.500000000000011
40
0.750000000000005
40
0.750000000000005
40
1
40
1
40
1
40
1
41
1
10
16.4875
20
26.4
30
0
41
1
10
16.4766165402577
20
26.4
30
0
41
1
10
16.4655455253309
20
26.4
30
0
41
1
10
16.4445183074969
20
26.4
30
0
41
1
10
16.4343625285885
20
26.4
30
0
41
1
10
16.4057907094584
20
26.4
30
0
41
1
10
16.3891059637795
20
26.4
30
0
41
1
10
16.3590767124945
20
26.4
30
0
41
1
10
16.3458755603429
20
26.4
30
0
41
1
10
16.3215693607135
20
26.4
30
0
41
1
10
16.3104536050508
20
26.4
30
0
41
1
10
16.2797178955031
20
26.4
30
0
41
1
10
16.2625609792539
20
26.4
30
0
41
1
10
16.2318627027304
20
26.4
30
0
41
1
10
16.2184015065035
20
26.4
30
0
41
1
10
16.2062397274627
20
26.4
30
0
0
SPLINE
5
15C
100
AcDbEntity
8
SK1
62
256
6
ByLayer
370
18
48
1
60
0
100
AcDbSpline
70
4
71
3
72
24
73
20
40
0
40
0
40
0
40
0
40
0.0312499999999998
40
0.0312499999999998
40
0.0624999999999995
40
0.0624999999999995
40
0.125
40
0.125
40
0.25
40
0.25
40
0.375
40
0.375
40
0.5
40
0.5
40
0.749999999999999
40
0.749999999999999
40
0.875
40
0.875
40
1
40
1
40
1
40
1
41
1
10
-22.5254125626117
20
-20.6854597771061
30
0
41
1
10
-22.5255511497014
20
-20.701019683818
30
0
41
1
10
-22.5246667587329
20
-20.7166777130932
30
0
41
1
10
-22.5209000969644
20
-20.7477678059889
30
0
41
1
10
-22.5180297482889
20
-20.7631868009728
30
0
41
1
10
-22.5067325290341
20
-20.8090891347931
30
0
41
1
10
-22.4956150185209
20
-20.8392180280166
30
0
41
1
10
-22.4542595871068
20
-20.9283915877081
30
0
41
1
10
-22.4162354953944
20
-20.9862407123951
30
0
41
1
10
-22.3324707959025
20
-21.0995934283552
30
0
41
1
10
-22.2867007020184
20
-21.1550947559621
30
0
41
1
10
-22.1954619614247
20
-21.2640966679272
30
0
41
1
10
-22.1499039898424
20
-21.3176097368587
30
0
41
1
10
-22.0204776730238
20
-21.4755376144719
30
0
41
1
10
-21.9439590455327
20
-21.5773676616478
30
0
41
1
10
-21.8615121435874
20
-21.7252402036645
30
0
41
1
10
-21.8393398492877
20
-21.773709088945
30
0
41
1
10
-21.8085556498904
20
-21.8689764820696
30
0
41
1
10
-21.7999999999999
20
-21.9160034068592
30
0
41
1
10
-21.8
20
-21.9609792783774
30
0
0
SPLINE
5
15D
100
AcDbEntity
8
SK1
62
256
6
ByLayer
370
18
48
1
60
0
100
AcDbSpline
70
4
71
3
72
34
73
30
40
0
40
0
40
0
40
0
40
0.0156250000000018
40
0.0156250000000018
40
0.0312500000000036
40
0.0312500000000036
40
0.0468750000000054
40
0.0468750000000054
40
0.0625000000000072
40
0.0625000000000072
40
0.078125000000009
40
0.078125000000009
40
0.0937500000000108
40
0.0937500000000108
40
0.125000000000009
40
0.125000000000009
40
0.187500000000008
40
0.187500000000008
40
0.250000000000007
40
0.250000000000007
40
0.375000000000006
40
0.375000000000006
40
0.500000000000004
40
0.500000000000004
40
0.625000000000003
40
0.625000000000003
40
0.750000000000001
40
0.750000000000001
40
1
40
1
40
1
40
1
41
1
10
-23.2
20
-19.3576886388616
30
0
41
1
10
-23.1861263738958
20
-19.3548092998013
30
0
41
1
10
-23.1718181484693
20
-19.3528767085846
30
0
41
1
10
-23.1421547265457
20
-19.351299568976
30
0
41
1
10
-23.1266945958046
20
-19.3517199949159
30
0
41
1
10
-23.0969549032772
20
-19.3549384617363
30
0
41
1
10
-23.082206872545
20
-19.3577536306785
30
0
41
1
10
-23.0541683727243
20
-19.3652090302267
30
0
41
1
10
-23.0410262338589
20
-19.3697655727581
30
0
41
1
10
-23.0160258985917
20
-19.3800853734457
30
0
41
1
10
-23.0041815792201
20
-19.3858618296643
30
0
41
1
10
-22.9821128438073
20
-19.3979646717983
30
0
41
1
10
-22.9717769671596
20
-19.4043384554672
30
0
41
1
10
-22.9423174354007
20
-19.4241644263845
30
0
41
1
10
-22.9246416181742
20
-19.4383911219556
30
0
41
1
10
-22.8765793372274
20
-19.4817019369821
30
0
41
1
10
-22.8504665637792
20
-19.5117125819895
30
0
41
1
10
-22.8038750166303
20
-19.5726045130307
30
0
41
1
10
-22.7835390420773
20
-19.6036156843171
30
0
41
1
10
-22.7286179880406
20
-19.6967014017344
30
0
41
1
10
-22.7001335612323
20
-19.7584025174859
30
0
41
1
10
-22.6515479659095
20
-19.8806706152634
30
0
41
1
10
-22.6316754243824
20
-19.9412491153106
30
0
41
1
10
-22.5979028786882
20
-20.0611279854318
30
0
41
1
10
-22.5840501695142
20
-20.1204308083457
30
0
41
1
10
-22.5610541500343
20
-20.2376735104442
30
0
41
1
10
-22.5519206046208
20
-20.2956569719258
30
0
41
1
10
-22.5306245829581
20
-20.4671764490201
30
0
41
1
10
-22.5244558866072
20
-20.5780486941688
30
0
41
1
10
-22.5254125626117
20
-20.6854597771061
30
0
0
SPLINE
5
15E
100
AcDbEntity
8
SK1
62
256
6
ByLayer
370
18
48
1
60
0
100
AcDbSpline
70
4
71
3
72
28
73
24
40
0
40
0
40
0
40
0
40
0.250000000000002
40
0.250000000000002
40
0.375000000000002
40
0.375000000000002
40
0.500000000000003
40
0.500000000000003
40
0.625000000000003
40
0.625000000000003
40
0.687500000000003
40
0.687500000000003
40
0.750000000000002
40
0.750000000000002
40
0.812500000000001
40
0.812500000000001
40
0.875000000000001
40
0.875000000000001
40
0.906250000000001
40
0.906250000000001
40
0.9375
40
0.9375
40
1
40
1
40
1
40
1
41
1
10
-23.2
20
-19.3576886388616
30
0
41
1
10
-23.5022997397726
20
-19.4204280728151
30
0
41
1
10
-23.8000916308775
20
-19.4871263917513
30
0
41
1
10
-24.2359750148452
20
-19.5966625616914
30
0
41
1
10
-24.3796787987828
20
-19.6348483799632
30
0
41
1
10
-24.6605180310531
20
-19.7150509364068
30
0
41
1
10
-24.797750943214
20
-19.7570664709182
30
0
41
1
10
-25.0633566338274
20
-19.8464198311913
30
0
41
1
10
-25.1917898628867
20
-19.8937213442125
30
0
41
1
10
-25.3744309983707
20
-19.9706858547922
30
0
41
1
10
-25.4338202015676
20
-19.997454223387
30
0
41
1
10
-25.5471770614399
20
-20.0531112354523
30
0
41
1
10
-25.6010398129088
20
-20.0819298668878
30
0
41
1
10
-25.7016461881308
20
-20.1420705509696
30
0
41
1
10
-25.7484454708312
20
-20.1734188465689
30
0
41
1
10
-25.8325202493381
20
-20.2392776407827
30
0
41
1
10
-25.8690266895944
20
-20.2731985289795
30
0
41
1
10
-25.9137039563339
20
-20.3258872551724
30
0
41
1
10
-25.9269103792572
20
-20.3437524001575
30
0
41
1
10
-25.9495684407564
20
-20.3801557817123
30
0
41
1
10
-25.9590521996598
20
-20.3987877548614
30
0
41
1
10
-25.9809200317921
20
-20.4550640119658
30
0
41
1
10
-25.9867474411679
20
-20.4929087866349
30
0
41
1
10
-25.983343499753
20
-20.5310987896623
30
0
0
SPLINE
5
15F
100
AcDbEntity
8
SK1
62
256
6
ByLayer
370
18
48
1
60
0
100
AcDbSpline
70
4
71
3
72
36
73
32
40
0
40
0
40
0
40
0
40
0.0078124999999998
40
0.0078124999999998
40
0.0156249999999995
40
0.0156249999999995
40
0.0312499999999999
40
0.0312499999999999
40
0.0468750000000002
40
0.0468750000000002
40
0.0625000000000006
40
0.0625000000000006
40
0.0937500000000018
40
0.0937500000000018
40
0.125000000000003
40
0.125000000000003
40
0.156250000000004
40
0.156250000000004
40
0.187500000000005
40
0.187500000000005
40
0.250000000000006
40
0.250000000000006
40
0.375000000000005
40
0.375000000000005
40
0.500000000000004
40
0.500000000000004
40
0.625000000000003
40
0.625000000000003
40
0.750000000000002
40
0.750000000000002
40
1
40
1
40
1
40
1
41
1
10
-25.9833434997481
20
-20.5310987896625
30
0
41
1
10
-25.9828031618319
20
-20.5371610287379
30
0
41
1
10
-25.983891466009
20
-20.5430390572782
30
0
41
1
10
-25.9890236323275
20
-20.5544608237057
30
0
41
1
10
-25.9931333824192
20
-20.5600445157079
30
0
41
1
10
-26.0086996562673
20
-20.5756772832126
30
0
41
1
10
-26.0235488457277
20
-20.5849769843262
30
0
41
1
10
-26.0572642628514
20
-20.6015324498899
30
0
41
1
10
-26.0760833795906
20
-20.608812761582
30
0
41
1
10
-26.1160593176297
20
-20.62218470368
30
0
41
1
10
-26.137280999578
20
-20.6282647460343
30
0
41
1
10
-26.2021125667175
20
-20.6449688643929
30
0
41
1
10
-26.2473286877582
20
-20.6542648314883
30
0
41
1
10
-26.3398016510716
20
-20.670975007827
30
0
41
1
10
-26.3871071994475
20
-20.6783442839642
30
0
41
1
10
-26.4830721960949
20
-20.691834730802
30
0
41
1
10
-26.5318115234252
20
-20.6979517553182
30
0
41
1
10
-26.6296273769643
20
-20.7092210665845
30
0
41
1
10
-26.6787817533779
20
-20.7143814426966
30
0
41
1
10
-26.826790316971
20
-20.7288132962961
30
0
41
1
10
-26.9261804508357
20
-20.7370537763177
30
0
41
1
10
-27.225693877908
20
-20.7591938653913
30
0
41
1
10
-27.4271348012387
20
-20.7705610478369
30
0
41
1
10
-27.8318508313423
20
-20.7897778683561
30
0
41
1
10
-28.0351676379405
20
-20.7975471747097
30
0
41
1
10
-28.4430293749968
20
-20.8107359004727
30
0
41
1
10
-28.6476200301023
20
-20.8161361676979
30
0
41
1
10
-29.0571977039525
20
-20.8252283040692
30
0
41
1
10
-29.2622565030358
20
-20.8289159475481
30
0
41
1
10
-29.8780477589523
20
-20.8380299878139
30
0
41
1
10
-30.2893853411833
20
-20.8415387546249
30
0
41
1
10
-30.7012499999992
20
-20.8433892377983
30
0
0
SPLINE
5
160
100
AcDbEntity
8
SK1
62
256
6
ByLayer
370
18
48
1
60
0
100
AcDbSpline
70
4
71
3
72
16
73
12
40
0
40
0
40
0
40
0
40
0.25
40
0.25
40
0.5
40
0.5
40
0.75
40
0.75
40
0.875
40
0.875
40
1
40
1
40
1
40
1
41
1
10
-30.7600449304189
20
20.8343104848551
30
0
41
1
10
-30.8005304147295
20
20.7918881716236
30
0
41
1
10
-30.8391903518078
20
20.7469260622839
30
0
41
1
10
-30.9108217629846
20
20.6529591719925
30
0
41
1
10
-30.9438142125762
20
20.6039429159931
30
0
41
1
10
-31.0007051028082
20
20.5035329800823
30
0
41
1
10
-31.0245900033696
20
20.4521521286418
30
0
41
1
10
-31.0497392687942
20
20.3751260560864
30
0
41
1
10
-31.0563287190668
20
20.3494639188073
30
0
41
1
10
-31.0652639534867
20
20.2984378669062
30
0
41
1
10
-31.0675912850396
20
20.2729947455573
30
0
41
1
10
-31.0675798041817
20
20.2481331121862
30
0
0
SPLINE
5
161
100
AcDbEntity
8
SK1
62
256
6
ByLayer
370
18
48
1
60
0
100
AcDbSpline
70
4
71
3
72
8
73
4
40
0
40
0
40
0
40
0
40
1
40
1
40
1
40
1
41
1
10
-30.7600449304182
20
-20.7759355648241
30
0
41
1
10
-30.7414872158135
20
-20.7986984205293
30
0
41
1
10
-30.7218522549563
20
-20.821176736599
30
0
41
1
10
-30.70125
20
-20.8433892377956
30
0
0
SPLINE
5
162
100
AcDbEntity
8
SK1
62
256
6
ByLayer
370
18
48
1
60
0
100
AcDbSpline
70
4
71
3
72
8
73
4
40
0
40
0
40
0
40
0
40
1
40
1
40
1
40
1
41
1
10
-30.7600449304189
20
20.8343104848551
30
0
41
1
10
-30.756719577112
20
20.8377949233395
30
0
41
1
10
-30.7533711052715
20
20.8412726012232
30
0
41
1
10
-30.75
20
20.8447435124634
30
0
0
SPLINE
5
163
100
AcDbEntity
8
SK1
62
256
6
ByLayer
370
18
48
1
60
0
100
AcDbSpline
70
4
71
3
72
12
73
8
40
0
40
0
40
0
40
0
40
0.25
40
0.25
40
0.5
40
0.5
40
1
40
1
40
1
40
1
41
1
10
-27.2
20
20.7793761248444
30
0
41
1
10
-27.4930169396388
20
20.7933253891619
30
0
41
1
10
-27.787284351774
20
20.8034860351553
30
0
41
1
10
-28.3771606131415
20
20.8197595020288
30
0
41
1
10
-28.6727964488951
20
20.8257901832184
30
0
41
1
10
-29.5610680020745
20
20.8397833747407
30
0
41
1
10
-30.1550416961173
20
20.843726390558
30
0
41
1
10
-30.75
20
20.8447435124634
30
0
0
SPLINE
5
164
100
AcDbEntity
8
SK1
62
256
6
ByLayer
370
18
48
1
60
0
100
AcDbSpline
70
4
71
3
72
37
73
33
40
0
40
0
40
0
40
0
40
0.125000000000002
40
0.125000000000002
40
0.250000000000005
40
0.250000000000005
40
0.375000000000008
40
0.375000000000008
40
0.500000000000012
40
0.500000000000012
40
0.562500000000011
40
0.562500000000011
40
0.625000000000011
40
0.625000000000011
40
0.68750000000001
40
0.68750000000001
40
0.75000000000001
40
0.75000000000001
40
0.81250000000001
40
0.81250000000001
40
0.875000000000009
40
0.875000000000009
40
0.906250000000008
40
0.906250000000008
40
0.937500000000007
40
0.937500000000007
40
0.953125000000005
40
0.953125000000005
40
0.968750000000004
40
0.984375000000002
40
0.984375000000002
40
1
40
1
40
1
40
1
41
1
10
-25.8
20
21.8338164768251
30
0
41
1
10
-25.8
20
21.7915616932458
30
0
41
1
10
-25.8090351025927
20
21.7478886231866
30
0
41
1
10
-25.8431548692958
20
21.657807114386
30
0
41
1
10
-25.8684641645678
20
21.611182144405
30
0
41
1
10
-25.9323193271322
20
21.5174811379225
30
0
41
1
10
-25.970895045869
20
21.4701766351094
30
0
41
1
10
-26.0597609446709
20
21.3747376968519
30
0
41
1
10
-26.110046951095
20
21.3266019341388
30
0
41
1
10
-26.1937594442119
20
21.2538676785148
30
0
41
1
10
-26.2230510956807
20
21.2295349064355
30
0
41
1
10
-26.2844522605555
20
21.1807194780491
30
0
41
1
10
-26.3166157214402
20
21.1561959848264
30
0
41
1
10
-26.3836133703914
20
21.1072837145488
30
0
41
1
10
-26.4184363723703
20
21.0828939039856
30
0
41
1
10
-26.4910775441697
20
21.0343527408064
30
0
41
1
10
-26.5289288892006
20
21.0101707773759
30
0
41
1
10
-26.6081703997843
20
20.9624296091495
30
0
41
1
10
-26.64952079047
20
20.9388574261358
30
0
41
1
10
-26.7375692634737
20
20.8928909727541
30
0
41
1
10
-26.7838545339876
20
20.87062177108
30
0
41
1
10
-26.8596629929598
20
20.8397526331818
30
0
41
1
10
-26.8860248460639
20
20.8298902068594
30
0
41
1
10
-26.9422453143891
20
20.811590208813
30
0
41
1
10
-26.9716079141475
20
20.8033202107098
30
0
41
1
10
-27.0182080981107
20
20.793092579121
30
0
41
1
10
-27.0343198512967
20
20.7900288355796
30
0
41
1
10
-27.0667844525407
20
20.7849461963152
30
0
41
1
10
-27.0995297892864
20
20.7808838588946
30
0
41
1
10
-27.1328814273506
20
20.7790296636822
30
0
41
1
10
-27.1665526773182
20
20.7783398272714
30
0
41
1
10
-27.1834248638181
20
20.7785870545739
30
0
41
1
10
-27.2000000000001
20
20.779376124844
30
0
0
SPLINE
5
165
100
AcDbEntity
8
SK1
62
256
6
ByLayer
370
18
48
1
60
0
100
AcDbSpline
70
4
71
3
72
75
73
71
40
0
40
0
40
0
40
0
40
0.0090385520090807
40
0.0090385520090807
40
0.0246620345604469
40
0.0246620345604469
40
0.0871559647659116
40
0.0871559647659116
40
0.102779447317278
40
0.102779447317278
40
0.118402929868644
40
0.118402929868644
40
0.149649894971377
40
0.149649894971377
40
0.180896860074109
40
0.180896860074109
40
0.196520342625475
40
0.196520342625475
40
0.212143825176841
40
0.212143825176841
40
0.274637755382307
40
0.274637755382307
40
0.290261237933673
40
0.290261237933673
40
0.305884720485039
40
0.305884720485039
40
0.337131685587772
40
0.337131685587772
40
0.399625615793236
40
0.399625615793236
40
0.415249098344603
40
0.415249098344603
40
0.430872580895969
40
0.430872580895969
40
0.4621195459987
40
0.493366511101432
40
0.493366511101432
40
0.524613476204164
40
0.524613476204164
40
0.587107406409628
40
0.587107406409628
40
0.61835437151236
40
0.61835437151236
40
0.633977854063726
40
0.633977854063726
40
0.649601336615091
40
0.649601336615091
40
0.712095266820555
40
0.712095266820555
40
0.743342231923286
40
0.743342231923286
40
0.758965714474652
40
0.758965714474652
40
0.774589197026018
40
0.774589197026018
40
0.837083127231481
40
0.837083127231481
40
0.868330092334212
40
0.868330092334212
40
0.883953574885578
40
0.883953574885578
40
0.899577057436944
40
0.899577057436944
40
0.962070987642407
40
0.962070987642407
40
0.977694470193773
40
0.977694470193773
40
0.993317952745139
40
0.993317952745139
40
1
40
1
40
1
40
1
41
1
10
-13.2499996321273
20
-23.6568035297787
30
0
41
1
10
-13.2500233260547
20
-23.6568061225828
30
0
41
1
10
-13.249383605761
20
-23.6567358898361
30
0
41
1
10
-13.2458020355485
20
-23.6563427957797
30
0
41
1
10
-13.2415290993887
20
-23.65587389451
30
0
41
1
10
-13.2104646619921
20
-23.6524783212668
30
0
41
1
10
-13.1548191098024
20
-23.6463805607759
30
0
41
1
10
-13.0477814830663
20
-23.6353053849914
30
0
41
1
10
-13.0244813481594
20
-23.6329185076143
30
0
41
1
10
-12.9740463040831
20
-23.6278242494526
30
0
41
1
10
-12.9470052287206
20
-23.6251266201095
30
0
41
1
10
-12.8611124023998
20
-23.6166960900213
30
0
41
1
10
-12.7972883829372
20
-23.6106036598318
30
0
41
1
10
-12.6570409007133
20
-23.5977871756569
30
0
41
1
10
-12.5806158295878
20
-23.5910625891893
30
0
41
1
10
-12.456614037022
20
-23.5807407804376
30
0
41
1
10
-12.4137163910493
20
-23.5772611251988
30
0
41
1
10
-12.3247719806744
20
-23.5702655992686
30
0
41
1
10
-12.2788060047467
20
-23.5667568202466
30
0
41
1
10
-12.043602861947
20
-23.5494134246691
30
0
41
1
10
-11.8367069410026
20
-23.5360453100739
30
0
41
1
10
-11.5559397289975
20
-23.5215939255661
30
0
41
1
10
-11.4986680910106
20
-23.5188166438999
30
0
41
1
10
-11.381878109993
20
-23.5135299347585
30
0
41
1
10
-11.3222065263784
20
-23.5110149125088
30
0
41
1
10
-11.1412090975778
20
-23.5039896941272
30
0
41
1
10
-11.0178624240849
20
-23.4999929024078
30
0
41
1
10
-10.6401288123703
20
-23.4903968596522
30
0
41
1
10
-10.3781142369942
20
-23.487188890985
30
0
41
1
10
-10.0379253701214
20
-23.4882641360031
30
0
41
1
10
-9.96909745915056
20
-23.4887360245954
30
0
41
1
10
-9.83135291982148
20
-23.4902017560846
30
0
41
1
10
-9.76234395534394
20
-23.4911947338096
30
0
41
1
10
-9.55491657989552
20
-23.4949624386457
30
0
41
1
10
-9.27728095010187
20
-23.5020900472767
30
0
41
1
10
-8.99756793694371
20
-23.5135091808747
30
0
41
1
10
-8.71681406060486
20
-23.5271136075498
30
0
41
1
10
-8.575693556386
20
-23.5350227168258
30
0
41
1
10
-8.1521266894392
20
-23.5619962610431
30
0
41
1
10
-7.87587295865654
20
-23.5838813367137
30
0
41
1
10
-7.47029807336821
20
-23.6217081395784
30
0
41
1
10
-7.33658355744123
20
-23.6351503889625
30
0
41
1
10
-7.13826597722019
20
-23.6564527074369
30
0
41
1
10
-7.07253642101864
20
-23.6637432476213
30
0
41
1
10
-6.94184416469395
20
-23.6786844046452
30
0
41
1
10
-6.87677097778638
20
-23.6863493221285
30
0
41
1
10
-6.55652029366897
20
-23.7251328126265
30
0
41
1
10
-6.31432743293055
20
-23.7578740013814
30
0
41
1
10
-5.97193167710211
20
-23.8079061106606
30
0
41
1
10
-5.86130586018859
20
-23.824736486798
30
0
41
1
10
-5.70084746445252
20
-23.8499869407451
30
0
41
1
10
-5.64827648052716
20
-23.8584043682081
30
0
41
1
10
-5.54502547483457
20
-23.8751996594049
30
0
41
1
10
-5.49456757997353
20
-23.8835418529282
30
0
41
1
10
-5.24977254830645
20
-23.9245975882013
30
0
41
1
10
-5.07601012249239
20
-23.9556339690233
30
0
41
1
10
-4.84949796142115
20
-23.9975184722948
30
0
41
1
10
-4.77972332880711
20
-24.0106992370933
30
0
41
1
10
-4.68421548691299
20
-24.0290096966174
30
0
41
1
10
-4.65383577104424
20
-24.0348836587767
30
0
41
1
10
-4.59697075937379
20
-24.0459525421521
30
0
41
1
10
-4.57040176631844
20
-24.0511632490484
30
0
41
1
10
-4.4467902302857
20
-24.075542454453
30
0
41
1
10
-4.37715688181757
20
-24.0897077464883
30
0
41
1
10
-4.32823260598516
20
-24.0996826801603
30
0
41
1
10
-4.32037224999971
20
-24.101289709509
30
0
41
1
10
-4.30861926199503
20
-24.1036947934254
30
0
41
1
10
-4.30476205055422
20
-24.1044855754814
30
0
41
1
10
-4.30215365914825
20
-24.105020307949
30
0
41
1
10
-4.30173952568504
20
-24.1051050997131
30
0
41
1
10
-4.30169063569539
20
-24.1051150024286
30
0
0
SPLINE
5
166
100
AcDbEntity
8
SK1
62
256
6
ByLayer
370
18
48
1
60
0
100
AcDbSpline
70
4
71
3
72
70
73
66
40
0
40
0
40
0
40
0
40
0.0376774822618886
40
0.0376774822618886
40
0.0689295635946579
40
0.0689295635946579
40
0.100181644927427
40
0.100181644927427
40
0.131433726260196
40
0.131433726260196
40
0.147059766926581
40
0.147059766926581
40
0.162685807592965
40
0.162685807592965
40
0.225189970258504
40
0.225189970258504
40
0.256442051591273
40
0.256442051591273
40
0.287694132924042
40
0.287694132924042
40
0.35019829558958
40
0.35019829558958
40
0.365824336255965
40
0.365824336255965
40
0.38145037692235
40
0.38145037692235
40
0.412702458255119
40
0.412702458255119
40
0.475206620920657
40
0.475206620920657
40
0.490832661587041
40
0.490832661587041
40
0.506458702253426
40
0.506458702253426
40
0.537710783586195
40
0.568962864918964
40
0.568962864918964
40
0.584588905585349
40
0.584588905585349
40
0.600214946251733
40
0.600214946251733
40
0.662719108917273
40
0.662719108917273
40
0.693971190250042
40
0.693971190250042
40
0.709597230916427
40
0.709597230916427
40
0.725223271582812
40
0.725223271582812
40
0.787727434248353
40
0.787727434248353
40
0.818979515581123
40
0.818979515581123
40
0.834605556247508
40
0.834605556247508
40
0.850231596913894
40
0.850231596913894
40
0.912735759579435
40
0.912735759579435
40
0.92836180024582
40
0.92836180024582
40
0.943987840912206
40
0.943987840912206
40
0.975239922244977
40
1
40
1
40
1
40
1
41
1
10
-4.30164255066256
20
24.1051168019068
30
0
41
1
10
-4.30117572510244
20
24.1052097006536
30
0
41
1
10
-4.31231790845391
20
24.1029299442689
30
0
41
1
10
-4.35340135419193
20
24.0945493849193
30
0
41
1
10
-4.37987586635512
20
24.0891622982116
30
0
41
1
10
-4.44891908335143
20
24.0752540951658
30
0
41
1
10
-4.49082342534541
20
24.0668680204953
30
0
41
1
10
-4.58858282604817
20
24.0475686672466
30
0
41
1
10
-4.64444078155665
20
24.0366546474642
30
0
41
1
10
-4.73844404924645
20
24.0186053787488
30
0
41
1
10
-4.77148465453786
20
24.0123089624855
30
0
41
1
10
-4.84097688610981
20
23.9991897826944
30
0
41
1
10
-4.87750118543869
20
23.9923535654524
30
0
41
1
10
-5.06788533384201
20
23.9570908435006
30
0
41
1
10
-5.24228467594517
20
23.925910629975
30
0
41
1
10
-5.53433622742125
20
23.8768453162996
30
0
41
1
10
-5.63680740863745
20
23.860102163332
30
0
41
1
10
-5.85203976936378
20
23.8261603582413
30
0
41
1
10
-5.96329638868775
20
23.8092009654145
30
0
41
1
10
-6.30708139111724
20
23.7588701613431
30
0
41
1
10
-6.54969934461792
20
23.7260232940064
30
0
41
1
10
-6.86954869788093
20
23.6872089643952
30
0
41
1
10
-6.93448408531774
20
23.6795432976227
30
0
41
1
10
-7.06542972331471
20
23.6645400714812
30
0
41
1
10
-7.13127877974432
20
23.6572200536679
30
0
41
1
10
-7.32993248204397
20
23.6358336747054
30
0
41
1
10
-7.46384127441934
20
23.6223412259705
30
0
41
1
10
-7.86990228300999
20
23.5843785510033
30
0
41
1
10
-8.14635228172548
20
23.5624227563734
30
0
41
1
10
-8.49937416927264
20
23.5398689265169
30
0
41
1
10
-8.5701525345228
20
23.535616805717
30
0
41
1
10
-8.71114405207814
20
23.5276837185464
30
0
41
1
10
-8.78149389774401
20
23.5239938959418
30
0
41
1
10
-8.99211137104624
20
23.5137463672139
30
0
41
1
10
-9.2717842380296
20
23.5022744878207
30
0
41
1
10
-9.54916793577306
20
23.495097301709
30
0
41
1
10
-9.75632742419702
20
23.4912897893957
30
0
41
1
10
-9.82523395354841
20
23.4902831567796
30
0
41
1
10
-9.96274719730195
20
23.4887887212029
30
0
41
1
10
-10.0314895817818
20
23.4883005745269
30
0
41
1
10
-10.3728457987255
20
23.4871446531958
30
0
41
1
10
-10.6349122273288
20
23.4903182279234
30
0
41
1
10
-11.0117058741089
20
23.4998104833313
30
0
41
1
10
-11.1345680915786
20
23.5037645043528
30
0
41
1
10
-11.3146131107252
20
23.5107053328383
30
0
41
1
10
-11.3739188052124
20
23.5131872031446
30
0
41
1
10
-11.4910706593011
20
23.5184573584661
30
0
41
1
10
-11.5489974216836
20
23.5212507474546
30
0
41
1
10
-11.8316922195073
20
23.5357344754695
30
0
41
1
10
-12.0383242518147
20
23.5490687646915
30
0
41
1
10
-12.3186581544296
20
23.5696743005681
30
0
41
1
10
-12.4071325015711
20
23.5766454521324
30
0
41
1
10
-12.5319951672411
20
23.5870052394677
30
0
41
1
10
-12.5724188476235
20
23.5904522711193
30
0
41
1
10
-12.649958032955
20
23.5972189430162
30
0
41
1
10
-12.6870041217728
20
23.6005318083987
30
0
41
1
10
-12.8637133213365
20
23.6166501436126
30
0
41
1
10
-12.978079796347
20
23.6281078879979
30
0
41
1
10
-13.0861551596526
20
23.6392727492728
30
0
41
1
10
-13.1060090734278
20
23.6413483233522
30
0
41
1
10
-13.1420936814673
20
23.6451516470508
30
0
41
1
10
-13.1583647607109
20
23.6468837548005
30
0
41
1
10
-13.20108176998
20
23.6514592160886
30
0
41
1
10
-13.237854115206
20
23.655467837111
30
0
41
1
10
-13.2496675173116
20
23.6567663475433
30
0
41
1
10
-13.2499858541054
20
23.656801794251
30
0
0
SPLINE
5
167
100
AcDbEntity
8
SK1
62
256
6
ByLayer
370
18
48
1
60
0
100
AcDbSpline
70
4
71
3
72
12
73
8
40
0
40
0
40
0
40
0
40
0.499999999999999
40
0.499999999999999
40
0.749999999999999
40
0.749999999999999
40
1
40
1
40
1
40
1
41
1
10
-30.7600449304183
20
-20.7759355648241
30
0
41
1
10
-30.8200360234276
20
-20.7023506098415
30
0
41
1
10
-30.872487175981
20
-20.6226340684129
30
0
41
1
10
-30.9290751655626
20
-20.4995348632115
30
0
41
1
10
-30.9441756135538
20
-20.4579549543773
30
0
41
1
10
-30.9646688220374
20
-20.3747617985674
30
0
41
1
10
-30.9700237499846
20
-20.3331712100059
30
0
41
1
10
-30.9697797028105
20
-20.29183707252
30
0
0
SPLINE
5
168
100
AcDbEntity
8
SK1
62
256
6
ByLayer
370
18
48
1
60
0
100
AcDbSpline
70
4
71
3
72
58
73
54
40
0
40
0
40
0
40
0
40
0.124999999999998
40
0.124999999999998
40
0.249999999999997
40
0.249999999999997
40
0.312499999999996
40
0.312499999999996
40
0.374999999999995
40
0.374999999999995
40
0.406249999999995
40
0.406249999999995
40
0.437499999999994
40
0.437499999999994
40
0.453124999999994
40
0.453124999999994
40
0.468749999999994
40
0.468749999999994
40
0.476562499999994
40
0.476562499999994
40
0.484374999999993
40
0.484374999999993
40
0.492187499999993
40
0.492187499999993
40
0.499999999999992
40
0.499999999999992
40
0.507812499999992
40
0.507812499999992
40
0.511718749999992
40
0.511718749999992
40
0.515624999999992
40
0.515624999999992
40
0.523437499999993
40
0.523437499999993
40
0.531249999999994
40
0.531249999999994
40
0.539062499999995
40
0.539062499999995
40
0.546874999999996
40
0.546874999999996
40
0.562499999999996
40
0.562499999999996
40
0.593749999999996
40
0.593749999999996
40
0.624999999999997
40
0.624999999999997
40
0.687499999999997
40
0.687499999999997
40
0.749999999999998
40
0.749999999999998
40
0.874999999999999
40
0.874999999999999
40
1
40
1
40
1
40
1
41
1
10
-30.9697797028105
20
-20.29183707252
30
0
41
1
10
-30.9689813939924
20
-20.1566279410794
30
0
41
1
10
-30.9757535307833
20
-20.01496475748
30
0
41
1
10
-31.0054524641219
20
-19.7178660151715
30
0
41
1
10
-31.0282595641667
20
-19.5625325016407
30
0
41
1
10
-31.0783049497967
20
-19.31603260206
30
0
41
1
10
-31.0976806470622
20
-19.2315488168703
30
0
41
1
10
-31.1430179784571
20
-19.0582048790318
30
0
41
1
10
-31.1689309967844
20
-18.9692427711642
30
0
41
1
10
-31.2152517328029
20
-18.8305399151156
30
0
41
1
10
-31.2319480136137
20
-18.7834190135189
30
0
41
1
10
-31.2688834880339
20
-18.6866763223157
30
0
41
1
10
-31.2890663680803
20
-18.6370942835929
30
0
41
1
10
-31.3237443497552
20
-18.5596127480684
30
0
41
1
10
-31.3359968749228
20
-18.533385880177
30
0
41
1
10
-31.3623030742784
20
-18.4801315162846
30
0
41
1
10
-31.3763538144415
20
-18.453074451875
30
0
41
1
10
-31.3996123195162
20
-18.4114437004565
30
0
41
1
10
-31.407733800601
20
-18.3973902377189
30
0
41
1
10
-31.425004475243
20
-18.3687911379527
30
0
41
1
10
-31.4342063227091
20
-18.3541631861869
30
0
41
1
10
-31.4537358335998
20
-18.3248103422876
30
0
41
1
10
-31.4640680013393
20
-18.3100544268218
30
0
41
1
10
-31.4865570590088
20
-18.2802869553543
30
0
41
1
10
-31.4985258471569
20
-18.2655278925693
30
0
41
1
10
-31.5242580292515
20
-18.2371089278984
30
0
41
1
10
-31.5378783271758
20
-18.2236936367942
30
0
41
1
10
-31.55821770016
20
-18.2066943669612
30
0
41
1
10
-31.5648179679004
20
-18.2016701092283
30
0
41
1
10
-31.5776874553989
20
-18.1928057724284
30
0
41
1
10
-31.5839965957656
20
-18.188952387007
30
0
41
1
10
-31.601742959673
20
-18.1793860362997
30
0
41
1
10
-31.612399373726
20
-18.1753935392907
30
0
41
1
10
-31.6314755580391
20
-18.1706489424237
30
0
41
1
10
-31.6398873844073
20
-18.1698643796272
30
0
41
1
10
-31.6553235899367
20
-18.1702511861044
30
0
41
1
10
-31.6623480733507
20
-18.1714548241555
30
0
41
1
10
-31.6751712230682
20
-18.1751566304184
30
0
41
1
10
-31.6810118139045
20
-18.1776593073099
30
0
41
1
10
-31.6973298182024
20
-18.1865414299079
30
0
41
1
10
-31.706626190975
20
-18.1942690242498
30
0
41
1
10
-31.7317160012726
20
-18.2206471953123
30
0
41
1
10
-31.7447591784197
20
-18.2424994830695
30
0
41
1
10
-31.7669652168291
20
-18.2895741879515
30
0
41
1
10
-31.7761076686093
20
-18.3150034457971
30
0
41
1
10
-31.800060667843
20
-18.3946438982648
30
0
41
1
10
-31.8114604459957
20
-18.452146411917
30
0
41
1
10
-31.8299579674628
20
-18.5713028103297
30
0
41
1
10
-31.8369326384218
20
-18.6330754572666
30
0
41
1
10
-31.8539129486275
20
-18.8221989863497
30
0
41
1
10
-31.8600821674541
20
-18.9530976247636
30
0
41
1
10
-31.867927635967
20
-19.218805778036
30
0
41
1
10
-31.8694732206265
20
-19.3538061438966
30
0
41
1
10
-31.8692807746814
20
-19.4903757489686
30
0
0
SPLINE
5
169
100
AcDbEntity
8
SK1
62
256
6
ByLayer
370
18
48
1
60
0
100
AcDbSpline
70
4
71
3
72
14
73
10
40
0
40
0
40
0
40
0
40
0.298280617311162
40
0.298280617311162
40
0.596561234622324
40
0.596561234622324
40
0.894841851933486
40
0.894841851933486
40
1
40
1
40
1
40
1
41
1
10
-31.8692807746814
20
-19.4903757489686
30
0
41
1
10
-31.8692299147198
20
-19.5264686106131
30
0
41
1
10
-31.8707678265068
20
-19.5562094579244
30
0
41
1
10
-31.876272673535
20
-19.6033031501045
30
0
41
1
10
-31.8801358565004
20
-19.6201100306277
30
0
41
1
10
-31.8880002377309
20
-19.6424693135638
30
0
41
1
10
-31.891999405525
20
-19.6480865530938
30
0
41
1
10
-31.8960645262383
20
-19.6494581932275
30
0
41
1
10
-31.8969978410135
20
-19.6492346143095
30
0
41
1
10
-31.8977622194061
20
-19.6484749122584
30
0
0
SPLINE
5
16A
100
AcDbEntity
8
1
62
256
6
ByLayer
370
18
48
1
60
0
100
AcDbSpline
70
4
71
3
72
90
73
86
40
0
40
0
40
0
40
0
40
0.0078128224782932
40
0.0078128224782932
40
0.0156256449565864
40
0.0156256449565864
40
0.0312512899131728
40
0.0312512899131728
40
0.0625025798263458
40
0.0625025798263458
40
0.0937538697395187
40
0.0937538697395187
40
0.125005159652692
40
0.125005159652692
40
0.140630804609278
40
0.140630804609278
40
0.156256449565865
40
0.156256449565865
40
0.187507739479037
40
0.187507739479037
40
0.21875902939221
40
0.21875902939221
40
0.250010319305383
40
0.250010319305383
40
0.265635964261969
40
0.265635964261969
40
0.273448786740263
40
0.273448786740263
40
0.281261609218556
40
0.281261609218556
40
0.312512899131729
40
0.312512899131729
40
0.343764189044901
40
0.343764189044901
40
0.375015478958074
40
0.375015478958074
40
0.39064112391466
40
0.39064112391466
40
0.398453946392954
40
0.398453946392954
40
0.406266768871247
40
0.406266768871247
40
0.437518058784419
40
0.437518058784419
40
0.468769348697592
40
0.468769348697592
40
0.500020638610764
40
0.500020638610764
40
0.515646283567351
40
0.515646283567351
40
0.531271928523937
40
0.531271928523937
40
0.56252321843711
40
0.56252321843711
40
0.593774508350282
40
0.625025798263455
40
0.625025798263455
40
0.640651443220041
40
0.640651443220041
40
0.648464265698334
40
0.648464265698334
40
0.656277088176628
40
0.656277088176628
40
0.6875283780898
40
0.6875283780898
40
0.718779668002973
40
0.750030957916145
40
0.750030957916145
40
0.765656602872732
40
0.765656602872732
40
0.773469425351025
40
0.773469425351025
40
0.781282247829318
40
0.781282247829318
40
0.81253353774249
40
0.81253353774249
40
0.843784827655663
40
0.875036117568835
40
0.875036117568835
40
0.906287407482008
40
0.906287407482008
40
0.93753869739518
40
0.93753869739518
40
0.968789987308352
40
1
40
1
40
1
40
1
41
1
10
124.834074173711
20
-21.9803412596145
30
0
41
1
10
124.828749720082
20
-21.8979111129203
30
0
41
1
10
124.823323516627
20
-21.8137873197964
30
0
41
1
10
124.812267415121
20
-21.6421217209174
30
0
41
1
10
124.806630778371
20
-21.5544748298708
30
0
41
1
10
124.789481461681
20
-21.287394808318
30
0
41
1
10
124.777723722126
20
-21.1037359858219
30
0
41
1
10
124.741512861049
20
-20.5362385085773
30
0
41
1
10
124.716123847278
20
-20.1359070983203
30
0
41
1
10
124.663000737264
20
-19.2921003414825
30
0
41
1
10
124.635266478001
20
-18.8486235983065
30
0
41
1
10
124.57755001343
20
-17.9184867746053
30
0
41
1
10
124.547567808114
20
-17.4318283299593
30
0
41
1
10
124.5009427068
20
-16.6687563646775
30
0
41
1
10
124.485116027614
20
-16.4087248100851
30
0
41
1
10
124.452950335239
20
-15.8780455272901
30
0
41
1
10
124.436706368282
20
-15.608966618574
30
0
41
1
10
124.387515052424
20
-14.7907168647034
30
0
41
1
10
124.354109537093
20
-14.2305518630394
30
0
41
1
10
124.286170893551
20
-13.0815012672862
30
0
41
1
10
124.251637609148
20
-12.4926146039112
30
0
41
1
10
124.1814998146
20
-11.286133962643
30
0
41
1
10
124.145895265521
20
-10.6685409266582
30
0
41
1
10
124.09170094311
20
-9.72018953067283
30
0
41
1
10
124.073504647536
20
-9.40040739990874
30
0
41
1
10
124.046012419742
20
-8.91513776374958
30
0
41
1
10
124.036822442462
20
-8.75257221480163
30
0
41
1
10
124.018461656876
20
-8.42707480910826
30
0
41
1
10
124.009280922931
20
-8.26396789464746
30
0
41
1
10
123.96337645857
20
-7.44665816367518
30
0
41
1
10
123.926650906683
20
-6.7871392479332
30
0
41
1
10
123.853209758803
20
-5.45701183067033
30
0
41
1
10
123.81649409979
20
-4.78640286111909
30
0
41
1
10
123.743073364925
20
-3.43411755420522
30
0
41
1
10
123.706368272405
20
-2.7524415223107
30
0
41
1
10
123.651310125533
20
-1.72147443168427
30
0
41
1
10
123.63295723365
20
-1.37640810067813
30
0
41
1
10
123.605425735297
20
-0.856656444338455
30
0
41
1
10
123.596237992742
20
-0.68285311383039
30
0
41
1
10
123.577935315329
20
-0.335924264788645
30
0
41
1
10
123.568815817169
20
-0.162713464039257
30
0
41
1
10
123.523375008109
20
0.702084191114636
30
0
41
1
10
123.487523204909
20
1.38990871461772
30
0
41
1
10
123.416765700492
20
2.75772117120167
30
0
41
1
10
123.381860057697
20
3.43770872803509
30
0
41
1
10
123.312952048946
20
4.78987345113549
30
0
41
1
10
123.278949706823
20
5.46205079172799
30
0
41
1
10
123.228600046165
20
6.46435897862872
30
0
41
1
10
123.21192588803
20
6.79746747177222
30
0
41
1
10
123.178792799935
20
7.46166325798481
30
0
41
1
10
123.162308801394
20
7.79326090468243
30
0
41
1
10
123.113614901731
20
8.77607814190631
30
0
41
1
10
123.082030419105
20
9.41796192491259
30
0
41
1
10
123.020517560501
20
10.6757564896881
30
0
41
1
10
122.960661126782
20
11.9075752423638
30
0
41
1
10
122.903985699326
20
13.087719113555
30
0
41
1
10
122.862645934575
20
13.9531560488542
30
0
41
1
10
122.849060711015
20
14.2383523224488
30
0
41
1
10
122.828973814576
20
14.6611466550125
30
0
41
1
10
122.822326687456
20
14.8012444693223
30
0
41
1
10
122.809129444959
20
15.0797566358825
30
0
41
1
10
122.802581061092
20
15.2181349626923
30
0
41
1
10
122.770233381725
20
15.902562036706
30
0
41
1
10
122.745489891823
20
16.4288850897629
30
0
41
1
10
122.69815288895
20
17.4402593482121
30
0
41
1
10
122.652966247225
20
18.4103563316916
30
0
41
1
10
122.611941400617
20
19.2984903732684
30
0
41
1
10
122.582715469806
20
19.9334461333299
30
0
41
1
10
122.573230959727
20
20.139900689479
30
0
41
1
10
122.559391360731
20
20.4416735110931
30
0
41
1
10
122.55484271148
20
20.5409458378718
30
0
41
1
10
122.545874954281
20
20.7368289036561
30
0
41
1
10
122.541450786775
20
20.8335504197301
30
0
41
1
10
122.519736159901
20
21.3086653905967
30
0
41
1
10
122.503645079881
20
21.661989109454
30
0
41
1
10
122.473906628423
20
22.3166688230018
30
0
41
1
10
122.446612326379
20
22.919373600084
30
0
41
1
10
122.424089536065
20
23.4190582716643
30
0
41
1
10
122.403948848162
20
23.8666413902326
30
0
41
1
10
122.395067202218
20
24.0644352607973
30
0
41
1
10
122.379747330455
20
24.4060218748505
30
0
41
1
10
122.373412747516
20
24.5475009635985
30
0
41
1
10
122.36329408435
20
24.7736534920358
30
0
41
1
10
122.355731364224
20
24.9428802425601
30
0
41
1
10
122.353188231713
20
24.9998400118417
30
0
41
1
10
122.353181117731
20
24.9999993277159
30
0
0
SPLINE
5
16B
100
AcDbEntity
8
1
62
256
6
ByLayer
370
18
48
1
60
0
100
AcDbSpline
70
4
71
3
72
24
73
20
40
0
40
0
40
0
40
0
40
0.0625000000000001
40
0.0625000000000001
40
0.125
40
0.125
40
0.1875
40
0.1875
40
0.25
40
0.25
40
0.5
40
0.5
40
0.75
40
0.75
40
0.8125
40
0.8125
40
0.875
40
0.875
40
1
40
1
40
1
40
1
41
1
10
125.8
20
-25
30
0
41
1
10
125.774048290001
20
-25
30
0
41
1
10
125.748072494525
20
-24.9959539661956
30
0
41
1
10
125.696294663552
20
-24.9797858341589
30
0
41
1
10
125.67047467658
20
-24.9676642800023
30
0
41
1
10
125.619077196376
20
-24.935340651613
30
0
41
1
10
125.593473337034
20
-24.9151099909453
30
0
41
1
10
125.542782640934
20
-24.8667118823447
30
0
41
1
10
125.517690955491
20
-24.8385520280098
30
0
41
1
10
125.393748975234
20
-24.6781859213009
30
0
41
1
10
125.299405524499
20
-24.4875152016743
30
0
41
1
10
125.127165078734
20
-23.9835988413698
30
0
41
1
10
125.049185877754
20
-23.6703625040774
30
0
41
1
10
124.967598559766
20
-23.1998085301671
30
0
41
1
10
124.952085013635
20
-23.1017317719001
30
0
41
1
10
124.922856569527
20
-22.8975206840244
30
0
41
1
10
124.909169520806
20
-22.7915642776674
30
0
41
1
10
124.871263215682
20
-22.4628618516325
30
0
41
1
10
124.850136326921
20
-22.2290063317076
30
0
41
1
10
124.83407417371
20
-21.9803412596092
30
0
0
SPLINE
5
16C
100
AcDbEntity
8
1
62
256
6
ByLayer
370
18
48
1
60
0
100
AcDbSpline
70
4
71
3
72
29
73
25
40
0
40
0
40
0
40
0
40
0.250000000000074
40
0.250000000000074
40
0.500000000000147
40
0.625000000000183
40
0.625000000000183
40
0.750000000000219
40
0.750000000000219
40
0.812500000000228
40
0.812500000000228
40
0.843750000000232
40
0.843750000000232
40
0.859375000000209
40
0.859375000000209
40
0.875000000000185
40
0.875000000000185
40
0.890625000000162
40
0.890625000000162
40
0.906250000000138
40
0.906250000000138
40
0.937500000000094
40
0.937500000000094
40
1
40
1
40
1
40
1
41
1
10
130.3245
20
-7.37436329715246
30
0
41
1
10
130.3245
20
-7.31940641055206
30
0
41
1
10
130.324032399932
20
-7.26449631457712
30
0
41
1
10
130.321844723872
20
-7.15482541361678
30
0
41
1
10
130.319316428687
20
-7.07267512182858
30
0
41
1
10
130.314310421224
20
-6.9908802734133
30
0
41
1
10
130.309978969288
20
-6.93650712811998
30
0
41
1
10
130.307406823544
20
-6.90939960539382
30
0
41
1
10
130.301580753402
20
-6.86948409506221
30
0
41
1
10
130.299363093008
20
-6.8562555152028
30
0
41
1
10
130.294437082563
20
-6.83706853659788
30
0
41
1
10
130.29259372161
20
-6.8308249345898
30
0
41
1
10
130.288543171497
20
-6.82243858633001
30
0
41
1
10
130.286963273435
20
-6.81977404820844
30
0
41
1
10
130.282840776615
20
-6.8162227658128
30
0
41
1
10
130.280153150168
20
-6.81579903545324
30
0
41
1
10
130.275457159849
20
-6.81847965298462
30
0
41
1
10
130.273463656978
20
-6.82104485593067
30
0
41
1
10
130.270073900227
20
-6.82643038646401
30
0
41
1
10
130.268601361043
20
-6.82940234054962
30
0
41
1
10
130.264535543431
20
-6.8385750160034
30
0
41
1
10
130.262285393521
20
-6.84504506658459
30
0
41
1
10
130.256068674689
20
-6.86469526426319
30
0
41
1
10
130.252660481925
20
-6.87818615996585
30
0
41
1
10
130.2495
20
-6.89174587477189
30
0
0
SPLINE
5
16D
100
AcDbEntity
8
1
62
256
6
ByLayer
370
18
48
1
60
0
100
AcDbSpline
70
4
71
3
72
12
73
8
40
0
40
0
40
0
40
0
40
0.5
40
0.5
40
0.75
40
0.75
40
1
40
1
40
1
40
1
41
1
10
130.2495
20
-9.57174589786197
30
0
41
1
10
130.273449874967
20
-9.415806512389
30
0
41
1
10
130.291067937376
20
-9.25978962707811
30
0
41
1
10
130.310080956516
20
-9.02558110117764
30
0
41
1
10
130.315133100644
20
-8.94748237441968
30
0
41
1
10
130.322320194146
20
-8.7912324466208
30
0
41
1
10
130.3245
20
-8.71323815752854
30
0
41
1
10
130.3245
20
-8.63551555823668
30
0
0
SPLINE
5
16E
100
AcDbEntity
8
1
62
256
6
ByLayer
370
18
48
1
60
0
100
AcDbSpline
70
4
71
3
72
8
73
4
40
0
40
0
40
0
40
0
40
1
40
1
40
1
40
1
41
1
10
130.2495
20
-9.57174589786206
30
0
41
1
10
130.086430061288
20
-10.6335061812591
30
0
41
1
10
129.869706220596
20
-11.6806088261541
30
0
41
1
10
129.6055
20
-12.7147398224983
30
0
0
SPLINE
5
16F
100
AcDbEntity
8
1
62
256
6
ByLayer
370
18
48
1
60
0
100
AcDbSpline
70
4
71
3
72
28
73
24
40
0
40
0
40
0
40
0
40
0.249999999999987
40
0.249999999999987
40
0.499999999999973
40
0.499999999999973
40
0.624999999999971
40
0.624999999999971
40
0.749999999999969
40
0.749999999999969
40
0.812499999999968
40
0.812499999999968
40
0.843749999999973
40
0.843749999999973
40
0.874999999999978
40
0.874999999999978
40
0.906249999999984
40
0.906249999999984
40
0.937499999999989
40
0.937499999999989
40
0.968749999999995
40
0.968749999999995
40
1
40
1
40
1
40
1
41
1
10
129.6055
20
-12.7147398224983
30
0
41
1
10
129.588576985242
20
-12.780978286048
30
0
41
1
10
129.573778640626
20
-12.8469679361494
30
0
41
1
10
129.548417493048
20
-12.9784405235404
30
0
41
1
10
129.537797636014
20
-13.0439284447332
30
0
41
1
10
129.526574325012
20
-13.1416448640678
30
0
41
1
10
129.523621888495
20
-13.1741963552597
30
0
41
1
10
129.520256070083
20
-13.2387663711834
30
0
41
1
10
129.51977379898
20
-13.270450062886
30
0
41
1
10
129.52283307423
20
-13.316149061355
30
0
41
1
10
129.524493209777
20
-13.3311487893485
30
0
41
1
10
129.528800694706
20
-13.3525397666482
30
0
41
1
10
129.53053112703
20
-13.3594094946838
30
0
41
1
10
129.53487591584
20
-13.3723716083384
30
0
41
1
10
129.53751759955
20
-13.3785400595508
30
0
41
1
10
129.544135407032
20
-13.3891873548664
30
0
41
1
10
129.548160280846
20
-13.3937178346547
30
0
41
1
10
129.557970832039
20
-13.3993434501822
30
0
41
1
10
129.563796586258
20
-13.4002822552637
30
0
41
1
10
129.576048721416
20
-13.397708888386
30
0
41
1
10
129.582429655099
20
-13.3942878530468
30
0
41
1
10
129.594489804997
20
-13.3851889123082
30
0
41
1
10
129.600109447799
20
-13.3796698412631
30
0
41
1
10
129.6055
20
-13.3736110174262
30
0
0
SPLINE
5
170
100
AcDbEntity
8
1
62
256
6
ByLayer
370
18
48
1
60
0
100
AcDbSpline
70
4
71
3
72
8
73
4
40
0
40
0
40
0
40
0
40
1
40
1
40
1
40
1
41
1
10
129.6055
20
-13.3736110174262
30
0
41
1
10
129.822529300301
20
-13.1296763983235
30
0
41
1
10
130.037366545293
20
-12.883198303251
30
0
41
1
10
130.2495
20
-12.6335829581346
30
0
0
SPLINE
5
171
100
AcDbEntity
8
1
62
256
6
ByLayer
370
18
48
1
60
0
100
AcDbSpline
70
4
71
3
72
18
73
14
40
0
40
0
40
0
40
0
40
0.250000000000035
40
0.250000000000035
40
0.50000000000007
40
0.50000000000007
40
0.625000000000052
40
0.625000000000052
40
0.750000000000035
40
0.750000000000035
40
0.875000000000018
40
0.875000000000018
40
1
40
1
40
1
40
1
41
1
10
130.3245
20
-12.7421428531872
30
0
41
1
10
130.3245
20
-12.7245176993837
30
0
41
1
10
130.32391229198
20
-12.7071717485021
30
0
41
1
10
130.32075290832
20
-12.6734413846415
30
0
41
1
10
130.31823321225
20
-12.6567428508803
30
0
41
1
10
130.311139893004
20
-12.634546609467
30
0
41
1
10
130.30817714617
20
-12.6275421986268
30
0
41
1
10
130.300230880857
20
-12.6160961548197
30
0
41
1
10
130.295135545578
20
-12.6116545852141
30
0
41
1
10
130.282451033099
20
-12.6091667968879
30
0
41
1
10
130.275264485858
20
-12.6114358989541
30
0
41
1
10
130.261672465469
20
-12.6203894104483
30
0
41
1
10
130.255362671196
20
-12.6266844107276
30
0
41
1
10
130.2495
20
-12.6335829581346
30
0
0
SPLINE
5
172
100
AcDbEntity
8
1
62
256
6
ByLayer
370
18
48
1
60
0
100
AcDbSpline
70
4
71
3
72
12
73
8
40
0
40
0
40
0
40
0
40
0.500000000000013
40
0.500000000000013
40
0.750000000000007
40
0.750000000000007
40
1
40
1
40
1
40
1
41
1
10
130.2495
20
-13.6144050421733
30
0
41
1
10
130.27125461873
20
-13.5414192630684
30
0
41
1
10
130.288718680672
20
-13.4683926299575
30
0
41
1
10
130.308511489959
20
-13.3587664318824
30
0
41
1
10
130.313971523825
20
-13.3223883770077
30
0
41
1
10
130.321917021225
20
-13.2505240515011
30
0
41
1
10
130.3245
20
-13.2149528282925
30
0
41
1
10
130.3245
20
-13.1800854813313
30
0
0
SPLINE
5
173
100
AcDbEntity
8
1
62
256
6
ByLayer
370
18
48
1
60
0
100
AcDbSpline
70
4
71
3
72
8
73
4
40
0
40
0
40
0
40
0
40
1
40
1
40
1
40
1
41
1
10
130.2495
20
-13.6144050421733
30
0
41
1
10
130.052909503293
20
-14.273957422509
30
0
41
1
10
129.837557523584
20
-14.925268829173
30
0
41
1
10
129.6055
20
-15.5692423325785
30
0
0
SPLINE
5
174
100
AcDbEntity
8
1
62
256
6
ByLayer
370
18
48
1
60
0
100
AcDbSpline
70
4
71
3
72
26
73
22
40
0
40
0
40
0
40
0
40
0.250000000000018
40
0.250000000000018
40
0.500000000000037
40
0.500000000000037
40
0.625000000000047
40
0.625000000000047
40
0.687500000000048
40
0.687500000000048
40
0.750000000000049
40
0.750000000000049
40
0.81250000000005
40
0.81250000000005
40
0.843750000000046
40
0.843750000000046
40
0.875000000000042
40
0.875000000000042
40
0.937500000000021
40
0.937500000000021
40
1
40
1
40
1
40
1
41
1
10
129.6055
20
-15.5692423325785
30
0
41
1
10
129.587643156855
20
-15.6187961400232
30
0
41
1
10
129.572015153518
20
-15.6685126312754
30
0
41
1
10
129.545768365898
20
-15.7666601579881
30
0
41
1
10
129.534984812796
20
-15.8153022796541
30
0
41
1
10
129.524406680009
20
-15.8872728105716
30
0
41
1
10
129.521852859371
20
-15.911043650543
30
0
41
1
10
129.520418804176
20
-15.9452806611476
30
0
41
1
10
129.520340103259
20
-15.9564850710971
30
0
41
1
10
129.521316572032
20
-15.9783092712763
30
0
41
1
10
129.522379144929
20
-15.9889959860532
30
0
41
1
10
129.526211670088
20
-16.00878926678
30
0
41
1
10
129.528987116134
20
-16.0180751916217
30
0
41
1
10
129.535310298849
20
-16.0297189979099
30
0
41
1
10
129.537755477579
20
-16.0331628737239
30
0
41
1
10
129.543557893523
20
-16.0388720525554
30
0
41
1
10
129.546935275676
20
-16.0411137199878
30
0
41
1
10
129.558257275307
20
-16.0451424463261
30
0
41
1
10
129.567713171199
20
-16.0439723663318
30
0
41
1
10
129.586740793639
20
-16.0351534278306
30
0
41
1
10
129.596375598404
20
-16.0278428099313
30
0
41
1
10
129.6055
20
-16.0193324895505
30
0
0
SPLINE
5
175
100
AcDbEntity
8
1
62
256
6
ByLayer
370
18
48
1
60
0
100
AcDbSpline
70
4
71
3
72
8
73
4
40
0
40
0
40
0
40
0
40
1
40
1
40
1
40
1
41
1
10
129.6055
20
-16.019332489549
30
0
41
1
10
129.820739969169
20
-15.8185783823277
30
0
41
1
10
130.035436607666
20
-15.6170527580398
30
0
41
1
10
130.2495
20
-15.414627938756
30
0
0
SPLINE
5
176
100
AcDbEntity
8
1
62
256
6
ByLayer
370
18
48
1
60
0
100
AcDbSpline
70
4
71
3
72
20
73
16
40
0
40
0
40
0
40
0
40
0.249999999999985
40
0.249999999999985
40
0.374999999999988
40
0.374999999999988
40
0.49999999999999
40
0.49999999999999
40
0.624999999999992
40
0.624999999999992
40
0.749999999999995
40
0.749999999999995
40
0.874999999999998
40
0.874999999999998
40
1
40
1
40
1
40
1
41
1
10
130.32450000001
20
-15.4758747057859
30
0
41
1
10
130.324500000011
20
-15.4622480685126
30
0
41
1
10
130.323720006666
20
-15.4489518311855
30
0
41
1
10
130.32056082149
20
-15.430554540748
30
0
41
1
10
130.319177438201
20
-15.4247046537612
30
0
41
1
10
130.315460180535
20
-15.4138219207666
30
0
41
1
10
130.313094294282
20
-15.4087403605803
30
0
41
1
10
130.307107301193
20
-15.4003169334067
30
0
41
1
10
130.30339385025
20
-15.3968847392201
30
0
41
1
10
130.294518318095
20
-15.3929059165864
30
0
41
1
10
130.289273781814
20
-15.3923980908059
30
0
41
1
10
130.278148020212
20
-15.3946418601523
30
0
41
1
10
130.272240259158
20
-15.3973541368365
30
0
41
1
10
130.26073610745
20
-15.4047199434935
30
0
41
1
10
130.254995241478
20
-15.40943147218
30
0
41
1
10
130.2495
20
-15.4146279387548
30
0
0
SPLINE
5
177
100
AcDbEntity
8
1
62
256
6
ByLayer
370
18
48
1
60
0
100
AcDbSpline
70
4
71
3
72
12
73
8
40
0
40
0
40
0
40
0
40
0.50000000000003
40
0.50000000000003
40
0.750000000000015
40
0.750000000000015
40
1
40
1
40
1
40
1
41
1
10
130.2495
20
-16.0912167009136
30
0
41
1
10
130.270749376286
20
-16.0375053187212
30
0
41
1
10
130.288114006892
20
-15.9840923527971
30
0
41
1
10
130.308033340519
20
-15.904418636449
30
0
41
1
10
130.313647104952
20
-15.8778062422475
30
0
41
1
10
130.321857566802
20
-15.825404233073
30
0
41
1
10
130.3245
20
-15.799843273403
30
0
41
1
10
130.3245
20
-15.775463961686
30
0
0
SPLINE
5
178
100
AcDbEntity
8
1
62
256
6
ByLayer
370
18
48
1
60
0
100
AcDbSpline
70
4
71
3
72
8
73
4
40
0
40
0
40
0
40
0
40
1
40
1
40
1
40
1
41
1
10
130.2495
20
-16.0912167009136
30
0
41
1
10
130.044943589855
20
-16.6082675252432
30
0
41
1
10
129.829910422179
20
-17.1194546037458
30
0
41
1
10
129.6055
20
-17.6253933182574
30
0
0
SPLINE
5
179
100
AcDbEntity
8
1
62
256
6
ByLayer
370
18
48
1
60
0
100
AcDbSpline
70
4
71
3
72
24
73
20
40
0
40
0
40
0
40
0
40
0.25000000000001
40
0.25000000000001
40
0.50000000000002
40
0.50000000000002
40
0.625000000000026
40
0.625000000000026
40
0.687500000000022
40
0.687500000000022
40
0.750000000000017
40
0.750000000000017
40
0.812500000000013
40
0.812500000000013
40
0.875000000000009
40
0.875000000000009
40
0.937500000000004
40
0.937500000000004
40
1
40
1
40
1
40
1
41
1
10
129.6055
20
-17.6253933182574
30
0
41
1
10
129.587105291382
20
-17.6668646329223
30
0
41
1
10
129.571091296136
20
-17.7081105915473
30
0
41
1
10
129.544085243991
20
-17.7901074712467
30
0
41
1
10
129.532951748391
20
-17.8312335257821
30
0
41
1
10
129.523038409465
20
-17.8895338130816
30
0
41
1
10
129.520831971449
20
-17.9086042462075
30
0
41
1
10
129.520383997625
20
-17.935547051479
30
0
41
1
10
129.520719822513
20
-17.944158775789
30
0
41
1
10
129.522734725193
20
-17.9603661394202
30
0
41
1
10
129.524438115292
20
-17.9680544303652
30
0
41
1
10
129.529778126137
20
-17.9813298323849
30
0
41
1
10
129.533454559674
20
-17.987003316287
30
0
41
1
10
129.543404949431
20
-17.9947235523583
30
0
41
1
10
129.549750260256
20
-17.9966617979703
30
0
41
1
10
129.564259028937
20
-17.9956830047328
30
0
41
1
10
129.572454592052
20
-17.9927821279149
30
0
41
1
10
129.588892883095
20
-17.9837225694705
30
0
41
1
10
129.59733722664
20
-17.9775187338987
30
0
41
1
10
129.6055
20
-17.97050560153
30
0
0
SPLINE
5
17A
100
AcDbEntity
8
1
62
256
6
ByLayer
370
18
48
1
60
0
100
AcDbSpline
70
4
71
3
72
8
73
4
40
0
40
0
40
0
40
0
40
1
40
1
40
1
40
1
41
1
10
129.6055
20
-17.9705056015292
30
0
41
1
10
129.820331960648
20
-17.7859304687195
30
0
41
1
10
130.035005737834
20
-17.6011103791874
30
0
41
1
10
130.2495
20
-17.4160122997165
30
0
0
SPLINE
5
17B
100
AcDbEntity
8
1
62
256
6
ByLayer
370
18
48
1
60
0
100
AcDbSpline
70
4
71
3
72
16
73
12
40
0
40
0
40
0
40
0
40
0.249999999999992
40
0.249999999999992
40
0.499999999999983
40
0.499999999999983
40
0.624999999999979
40
0.624999999999979
40
0.749999999999975
40
0.749999999999975
40
1
40
1
40
1
40
1
41
1
10
130.324500000002
20
-17.4517920695658
30
0
41
1
10
130.324500000002
20
-17.4403673839731
30
0
41
1
10
130.323574330635
20
-17.4296257544311
30
0
41
1
10
130.318509386911
20
-17.4105343684029
30
0
41
1
10
130.314345247719
20
-17.4023667097377
30
0
41
1
10
130.304383043625
20
-17.3952686195637
30
0
41
1
10
130.300413994865
20
-17.3938031093934
30
0
41
1
10
130.291511208776
20
-17.3931584348768
30
0
41
1
10
130.286527021205
20
-17.3939796046378
30
0
41
1
10
130.271023676201
20
-17.3994427929496
30
0
41
1
10
130.260027379858
20
-17.406927684706
30
0
41
1
10
130.2495
20
-17.4160122997159
30
0
0
SPLINE
5
17C
100
AcDbEntity
8
1
62
256
6
ByLayer
370
18
48
1
60
0
100
AcDbSpline
70
4
71
3
72
12
73
8
40
0
40
0
40
0
40
0
40
0.499999999999966
40
0.499999999999966
40
0.749999999999983
40
0.749999999999983
40
1
40
1
40
1
40
1
41
1
10
130.2495
20
-17.9353083296313
30
0
41
1
10
130.270400739195
20
-17.8914091058621
30
0
41
1
10
130.287982247592
20
-17.8472681461818
30
0
41
1
10
130.307957251677
20
-17.782864662175
30
0
41
1
10
130.313571379324
20
-17.7616176300328
30
0
41
1
10
130.3218661042
20
-17.7197509393174
30
0
41
1
10
130.3245
20
-17.6996254052808
30
0
41
1
10
130.3245
20
-17.6809876861899
30
0
0
SPLINE
5
17D
100
AcDbEntity
8
1
62
256
6
ByLayer
370
18
48
1
60
0
100
AcDbSpline
70
4
71
3
72
8
73
4
40
0
40
0
40
0
40
0
40
1
40
1
40
1
40
1
41
1
10
130.2495
20
-17.9353083296313
30
0
41
1
10
130.04140572646
20
-18.3723826835176
30
0
41
1
10
129.826510348702
20
-18.8049585330932
30
0
41
1
10
129.6055
20
-19.2334897125276
30
0
0
SPLINE
5
17E
100
AcDbEntity
8
1
62
256
6
ByLayer
370
18
48
1
60
0
100
AcDbSpline
70
4
71
3
72
20
73
16
40
0
40
0
40
0
40
0
40
0.249999999999966
40
0.249999999999966
40
0.499999999999931
40
0.499999999999931
40
0.624999999999922
40
0.624999999999922
40
0.749999999999913
40
0.749999999999913
40
0.812499999999933
40
0.812499999999933
40
0.874999999999952
40
0.874999999999952
40
1
40
1
40
1
40
1
41
1
10
129.6055
20
-19.2334897125276
30
0
41
1
10
129.58665178262
20
-19.2700357334336
30
0
41
1
10
129.570003929808
20
-19.3067132975129
30
0
41
1
10
129.54235401958
20
-19.3786299644914
30
0
41
1
10
129.531260620271
20
-19.4137052273499
30
0
41
1
10
129.521945970035
20
-19.463435638372
30
0
41
1
10
129.520163421698
20
-19.4791290996216
30
0
41
1
10
129.520937540741
20
-19.5076437025055
30
0
41
1
10
129.523531889678
20
-19.520413368311
30
0
41
1
10
129.533361056321
20
-19.5329477804307
30
0
41
1
10
129.53766255767
20
-19.5359341976592
30
0
41
1
10
129.548184540343
20
-19.538597526839
30
0
41
1
10
129.554395521324
20
-19.538278325242
30
0
41
1
10
129.574973031666
20
-19.5324844686063
30
0
41
1
10
129.590454765482
20
-19.5225299905646
30
0
41
1
10
129.6055
20
-19.5100772776503
30
0
0
SPLINE
5
17F
100
AcDbEntity
8
1
62
256
6
ByLayer
370
18
48
1
60
0
100
AcDbSpline
70
4
71
3
72
8
73
4
40
0
40
0
40
0
40
0
40
1
40
1
40
1
40
1
41
1
10
129.6055
20
-19.5100772776498
30
0
41
1
10
129.820203979195
20
-19.3323700434185
30
0
41
1
10
130.034872069188
20
-19.1546049768552
30
0
41
1
10
130.2495
20
-18.9767752987127
30
0
0
SPLINE
5
180
100
AcDbEntity
8
1
62
256
6
ByLayer
370
18
48
1
60
0
100
AcDbSpline
70
4
71
3
72
16
73
12
40
0
40
0
40
0
40
0
40
0.25
40
0.25
40
0.5
40
0.5
40
0.625
40
0.625
40
0.75
40
0.75
40
1
40
1
40
1
40
1
41
1
10
130.3245
20
-18.9946525728947
30
0
41
1
10
130.3245
20
-18.984793931125
30
0
41
1
10
130.323364700352
20
-18.9757224015114
30
0
41
1
10
130.317618439847
20
-18.9610733983107
30
0
41
1
10
130.312832257615
20
-18.9554349467433
30
0
41
1
10
130.302386234609
20
-18.9521189582846
30
0
41
1
10
130.298459762373
20
-18.9518627336726
30
0
41
1
10
130.289703529877
20
-18.9530805456519
30
0
41
1
10
130.284909287438
20
-18.9545789497624
30
0
41
1
10
130.270258456793
20
-18.9611060017641
30
0
41
1
10
130.25972922897
20
-18.9682998850581
30
0
41
1
10
130.2495
20
-18.9767752987124
30
0
0
SPLINE
5
181
100
AcDbEntity
8
1
62
256
6
ByLayer
370
18
48
1
60
0
100
AcDbSpline
70
4
71
3
72
12
73
8
40
0
40
0
40
0
40
0
40
0.500000000000068
40
0.500000000000068
40
0.750000000000034
40
0.750000000000034
40
1
40
1
40
1
40
1
41
1
10
130.2495
20
-19.3919878841887
30
0
41
1
10
130.27010032095
20
-19.3543386333591
30
0
41
1
10
130.287778739477
20
-19.3163913811338
30
0
41
1
10
130.307880398042
20
-19.2617098394659
30
0
41
1
10
130.313525962551
20
-19.2438253173233
30
0
41
1
10
130.321860478618
20
-19.2090213858312
30
0
41
1
10
130.3245
20
-19.1924069066609
30
0
41
1
10
130.3245
20
-19.1775976034379
30
0
0
SPLINE
5
182
100
AcDbEntity
8
1
62
256
6
ByLayer
370
18
48
1
60
0
100
AcDbSpline
70
4
71
3
72
8
73
4
40
0
40
0
40
0
40
0
40
1
40
1
40
1
40
1
41
1
10
130.2495
20
-19.3919878841887
30
0
41
1
10
130.039439331602
20
-19.7758958248992
30
0
41
1
10
129.824618246661
20
-20.1562223165521
30
0
41
1
10
129.6055
20
-20.5333158840139
30
0
0
SPLINE
5
183
100
AcDbEntity
8
1
62
256
6
ByLayer
370
18
48
1
60
0
100
AcDbSpline
70
4
71
3
72
26
73
22
40
0
40
0
40
0
40
0
40
0.124999999999995
40
0.124999999999995
40
0.24999999999999
40
0.24999999999999
40
0.374999999999985
40
0.374999999999985
40
0.49999999999998
40
0.49999999999998
40
0.624999999999975
40
0.624999999999975
40
0.687499999999981
40
0.687499999999981
40
0.749999999999988
40
0.749999999999988
40
0.812499999999994
40
0.812499999999994
40
0.875000000000001
40
0.875000000000001
40
1
40
1
40
1
40
1
41
1
10
129.6055
20
-20.5333158840139
30
0
41
1
10
129.595891848487
20
-20.5498511209733
30
0
41
1
10
129.586867923903
20
-20.5663315893323
30
0
41
1
10
129.570018960149
20
-20.5991763737715
30
0
41
1
10
129.562162348524
20
-20.6156164989991
30
0
41
1
10
129.54808217205
20
-20.6477765695351
30
0
41
1
10
129.541826548599
20
-20.663540203776
30
0
41
1
10
129.531248218515
20
-20.694288246005
30
0
41
1
10
129.526880540947
20
-20.7094347697568
30
0
41
1
10
129.521184962534
20
-20.7376553641792
30
0
41
1
10
129.519788361478
20
-20.7508866646789
30
0
41
1
10
129.521376195424
20
-20.7677676580936
30
0
41
1
10
129.522519045604
20
-20.7728014149721
30
0
41
1
10
129.526402372343
20
-20.7813297714473
30
0
41
1
10
129.529173651342
20
-20.7847936570811
30
0
41
1
10
129.536453758024
20
-20.789331006793
30
0
41
1
10
129.541055609124
20
-20.7904205302318
30
0
41
1
10
129.551571459623
20
-20.7899479027122
30
0
41
1
10
129.557659690864
20
-20.7883850305745
30
0
41
1
10
129.576989835237
20
-20.7803707613262
30
0
41
1
10
129.591355988742
20
-20.7707017605909
30
0
41
1
10
129.6055
20
-20.7591455874819
30
0
0
SPLINE
5
184
100
AcDbEntity
8
1
62
256
6
ByLayer
370
18
48
1
60
0
100
AcDbSpline
70
4
71
3
72
8
73
4
40
0
40
0
40
0
40
0
40
1
40
1
40
1
40
1
41
1
10
129.6055
20
-20.7591455874816
30
0
41
1
10
129.820168300833
20
-20.5837537555398
30
0
41
1
10
130.034835023948
20
-20.4083593488628
30
0
41
1
10
130.2495
20
-20.2329620912908
30
0
0
SPLINE
5
185
100
AcDbEntity
8
1
62
256
6
ByLayer
370
18
48
1
60
0
100
AcDbSpline
70
4
71
3
72
14
73
10
40
0
40
0
40
0
40
0
40
0.25
40
0.25
40
0.5
40
0.5
40
0.75
40
0.75
40
1
40
1
40
1
40
1
41
1
10
130.3245
20
-20.2365834598287
30
0
41
1
10
130.3245
20
-20.2280574715485
30
0
41
1
10
130.323226579452
20
-20.2206332405458
30
0
41
1
10
130.31687672309
20
-20.2094874469187
30
0
41
1
10
130.311677177387
20
-20.2060071462588
30
0
41
1
10
130.297631713328
20
-20.2051536604223
30
0
41
1
10
130.28871910896
20
-20.2077937103421
30
0
41
1
10
130.269715629015
20
-20.2176282876361
30
0
41
1
10
130.259536321132
20
-20.2247616701736
30
0
41
1
10
130.2495
20
-20.2329620912906
30
0
0
SPLINE
5
186
100
AcDbEntity
8
1
62
256
6
ByLayer
370
18
48
1
60
0
100
AcDbSpline
70
4
71
3
72
14
73
10
40
0
40
0
40
0
40
0
40
0.25
40
0.25
40
0.5
40
0.5
40
0.75
40
0.75
40
1
40
1
40
1
40
1
41
1
10
130.2495
20
-20.5703702247133
30
0
41
1
10
130.259689218242
20
-20.5537244060086
30
0
41
1
10
130.269141071217
20
-20.5371479955474
30
0
41
1
10
130.286488561992
20
-20.5041362228495
30
0
41
1
10
130.294346422854
20
-20.4877581462692
30
0
41
1
10
130.307827214093
20
-20.4560122948548
30
0
41
1
10
130.313524884287
20
-20.4405314920263
30
0
41
1
10
130.321919534254
20
-20.4107737469565
30
0
41
1
10
130.3245
20
-20.3970256839111
30
0
41
1
10
130.3245
20
-20.3850933995448
30
0
0
SPLINE
5
187
100
AcDbEntity
8
1
62
256
6
ByLayer
370
18
48
1
60
0
100
AcDbSpline
70
4
71
3
72
8
73
4
40
0
40
0
40
0
40
0
40
1
40
1
40
1
40
1
41
1
10
130.2495
20
-20.5703702247133
30
0
41
1
10
130.038207131738
20
-20.91555301452
30
0
41
1
10
129.823431123556
20
-21.2578238253877
30
0
41
1
10
129.6055
20
-21.5974568928041
30
0
0
SPLINE
5
188
100
AcDbEntity
8
1
62
256
6
ByLayer
370
18
48
1
60
0
100
AcDbSpline
70
4
71
3
72
24
73
20
40
0
40
0
40
0
40
0
40
0.250000000000095
40
0.250000000000095
40
0.375000000000108
40
0.375000000000108
40
0.500000000000121
40
0.500000000000121
40
0.625000000000134
40
0.625000000000134
40
0.750000000000147
40
0.750000000000147
40
0.81250000000011
40
0.81250000000011
40
0.875000000000073
40
0.875000000000073
40
0.937500000000037
40
0.937500000000037
40
1
40
1
40
1
40
1
41
1
10
129.6055
20
-21.5974568928041
30
0
41
1
10
129.585930635048
20
-21.627954617671
30
0
41
1
10
129.568404377661
20
-21.6584924379041
30
0
41
1
10
129.546981041172
20
-21.7021612457542
30
0
41
1
10
129.540636798332
20
-21.7163852039587
30
0
41
1
10
129.530004961665
20
-21.7439749121277
30
0
41
1
10
129.525755068741
20
-21.7572748958537
30
0
41
1
10
129.520602301041
20
-21.7813697613153
30
0
41
1
10
129.519658004616
20
-21.7924512939753
30
0
41
1
10
129.523058586786
20
-21.8094781184495
30
0
41
1
10
129.527571821705
20
-21.8154965617001
30
0
41
1
10
129.53929320376
20
-21.8179133314042
30
0
41
1
10
129.543873715488
20
-21.817642095108
30
0
41
1
10
129.55432599517
20
-21.8150413247482
30
0
41
1
10
129.56020425055
20
-21.8126777169457
30
0
41
1
10
129.572428193163
20
-21.8063867311992
30
0
41
1
10
129.578926831088
20
-21.8023930464153
30
0
41
1
10
129.592111319828
20
-21.7932881819859
30
0
41
1
10
129.598776586911
20
-21.7882045166475
30
0
41
1
10
129.6055
20
-21.7826993267328
30
0
0
SPLINE
5
189
100
AcDbEntity
8
1
62
256
6
ByLayer
370
18
48
1
60
0
100
AcDbSpline
70
4
71
3
72
8
73
4
40
0
40
0
40
0
40
0
40
1
40
1
40
1
40
1
41
1
10
129.6055
20
-21.7826993267326
30
0
41
1
10
129.820173237194
20
-21.6069229874504
30
0
41
1
10
130.034840117021
20
-21.4311362953957
30
0
41
1
10
130.2495
20
-21.255338212375
30
0
0
SPLINE
5
18A
100
AcDbEntity
8
1
62
256
6
ByLayer
370
18
48
1
60
0
100
AcDbSpline
70
4
71
3
72
14
73
10
40
0
40
0
40
0
40
0
40
0.25
40
0.25
40
0.5
40
0.5
40
0.75
40
0.75
40
1
40
1
40
1
40
1
41
1
10
130.3245
20
-21.2467427634162
30
0
41
1
10
130.3245
20
-21.2394710002288
30
0
41
1
10
130.323050552609
20
-21.2333911075695
30
0
41
1
10
130.316255949266
20
-21.2254590605736
30
0
41
1
10
130.31080187969
20
-21.2237332697389
30
0
41
1
10
130.296702547042
20
-21.225613605279
30
0
41
1
10
130.287942439373
20
-21.2292077635721
30
0
41
1
10
130.269327473126
20
-21.2400317807445
30
0
41
1
10
130.259405815922
20
-21.2472257349727
30
0
41
1
10
130.2495
20
-21.2553382123749
30
0
0
SPLINE
5
18B
100
AcDbEntity
8
1
62
256
6
ByLayer
370
18
48
1
60
0
100
AcDbSpline
70
4
71
3
72
14
73
10
40
0
40
0
40
0
40
0
40
0.25
40
0.25
40
0.5
40
0.5
40
0.75
40
0.75
40
1
40
1
40
1
40
1
41
1
10
130.2495
20
-21.530079933583
30
0
41
1
10
130.259575518723
20
-21.5151033727451
30
0
41
1
10
130.26893994717
20
-21.5002821377311
30
0
41
1
10
130.286161317257
20
-21.4709631921384
30
0
41
1
10
130.294078365003
20
-21.4563504489579
30
0
41
1
10
130.307745770548
20
-21.4280858342373
30
0
41
1
10
130.313467963412
20
-21.4145414908671
30
0
41
1
10
130.321870739995
20
-21.3890624272171
30
0
41
1
10
130.324500000008
20
-21.3772185365105
30
0
41
1
10
130.324500000009
20
-21.3675876053921
30
0
0
SPLINE
5
18C
100
AcDbEntity
8
1
62
256
6
ByLayer
370
18
48
1
60
0
100
AcDbSpline
70
4
71
3
72
8
73
4
40
0
40
0
40
0
40
0
40
1
40
1
40
1
40
1
41
1
10
130.2495
20
-21.530079933583
30
0
41
1
10
130.037374649206
20
-21.845389577551
30
0
41
1
10
129.822628100131
20
-22.1583021627902
30
0
41
1
10
129.6055
20
-22.4690368442115
30
0
0
SPLINE
5
18D
100
AcDbEntity
8
1
62
256
6
ByLayer
370
18
48
1
60
0
100
AcDbSpline
70
4
71
3
72
22
73
18
40
0
40
0
40
0
40
0
40
0.24999999999996
40
0.24999999999996
40
0.499999999999921
40
0.499999999999921
40
0.624999999999913
40
0.624999999999913
40
0.687499999999926
40
0.687499999999926
40
0.749999999999939
40
0.749999999999939
40
0.874999999999965
40
0.874999999999965
40
0.937499999999983
40
0.937499999999983
40
1
40
1
40
1
40
1
41
1
10
129.6055
20
-22.4690368442115
30
0
41
1
10
129.585591553727
20
-22.4975280653221
30
0
41
1
10
129.56769567603
20
-22.52586355086
30
0
41
1
10
129.53866727079
20
-22.5791828628332
30
0
41
1
10
129.527054952205
20
-22.6049237622154
30
0
41
1
10
129.520158147362
20
-22.6357460390406
30
0
41
1
10
129.519699948155
20
-22.6445659272814
30
0
41
1
10
129.523212287993
20
-22.6538000958583
30
0
41
1
10
129.525072332122
20
-22.6561404219928
30
0
41
1
10
129.53027554466
20
-22.6590961389691
30
0
41
1
10
129.533673850252
20
-22.6596962012999
30
0
41
1
10
129.545626844133
20
-22.6587096977065
30
0
41
1
10
129.556327295088
20
-22.6542651322379
30
0
41
1
10
129.573923678963
20
-22.6437607679609
30
0
41
1
10
129.580143203835
20
-22.6395811173997
30
0
41
1
10
129.592686016534
20
-22.630425455486
30
0
41
1
10
129.599053312079
20
-22.6254275627389
30
0
41
1
10
129.6055
20
-22.6200829661947
30
0
0
SPLINE
5
18E
100
AcDbEntity
8
1
62
256
6
ByLayer
370
18
48
1
60
0
100
AcDbSpline
70
4
71
3
72
8
73
4
40
0
40
0
40
0
40
0
40
1
40
1
40
1
40
1
41
1
10
129.6055
20
-22.6200829661946
30
0
41
1
10
129.820200946825
20
-22.4420861479081
30
0
41
1
10
130.034868684835
20
-22.2640359061466
30
0
41
1
10
130.2495
20
-22.085927154319
30
0
0
SPLINE
5
18F
100
AcDbEntity
8
1
62
256
6
ByLayer
370
18
48
1
60
0
100
AcDbSpline
70
4
71
3
72
14
73
10
40
0
40
0
40
0
40
0
40
0.25
40
0.25
40
0.5
40
0.5
40
0.75
40
0.75
40
1
40
1
40
1
40
1
41
1
10
130.3245
20
-22.0663360248446
30
0
41
1
10
130.3245
20
-22.0602063448816
30
0
41
1
10
130.322879088429
20
-22.0554417118856
30
0
41
1
10
130.315723768599
20
-22.050394459048
30
0
41
1
10
130.31012433525
20
-22.0501458087765
30
0
41
1
10
130.2959401497
20
-22.0543147310199
30
0
41
1
10
130.287363709046
20
-22.0586844662362
30
0
41
1
10
130.269011155193
20
-22.0704653043413
30
0
41
1
10
130.259309512901
20
-22.0777868692096
30
0
41
1
10
130.2495
20
-22.0859271543189
30
0
0
SPLINE
5
190
100
AcDbEntity
8
1
62
256
6
ByLayer
370
18
48
1
60
0
100
AcDbSpline
70
4
71
3
72
12
73
8
40
0
40
0
40
0
40
0
40
0.500000000000081
40
0.500000000000081
40
0.750000000000041
40
0.750000000000041
40
1
40
1
40
1
40
1
41
1
10
130.2495
20
-22.3075317791604
30
0
41
1
10
130.269569104578
20
-22.2800446718394
30
0
41
1
10
130.287037981678
20
-22.2533892277971
30
0
41
1
10
130.307741596853
20
-22.2153783121061
30
0
41
1
10
130.313491339926
20
-22.2034216639816
30
0
41
1
10
130.321898093649
20
-22.1814239866426
30
0
41
1
10
130.324500000003
20
-22.1714323312696
30
0
41
1
10
130.324500000003
20
-22.1637626739604
30
0
0
SPLINE
5
191
100
AcDbEntity
8
1
62
256
6
ByLayer
370
18
48
1
60
0
100
AcDbSpline
70
4
71
3
72
8
73
4
40
0
40
0
40
0
40
0
40
1
40
1
40
1
40
1
41
1
10
130.2495
20
-22.3075317791604
30
0
41
1
10
130.0367823196
20
-22.5988748078191
30
0
41
1
10
129.822056039247
20
-22.8882313992869
30
0
41
1
10
129.6055
20
-23.1757784213042
30
0
0
SPLINE
5
192
100
AcDbEntity
8
1
62
256
6
ByLayer
370
18
48
1
60
0
100
AcDbSpline
70
4
71
3
72
22
73
18
40
0
40
0
40
0
40
0
40
0.250000000000094
40
0.250000000000094
40
0.375000000000101
40
0.375000000000101
40
0.500000000000107
40
0.500000000000107
40
0.625000000000113
40
0.625000000000113
40
0.750000000000119
40
0.750000000000119
40
0.812500000000121
40
0.812500000000121
40
0.875000000000123
40
0.875000000000123
40
1
40
1
40
1
40
1
41
1
10
129.6055
20
-23.1757784213042
30
0
41
1
10
129.585273555258
20
-23.2026354601183
30
0
41
1
10
129.566956451892
20
-23.2292229400242
30
0
41
1
10
129.544833531636
20
-23.2660678844065
30
0
41
1
10
129.538266574183
20
-23.2779981266209
30
0
41
1
10
129.527742828944
20
-23.3000981082553
30
0
41
1
10
129.523823971669
20
-23.3101313539303
30
0
41
1
10
129.519863891674
20
-23.3272662268364
30
0
41
1
10
129.519984207007
20
-23.3340533284695
30
0
41
1
10
129.525780981226
20
-23.3417522150087
30
0
41
1
10
129.531601008418
20
-23.3425395578433
30
0
41
1
10
129.54372645532
20
-23.3388915542783
30
0
41
1
10
129.548412658276
20
-23.3368666430987
30
0
41
1
10
129.558472329125
20
-23.3315512620657
30
0
41
1
10
129.563846554174
20
-23.3282779831857
30
0
41
1
10
129.580853219547
20
-23.3168828358452
30
0
41
1
10
129.593068792019
20
-23.3073886497742
30
0
41
1
10
129.6055
20
-23.2968754376165
30
0
0
SPLINE
5
193
100
AcDbEntity
8
1
62
256
6
ByLayer
370
18
48
1
60
0
100
AcDbSpline
70
4
71
3
72
8
73
4
40
0
40
0
40
0
40
0
40
1
40
1
40
1
40
1
41
1
10
129.6055
20
-23.2968754376164
30
0
41
1
10
129.820244754008
20
-23.11526338816
30
0
41
1
10
130.034913814811
20
-22.9335319303368
30
0
41
1
10
130.2495
20
-22.7516701480928
30
0
0
SPLINE
5
194
100
AcDbEntity
8
1
62
256
6
ByLayer
370
18
48
1
60
0
100
AcDbSpline
70
4
71
3
72
14
73
10
40
0
40
0
40
0
40
0
40
0.25
40
0.25
40
0.5
40
0.5
40
0.75
40
0.75
40
1
40
1
40
1
40
1
41
1
10
130.3245
20
-22.7218227111436
30
0
41
1
10
130.3245
20
-22.7167636827918
30
0
41
1
10
130.322749381051
20
-22.7133264469951
30
0
41
1
10
130.315245830478
20
-22.7108983856197
30
0
41
1
10
130.309604124007
20
-22.7119307814348
30
0
41
1
10
130.295315870072
20
-22.7181361744954
30
0
41
1
10
130.286939122699
20
-22.7231633913709
30
0
41
1
10
130.268758907568
20
-22.7359097762676
30
0
41
1
10
130.259245573468
20
-22.7434107750192
30
0
41
1
10
130.2495
20
-22.7516701480928
30
0
0
SPLINE
5
195
100
AcDbEntity
8
1
62
256
6
ByLayer
370
18
48
1
60
0
100
AcDbSpline
70
4
71
3
72
14
73
10
40
0
40
0
40
0
40
0
40
0.25
40
0.25
40
0.5
40
0.5
40
0.75
40
0.75
40
1
40
1
40
1
40
1
41
1
10
130.2495
20
-22.9264544727241
30
0
41
1
10
130.25944527166
20
-22.9137839384981
30
0
41
1
10
130.268857873782
20
-22.9012296925005
30
0
41
1
10
130.286063126254
20
-22.8769739480124
30
0
41
1
10
130.293918864435
20
-22.865200408821
30
0
41
1
10
130.307730134247
20
-22.8425488566719
30
0
41
1
10
130.313549981919
20
-22.8318834523871
30
0
41
1
10
130.321938888577
20
-22.8129323227158
30
0
41
1
10
130.324500000001
20
-22.8045938255256
30
0
41
1
10
130.324500000001
20
-22.7986396737449
30
0
0
SPLINE
5
196
100
AcDbEntity
8
1
62
256
6
ByLayer
370
18
48
1
60
0
100
AcDbSpline
70
4
71
3
72
8
73
4
40
0
40
0
40
0
40
0
40
1
40
1
40
1
40
1
41
1
10
130.2495
20
-22.9264544727241
30
0
41
1
10
130.036344592726
20
-23.1980199940686
30
0
41
1
10
129.821632798019
20
-23.46793539229
30
0
41
1
10
129.6055
20
-23.7363442052146
30
0
0
SPLINE
5
197
100
AcDbEntity
8
1
62
256
6
ByLayer
370
18
48
1
60
0
100
AcDbSpline
70
4
71
3
72
24
73
20
40
0
40
0
40
0
40
0
40
0.24999999999995
40
0.24999999999995
40
0.37499999999996
40
0.37499999999996
40
0.499999999999971
40
0.499999999999971
40
0.624999999999981
40
0.624999999999981
40
0.687499999999986
40
0.687499999999986
40
0.749999999999991
40
0.749999999999991
40
0.812499999999996
40
0.812499999999996
40
0.875000000000001
40
0.875000000000001
40
1
40
1
40
1
40
1
41
1
10
129.6055
20
-23.7363442052146
30
0
41
1
10
129.584933659893
20
-23.7618849236291
30
0
41
1
10
129.566264229825
20
-23.7868862910127
30
0
41
1
10
129.543766769786
20
-23.8209469214415
30
0
41
1
10
129.537092163987
20
-23.8318990550104
30
0
41
1
10
129.526746101153
20
-23.8513838063827
30
0
41
1
10
129.522951087146
20
-23.8601468439844
30
0
41
1
10
129.519744344447
20
-23.873714941244
30
0
41
1
10
129.520396419323
20
-23.8785001258787
30
0
41
1
10
129.525477759379
20
-23.8812221123845
30
0
41
1
10
129.527888375931
20
-23.8813989058138
30
0
41
1
10
129.533838386635
20
-23.8802752371658
30
0
41
1
10
129.537384868344
20
-23.8789999511004
30
0
41
1
10
129.545559270928
20
-23.8751024509132
30
0
41
1
10
129.550188285926
20
-23.8724678743436
30
0
41
1
10
129.559992242756
20
-23.866232942027
30
0
41
1
10
129.565218656667
20
-23.8626093330226
30
0
41
1
10
129.581754020229
20
-23.8504066896325
30
0
41
1
10
129.593447968638
20
-23.84085839684
30
0
41
1
10
129.6055
20
-23.8304003628101
30
0
0
SPLINE
5
198
100
AcDbEntity
8
1
62
256
6
ByLayer
370
18
48
1
60
0
100
AcDbSpline
70
4
71
3
72
8
73
4
40
0
40
0
40
0
40
0
40
1
40
1
40
1
40
1
41
1
10
129.6055
20
-23.8304003628101
30
0
41
1
10
129.820302546545
20
-23.6440075237985
30
0
41
1
10
130.034973355329
20
-23.4574120577276
30
0
41
1
10
130.2495
20
-23.2705960321683
30
0
0
SPLINE
5
199
100
AcDbEntity
8
1
62
256
6
ByLayer
370
18
48
1
60
0
100
AcDbSpline
70
4
71
3
72
14
73
10
40
0
40
0
40
0
40
0
40
0.25
40
0.25
40
0.5
40
0.5
40
0.75
40
0.75
40
1
40
1
40
1
40
1
41
1
10
130.3245
20
-23.2309126238238
30
0
41
1
10
130.3245
20
-23.2269178971008
30
0
41
1
10
130.322626132983
20
-23.2247594643015
30
0
41
1
10
130.314843542028
20
-23.2248115931792
30
0
41
1
10
130.309162894578
20
-23.226981040974
30
0
41
1
10
130.294854222523
20
-23.2350325359301
30
0
41
1
10
130.286589612437
20
-23.2407014516844
30
0
41
1
10
130.26861271811
20
-23.254375599661
30
0
41
1
10
130.259209704467
20
-23.2621405398416
30
0
41
1
10
130.2495
20
-23.2705960321683
30
0
0
SPLINE
5
19A
100
AcDbEntity
8
1
62
256
6
ByLayer
370
18
48
1
60
0
100
AcDbSpline
70
4
71
3
72
12
73
8
40
0
40
0
40
0
40
0
40
0.500000000000004
40
0.500000000000004
40
0.750000000000002
40
0.750000000000002
40
1
40
1
40
1
40
1
41
1
10
130.2495
20
-23.4028498781753
30
0
41
1
10
130.269213771312
20
-23.3793119136173
30
0
41
1
10
130.287076122895
20
-23.3563670284796
30
0
41
1
10
130.307711737403
20
-23.3260475722175
30
0
41
1
10
130.313626340585
20
-23.3165008078665
30
0
41
1
10
130.322002481336
20
-23.3002470594535
30
0
41
1
10
130.3245
20
-23.2934404944561
30
0
41
1
10
130.3245
20
-23.2890240128755
30
0
0
SPLINE
5
19B
100
AcDbEntity
8
1
62
256
6
ByLayer
370
18
48
1
60
0
100
AcDbSpline
70
4
71
3
72
8
73
4
40
0
40
0
40
0
40
0
40
1
40
1
40
1
40
1
41
1
10
130.2495
20
-23.4028498781753
30
0
41
1
10
130.036011628907
20
-23.6577519784765
30
0
41
1
10
129.821310496289
20
-23.9112851613349
30
0
41
1
10
129.6055
20
-24.1635661381751
30
0
0
SPLINE
5
19C
100
AcDbEntity
8
1
62
256
6
ByLayer
370
18
48
1
60
0
100
AcDbSpline
70
4
71
3
72
22
73
18
40
0
40
0
40
0
40
0
40
0.250000000000041
40
0.250000000000041
40
0.375000000000069
40
0.375000000000069
40
0.500000000000097
40
0.500000000000097
40
0.625000000000125
40
0.625000000000125
40
0.687500000000136
40
0.687500000000136
40
0.750000000000147
40
0.750000000000147
40
0.875000000000073
40
0.875000000000073
40
1
40
1
40
1
40
1
41
1
10
129.6055
20
-24.1635661381751
30
0
41
1
10
129.584618002419
20
-24.1879770488517
30
0
41
1
10
129.565507179618
20
-24.2117045234637
30
0
41
1
10
129.542689990122
20
-24.2431162129388
30
0
41
1
10
129.5359677808
20
-24.2530413976178
30
0
41
1
10
129.525788698556
20
-24.2700761212655
30
0
41
1
10
129.522209442212
20
-24.2774045374631
30
0
41
1
10
129.519750506565
20
-24.2875719003495
30
0
41
1
10
129.520917187491
20
-24.290403795087
30
0
41
1
10
129.526613240173
20
-24.2903641595357
30
0
41
1
10
129.529188583589
20
-24.2896418406777
30
0
41
1
10
129.535367825738
20
-24.2869190401382
30
0
41
1
10
129.53899628437
20
-24.2849212703509
30
0
41
1
10
129.551354752463
20
-24.2771657902722
30
0
41
1
10
129.561088840106
20
-24.2699596696235
30
0
41
1
10
129.58248539173
20
-24.2527621693601
30
0
41
1
10
129.593773139625
20
-24.2430755822269
30
0
41
1
10
129.6055
20
-24.232584456276
30
0
0
SPLINE
5
19D
100
AcDbEntity
8
1
62
256
6
ByLayer
370
18
48
1
60
0
100
AcDbSpline
70
4
71
3
72
8
73
4
40
0
40
0
40
0
40
0
40
1
40
1
40
1
40
1
41
1
10
129.6055
20
-24.232584456276
30
0
41
1
10
129.820374683942
20
-24.0403524947096
30
0
41
1
10
130.035047370323
20
-23.8478202535533
30
0
41
1
10
130.2495
20
-23.6549608869781
30
0
0
SPLINE
5
19E
100
AcDbEntity
8
1
62
256
6
ByLayer
370
18
48
1
60
0
100
AcDbSpline
70
4
71
3
72
14
73
10
40
0
40
0
40
0
40
0
40
0.25
40
0.25
40
0.5
40
0.5
40
0.75
40
0.75
40
1
40
1
40
1
40
1
41
1
10
130.3245
20
-23.6056268367876
30
0
41
1
10
130.3245
20
-23.6027236160964
30
0
41
1
10
130.322517994515
20
-23.6018009379686
30
0
41
1
10
130.314553010295
20
-23.6042057169859
30
0
41
1
10
130.308714308758
20
-23.6074938193305
30
0
41
1
10
130.294527150197
20
-23.6172106493222
30
0
41
1
10
130.286278550288
20
-23.6235597234354
30
0
41
1
10
130.268517881695
20
-23.6381579323393
30
0
41
1
10
130.259182938242
20
-23.646252925044
30
0
41
1
10
130.2495
20
-23.6549608869781
30
0
0
SPLINE
5
19F
100
AcDbEntity
8
1
62
256
6
ByLayer
370
18
48
1
60
0
100
AcDbSpline
70
4
71
3
72
12
73
8
40
0
40
0
40
0
40
0
40
0.499999999999905
40
0.499999999999905
40
0.749999999999953
40
0.749999999999953
40
1
40
1
40
1
40
1
41
1
10
130.2495
20
-23.747586439717
30
0
41
1
10
130.269096039341
20
-23.7255245029814
30
0
41
1
10
130.287055571439
20
-23.7041980616753
30
0
41
1
10
130.307771252659
20
-23.6769230565227
30
0
41
1
10
130.313708424421
20
-23.6685026888432
30
0
41
1
10
130.322055283879
20
-23.6547549787377
30
0
41
1
10
130.3245
20
-23.6493424979474
30
0
41
1
10
130.3245
20
-23.6463193271823
30
0
0
SPLINE
5
1A0
100
AcDbEntity
8
1
62
256
6
ByLayer
370
18
48
1
60
0
100
AcDbSpline
70
4
71
3
72
8
73
4
40
0
40
0
40
0
40
0
40
1
40
1
40
1
40
1
41
1
10
130.2495
20
-23.747586439717
30
0
41
1
10
130.03575253422
20
-23.9882311427328
30
0
41
1
10
129.821059437748
20
-24.2277459581948
30
0
41
1
10
129.6055
20
-24.4662256251216
30
0
0
SPLINE
5
1A1
100
AcDbEntity
8
1
62
256
6
ByLayer
370
18
48
1
60
0
100
AcDbSpline
70
4
71
3
72
20
73
16
40
0
40
0
40
0
40
0
40
0.25000000000007
40
0.25000000000007
40
0.375000000000059
40
0.375000000000059
40
0.500000000000047
40
0.500000000000047
40
0.625000000000035
40
0.625000000000035
40
0.750000000000023
40
0.750000000000023
40
0.875000000000012
40
0.875000000000012
40
1
40
1
40
1
40
1
41
1
10
129.6055
20
-24.4662256251216
30
0
41
1
10
129.584252717749
20
-24.4897321106051
30
0
41
1
10
129.564759178412
20
-24.512245602338
30
0
41
1
10
129.541538810157
20
-24.541245591061
30
0
41
1
10
129.534819153131
20
-24.5501143780702
30
0
41
1
10
129.524848890268
20
-24.5647104400402
30
0
41
1
10
129.52154227505
20
-24.5705386140865
30
0
41
1
10
129.519879790056
20
-24.5773439817586
30
0
41
1
10
129.521526851207
20
-24.5782810305198
30
0
41
1
10
129.529927354216
20
-24.5747851907473
30
0
41
1
10
129.536474905501
20
-24.5704541370685
30
0
41
1
10
129.552728930923
20
-24.5580671841504
30
0
41
1
10
129.562321241512
20
-24.5501066098877
30
0
41
1
10
129.583076711062
20
-24.5320647148509
30
0
41
1
10
129.594055349582
20
-24.5221514838591
30
0
41
1
10
129.6055
20
-24.5115512430934
30
0
0
SPLINE
5
1A2
100
AcDbEntity
8
1
62
256
6
ByLayer
370
18
48
1
60
0
100
AcDbSpline
70
4
71
3
72
8
73
4
40
0
40
0
40
0
40
0
40
1
40
1
40
1
40
1
41
1
10
129.6055
20
-24.5115512430934
30
0
41
1
10
129.820462678659
20
-24.31244894935
30
0
41
1
10
130.035137860735
20
-24.1129342405493
30
0
41
1
10
130.2495
20
-23.9129704705178
30
0
0
SPLINE
5
1A3
100
AcDbEntity
8
1
62
256
6
ByLayer
370
18
48
1
60
0
100
AcDbSpline
70
4
71
3
72
14
73
10
40
0
40
0
40
0
40
0
40
0.25
40
0.25
40
0.5
40
0.5
40
0.75
40
0.75
40
1
40
1
40
1
40
1
41
1
10
130.3245
20
-23.8539790198802
30
0
41
1
10
130.3245
20
-23.852185749926
30
0
41
1
10
130.322387809429
20
-23.8524939229067
30
0
41
1
10
130.31432502053
20
-23.8571560020603
30
0
41
1
10
130.308413901572
20
-23.8614855289318
30
0
41
1
10
130.294315803534
20
-23.8728206174964
30
0
41
1
10
130.286083471684
20
-23.879854510313
30
0
41
1
10
130.268476646095
20
-23.8954524968059
30
0
41
1
10
130.25918196488
20
-23.9039388280577
30
0
41
1
10
130.2495
20
-23.9129704705178
30
0
0
SPLINE
5
1A4
100
AcDbEntity
8
1
62
256
6
ByLayer
370
18
48
1
60
0
100
AcDbSpline
70
4
71
3
72
14
73
10
40
0
40
0
40
0
40
0
40
0.25
40
0.25
40
0.5
40
0.5
40
0.75
40
0.75
40
1
40
1
40
1
40
1
41
1
10
130.2495
20
-23.9678441313362
30
0
41
1
10
130.259249604116
20
-23.9574402745057
30
0
41
1
10
130.268519251578
20
-23.9473921852377
30
0
41
1
10
130.285911691607
20
-23.9281390396629
30
0
41
1
10
130.293983863503
20
-23.918985371031
30
0
41
1
10
130.307857926255
20
-23.9026525202925
30
0
41
1
10
130.313812257457
20
-23.8952874257051
30
0
41
1
10
130.322116596226
20
-23.8838999530241
30
0
41
1
10
130.3245
20
-23.8798131548509
30
0
41
1
10
130.3245
20
-23.8780838423544
30
0
0
SPLINE
5
1A5
100
AcDbEntity
8
1
62
256
6
ByLayer
370
18
48
1
60
0
100
AcDbSpline
70
4
71
3
72
8
73
4
40
0
40
0
40
0
40
0
40
1
40
1
40
1
40
1
41
1
10
130.2495
20
-23.9678441313362
30
0
41
1
10
130.035547222369
20
-24.1961543314659
30
0
41
1
10
129.820860303431
20
-24.4235405354009
30
0
41
1
10
129.6055
20
-24.6500792121576
30
0
0
SPLINE
5
1A6
100
AcDbEntity
8
1
62
256
6
ByLayer
370
18
48
1
60
0
100
AcDbSpline
70
4
71
3
72
16
73
12
40
0
40
0
40
0
40
0
40
0.244870256111528
40
0.244870256111528
40
0.489740512223056
40
0.489740512223056
40
0.734610768334583
40
0.734610768334583
40
0.979481024446111
40
0.979481024446111
40
1
40
1
40
1
40
1
41
1
10
129.6055
20
-24.6500792121576
30
0
41
1
10
129.594645499765
20
-24.6614971201053
30
0
41
1
10
129.584309331155
20
-24.6724989869337
30
0
41
1
10
129.56505550703
20
-24.6932971537009
30
0
41
1
10
129.555990486058
20
-24.7032556166844
30
0
41
1
10
129.54029226655
20
-24.7209485260459
30
0
41
1
10
129.533596073865
20
-24.7287511946129
30
0
41
1
10
129.523858984405
20
-24.740889765792
30
0
41
1
10
129.520927423352
20
-24.7451121254574
30
0
41
1
10
129.52051236312
20
-24.746910357436
30
0
41
1
10
129.520498569531
20
-24.7470311500927
30
0
41
1
10
129.520502839793
20
-24.7471338530934
30
0
0
SPLINE
5
1A7
100
AcDbEntity
8
1
62
256
6
ByLayer
370
18
48
1
60
0
100
AcDbSpline
70
4
71
3
72
14
73
10
40
0
40
0
40
0
40
0
40
0.137563763786168
40
0.137563763786168
40
0.425042509190779
40
0.425042509190779
40
0.712521254595389
40
0.712521254595389
40
1
40
1
40
1
40
1
41
1
10
129.522014959553
20
-24.7472840728834
30
0
41
1
10
129.523080566018
20
-24.7468148993603
30
0
41
1
10
129.524695456824
20
-24.7457814913058
30
0
41
1
10
129.531247893089
20
-24.7409318597074
30
0
41
1
10
129.537981591735
20
-24.7352591146847
30
0
41
1
10
129.554046439389
20
-24.721005839838
30
0
41
1
10
129.563557694582
20
-24.7122726293566
30
0
41
1
10
129.583646628483
20
-24.6934639928731
30
0
41
1
10
129.594317921063
20
-24.6833078186817
30
0
41
1
10
129.6055
20
-24.67254327625
30
0
0
SPLINE
5
1A8
100
AcDbEntity
8
1
62
256
6
ByLayer
370
18
48
1
60
0
100
AcDbSpline
70
4
71
3
72
8
73
4
40
0
40
0
40
0
40
0
40
1
40
1
40
1
40
1
41
1
10
129.6055
20
-24.67254327625
30
0
41
1
10
129.820569637573
20
-24.4655042942751
30
0
41
1
10
130.035247896482
20
-24.2579256967411
30
0
41
1
10
130.2495
20
-24.0497595350354
30
0
0
SPLINE
5
1A9
100
AcDbEntity
8
1
62
256
6
ByLayer
370
18
48
1
60
0
100
AcDbSpline
70
4
71
3
72
14
73
10
40
0
40
0
40
0
40
0
40
0.25
40
0.25
40
0.5
40
0.5
40
0.75
40
0.75
40
1
40
1
40
1
40
1
41
1
10
130.3245
20
-23.9809298975149
30
0
41
1
10
130.3245
20
-23.9802749397073
30
0
41
1
10
130.322268657052
20
-23.9818256856907
30
0
41
1
10
130.314108956146
20
-23.9887118861319
30
0
41
1
10
130.308141619218
20
-23.9940733211362
30
0
41
1
10
130.294092745741
20
-24.0070547541498
30
0
41
1
10
130.285840184445
20
-24.0148307852948
30
0
41
1
10
130.268427871024
20
-24.0314404543229
30
0
41
1
10
130.259184127082
20
-24.0403504905921
30
0
41
1
10
130.2495
20
-24.0497595350354
30
0
0
SPLINE
5
1AA
100
AcDbEntity
8
1
62
256
6
ByLayer
370
18
48
1
60
0
100
AcDbSpline
70
4
71
3
72
14
73
10
40
0
40
0
40
0
40
0
40
0.25
40
0.25
40
0.5
40
0.5
40
0.75
40
0.75
40
1
40
1
40
1
40
1
41
1
10
130.2495
20
-24.0679370847155
30
0
41
1
10
130.259211278108
20
-24.0580695895895
30
0
41
1
10
130.268463174683
20
-24.0486275483862
30
0
41
1
10
130.285857479136
20
-24.0307635373026
30
0
41
1
10
130.294025317656
20
-24.0223134800283
30
0
41
1
10
130.307974433677
20
-24.0077038595556
30
0
41
1
10
130.313940209129
20
-24.0013494349122
30
0
41
1
10
130.322186827721
20
-23.9922305495165
30
0
41
1
10
130.3245
20
-23.9894242585628
30
0
41
1
10
130.3245
20
-23.9889145204951
30
0
0
SPLINE
5
1AB
100
AcDbEntity
8
1
62
256
6
ByLayer
370
18
48
1
60
0
100
AcDbSpline
70
4
71
3
72
8
73
4
40
0
40
0
40
0
40
0
40
1
40
1
40
1
40
1
41
1
10
130.2495
20
-24.0679370847155
30
0
41
1
10
130.035382142102
20
-24.2854992733109
30
0
41
1
10
129.820700052471
20
-24.5023166855204
30
0
41
1
10
129.6055
20
-24.7184503955052
30
0
0
SPLINE
5
1AC
100
AcDbEntity
8
1
62
256
6
ByLayer
370
18
48
1
60
0
100
AcDbSpline
70
4
71
3
72
18
73
14
40
0
40
0
40
0
40
0
40
0.249968095650547
40
0.249968095650547
40
0.499936191301094
40
0.499936191301094
40
0.74990428695164
40
0.74990428695164
40
0.874888334776963
40
0.874888334776963
40
0.999872382602286
40
0.999872382602286
40
1
40
1
40
1
40
1
41
1
10
129.6055
20
-24.7184503955052
30
0
41
1
10
129.594473615081
20
-24.729524619015
30
0
41
1
10
129.583803369287
20
-24.7402505448279
30
0
41
1
10
129.564083431371
20
-24.760087248044
30
0
41
1
10
129.555014921523
20
-24.769216810136
30
0
41
1
10
129.538999468337
20
-24.7853486325378
30
0
41
1
10
129.53232660182
20
-24.7920748098037
30
0
41
1
10
129.525334326431
20
-24.7991246202076
30
0
41
1
10
129.523536304035
20
-24.8009378239267
30
0
41
1
10
129.521100737935
20
-24.8033940774065
30
0
41
1
10
129.520483021234
20
-24.8040171245136
30
0
41
1
10
129.520499697022
20
-24.8040003055792
30
0
41
1
10
129.52050040117
20
-24.8039995953858
30
0
41
1
10
129.520501105315
20
-24.8039988851883
30
0
0
SPLINE
5
1AD
100
AcDbEntity
8
1
62
256
6
ByLayer
370
18
48
1
60
0
100
AcDbSpline
70
4
71
3
72
14
73
10
40
0
40
0
40
0
40
0
40
0.249137035627294
40
0.249137035627294
40
0.499424690418196
40
0.499424690418196
40
0.749712345209098
40
0.749712345209098
40
1
40
1
40
1
40
1
41
1
10
129.520501007097
20
14.8039989842345
30
0
41
1
10
129.520559199655
20
14.8039402888285
30
0
41
1
10
129.52317820532
20
14.8012984444671
30
0
41
1
10
129.532509978376
20
14.7918899641521
30
0
41
1
10
129.539284482808
20
14.7850614653389
30
0
41
1
10
129.555149357874
20
14.7690814809519
30
0
41
1
10
129.564434787015
20
14.7597336572633
30
0
41
1
10
129.584091600717
20
14.7399607665405
30
0
41
1
10
129.59453851892
20
14.729459433587
30
0
41
1
10
129.6055
20
14.7184503955052
30
0
0
SPLINE
5
1AE
100
AcDbEntity
8
1
62
256
6
ByLayer
370
18
48
1
60
0
100
AcDbSpline
70
4
71
3
72
8
73
4
40
0
40
0
40
0
40
0
40
1
40
1
40
1
40
1
41
1
10
129.6055
20
14.7184503955052
30
0
41
1
10
129.820700052471
20
14.5023166855204
30
0
41
1
10
130.035382142102
20
14.2854992733109
30
0
41
1
10
130.2495
20
14.0679370847155
30
0
0
SPLINE
5
1AF
100
AcDbEntity
8
1
62
256
6
ByLayer
370
18
48
1
60
0
100
AcDbSpline
70
4
71
3
72
14
73
10
40
0
40
0
40
0
40
0
40
0.25
40
0.25
40
0.5
40
0.5
40
0.75
40
0.75
40
1
40
1
40
1
40
1
41
1
10
130.3245
20
13.9889145204951
30
0
41
1
10
130.3245
20
13.9894247455032
30
0
41
1
10
130.322179475846
20
13.9922388158724
30
0
41
1
10
130.313940423871
20
14.0013490604848
30
0
41
1
10
130.307976181869
20
14.0077021283888
30
0
41
1
10
130.294003407621
20
14.0223363275757
30
0
41
1
10
130.285821046889
20
14.0308010647053
30
0
41
1
10
130.268451733647
20
14.0486391867036
30
0
41
1
10
130.259208205955
20
14.0580727111611
30
0
41
1
10
130.2495
20
14.0679370847155
30
0
0
SPLINE
5
1B0
100
AcDbEntity
8
1
62
256
6
ByLayer
370
18
48
1
60
0
100
AcDbSpline
70
4
71
3
72
14
73
10
40
0
40
0
40
0
40
0
40
0.25
40
0.25
40
0.5
40
0.5
40
0.75
40
0.75
40
1
40
1
40
1
40
1
41
1
10
130.249500000001
20
14.0497595350347
30
0
41
1
10
130.259250762044
20
14.0402857484307
30
0
41
1
10
130.268531564471
20
14.0313407515937
30
0
41
1
10
130.285956831417
20
14.0147203145367
30
0
41
1
10
130.294181236189
20
14.006972118358
30
0
41
1
10
130.308177764175
20
13.9940407991515
30
0
41
1
10
130.314130113209
20
13.9886933373445
30
0
41
1
10
130.322274316532
20
13.9818216055316
30
0
41
1
10
130.3245
20
13.9802755671428
30
0
41
1
10
130.3245
20
13.9809298975149
30
0
0
SPLINE
5
1B1
100
AcDbEntity
8
1
62
256
6
ByLayer
370
18
48
1
60
0
100
AcDbSpline
70
4
71
3
72
8
73
4
40
0
40
0
40
0
40
0
40
1
40
1
40
1
40
1
41
1
10
130.2495
20
14.0497595350354
30
0
41
1
10
130.035247896482
20
14.2579256967411
30
0
41
1
10
129.820569637573
20
14.4655042942751
30
0
41
1
10
129.6055
20
14.67254327625
30
0
0
SPLINE
5
1B2
100
AcDbEntity
8
1
62
256
6
ByLayer
370
18
48
1
60
0
100
AcDbSpline
70
4
71
3
72
12
73
8
40
0
40
0
40
0
40
0
40
0.567291002794896
40
0.567291002794896
40
0.850936504192349
40
0.850936504192349
40
1
40
1
40
1
40
1
41
1
10
129.6055
20
14.67254327625
30
0
41
1
10
129.582995531699
20
14.6942074323788
30
0
41
1
10
129.561880388332
20
14.7140674209438
30
0
41
1
10
129.537703837473
20
14.7354993425979
30
0
41
1
10
129.531044068949
20
14.7411000824371
30
0
41
1
10
129.524328360077
20
14.746043531161
30
0
41
1
10
129.522644752756
20
14.7470829990584
30
0
41
1
10
129.52163204422
20
14.7474377072069
30
0
0
SPLINE
5
1B3
100
AcDbEntity
8
1
62
256
6
ByLayer
370
18
48
1
60
0
100
AcDbSpline
70
4
71
3
72
16
73
12
40
0
40
0
40
0
40
0
40
0.0197386845993646
40
0.0197386845993646
40
0.264804013449523
40
0.264804013449523
40
0.509869342299682
40
0.509869342299682
40
0.754934671149841
40
0.754934671149841
40
1
40
1
40
1
40
1
41
1
10
129.520502875857
20
14.7470721475965
30
0
41
1
10
129.520505348206
20
14.7469673436311
30
0
41
1
10
129.520524302163
20
14.7468460802934
30
0
41
1
10
129.521001668514
20
14.7449974364367
30
0
41
1
10
129.523988903455
20
14.7407194293516
30
0
41
1
10
129.533694886272
20
14.7286365874095
30
0
41
1
10
129.540469432586
20
14.7207454646148
30
0
41
1
10
129.556128818467
20
14.703103159907
30
0
41
1
10
129.565209562342
20
14.6931288968652
30
0
41
1
10
129.584481683938
20
14.6723146861223
30
0
41
1
10
129.594730817489
20
14.6614073739258
30
0
41
1
10
129.6055
20
14.6500792121576
30
0
0
SPLINE
5
1B4
100
AcDbEntity
8
1
62
256
6
ByLayer
370
18
48
1
60
0
100
AcDbSpline
70
4
71
3
72
8
73
4
40
0
40
0
40
0
40
0
40
1
40
1
40
1
40
1
41
1
10
129.6055
20
14.6500792121576
30
0
41
1
10
129.820860303431
20
14.4235405354009
30
0
41
1
10
130.035547222369
20
14.1961543314659
30
0
41
1
10
130.2495
20
13.9678441313362
30
0
0
SPLINE
5
1B5
100
AcDbEntity
8
1
62
256
6
ByLayer
370
18
48
1
60
0
100
AcDbSpline
70
4
71
3
72
14
73
10
40
0
40
0
40
0
40
0
40
0.25
40
0.25
40
0.5
40
0.5
40
0.75
40
0.75
40
1
40
1
40
1
40
1
41
1
10
130.3245
20
13.8780838423544
30
0
41
1
10
130.3245
20
13.8798173955347
30
0
41
1
10
130.322101363894
20
13.8839223696909
30
0
41
1
10
130.313803229543
20
13.8952982718544
30
0
41
1
10
130.307850216532
20
13.9026622738455
30
0
41
1
10
130.293951093776
20
13.9190232687973
30
0
41
1
10
130.285833579189
20
13.9282263636081
30
0
41
1
10
130.268493944553
20
13.9474193398036
30
0
41
1
10
130.259242453395
20
13.9574479050799
30
0
41
1
10
130.2495
20
13.9678441313362
30
0
0
SPLINE
5
1B6
100
AcDbEntity
8
1
62
256
6
ByLayer
370
18
48
1
60
0
100
AcDbSpline
70
4
71
3
72
14
73
10
40
0
40
0
40
0
40
0
40
0.25
40
0.25
40
0.5
40
0.5
40
0.75
40
0.75
40
1
40
1
40
1
40
1
41
1
10
130.2495
20
13.9129704705178
30
0
41
1
10
130.259218158141
20
13.9039050658421
30
0
41
1
10
130.268664569286
20
13.8952835726591
30
0
41
1
10
130.286149535274
20
13.8797984618444
30
0
41
1
10
130.294375221403
20
13.8727705037188
30
0
41
1
10
130.308474637326
20
13.8614390573629
30
0
41
1
10
130.314381647127
20
13.8571198467059
30
0
41
1
10
130.322377751326
20
13.8525031712642
30
0
41
1
10
130.3245
20
13.8522049260042
30
0
41
1
10
130.3245
20
13.8539790198802
30
0
0
SPLINE
5
1B7
100
AcDbEntity
8
1
62
256
6
ByLayer
370
18
48
1
60
0
100
AcDbSpline
70
4
71
3
72
8
73
4
40
0
40
0
40
0
40
0
40
1
40
1
40
1
40
1
41
1
10
130.2495
20
13.9129704705178
30
0
41
1
10
130.035137860735
20
14.1129342405493
30
0
41
1
10
129.820462678659
20
14.31244894935
30
0
41
1
10
129.6055
20
14.5115512430934
30
0
0
SPLINE
5
1B8
100
AcDbEntity
8
1
62
256
6
ByLayer
370
18
48
1
60
0
100
AcDbSpline
70
4
71
3
72
22
73
18
40
0
40
0
40
0
40
0
40
0.249999999999868
40
0.249999999999868
40
0.312499999999857
40
0.312499999999857
40
0.374999999999847
40
0.374999999999847
40
0.499999999999877
40
0.499999999999877
40
0.624999999999908
40
0.624999999999908
40
0.749999999999939
40
0.749999999999939
40
0.874999999999969
40
0.874999999999969
40
1
40
1
40
1
40
1
41
1
10
129.6055
20
14.5115512430934
30
0
41
1
10
129.582537997433
20
14.5328190622729
30
0
41
1
10
129.560753547667
20
14.5519654120075
30
0
41
1
10
129.54040488847
20
14.567455670588
30
0
41
1
10
129.536759223766
20
14.5700669054193
30
0
41
1
10
129.530414457453
20
14.574200409037
30
0
41
1
10
129.527719044753
20
14.5757123360829
30
0
41
1
10
129.521544858164
20
14.5782568081098
30
0
41
1
10
129.519876109205
20
14.5773008110934
30
0
41
1
10
129.521565633523
20
14.5705019246576
30
0
41
1
10
129.5248695786
20
14.5646759138372
30
0
41
1
10
129.534864493797
20
14.5500522686143
30
0
41
1
10
129.541609733461
20
14.5411548521571
30
0
41
1
10
129.557055124618
20
14.521869396227
30
0
41
1
10
129.565941228382
20
14.5112472832549
30
0
41
1
10
129.584848961551
20
14.4893103171526
30
0
41
1
10
129.594911439579
20
14.4779400570608
30
0
41
1
10
129.6055
20
14.4662256251216
30
0
0
SPLINE
5
1B9
100
AcDbEntity
8
1
62
256
6
ByLayer
370
18
48
1
60
0
100
AcDbSpline
70
4
71
3
72
8
73
4
40
0
40
0
40
0
40
0
40
1
40
1
40
1
40
1
41
1
10
129.6055
20
14.4662256251216
30
0
41
1
10
129.821059437748
20
14.2277459581948
30
0
41
1
10
130.03575253422
20
13.9882311427328
30
0
41
1
10
130.2495
20
13.747586439717
30
0
0
SPLINE
5
1BA
100
AcDbEntity
8
1
62
256
6
ByLayer
370
18
48
1
60
0
100
AcDbSpline
70
4
71
3
72
14
73
10
40
0
40
0
40
0
40
0
40
0.25
40
0.25
40
0.5
40
0.5
40
0.75
40
0.75
40
1
40
1
40
1
40
1
41
1
10
130.3245
20
13.6463193271823
30
0
41
1
10
130.3245
20
13.6493536764684
30
0
41
1
10
130.322034011465
20
13.6547938153033
30
0
41
1
10
130.313694135752
20
13.6685224069778
30
0
41
1
10
130.307759088246
20
13.6769402543422
30
0
41
1
10
130.293931735253
20
13.6951434737655
30
0
41
1
10
130.285875277587
20
13.7051515681115
30
0
41
1
10
130.268553746702
20
13.7258583546616
30
0
41
1
10
130.259286714282
20
13.7365681993686
30
0
41
1
10
130.2495
20
13.747586439717
30
0
0
SPLINE
5
1BB
100
AcDbEntity
8
1
62
256
6
ByLayer
370
18
48
1
60
0
100
AcDbSpline
70
4
71
3
72
14
73
10
40
0
40
0
40
0
40
0
40
0.249999999999998
40
0.249999999999998
40
0.499999999999996
40
0.499999999999996
40
0.749999999999994
40
0.749999999999994
40
1
40
1
40
1
40
1
41
1
10
130.2495
20
13.6549608869781
30
0
41
1
10
130.259215998501
20
13.646223193626
30
0
41
1
10
130.26872616507
20
13.6379823211317
30
0
41
1
10
130.286346638797
20
13.6235082432094
30
0
41
1
10
130.294625799941
20
13.6171378972796
30
0
41
1
10
130.308773781988
20
13.6074583306913
30
0
41
1
10
130.314644882502
20
13.6041706494089
30
0
41
1
10
130.322485000347
20
13.6018182843394
30
0
41
1
10
130.3245
20
13.6027592296194
30
0
41
1
10
130.3245
20
13.6056268367876
30
0
0
SPLINE
5
1BC
100
AcDbEntity
8
1
62
256
6
ByLayer
370
18
48
1
60
0
100
AcDbSpline
70
4
71
3
72
8
73
4
40
0
40
0
40
0
40
0
40
1
40
1
40
1
40
1
41
1
10
130.2495
20
13.6549608869781
30
0
41
1
10
130.035047370323
20
13.8478202535533
30
0
41
1
10
129.820374683942
20
14.0403524947096
30
0
41
1
10
129.6055
20
14.232584456276
30
0
0
SPLINE
5
1BD
100
AcDbEntity
8
1
62
256
6
ByLayer
370
18
48
1
60
0
100
AcDbSpline
70
4
71
3
72
22
73
18
40
0
40
0
40
0
40
0
40
0.125
40
0.125
40
0.25
40
0.25
40
0.375
40
0.375
40
0.5
40
0.5
40
0.625
40
0.625
40
0.75
40
0.75
40
0.875
40
0.875
40
1
40
1
40
1
40
1
41
1
10
129.6055
20
14.232584456276
30
0
41
1
10
129.593739100244
20
14.2431060346604
30
0
41
1
10
129.582242551691
20
14.2529637034774
30
0
41
1
10
129.561004489412
20
14.2700210168543
30
0
41
1
10
129.551171313917
20
14.2772898909988
30
0
41
1
10
129.534859454679
20
14.2875082160249
30
0
41
1
10
129.528448239208
20
14.2903652507063
30
0
41
1
10
129.520922723968
20
14.2903897893651
30
0
41
1
10
129.519748598788
20
14.2875543836234
30
0
41
1
10
129.522224174389
20
14.277369159435
30
0
41
1
10
129.52578250787
20
14.2700835318897
30
0
41
1
10
129.536008302682
20
14.2529765435596
30
0
41
1
10
129.542700715944
20
14.2431003754386
30
0
41
1
10
129.55792775034
20
14.2221399537161
30
0
41
1
10
129.566628668
20
14.2108285302577
30
0
41
1
10
129.585192455251
20
14.1876523821413
30
0
41
1
10
129.595079721552
20
14.1757473715766
30
0
41
1
10
129.6055
20
14.163566138175
30
0
0
SPLINE
5
1BE
100
AcDbEntity
8
1
62
256
6
ByLayer
370
18
48
1
60
0
100
AcDbSpline
70
4
71
3
72
8
73
4
40
0
40
0
40
0
40
0
40
1
40
1
40
1
40
1
41
1
10
129.6055
20
14.163566138175
30
0
41
1
10
129.821310496289
20
13.9112851613349
30
0
41
1
10
130.036011628907
20
13.6577519784765
30
0
41
1
10
130.2495
20
13.4028498781753
30
0
0
SPLINE
5
1BF
100
AcDbEntity
8
1
62
256
6
ByLayer
370
18
48
1
60
0
100
AcDbSpline
70
4
71
3
72
14
73
10
40
0
40
0
40
0
40
0
40
0.25
40
0.25
40
0.5
40
0.5
40
0.75
40
0.75
40
1
40
1
40
1
40
1
41
1
10
130.3245
20
13.2890240128758
30
0
41
1
10
130.3245
20
13.2934918735214
30
0
41
1
10
130.321992346342
20
13.3002811047651
30
0
41
1
10
130.313542185526
20
13.3166495690633
30
0
41
1
10
130.307671738472
20
13.326113517657
30
0
41
1
10
130.293819783589
20
13.3464514484414
30
0
41
1
10
130.285784157645
20
13.3573907805796
30
0
41
1
10
130.268585224204
20
13.3796566607554
30
0
41
1
10
130.259332829839
20
13.3911096182017
30
0
41
1
10
130.2495
20
13.4028498781753
30
0
0
SPLINE
5
1C0
100
AcDbEntity
8
1
62
256
6
ByLayer
370
18
48
1
60
0
100
AcDbSpline
70
4
71
3
72
14
73
10
40
0
40
0
40
0
40
0
40
0.25
40
0.25
40
0.5
40
0.5
40
0.75
40
0.75
40
1
40
1
40
1
40
1
41
1
10
130.2495
20
13.2705960321683
30
0
41
1
10
130.259229511983
20
13.2621232908817
30
0
41
1
10
130.268802577544
20
13.2542265447334
30
0
41
1
10
130.286601863368
20
13.2406968240446
30
0
41
1
10
130.29495424747
20
13.2349725137476
30
0
41
1
10
130.309141149508
20
13.2269970357157
30
0
41
1
10
130.314957231867
20
13.2247944411962
30
0
41
1
10
130.322603033857
20
13.2247762044744
30
0
41
1
10
130.3245
20
13.2269651603499
30
0
41
1
10
130.3245
20
13.2309126238238
30
0
0
SPLINE
5
1C1
100
AcDbEntity
8
1
62
256
6
ByLayer
370
18
48
1
60
0
100
AcDbSpline
70
4
71
3
72
8
73
4
40
0
40
0
40
0
40
0
40
1
40
1
40
1
40
1
41
1
10
130.2495
20
13.2705960321683
30
0
41
1
10
130.034973355329
20
13.4574120577276
30
0
41
1
10
129.820302546545
20
13.6440075237985
30
0
41
1
10
129.6055
20
13.8304003628101
30
0
0
SPLINE
5
1C2
100
AcDbEntity
8
1
62
256
6
ByLayer
370
18
48
1
60
0
100
AcDbSpline
70
4
71
3
72
22
73
18
40
0
40
0
40
0
40
0
40
0.125000000000095
40
0.125000000000095
40
0.250000000000189
40
0.250000000000189
40
0.31250000000019
40
0.31250000000019
40
0.37500000000019
40
0.37500000000019
40
0.500000000000154
40
0.500000000000154
40
0.625000000000117
40
0.625000000000117
40
0.750000000000081
40
0.750000000000081
40
1
40
1
40
1
40
1
41
1
10
129.6055
20
13.8304003628101
30
0
41
1
10
129.593380808038
20
13.8409166748025
30
0
41
1
10
129.581502968404
20
13.850599351319
30
0
41
1
10
129.559693945803
20
13.8666789353283
30
0
41
1
10
129.549522162378
20
13.8732288666946
30
0
41
1
10
129.537271537993
20
13.8790458665806
30
0
41
1
10
129.533636580047
20
13.8803378471185
30
0
41
1
10
129.527722419873
20
13.8814041831677
30
0
41
1
10
129.525390108167
20
13.8812105482548
30
0
41
1
10
129.520318726839
20
13.8783850311453
30
0
41
1
10
129.51974863245
20
13.8735609996964
30
0
41
1
10
129.523039271001
20
13.8599134489843
30
0
41
1
10
129.526840175741
20
13.8511757274978
30
0
41
1
10
129.537301085598
20
13.8315374121517
30
0
41
1
10
129.54386990924
20
13.8207762383678
30
0
41
1
10
129.56664699131
20
13.7863364356784
30
0
41
1
10
129.58502283321
20
13.7617741819729
30
0
41
1
10
129.6055
20
13.7363442052146
30
0
0
SPLINE
5
1C3
100
AcDbEntity
8
1
62
256
6
ByLayer
370
18
48
1
60
0
100
AcDbSpline
70
4
71
3
72
8
73
4
40
0
40
0
40
0
40
0
40
1
40
1
40
1
40
1
41
1
10
129.6055
20
13.7363442052146
30
0
41
1
10
129.821632798019
20
13.46793539229
30
0
41
1
10
130.036344592726
20
13.1980199940686
30
0
41
1
10
130.2495
20
12.9264544727241
30
0
0
SPLINE
5
1C4
100
AcDbEntity
8
1
62
256
6
ByLayer
370
18
48
1
60
0
100
AcDbSpline
70
4
71
3
72
14
73
10
40
0
40
0
40
0
40
0
40
0.25
40
0.25
40
0.5
40
0.5
40
0.75
40
0.75
40
1
40
1
40
1
40
1
41
1
10
130.3245
20
12.7986396737458
30
0
41
1
10
130.3245
20
12.80466776027
30
0
41
1
10
130.321958595129
20
12.8129038412025
30
0
41
1
10
130.31345050483
20
12.8320919898525
30
0
41
1
10
130.30764570247
20
12.8426975094092
30
0
41
1
10
130.293816071692
20
12.8653586799416
30
0
41
1
10
130.285845445367
20
12.8772918268095
30
0
41
1
10
130.268672225887
20
12.9014801599266
30
0
41
1
10
130.259398489399
20
12.9138435403138
30
0
41
1
10
130.2495
20
12.9264544727241
30
0
0
SPLINE
5
1C5
100
AcDbEntity
8
1
62
256
6
ByLayer
370
18
48
1
60
0
100
AcDbSpline
70
4
71
3
72
14
73
10
40
0
40
0
40
0
40
0
40
0.25
40
0.25
40
0.5
40
0.5
40
0.75
40
0.75
40
1
40
1
40
1
40
1
41
1
10
130.2495
20
12.7516701480928
30
0
41
1
10
130.259247241143
20
12.7434093616652
30
0
41
1
10
130.268784239155
20
12.73589111807
30
0
41
1
10
130.286942676012
20
12.7231617994199
30
0
41
1
10
130.295401197738
20
12.7180938406677
30
0
41
1
10
130.309600369956
20
12.7119377182011
30
0
41
1
10
130.315332644849
20
12.7109091615286
30
0
41
1
10
130.322732668698
20
12.7133385198428
30
0
41
1
10
130.3245
20
12.7167960692811
30
0
41
1
10
130.3245
20
12.7218227111436
30
0
0
SPLINE
5
1C6
100
AcDbEntity
8
1
62
256
6
ByLayer
370
18
48
1
60
0
100
AcDbSpline
70
4
71
3
72
8
73
4
40
0
40
0
40
0
40
0
40
1
40
1
40
1
40
1
41
1
10
130.2495
20
12.7516701480928
30
0
41
1
10
130.034913814811
20
12.9335319303368
30
0
41
1
10
129.820244754008
20
13.11526338816
30
0
41
1
10
129.6055
20
13.2968754376164
30
0
0
SPLINE
5
1C7
100
AcDbEntity
8
1
62
256
6
ByLayer
370
18
48
1
60
0
100
AcDbSpline
70
4
71
3
72
22
73
18
40
0
40
0
40
0
40
0
40
0.124999999999969
40
0.124999999999969
40
0.249999999999937
40
0.249999999999937
40
0.312499999999923
40
0.312499999999923
40
0.374999999999908
40
0.374999999999908
40
0.499999999999909
40
0.499999999999909
40
0.624999999999911
40
0.624999999999911
40
0.749999999999912
40
0.749999999999912
40
1
40
1
40
1
40
1
41
1
10
129.6055
20
13.2968754376164
30
0
41
1
10
129.592993500049
20
13.3074523250384
30
0
41
1
10
129.580706276432
20
13.3169884662057
30
0
41
1
10
129.558138730979
20
13.3320952215856
30
0
41
1
10
129.547727595054
20
13.3377169168031
30
0
41
1
10
129.535443493164
20
13.3413685698684
30
0
41
1
10
129.531968282765
20
13.3417770780818
30
0
41
1
10
129.526382198925
20
13.3409817366965
30
0
41
1
10
129.52422997549
20
13.3397516724482
30
0
41
1
10
129.519946272536
20
13.3338790234322
30
0
41
1
10
129.519899733555
20
13.3270135233085
30
0
41
1
10
129.523871617955
20
13.3100249021396
30
0
41
1
10
129.52788622281
20
13.299761289305
30
0
41
1
10
129.538430599233
20
13.2776904215159
30
0
41
1
10
129.544991563262
20
13.2657814976337
30
0
41
1
10
129.567418182231
20
13.228501555755
30
0
41
1
10
129.585340647126
20
13.2025463743235
30
0
41
1
10
129.6055
20
13.1757784213042
30
0
0
SPLINE
5
1C8
100
AcDbEntity
8
1
62
256
6
ByLayer
370
18
48
1
60
0
100
AcDbSpline
70
4
71
3
72
8
73
4
40
0
40
0
40
0
40
0
40
1
40
1
40
1
40
1
41
1
10
129.6055
20
13.1757784213042
30
0
41
1
10
129.822056039247
20
12.8882313992869
30
0
41
1
10
130.0367823196
20
12.5988748078191
30
0
41
1
10
130.2495
20
12.3075317791604
30
0
0
SPLINE
5
1C9
100
AcDbEntity
8
1
62
256
6
ByLayer
370
18
48
1
60
0
100
AcDbSpline
70
4
71
3
72
12
73
8
40
0
40
0
40
0
40
0
40
0.250000000000037
40
0.250000000000037
40
0.500000000000074
40
0.500000000000074
40
1
40
1
40
1
40
1
41
1
10
130.324500000001
20
12.1637626739618
30
0
41
1
10
130.324500000001
20
12.1715373958859
30
0
41
1
10
130.321911983203
20
12.1813988967018
30
0
41
1
10
130.313432961461
20
12.2035631073317
30
0
41
1
10
130.307648294225
20
12.2155633646175
30
0
41
1
10
130.28692603742
20
12.2535669467309
30
0
41
1
10
130.26945325247
20
12.2802033455515
30
0
41
1
10
130.2495
20
12.3075317791604
30
0
0
SPLINE
5
1CA
100
AcDbEntity
8
1
62
256
6
ByLayer
370
18
48
1
60
0
100
AcDbSpline
70
4
71
3
72
14
73
10
40
0
40
0
40
0
40
0
40
0.25
40
0.25
40
0.5
40
0.5
40
0.75
40
0.75
40
1
40
1
40
1
40
1
41
1
10
130.2495
20
12.0859271543189
30
0
41
1
10
130.259305222304
20
12.0777904297007
30
0
41
1
10
130.268941650508
20
12.0705123566371
30
0
41
1
10
130.287372796518
20
12.0586762048217
30
0
41
1
10
130.295964745964
20
12.0543030091875
30
0
41
1
10
130.310152692604
20
12.0501419836255
30
0
41
1
10
130.315769240382
20
12.0504143348533
30
0
41
1
10
130.322871011082
20
12.0554482778901
30
0
41
1
10
130.3245
20
12.0602107169182
30
0
41
1
10
130.3245
20
12.0663360248446
30
0
0
SPLINE
5
1CB
100
AcDbEntity
8
1
62
256
6
ByLayer
370
18
48
1
60
0
100
AcDbSpline
70
4
71
3
72
8
73
4
40
0
40
0
40
0
40
0
40
1
40
1
40
1
40
1
41
1
10
130.2495
20
12.085927154319
30
0
41
1
10
130.034868684835
20
12.2640359061465
30
0
41
1
10
129.820200946825
20
12.4420861479081
30
0
41
1
10
129.6055
20
12.6200829661946
30
0
0
SPLINE
5
1CC
100
AcDbEntity
8
1
62
256
6
ByLayer
370
18
48
1
60
0
100
AcDbSpline
70
4
71
3
72
22
73
18
40
0
40
0
40
0
40
0
40
0.125000000000054
40
0.125000000000054
40
0.250000000000109
40
0.250000000000109
40
0.312500000000095
40
0.312500000000095
40
0.375000000000081
40
0.375000000000081
40
0.500000000000049
40
0.500000000000049
40
0.625000000000017
40
0.625000000000017
40
0.749999999999985
40
0.749999999999985
40
1
40
1
40
1
40
1
41
1
10
129.6055
20
12.6200829661946
30
0
41
1
10
129.592533498862
20
12.6308327834681
30
0
41
1
10
129.579753193094
20
12.6402864467316
30
0
41
1
10
129.556254451705
20
12.654302916153
30
0
41
1
10
129.545490827475
20
12.6587687434616
30
0
41
1
10
129.533489226953
20
12.6596867674202
30
0
41
1
10
129.530205563054
20
12.6590766548954
30
0
41
1
10
129.525017733385
20
12.6560886458349
30
0
41
1
10
129.523156119715
20
12.653697451913
30
0
41
1
10
129.519717166478
20
12.6445192588561
30
0
41
1
10
129.520181417857
20
12.6355833444457
30
0
41
1
10
129.524792588522
20
12.6150938819369
30
0
41
1
10
129.528964218601
20
12.6033152733689
30
0
41
1
10
129.539577226902
20
12.5786246428309
30
0
41
1
10
129.546127538049
20
12.5654512705205
30
0
41
1
10
129.568108475269
20
12.5251641327109
30
0
41
1
10
129.585654455034
20
12.4974380464925
30
0
41
1
10
129.6055
20
12.4690368442115
30
0
0
SPLINE
5
1CD
100
AcDbEntity
8
1
62
256
6
ByLayer
370
18
48
1
60
0
100
AcDbSpline
70
4
71
3
72
8
73
4
40
0
40
0
40
0
40
0
40
1
40
1
40
1
40
1
41
1
10
129.6055
20
12.4690368442115
30
0
41
1
10
129.822628100131
20
12.1583021627902
30
0
41
1
10
130.037374649206
20
11.845389577551
30
0
41
1
10
130.2495
20
11.530079933583
30
0
0
SPLINE
5
1CE
100
AcDbEntity
8
1
62
256
6
ByLayer
370
18
48
1
60
0
100
AcDbSpline
70
4
71
3
72
12
73
8
40
0
40
0
40
0
40
0
40
0.250000000000029
40
0.250000000000029
40
0.500000000000059
40
0.500000000000059
40
1
40
1
40
1
40
1
41
1
10
130.324500000009
20
11.3675876053922
30
0
41
1
10
130.324500000008
20
11.3772221576382
30
0
41
1
10
130.321873699401
20
11.3890583159479
30
0
41
1
10
130.313449392423
20
11.4145929308426
30
0
41
1
10
130.307670540604
20
11.4282616213632
30
0
41
1
10
130.287041271642
20
11.470862430654
30
0
41
1
10
130.269646391906
20
11.5001337171809
30
0
41
1
10
130.2495
20
11.530079933583
30
0
0
SPLINE
5
1CF
100
AcDbEntity
8
1
62
256
6
ByLayer
370
18
48
1
60
0
100
AcDbSpline
70
4
71
3
72
14
73
10
40
0
40
0
40
0
40
0
40
0.25
40
0.25
40
0.5
40
0.5
40
0.75
40
0.75
40
1
40
1
40
1
40
1
41
1
10
130.2495
20
11.2553382123749
30
0
41
1
10
130.259398868046
20
11.2472314250126
30
0
41
1
10
130.269223229739
20
11.2400961103482
30
0
41
1
10
130.287974418791
20
11.2291854674856
30
0
41
1
10
130.296731434281
20
11.2256010647453
30
0
41
1
10
130.310852246407
20
11.2237352895698
30
0
41
1
10
130.316292465155
20
11.2254991105443
30
0
41
1
10
130.323020110113
20
11.2333581500304
30
0
41
1
10
130.3245
20
11.2394805992425
30
0
41
1
10
130.3245
20
11.246742763416
30
0
0
SPLINE
5
1D0
100
AcDbEntity
8
1
62
256
6
ByLayer
370
18
48
1
60
0
100
AcDbSpline
70
4
71
3
72
8
73
4
40
0
40
0
40
0
40
0
40
1
40
1
40
1
40
1
41
1
10
130.2495
20
11.255338212375
30
0
41
1
10
130.034840117021
20
11.4311362953957
30
0
41
1
10
129.820173237194
20
11.6069229874504
30
0
41
1
10
129.6055
20
11.7826993267326
30
0
0
SPLINE
5
1D1
100
AcDbEntity
8
1
62
256
6
ByLayer
370
18
48
1
60
0
100
AcDbSpline
70
4
71
3
72
22
73
18
40
0
40
0
40
0
40
0
40
0.125000000000016
40
0.125000000000016
40
0.187500000000026
40
0.187500000000026
40
0.250000000000036
40
0.250000000000036
40
0.312500000000045
40
0.312500000000045
40
0.375000000000055
40
0.375000000000055
40
0.500000000000054
40
0.500000000000054
40
0.750000000000027
40
0.750000000000027
40
1
40
1
40
1
40
1
41
1
10
129.6055
20
11.7826993267326
30
0
41
1
10
129.5919745229
20
11.79377410663
30
0
41
1
10
129.578572891949
20
11.8032351891506
30
0
41
1
10
129.560072832448
20
11.8127399031511
30
0
41
1
10
129.554246459773
20
11.8150706091348
30
0
41
1
10
129.543782254935
20
11.8176552021779
30
0
41
1
10
129.539080357025
20
11.8178985994964
30
0
41
1
10
129.531404308881
20
11.8162564980175
30
0
41
1
10
129.52830691468
20
11.814376925707
30
0
41
1
10
129.523684963868
20
11.8087898475587
30
0
41
1
10
129.522185737906
20
11.8051654829401
30
0
41
1
10
129.519647436547
20
11.792280964629
30
0
41
1
10
129.52060442944
20
11.7813013056084
30
0
41
1
10
129.528430006134
20
11.7448847871389
30
0
41
1
10
129.540081448102
20
11.7161474341274
30
0
41
1
10
129.568801388406
20
11.6577627074369
30
0
41
1
10
129.585973014626
20
11.6278885715471
30
0
41
1
10
129.6055
20
11.5974568928041
30
0
0
SPLINE
5
1D2
100
AcDbEntity
8
1
62
256
6
ByLayer
370
18
48
1
60
0
100
AcDbSpline
70
4
71
3
72
8
73
4
40
0
40
0
40
0
40
0
40
1
40
1
40
1
40
1
41
1
10
129.6055
20
11.5974568928041
30
0
41
1
10
129.823431123556
20
11.2578238253877
30
0
41
1
10
130.038207131738
20
10.91555301452
30
0
41
1
10
130.2495
20
10.5703702247133
30
0
0
SPLINE
5
1D3
100
AcDbEntity
8
1
62
256
6
ByLayer
370
18
48
1
60
0
100
AcDbSpline
70
4
71
3
72
12
73
8
40
0
40
0
40
0
40
0
40
0.25
40
0.25
40
0.5
40
0.5
40
1
40
1
40
1
40
1
41
1
10
130.324500000003
20
10.3850933995422
30
0
41
1
10
130.324500000003
20
10.3970787264873
30
0
41
1
10
130.321814823682
20
10.4112191757296
30
0
41
1
10
130.313432917887
20
10.4407814838751
30
0
41
1
10
130.307644159211
20
10.4564966194784
30
0
41
1
10
130.287203970073
20
10.5044683083615
30
0
41
1
10
130.269842865354
20
10.5371366987857
30
0
41
1
10
130.2495
20
10.5703702247133
30
0
0
SPLINE
5
1D4
100
AcDbEntity
8
1
62
256
6
ByLayer
370
18
48
1
60
0
100
AcDbSpline
70
4
71
3
72
14
73
10
40
0
40
0
40
0
40
0
40
0.25
40
0.25
40
0.5
40
0.5
40
0.75
40
0.75
40
1
40
1
40
1
40
1
41
1
10
130.2495
20
10.2329620912908
30
0
41
1
10
130.259575474704
20
10.224729678792
30
0
41
1
10
130.26966349178
20
10.2176576935563
30
0
41
1
10
130.288734068695
20
10.2077835490403
30
0
41
1
10
130.297672368402
20
10.2051360238348
30
0
41
1
10
130.31177716259
20
10.2060335303123
30
0
41
1
10
130.316905532375
20
10.2095373596982
30
0
41
1
10
130.323198953869
20
10.2205854056194
30
0
41
1
10
130.324500000001
20
10.228127808386
30
0
41
1
10
130.324500000001
20
10.2365834598278
30
0
0
SPLINE
5
1D5
100
AcDbEntity
8
1
62
256
6
ByLayer
370
18
48
1
60
0
100
AcDbSpline
70
4
71
3
72
8
73
4
40
0
40
0
40
0
40
0
40
1
40
1
40
1
40
1
41
1
10
130.2495
20
10.2329620912908
30
0
41
1
10
130.034835023948
20
10.4083593488628
30
0
41
1
10
129.820168300833
20
10.5837537555398
30
0
41
1
10
129.6055
20
10.7591455874816
30
0
0
SPLINE
5
1D6
100
AcDbEntity
8
1
62
256
6
ByLayer
370
18
48
1
60
0
100
AcDbSpline
70
4
71
3
72
20
73
16
40
0
40
0
40
0
40
0
40
0.125000000000038
40
0.125000000000038
40
0.187500000000059
40
0.187500000000059
40
0.250000000000079
40
0.250000000000079
40
0.37500000000006
40
0.37500000000006
40
0.500000000000041
40
0.500000000000041
40
0.750000000000021
40
0.750000000000021
40
1
40
1
40
1
40
1
41
1
10
129.6055
20
10.7591455874816
30
0
41
1
10
129.591241209992
20
10.7707955390167
30
0
41
1
10
129.576882009736
20
10.7804531729583
30
0
41
1
10
129.557418433899
20
10.788465770257
30
0
41
1
10
129.55141786387
20
10.7899919676717
30
0
41
1
10
129.540736957698
20
10.7903960135115
30
0
41
1
10
129.536294750605
20
10.789278403277
30
0
41
1
10
129.525397558399
20
10.7823442394068
30
0
41
1
10
129.521806464736
20
10.77297526137
30
0
41
1
10
129.519817784919
20
10.7505443210121
30
0
41
1
10
129.521200723363
20
10.7375040508775
30
0
41
1
10
129.529841545333
20
10.6949118150192
30
0
41
1
10
129.541334881166
20
10.663103963605
30
0
41
1
10
129.569508859252
20
10.598922252976
30
0
41
1
10
129.586315553106
20
10.5663315348299
30
0
41
1
10
129.6055
20
10.5333158840139
30
0
0
SPLINE
5
1D7
100
AcDbEntity
8
1
62
256
6
ByLayer
370
18
48
1
60
0
100
AcDbSpline
70
4
71
3
72
8
73
4
40
0
40
0
40
0
40
0
40
1
40
1
40
1
40
1
41
1
10
129.6055
20
10.5333158840139
30
0
41
1
10
129.824618246661
20
10.1562223165521
30
0
41
1
10
130.039439331602
20
9.77589582489918
30
0
41
1
10
130.2495
20
9.39198788418867
30
0
0
SPLINE
5
1D8
100
AcDbEntity
8
1
62
256
6
ByLayer
370
18
48
1
60
0
100
AcDbSpline
70
4
71
3
72
12
73
8
40
0
40
0
40
0
40
0
40
0.25
40
0.25
40
0.5
40
0.5
40
1
40
1
40
1
40
1
41
1
10
130.324500000007
20
9.17759760343316
30
0
41
1
10
130.324500000006
20
9.1924378510665
30
0
41
1
10
130.321810105843
20
9.2092659533738
30
0
41
1
10
130.313502648554
20
9.24388815157218
30
0
41
1
10
130.307829005166
20
9.26188470172525
30
0
41
1
10
130.287476650065
20
9.31714196024669
30
0
41
1
10
130.270072992638
20
9.35438857871989
30
0
41
1
10
130.2495
20
9.39198788418867
30
0
0
SPLINE
5
1D9
100
AcDbEntity
8
1
62
256
6
ByLayer
370
18
48
1
60
0
100
AcDbSpline
70
4
71
3
72
14
73
10
40
0
40
0
40
0
40
0
40
0.25
40
0.25
40
0.5
40
0.5
40
0.75
40
0.75
40
1
40
1
40
1
40
1
41
1
10
130.2495
20
8.97677529871243
30
0
41
1
10
130.259733022903
20
8.96829674160017
30
0
41
1
10
130.270234663605
20
8.96110396998239
30
0
41
1
10
130.289965723692
20
8.95233899806041
30
0
41
1
10
130.299095384783
20
8.95102521335389
30
0
41
1
10
130.31290217886
20
8.95550717491076
30
0
41
1
10
130.317639435507
20
8.96110144715095
30
0
41
1
10
130.323378773838
20
8.97578391081893
30
0
41
1
10
130.324500000004
20
8.98486364456065
30
0
41
1
10
130.324500000004
20
8.99465257289157
30
0
0
SPLINE
5
1DA
100
AcDbEntity
8
1
62
256
6
ByLayer
370
18
48
1
60
0
100
AcDbSpline
70
4
71
3
72
8
73
4
40
0
40
0
40
0
40
0
40
1
40
1
40
1
40
1
41
1
10
130.2495
20
8.97677529871274
30
0
41
1
10
130.034872069188
20
9.15460497685515
30
0
41
1
10
129.820203979195
20
9.33237004341848
30
0
41
1
10
129.6055
20
9.51007727764983
30
0
0
SPLINE
5
1DB
100
AcDbEntity
8
1
62
256
6
ByLayer
370
18
48
1
60
0
100
AcDbSpline
70
4
71
3
72
22
73
18
40
0
40
0
40
0
40
0
40
0.0624999999999993
40
0.0624999999999993
40
0.124999999999999
40
0.124999999999999
40
0.187499999999998
40
0.187499999999998
40
0.249999999999997
40
0.249999999999997
40
0.374999999999992
40
0.374999999999992
40
0.499999999999987
40
0.499999999999987
40
0.749999999999993
40
0.749999999999993
40
1
40
1
40
1
40
1
41
1
10
129.6055
20
9.5100772776504
30
0
41
1
10
129.597953135099
20
9.51632370351425
30
0
41
1
10
129.590330974831
20
9.52192824566359
30
0
41
1
10
129.575215001469
20
9.5310758420371
30
0
41
1
10
129.567808263291
20
9.53454137094894
30
0
41
1
10
129.554107443175
20
9.5383181156671
30
0
41
1
10
129.547904073598
20
9.5385925023582
30
0
41
1
10
129.537369962298
20
9.53579049075933
30
0
41
1
10
129.533213831342
20
9.532825207766
30
0
41
1
10
129.52342445853
20
9.52014194121998
30
0
41
1
10
129.520891479662
20
9.5072078372263
30
0
41
1
10
129.520192653502
20
9.47891574267823
30
0
41
1
10
129.521965579882
20
9.46331662379927
30
0
41
1
10
129.53125227634
20
9.41377848404915
30
0
41
1
10
129.542520094208
20
9.37813662761641
30
0
41
1
10
129.570215633343
20
9.3062248876231
30
0
41
1
10
129.586679720459
20
9.26998156296006
30
0
41
1
10
129.6055
20
9.23348971252756
30
0
0
SPLINE
5
1DC
100
AcDbEntity
8
1
62
256
6
ByLayer
370
18
48
1
60
0
100
AcDbSpline
70
4
71
3
72
8
73
4
40
0
40
0
40
0
40
0
40
1
40
1
40
1
40
1
41
1
10
129.6055
20
9.23348971252756
30
0
41
1
10
129.826510348702
20
8.80495853309316
30
0
41
1
10
130.04140572646
20
8.37238268351763
30
0
41
1
10
130.2495
20
7.93530832963128
30
0
0
SPLINE
5
1DD
100
AcDbEntity
8
1
62
256
6
ByLayer
370
18
48
1
60
0
100
AcDbSpline
70
4
71
3
72
12
73
8
40
0
40
0
40
0
40
0
40
0.249999999999983
40
0.249999999999983
40
0.499999999999966
40
0.499999999999966
40
1
40
1
40
1
40
1
41
1
10
130.3245
20
7.68098768618992
30
0
41
1
10
130.3245
20
7.69970714527071
30
0
41
1
10
130.321855324873
20
7.71979491474605
30
0
41
1
10
130.313599942066
20
7.76148387237254
30
0
41
1
10
130.30788129739
20
7.78314743734003
30
0
41
1
10
130.287783443018
20
7.84783236502628
30
0
41
1
10
130.270417001908
20
7.89137494819539
30
0
41
1
10
130.2495
20
7.93530832963125
30
0
0
SPLINE
5
1DE
100
AcDbEntity
8
1
62
256
6
ByLayer
370
18
48
1
60
0
100
AcDbSpline
70
4
71
3
72
14
73
10
40
0
40
0
40
0
40
0
40
0.25
40
0.25
40
0.5
40
0.5
40
0.75
40
0.75
40
1
40
1
40
1
40
1
41
1
10
130.2495
20
7.41601229971633
30
0
41
1
10
130.260085369069
20
7.40687764284772
30
0
41
1
10
130.27112172787
20
7.39936506515727
30
0
41
1
10
130.291967553371
20
7.3921063777259
30
0
41
1
10
130.301175936096
20
7.39293743059275
30
0
41
1
10
130.31440749166
20
7.40245779349988
30
0
41
1
10
130.318609915423
20
7.41080188705774
30
0
41
1
10
130.323586945422
20
7.42978726006589
30
0
41
1
10
130.3245
20
7.44045271787044
30
0
41
1
10
130.3245
20
7.45179206956738
30
0
0
SPLINE
5
1DF
100
AcDbEntity
8
1
62
256
6
ByLayer
370
18
48
1
60
0
100
AcDbSpline
70
4
71
3
72
8
73
4
40
0
40
0
40
0
40
0
40
1
40
1
40
1
40
1
41
1
10
130.2495
20
7.41601229971653
30
0
41
1
10
130.035005737834
20
7.60111037918736
30
0
41
1
10
129.820331960648
20
7.78593046871953
30
0
41
1
10
129.6055
20
7.97050560152917
30
0
0
SPLINE
5
1E0
100
AcDbEntity
8
1
62
256
6
ByLayer
370
18
48
1
60
0
100
AcDbSpline
70
4
71
3
72
24
73
20
40
0
40
0
40
0
40
0
40
0.0624999999999961
40
0.0624999999999961
40
0.124999999999992
40
0.124999999999992
40
0.187499999999988
40
0.187499999999988
40
0.249999999999984
40
0.249999999999984
40
0.374999999999982
40
0.374999999999982
40
0.499999999999979
40
0.499999999999979
40
0.624999999999984
40
0.624999999999984
40
0.74999999999999
40
0.74999999999999
40
1
40
1
40
1
40
1
41
1
10
129.6055
20
7.9705056015292
30
0
41
1
10
129.597228437567
20
7.97761220117155
30
0
41
1
10
129.588914419841
20
7.98372808901578
30
0
41
1
10
129.57215708379
20
7.99292841463932
30
0
41
1
10
129.563911018039
20
7.99578434456316
30
0
41
1
10
129.549332527511
20
7.99660792687311
30
0
41
1
10
129.543058514406
20
7.9945698287035
30
0
41
1
10
129.533175608737
20
7.98666433318868
30
0
41
1
10
129.529511798149
20
7.98085776016839
30
0
41
1
10
129.521618643724
20
7.96063958687651
30
0
41
1
10
129.520184061725
20
7.94339496214934
30
0
41
1
10
129.520919902298
20
7.90773484786385
30
0
41
1
10
129.523123853493
20
7.88887377785329
30
0
41
1
10
129.529813307373
20
7.84985428552383
30
0
41
1
10
129.534358710199
20
7.82963060680697
30
0
41
1
10
129.544946601497
20
7.78929386474894
30
0
41
1
10
129.551022507126
20
7.7690160851208
30
0
41
1
10
129.571175868445
20
7.70791114649734
30
0
41
1
10
129.58712561472
20
7.66681881346409
30
0
41
1
10
129.6055
20
7.62539331825741
30
0
0
SPLINE
5
1E1
100
AcDbEntity
8
1
62
256
6
ByLayer
370
18
48
1
60
0
100
AcDbSpline
70
4
71
3
72
8
73
4
40
0
40
0
40
0
40
0
40
1
40
1
40
1
40
1
41
1
10
129.6055
20
7.62539331825741
30
0
41
1
10
129.829910422179
20
7.11945460374577
30
0
41
1
10
130.044943589855
20
6.60826752524318
30
0
41
1
10
130.2495
20
6.09121670091358
30
0
0
SPLINE
5
1E2
100
AcDbEntity
8
1
62
256
6
ByLayer
370
18
48
1
60
0
100
AcDbSpline
70
4
71
3
72
12
73
8
40
0
40
0
40
0
40
0
40
0.250000000000001
40
0.250000000000001
40
0.500000000000003
40
0.500000000000003
40
1
40
1
40
1
40
1
41
1
10
130.3245
20
5.775463961686
30
0
41
1
10
130.3245
20
5.79990911985593
30
0
41
1
10
130.321817981306
20
5.82575094588424
30
0
41
1
10
130.313562475329
20
5.87825088423151
30
0
41
1
10
130.307981564277
20
5.90464219629345
30
0
41
1
10
130.288101027238
20
5.9841111952552
30
0
41
1
10
130.270762412543
20
6.03747236738394
30
0
41
1
10
130.2495
20
6.09121670091355
30
0
0
SPLINE
5
1E3
100
AcDbEntity
8
1
62
256
6
ByLayer
370
18
48
1
60
0
100
AcDbSpline
70
4
71
3
72
18
73
14
40
0
40
0
40
0
40
0
40
0.124999999999998
40
0.124999999999998
40
0.249999999999997
40
0.249999999999997
40
0.374999999999995
40
0.374999999999995
40
0.499999999999993
40
0.499999999999993
40
0.749999999999997
40
0.749999999999997
40
1
40
1
40
1
40
1
41
1
10
130.2495
20
5.41462793875522
30
0
41
1
10
130.25500497881
20
5.40942226426458
30
0
41
1
10
130.260747198982
20
5.40471028405091
30
0
41
1
10
130.272271983717
20
5.39733639177771
30
0
41
1
10
130.278205664728
20
5.39462177258619
30
0
41
1
10
130.2893124648
20
5.39239882537697
30
0
41
1
10
130.294555762787
20
5.3929125974021
30
0
41
1
10
130.303434328157
20
5.39691307946609
30
0
41
1
10
130.307128635141
20
5.40034044417874
30
0
41
1
10
130.316095454751
20
5.41297592211845
30
0
41
1
10
130.319554238696
20
5.42459510897655
30
0
41
1
10
130.323742183535
20
5.449180254646
30
0
41
1
10
130.3245
20
5.46229665726347
30
0
41
1
10
130.3245
20
5.47587470579182
30
0
0
SPLINE
5
1E4
100
AcDbEntity
8
1
62
256
6
ByLayer
370
18
48
1
60
0
100
AcDbSpline
70
4
71
3
72
8
73
4
40
0
40
0
40
0
40
0
40
1
40
1
40
1
40
1
41
1
10
130.2495
20
5.41462793875601
30
0
41
1
10
130.035436607666
20
5.61705275803979
30
0
41
1
10
129.820739969169
20
5.81857838232773
30
0
41
1
10
129.6055
20
6.01933248954902
30
0
0
SPLINE
5
1E5
100
AcDbEntity
8
1
62
256
6
ByLayer
370
18
48
1
60
0
100
AcDbSpline
70
4
71
3
72
24
73
20
40
0
40
0
40
0
40
0
40
0.0624999999999201
40
0.0624999999999201
40
0.0937499999999251
40
0.0937499999999251
40
0.12499999999993
40
0.12499999999993
40
0.187499999999939
40
0.187499999999939
40
0.249999999999949
40
0.249999999999949
40
0.374999999999954
40
0.374999999999954
40
0.499999999999959
40
0.499999999999959
40
0.749999999999979
40
0.749999999999979
40
1
40
1
40
1
40
1
41
1
10
129.6055
20
6.01933248955072
30
0
41
1
10
129.596351499941
20
6.0278652865442
30
0
41
1
10
129.586687669786
20
6.03519990669923
30
0
41
1
10
129.572333089937
20
6.04182000623805
30
0
41
1
10
129.567554778791
20
6.04327231683047
30
0
41
1
10
129.558641496353
20
6.04425085338195
30
0
41
1
10
129.554365500145
20
6.04377545461878
30
0
41
1
10
129.543093981622
20
6.03971048768668
30
0
41
1
10
129.537346922296
20
6.03351139340867
30
0
41
1
10
129.5289338815
20
6.01793447613005
30
0
41
1
10
129.526157472394
20
6.00858243147931
30
0
41
1
10
129.520450088133
20
5.97888478005339
30
0
41
1
10
129.519936430234
20
5.95636684520741
30
0
41
1
10
129.521890124223
20
5.91059149971127
30
0
41
1
10
129.524441710891
20
5.88694932565966
30
0
41
1
10
129.53512134905
20
5.81454611730416
30
0
41
1
10
129.545959817937
20
5.76586334747344
30
0
41
1
10
129.572183989675
20
5.66796329634948
30
0
41
1
10
129.58766472211
20
5.61873629515077
30
0
41
1
10
129.6055
20
5.56924233257848
30
0
0
SPLINE
5
1E6
100
AcDbEntity
8
1
62
256
6
ByLayer
370
18
48
1
60
0
100
AcDbSpline
70
4
71
3
72
8
73
4
40
0
40
0
40
0
40
0
40
1
40
1
40
1
40
1
41
1
10
129.6055
20
5.56924233257848
30
0
41
1
10
129.837557523584
20
4.92526882917301
30
0
41
1
10
130.052909503293
20
4.27395742250903
30
0
41
1
10
130.2495
20
3.61440504217333
30
0
0
SPLINE
5
1E7
100
AcDbEntity
8
1
62
256
6
ByLayer
370
18
48
1
60
0
100
AcDbSpline
70
4
71
3
72
12
73
8
40
0
40
0
40
0
40
0
40
0.250000000000001
40
0.250000000000001
40
0.500000000000002
40
0.500000000000002
40
1
40
1
40
1
40
1
41
1
10
130.3245
20
3.1800854813313
30
0
41
1
10
130.3245
20
3.21493915084153
30
0
41
1
10
130.321916951756
20
3.2505459171112
30
0
41
1
10
130.313952554405
20
3.32253866084065
30
0
41
1
10
130.308463266611
20
3.35905903325801
30
0
41
1
10
130.288693751875
20
3.46847945251039
30
0
41
1
10
130.271251087085
20
3.54143111158044
30
0
41
1
10
130.2495
20
3.61440504217333
30
0
0
SPLINE
5
1E8
100
AcDbEntity
8
1
62
256
6
ByLayer
370
18
48
1
60
0
100
AcDbSpline
70
4
71
3
72
18
73
14
40
0
40
0
40
0
40
0
40
0.12500000000003
40
0.12500000000003
40
0.250000000000059
40
0.250000000000059
40
0.375000000000089
40
0.375000000000089
40
0.500000000000118
40
0.500000000000118
40
0.750000000000059
40
0.750000000000059
40
1
40
1
40
1
40
1
41
1
10
130.249499999998
20
2.63358295813177
30
0
41
1
10
130.255413958302
20
2.62662406169059
30
0
41
1
10
130.261770458563
20
2.62030972372838
30
0
41
1
10
130.275305680587
20
2.61142405447779
30
0
41
1
10
130.282553982376
20
2.60917728824288
30
0
41
1
10
130.295087758634
20
2.61165495551535
30
0
41
1
10
130.300230069096
20
2.6160994770662
30
0
41
1
10
130.308159051547
20
2.62751165373635
30
0
41
1
10
130.31112797194
20
2.6345170795924
30
0
41
1
10
130.318222409956
20
2.65669355896876
30
0
41
1
10
130.32074518818
20
2.67337802668865
30
0
41
1
10
130.323912195392
20
2.70715170013853
30
0
41
1
10
130.3245
20
2.72451069593038
30
0
41
1
10
130.3245
20
2.7421428531872
30
0
0
SPLINE
5
1E9
100
AcDbEntity
8
1
62
256
6
ByLayer
370
18
48
1
60
0
100
AcDbSpline
70
4
71
3
72
8
73
4
40
0
40
0
40
0
40
0
40
1
40
1
40
1
40
1
41
1
10
130.2495
20
2.63358295813458
30
0
41
1
10
130.037366545293
20
2.88319830325096
30
0
41
1
10
129.822529300301
20
3.12967639832351
30
0
41
1
10
129.6055
20
3.37361101742624
30
0
0
SPLINE
5
1EA
100
AcDbEntity
8
1
62
256
6
ByLayer
370
18
48
1
60
0
100
AcDbSpline
70
4
71
3
72
28
73
24
40
0
40
0
40
0
40
0
40
0.0312500000000068
40
0.0312500000000068
40
0.0625000000000137
40
0.0625000000000137
40
0.0937500000000205
40
0.0937500000000205
40
0.125000000000027
40
0.125000000000027
40
0.156250000000034
40
0.156250000000034
40
0.187500000000041
40
0.187500000000041
40
0.250000000000038
40
0.250000000000038
40
0.375000000000032
40
0.375000000000032
40
0.500000000000027
40
0.500000000000027
40
0.750000000000013
40
0.750000000000013
40
1
40
1
40
1
40
1
41
1
10
129.6055
20
3.3736110174267
30
0
41
1
10
129.600004737356
20
3.37978753275482
30
0
41
1
10
129.594211799427
20
3.38544000419924
30
0
41
1
10
129.582136331548
20
3.39446580599065
30
0
41
1
10
129.57576477563
20
3.39785124933783
30
0
41
1
10
129.563317296278
20
3.4002949759265
30
0
41
1
10
129.557514772273
20
3.39919648353936
30
0
41
1
10
129.547823371798
20
3.39340034883725
30
0
41
1
10
129.543809077888
20
3.38877626134621
30
0
41
1
10
129.537237166688
20
3.37796395532274
30
0
41
1
10
129.534613239458
20
3.37171127711898
30
0
41
1
10
129.530308572924
20
3.35860754730581
30
0
41
1
10
129.528603869242
20
3.35169550185071
30
0
41
1
10
129.524370352316
20
3.33024655544989
30
0
41
1
10
129.52272221291
20
3.31500768205495
30
0
41
1
10
129.519763477303
20
3.26920455495943
30
0
41
1
10
129.520294258414
20
3.23786352107086
30
0
41
1
10
129.523619220996
20
3.17441960623171
30
0
41
1
10
129.526514159927
20
3.14228555379819
30
0
41
1
10
129.537644146478
20
3.04503534315219
30
0
41
1
10
129.548337322641
20
2.97887805299882
30
0
41
1
10
129.573783904193
20
2.84691878935365
30
0
41
1
10
129.588606152319
20
2.78086412303725
30
0
41
1
10
129.6055
20
2.71473982249822
30
0
0
SPLINE
5
1EB
100
AcDbEntity
8
1
62
256
6
ByLayer
370
18
48
1
60
0
100
AcDbSpline
70
4
71
3
72
8
73
4
40
0
40
0
40
0
40
0
40
1
40
1
40
1
40
1
41
1
10
129.6055
20
2.71473982249824
30
0
41
1
10
129.869706220596
20
1.68060882615413
30
0
41
1
10
130.086430061288
20
0.633506181259065
30
0
41
1
10
130.2495
20
-0.428254102137942
30
0
0
SPLINE
5
1EC
100
AcDbEntity
8
1
62
256
6
ByLayer
370
18
48
1
60
0
100
AcDbSpline
70
4
71
3
72
12
73
8
40
0
40
0
40
0
40
0
40
0.249999999999999
40
0.249999999999999
40
0.499999999999997
40
0.499999999999997
40
1
40
1
40
1
40
1
41
1
10
130.3245
20
-1.36448444176335
30
0
41
1
10
130.3245
20
-1.28674675504038
30
0
41
1
10
130.322321213052
20
-1.20886639586817
30
0
41
1
10
130.315157628452
20
-1.05297445046202
30
0
41
1
10
130.310118654055
20
-0.974957444600221
30
0
41
1
10
130.291122937351
20
-0.740740290622682
30
0
41
1
10
130.273453541426
20
-0.584217360193975
30
0
41
1
10
130.2495
20
-0.428254102138027
30
0
0
SPLINE
5
1ED
100
AcDbEntity
8
1
62
256
6
ByLayer
370
18
48
1
60
0
100
AcDbSpline
70
4
71
3
72
30
73
26
40
0
40
0
40
0
40
0
40
0.0625000000001826
40
0.0625000000001826
40
0.0937500000002723
40
0.0937500000002723
40
0.109375000000293
40
0.109375000000293
40
0.125000000000313
40
0.125000000000313
40
0.140625000000333
40
0.140625000000333
40
0.156250000000354
40
0.156250000000354
40
0.187500000000343
40
0.187500000000343
40
0.250000000000323
40
0.250000000000323
40
0.375000000000271
40
0.375000000000271
40
0.50000000000022
40
0.50000000000022
40
0.75000000000011
40
0.75000000000011
40
1
40
1
40
1
40
1
41
1
10
130.2495
20
-3.1082541252251
30
0
41
1
10
130.252585251602
20
-3.12149107225423
30
0
41
1
10
130.255899597279
20
-3.13461822570164
30
0
41
1
10
130.261905380729
20
-3.15382130104476
30
0
41
1
10
130.264083682185
20
-3.16018089993054
30
0
41
1
10
130.267983901483
20
-3.1692840260985
30
0
41
1
10
130.269379755249
20
-3.17222382143251
30
0
41
1
10
130.272581160924
20
-3.17769975868512
30
0
41
1
10
130.27439750269
20
-3.18031703501887
30
0
41
1
10
130.27884813873
20
-3.18380218965731
30
0
41
1
10
130.281541189178
20
-3.18418828591089
30
0
41
1
10
130.285946402378
20
-3.18151404328552
30
0
41
1
10
130.287666132915
20
-3.17899993628464
30
0
41
1
10
130.291963767712
20
-3.17098731134303
30
0
41
1
10
130.293902185556
20
-3.16470908171226
30
0
41
1
10
130.298993106347
20
-3.14568324825305
30
0
41
1
10
130.301268828837
20
-3.13238512588623
30
0
41
1
10
130.307234219055
20
-3.09226820421961
30
0
41
1
10
130.30983512522
20
-3.06504702247378
30
0
41
1
10
130.314214938181
20
-3.01055646272124
30
0
41
1
10
130.315900690146
20
-2.98321235595941
30
0
41
1
10
130.320121868679
20
-2.90102945045515
30
0
41
1
10
130.321822727285
20
-2.84602940068925
30
0
41
1
10
130.324029349182
20
-2.73590172153885
30
0
41
1
10
130.324500000004
20
-2.68078491158198
30
0
41
1
10
130.324500000004
20
-2.62563670288284
30
0
0
SPLINE
5
1EE
100
AcDbEntity
8
1
62
256
6
ByLayer
370
18
48
1
60
0
100
AcDbSpline
70
4
71
3
72
10
73
6
40
0
40
0
40
0
40
0
40
0.5
40
0.5
40
1
40
1
40
1
40
1
41
1
10
130.2495
20
-3.10825412522513
30
0
41
1
10
130.172800078505
20
-2.77918119088182
30
0
41
1
10
130.078711071859
20
-2.4580038122883
30
0
41
1
10
129.862125005522
20
-1.8285477996067
30
0
41
1
10
129.739622539874
20
-1.52027162010643
30
0
41
1
10
129.605500000001
20
-1.21727156313122
30
0
0
SPLINE
5
1EF
100
AcDbEntity
8
1
62
256
6
ByLayer
370
18
48
1
60
0
100
AcDbSpline
70
4
71
3
72
34
73
30
40
0
40
0
40
0
40
0
40
0.0156250000000082
40
0.0156250000000082
40
0.0234375000000133
40
0.0234375000000133
40
0.0312500000000184
40
0.0312500000000184
40
0.0390625000000235
40
0.0390625000000235
40
0.0468750000000286
40
0.0468750000000286
40
0.0625000000000275
40
0.0625000000000275
40
0.0937500000000271
40
0.0937500000000271
40
0.125000000000027
40
0.125000000000027
40
0.187500000000025
40
0.187500000000025
40
0.250000000000023
40
0.250000000000023
40
0.375000000000019
40
0.375000000000019
40
0.500000000000015
40
0.500000000000015
40
0.750000000000007
40
0.750000000000007
40
1
40
1
40
1
40
1
41
1
10
129.6055
20
-1.21727156313159
30
0
41
1
10
129.600770565557
20
-1.20658716282784
30
0
41
1
10
129.595549054338
20
-1.19606105002768
30
0
41
1
10
129.585900390277
20
-1.1825249284918
30
0
41
1
10
129.582318343786
20
-1.17834473370803
30
0
41
1
10
129.574314046877
20
-1.17262767042365
30
0
41
1
10
129.56971601516
20
-1.17137772101364
30
0
41
1
10
129.561718660099
20
-1.17386904609799
30
0
41
1
10
129.558300967182
20
-1.17726719122581
30
0
41
1
10
129.552786193003
20
-1.1852864462015
30
0
41
1
10
129.550603107456
20
-1.18988101730611
30
0
41
1
10
129.544820911684
20
-1.20444895895852
30
0
41
1
10
129.542027970043
20
-1.21519006895633
30
0
41
1
10
129.534988669662
20
-1.24793391237191
30
0
41
1
10
129.532125846609
20
-1.27040421077658
30
0
41
1
10
129.527546360837
20
-1.31540899894586
30
0
41
1
10
129.525936675823
20
-1.33807227650877
30
0
41
1
10
129.5221879376
20
-1.40632946799212
30
0
41
1
10
129.521123714516
20
-1.45218951034101
30
0
41
1
10
129.520277547574
20
-1.54426412244231
30
0
41
1
10
129.520544772605
20
-1.5904897220062
30
0
41
1
10
129.522565645691
20
-1.72954059363553
30
0
41
1
10
129.525520224338
20
-1.82280694025553
30
0
41
1
10
129.532835222886
20
-2.0093013332644
30
0
41
1
10
129.537238897876
20
-2.10261776087427
30
0
41
1
10
129.551541689553
20
-2.3827458203283
30
0
41
1
10
129.562501630545
20
-2.56973539008598
30
0
41
1
10
129.584379308983
20
-2.94411855831774
30
0
41
1
10
129.595352138883
20
-3.13154196308034
30
0
41
1
10
129.6055
20
-3.31906645791358
30
0
0
SPLINE
5
1F0
100
AcDbEntity
8
1
62
256
6
ByLayer
370
18
48
1
60
0
100
AcDbSpline
70
4
71
3
72
10
73
6
40
0
40
0
40
0
40
0
40
0.5
40
0.5
40
1
40
1
40
1
40
1
41
1
10
16.0875
20
21.0560949889959
30
0
41
1
10
15.8506599010489
20
21.6198621128699
30
0
41
1
10
15.6099904417374
20
22.182107020352
30
0
41
1
10
15.1223030300325
20
23.3032979926191
30
0
41
1
10
14.8752426852367
20
23.8623430075551
30
0
41
1
10
14.6253876765866
20
24.4200409500067
30
0
0
SPLINE
5
1F1
100
AcDbEntity
8
1
62
256
6
ByLayer
370
18
48
1
60
0
100
AcDbSpline
70
4
71
3
72
8
73
4
40
0
40
0
40
0
40
0
40
1
40
1
40
1
40
1
41
1
10
129.6055
20
-3.31906645791358
30
0
41
1
10
129.666142318209
20
-4.43968881930454
30
0
41
1
10
129.666142318209
20
-5.56031118069549
30
0
41
1
10
129.6055
20
-6.68093354208642
30
0
0
SPLINE
5
1F2
100
AcDbEntity
8
1
62
256
6
ByLayer
370
18
48
1
60
0
100
AcDbSpline
70
4
71
3
72
8
73
4
40
0
40
0
40
0
40
0
40
1
40
1
40
1
40
1
41
1
10
25.95
20
23.7722190802626
30
0
41
1
10
25.7839428389179
20
23.9885552271468
30
0
41
1
10
25.6172335326703
20
24.2045278276532
30
0
41
1
10
25.4499999999999
20
24.4200409500067
30
0
0
SPLINE
5
1F3
100
AcDbEntity
8
1
62
256
6
ByLayer
370
18
48
1
60
0
100
AcDbSpline
70
4
71
3
72
10
73
6
40
0
40
0
40
0
40
0
40
0.500000000000001
40
0.500000000000001
40
1
40
1
40
1
40
1
41
1
10
129.605500000001
20
-8.78272843686878
30
0
41
1
10
129.739622539874
20
-8.47972837989317
30
0
41
1
10
129.862125005522
20
-8.17145220039245
30
0
41
1
10
130.078711071859
20
-7.54199618770997
30
0
41
1
10
130.172800078506
20
-7.22081880911597
30
0
41
1
10
130.249500000001
20
-6.89174587477217
30
0
0
SPLINE
5
1F4
100
AcDbEntity
8
1
62
256
6
ByLayer
370
18
48
1
60
0
100
AcDbSpline
70
4
71
3
72
8
73
4
40
0
40
0
40
0
40
0
40
1
40
1
40
1
40
1
41
1
10
21.3746123234133
20
30.4315723180712
30
0
41
1
10
20.8861066045607
20
29.5565832425009
30
0
41
1
10
20.3986317098494
20
28.6810104197576
30
0
41
1
10
19.9125
20
27.804699781433
30
0
0
SPLINE
5
1F5
100
AcDbEntity
8
1
62
256
6
ByLayer
370
18
48
1
60
0
100
AcDbSpline
70
4
71
3
72
8
73
4
40
0
40
0
40
0
40
0
40
1
40
1
40
1
40
1
41
1
10
25.95
20
29.9142205940586
30
0
41
1
10
25.7833823365861
20
30.086718788344
30
0
41
1
10
25.6167148649415
20
30.259168580766
30
0
41
1
10
25.45
20
30.4315723180712
30
0
0
SPLINE
5
1F6
100
AcDbEntity
8
1
62
256
6
ByLayer
370
18
48
1
60
0
100
AcDbSpline
70
4
71
3
72
34
73
30
40
0
40
0
40
0
40
0
40
0.250000000000011
40
0.250000000000011
40
0.500000000000023
40
0.500000000000023
40
0.625000000000029
40
0.625000000000029
40
0.750000000000035
40
0.750000000000035
40
0.81250000000004
40
0.81250000000004
40
0.875000000000044
40
0.875000000000044
40
0.906250000000047
40
0.906250000000047
40
0.937500000000051
40
0.937500000000051
40
0.953125000000048
40
0.953125000000048
40
0.960937500000041
40
0.960937500000041
40
0.968750000000033
40
0.968750000000033
40
0.976562500000026
40
0.976562500000026
40
0.984375000000018
40
0.984375000000018
40
1
40
1
40
1
40
1
41
1
10
129.6055
20
-6.68093354208642
30
0
41
1
10
129.595346533293
20
-6.86856162383251
30
0
41
1
10
129.584370807237
20
-7.05602622870049
30
0
41
1
10
129.56248148874
20
-7.43060998840196
30
0
41
1
10
129.551513851723
20
-7.61772984290477
30
0
41
1
10
129.537202736881
20
-7.89812543294147
30
0
41
1
10
129.532796830085
20
-7.99154315427995
30
0
41
1
10
129.525483149715
20
-8.17827399044907
30
0
41
1
10
129.522535167938
20
-8.27154581726995
30
0
41
1
10
129.520533676288
20
-8.41078910394864
30
0
41
1
10
129.520274752555
20
-8.45710621188087
30
0
41
1
10
129.52115465809
20
-8.54944772811493
30
0
41
1
10
129.522240748443
20
-8.59548103644971
30
0
41
1
10
129.526081728681
20
-8.66411512076141
30
0
41
1
10
129.527736744004
20
-8.68693139674281
30
0
41
1
10
129.532408665708
20
-8.7318553676981
30
0
41
1
10
129.535313860698
20
-8.75405257873135
30
0
41
1
10
129.542369992768
20
-8.78613748291926
30
0
41
1
10
129.545178365622
20
-8.7967125716028
30
0
41
1
10
129.551015675626
20
-8.81100700088254
30
0
41
1
10
129.553273328892
20
-8.81559505581765
30
0
41
1
10
129.55884924938
20
-8.8233213778426
30
0
41
1
10
129.562256999408
20
-8.82651238166213
30
0
41
1
10
129.570382070726
20
-8.82858172104389
30
0
41
1
10
129.574817602389
20
-8.82712919062234
30
0
41
1
10
129.582709235835
20
-8.82124552398943
30
0
41
1
10
129.586129694689
20
-8.81718720805955
30
0
41
1
10
129.595657580156
20
-8.80371592831969
30
0
41
1
10
129.600811615614
20
-8.79332009981698
30
0
41
1
10
129.6055
20
-8.78272843686841
30
0
0
SPLINE
5
1F7
100
AcDbEntity
8
1
62
256
6
ByLayer
370
18
48
1
60
0
100
AcDbSpline
70
4
71
3
72
10
73
6
40
0
40
0
40
0
40
0
40
0.5
40
0.5
40
1
40
1
40
1
40
1
41
1
10
21.3746123234134
20
24.4200409500067
30
0
41
1
10
21.1247500405127
20
23.8623267708001
30
0
41
1
10
20.8776825838395
20
23.3032654408426
30
0
41
1
10
20.389981348978
20
22.1820416454377
30
0
41
1
10
20.1492474359547
20
21.6196415406308
30
0
41
1
10
19.9125
20
21.0560949889959
30
0
0
SPLINE
5
1F8
100
AcDbEntity
8
1
62
256
6
ByLayer
370
18
48
1
60
0
100
AcDbSpline
70
4
71
3
72
8
73
4
40
0
40
0
40
0
40
0
40
1
40
1
40
1
40
1
41
1
10
16.0875
20
27.804699781433
30
0
41
1
10
15.6013682901506
20
28.6810104197576
30
0
41
1
10
15.1138933954393
20
29.5565832425009
30
0
41
1
10
14.6253876765867
20
30.4315723180712
30
0
0
SPLINE
5
1F9
100
AcDbEntity
8
SK1
62
256
6
ByLayer
370
18
48
1
60
0
100
AcDbSpline
70
4
71
3
72
14
73
10
40
0
40
0
40
0
40
0
40
0.25
40
0.25
40
0.5
40
0.5
40
0.75
40
0.75
40
1
40
1
40
1
40
1
41
1
10
-31.8423156651183
20
19.5578384055689
30
0
41
1
10
-31.8423091894368
20
19.5999545092391
30
0
41
1
10
-31.8455917378832
20
19.632485699749
30
0
41
1
10
-31.8566881179001
20
19.6799291409913
30
0
41
1
10
-31.8641941814282
20
19.6942133335598
30
0
41
1
10
-31.8789048656756
20
19.7086926317288
30
0
41
1
10
-31.886117982338
20
19.7089022277163
30
0
41
1
10
-31.8967110689173
20
19.6982686387963
30
0
41
1
10
-31.9
20
19.6874626428636
30
0
41
1
10
-31.9
20
19.6726615351915
30
0
0
SPLINE
5
1FA
100
AcDbEntity
8
SK1
62
256
6
ByLayer
370
18
48
1
60
0
100
AcDbSpline
70
4
71
3
72
58
73
54
40
0
40
0
40
0
40
0
40
0.0624999999999905
40
0.0624999999999905
40
0.124999999999981
40
0.124999999999981
40
0.249999999999963
40
0.249999999999963
40
0.312499999999954
40
0.312499999999954
40
0.374999999999946
40
0.374999999999946
40
0.406249999999942
40
0.406249999999942
40
0.437499999999937
40
0.437499999999937
40
0.453124999999936
40
0.453124999999936
40
0.468749999999934
40
0.468749999999934
40
0.484374999999933
40
0.484374999999933
40
0.492187499999933
40
0.492187499999933
40
0.499999999999933
40
0.499999999999933
40
0.503906249999934
40
0.503906249999934
40
0.507812499999935
40
0.507812499999935
40
0.515624999999936
40
0.515624999999936
40
0.523437499999937
40
0.523437499999937
40
0.531249999999938
40
0.531249999999938
40
0.546874999999939
40
0.546874999999939
40
0.562499999999941
40
0.562499999999941
40
0.578124999999943
40
0.578124999999943
40
0.593749999999944
40
0.593749999999944
40
0.624999999999949
40
0.624999999999949
40
0.687499999999957
40
0.687499999999957
40
0.749999999999966
40
0.749999999999966
40
0.874999999999983
40
0.874999999999983
40
1
40
1
40
1
40
1
41
1
10
-31.067579804184
20
20.2481331121841
30
0
41
1
10
-31.06755349448
20
20.1911598250594
30
0
41
1
10
-31.0690558562391
20
20.132774178548
30
0
41
1
10
-31.0751975156526
20
20.0131046297761
30
0
41
1
10
-31.0798417970885
20
19.9517619312583
30
0
41
1
10
-31.098775367273
20
19.7634783194111
30
0
41
1
10
-31.1178383149614
20
19.6330125932624
30
0
41
1
10
-31.1589044208934
20
19.4277416325859
30
0
41
1
10
-31.1746935451899
20
19.3577058453325
30
0
41
1
10
-31.2117361452845
20
19.213440226088
30
0
41
1
10
-31.2329189748109
20
19.1392646171138
30
0
41
1
10
-31.2709786311793
20
19.0231769716379
30
0
41
1
10
-31.2847249717861
20
18.9836676720972
30
0
41
1
10
-31.3152705420595
20
18.9023058940874
30
0
41
1
10
-31.3321392057089
20
18.8602280123906
30
0
41
1
10
-31.3608223753418
20
18.7952734750922
30
0
41
1
10
-31.3709454828759
20
18.7733251884509
30
0
41
1
10
-31.3927907938227
20
18.7285842604352
30
0
41
1
10
-31.4044932816838
20
18.7058020292679
30
0
41
1
10
-31.4304849504932
20
18.6588717410433
30
0
41
1
10
-31.4448586495024
20
18.6345269675406
30
0
41
1
10
-31.4694454277664
20
18.5974180443797
30
0
41
1
10
-31.478250590326
20
18.5848105084479
30
0
41
1
10
-31.4971322496081
20
18.5597911837258
30
0
41
1
10
-31.507285870917
20
18.5472732006818
30
0
41
1
10
-31.5235937264866
20
18.5293017997568
30
0
41
1
10
-31.5291328199054
20
18.5235319382215
30
0
41
1
10
-31.540455206301
20
18.5125145240029
30
0
41
1
10
-31.5462733934335
20
18.5072488249712
30
0
41
1
10
-31.5632473120247
20
18.4931061428754
30
0
41
1
10
-31.5743846649152
20
18.4855337427765
30
0
41
1
10
-31.5943555533516
20
18.4746988436821
30
0
41
1
10
-31.6034714507811
20
18.4712016914577
30
0
41
1
10
-31.6196892919795
20
18.4669404158795
30
0
41
1
10
-31.6269318176931
20
18.4661001055432
30
0
41
1
10
-31.6469990686496
20
18.4660519089551
30
0
41
1
10
-31.6577541926853
20
18.4692049105474
30
0
41
1
10
-31.6768216409587
20
18.4783543828115
30
0
41
1
10
-31.6850662410959
20
18.4844629399589
30
0
41
1
10
-31.7000045832166
20
18.4985252908866
30
0
41
1
10
-31.7066624590572
20
18.5064894105736
30
0
41
1
10
-31.7187819764966
20
18.5235146894652
30
0
41
1
10
-31.7242610332235
20
18.5326059928097
30
0
41
1
10
-31.7394465274052
20
18.5611271858249
30
0
41
1
10
-31.7479242105624
20
18.581781517225
30
0
41
1
10
-31.7703848151252
20
18.6467065239216
30
0
41
1
10
-31.7814491771072
20
18.6938855153513
30
0
41
1
10
-31.7997361246821
20
18.7920717910877
30
0
41
1
10
-31.80685805216
20
18.8432011946923
30
0
41
1
10
-31.8244830413978
20
18.9997232068275
30
0
41
1
10
-31.8313902366222
20
19.1083764196928
30
0
41
1
10
-31.8403742395556
20
19.3299770177408
30
0
41
1
10
-31.8423333179557
20
19.4430290632512
30
0
41
1
10
-31.8423156651183
20
19.557838405569
30
0
0
LINE
5
75
100
AcDbEntity
8
SK1
62
256
6
ByLayer
370
18
48
1
60
0
100
AcDbLine
10
-13.237585
20
23.657426
30
0
11
-25.8
21
23.028046
31
0
39
0
210
0
220
0
230
1
0
LINE
5
77
100
AcDbEntity
8
1
62
256
6
ByLayer
370
18
48
1
60
0
100
AcDbLine
10
134.4255
20
-11.899495
30
0
11
130.324484
21
-11.899495
31
0
39
0
210
0
220
0
230
1
0
LINE
5
79
100
AcDbEntity
8
1
62
256
6
ByLayer
370
18
48
1
60
0
100
AcDbLine
10
130.324484
20
-17.899495
30
0
11
134.4255
21
-17.899495
31
0
39
0
210
0
220
0
230
1
0
LINE
5
7A
100
AcDbEntity
8
1
62
256
6
ByLayer
370
18
48
1
60
0
100
AcDbLine
10
139.9255
20
9.899495
30
0
11
134.6755
21
9.899495
31
0
39
0
210
0
220
0
230
1
0
LINE
5
7B
100
AcDbEntity
8
1
62
256
6
ByLayer
370
18
48
1
60
0
100
AcDbLine
10
139.9255
20
-9.899495
30
0
11
134.6755
21
-9.899495
31
0
39
0
210
0
220
0
230
1
0
LINE
5
7C
100
AcDbEntity
8
1
62
256
6
ByLayer
370
18
48
1
60
0
100
AcDbLine
10
134.6755
20
-19.899495
30
0
11
139.9255
21
-19.899495
31
0
39
0
210
0
220
0
230
1
0
LINE
5
7D
100
AcDbEntity
8
1
62
256
6
ByLayer
370
18
48
1
60
0
100
AcDbLine
10
134.6755
20
-0.100505
30
0
11
139.9255
21
-0.100505
31
0
39
0
210
0
220
0
230
1
0
LINE
5
7E
100
AcDbEntity
8
1
62
256
6
ByLayer
370
18
48
1
60
0
100
AcDbLine
10
124.834074
20
15.741181
30
0
11
122.353181
21
25
31
0
39
0
210
0
220
0
230
1
0
LINE
5
7F
100
AcDbEntity
8
1
62
256
6
ByLayer
370
18
48
1
60
0
100
AcDbLine
10
122.353237
20
25
30
0
11
26.95
21
25
31
0
39
0
210
0
220
0
230
1
0
LINE
5
80
100
AcDbEntity
8
1
62
256
6
ByLayer
370
18
48
1
60
0
100
AcDbLine
10
26.95
20
-25
30
0
11
125.8
21
-25
31
0
39
0
210
0
220
0
230
1
0
LINE
5
81
100
AcDbEntity
8
1
62
256
6
ByLayer
370
18
48
1
60
0
100
AcDbLine
10
0
20
-30.97
30
0
11
0.5
21
-31.47
31
0
39
0
210
0
220
0
230
1
0
LINE
5
82
100
AcDbEntity
8
1
62
256
6
ByLayer
370
18
48
1
60
0
100
AcDbLine
10
0.5
20
31.47
30
0
11
0
21
30.97
31
0
39
0
210
0
220
0
230
1
0
LINE
5
83
100
AcDbEntity
8
1
62
256
6
ByLayer
370
18
48
1
60
0
100
AcDbLine
10
4.95
20
31.47
30
0
11
0.5
21
31.47
31
0
39
0
210
0
220
0
230
1
0
LINE
5
84
100
AcDbEntity
8
1
62
256
6
ByLayer
370
18
48
1
60
0
100
AcDbLine
10
0.5
20
-31.47
30
0
11
4.95
21
-31.47
31
0
39
0
210
0
220
0
230
1
0
LINE
5
85
100
AcDbEntity
8
1
62
256
6
ByLayer
370
18
48
1
60
0
100
AcDbLine
10
130.324484
20
1.899495
30
0
11
134.4255
21
1.899495
31
0
39
0
210
0
220
0
230
1
0
LINE
5
86
100
AcDbEntity
8
1
62
256
6
ByLayer
370
18
48
1
60
0
100
AcDbLine
10
134.4255
20
7.899495
30
0
11
130.324484
21
7.899495
31
0
39
0
210
0
220
0
230
1
0
LINE
5
87
100
AcDbEntity
8
SK1
62
256
6
ByLayer
370
18
48
1
60
0
100
AcDbLine
10
-2
20
24.220431
30
0
11
-4.314784
21
24.10446
31
0
39
0
210
0
220
0
230
1
0
LINE
5
88
100
AcDbEntity
8
SK1
62
256
6
ByLayer
370
18
48
1
60
0
100
AcDbLine
10
-4.314641
20
-24.104467
30
0
11
-2
21
-24.220431
31
0
39
0
210
0
220
0
230
1
0
LINE
5
89
100
AcDbEntity
8
SK1
62
256
6
ByLayer
370
18
48
1
60
0
100
AcDbLine
10
-21.8
20
-23.228447
30
0
11
-13.246198
21
-23.656994
31
0
39
0
210
0
220
0
230
1
0
LINE
5
8A
100
AcDbEntity
8
SK1
62
256
6
ByLayer
370
18
48
1
60
0
100
AcDbLine
10
-2
20
-24.220431
30
0
11
-1.066987
21
-23.970431
31
0
39
0
210
0
220
0
230
1
0
LINE
5
8B
100
AcDbEntity
8
SK1
62
256
6
ByLayer
370
18
48
1
60
0
100
AcDbLine
10
-1.066987
20
23.970431
30
0
11
-2
21
24.220431
31
0
39
0
210
0
220
0
230
1
0
LINE
5
8C
100
AcDbEntity
8
SK1
62
256
6
ByLayer
370
18
48
1
60
0
100
AcDbLine
10
-1.066987
20
-23.970431
30
0
11
-0.493464
21
-23.970431
31
0
39
0
210
0
220
0
230
1
0
LINE
5
8D
100
AcDbEntity
8
SK1
62
256
6
ByLayer
370
18
48
1
60
0
100
AcDbLine
10
-0.493464
20
23.970431
30
0
11
-1.066987
21
23.970431
31
0
39
0
210
0
220
0
230
1
0
LINE
5
8E
100
AcDbEntity
8
1
62
256
6
ByLayer
370
18
48
1
60
0
100
AcDbLine
10
125.8
20
-25
30
0
11
129.3245
21
-25
31
0
39
0
210
0
220
0
230
1
0
LINE
5
8F
100
AcDbEntity
8
1
62
256
6
ByLayer
370
18
48
1
60
0
100
AcDbLine
10
129.3245
20
15
30
0
11
125.8
21
15
31
0
39
0
210
0
220
0
230
1
0
LINE
5
90
100
AcDbEntity
8
1
62
256
6
ByLayer
370
18
48
1
60
0
100
AcDbLine
10
129.3245
20
-25
30
0
11
129.521897
21
-24.802603
31
0
39
0
210
0
220
0
230
1
0
LINE
5
91
100
AcDbEntity
8
1
62
256
6
ByLayer
370
18
48
1
60
0
100
AcDbLine
10
129.521897
20
14.802603
30
0
11
129.3245
21
15
31
0
39
0
210
0
220
0
230
1
0
LINE
5
92
100
AcDbEntity
8
SK1
62
256
6
ByLayer
370
18
48
1
60
0
100
AcDbLine
10
-30.70125
20
-20.845
30
0
11
-23.2
21
-20.845
31
0
39
0
210
0
220
0
230
1
0
LINE
5
93
100
AcDbEntity
8
SK1
62
256
6
ByLayer
370
18
48
1
60
0
100
AcDbLine
10
-27.2
20
20.845
30
0
11
-30.75
21
20.845
31
0
39
0
210
0
220
0
230
1
0
LINE
5
94
100
AcDbEntity
8
SK1
62
256
6
ByLayer
370
18
48
1
60
0
100
AcDbLine
10
-30.75
20
20.845
30
0
11
-31.891886
21
19.703114
31
0
39
0
210
0
220
0
230
1
0
LINE
5
95
100
AcDbEntity
8
SK1
62
256
6
ByLayer
370
18
48
1
60
0
100
AcDbLine
10
-31.898216
20
-19.648034
30
0
11
-30.70125
21
-20.845
31
0
39
0
210
0
220
0
230
1
0
LINE
5
96
100
AcDbEntity
8
80
62
256
6
ByLayer
370
18
48
1
60
0
100
AcDbLine
10
0
20
0
30
0
11
-5
21
0
31
0
39
0
210
0
220
0
230
1
0
LINE
5
97
100
AcDbEntity
8
81
62
256
6
ByLayer
370
18
48
1
60
0
100
AcDbLine
10
130
20
-5
30
0
11
135
21
-5
31
0
39
0
210
0
220
0
230
1
0
LINE
5
98
100
AcDbEntity
8
4
62
256
6
ByLayer
370
18
48
0.05
60
0
100
AcDbLine
10
0
20
0
30
0
11
130
21
0
31
0
39
0
210
0
220
0
230
1
0
LINE
5
9A
100
AcDbEntity
8
SK4
62
256
6
ByLayer
370
18
48
0.05
60
0
100
AcDbLine
10
-5
20
0
30
0
11
135
21
0
31
0
39
0
210
0
220
0
230
1
0
LINE
5
9C
100
AcDbEntity
8
1
62
256
6
ByLayer
370
18
48
1
60
0
100
AcDbLine
10
130.3245
20
-22.798581
30
0
11
130.3245
21
-23.230913
31
0
39
0
210
0
220
0
230
1
0
LINE
5
9D
100
AcDbEntity
8
1
62
256
6
ByLayer
370
18
48
1
60
0
100
AcDbLine
10
130.3245
20
13.853979
30
0
11
130.3245
21
13.646315
31
0
39
0
210
0
220
0
230
1
0
LINE
5
9E
100
AcDbEntity
8
1
62
256
6
ByLayer
370
18
48
1
60
0
100
AcDbLine
10
130.3245
20
-2.625637
30
0
11
130.3245
21
-7.374363
31
0
39
0
210
0
220
0
230
1
0
LINE
5
9F
100
AcDbEntity
8
1
62
256
6
ByLayer
370
18
48
1
60
0
100
AcDbLine
10
25.45
20
30.431572
30
0
11
21.374612
21
30.431572
31
0
39
0
210
0
220
0
230
1
0
LINE
5
A0
100
AcDbEntity
8
1
62
256
6
ByLayer
370
13
48
1
60
0
100
AcDbLine
10
130.2495
20
13.967827
30
0
11
130.2495
21
14.04976
31
0
39
0
210
0
220
0
230
1
0
LINE
5
A1
100
AcDbEntity
8
1
62
256
6
ByLayer
370
18
48
1
60
0
100
AcDbLine
10
130.3245
20
13.605627
30
0
11
130.3245
21
13.289015
31
0
39
0
210
0
220
0
230
1
0
LINE
5
A2
100
AcDbEntity
8
1
62
256
6
ByLayer
370
18
48
1
60
0
100
AcDbLine
10
130.3245
20
-23.289015
30
0
11
130.3245
21
-23.605627
31
0
39
0
210
0
220
0
230
1
0
LINE
5
A3
100
AcDbEntity
8
1
62
256
6
ByLayer
370
18
48
1
60
0
100
AcDbLine
10
130.3245
20
-23.646315
30
0
11
130.3245
21
-23.853979
31
0
39
0
210
0
220
0
230
1
0
LINE
5
A4
100
AcDbEntity
8
1
62
256
6
ByLayer
370
18
48
1
60
0
100
AcDbLine
10
130.3245
20
13.98093
30
0
11
130.3245
21
13.877899
31
0
39
0
210
0
220
0
230
1
0
LINE
5
A5
100
AcDbEntity
8
1
62
256
6
ByLayer
370
18
48
1
60
0
100
AcDbLine
10
130.3245
20
-23.877899
30
0
11
130.3245
21
-23.98093
31
0
39
0
210
0
220
0
230
1
0
LINE
5
A6
100
AcDbEntity
8
1
62
256
6
ByLayer
370
18
48
1
60
0
100
AcDbLine
10
21.374612
20
19.85
30
0
11
21.374612
21
-30.150383
31
0
39
0
210
0
220
0
230
1
0
LINE
5
A7
100
AcDbEntity
8
1
62
256
6
ByLayer
370
18
48
1
60
0
100
AcDbLine
10
25.45
20
-30.150383
30
0
11
25.45
21
19.85
31
0
39
0
210
0
220
0
230
1
0
LINE
5
A8
100
AcDbEntity
8
1
62
256
6
ByLayer
370
18
48
1
60
0
100
AcDbLine
10
0.5
20
-31.47
30
0
11
0.5
21
31.47
31
0
39
0
210
0
220
0
230
1
0
LINE
5
A9
100
AcDbEntity
8
1
62
256
6
ByLayer
370
18
48
1
60
0
100
AcDbLine
10
16.0875
20
19.85
30
0
11
16.0875
21
-27.49666
31
0
39
0
210
0
220
0
230
1
0
LINE
5
AA
100
AcDbEntity
8
1
62
256
6
ByLayer
370
18
48
1
60
0
100
AcDbLine
10
14.625388
20
24.420041
30
0
11
12.19562
21
24.420041
31
0
39
0
210
0
220
0
230
1
0
LINE
5
AB
100
AcDbEntity
8
1
62
256
6
ByLayer
370
18
48
1
60
0
100
AcDbLine
10
14.625388
20
-30.150383
30
0
11
12.95
21
-30.150383
31
0
39
0
210
0
220
0
230
1
0
LINE
5
AC
100
AcDbEntity
8
1
62
256
6
ByLayer
370
18
48
1
60
0
100
AcDbLine
10
4.95
20
-31.453547
30
0
11
4.95
21
-31.47
31
0
39
0
210
0
220
0
230
1
0
LINE
5
AD
100
AcDbEntity
8
1
62
256
6
ByLayer
370
18
48
1
60
0
100
AcDbLine
10
0
20
-30.97
30
0
11
0
21
30.97
31
0
39
0
210
0
220
0
230
1
0
LINE
5
AE
100
AcDbEntity
8
1
62
256
6
ByLayer
370
18
48
1
60
0
100
AcDbLine
10
19.9125
20
19.85
30
0
11
19.9125
21
-27.49666
31
0
39
0
210
0
220
0
230
1
0
LINE
5
AF
100
AcDbEntity
8
1
62
256
6
ByLayer
370
18
48
1
60
0
100
AcDbLine
10
25.95
20
19.85
30
0
11
25.95
21
-29.628122
31
0
39
0
210
0
220
0
230
1
0
LINE
5
B0
100
AcDbEntity
8
1
62
256
6
ByLayer
370
18
48
1
60
0
100
AcDbLine
10
4.95
20
31.469995
30
0
11
4.95
21
31.47
31
0
39
0
210
0
220
0
230
1
0
LINE
5
B1
100
AcDbEntity
8
1
62
256
6
ByLayer
370
18
48
1
60
0
100
AcDbLine
10
14.625388
20
30.431572
30
0
11
12.95
21
30.431572
31
0
39
0
210
0
220
0
230
1
0
LINE
5
B2
100
AcDbEntity
8
1
62
256
6
ByLayer
370
18
48
1
60
0
100
AcDbLine
10
14.625388
20
24.420041
30
0
11
14.625388
21
30.431572
31
0
39
0
210
0
220
0
230
1
0
LINE
5
B3
100
AcDbEntity
8
1
62
256
6
ByLayer
370
18
48
1
60
0
100
AcDbLine
10
14.625388
20
19.85
30
0
11
4.968215
21
19.85
31
0
39
0
210
0
220
0
230
1
0
LINE
5
B4
100
AcDbEntity
8
SK1
62
256
6
ByLayer
370
18
48
1
60
0
100
AcDbLine
10
-30.75
20
20.845
30
0
11
-30.75
21
20.844744
31
0
39
0
210
0
220
0
230
1
0
LINE
5
B5
100
AcDbEntity
8
1
62
256
6
ByLayer
370
18
48
1
60
0
100
AcDbLine
10
14.625388
20
-30.150383
30
0
11
14.625388
21
19.85
31
0
39
0
210
0
220
0
230
1
0
LINE
5
B6
100
AcDbEntity
8
1
62
256
6
ByLayer
370
13
48
1
60
0
100
AcDbLine
10
19.5125
20
26.4
30
0
11
19.5125
21
-26.4
31
0
39
0
210
0
220
0
230
1
0
LINE
5
B7
100
AcDbEntity
8
1
62
256
6
ByLayer
370
13
48
1
60
0
100
AcDbLine
10
16.4875
20
26.4
30
0
11
16.4875
21
-26.4
31
0
39
0
210
0
220
0
230
1
0
LINE
5
B8
100
AcDbEntity
8
1
62
256
6
ByLayer
370
18
48
1
60
0
100
AcDbLine
10
25.45
20
19.85
30
0
11
21.374612
21
19.85
31
0
39
0
210
0
220
0
230
1
0
LINE
5
B9
100
AcDbEntity
8
1
62
256
6
ByLayer
370
18
48
1
60
0
100
AcDbLine
10
25.45
20
-30.150383
30
0
11
21.374612
21
-30.150383
31
0
39
0
210
0
220
0
230
1
0
LINE
5
BA
100
AcDbEntity
8
1
62
256
6
ByLayer
370
13
48
1
60
0
100
AcDbLine
10
26.95
20
-25
30
0
11
26.95
21
25
31
0
39
0
210
0
220
0
230
1
0
LINE
5
BB
100
AcDbEntity
8
1
62
256
6
ByLayer
370
18
48
1
60
0
100
AcDbLine
10
19.5125
20
-26.4
30
0
11
16.4875
21
-26.4
31
0
39
0
210
0
220
0
230
1
0
LINE
5
BC
100
AcDbEntity
8
1
62
256
6
ByLayer
370
18
48
1
60
0
100
AcDbLine
10
19.5125
20
26.4
30
0
11
16.4875
21
26.4
31
0
39
0
210
0
220
0
230
1
0
LINE
5
BD
100
AcDbEntity
8
1
62
256
6
ByLayer
370
13
48
1
60
0
100
AcDbLine
10
124.834074
20
15.741181
30
0
11
124.834074
21
-21.980341
31
0
39
0
210
0
220
0
230
1
0
LINE
5
BE
100
AcDbEntity
8
SK1
62
256
6
ByLayer
370
13
48
1
60
0
100
AcDbLine
10
-0.493464
20
-23.970431
30
0
11
-0.493464
21
23.970431
31
0
39
0
210
0
220
0
230
1
0
LINE
5
BF
100
AcDbEntity
8
1
62
256
6
ByLayer
370
13
48
1
60
0
100
AcDbLine
10
12.19562
20
19.85
30
0
11
12.19562
21
24.420041
31
0
39
0
210
0
220
0
230
1
0
LINE
5
C0
100
AcDbEntity
8
1
62
256
6
ByLayer
370
18
48
1
60
0
100
AcDbLine
10
130.3245
20
2.742143
30
0
11
130.3245
21
-1.36458
31
0
39
0
210
0
220
0
230
1
0
LINE
5
C1
100
AcDbEntity
8
1
62
256
6
ByLayer
370
18
48
1
60
0
100
AcDbLine
10
130.3245
20
-8.63542
30
0
11
130.3245
21
-12.742143
31
0
39
0
210
0
220
0
230
1
0
LINE
5
C2
100
AcDbEntity
8
SK1
62
256
6
ByLayer
370
18
48
1
60
0
100
AcDbLine
10
-2
20
-24.220431
30
0
11
-2
21
24.220431
31
0
39
0
210
0
220
0
230
1
0
LINE
5
C3
100
AcDbEntity
8
SK1
62
256
6
ByLayer
370
18
48
1
60
0
100
AcDbLine
10
-1.066987
20
-23.970431
30
0
11
-1.066987
21
23.970431
31
0
39
0
210
0
220
0
230
1
0
LINE
5
C4
100
AcDbEntity
8
SK1
62
256
6
ByLayer
370
18
48
1
60
0
100
AcDbLine
10
-21.8
20
-23.228447
30
0
11
-21.8
21
-21.960979
31
0
39
0
210
0
220
0
230
1
0
LINE
5
C5
100
AcDbEntity
8
SK1
62
256
6
ByLayer
370
13
48
1
60
0
100
AcDbLine
10
-30.760045
20
20.83431
30
0
11
-30.760045
21
-20.775936
31
0
39
0
210
0
220
0
230
1
0
LINE
5
C6
100
AcDbEntity
8
SK1
62
256
6
ByLayer
370
18
48
1
60
0
100
AcDbLine
10
-25.8
20
21.833816
30
0
11
-25.8
21
23.028046
31
0
39
0
210
0
220
0
230
1
0
LINE
5
C7
100
AcDbEntity
8
1
62
256
6
ByLayer
370
13
48
1
60
0
100
AcDbLine
10
125.8
20
15
30
0
11
125.8
21
-25
31
0
39
0
210
0
220
0
230
1
0
LINE
5
C8
100
AcDbEntity
8
SK1
62
256
6
ByLayer
370
18
48
1
60
0
100
AcDbLine
10
-31.9
20
-19.639143
30
0
11
-31.9
21
19.672662
31
0
39
0
210
0
220
0
230
1
0
LINE
5
C9
100
AcDbEntity
8
1
62
256
6
ByLayer
370
18
48
1
60
0
100
AcDbLine
10
129.3245
20
15
30
0
11
129.3245
21
-25
31
0
39
0
210
0
220
0
230
1
0
LINE
5
CA
100
AcDbEntity
8
1
62
256
6
ByLayer
370
18
48
1
60
0
100
AcDbLine
10
130.3245
20
-7.374363
30
0
11
130.3245
21
-8.635516
31
0
39
0
210
0
220
0
230
1
0
LINE
5
CB
100
AcDbEntity
8
1
62
256
6
ByLayer
370
18
48
1
60
0
100
AcDbLine
10
130.3245
20
-12.742143
30
0
11
130.3245
21
-13.180085
31
0
39
0
210
0
220
0
230
1
0
LINE
5
CC
100
AcDbEntity
8
1
62
256
6
ByLayer
370
18
48
1
60
0
100
AcDbLine
10
130.3245
20
-15.475875
30
0
11
130.3245
21
-15.775464
31
0
39
0
210
0
220
0
230
1
0
LINE
5
CD
100
AcDbEntity
8
1
62
256
6
ByLayer
370
18
48
1
60
0
100
AcDbLine
10
130.3245
20
-17.451792
30
0
11
130.3245
21
-17.680988
31
0
39
0
210
0
220
0
230
1
0
LINE
5
CE
100
AcDbEntity
8
1
62
256
6
ByLayer
370
18
48
1
60
0
100
AcDbLine
10
130.3245
20
-18.994653
30
0
11
130.3245
21
-19.177598
31
0
39
0
210
0
220
0
230
1
0
LINE
5
CF
100
AcDbEntity
8
1
62
256
6
ByLayer
370
18
48
1
60
0
100
AcDbLine
10
130.3245
20
-20.236583
30
0
11
130.3245
21
-20.385093
31
0
39
0
210
0
220
0
230
1
0
LINE
5
D0
100
AcDbEntity
8
1
62
256
6
ByLayer
370
18
48
1
60
0
100
AcDbLine
10
130.3245
20
-21.246743
30
0
11
130.3245
21
-21.367588
31
0
39
0
210
0
220
0
230
1
0
LINE
5
D1
100
AcDbEntity
8
1
62
256
6
ByLayer
370
18
48
1
60
0
100
AcDbLine
10
130.3245
20
-22.066336
30
0
11
130.3245
21
-22.163763
31
0
39
0
210
0
220
0
230
1
0
LINE
5
D2
100
AcDbEntity
8
1
62
256
6
ByLayer
370
18
48
1
60
0
100
AcDbLine
10
130.3245
20
-22.721823
30
0
11
130.3245
21
-22.79864
31
0
39
0
210
0
220
0
230
1
0
LINE
5
D3
100
AcDbEntity
8
1
62
256
6
ByLayer
370
18
48
1
60
0
100
AcDbLine
10
130.3245
20
-23.230913
30
0
11
130.3245
21
-23.289024
31
0
39
0
210
0
220
0
230
1
0
LINE
5
D4
100
AcDbEntity
8
1
62
256
6
ByLayer
370
18
48
1
60
0
100
AcDbLine
10
130.3245
20
-23.605627
30
0
11
130.3245
21
-23.646319
31
0
39
0
210
0
220
0
230
1
0
LINE
5
D5
100
AcDbEntity
8
1
62
256
6
ByLayer
370
18
48
1
60
0
100
AcDbLine
10
130.3245
20
-23.853979
30
0
11
130.3245
21
-23.878084
31
0
39
0
210
0
220
0
230
1
0
LINE
5
D6
100
AcDbEntity
8
1
62
256
6
ByLayer
370
18
48
1
60
0
100
AcDbLine
10
130.3245
20
-23.98093
30
0
11
130.3245
21
-23.988915
31
0
39
0
210
0
220
0
230
1
0
LINE
5
D7
100
AcDbEntity
8
1
62
256
6
ByLayer
370
13
48
1
60
0
100
AcDbLine
10
130.2495
20
-24.04976
30
0
11
130.2495
21
-23.967827
31
0
39
0
210
0
220
0
230
1
0
LINE
5
D8
100
AcDbEntity
8
1
62
256
6
ByLayer
370
18
48
1
60
0
100
AcDbLine
10
130.3245
20
13.988915
30
0
11
130.3245
21
13.98093
31
0
39
0
210
0
220
0
230
1
0
LINE
5
D9
100
AcDbEntity
8
1
62
256
6
ByLayer
370
18
48
1
60
0
100
AcDbLine
10
130.3245
20
13.878084
30
0
11
130.3245
21
13.853979
31
0
39
0
210
0
220
0
230
1
0
LINE
5
DA
100
AcDbEntity
8
1
62
256
6
ByLayer
370
18
48
1
60
0
100
AcDbLine
10
130.3245
20
13.646319
30
0
11
130.3245
21
13.605627
31
0
39
0
210
0
220
0
230
1
0
LINE
5
DB
100
AcDbEntity
8
1
62
256
6
ByLayer
370
18
48
1
60
0
100
AcDbLine
10
130.3245
20
13.289024
30
0
11
130.3245
21
13.230913
31
0
39
0
210
0
220
0
230
1
0
LINE
5
DC
100
AcDbEntity
8
1
62
256
6
ByLayer
370
18
48
1
60
0
100
AcDbLine
10
130.3245
20
12.79864
30
0
11
130.3245
21
12.721823
31
0
39
0
210
0
220
0
230
1
0
LINE
5
DD
100
AcDbEntity
8
1
62
256
6
ByLayer
370
18
48
1
60
0
100
AcDbLine
10
130.3245
20
12.163763
30
0
11
130.3245
21
12.066336
31
0
39
0
210
0
220
0
230
1
0
LINE
5
DE
100
AcDbEntity
8
1
62
256
6
ByLayer
370
18
48
1
60
0
100
AcDbLine
10
130.3245
20
11.367588
30
0
11
130.3245
21
11.246743
31
0
39
0
210
0
220
0
230
1
0
LINE
5
DF
100
AcDbEntity
8
1
62
256
6
ByLayer
370
18
48
1
60
0
100
AcDbLine
10
130.3245
20
10.385093
30
0
11
130.3245
21
10.236583
31
0
39
0
210
0
220
0
230
1
0
LINE
5
E0
100
AcDbEntity
8
1
62
256
6
ByLayer
370
18
48
1
60
0
100
AcDbLine
10
130.3245
20
9.177598
30
0
11
130.3245
21
8.994653
31
0
39
0
210
0
220
0
230
1
0
LINE
5
E1
100
AcDbEntity
8
1
62
256
6
ByLayer
370
18
48
1
60
0
100
AcDbLine
10
130.3245
20
7.680988
30
0
11
130.3245
21
7.451792
31
0
39
0
210
0
220
0
230
1
0
LINE
5
E2
100
AcDbEntity
8
1
62
256
6
ByLayer
370
18
48
1
60
0
100
AcDbLine
10
130.3245
20
5.775464
30
0
11
130.3245
21
5.475875
31
0
39
0
210
0
220
0
230
1
0
LINE
5
E3
100
AcDbEntity
8
1
62
256
6
ByLayer
370
18
48
1
60
0
100
AcDbLine
10
130.3245
20
3.180085
30
0
11
130.3245
21
2.742143
31
0
39
0
210
0
220
0
230
1
0
LINE
5
E4
100
AcDbEntity
8
1
62
256
6
ByLayer
370
18
48
1
60
0
100
AcDbLine
10
130.3245
20
-1.364484
30
0
11
130.3245
21
-2.625637
31
0
39
0
210
0
220
0
230
1
0
LINE
5
E5
100
AcDbEntity
8
1
62
256
6
ByLayer
370
18
48
1
60
0
100
AcDbLine
10
25.45
20
24.420041
30
0
11
25.45
21
30.431572
31
0
39
0
210
0
220
0
230
1
0
LINE
5
E6
100
AcDbEntity
8
1
62
256
6
ByLayer
370
18
48
1
60
0
100
AcDbLine
10
19.9125
20
21.056095
30
0
11
19.9125
21
19.85
31
0
39
0
210
0
220
0
230
1
0
LINE
5
E7
100
AcDbEntity
8
1
62
256
6
ByLayer
370
18
48
1
60
0
100
AcDbLine
10
25.95
20
19.85
30
0
11
25.95
21
23.772219
31
0
39
0
210
0
220
0
230
1
0
LINE
5
E8
100
AcDbEntity
8
1
62
256
6
ByLayer
370
18
48
1
60
0
100
AcDbLine
10
21.374612
20
30.431572
30
0
11
21.374612
21
24.420041
31
0
39
0
210
0
220
0
230
1
0
LINE
5
E9
100
AcDbEntity
8
1
62
256
6
ByLayer
370
18
48
1
60
0
100
AcDbLine
10
19.9125
20
27.8047
30
0
11
19.9125
21
21.056095
31
0
39
0
210
0
220
0
230
1
0
LINE
5
EA
100
AcDbEntity
8
1
62
256
6
ByLayer
370
18
48
1
60
0
100
AcDbLine
10
25.95
20
29.914221
30
0
11
25.95
21
23.772219
31
0
39
0
210
0
220
0
230
1
0
LINE
5
EB
100
AcDbEntity
8
1
62
256
6
ByLayer
370
13
48
1
60
0
100
AcDbLine
10
129.6055
20
-1.217272
30
0
11
129.6055
21
-3.319168
31
0
39
0
210
0
220
0
230
1
0
LINE
5
EC
100
AcDbEntity
8
1
62
256
6
ByLayer
370
13
48
1
60
0
100
AcDbLine
10
129.6055
20
-6.680832
30
0
11
129.6055
21
-8.782728
31
0
39
0
210
0
220
0
230
1
0
LINE
5
ED
100
AcDbEntity
8
1
62
256
6
ByLayer
370
13
48
1
60
0
100
AcDbLine
10
130.2495
20
-6.891746
30
0
11
130.2495
21
-3.108254
31
0
39
0
210
0
220
0
230
1
0
LINE
5
EE
100
AcDbEntity
8
1
62
256
6
ByLayer
370
18
48
1
60
0
100
AcDbLine
10
25.45
20
24.420041
30
0
11
21.374612
21
24.420041
31
0
39
0
210
0
220
0
230
1
0
LINE
5
EF
100
AcDbEntity
8
1
62
256
6
ByLayer
370
13
48
1
60
0
100
AcDbLine
10
129.6055
20
3.373611
30
0
11
129.6055
21
2.714713
31
0
39
0
210
0
220
0
230
1
0
LINE
5
F0
100
AcDbEntity
8
1
62
256
6
ByLayer
370
13
48
1
60
0
100
AcDbLine
10
129.6055
20
-12.714713
30
0
11
129.6055
21
-13.373611
31
0
39
0
210
0
220
0
230
1
0
LINE
5
F1
100
AcDbEntity
8
1
62
256
6
ByLayer
370
13
48
1
60
0
100
AcDbLine
10
130.2495
20
-12.633583
30
0
11
130.2495
21
-9.571562
31
0
39
0
210
0
220
0
230
1
0
LINE
5
F2
100
AcDbEntity
8
1
62
256
6
ByLayer
370
13
48
1
60
0
100
AcDbLine
10
130.2495
20
-0.428438
30
0
11
130.2495
21
2.633583
31
0
39
0
210
0
220
0
230
1
0
LINE
5
F3
100
AcDbEntity
8
1
62
256
6
ByLayer
370
13
48
1
60
0
100
AcDbLine
10
129.6055
20
6.019332
30
0
11
129.6055
21
5.568917
31
0
39
0
210
0
220
0
230
1
0
LINE
5
F4
100
AcDbEntity
8
1
62
256
6
ByLayer
370
13
48
1
60
0
100
AcDbLine
10
129.6055
20
-15.568917
30
0
11
129.6055
21
-16.019332
31
0
39
0
210
0
220
0
230
1
0
LINE
5
F5
100
AcDbEntity
8
1
62
256
6
ByLayer
370
13
48
1
60
0
100
AcDbLine
10
130.2495
20
-15.414628
30
0
11
130.2495
21
-13.614199
31
0
39
0
210
0
220
0
230
1
0
LINE
5
F6
100
AcDbEntity
8
1
62
256
6
ByLayer
370
13
48
1
60
0
100
AcDbLine
10
130.2495
20
3.614199
30
0
11
130.2495
21
5.414628
31
0
39
0
210
0
220
0
230
1
0
LINE
5
F7
100
AcDbEntity
8
1
62
256
6
ByLayer
370
18
48
1
60
0
100
AcDbLine
10
16.0875
20
27.8047
30
0
11
16.0875
21
21.056095
31
0
39
0
210
0
220
0
230
1
0
LINE
5
F8
100
AcDbEntity
8
1
62
256
6
ByLayer
370
13
48
1
60
0
100
AcDbLine
10
129.6055
20
7.970506
30
0
11
129.6055
21
7.625166
31
0
39
0
210
0
220
0
230
1
0
LINE
5
F9
100
AcDbEntity
8
1
62
256
6
ByLayer
370
13
48
1
60
0
100
AcDbLine
10
129.6055
20
-17.625166
30
0
11
129.6055
21
-17.970506
31
0
39
0
210
0
220
0
230
1
0
LINE
5
FA
100
AcDbEntity
8
1
62
256
6
ByLayer
370
13
48
1
60
0
100
AcDbLine
10
130.2495
20
-17.416012
30
0
11
130.2495
21
-16.090991
31
0
39
0
210
0
220
0
230
1
0
LINE
5
FB
100
AcDbEntity
8
1
62
256
6
ByLayer
370
13
48
1
60
0
100
AcDbLine
10
130.2495
20
6.090991
30
0
11
130.2495
21
7.416012
31
0
39
0
210
0
220
0
230
1
0
LINE
5
FC
100
AcDbEntity
8
1
62
256
6
ByLayer
370
18
48
1
60
0
100
AcDbLine
10
16.0875
20
19.85
30
0
11
16.0875
21
21.056095
31
0
39
0
210
0
220
0
230
1
0
LINE
5
FD
100
AcDbEntity
8
1
62
256
6
ByLayer
370
13
48
1
60
0
100
AcDbLine
10
129.6055
20
9.510077
30
0
11
129.6055
21
9.233479
31
0
39
0
210
0
220
0
230
1
0
LINE
5
FE
100
AcDbEntity
8
1
62
256
6
ByLayer
370
13
48
1
60
0
100
AcDbLine
10
129.6055
20
-19.233479
30
0
11
129.6055
21
-19.510077
31
0
39
0
210
0
220
0
230
1
0
LINE
5
FF
100
AcDbEntity
8
1
62
256
6
ByLayer
370
13
48
1
60
0
100
AcDbLine
10
130.2495
20
-18.976775
30
0
11
130.2495
21
-17.935311
31
0
39
0
210
0
220
0
230
1
0
LINE
5
100
100
AcDbEntity
8
1
62
256
6
ByLayer
370
13
48
1
60
0
100
AcDbLine
10
130.2495
20
7.935311
30
0
11
130.2495
21
8.976775
31
0
39
0
210
0
220
0
230
1
0
LINE
5
101
100
AcDbEntity
8
SK1
62
256
6
ByLayer
370
13
48
1
60
0
100
AcDbLine
10
-31.869281
20
-19.490376
30
0
11
-30.96978
21
-20.291837
31
0
39
0
210
0
220
0
230
1
0
LINE
5
102
100
AcDbEntity
8
SK1
62
256
6
ByLayer
370
13
48
1
60
0
100
AcDbLine
10
-31.842316
20
19.557838
30
0
11
-31.06758
21
20.248133
31
0
39
0
210
0
220
0
230
1
0
LINE
5
103
100
AcDbEntity
8
SK1
62
256
6
ByLayer
370
13
48
1
60
0
100
AcDbLine
10
-23.2
20
-20.531099
30
0
11
-23.2
21
-19.357689
31
0
39
0
210
0
220
0
230
1
0
LINE
5
104
100
AcDbEntity
8
SK1
62
256
6
ByLayer
370
13
48
1
60
0
100
AcDbLine
10
-23.2
20
-20.531099
30
0
11
-25.983343
21
-20.531099
31
0
39
0
210
0
220
0
230
1
0
LINE
5
105
100
AcDbEntity
8
1
62
256
6
ByLayer
370
13
48
1
60
0
100
AcDbLine
10
129.6055
20
10.759146
30
0
11
129.6055
21
10.533307
31
0
39
0
210
0
220
0
230
1
0
LINE
5
106
100
AcDbEntity
8
1
62
256
6
ByLayer
370
13
48
1
60
0
100
AcDbLine
10
129.6055
20
-20.533307
30
0
11
129.6055
21
-20.759146
31
0
39
0
210
0
220
0
230
1
0
LINE
5
107
100
AcDbEntity
8
1
62
256
6
ByLayer
370
13
48
1
60
0
100
AcDbLine
10
130.2495
20
-20.232962
30
0
11
130.2495
21
-19.391974
31
0
39
0
210
0
220
0
230
1
0
LINE
5
108
100
AcDbEntity
8
1
62
256
6
ByLayer
370
13
48
1
60
0
100
AcDbLine
10
130.2495
20
9.391974
30
0
11
130.2495
21
10.232962
31
0
39
0
210
0
220
0
230
1
0
LINE
5
109
100
AcDbEntity
8
1
62
256
6
ByLayer
370
18
48
1
60
0
100
AcDbLine
10
130.3245
20
5.475875
30
0
11
130.3245
21
3.180021
31
0
39
0
210
0
220
0
230
1
0
LINE
5
10A
100
AcDbEntity
8
1
62
256
6
ByLayer
370
18
48
1
60
0
100
AcDbLine
10
130.3245
20
-13.180021
30
0
11
130.3245
21
-15.475875
31
0
39
0
210
0
220
0
230
1
0
LINE
5
10B
100
AcDbEntity
8
1
62
256
6
ByLayer
370
13
48
1
60
0
100
AcDbLine
10
129.6055
20
11.782699
30
0
11
129.6055
21
11.597446
31
0
39
0
210
0
220
0
230
1
0
LINE
5
10C
100
AcDbEntity
8
1
62
256
6
ByLayer
370
13
48
1
60
0
100
AcDbLine
10
129.6055
20
-21.597446
30
0
11
129.6055
21
-21.782699
31
0
39
0
210
0
220
0
230
1
0
LINE
5
10D
100
AcDbEntity
8
1
62
256
6
ByLayer
370
18
48
1
60
0
100
AcDbLine
10
130.3245
20
7.451792
30
0
11
130.3245
21
5.77508
31
0
39
0
210
0
220
0
230
1
0
LINE
5
10E
100
AcDbEntity
8
1
62
256
6
ByLayer
370
18
48
1
60
0
100
AcDbLine
10
130.3245
20
-15.77508
30
0
11
130.3245
21
-17.451792
31
0
39
0
210
0
220
0
230
1
0
LINE
5
10F
100
AcDbEntity
8
SK1
62
256
6
ByLayer
370
13
48
1
60
0
100
AcDbLine
10
-23.2
20
-20.531099
30
0
11
-23.2
21
-20.845
31
0
39
0
210
0
220
0
230
1
0
LINE
5
110
100
AcDbEntity
8
1
62
256
6
ByLayer
370
18
48
1
60
0
100
AcDbLine
10
130.3245
20
-17.681014
30
0
11
130.3245
21
-18.994653
31
0
39
0
210
0
220
0
230
1
0
LINE
5
111
100
AcDbEntity
8
1
62
256
6
ByLayer
370
13
48
1
60
0
100
AcDbLine
10
130.2495
20
-21.255338
30
0
11
130.2495
21
-20.570347
31
0
39
0
210
0
220
0
230
1
0
LINE
5
112
100
AcDbEntity
8
1
62
256
6
ByLayer
370
13
48
1
60
0
100
AcDbLine
10
130.2495
20
10.570347
30
0
11
130.2495
21
11.255338
31
0
39
0
210
0
220
0
230
1
0
LINE
5
113
100
AcDbEntity
8
SK1
62
256
6
ByLayer
370
18
48
1
60
0
100
AcDbLine
10
-30.70125
20
-20.845
30
0
11
-30.70125
21
-20.843389
31
0
39
0
210
0
220
0
230
1
0
LINE
5
114
100
AcDbEntity
8
SK1
62
256
6
ByLayer
370
13
48
1
60
0
100
AcDbLine
10
-27.2
20
20.845
30
0
11
-27.2
21
20.779376
31
0
39
0
210
0
220
0
230
1
0
LINE
5
115
100
AcDbEntity
8
1
62
256
6
ByLayer
370
18
48
1
60
0
100
AcDbLine
10
130.3245
20
-19.177621
30
0
11
130.3245
21
-20.236583
31
0
39
0
210
0
220
0
230
1
0
LINE
5
116
100
AcDbEntity
8
1
62
256
6
ByLayer
370
13
48
1
60
0
100
AcDbLine
10
129.6055
20
12.620083
30
0
11
129.6055
21
12.468992
31
0
39
0
210
0
220
0
230
1
0
LINE
5
117
100
AcDbEntity
8
1
62
256
6
ByLayer
370
13
48
1
60
0
100
AcDbLine
10
129.6055
20
-22.468992
30
0
11
129.6055
21
-22.620083
31
0
39
0
210
0
220
0
230
1
0
LINE
5
118
100
AcDbEntity
8
1
62
256
6
ByLayer
370
13
48
1
60
0
100
AcDbLine
10
130.2495
20
11.530049
30
0
11
130.2495
21
12.085927
31
0
39
0
210
0
220
0
230
1
0
LINE
5
119
100
AcDbEntity
8
1
62
256
6
ByLayer
370
13
48
1
60
0
100
AcDbLine
10
130.2495
20
-22.085927
30
0
11
130.2495
21
-21.530049
31
0
39
0
210
0
220
0
230
1
0
LINE
5
11A
100
AcDbEntity
8
1
62
256
6
ByLayer
370
18
48
1
60
0
100
AcDbLine
10
130.3245
20
8.994653
30
0
11
130.3245
21
7.681014
31
0
39
0
210
0
220
0
230
1
0
LINE
5
11B
100
AcDbEntity
8
1
62
256
6
ByLayer
370
13
48
1
60
0
100
AcDbLine
10
129.6055
20
13.296875
30
0
11
129.6055
21
13.175685
31
0
39
0
210
0
220
0
230
1
0
LINE
5
11C
100
AcDbEntity
8
1
62
256
6
ByLayer
370
13
48
1
60
0
100
AcDbLine
10
129.6055
20
-23.175685
30
0
11
129.6055
21
-23.296875
31
0
39
0
210
0
220
0
230
1
0
LINE
5
11D
100
AcDbEntity
8
1
62
256
6
ByLayer
370
13
48
1
60
0
100
AcDbLine
10
130.2495
20
12.30746
30
0
11
130.2495
21
12.75167
31
0
39
0
210
0
220
0
230
1
0
LINE
5
11E
100
AcDbEntity
8
1
62
256
6
ByLayer
370
13
48
1
60
0
100
AcDbLine
10
130.2495
20
-22.75167
30
0
11
130.2495
21
-22.30746
31
0
39
0
210
0
220
0
230
1
0
LINE
5
11F
100
AcDbEntity
8
1
62
256
6
ByLayer
370
18
48
1
60
0
100
AcDbLine
10
130.3245
20
10.236583
30
0
11
130.3245
21
9.177621
31
0
39
0
210
0
220
0
230
1
0
LINE
5
120
100
AcDbEntity
8
1
62
256
6
ByLayer
370
18
48
1
60
0
100
AcDbLine
10
130.3245
20
11.246743
30
0
11
130.3245
21
10.385072
31
0
39
0
210
0
220
0
230
1
0
LINE
5
121
100
AcDbEntity
8
1
62
256
6
ByLayer
370
13
48
1
60
0
100
AcDbLine
10
129.6055
20
-23.736267
30
0
11
129.6055
21
-23.8304
31
0
39
0
210
0
220
0
230
1
0
LINE
5
122
100
AcDbEntity
8
1
62
256
6
ByLayer
370
13
48
1
60
0
100
AcDbLine
10
129.6055
20
13.8304
30
0
11
129.6055
21
13.736267
31
0
39
0
210
0
220
0
230
1
0
LINE
5
123
100
AcDbEntity
8
1
62
256
6
ByLayer
370
13
48
1
60
0
100
AcDbLine
10
130.2495
20
-23.270596
30
0
11
130.2495
21
-22.926445
31
0
39
0
210
0
220
0
230
1
0
LINE
5
124
100
AcDbEntity
8
1
62
256
6
ByLayer
370
13
48
1
60
0
100
AcDbLine
10
130.2495
20
12.926445
30
0
11
130.2495
21
13.270596
31
0
39
0
210
0
220
0
230
1
0
LINE
5
125
100
AcDbEntity
8
1
62
256
6
ByLayer
370
18
48
1
60
0
100
AcDbLine
10
130.3245
20
-20.385072
30
0
11
130.3245
21
-21.246743
31
0
39
0
210
0
220
0
230
1
0
LINE
5
126
100
AcDbEntity
8
1
62
256
6
ByLayer
370
18
48
1
60
0
100
AcDbLine
10
130.3245
20
-21.367557
30
0
11
130.3245
21
-22.066336
31
0
39
0
210
0
220
0
230
1
0
LINE
5
127
100
AcDbEntity
8
1
62
256
6
ByLayer
370
13
48
1
60
0
100
AcDbLine
10
129.6055
20
14.232584
30
0
11
129.6055
21
14.163428
31
0
39
0
210
0
220
0
230
1
0
LINE
5
128
100
AcDbEntity
8
1
62
256
6
ByLayer
370
13
48
1
60
0
100
AcDbLine
10
129.6055
20
-24.163428
30
0
11
129.6055
21
-24.232584
31
0
39
0
210
0
220
0
230
1
0
LINE
5
129
100
AcDbEntity
8
1
62
256
6
ByLayer
370
13
48
1
60
0
100
AcDbLine
10
130.2495
20
13.402698
30
0
11
130.2495
21
13.654961
31
0
39
0
210
0
220
0
230
1
0
LINE
5
12A
100
AcDbEntity
8
1
62
256
6
ByLayer
370
13
48
1
60
0
100
AcDbLine
10
130.2495
20
-23.654961
30
0
11
130.2495
21
-23.402698
31
0
39
0
210
0
220
0
230
1
0
LINE
5
12B
100
AcDbEntity
8
1
62
256
6
ByLayer
370
18
48
1
60
0
100
AcDbLine
10
130.3245
20
12.066336
30
0
11
130.3245
21
11.367557
31
0
39
0
210
0
220
0
230
1
0
LINE
5
12C
100
AcDbEntity
8
1
62
256
6
ByLayer
370
18
48
1
60
0
100
AcDbLine
10
130.3245
20
-22.163684
30
0
11
130.3245
21
-22.721823
31
0
39
0
210
0
220
0
230
1
0
LINE
5
12D
100
AcDbEntity
8
1
62
256
6
ByLayer
370
13
48
1
60
0
100
AcDbLine
10
129.6055
20
14.511551
30
0
11
129.6055
21
14.466108
31
0
39
0
210
0
220
0
230
1
0
LINE
5
12E
100
AcDbEntity
8
1
62
256
6
ByLayer
370
13
48
1
60
0
100
AcDbLine
10
129.6055
20
-24.466108
30
0
11
129.6055
21
-24.511551
31
0
39
0
210
0
220
0
230
1
0
LINE
5
12F
100
AcDbEntity
8
1
62
256
6
ByLayer
370
13
48
1
60
0
100
AcDbLine
10
130.2495
20
13.747456
30
0
11
130.2495
21
13.91297
31
0
39
0
210
0
220
0
230
1
0
LINE
5
130
100
AcDbEntity
8
1
62
256
6
ByLayer
370
13
48
1
60
0
100
AcDbLine
10
130.2495
20
-23.91297
30
0
11
130.2495
21
-23.747456
31
0
39
0
210
0
220
0
230
1
0
LINE
5
131
100
AcDbEntity
8
1
62
256
6
ByLayer
370
18
48
1
60
0
100
AcDbLine
10
130.3245
20
13.230913
30
0
11
130.3245
21
12.798581
31
0
39
0
210
0
220
0
230
1
0
LINE
5
132
100
AcDbEntity
8
1
62
256
6
ByLayer
370
18
48
1
60
0
100
AcDbLine
10
130.3245
20
12.721823
30
0
11
130.3245
21
12.163684
31
0
39
0
210
0
220
0
230
1
0
LINE
5
133
100
AcDbEntity
8
1
62
256
6
ByLayer
370
13
48
1
60
0
100
AcDbLine
10
129.6055
20
-24.649908
30
0
11
129.6055
21
-24.672543
31
0
39
0
210
0
220
0
230
1
0
LINE
5
134
100
AcDbEntity
8
1
62
256
6
ByLayer
370
13
48
1
60
0
100
AcDbLine
10
129.6055
20
14.672543
30
0
11
129.6055
21
14.649908
31
0
39
0
210
0
220
0
230
1
0
LINE
5
135
100
AcDbEntity
8
1
62
256
6
ByLayer
370
13
48
1
60
0
100
AcDbLine
10
139.9255
20
-9.899495
30
0
11
139.9255
21
-19.899495
31
0
39
0
210
0
220
0
230
1
0
LINE
5
136
100
AcDbEntity
8
1
62
256
6
ByLayer
370
18
48
1
60
0
100
AcDbLine
10
140.5255
20
-19.299495
30
0
11
140.5255
21
-10.499495
31
0
39
0
210
0
220
0
230
1
0
LINE
5
137
100
AcDbEntity
8
1
62
256
6
ByLayer
370
13
48
1
60
0
100
AcDbLine
10
134.4255
20
-11.899495
30
0
11
134.4255
21
-17.899495
31
0
39
0
210
0
220
0
230
1
0
LINE
5
138
100
AcDbEntity
8
1
62
256
6
ByLayer
370
18
48
1
60
0
100
AcDbLine
10
134.6755
20
-19.899495
30
0
11
134.6755
21
-9.899495
31
0
39
0
210
0
220
0
230
1
0
LINE
5
139
100
AcDbEntity
8
1
62
256
6
ByLayer
370
13
48
1
60
0
100
AcDbLine
10
139.9255
20
9.899495
30
0
11
139.9255
21
-0.100505
31
0
39
0
210
0
220
0
230
1
0
LINE
5
13A
100
AcDbEntity
8
1
62
256
6
ByLayer
370
18
48
1
60
0
100
AcDbLine
10
140.5255
20
9.299495
30
0
11
140.5255
21
0.499495
31
0
39
0
210
0
220
0
230
1
0
LINE
5
13B
100
AcDbEntity
8
1
62
256
6
ByLayer
370
13
48
1
60
0
100
AcDbLine
10
134.4255
20
7.899495
30
0
11
134.4255
21
1.899495
31
0
39
0
210
0
220
0
230
1
0
LINE
5
13C
100
AcDbEntity
8
1
62
256
6
ByLayer
370
18
48
1
60
0
100
AcDbLine
10
134.6755
20
9.899495
30
0
11
134.6755
21
-0.100505
31
0
39
0
210
0
220
0
230
1
0
MTEXT
5
1FB
100
AcDbEntity
8
SK6
62
256
6
ByLayer
370
18
48
1
60
0
100
AcDbMText
10
0.875
20
-42.374866
30
0
210
0
220
0
230
1
1
\W0.7627;HT06-50-SL40L 130
40
3.5
41
0
44
1.084337
50
0
71
7
72
5
7
iso_b_vert
0
DIMENSION
5
208
100
AcDbEntity
8
SK2
62
256
6
ByLayer
370
13
48
1
60
0
100
AcDbDimension
2
DimnDraft3D1
10
130
20
38.07
30
0
11
75.022501
21
38.07
31
0
70
32
71
5
72
1
41
1
210
0
220
0
230
1
3
Standard
100
AcDbAlignedDimension
13
30
23
26.5875
33
0
14
130
24
16.5875
34
0
50
0
100
AcDbRotatedDimension
1001
ACAD
1000
DSTYLE
1002
{
1070
   279
1070
     0
1070
   172
1070
     1
1070
   173
1070
     1
1070
   340
1005
1FC
1070
   271
1070
     2
1070
   272
1070
     2
1070
    77
1070
     1
1070
    73
1070
     0
1070
   171
1070
     3
1070
   274
1070
     4
1070
   177
1070
     2
1070
   176
1070
     2
1070
   178
1070
     2
1070
    78
1070
     8
1070
    48
1040
-0.005
1070
    41
1041
3.5
1070
   147
1041
1.75
1070
    42
1041
1.5875
1070
    44
1041
2.0
1070
   140
1041
3.5
1070
   343
1005
0
1070
   344
1005
0
1002
}
0
DIMENSION
5
212
100
AcDbEntity
8
SK2
62
256
6
ByLayer
370
13
48
1
60
0
100
AcDbDimension
2
DimnDraft3D2
10
150.888211
20
0
30
0
11
150.888211
21
10
31
0
70
32
71
5
72
1
41
1
210
0
220
0
230
1
3
Standard
100
AcDbAlignedDimension
13
131.5875
23
-5
33
0
14
131.5875
24
0
34
0
50
90
100
AcDbRotatedDimension
1001
ACAD
1000
DSTYLE
1002
{
1070
    74
1070
     0
1070
   279
1070
     0
1070
   172
1070
     1
1070
   173
1070
     1
1070
   340
1005
1FC
1070
   271
1070
     2
1070
   272
1070
     2
1070
    77
1070
     1
1070
    73
1070
     0
1070
   171
1070
     3
1070
   274
1070
     4
1070
   177
1070
     2
1070
   176
1070
     2
1070
   178
1070
     2
1070
    78
1070
     8
1070
    48
1040
-0.005
1070
    41
1041
3.5
1070
   147
1041
1.75
1070
    42
1041
1.5875
1070
    44
1041
2.0
1070
   140
1041
3.5
1070
   343
1005
0
1070
   344
1005
0
1002
}
0
DIMENSION
5
21D
100
AcDbEntity
8
2
62
256
6
ByLayer
370
13
48
1
60
0
100
AcDbDimension
2
DimnDraft3D3
10
130
20
48.07
30
0
11
60.022501
21
48.07
31
0
70
32
71
5
72
1
41
1
210
0
220
0
230
1
3
Standard
100
AcDbAlignedDimension
13
0
23
33.0875
33
0
14
130
24
16.5875
34
0
50
0
100
AcDbRotatedDimension
1001
ACAD
1000
DSTYLE
1002
{
1070
   279
1070
     0
1070
   172
1070
     1
1070
   173
1070
     1
1070
   340
1005
1FC
1070
   271
1070
     2
1070
   272
1070
     2
1070
    77
1070
     1
1070
    73
1070
     0
1070
   171
1070
     3
1070
   274
1070
     4
1070
   177
1070
     2
1070
   176
1070
     2
1070
   178
1070
     2
1070
    78
1070
     8
1070
    48
1040
-0.005
1070
    41
1041
3.5
1070
   147
1041
1.75
1070
    42
1041
1.5875
1070
    44
1041
2.0
1070
   140
1041
3.5
1070
   343
1005
0
1070
   344
1005
0
1002
}
0
DIMENSION
5
228
100
AcDbEntity
8
SK2
62
256
6
ByLayer
370
13
48
1
60
0
100
AcDbDimension
2
DimnDraft3D4
10
-50.5
20
-31.5
30
0
11
-51.125
21
2.284534
31
0
70
33
71
5
72
1
41
1
210
0
220
0
230
1
3
Standard
100
AcDbAlignedDimension
13
-1.5875
23
31.5
33
0
14
-1.5875
24
-31.5
34
0
1001
ACAD
1000
DSTYLE
1002
{
1070
   279
1070
     0
1070
    74
1070
     0
1070
   173
1070
     1
1070
   340
1005
1FC
1070
   271
1070
     2
1070
   272
1070
     2
1070
    77
1070
     1
1070
    73
1070
     0
1070
   171
1070
     3
1070
   274
1070
     4
1070
   177
1070
     2
1070
   176
1070
     2
1070
   178
1070
     2
1070
    78
1070
     8
1070
    48
1040
-0.005
1070
    41
1041
3.5
1070
   147
1041
1.75
1070
    42
1041
1.5875
1070
    44
1041
2.0
1070
   140
1041
3.5
1070
   343
1005
0
1070
   344
1005
0
1002
}
0
DIMENSION
5
233
100
AcDbEntity
8
SK2
62
256
6
ByLayer
370
13
48
1
60
0
100
AcDbDimension
2
DimnDraft3D5
10
162.888211
20
-25
30
0
11
158.263211
21
-2.899733
31
0
70
33
71
5
72
1
41
1
210
0
220
0
230
1
3
Standard
100
AcDbAlignedDimension
13
131.5875
23
15
33
0
14
131.5875
24
-25
34
0
1001
ACAD
1000
DSTYLE
1002
{
1070
   279
1070
     0
1070
    74
1070
     0
1070
   173
1070
     1
1070
   340
1005
1FC
1070
   271
1070
     2
1070
   272
1070
     2
1070
    77
1070
     1
1070
    73
1070
     0
1070
   171
1070
     3
1070
   274
1070
     4
1070
   177
1070
     2
1070
   176
1070
     2
1070
   178
1070
     2
1070
    78
1070
     8
1070
    48
1040
-0.005
1070
    41
1041
3.5
1070
   147
1041
1.75
1070
    42
1041
1.5875
1070
    44
1041
2.0
1070
   140
1041
3.5
1070
   343
1005
0
1070
   344
1005
0
1002
}
0
DIMENSION
5
23E
100
AcDbEntity
8
SK2
62
256
6
ByLayer
370
13
48
1
60
0
100
AcDbDimension
2
DimnDraft3D6
10
172.888211
20
25
30
0
11
168.263211
21
2.284534
31
0
70
33
71
5
72
1
41
1
210
0
220
0
230
1
3
Standard
100
AcDbAlignedDimension
13
131.5875
23
-25
33
0
14
124.708008
24
25
34
0
1001
ACAD
1000
DSTYLE
1002
{
1070
   279
1070
     0
1070
    74
1070
     0
1070
   173
1070
     1
1070
   340
1005
1FC
1070
   271
1070
     2
1070
   272
1070
     2
1070
    77
1070
     1
1070
    73
1070
     0
1070
   171
1070
     3
1070
   274
1070
     4
1070
   177
1070
     2
1070
   176
1070
     2
1070
   178
1070
     2
1070
    78
1070
     8
1070
    48
1040
-0.005
1070
    41
1041
3.5
1070
   147
1041
1.75
1070
    42
1041
1.5875
1070
    44
1041
2.0
1070
   140
1041
3.5
1070
   343
1005
0
1070
   344
1005
0
1002
}
0
ENDSEC
0
SECTION
2
OBJECTS
0
DICTIONARY
5
2a9
330
0
100
AcDbDictionary
280
0
281
1
3
ACAD_GROUP
350
2aa
3
ACAD_MLINESTYLE
350
2ab
0
DICTIONARY
5
2aa
330
0
100
AcDbDictionary
280
0
281
1
0
DICTIONARY
5
2ab
330
0
100
AcDbDictionary
280
0
281
1
3
Standard
350
18
0
MLINESTYLE
5
18
330
2ab
100
AcDbMlineStyle
2
Standard
70
0
3

62
256
51
90
52
90
71
2
49
-0.5
62
256
6
ByLayer
49
0.5
62
256
6
ByLayer
0
RASTERVARIABLES
5
297
330

100
AcDbRasterVariables
90
0
70
1
71
1
72
1
0
ENDSEC
0
EOF
