0
SECTION
2
HEADER
9
$ACADVER
1
AC1015
9
$DWGCODEPAGE
3
ANSI_1252
9
$HANDSEED
5
2a8
9
$ANGBASE
50
0
9
$ANGDIR
70
0
9
$ATTMODE
70
1
9
$AUNITS
70
0
9
$AUPREC
70
0
9
$CECOLOR
62
256
9
$CELTSCALE
40
1
9
$CELTYPE
6
ByLayer
9
$CELWEIGHT
370
18
9
$CLAYER
8
0
9
$CMLJUST
70
0
9
$CMLSCALE
40
1
9
$CMLSTYLE
2
Standard
9
$DIMSTYLE
2
Standard
9
$TEXTSIZE
40
0.2
9
$TEXTSTYLE
7
Standard
9
$LUNITS
70
2
9
$LUPREC
70
4
9
$EXTNAMES
290
1
9
$INSUNITS
70
4
9
$LTSCALE
40
1
9
$LWDISPLAY
290
1
9
$PDMODE
70
0
9
$PDSIZE
40
0
9
$PLINEGEN
70
0
0
ENDSEC
0
SECTION
2
CLASSES
0
CLASS
1
RASTERVARIABLES
2
AcDbRasterVariables
3
ISM
90
0
280
0
281
0
0
ENDSEC
0
SECTION
2
TABLES
0
TABLE
2
VPORT
5
29e
100
AcDbSymbolTable
0
VPORT
5
1
100
AcDbSymbolTableRecord
100
AcDbViewportTableRecord
2
*Active
70
0
10
0
20
0
11
1
21
1
12
-1
22
1
13
0
23
0
14
0.5
24
0.5
15
10
25
10
16
0
26
0
36
1
17
0
27
0
37
0
0
ENDTAB
0
TABLE
2
LTYPE
5
29f
100
AcDbSymbolTable
0
LTYPE
5
14
100
AcDbSymbolTableRecord
100
AcDbLinetypeTableRecord
70
0
2
ByBlock
3

72
65
73
0
40
0
0
LTYPE
5
15
100
AcDbSymbolTableRecord
100
AcDbLinetypeTableRecord
70
0
2
ByLayer
3

72
65
73
0
40
0
0
LTYPE
5
16
100
AcDbSymbolTableRecord
100
AcDbLinetypeTableRecord
70
0
2
CONTINUOUS
3
Solid line
72
65
73
0
40
0
0
LTYPE
5
6A
100
AcDbSymbolTableRecord
100
AcDbLinetypeTableRecord
70
0
2
CENTER
3
____ _ ____ _ ____ _ ____
72
65
73
4
40
47.5
49
22
74
0
49
-8.5
74
0
49
8.5
74
0
49
-8.5
74
0
0
LTYPE
5
6B
100
AcDbSymbolTableRecord
100
AcDbLinetypeTableRecord
70
0
2
DASHED
3
__ __ __ __ __ __ __ __ __
72
65
73
2
40
25.72
49
12.86
74
0
49
-12.86
74
0
0
ENDTAB
0
TABLE
2
LAYER
5
2a0
100
AcDbSymbolTable
0
LAYER
5
10
100
AcDbSymbolTableRecord
100
AcDbLayerTableRecord
2
0
70
0
62
7
6
CONTINUOUS
290
1
370
-3
390
0
0
LAYER
5
6D
100
AcDbSymbolTableRecord
100
AcDbLayerTableRecord
2
80
70
0
62
-6
6
CONTINUOUS
290
1
370
-3
390
0
0
LAYER
5
6F
100
AcDbSymbolTableRecord
100
AcDbLayerTableRecord
2
81
70
0
62
-3
6
CONTINUOUS
290
1
370
-3
390
0
0
LAYER
5
76
100
AcDbSymbolTableRecord
100
AcDbLayerTableRecord
2
1
70
0
62
4
6
CONTINUOUS
290
1
370
-3
390
0
0
LAYER
5
93
100
AcDbSymbolTableRecord
100
AcDbLayerTableRecord
2
4
70
0
62
-2
6
CENTER
290
1
370
-3
390
0
0
LAYER
5
212
100
AcDbSymbolTableRecord
100
AcDbLayerTableRecord
2
2
70
0
62
7
6
CONTINUOUS
290
1
370
-3
390
0
0
LAYER
5
28a
100
AcDbSymbolTableRecord
100
AcDbLayerTableRecord
2
SK2
70
0
62
7
6
CONTINUOUS
290
1
370
-3
390
0
0
LAYER
5
28b
100
AcDbSymbolTableRecord
100
AcDbLayerTableRecord
2
SK1
70
0
62
4
6
CONTINUOUS
290
1
370
-3
390
0
0
LAYER
5
28c
100
AcDbSymbolTableRecord
100
AcDbLayerTableRecord
2
SK4
70
0
62
2
6
CENTER
290
1
370
-3
390
0
0
LAYER
5
28d
100
AcDbSymbolTableRecord
100
AcDbLayerTableRecord
2
SK6
70
0
62
5
6
CONTINUOUS
290
1
370
-3
390
0
0
ENDTAB
0
TABLE
2
STYLE
5
2a1
100
AcDbSymbolTable
0
STYLE
5
11
100
AcDbSymbolTableRecord
100
AcDbTextStyleTableRecord
2
Standard
3
txt
70
0
71
0
40
0
41
1
42
0
50
0
0
STYLE
5
203
100
AcDbSymbolTableRecord
100
AcDbTextStyleTableRecord
2
iso_b_vert
3
simplex.shx
70
0
71
0
40
0
41
1
42
0
50
0
0
STYLE
5
204
100
AcDbSymbolTableRecord
100
AcDbTextStyleTableRecord
2
DWGDirectTextStyle
3
simplex
70
0
71
0
40
0
41
1
42
0
50
0
0
ENDTAB
0
TABLE
2
DIMSTYLE
5
2a2
100
AcDbSymbolTable
100
AcDbDimStyleTable
0
DIMSTYLE
105
27
100
AcDbSymbolTableRecord
100
AcDbDimStyleTableRecord
2
Standard
70
0
3
<>
41
0.18
42
0.0625
44
0.18
140
0.18
147
0.09
73
0
74
0
77
1
271
2
275
0
278
52
280
0
340
11
0
ENDTAB
0
TABLE
2
VIEW
5
2a3
100
AcDbSymbolTable
0
ENDTAB
0
TABLE
2
UCS
5
2a4
100
AcDbSymbolTable
0
ENDTAB
0
TABLE
2
APPID
5
2a5
100
AcDbSymbolTable
0
APPID
5
12
100
AcDbSymbolTableRecord
100
AcDbRegAppTableRecord
2
ACAD
70
0
0
ENDTAB
0
TABLE
2
BLOCK_RECORD
5
2a6
100
AcDbSymbolTable
0
BLOCK_RECORD
5
1F
100
AcDbSymbolTableRecord
100
AcDbBlockTableRecord
2
*Model_Space
340
0
70
0
0
BLOCK_RECORD
5
1B
100
AcDbSymbolTableRecord
100
AcDbBlockTableRecord
2
*Paper_Space
340
0
70
0
0
BLOCK_RECORD
5
23
100
AcDbSymbolTableRecord
100
AcDbBlockTableRecord
2
*Paper_Space0
340
0
70
0
0
BLOCK_RECORD
5
206
100
AcDbSymbolTableRecord
100
AcDbBlockTableRecord
2
DimnDraft3D1
340
0
70
0
0
BLOCK_RECORD
5
210
100
AcDbSymbolTableRecord
100
AcDbBlockTableRecord
2
DimnDraft3D2
340
0
70
0
0
BLOCK_RECORD
5
21B
100
AcDbSymbolTableRecord
100
AcDbBlockTableRecord
2
DimnDraft3D3
340
0
70
0
0
BLOCK_RECORD
5
226
100
AcDbSymbolTableRecord
100
AcDbBlockTableRecord
2
DimnDraft3D4
340
0
70
0
0
ENDTAB
0
ENDSEC
0
SECTION
2
BLOCKS
0
BLOCK
5
20
100
AcDbEntity
8
0
100
AcDbBlockBegin
2
*Model_Space
70
0
10
0
20
0
30
0
3
*Model_Space
0
ENDBLK
5
21
100
AcDbEntity
8
0
100
AcDbBlockEnd
0
BLOCK
5
1C
100
AcDbEntity
8
0
100
AcDbBlockBegin
2
*Paper_Space
70
0
10
0
20
0
30
0
3
*Paper_Space
0
ENDBLK
5
1D
100
AcDbEntity
8
0
100
AcDbBlockEnd
0
BLOCK
5
24
100
AcDbEntity
8
0
100
AcDbBlockBegin
2
*Paper_Space0
70
0
10
0
20
0
30
0
3
*Paper_Space0
0
ENDBLK
5
25
100
AcDbEntity
8
0
100
AcDbBlockEnd
0
BLOCK
5
20D
100
AcDbEntity
8
0
100
AcDbBlockBegin
2
DimnDraft3D1
70
0
10
0
20
0
30
0
3
DimnDraft3D1
0
MTEXT
5
207
100
AcDbEntity
8
SK2
62
256
6
ByLayer
370
18
48
1
60
0
100
AcDbMText
10
52.583534
20
-43.224866
30
0
210
0
220
0
230
1
1
\W0.7640;64.0
40
3.5
41
0
44
1.084337
50
0
71
7
72
5
7
iso_b_vert
0
LINE
5
208
100
AcDbEntity
8
SK2
62
256
6
ByLayer
370
13
48
1
60
0
100
AcDbLine
10
24
20
-17.5875
30
0
11
24
21
-46.1
31
0
39
0
210
0
220
0
230
1
0
LINE
5
209
100
AcDbEntity
8
SK2
62
256
6
ByLayer
370
13
48
1
60
0
100
AcDbLine
10
88
20
-17.5875
30
0
11
88
21
-46.1
31
0
39
0
210
0
220
0
230
1
0
LINE
5
20A
100
AcDbEntity
8
SK2
62
256
6
ByLayer
370
13
48
1
60
0
100
AcDbLine
10
24
20
-44.1
30
0
11
88
21
-44.1
31
0
39
0
210
0
220
0
230
1
0
SOLID
5
20B
100
AcDbEntity
8
SK2
62
256
6
ByLayer
370
13
48
1
60
0
100
AcDbTrace
10
24
20
-44.1
30
0
11
27.499998
21
-43.639216
31
0
12
27.500002
22
-44.560784
32
0
13
24
23
-44.1
33
0
39
0
210
0
220
0
230
1
0
SOLID
5
20C
100
AcDbEntity
8
SK2
62
256
6
ByLayer
370
13
48
1
60
0
100
AcDbTrace
10
88
20
-44.1
30
0
11
84.500002
21
-44.560784
31
0
12
84.499998
22
-43.639216
32
0
13
88
23
-44.1
33
0
39
0
210
0
220
0
230
1
0
ENDBLK
5
20E
100
AcDbEntity
8
0
100
AcDbBlockEnd
0
BLOCK
5
218
100
AcDbEntity
8
0
100
AcDbBlockBegin
2
DimnDraft3D2
70
0
10
0
20
0
30
0
3
DimnDraft3D2
0
MTEXT
5
211
100
AcDbEntity
8
2
62
256
6
ByLayer
370
18
48
1
60
0
100
AcDbMText
10
40.767801
20
-53.224866
30
0
210
0
220
0
230
1
1
\W0.7346;88.0
40
3.5
41
0
44
1.084337
50
0
71
7
72
5
7
iso_b_vert
0
LINE
5
213
100
AcDbEntity
8
2
62
256
6
ByLayer
370
13
48
1
60
0
100
AcDbLine
10
0
20
-35.5875
30
0
11
0
21
-56.1
31
0
39
0
210
0
220
0
230
1
0
LINE
5
214
100
AcDbEntity
8
2
62
256
6
ByLayer
370
13
48
1
60
0
100
AcDbLine
10
88
20
-17.5875
30
0
11
88
21
-56.1
31
0
39
0
210
0
220
0
230
1
0
LINE
5
215
100
AcDbEntity
8
2
62
256
6
ByLayer
370
13
48
1
60
0
100
AcDbLine
10
0
20
-54.1
30
0
11
88
21
-54.1
31
0
39
0
210
0
220
0
230
1
0
SOLID
5
216
100
AcDbEntity
8
2
62
256
6
ByLayer
370
13
48
1
60
0
100
AcDbTrace
10
0
20
-54.1
30
0
11
3.499998
21
-53.639216
31
0
12
3.500002
22
-54.560784
32
0
13
0
23
-54.1
33
0
39
0
210
0
220
0
230
1
0
SOLID
5
217
100
AcDbEntity
8
2
62
256
6
ByLayer
370
13
48
1
60
0
100
AcDbTrace
10
88
20
-54.1
30
0
11
84.500002
21
-54.560784
31
0
12
84.499998
22
-53.639216
32
0
13
88
23
-54.1
33
0
39
0
210
0
220
0
230
1
0
ENDBLK
5
219
100
AcDbEntity
8
0
100
AcDbBlockEnd
0
BLOCK
5
223
100
AcDbEntity
8
0
100
AcDbBlockBegin
2
DimnDraft3D3
70
0
10
0
20
0
30
0
3
DimnDraft3D3
0
MTEXT
5
21C
100
AcDbEntity
8
SK2
62
256
6
ByLayer
370
18
48
1
60
0
100
AcDbMText
10
-73.350134
20
3.159534
30
0
210
0
220
0
230
1
1
\W0.6740;68
40
3.5
41
0
44
1.084337
50
90
71
7
72
5
7
iso_b_vert
0
MTEXT
5
21D
100
AcDbEntity
8
SK2
62
256
6
ByLayer
370
18
48
1
60
0
100
AcDbMText
10
-73.350134
20
-3.813122
30
0
210
0
220
0
230
1
1
%%c
40
3.5
41
0
44
1.084337
50
90
71
7
72
5
7
iso_b_vert
0
LINE
5
21E
100
AcDbEntity
8
SK2
62
256
6
ByLayer
370
13
48
1
60
0
100
AcDbLine
10
-1.5875
20
34
30
0
11
-73.6
21
34
31
0
39
0
210
0
220
0
230
1
0
LINE
5
21F
100
AcDbEntity
8
SK2
62
256
6
ByLayer
370
13
48
1
60
0
100
AcDbLine
10
-1.5875
20
-34
30
0
11
-73.6
21
-34
31
0
39
0
210
0
220
0
230
1
0
LINE
5
220
100
AcDbEntity
8
SK2
62
256
6
ByLayer
370
13
48
1
60
0
100
AcDbLine
10
-71.6
20
34
30
0
11
-71.6
21
-34
31
0
39
0
210
0
220
0
230
1
0
SOLID
5
221
100
AcDbEntity
8
SK2
62
256
6
ByLayer
370
13
48
1
60
0
100
AcDbTrace
10
-71.6
20
34
30
0
11
-71.139216
21
30.500002
31
0
12
-72.060784
22
30.499998
32
0
13
-71.6
23
34
33
0
39
0
210
0
220
0
230
1
0
SOLID
5
222
100
AcDbEntity
8
SK2
62
256
6
ByLayer
370
13
48
1
60
0
100
AcDbTrace
10
-71.6
20
-34
30
0
11
-72.060784
21
-30.500002
31
0
12
-71.139216
22
-30.499998
32
0
13
-71.6
23
-34
33
0
39
0
210
0
220
0
230
1
0
ENDBLK
5
224
100
AcDbEntity
8
0
100
AcDbBlockEnd
0
BLOCK
5
22E
100
AcDbEntity
8
0
100
AcDbBlockBegin
2
DimnDraft3D4
70
0
10
0
20
0
30
0
3
DimnDraft3D4
0
MTEXT
5
227
100
AcDbEntity
8
SK2
62
256
6
ByLayer
370
18
48
1
60
0
100
AcDbMText
10
106.145186
20
3.159534
30
0
210
0
220
0
230
1
1
\W0.6740;32
40
3.5
41
0
44
1.084337
50
90
71
7
72
5
7
iso_b_vert
0
MTEXT
5
228
100
AcDbEntity
8
SK2
62
256
6
ByLayer
370
18
48
1
60
0
100
AcDbMText
10
106.145186
20
-3.813122
30
0
210
0
220
0
230
1
1
%%c
40
3.5
41
0
44
1.084337
50
90
71
7
72
5
7
iso_b_vert
0
LINE
5
229
100
AcDbEntity
8
SK2
62
256
6
ByLayer
370
13
48
1
60
0
100
AcDbLine
10
89.5875
20
16
30
0
11
109.895319
21
16
31
0
39
0
210
0
220
0
230
1
0
LINE
5
22A
100
AcDbEntity
8
SK2
62
256
6
ByLayer
370
13
48
1
60
0
100
AcDbLine
10
89.5875
20
-16
30
0
11
109.895319
21
-16
31
0
39
0
210
0
220
0
230
1
0
LINE
5
22B
100
AcDbEntity
8
SK2
62
256
6
ByLayer
370
13
48
1
60
0
100
AcDbLine
10
107.895319
20
16
30
0
11
107.895319
21
-16
31
0
39
0
210
0
220
0
230
1
0
SOLID
5
22C
100
AcDbEntity
8
SK2
62
256
6
ByLayer
370
13
48
1
60
0
100
AcDbTrace
10
107.895319
20
16
30
0
11
108.356103
21
12.500002
31
0
12
107.434536
22
12.499998
32
0
13
107.895319
23
16
33
0
39
0
210
0
220
0
230
1
0
SOLID
5
22D
100
AcDbEntity
8
SK2
62
256
6
ByLayer
370
13
48
1
60
0
100
AcDbTrace
10
107.895319
20
-16
30
0
11
107.434536
21
-12.500002
31
0
12
108.356103
22
-12.499998
32
0
13
107.895319
23
-16
33
0
39
0
210
0
220
0
230
1
0
ENDBLK
5
22F
100
AcDbEntity
8
0
100
AcDbBlockEnd
0
ENDSEC
0
SECTION
2
ENTITIES
0
ARC
5
145
100
AcDbEntity
8
1
62
256
6
ByLayer
370
18
48
1
60
0
100
AcDbCircle
39
0
10
97.0855
20
11.528175
30
0
40
0.5
210
0
220
0
230
1
100
AcDbArc
50
0
51
90
0
ARC
5
146
100
AcDbEntity
8
1
62
256
6
ByLayer
370
18
48
1
60
0
100
AcDbCircle
39
0
10
97.0855
20
4.028175
30
0
40
0.5
210
0
220
0
230
1
100
AcDbArc
50
270
51
0
0
ARC
5
147
100
AcDbEntity
8
1
62
256
6
ByLayer
370
18
48
1
60
0
100
AcDbCircle
39
0
10
-92.4755
20
10.478175
30
0
40
0.2
210
0
220
0
230
-1
100
AcDbArc
50
180
51
270
0
ARC
5
148
100
AcDbEntity
8
1
62
256
6
ByLayer
370
18
48
1
60
0
100
AcDbCircle
39
0
10
97.0855
20
-4.028175
30
0
40
0.5
210
0
220
0
230
1
100
AcDbArc
50
0
51
90
0
ARC
5
149
100
AcDbEntity
8
1
62
256
6
ByLayer
370
18
48
1
60
0
100
AcDbCircle
39
0
10
97.0855
20
-11.528175
30
0
40
0.5
210
0
220
0
230
1
100
AcDbArc
50
270
51
0
0
ARC
5
14A
100
AcDbEntity
8
1
62
256
6
ByLayer
370
18
48
1
60
0
100
AcDbCircle
39
0
10
-92.4755
20
-5.078175
30
0
40
0.2
210
0
220
0
230
-1
100
AcDbArc
50
180
51
270
0
ARC
5
14B
100
AcDbEntity
8
1
62
256
6
ByLayer
370
18
48
1
60
0
100
AcDbCircle
39
0
10
-92.4755
20
5.078175
30
0
40
0.2
210
0
220
0
230
-1
100
AcDbArc
50
90
51
180
0
ARC
5
14C
100
AcDbEntity
8
1
62
256
6
ByLayer
370
18
48
1
60
0
100
AcDbCircle
39
0
10
-24
20
-20
30
0
40
4
210
0
220
0
230
-1
100
AcDbArc
50
0
51
90
0
ARC
5
14D
100
AcDbEntity
8
1
62
256
6
ByLayer
370
18
48
1
60
0
100
AcDbCircle
39
0
10
-24
20
20
30
0
40
4
210
0
220
0
230
-1
100
AcDbArc
50
270
51
0
0
ARC
5
14E
100
AcDbEntity
8
1
62
256
6
ByLayer
370
18
48
1
60
0
100
AcDbCircle
39
0
10
-92.4755
20
-10.478175
30
0
40
0.2
210
0
220
0
230
-1
100
AcDbArc
50
90
51
180
0
ARC
5
14F
100
AcDbEntity
8
SK1
62
256
6
ByLayer
370
18
48
1
60
0
100
AcDbCircle
39
0
10
0.35
20
-15.325
30
0
40
0.8
210
0
220
0
230
-1
100
AcDbArc
50
90
51
115.94448
0
ARC
5
150
100
AcDbEntity
8
SK1
62
256
6
ByLayer
370
18
48
1
60
0
100
AcDbCircle
39
0
10
0.35
20
15.325
30
0
40
0.8
210
0
220
0
230
-1
100
AcDbArc
50
244.05552
51
270
0
ARC
5
151
100
AcDbEntity
8
SK1
62
256
6
ByLayer
370
18
48
1
60
0
100
AcDbCircle
39
0
10
0.534083
20
-15.325
30
0
40
0.800000000000001
210
0
220
0
230
-1
100
AcDbArc
50
75
51
90
0
ARC
5
152
100
AcDbEntity
8
SK1
62
256
6
ByLayer
370
18
48
1
60
0
100
AcDbCircle
39
0
10
0.534083
20
15.325
30
0
40
0.800000000000001
210
0
220
0
230
-1
100
AcDbArc
50
270
51
285
0
ARC
5
154
100
AcDbEntity
8
SK1
62
256
6
ByLayer
370
18
48
1
60
0
100
AcDbCircle
39
0
10
37.39807
20
0
30
0
40
14.9967500015619
210
0
220
0
230
-1
100
AcDbArc
50
36.832631
51
45.485532
0
ARC
5
155
100
AcDbEntity
8
SK1
62
256
6
ByLayer
370
18
48
1
60
0
100
AcDbCircle
39
0
10
37.39807
20
0
30
0
40
14.9967499989215
210
0
220
0
230
-1
100
AcDbArc
50
314.514468
51
323.167369
0
ARC
5
156
100
AcDbEntity
8
SK1
62
256
6
ByLayer
370
18
48
1
60
0
100
AcDbCircle
39
0
10
58.00193
20
0
30
0
40
14.9967499999685
210
0
220
0
230
-1
100
AcDbArc
50
216.832631
51
225.485532
0
ARC
5
157
100
AcDbEntity
8
SK1
62
256
6
ByLayer
370
18
48
1
60
0
100
AcDbCircle
39
0
10
33.39807
20
0
30
0
40
14.9967499991402
210
0
220
0
230
-1
100
AcDbArc
50
314.514468
51
323.167369
0
ARC
5
158
100
AcDbEntity
8
SK1
62
256
6
ByLayer
370
18
48
1
60
0
100
AcDbCircle
39
0
10
54.00193
20
0
30
0
40
14.9967499974949
210
0
220
0
230
-1
100
AcDbArc
50
216.832631
51
225.485532
0
ARC
5
159
100
AcDbEntity
8
SK1
62
256
6
ByLayer
370
18
48
1
60
0
100
AcDbCircle
39
0
10
29.39807
20
0
30
0
40
14.9967499989215
210
0
220
0
230
-1
100
AcDbArc
50
314.514468
51
323.167369
0
ARC
5
15A
100
AcDbEntity
8
SK1
62
256
6
ByLayer
370
18
48
1
60
0
100
AcDbCircle
39
0
10
50.00193
20
0
30
0
40
14.9967499999685
210
0
220
0
230
-1
100
AcDbArc
50
216.832631
51
225.485532
0
ARC
5
15B
100
AcDbEntity
8
SK1
62
256
6
ByLayer
370
18
48
1
60
0
100
AcDbCircle
39
0
10
25.39807
20
0
30
0
40
14.9967500031279
210
0
220
0
230
-1
100
AcDbArc
50
314.514468
51
323.167369
0
ARC
5
15C
100
AcDbEntity
8
SK1
62
256
6
ByLayer
370
18
48
1
60
0
100
AcDbCircle
39
0
10
46.00193
20
0
30
0
40
14.9967499999685
210
0
220
0
230
-1
100
AcDbArc
50
216.832631
51
225.485532
0
ARC
5
15D
100
AcDbEntity
8
SK1
62
256
6
ByLayer
370
18
48
1
60
0
100
AcDbCircle
39
0
10
21.39807
20
0
30
0
40
14.9967499989215
210
0
220
0
230
-1
100
AcDbArc
50
314.514468
51
323.167369
0
ARC
5
15E
100
AcDbEntity
8
SK1
62
256
6
ByLayer
370
18
48
1
60
0
100
AcDbCircle
39
0
10
42.00193
20
0
30
0
40
14.9967500006938
210
0
220
0
230
-1
100
AcDbArc
50
216.832631
51
225.485532
0
ARC
5
15F
100
AcDbEntity
8
SK1
62
256
6
ByLayer
370
18
48
1
60
0
100
AcDbCircle
39
0
10
17.39807
20
0
30
0
40
14.996750001078
210
0
220
0
230
-1
100
AcDbArc
50
314.514468
51
323.167369
0
ARC
5
160
100
AcDbEntity
8
SK1
62
256
6
ByLayer
370
18
48
1
60
0
100
AcDbCircle
39
0
10
38.00193
20
0
30
0
40
14.9967500006938
210
0
220
0
230
-1
100
AcDbArc
50
216.832631
51
225.485532
0
ARC
5
161
100
AcDbEntity
8
SK1
62
256
6
ByLayer
370
18
48
1
60
0
100
AcDbCircle
39
0
10
13.39807
20
0
30
0
40
14.9967500020157
210
0
220
0
230
-1
100
AcDbArc
50
314.514468
51
323.167369
0
ARC
5
162
100
AcDbEntity
8
SK1
62
256
6
ByLayer
370
18
48
1
60
0
100
AcDbCircle
39
0
10
34.00193
20
0
30
0
40
14.9967499991245
210
0
220
0
230
-1
100
AcDbArc
50
216.832631
51
225.485532
0
ARC
5
163
100
AcDbEntity
8
SK1
62
256
6
ByLayer
370
18
48
1
60
0
100
AcDbCircle
39
0
10
9.39807
20
0
30
0
40
14.9967500005909
210
0
220
0
230
-1
100
AcDbArc
50
314.514468
51
323.167369
0
ARC
5
164
100
AcDbEntity
8
SK1
62
256
6
ByLayer
370
18
48
1
60
0
100
AcDbCircle
39
0
10
30.00193
20
0
30
0
40
14.9967499991245
210
0
220
0
230
-1
100
AcDbArc
50
216.832631
51
225.485532
0
ARC
5
165
100
AcDbEntity
8
SK1
62
256
6
ByLayer
370
18
48
1
60
0
100
AcDbCircle
39
0
10
5.39807
20
0
30
0
40
14.9967500004865
210
0
220
0
230
-1
100
AcDbArc
50
314.514468
51
323.167369
0
ARC
5
166
100
AcDbEntity
8
SK1
62
256
6
ByLayer
370
18
48
1
60
0
100
AcDbCircle
39
0
10
26.00193
20
0
30
0
40
14.996749999947
210
0
220
0
230
-1
100
AcDbArc
50
216.832631
51
225.485532
0
ARC
5
167
100
AcDbEntity
8
SK1
62
256
6
ByLayer
370
18
48
1
60
0
100
AcDbCircle
39
0
10
1.39807
20
0
30
0
40
14.9967499995214
210
0
220
0
230
-1
100
AcDbArc
50
314.514468
51
323.167369
0
ARC
5
168
100
AcDbEntity
8
SK1
62
256
6
ByLayer
370
18
48
1
60
0
100
AcDbCircle
39
0
10
22.00193
20
0
30
0
40
14.996749999947
210
0
220
0
230
-1
100
AcDbArc
50
216.832631
51
225.485532
0
ARC
5
169
100
AcDbEntity
8
SK1
62
256
6
ByLayer
370
18
48
1
60
0
100
AcDbCircle
39
0
10
22.00193
20
0
30
0
40
14.996749999106
210
0
220
0
230
-1
100
AcDbArc
50
134.514468
51
143.167369
0
ARC
5
16A
100
AcDbEntity
8
SK1
62
256
6
ByLayer
370
18
48
1
60
0
100
AcDbCircle
39
0
10
1.39807
20
0
30
0
40
14.9967499995905
210
0
220
0
230
-1
100
AcDbArc
50
36.832631
51
45.485532
0
ARC
5
16B
100
AcDbEntity
8
SK1
62
256
6
ByLayer
370
18
48
1
60
0
100
AcDbCircle
39
0
10
26.00193
20
0
30
0
40
14.9967499999996
210
0
220
0
230
-1
100
AcDbArc
50
134.514468
51
143.167369
0
ARC
5
16C
100
AcDbEntity
8
SK1
62
256
6
ByLayer
370
18
48
1
60
0
100
AcDbCircle
39
0
10
5.39807
20
0
30
0
40
14.9967499991629
210
0
220
0
230
-1
100
AcDbArc
50
36.832631
51
45.485532
0
ARC
5
16D
100
AcDbEntity
8
SK1
62
256
6
ByLayer
370
18
48
1
60
0
100
AcDbCircle
39
0
10
30.00193
20
0
30
0
40
14.9967499994938
210
0
220
0
230
-1
100
AcDbArc
50
134.514468
51
143.167369
0
ARC
5
16E
100
AcDbEntity
8
SK1
62
256
6
ByLayer
370
18
48
1
60
0
100
AcDbCircle
39
0
10
9.39807
20
0
30
0
40
14.9967499992488
210
0
220
0
230
-1
100
AcDbArc
50
36.832631
51
45.485532
0
ARC
5
16F
100
AcDbEntity
8
SK1
62
256
6
ByLayer
370
18
48
1
60
0
100
AcDbCircle
39
0
10
34.00193
20
0
30
0
40
14.9967499994938
210
0
220
0
230
-1
100
AcDbArc
50
134.514468
51
143.167369
0
ARC
5
170
100
AcDbEntity
8
SK1
62
256
6
ByLayer
370
18
48
1
60
0
100
AcDbCircle
39
0
10
13.39807
20
0
30
0
40
14.9967499992488
210
0
220
0
230
-1
100
AcDbArc
50
36.832631
51
45.485532
0
ARC
5
171
100
AcDbEntity
8
SK1
62
256
6
ByLayer
370
18
48
1
60
0
100
AcDbCircle
39
0
10
38.00193
20
0
30
0
40
14.9967499999483
210
0
220
0
230
-1
100
AcDbArc
50
134.514468
51
143.167369
0
ARC
5
172
100
AcDbEntity
8
SK1
62
256
6
ByLayer
370
18
48
1
60
0
100
AcDbCircle
39
0
10
17.39807
20
0
30
0
40
14.9967500020162
210
0
220
0
230
-1
100
AcDbArc
50
36.832631
51
45.485532
0
ARC
5
173
100
AcDbEntity
8
SK1
62
256
6
ByLayer
370
18
48
1
60
0
100
AcDbCircle
39
0
10
42.00193
20
0
30
0
40
14.9967500001123
210
0
220
0
230
-1
100
AcDbArc
50
134.514468
51
143.167369
0
ARC
5
174
100
AcDbEntity
8
SK1
62
256
6
ByLayer
370
18
48
1
60
0
100
AcDbCircle
39
0
10
21.39807
20
0
30
0
40
14.9967500020162
210
0
220
0
230
-1
100
AcDbArc
50
36.832631
51
45.485532
0
ARC
5
175
100
AcDbEntity
8
SK1
62
256
6
ByLayer
370
18
48
1
60
0
100
AcDbCircle
39
0
10
46.00193
20
0
30
0
40
14.996749998879
210
0
220
0
230
-1
100
AcDbArc
50
134.514468
51
143.167369
0
ARC
5
176
100
AcDbEntity
8
SK1
62
256
6
ByLayer
370
18
48
1
60
0
100
AcDbCircle
39
0
10
25.39807
20
0
30
0
40
14.9967500020614
210
0
220
0
230
-1
100
AcDbArc
50
36.832631
51
45.485532
0
ARC
5
177
100
AcDbEntity
8
SK1
62
256
6
ByLayer
370
18
48
1
60
0
100
AcDbCircle
39
0
10
50.00193
20
0
30
0
40
14.9967499997609
210
0
220
0
230
-1
100
AcDbArc
50
134.514468
51
143.167369
0
ARC
5
178
100
AcDbEntity
8
SK1
62
256
6
ByLayer
370
18
48
1
60
0
100
AcDbCircle
39
0
10
29.39807
20
0
30
0
40
14.9967500015619
210
0
220
0
230
-1
100
AcDbArc
50
36.832631
51
45.485532
0
ARC
5
179
100
AcDbEntity
8
SK1
62
256
6
ByLayer
370
18
48
1
60
0
100
AcDbCircle
39
0
10
54.00193
20
0
30
0
40
14.9967500005739
210
0
220
0
230
-1
100
AcDbArc
50
134.514468
51
143.167369
0
ARC
5
17A
100
AcDbEntity
8
SK1
62
256
6
ByLayer
370
18
48
1
60
0
100
AcDbCircle
39
0
10
33.39807
20
0
30
0
40
14.9967500015619
210
0
220
0
230
-1
100
AcDbArc
50
36.832631
51
45.485532
0
ARC
5
17B
100
AcDbEntity
8
SK1
62
256
6
ByLayer
370
18
48
1
60
0
100
AcDbCircle
39
0
10
58.00193
20
0
30
0
40
14.9967500005739
210
0
220
0
230
-1
100
AcDbArc
50
134.514468
51
143.167369
0
CIRCLE
5
153
100
AcDbEntity
8
1
62
256
6
ByLayer
370
18
48
1
60
0
100
AcDbCircle
10
14
20
-12.5
30
0
40
3
39
0
210
0
220
0
230
1
0
ELLIPSE
5
17C
100
AcDbEntity
8
SK1
62
256
6
ByLayer
370
18
48
1
60
0
100
AcDbEllipse
10
-63.257216
20
0
30
0
11
12.1143625104117
21
-5.43805244149926E-07
31
0
210
0
220
0
230
-1
40
0.963433
41
-0.820841807628851
42
-0.762836739146019
0
ELLIPSE
5
17D
100
AcDbEntity
8
SK1
62
256
6
ByLayer
370
18
48
1
60
0
100
AcDbEllipse
10
-63.257217
20
0
30
0
11
12.1143628105829
21
-2.15289736877089E-06
31
0
210
0
220
0
230
-1
40
0.963433
41
0.762836516861301
42
0.820841584382002
0
POINT
5
6C
100
AcDbEntity
8
80
62
256
6
ByLayer
370
18
48
1
60
0
100
AcDbPoint
10
0
20
0
30
0
39
0
210
0
220
0
230
1
50
360
0
POINT
5
6E
100
AcDbEntity
8
81
62
256
6
ByLayer
370
18
48
1
60
0
100
AcDbPoint
10
88
20
0
30
0
39
0
210
0
220
0
230
1
50
360
0
POINT
5
70
100
AcDbEntity
8
SK2
62
256
6
ByLayer
370
18
48
1
60
1
100
AcDbPoint
10
0
20
34
30
0
39
0
210
0
220
0
230
1
50
360
0
POINT
5
72
100
AcDbEntity
8
SK2
62
256
6
ByLayer
370
18
48
1
60
1
100
AcDbPoint
10
0
20
-34
30
0
39
0
210
0
220
0
230
1
50
360
0
POINT
5
73
100
AcDbEntity
8
SK2
62
256
6
ByLayer
370
18
48
1
60
1
100
AcDbPoint
10
88
20
16
30
0
39
0
210
0
220
0
230
1
50
360
0
POINT
5
74
100
AcDbEntity
8
SK2
62
256
6
ByLayer
370
18
48
1
60
1
100
AcDbPoint
10
88
20
-16
30
0
39
0
210
0
220
0
230
1
50
360
0
SPLINE
5
17E
100
AcDbEntity
8
1
62
256
6
ByLayer
370
18
48
1
60
0
100
AcDbSpline
70
4
71
3
72
8
73
4
40
0
40
0
40
0
40
0
40
1
40
1
40
1
40
1
41
1
10
0.5
20
-19.2873015219859
30
0
41
1
10
0.333302002659877
20
-19.2354441907309
30
0
41
1
10
0.166634969548824
20
-19.1833873660486
30
0
41
1
10
0
20
-19.131126469709
30
0
0
SPLINE
5
17F
100
AcDbEntity
8
1
62
256
6
ByLayer
370
18
48
1
60
0
100
AcDbSpline
70
4
71
3
72
8
73
4
40
0
40
0
40
0
40
0
40
1
40
1
40
1
40
1
41
1
10
0
20
19.131126469709
30
0
41
1
10
0.166634969548824
20
19.1833873660486
30
0
41
1
10
0.333302002659877
20
19.2354441907309
30
0
41
1
10
0.5
20
19.2873015219859
30
0
0
SPLINE
5
180
100
AcDbEntity
8
1
62
256
6
ByLayer
370
18
48
1
60
0
100
AcDbSpline
70
4
71
3
72
69
73
65
40
0
40
0
40
0
40
0
40
1.71290970988E-05
40
1.71290970988E-05
40
0.0625160585285312
40
0.0625160585285312
40
0.0781407908863892
40
0.0781407908863892
40
0.0937655232442473
40
0.0937655232442473
40
0.125014987959963
40
0.15626445267568
40
0.15626445267568
40
0.171889185033538
40
0.171889185033538
40
0.187513917391396
40
0.187513917391396
40
0.250012846822827
40
0.250012846822827
40
0.281262311538543
40
0.281262311538543
40
0.296887043896401
40
0.296887043896401
40
0.312511776254259
40
0.312511776254259
40
0.37501070568569
40
0.37501070568569
40
0.390635438043548
40
0.390635438043548
40
0.406260170401405
40
0.406260170401405
40
0.437509635117121
40
0.437509635117121
40
0.500008564548551
40
0.500008564548551
40
0.531258029264266
40
0.531258029264266
40
0.562507493979982
40
0.593756958695697
40
0.593756958695697
40
0.625006423411412
40
0.625006423411412
40
0.687505352842842
40
0.687505352842842
40
0.7031300852007
40
0.7031300852007
40
0.718754817558557
40
0.718754817558557
40
0.750004282274273
40
0.750004282274273
40
0.812503211705705
40
0.812503211705705
40
0.828127944063563
40
0.828127944063563
40
0.843752676421421
40
0.843752676421421
40
0.875002141137137
40
0.906251605852853
40
0.906251605852853
40
0.921876338210711
40
0.921876338210711
40
0.937501070568569
40
0.937501070568569
40
1
40
1
40
1
40
1
41
1
10
10.5000012808725
20
-33.9999998681128
30
0
41
1
10
10.500000286033
20
-33.999999970555
30
0
41
1
10
10.4999992911903
20
-34.0000000729657
30
0
41
1
10
10.4999160855085
20
-34.0000086382559
30
0
41
1
10
10.521989566813
20
-33.997714252473
30
0
41
1
10
10.5779277097368
20
-33.9920645868047
30
0
41
1
10
10.5905876435614
20
-33.9907913840091
30
0
41
1
10
10.6185631716022
20
-33.9879967241294
30
0
41
1
10
10.6338791593688
20
-33.9864751922205
30
0
41
1
10
10.6837374824735
20
-33.9815610296278
30
0
41
1
10
10.7606240155226
20
-33.9740779744968
30
0
41
1
10
10.8580076128098
20
-33.9649707278869
30
0
41
1
10
10.9388355511726
20
-33.9576207629308
30
0
41
1
10
10.967078885923
20
-33.9550842010201
30
0
41
1
10
11.0262135271989
20
-33.9498532927606
30
0
41
1
10
11.0571624927836
20
-33.9471542188449
30
0
41
1
10
11.2168920105246
20
-33.9334566690113
30
0
41
1
10
11.3615771280153
20
-33.9217546228086
30
0
41
1
10
11.6033387757876
20
-33.9040930476439
30
0
41
1
10
11.6880781722484
20
-33.8981871377749
30
0
41
1
10
11.821615265607
20
-33.8894288418016
30
0
41
1
10
11.8671880603062
20
-33.8865277928723
30
0
41
1
10
11.9594699588166
20
-33.8808447642024
30
0
41
1
10
12.0063021133281
20
-33.8780545671869
30
0
41
1
10
12.2438656382565
20
-33.8644062076995
30
0
41
1
10
12.4447077707584
20
-33.8544556489802
30
0
41
1
10
12.7093929670526
20
-33.8439487737342
30
0
41
1
10
12.7630177610205
20
-33.8419440521876
30
0
41
1
10
12.8716719465555
20
-33.8381467632025
30
0
41
1
10
12.9265493769477
20
-33.8363602540407
30
0
41
1
10
13.0915149727405
20
-33.83139460692
30
0
41
1
10
13.2024431439716
20
-33.828591307149
30
0
41
1
10
13.5380177051978
20
-33.8217888230468
30
0
41
1
10
13.7654269599196
20
-33.8193959763675
30
0
41
1
10
14.1123140985363
20
-33.8193619747702
30
0
41
1
10
14.2272092661938
20
-33.8199449021199
30
0
41
1
10
14.4548245997664
20
-33.8222399398433
30
0
41
1
10
14.6805197079611
20
-33.8256641878403
30
0
41
1
10
14.9024050763344
20
-33.8312319058292
30
0
41
1
10
15.1223458225199
20
-33.8378128354882
30
0
41
1
10
15.2316845835805
20
-33.841628563991
30
0
41
1
10
15.5497498037274
20
-33.8541996250533
30
0
41
1
10
15.750825872681
20
-33.8641302167925
30
0
41
1
10
15.988637309157
20
-33.8777570627667
30
0
41
1
10
16.0355167904255
20
-33.8805431401722
30
0
41
1
10
16.1278895747645
20
-33.8862182739732
30
0
41
1
10
16.1734995106017
20
-33.8891150636588
30
0
41
1
10
16.3072888567161
20
-33.8978710329956
30
0
41
1
10
16.3921857253223
20
-33.9037766120861
30
0
41
1
10
16.6344002052506
20
-33.9214405430048
30
0
41
1
10
16.7793608659038
20
-33.9331484988453
30
0
41
1
10
16.9394394461371
20
-33.9468597483091
30
0
41
1
10
16.9704685076085
20
-33.9495627327627
30
0
41
1
10
17.0298076099017
20
-33.954806150884
30
0
41
1
10
17.0581494536438
20
-33.9573490284354
30
0
41
1
10
17.1392646884927
20
-33.9647182031155
30
0
41
1
10
17.2370094751654
20
-33.9738515533803
30
0
41
1
10
17.3142418488985
20
-33.9813639118486
30
0
41
1
10
17.3643642476221
20
-33.9863012162224
30
0
41
1
10
17.3797690824756
20
-33.9878308049515
30
0
41
1
10
17.4079258538302
20
-33.9906422769614
30
0
41
1
10
17.420693619164
20
-33.9919257776714
30
0
41
1
10
17.4772769426084
20
-33.9976385467001
30
0
41
1
10
17.5000079579536
20
-34.0000008269067
30
0
41
1
10
17.5000015542856
20
-34.0000001615264
30
0
0
SPLINE
5
181
100
AcDbEntity
8
1
62
256
6
ByLayer
370
18
48
1
60
0
100
AcDbSpline
70
4
71
3
72
24
73
20
40
0
40
0
40
0
40
0
40
0.25000000000004
40
0.25000000000004
40
0.500000000000079
40
0.500000000000079
40
0.625000000000091
40
0.625000000000091
40
0.687500000000076
40
0.687500000000076
40
0.750000000000061
40
0.750000000000061
40
0.812500000000046
40
0.812500000000046
40
0.87500000000003
40
0.87500000000003
40
0.937500000000015
40
0.937500000000015
40
1
40
1
40
1
40
1
41
1
10
88.3245000000001
20
-4.36430128929484
30
0
41
1
10
88.3245000000001
20
-4.34075100487232
30
0
41
1
10
88.3240058753211
20
-4.31732566239117
30
0
41
1
10
88.321458489008
20
-4.27117804393657
30
0
41
1
10
88.3194828325135
20
-4.24839436697587
30
0
41
1
10
88.3139936623766
20
-4.21531057376009
30
0
41
1
10
88.3117179633608
20
-4.20436723670153
30
0
41
1
10
88.3070529089918
20
-4.18906189571712
30
0
41
1
10
88.305288063206
20
-4.18414169883832
30
0
41
1
10
88.3010352228236
20
-4.17493065908178
30
0
41
1
10
88.298523775894
20
-4.17059131939453
30
0
41
1
10
88.2923932276941
20
-4.16373499233848
30
0
41
1
10
88.28861086133
20
-4.16118624172526
30
0
41
1
10
88.2801378671504
20
-4.16014524351289
30
0
41
1
10
88.2755740167096
20
-4.16171387523949
30
0
41
1
10
88.2671124917708
20
-4.16745050184568
30
0
41
1
10
88.2631632743611
20
-4.17149371210951
30
0
41
1
10
88.255928809143
20
-4.18033280021993
30
0
41
1
10
88.2526285978214
20
-4.18513717421038
30
0
41
1
10
88.2495
20
-4.19015052554326
30
0
0
SPLINE
5
182
100
AcDbEntity
8
1
62
256
6
ByLayer
370
18
48
1
60
0
100
AcDbSpline
70
4
71
3
72
12
73
8
40
0
40
0
40
0
40
0
40
0.500000000000006
40
0.500000000000006
40
0.750000000000003
40
0.750000000000003
40
1
40
1
40
1
40
1
41
1
10
88.2495000000005
20
-5.54276118758753
30
0
41
1
10
88.2719654923217
20
-5.44885480738188
30
0
41
1
10
88.2894866931703
20
-5.35482616559497
30
0
41
1
10
88.3090138371483
20
-5.21356844296528
30
0
41
1
10
88.3143440367861
20
-5.16652855982861
30
0
41
1
10
88.3220441941806
20
-5.07312164983665
30
0
41
1
10
88.3245
20
-5.02666935501256
30
0
41
1
10
88.3245
20
-4.98070765025412
30
0
0
SPLINE
5
183
100
AcDbEntity
8
1
62
256
6
ByLayer
370
18
48
1
60
0
100
AcDbSpline
70
4
71
3
72
8
73
4
40
0
40
0
40
0
40
0
40
1
40
1
40
1
40
1
41
1
10
88.2495000000001
20
-5.54276118758756
30
0
41
1
10
88.0666055459679
20
-6.30726507168862
30
0
41
1
10
87.8503984452163
20
-7.059096934742
30
0
41
1
10
87.6055
20
-7.8000147048983
30
0
0
SPLINE
5
184
100
AcDbEntity
8
1
62
256
6
ByLayer
370
18
48
1
60
0
100
AcDbSpline
70
4
71
3
72
24
73
20
40
0
40
0
40
0
40
0
40
0.249999999999993
40
0.249999999999993
40
0.499999999999985
40
0.499999999999985
40
0.624999999999985
40
0.624999999999985
40
0.749999999999984
40
0.749999999999984
40
0.812499999999986
40
0.812499999999986
40
0.874999999999989
40
0.874999999999989
40
0.90624999999999
40
0.90624999999999
40
0.937499999999991
40
0.937499999999991
40
1
40
1
40
1
40
1
41
1
10
87.6054999999998
20
-7.8000147048983
30
0
41
1
10
87.5879867809472
20
-7.85299934184567
30
0
41
1
10
87.5727382518921
20
-7.90569216801637
30
0
41
1
10
87.546791416363
20
-8.01047350598483
30
0
41
1
10
87.5360118982865
20
-8.06257059720238
30
0
41
1
10
87.5251151537234
20
-8.1400622205546
30
0
41
1
10
87.5223820049023
20
-8.16588268324645
30
0
41
1
10
87.5199531850072
20
-8.21565668024945
30
0
41
1
10
87.5200832096761
20
-8.23982742363063
30
0
41
1
10
87.5250398587168
20
-8.27362575546218
30
0
41
1
10
87.5274756658929
20
-8.28421835680604
30
0
41
1
10
87.535170778308
20
-8.30282088547528
30
0
41
1
10
87.5405053612523
20
-8.31084781520863
30
0
41
1
10
87.5518063449279
20
-8.31738998669351
30
0
41
1
10
87.5560881702045
20
-8.31859333913198
30
0
41
1
10
87.565449138091
20
-8.31864739025272
30
0
41
1
10
87.570448088906
20
-8.31750051835681
30
0
41
1
10
87.5857402502633
20
-8.31111401439063
30
0
41
1
10
87.5959233873071
20
-8.30324280587084
30
0
41
1
10
87.6055000000006
20
-8.29399436962669
30
0
0
SPLINE
5
185
100
AcDbEntity
8
1
62
256
6
ByLayer
370
18
48
1
60
0
100
AcDbSpline
70
4
71
3
72
8
73
4
40
0
40
0
40
0
40
0
40
1
40
1
40
1
40
1
41
1
10
87.6055
20
-8.29399436962495
30
0
41
1
10
87.8211953437772
20
-8.08569058843594
30
0
41
1
10
88.0359354469355
20
-7.8760830358334
30
0
41
1
10
88.2495
20
-7.66487101983498
30
0
0
SPLINE
5
186
100
AcDbEntity
8
1
62
256
6
ByLayer
370
18
48
1
60
0
100
AcDbSpline
70
4
71
3
72
18
73
14
40
0
40
0
40
0
40
0
40
0.249999999999996
40
0.249999999999996
40
0.499999999999993
40
0.499999999999993
40
0.624999999999994
40
0.624999999999994
40
0.749999999999996
40
0.749999999999996
40
0.874999999999998
40
0.874999999999998
40
1
40
1
40
1
40
1
41
1
10
88.3245
20
-7.73629760518773
30
0
41
1
10
88.3245
20
-7.72184292928995
30
0
41
1
10
88.3237870724261
20
-7.70778266770589
30
0
41
1
10
88.3198500409476
20
-7.68107590515609
30
0
41
1
10
88.3167405816158
20
-7.66851234957508
30
0
41
1
10
88.3081058304445
20
-7.65350581024683
30
0
41
1
10
88.3046260591323
20
-7.64933154040716
30
0
41
1
10
88.2957683537229
20
-7.6437299729931
30
0
41
1
10
88.2904867554595
20
-7.6425401335824
30
0
41
1
10
88.2790222022848
20
-7.64403735676109
30
0
41
1
10
88.2728515927768
20
-7.6467098444104
30
0
41
1
10
88.2609747993835
20
-7.6543378226248
30
0
41
1
10
88.2550919606135
20
-7.65934065789961
30
0
41
1
10
88.2494999999995
20
-7.66487101983353
30
0
0
SPLINE
5
187
100
AcDbEntity
8
1
62
256
6
ByLayer
370
18
48
1
60
0
100
AcDbSpline
70
4
71
3
72
12
73
8
40
0
40
0
40
0
40
0
40
0.5
40
0.5
40
0.75
40
0.75
40
1
40
1
40
1
40
1
41
1
10
88.2495000000002
20
-8.39817332868466
30
0
41
1
10
88.2709168268862
20
-8.3412970670326
30
0
41
1
10
88.2883123214796
20
-8.28465038938933
30
0
41
1
10
88.3081813848248
20
-8.20000277725305
30
0
41
1
10
88.313761770269
20
-8.17168821492066
30
0
41
1
10
88.3218859548331
20
-8.11599240616354
30
0
41
1
10
88.3245
20
-8.08872070987101
30
0
41
1
10
88.3245
20
-8.06252279407676
30
0
0
SPLINE
5
188
100
AcDbEntity
8
1
62
256
6
ByLayer
370
18
48
1
60
0
100
AcDbSpline
70
4
71
3
72
8
73
4
40
0
40
0
40
0
40
0
40
1
40
1
40
1
40
1
41
1
10
88.2495
20
-8.39817332868469
30
0
41
1
10
88.0485705188501
20
-8.93177794735098
30
0
41
1
10
87.8332755239774
20
-9.45756757526465
30
0
41
1
10
87.6055
20
-9.97656766390924
30
0
0
SPLINE
5
189
100
AcDbEntity
8
1
62
256
6
ByLayer
370
18
48
1
60
0
100
AcDbSpline
70
4
71
3
72
24
73
20
40
0
40
0
40
0
40
0
40
0.250000000000013
40
0.250000000000013
40
0.500000000000025
40
0.500000000000025
40
0.625000000000029
40
0.625000000000029
40
0.687500000000024
40
0.687500000000024
40
0.750000000000019
40
0.750000000000019
40
0.812500000000014
40
0.812500000000014
40
0.87500000000001
40
0.87500000000001
40
0.937500000000005
40
0.937500000000005
40
1
40
1
40
1
40
1
41
1
10
87.6055
20
-9.97656766390924
30
0
41
1
10
87.5871798910664
20
-10.0183111225325
30
0
41
1
10
87.5712116281801
20
-10.0598230274815
30
0
41
1
10
87.5442448678505
20
-10.1423338694694
30
0
41
1
10
87.5330974947957
20
-10.1837302350407
30
0
41
1
10
87.5231172424616
20
-10.2424448734936
30
0
41
1
10
87.520881742774
20
-10.2616330904374
30
0
41
1
10
87.5203735268098
20
-10.2888154531627
30
0
41
1
10
87.5206879385433
20
-10.2975056830654
30
0
41
1
10
87.5226554903738
20
-10.3138685989044
30
0
41
1
10
87.5243309659137
20
-10.3216346318269
30
0
41
1
10
87.5296236232373
20
-10.3350898297097
30
0
41
1
10
87.5332701674035
20
-10.340847507557
30
0
41
1
10
87.5431970204705
20
-10.3487465614681
30
0
41
1
10
87.5495394952628
20
-10.3507641377659
30
0
41
1
10
87.5640797062506
20
-10.349887849218
30
0
41
1
10
87.572311314698
20
-10.3470063547565
30
0
41
1
10
87.588819538971
20
-10.3379397582798
30
0
41
1
10
87.5973025137125
20
-10.3317103014987
30
0
41
1
10
87.6055000000001
20
-10.3246631735596
30
0
0
SPLINE
5
18A
100
AcDbEntity
8
1
62
256
6
ByLayer
370
18
48
1
60
0
100
AcDbSpline
70
4
71
3
72
8
73
4
40
0
40
0
40
0
40
0
40
1
40
1
40
1
40
1
41
1
10
87.6055
20
-10.3246631735588
30
0
41
1
10
87.8203794218738
20
-10.1399379145855
30
0
41
1
10
88.0350577211803
20
-9.95490158076939
30
0
41
1
10
88.2495
20
-9.76950019574707
30
0
0
SPLINE
5
18B
100
AcDbEntity
8
1
62
256
6
ByLayer
370
18
48
1
60
0
100
AcDbSpline
70
4
71
3
72
16
73
12
40
0
40
0
40
0
40
0
40
0.249999999999967
40
0.249999999999967
40
0.499999999999935
40
0.499999999999935
40
0.624999999999914
40
0.624999999999914
40
0.749999999999893
40
0.749999999999893
40
1
40
1
40
1
40
1
41
1
10
88.3245000000016
20
-9.80578785862221
30
0
41
1
10
88.3245000000016
20
-9.79432339439134
30
0
41
1
10
88.3235753271721
20
-9.78354000799794
30
0
41
1
10
88.3185303945735
20
-9.76435291545855
30
0
41
1
10
88.3143823900261
20
-9.75610894781283
30
0
41
1
10
88.3044326430874
20
-9.74889014192738
30
0
41
1
10
88.3004704742929
20
-9.74738538740357
30
0
41
1
10
88.2915612701955
20
-9.74667470285402
30
0
41
1
10
88.2865760468594
20
-9.74747025650819
30
0
41
1
10
88.2710425830604
20
-9.75289524861259
30
0
41
1
10
88.2600338082371
20
-9.76039293085685
30
0
41
1
10
88.2494999999999
20
-9.76950019574642
30
0
0
SPLINE
5
18C
100
AcDbEntity
8
1
62
256
6
ByLayer
370
18
48
1
60
0
100
AcDbSpline
70
4
71
3
72
12
73
8
40
0
40
0
40
0
40
0
40
0.500000000000004
40
0.500000000000004
40
0.750000000000002
40
0.750000000000002
40
1
40
1
40
1
40
1
41
1
10
88.2495
20
-10.2876833609242
30
0
41
1
10
88.2704036408553
20
-10.2441256344044
30
0
41
1
10
88.2880478435167
20
-10.2001482970997
30
0
41
1
10
88.3080124871788
20
-10.1361403677178
30
0
41
1
10
88.3135979453878
20
-10.1150820310287
30
0
41
1
10
88.3218355217092
20
-10.0737358009228
30
0
41
1
10
88.3245
20
-10.0535086186836
30
0
41
1
10
88.3245
20
-10.0349937176221
30
0
0
SPLINE
5
18D
100
AcDbEntity
8
1
62
256
6
ByLayer
370
18
48
1
60
0
100
AcDbSpline
70
4
71
3
72
8
73
4
40
0
40
0
40
0
40
0
40
1
40
1
40
1
40
1
41
1
10
88.2495
20
-10.2876833609242
30
0
41
1
10
88.0427804369158
20
-10.7184329254336
30
0
41
1
10
87.8277685085049
20
-11.1436031744424
30
0
41
1
10
87.6055
20
-11.5638910107493
30
0
0
SPLINE
5
18E
100
AcDbEntity
8
1
62
256
6
ByLayer
370
18
48
1
60
0
100
AcDbSpline
70
4
71
3
72
26
73
22
40
0
40
0
40
0
40
0
40
0.124999999999995
40
0.124999999999995
40
0.24999999999999
40
0.24999999999999
40
0.374999999999984
40
0.374999999999984
40
0.499999999999979
40
0.499999999999979
40
0.624999999999974
40
0.624999999999974
40
0.687499999999979
40
0.687499999999979
40
0.749999999999983
40
0.749999999999983
40
0.812499999999988
40
0.812499999999988
40
0.874999999999993
40
0.874999999999993
40
1
40
1
40
1
40
1
41
1
10
87.6055
20
-11.5638910107494
30
0
41
1
10
87.5960493295775
20
-11.5817612967842
30
0
41
1
10
87.5871814269742
20
-11.5996025503992
30
0
41
1
10
87.5706253943952
20
-11.6352220144038
30
0
41
1
10
87.5629184114111
20
-11.6530546184183
30
0
41
1
10
87.5490591808351
20
-11.6880742622174
30
0
41
1
10
87.5428724205169
20
-11.7053203764697
30
0
41
1
10
87.5323054810601
20
-11.7391727389532
30
0
41
1
10
87.5278851986169
20
-11.7559124325496
30
0
41
1
10
87.5217790680737
20
-11.7878552058963
30
0
41
1
10
87.5200618068009
20
-11.8029393669194
30
0
41
1
10
87.520856800308
20
-11.8233513255689
30
0
41
1
10
87.5217056690621
20
-11.8296845211236
30
0
41
1
10
87.5249196991535
20
-11.8408280079046
30
0
41
1
10
87.5273336886007
20
-11.84573403173
30
0
41
1
10
87.5340693015643
20
-11.8531086434014
30
0
41
1
10
87.5384805347243
20
-11.8556083094396
30
0
41
1
10
87.5490084006568
20
-11.8574114046453
30
0
41
1
10
87.555247105383
20
-11.8567354425204
30
0
41
1
10
87.5754564096505
20
-11.8503173468117
30
0
41
1
10
87.5906709186585
20
-11.8404421540853
30
0
41
1
10
87.6055
20
-11.8282288061874
30
0
0
SPLINE
5
18F
100
AcDbEntity
8
1
62
256
6
ByLayer
370
18
48
1
60
0
100
AcDbSpline
70
4
71
3
72
8
73
4
40
0
40
0
40
0
40
0
40
1
40
1
40
1
40
1
41
1
10
87.6055
20
-11.828228806187
30
0
41
1
10
87.8201958861166
20
-11.6514035876185
30
0
41
1
10
88.0348639249866
20
-11.4745332759798
30
0
41
1
10
88.2495
20
-11.2976112695869
30
0
0
SPLINE
5
190
100
AcDbEntity
8
1
62
256
6
ByLayer
370
18
48
1
60
0
100
AcDbSpline
70
4
71
3
72
14
73
10
40
0
40
0
40
0
40
0
40
0.25
40
0.25
40
0.5
40
0.5
40
0.75
40
0.75
40
1
40
1
40
1
40
1
41
1
10
88.3245000000001
20
-11.3117925379057
30
0
41
1
10
88.3245000000001
20
-11.3022737101784
30
0
41
1
10
88.3233318074937
20
-11.2936444727468
30
0
41
1
10
88.3174234147179
20
-11.2798827003035
30
0
41
1
10
88.3124953438838
20
-11.2747976904737
30
0
41
1
10
88.2985522443744
20
-11.2713506621081
30
0
41
1
10
88.2894699974785
20
-11.2730825694772
30
0
41
1
10
88.2701153004324
20
-11.2820591512472
30
0
41
1
10
88.2596744834381
20
-11.2892245618826
30
0
41
1
10
88.2495
20
-11.2976112695867
30
0
0
SPLINE
5
191
100
AcDbEntity
8
1
62
256
6
ByLayer
370
18
48
1
60
0
100
AcDbSpline
70
4
71
3
72
14
73
10
40
0
40
0
40
0
40
0
40
0.25
40
0.25
40
0.5
40
0.5
40
0.75
40
0.75
40
1
40
1
40
1
40
1
41
1
10
88.2495
20
-11.6894628880304
30
0
41
1
10
88.2597772576341
20
-11.6713772317817
30
0
41
1
10
88.2692719561185
20
-11.6533300874752
30
0
41
1
10
88.286638475468
20
-11.6173088202017
30
0
41
1
10
88.2944660562457
20
-11.5994126448605
30
0
41
1
10
88.3078858654049
20
-11.5645222591319
30
0
41
1
10
88.3135404938684
20
-11.5474348816546
30
0
41
1
10
88.3218832081918
20
-11.5142710929153
30
0
41
1
10
88.3245
20
-11.4985773286792
30
0
41
1
10
88.3245
20
-11.484682147122
30
0
0
SPLINE
5
192
100
AcDbEntity
8
1
62
256
6
ByLayer
370
18
48
1
60
0
100
AcDbSpline
70
4
71
3
72
8
73
4
40
0
40
0
40
0
40
0
40
1
40
1
40
1
40
1
41
1
10
88.2495
20
-11.6894628880304
30
0
41
1
10
88.0399891728598
20
-12.0581547059221
30
0
41
1
10
87.8251085260618
20
-12.4226315723511
30
0
41
1
10
87.6055
20
-12.7833973678526
30
0
0
SPLINE
5
193
100
AcDbEntity
8
1
62
256
6
ByLayer
370
18
48
1
60
0
100
AcDbSpline
70
4
71
3
72
26
73
22
40
0
40
0
40
0
40
0
40
0.124999999999986
40
0.124999999999986
40
0.249999999999971
40
0.249999999999971
40
0.374999999999957
40
0.374999999999957
40
0.499999999999942
40
0.499999999999942
40
0.562499999999949
40
0.562499999999949
40
0.624999999999956
40
0.624999999999956
40
0.749999999999969
40
0.749999999999969
40
0.812499999999993
40
0.812499999999993
40
0.875000000000017
40
0.875000000000017
40
1
40
1
40
1
40
1
41
1
10
87.6055
20
-12.7833973678526
30
0
41
1
10
87.5958196882104
20
-12.7992998714853
30
0
41
1
10
87.5867119718737
20
-12.8151410965808
30
0
41
1
10
87.569686947017
20
-12.8466913036925
30
0
41
1
10
87.5617646247039
20
-12.8624225400771
30
0
41
1
10
87.5475953059455
20
-12.8930786011976
30
0
41
1
10
87.5412978426813
20
-12.9080832569108
30
0
41
1
10
87.5306869842944
20
-12.9372775482178
30
0
41
1
10
87.5263523278394
20
-12.9515707233827
30
0
41
1
10
87.5222623307521
20
-12.971209319552
30
0
41
1
10
87.521291475984
20
-12.9774830882789
30
0
41
1
10
87.5203456260816
20
-12.9893418571429
30
0
41
1
10
87.5203814606916
20
-12.9949406626693
30
0
41
1
10
87.5224213013725
20
-13.0097680476882
30
0
41
1
10
87.5264612862223
20
-13.0173614351735
30
0
41
1
10
87.5378369413518
20
-13.0219293778411
30
0
41
1
10
87.5424508085518
20
-13.0222907317337
30
0
41
1
10
87.5529361720567
20
-13.0206929918554
30
0
41
1
10
87.5589459803639
20
-13.0186917250436
30
0
41
1
10
87.5777643120645
20
-13.0099122184026
30
0
41
1
10
87.5917029983009
20
-13.0003139838399
30
0
41
1
10
87.6055
20
-12.9890462981539
30
0
0
SPLINE
5
194
100
AcDbEntity
8
1
62
256
6
ByLayer
370
18
48
1
60
0
100
AcDbSpline
70
4
71
3
72
8
73
4
40
0
40
0
40
0
40
0
40
1
40
1
40
1
40
1
41
1
10
87.6055
20
-12.9890462981537
30
0
41
1
10
87.8201673316659
20
-12.8137325544142
30
0
41
1
10
88.0348340263956
20
-12.6384177707854
30
0
41
1
10
88.2495
20
-12.4631018098503
30
0
0
SPLINE
5
195
100
AcDbEntity
8
1
62
256
6
ByLayer
370
18
48
1
60
0
100
AcDbSpline
70
4
71
3
72
14
73
10
40
0
40
0
40
0
40
0
40
0.25
40
0.25
40
0.5
40
0.5
40
0.75
40
0.75
40
1
40
1
40
1
40
1
41
1
10
88.3245
20
-12.4603300643647
30
0
41
1
10
88.3245
20
-12.4524473196041
30
0
41
1
10
88.323147231239
20
-12.4457545015048
30
0
41
1
10
88.3165338839139
20
-12.4362607228493
30
0
41
1
10
88.3111988494932
20
-12.4337275802809
30
0
41
1
10
88.2971316331625
20
-12.4343290038086
30
0
41
1
10
88.2882919242977
20
-12.4374757114225
30
0
41
1
10
88.26950631544
20
-12.4478125892125
30
0
41
1
10
88.2594638972546
20
-12.4549643757123
30
0
41
1
10
88.2495
20
-12.4631018098501
30
0
0
SPLINE
5
196
100
AcDbEntity
8
1
62
256
6
ByLayer
370
18
48
1
60
0
100
AcDbSpline
70
4
71
3
72
14
73
10
40
0
40
0
40
0
40
0
40
0.25
40
0.25
40
0.5
40
0.5
40
0.75
40
0.75
40
1
40
1
40
1
40
1
41
1
10
88.2495
20
-12.7652127395764
30
0
41
1
10
88.2596268005951
20
-12.7495806838879
30
0
41
1
10
88.2690240669662
20
-12.7340760766623
30
0
41
1
10
88.2862804481997
20
-12.7033283558361
30
0
41
1
10
88.2941997373812
20
-12.6879584717938
30
0
41
1
10
88.307792910941
20
-12.658264685519
30
0
41
1
10
88.3134921289403
20
-12.6439479860332
30
0
41
1
10
88.3218710690002
20
-12.6167753053822
30
0
41
1
10
88.3245000000129
20
-12.6040416188809
30
0
41
1
10
88.3245000000139
20
-12.5934407184002
30
0
0
SPLINE
5
197
100
AcDbEntity
8
1
62
256
6
ByLayer
370
18
48
1
60
0
100
AcDbSpline
70
4
71
3
72
8
73
4
40
0
40
0
40
0
40
0
40
1
40
1
40
1
40
1
41
1
10
88.2495
20
-12.7652127395764
30
0
41
1
10
88.0383838344783
20
-13.0910984549316
30
0
41
1
10
87.8235756476838
20
-13.4137098690188
30
0
41
1
10
87.6055
20
-13.7334235069173
30
0
0
SPLINE
5
198
100
AcDbEntity
8
1
62
256
6
ByLayer
370
18
48
1
60
0
100
AcDbSpline
70
4
71
3
72
24
73
20
40
0
40
0
40
0
40
0
40
0.250000000000006
40
0.250000000000006
40
0.375000000000005
40
0.375000000000005
40
0.500000000000004
40
0.500000000000004
40
0.625000000000003
40
0.625000000000003
40
0.687500000000002
40
0.687500000000002
40
0.75
40
0.75
40
0.874999999999998
40
0.874999999999998
40
0.937499999999999
40
0.937499999999999
40
1
40
1
40
1
40
1
41
1
10
87.6055
20
-13.7334235069173
30
0
41
1
10
87.5857014326439
20
-13.762449544725
30
0
41
1
10
87.5679133955476
20
-13.7913814935875
30
0
41
1
10
87.5462427725416
20
-13.8323487813085
30
0
41
1
10
87.5398178337016
20
-13.8456634430009
30
0
41
1
10
87.5291417249985
20
-13.8713003739318
30
0
41
1
10
87.5250354428614
20
-13.8832523961617
30
0
41
1
10
87.5202702011357
20
-13.9047387152758
30
0
41
1
10
87.5196714735777
20
-13.9141769391694
30
0
41
1
10
87.5229148663141
20
-13.9243233789456
30
0
41
1
10
87.5247026602585
20
-13.9270192811119
30
0
41
1
10
87.5297563239098
20
-13.9306099500664
30
0
41
1
10
87.5331005307614
20
-13.9315267410002
30
0
41
1
10
87.5449992604031
20
-13.931338621963
30
0
41
1
10
87.555764081996
20
-13.9272450817408
30
0
41
1
10
87.573543440271
20
-13.9169835136226
30
0
41
1
10
87.5798369618822
20
-13.9128428044454
30
0
41
1
10
87.592539514375
20
-13.9036964653504
30
0
41
1
10
87.5989822218977
20
-13.8986779252488
30
0
41
1
10
87.6055
20
-13.8932951735596
30
0
0
SPLINE
5
199
100
AcDbEntity
8
1
62
256
6
ByLayer
370
18
48
1
60
0
100
AcDbSpline
70
4
71
3
72
8
73
4
40
0
40
0
40
0
40
0
40
1
40
1
40
1
40
1
41
1
10
87.6055
20
-13.8932951735594
30
0
41
1
10
87.8201992608209
20
-13.7159843184299
30
0
41
1
10
88.0348672252561
20
-13.5386229220787
30
0
41
1
10
88.2495
20
-13.3612047752696
30
0
0
SPLINE
5
19A
100
AcDbEntity
8
1
62
256
6
ByLayer
370
18
48
1
60
0
100
AcDbSpline
70
4
71
3
72
16
73
12
40
0
40
0
40
0
40
0
40
0.249999999999974
40
0.249999999999974
40
0.499999999999949
40
0.499999999999949
40
0.625000000000002
40
0.625000000000002
40
0.750000000000054
40
0.750000000000054
40
1
40
1
40
1
40
1
41
1
10
88.3245000000002
20
-13.3440248877616
30
0
41
1
10
88.3245000000002
20
-13.3376595306224
30
0
41
1
10
88.3229146038589
20
-13.3325991795629
30
0
41
1
10
88.3158401522478
20
-13.3269320790377
30
0
41
1
10
88.3102642210667
20
-13.3263649696745
30
0
41
1
10
88.2996424940577
20
-13.3291178545168
30
0
41
1
10
88.29565583939
20
-13.3306437571249
30
0
41
1
10
88.2872881296794
20
-13.3346490450637
30
0
41
1
10
88.2828807042836
20
-13.3371263174271
30
0
41
1
10
88.2690778203387
20
-13.345794578896
30
0
41
1
10
88.259328441041
20
-13.3530804624866
30
0
41
1
10
88.2495
20
-13.3612047752696
30
0
0
SPLINE
5
19B
100
AcDbEntity
8
1
62
256
6
ByLayer
370
18
48
1
60
0
100
AcDbSpline
70
4
71
3
72
12
73
8
40
0
40
0
40
0
40
0
40
0.499999999999995
40
0.499999999999995
40
0.749999999999998
40
0.749999999999998
40
1
40
1
40
1
40
1
41
1
10
88.2495
20
-13.5925630387594
30
0
41
1
10
88.2695150228623
20
-13.5648229887937
30
0
41
1
10
88.2869943096373
20
-13.5377710623862
30
0
41
1
10
88.3077086767589
20
-13.4990219659647
30
0
41
1
10
88.3134656791868
20
-13.4867957085093
30
0
41
1
10
88.3218886844303
20
-13.464200433562
30
0
41
1
10
88.3245000000037
20
-13.4538868817872
30
0
41
1
10
88.3245000000039
20
-13.4458757333149
30
0
0
SPLINE
5
19C
100
AcDbEntity
8
1
62
256
6
ByLayer
370
18
48
1
60
0
100
AcDbSpline
70
4
71
3
72
8
73
4
40
0
40
0
40
0
40
0
40
1
40
1
40
1
40
1
41
1
10
88.2495
20
-13.5925630387594
30
0
41
1
10
88.0373626674526
20
-13.8865772022682
30
0
41
1
10
87.8225986716764
20
-14.1780125340789
30
0
41
1
10
87.6055
20
-14.467155704432
30
0
0
SPLINE
5
19D
100
AcDbEntity
8
1
62
256
6
ByLayer
370
18
48
1
60
0
100
AcDbSpline
70
4
71
3
72
22
73
18
40
0
40
0
40
0
40
0
40
0.250000000000023
40
0.250000000000023
40
0.500000000000046
40
0.500000000000046
40
0.562500000000049
40
0.562500000000049
40
0.625000000000052
40
0.625000000000052
40
0.75000000000006
40
0.75000000000006
40
0.812500000000061
40
0.812500000000061
40
0.875000000000062
40
0.875000000000062
40
1
40
1
40
1
40
1
41
1
10
87.6055
20
-14.467155704432
30
0
41
1
10
87.58527553925
20
-14.4940916808468
30
0
41
1
10
87.5670591396718
20
-14.5206125550333
30
0
41
1
10
87.5375270047238
20
-14.5699249535707
30
0
41
1
10
87.5258167416482
20
-14.5933532343268
30
0
41
1
10
87.5208683205301
20
-14.6147433519966
30
0
41
1
10
87.5203921018052
20
-14.6185526327083
30
0
41
1
10
87.5206486777981
20
-14.6250695289775
30
0
41
1
10
87.521404966572
20
-14.627788513956
30
0
41
1
10
87.525722714237
20
-14.6336278942287
30
0
41
1
10
87.53153111753
20
-14.6344466988331
30
0
41
1
10
87.5436546036878
20
-14.6308210893545
30
0
41
1
10
87.5483422571655
20
-14.6288001895483
30
0
41
1
10
87.5584108665371
20
-14.6234853969643
30
0
41
1
10
87.5637907399353
20
-14.620209721638
30
0
41
1
10
87.5808170244288
20
-14.60880235706
30
0
41
1
10
87.5930505226165
20
-14.5992924241023
30
0
41
1
10
87.6055
20
-14.5887620387654
30
0
0
SPLINE
5
19E
100
AcDbEntity
8
1
62
256
6
ByLayer
370
18
48
1
60
0
100
AcDbSpline
70
4
71
3
72
8
73
4
40
0
40
0
40
0
40
0
40
1
40
1
40
1
40
1
41
1
10
87.6055
20
-14.5887620387653
30
0
41
1
10
87.8202658629212
20
-14.4071024217297
30
0
41
1
10
88.0349363755452
20
-14.2252923825811
30
0
41
1
10
88.2495
20
-14.0433144011905
30
0
0
SPLINE
5
19F
100
AcDbEntity
8
1
62
256
6
ByLayer
370
18
48
1
60
0
100
AcDbSpline
70
4
71
3
72
14
73
10
40
0
40
0
40
0
40
0
40
0.25
40
0.25
40
0.5
40
0.5
40
0.75
40
0.75
40
1
40
1
40
1
40
1
41
1
10
88.3245
20
-14.0130715796893
30
0
41
1
10
88.3245
20
-14.0080651383296
30
0
41
1
10
88.3227445414937
20
-14.0046872275606
30
0
41
1
10
88.315227641366
20
-14.0023651888154
30
0
41
1
10
88.309586591925
20
-14.003443079763
30
0
41
1
10
88.2952947677502
20
-14.0097191422157
30
0
41
1
10
88.286925940559
20
-14.014766182349
30
0
41
1
10
88.2687507800733
20
-14.0275439898635
30
0
41
1
10
88.2592436112319
20
-14.0350505460849
30
0
41
1
10
88.2495
20
-14.0433144011905
30
0
0
SPLINE
5
1A0
100
AcDbEntity
8
1
62
256
6
ByLayer
370
18
48
1
60
0
100
AcDbSpline
70
4
71
3
72
14
73
10
40
0
40
0
40
0
40
0
40
0.25
40
0.25
40
0.5
40
0.5
40
0.75
40
0.75
40
1
40
1
40
1
40
1
41
1
10
88.2495
20
-14.2149528187276
30
0
41
1
10
88.2594421157663
20
-14.2023824576009
30
0
41
1
10
88.2688604466112
20
-14.1899263187504
30
0
41
1
10
88.2860733291945
20
-14.1658822962868
30
0
41
1
10
88.2939309911731
20
-14.1542231365567
30
0
41
1
10
88.3077421095189
20
-14.1318198855193
30
0
41
1
10
88.3135644103324
20
-14.1212774923284
30
0
41
1
10
88.3219461335356
20
-14.102598620181
30
0
41
1
10
88.3245000000009
20
-14.0944054766572
30
0
41
1
10
88.3245000000009
20
-14.0885911056969
30
0
0
SPLINE
5
1A1
100
AcDbEntity
8
1
62
256
6
ByLayer
370
18
48
1
60
0
100
AcDbSpline
70
4
71
3
72
8
73
4
40
0
40
0
40
0
40
0
40
1
40
1
40
1
40
1
41
1
10
88.2495
20
-14.2149528187276
30
0
41
1
10
88.0366690653106
20
-14.4840466183653
30
0
41
1
10
87.8219338484439
20
-14.7511000100563
30
0
41
1
10
87.6055
20
-15.0163333451349
30
0
0
SPLINE
5
1A2
100
AcDbEntity
8
1
62
256
6
ByLayer
370
18
48
1
60
0
100
AcDbSpline
70
4
71
3
72
22
73
18
40
0
40
0
40
0
40
0
40
0.250000000000059
40
0.250000000000059
40
0.375000000000064
40
0.375000000000064
40
0.500000000000069
40
0.500000000000069
40
0.625000000000075
40
0.625000000000075
40
0.687500000000078
40
0.687500000000078
40
0.750000000000081
40
0.750000000000081
40
0.875000000000041
40
0.875000000000041
40
1
40
1
40
1
40
1
41
1
10
87.6055
20
-15.0163333451349
30
0
41
1
10
87.5848938388945
20
-15.0415855913638
30
0
41
1
10
87.5660838750011
20
-15.0663600990457
30
0
41
1
10
87.5435446720046
20
-15.0997698501737
30
0
41
1
10
87.5368716828094
20
-15.1104596047056
30
0
41
1
10
87.5265286918553
20
-15.1294267701491
30
0
41
1
10
87.5227928890807
20
-15.1378172276995
30
0
41
1
10
87.5197317567559
20
-15.1506182317158
30
0
41
1
10
87.5205068030496
20
-15.1549334815141
30
0
41
1
10
87.5257130495559
20
-15.1569730699466
30
0
41
1
10
87.5281477755722
20
-15.1569315604486
30
0
41
1
10
87.5341877247795
20
-15.1553948558407
30
0
41
1
10
87.5377691855334
20
-15.1539252961955
30
0
41
1
10
87.550079815763
20
-15.1475663696834
30
0
41
1
10
87.560038950917
20
-15.1409011036832
30
0
41
1
10
87.5819530186579
20
-15.1243557876568
30
0
41
1
10
87.5935288070878
20
-15.1147807043242
30
0
41
1
10
87.6055
20
-15.1043141144439
30
0
0
SPLINE
5
1A3
100
AcDbEntity
8
1
62
256
6
ByLayer
370
18
48
1
60
0
100
AcDbSpline
70
4
71
3
72
8
73
4
40
0
40
0
40
0
40
0
40
1
40
1
40
1
40
1
41
1
10
87.6055
20
-15.1043141144439
30
0
41
1
10
87.8203606627147
20
-14.916458279648
30
0
41
1
10
88.035034489883
20
-14.7283182236774
30
0
41
1
10
88.2495
20
-14.5398612680685
30
0
0
SPLINE
5
1A4
100
AcDbEntity
8
1
62
256
6
ByLayer
370
18
48
1
60
0
100
AcDbSpline
70
4
71
3
72
14
73
10
40
0
40
0
40
0
40
0
40
0.25
40
0.25
40
0.5
40
0.5
40
0.75
40
0.75
40
1
40
1
40
1
40
1
41
1
10
88.3245
20
-14.497218698419
30
0
41
1
10
88.3245
20
-14.4935619515478
30
0
41
1
10
88.3225747580154
20
-14.49179769191
30
0
41
1
10
88.3147566975591
20
-14.4925854159394
30
0
41
1
10
88.3090311541528
20
-14.4950920713488
30
0
41
1
10
88.2947617336723
20
-14.5036534939647
30
0
41
1
10
88.2864996816712
20
-14.5095271302507
30
0
41
1
10
88.2685874880137
20
-14.5234746847632
30
0
41
1
10
88.2592035623053
20
-14.5313344713374
30
0
41
1
10
88.2495
20
-14.5398612680685
30
0
0
SPLINE
5
1A5
100
AcDbEntity
8
1
62
256
6
ByLayer
370
18
48
1
60
0
100
AcDbSpline
70
4
71
3
72
12
73
8
40
0
40
0
40
0
40
0
40
0.5
40
0.5
40
0.75
40
0.75
40
1
40
1
40
1
40
1
41
1
10
88.2495
20
-14.6585127934132
30
0
41
1
10
88.2691752580471
20
-14.6355514544706
30
0
41
1
10
88.2870773639102
20
-14.6132323146513
30
0
41
1
10
88.3077389094137
20
-14.5840666360661
30
0
41
1
10
88.3136601331486
20
-14.574941859522
30
0
41
1
10
88.3220227856857
20
-14.5596152194333
30
0
41
1
10
88.3245000000002
20
-14.5533180764888
30
0
41
1
10
88.3245000000002
20
-14.5494063264192
30
0
0
SPLINE
5
1A6
100
AcDbEntity
8
1
62
256
6
ByLayer
370
18
48
1
60
0
100
AcDbSpline
70
4
71
3
72
8
73
4
40
0
40
0
40
0
40
0
40
1
40
1
40
1
40
1
41
1
10
88.2495
20
-14.6585127934132
30
0
41
1
10
88.0361756971328
20
-14.9074656463368
30
0
41
1
10
87.8214601253758
20
-15.1548089105379
30
0
41
1
10
87.6055
20
-15.4007123240498
30
0
0
SPLINE
5
1A7
100
AcDbEntity
8
1
62
256
6
ByLayer
370
18
48
1
60
0
100
AcDbSpline
70
4
71
3
72
22
73
18
40
0
40
0
40
0
40
0
40
0.250000000000005
40
0.250000000000005
40
0.375000000000008
40
0.375000000000008
40
0.500000000000011
40
0.500000000000011
40
0.56250000000001
40
0.56250000000001
40
0.625000000000008
40
0.625000000000008
40
0.750000000000006
40
0.750000000000006
40
0.875000000000003
40
0.875000000000003
40
1
40
1
40
1
40
1
41
1
10
87.6055
20
-15.4007123240498
30
0
41
1
10
87.5844487710631
20
-15.4246823465028
30
0
41
1
10
87.5651564635438
20
-15.4478271489153
30
0
41
1
10
87.5421483682988
20
-15.4780785389166
30
0
41
1
10
87.5354160580684
20
-15.4875088448807
30
0
41
1
10
87.5253331633762
20
-15.5033650289358
30
0
41
1
10
87.521874045131
20
-15.5099807042089
30
0
41
1
10
87.5203167438937
20
-15.5163677412186
30
0
41
1
10
87.5203991340239
20
-15.5179369018527
30
0
41
1
10
87.5218505392975
20
-15.5197064978898
30
0
41
1
10
87.5232033922375
20
-15.5199349313541
30
0
41
1
10
87.529205069968
20
-15.518589858402
30
0
41
1
10
87.535687397215
20
-15.5149608219587
30
0
41
1
10
87.5520532093454
20
-15.5035500426185
30
0
41
1
10
87.5617198351167
20
-15.4959485093586
30
0
41
1
10
87.5827867426636
20
-15.4783109541659
30
0
41
1
10
87.5939163852577
20
-15.4685083697449
30
0
41
1
10
87.6055
20
-15.4579633817609
30
0
0
SPLINE
5
1A8
100
AcDbEntity
8
1
62
256
6
ByLayer
370
18
48
1
60
0
100
AcDbSpline
70
4
71
3
72
8
73
4
40
0
40
0
40
0
40
0
40
1
40
1
40
1
40
1
41
1
10
87.6055
20
-15.4579633817609
30
0
41
1
10
87.820484571849
20
-15.262255066409
30
0
41
1
10
88.0351628256359
20
-15.0660998220099
30
0
41
1
10
88.2495
20
-14.8694469304906
30
0
0
SPLINE
5
1A9
100
AcDbEntity
8
1
62
256
6
ByLayer
370
18
48
1
60
0
100
AcDbSpline
70
4
71
3
72
14
73
10
40
0
40
0
40
0
40
0
40
0.25
40
0.25
40
0.5
40
0.5
40
0.75
40
0.75
40
1
40
1
40
1
40
1
41
1
10
88.3245
20
-14.8146051206936
30
0
41
1
10
88.3245
20
-14.8123394090931
30
0
41
1
10
88.3224398714727
20
-14.8121342685846
30
0
41
1
10
88.3144191214464
20
-14.8158437620053
30
0
41
1
10
88.3085353513391
20
-14.8197296548517
30
0
41
1
10
88.2944025477757
20
-14.8303671160762
30
0
41
1
10
88.2861624186443
20
-14.8371020110641
30
0
41
1
10
88.2684926224885
20
-14.8522554632202
30
0
41
1
10
88.2591815631082
20
-14.8605641625558
30
0
41
1
10
88.2495
20
-14.8694469304906
30
0
0
SPLINE
5
1AA
100
AcDbEntity
8
1
62
256
6
ByLayer
370
18
48
1
60
0
100
AcDbSpline
70
4
71
3
72
14
73
10
40
0
40
0
40
0
40
0
40
0.25
40
0.25
40
0.5
40
0.5
40
0.75
40
0.75
40
1
40
1
40
1
40
1
41
1
10
88.2495
20
-14.9391803988928
30
0
41
1
10
88.2592688422695
20
-14.9285604883658
30
0
41
1
10
88.268549517462
20
-14.9182714615189
30
0
41
1
10
88.285948126181
20
-14.8984727358577
30
0
41
1
10
88.2939811056152
20
-14.8890552087862
30
0
41
1
10
88.3078292065754
20
-14.8720613820255
30
0
41
1
10
88.3137760629921
20
-14.8643141815311
30
0
41
1
10
88.3220943344011
20
-14.8520614403499
30
0
41
1
10
88.3245
20
-14.8474829490225
30
0
41
1
10
88.3245
20
-14.8452702757127
30
0
0
SPLINE
5
1AB
100
AcDbEntity
8
1
62
256
6
ByLayer
370
18
48
1
60
0
100
AcDbSpline
70
4
71
3
72
8
73
4
40
0
40
0
40
0
40
0
40
1
40
1
40
1
40
1
41
1
10
88.2495
20
-14.9391803988928
30
0
41
1
10
88.0358125818042
20
-15.1714844119366
30
0
41
1
10
87.8211109108127
20
-15.4025322035561
30
0
41
1
10
87.6055
20
-15.6324538394991
30
0
0
SPLINE
5
1AC
100
AcDbEntity
8
1
62
256
6
ByLayer
370
18
48
1
60
0
100
AcDbSpline
70
4
71
3
72
18
73
14
40
0
40
0
40
0
40
0
40
0.243605503036401
40
0.243605503036401
40
0.487211006072803
40
0.487211006072803
40
0.730816509109204
40
0.730816509109204
40
0.852619260627414
40
0.852619260627414
40
0.974422012145625
40
0.974422012145625
40
1
40
1
40
1
40
1
41
1
10
87.6055
20
-15.6324538394991
30
0
41
1
10
87.5946982947576
20
-15.6439724854291
30
0
41
1
10
87.5844118441375
20
-15.6551023216108
30
0
41
1
10
87.5652650923032
20
-15.6761950701127
30
0
41
1
10
87.5562610520449
20
-15.6863191384373
30
0
41
1
10
87.5405980113183
20
-15.7044823911575
30
0
41
1
10
87.5339244419284
20
-15.7125331287251
30
0
41
1
10
87.5265411751117
20
-15.7221714627658
30
0
41
1
10
87.5245651189417
20
-15.7249175304988
30
0
41
1
10
87.5216978030223
20
-15.729365066138
30
0
41
1
10
87.5208174105651
20
-15.7310603772658
30
0
41
1
10
87.5205212560846
20
-15.732326607974
30
0
41
1
10
87.5204985135443
20
-15.7325178567691
30
0
41
1
10
87.5205040357484
20
-15.732680786035
30
0
0
SPLINE
5
1AD
100
AcDbEntity
8
1
62
256
6
ByLayer
370
18
48
1
60
0
100
AcDbSpline
70
4
71
3
72
14
73
10
40
0
40
0
40
0
40
0
40
0.128054604088141
40
0.128054604088141
40
0.418703069392094
40
0.418703069392094
40
0.709351534696047
40
0.709351534696047
40
1
40
1
40
1
40
1
41
1
10
87.5221323466627
20
-15.7332199945727
30
0
41
1
10
87.5231514302722
20
-15.7328897369009
30
0
41
1
10
87.5246384297941
20
-15.7320750599446
30
0
41
1
10
87.5309361387282
20
-15.7278724377559
30
0
41
1
10
87.5376527692821
20
-15.7224962412466
30
0
41
1
10
87.5537652778246
20
-15.7086701136376
30
0
41
1
10
87.5633339952465
20
-15.7000809858593
30
0
41
1
10
87.5835331513508
20
-15.6814873386053
30
0
41
1
10
87.5942615311644
20
-15.6714017814226
30
0
41
1
10
87.6055
20
-15.6606819441533
30
0
0
SPLINE
5
1AE
100
AcDbEntity
8
1
62
256
6
ByLayer
370
18
48
1
60
0
100
AcDbSpline
70
4
71
3
72
8
73
4
40
0
40
0
40
0
40
0
40
1
40
1
40
1
40
1
41
1
10
87.6055
20
-15.6606819441533
30
0
41
1
10
87.8206432773139
20
-15.4554670740397
30
0
41
1
10
88.0353272741426
20
-15.2496136869222
30
0
41
1
10
88.2495
20
-15.0430495027661
30
0
0
SPLINE
5
1AF
100
AcDbEntity
8
1
62
256
6
ByLayer
370
18
48
1
60
0
100
AcDbSpline
70
4
71
3
72
14
73
10
40
0
40
0
40
0
40
0
40
0.25
40
0.25
40
0.5
40
0.5
40
0.75
40
0.75
40
1
40
1
40
1
40
1
41
1
10
88.3245
20
-14.9758371977788
30
0
41
1
10
88.3245
20
-14.975010151807
30
0
41
1
10
88.322284241245
20
-14.9763656213642
30
0
41
1
10
88.3141413209643
20
-14.9828977215668
30
0
41
1
10
88.3081754435487
20
-14.9880969690085
30
0
41
1
10
88.294114874461
20
-15.0008084921357
30
0
41
1
10
88.285849928106
20
-15.0084721201479
30
0
41
1
10
88.2684278986169
20
-15.0248841894913
30
0
41
1
10
88.2591822534426
20
-15.0337112138913
30
0
41
1
10
88.2495
20
-15.0430495027661
30
0
0
SPLINE
5
1B0
100
AcDbEntity
8
1
62
256
6
ByLayer
370
18
48
1
60
0
100
AcDbSpline
70
4
71
3
72
14
73
10
40
0
40
0
40
0
40
0
40
0.25
40
0.25
40
0.5
40
0.5
40
0.75
40
0.75
40
1
40
1
40
1
40
1
41
1
10
88.2495
20
-15.0660620158908
30
0
41
1
10
88.2592166204734
20
-15.0561463656865
30
0
41
1
10
88.2684720146339
20
-15.0466489518061
30
0
41
1
10
88.2858690552033
20
-15.0286546331068
30
0
41
1
10
88.2940267270367
20
-15.0201387406935
30
0
41
1
10
88.3079660685478
20
-15.0053613830818
30
0
41
1
10
88.3139294881319
20
-14.9989051291788
30
0
41
1
10
88.3221800478486
20
-14.9895483664142
30
0
41
1
10
88.3245
20
-14.9866030081846
30
0
41
1
10
88.3245
20
-14.9859559143441
30
0
0
SPLINE
5
1B1
100
AcDbEntity
8
1
62
256
6
ByLayer
370
18
48
1
60
0
100
AcDbSpline
70
4
71
3
72
8
73
4
40
0
40
0
40
0
40
0
40
1
40
1
40
1
40
1
41
1
10
88.2495
20
-15.0660620158908
30
0
41
1
10
88.0355383552333
20
-15.2844063293729
30
0
41
1
10
87.8208468077431
20
-15.5017897467223
30
0
41
1
10
87.6055
20
-15.7183105326241
30
0
0
SPLINE
5
1B2
100
AcDbEntity
8
1
62
256
6
ByLayer
370
18
48
1
60
0
100
AcDbSpline
70
4
71
3
72
18
73
14
40
0
40
0
40
0
40
0
40
0.249739343913573
40
0.249739343913573
40
0.499478687827146
40
0.499478687827146
40
0.749218031740719
40
0.749218031740719
40
0.874087703697506
40
0.874087703697506
40
0.998957375654292
40
0.998957375654292
40
1
40
1
40
1
40
1
41
1
10
87.6055
20
-15.7183105326241
30
0
41
1
10
87.5944754996679
20
-15.7293951337895
30
0
41
1
10
87.5838078688337
20
-15.7401326622105
30
0
41
1
10
87.5640893453649
20
-15.7599977126049
30
0
41
1
10
87.5550223235927
20
-15.7691413037976
30
0
41
1
10
87.5390096076375
20
-15.7852999128294
30
0
41
1
10
87.5323333626195
20
-15.7920430117566
30
0
41
1
10
87.5253372180741
20
-15.7991113050268
30
0
41
1
10
87.5235382594361
20
-15.8009292985165
30
0
41
1
10
87.5211013483995
20
-15.8033921482608
30
0
41
1
10
87.5204830275985
20
-15.8040171549694
30
0
41
1
10
87.5205000179885
20
-15.8039999818179
30
0
41
1
10
87.5205007213681
20
-15.8039992708628
30
0
41
1
10
87.5205014247288
20
-15.8039985598889
30
0
0
SPLINE
5
1B3
100
AcDbEntity
8
1
62
256
6
ByLayer
370
18
48
1
60
0
100
AcDbSpline
70
4
71
3
72
14
73
10
40
0
40
0
40
0
40
0
40
0.24978781257717
40
0.24978781257717
40
0.499858541718113
40
0.499858541718113
40
0.749929270859057
40
0.749929270859057
40
1
40
1
40
1
40
1
41
1
10
87.5205004918166
20
15.8039995028913
30
0
41
1
10
87.5205409760416
20
15.803958582153
30
0
41
1
10
87.523163764175
20
15.8013071252692
30
0
41
1
10
87.5325154208193
20
15.7918591255599
30
0
41
1
10
87.5392913352133
20
15.7850155171327
30
0
41
1
10
87.5551564238929
20
15.7690060856687
30
0
41
1
10
87.5644404254051
20
15.7596438308681
30
0
41
1
10
87.584094636967
20
15.7398439623325
30
0
41
1
10
87.5945399473858
20
15.7293303347303
30
0
41
1
10
87.6055
20
15.718310532624
30
0
0
SPLINE
5
1B4
100
AcDbEntity
8
1
62
256
6
ByLayer
370
18
48
1
60
0
100
AcDbSpline
70
4
71
3
72
8
73
4
40
0
40
0
40
0
40
0
40
1
40
1
40
1
40
1
41
1
10
87.6055
20
15.718310532624
30
0
41
1
10
87.8208468077431
20
15.5017897467223
30
0
41
1
10
88.0355383552333
20
15.2844063293729
30
0
41
1
10
88.2495
20
15.0660620158908
30
0
0
SPLINE
5
1B5
100
AcDbEntity
8
1
62
256
6
ByLayer
370
18
48
1
60
0
100
AcDbSpline
70
4
71
3
72
14
73
10
40
0
40
0
40
0
40
0
40
0.25
40
0.25
40
0.5
40
0.5
40
0.75
40
0.75
40
1
40
1
40
1
40
1
41
1
10
88.3245
20
14.9859559143441
30
0
41
1
10
88.3245
20
14.9866037881909
30
0
41
1
10
88.3221714238466
20
14.9895583980661
30
0
41
1
10
88.3139277494105
20
14.9989068493278
30
0
41
1
10
88.3079656550488
20
15.0053619807908
30
0
41
1
10
88.2940017220874
20
15.0201650892682
30
0
41
1
10
88.2858258606706
20
15.0286994782738
30
0
41
1
10
88.2684583541967
20
15.0466629130138
30
0
41
1
10
88.2592129025008
20
15.056150159816
30
0
41
1
10
88.2495
20
15.0660620158908
30
0
0
SPLINE
5
1B6
100
AcDbEntity
8
1
62
256
6
ByLayer
370
18
48
1
60
0
100
AcDbSpline
70
4
71
3
72
14
73
10
40
0
40
0
40
0
40
0
40
0.25
40
0.25
40
0.5
40
0.5
40
0.75
40
0.75
40
1
40
1
40
1
40
1
41
1
10
88.2495
20
15.0430495027661
30
0
41
1
10
88.2592482878273
20
15.0336475253952
30
0
41
1
10
88.2685465544727
20
15.0247712727701
30
0
41
1
10
88.285982030222
20
15.0083488319076
30
0
41
1
10
88.2942152401408
20
15.0007164845316
30
0
41
1
10
88.3082186343777
20
14.988059206774
30
0
41
1
10
88.3141667305962
20
14.9828763154634
30
0
41
1
10
88.3222899299582
20
14.9763620848711
30
0
41
1
10
88.3245
20
14.9750110107122
30
0
41
1
10
88.3245
20
14.9758371977788
30
0
0
SPLINE
5
1B7
100
AcDbEntity
8
1
62
256
6
ByLayer
370
18
48
1
60
0
100
AcDbSpline
70
4
71
3
72
8
73
4
40
0
40
0
40
0
40
0
40
1
40
1
40
1
40
1
41
1
10
88.2495
20
15.0430495027661
30
0
41
1
10
88.0353272741426
20
15.2496136869222
30
0
41
1
10
87.8206432773139
20
15.4554670740397
30
0
41
1
10
87.6055
20
15.6606819441533
30
0
0
SPLINE
5
1B8
100
AcDbEntity
8
1
62
256
6
ByLayer
370
18
48
1
60
0
100
AcDbSpline
70
4
71
3
72
12
73
8
40
0
40
0
40
0
40
0
40
0.573509267108084
40
0.573509267108084
40
0.860263900662141
40
0.860263900662141
40
1
40
1
40
1
40
1
41
1
10
87.6055
20
15.6606819441533
30
0
41
1
10
87.5828740164312
20
15.6822637864365
30
0
41
1
10
87.5615785724027
20
15.7019823017567
30
0
41
1
10
87.5373661681723
20
15.7227335759311
30
0
41
1
10
87.5307180345658
20
15.7280413748142
30
0
41
1
10
87.5242744109113
20
15.7323058529333
30
0
41
1
10
87.5227154147645
20
15.7331150508788
30
0
41
1
10
87.5217348857161
20
15.7333301965601
30
0
0
SPLINE
5
1B9
100
AcDbEntity
8
1
62
256
6
ByLayer
370
18
48
1
60
0
100
AcDbSpline
70
4
71
3
72
16
73
12
40
0
40
0
40
0
40
0
40
0.0248222771261998
40
0.0248222771261998
40
0.26861670784465
40
0.26861670784465
40
0.5124111385631
40
0.5124111385631
40
0.75620556928155
40
0.75620556928155
40
1
40
1
40
1
40
1
41
1
10
87.5205041303887
20
15.7326037808356
30
0
41
1
10
87.5205069809815
20
15.7324385260947
30
0
41
1
10
87.520536051633
20
15.7322471157286
30
0
41
1
10
87.5211369779532
20
15.7298921088132
30
0
41
1
10
87.5242117394882
20
15.7252031637545
30
0
41
1
10
87.5340008699192
20
15.7124427688096
30
0
41
1
10
87.5407720094601
20
15.7042767702902
30
0
41
1
10
87.5563778393302
20
15.6861876297347
30
0
41
1
10
87.5654067401733
20
15.6760368388836
30
0
41
1
10
87.5845812524088
20
15.6549179180248
30
0
41
1
10
87.5947798678576
20
15.6438854980846
30
0
41
1
10
87.6055
20
15.6324538394991
30
0
0
SPLINE
5
1BA
100
AcDbEntity
8
1
62
256
6
ByLayer
370
18
48
1
60
0
100
AcDbSpline
70
4
71
3
72
8
73
4
40
0
40
0
40
0
40
0
40
1
40
1
40
1
40
1
41
1
10
87.6055
20
15.6324538394991
30
0
41
1
10
87.8211109108127
20
15.4025322035561
30
0
41
1
10
88.0358125818042
20
15.1714844119366
30
0
41
1
10
88.2495
20
14.9391803988928
30
0
0
SPLINE
5
1BB
100
AcDbEntity
8
1
62
256
6
ByLayer
370
18
48
1
60
0
100
AcDbSpline
70
4
71
3
72
14
73
10
40
0
40
0
40
0
40
0
40
0.25
40
0.25
40
0.5
40
0.5
40
0.75
40
0.75
40
1
40
1
40
1
40
1
41
1
10
88.3245
20
14.8452702757127
30
0
41
1
10
88.3245
20
14.8474896268639
30
0
41
1
10
88.3220763784452
20
14.8520902777799
30
0
41
1
10
88.3137640620137
20
14.8643294617756
30
0
41
1
10
88.3078186277286
20
14.8720753006388
30
0
41
1
10
88.2939475664616
20
14.8890954270051
30
0
41
1
10
88.2858524647832
20
14.8985829276961
30
0
41
1
10
88.2685183220492
20
14.9183056164328
30
0
41
1
10
88.2592599624488
20
14.9285701418024
30
0
41
1
10
88.2495
20
14.9391803988928
30
0
0
SPLINE
5
1BC
100
AcDbEntity
8
1
62
256
6
ByLayer
370
18
48
1
60
0
100
AcDbSpline
70
4
71
3
72
14
73
10
40
0
40
0
40
0
40
0
40
0.25
40
0.25
40
0.5
40
0.5
40
0.75
40
0.75
40
1
40
1
40
1
40
1
41
1
10
88.2495
20
14.8694469304906
30
0
41
1
10
88.259216406406
20
14.8605321940685
30
0
41
1
10
88.2686910938154
20
14.8520819869761
30
0
41
1
10
88.2862297992528
20
14.8370475450745
30
0
41
1
10
88.2944777938064
20
14.83030705375
30
0
41
1
10
88.3085971952312
20
14.8196865659095
30
0
41
1
10
88.3144901225729
20
14.8158058873362
30
0
41
1
10
88.3224223598941
20
14.8121474390756
30
0
41
1
10
88.3245
20
14.8123719240181
30
0
41
1
10
88.3245
20
14.8146051206936
30
0
0
SPLINE
5
1BD
100
AcDbEntity
8
1
62
256
6
ByLayer
370
18
48
1
60
0
100
AcDbSpline
70
4
71
3
72
8
73
4
40
0
40
0
40
0
40
0
40
1
40
1
40
1
40
1
41
1
10
88.2495
20
14.8694469304906
30
0
41
1
10
88.0351628256359
20
15.0660998220099
30
0
41
1
10
87.820484571849
20
15.262255066409
30
0
41
1
10
87.6055
20
15.4579633817609
30
0
0
SPLINE
5
1BE
100
AcDbEntity
8
1
62
256
6
ByLayer
370
18
48
1
60
0
100
AcDbSpline
70
4
71
3
72
22
73
18
40
0
40
0
40
0
40
0
40
0.249999999999994
40
0.249999999999994
40
0.374999999999991
40
0.374999999999991
40
0.499999999999988
40
0.499999999999988
40
0.562499999999989
40
0.562499999999989
40
0.624999999999991
40
0.624999999999991
40
0.749999999999994
40
0.749999999999994
40
0.874999999999997
40
0.874999999999997
40
1
40
1
40
1
40
1
41
1
10
87.6055
20
15.4579633817609
30
0
41
1
10
87.582263425977
20
15.4791164845974
30
0
41
1
10
87.5600571063052
20
15.4979861196756
30
0
41
1
10
87.5356004480985
20
15.5150130275158
30
0
41
1
10
87.5291039397896
20
15.5186278790933
30
0
41
1
10
87.5212166421467
20
15.5203646678102
30
0
41
1
10
87.519795744961
20
15.5184659182163
30
0
41
1
10
87.5213682137262
20
15.5120748358367
30
0
41
1
10
87.5225019096432
20
15.5093305442332
30
0
41
1
10
87.5257546539314
20
15.5029841856744
30
0
41
1
10
87.5278673078737
20
15.4993780947692
30
0
41
1
10
87.5354600365087
20
15.4874432758273
30
0
41
1
10
87.5421827237264
20
15.4780317693818
30
0
41
1
10
87.5575174190538
20
15.4578726848728
30
0
41
1
10
87.5663064945327
20
15.4468918586348
30
0
41
1
10
87.5850325642714
20
15.4243125329395
30
0
41
1
10
87.5950016733861
20
15.4126662639081
30
0
41
1
10
87.6055
20
15.4007123240498
30
0
0
SPLINE
5
1BF
100
AcDbEntity
8
1
62
256
6
ByLayer
370
18
48
1
60
0
100
AcDbSpline
70
4
71
3
72
8
73
4
40
0
40
0
40
0
40
0
40
1
40
1
40
1
40
1
41
1
10
87.6055
20
15.4007123240498
30
0
41
1
10
87.8214601253758
20
15.1548089105379
30
0
41
1
10
88.0361756971328
20
14.9074656463368
30
0
41
1
10
88.2495
20
14.6585127934132
30
0
0
SPLINE
5
1C0
100
AcDbEntity
8
1
62
256
6
ByLayer
370
18
48
1
60
0
100
AcDbSpline
70
4
71
3
72
14
73
10
40
0
40
0
40
0
40
0
40
0.25
40
0.25
40
0.5
40
0.5
40
0.75
40
0.75
40
1
40
1
40
1
40
1
41
1
10
88.3245
20
14.5494063264194
30
0
41
1
10
88.3245
20
14.5533590303348
30
0
41
1
10
88.3220088954186
20
14.5596527303941
30
0
41
1
10
88.3135855874194
20
14.575066302088
30
0
41
1
10
88.3076971778658
20
14.5841317246029
30
0
41
1
10
88.2938373153333
20
14.6036837627801
30
0
41
1
10
88.2857800589614
20
14.6142824011503
30
0
41
1
10
88.2685646263829
20
14.6359067623047
30
0
41
1
10
88.259315111979
20
14.6470584016908
30
0
41
1
10
88.2495
20
14.6585127934132
30
0
0
SPLINE
5
1C1
100
AcDbEntity
8
1
62
256
6
ByLayer
370
18
48
1
60
0
100
AcDbSpline
70
4
71
3
72
14
73
10
40
0
40
0
40
0
40
0
40
0.25
40
0.25
40
0.5
40
0.5
40
0.75
40
0.75
40
1
40
1
40
1
40
1
41
1
10
88.2495
20
14.5398612680685
30
0
41
1
10
88.2592240950433
20
14.5313164286353
30
0
41
1
10
88.2687784808573
20
14.5233216168232
30
0
41
1
10
88.2865180846811
20
14.5095172010961
30
0
41
1
10
88.294846895995
20
14.5035991411728
30
0
41
1
10
88.309021750586
20
14.4951009875526
30
0
41
1
10
88.3148564932133
20
14.4925606678929
30
0
41
1
10
88.3225654882072
20
14.491813492071
30
0
41
1
10
88.3245
20
14.4936117517551
30
0
41
1
10
88.3245
20
14.497218698419
30
0
0
SPLINE
5
1C2
100
AcDbEntity
8
1
62
256
6
ByLayer
370
18
48
1
60
0
100
AcDbSpline
70
4
71
3
72
8
73
4
40
0
40
0
40
0
40
0
40
1
40
1
40
1
40
1
41
1
10
88.2495
20
14.5398612680685
30
0
41
1
10
88.035034489883
20
14.7283182236774
30
0
41
1
10
87.8203606627147
20
14.916458279648
30
0
41
1
10
87.6055
20
15.1043141144439
30
0
0
SPLINE
5
1C3
100
AcDbEntity
8
1
62
256
6
ByLayer
370
18
48
1
60
0
100
AcDbSpline
70
4
71
3
72
24
73
20
40
0
40
0
40
0
40
0
40
0.124999999999947
40
0.124999999999947
40
0.249999999999894
40
0.249999999999894
40
0.312499999999893
40
0.312499999999893
40
0.374999999999891
40
0.374999999999891
40
0.499999999999913
40
0.499999999999913
40
0.624999999999935
40
0.624999999999935
40
0.749999999999956
40
0.749999999999956
40
0.874999999999978
40
0.874999999999978
40
1
40
1
40
1
40
1
41
1
10
87.6055
20
15.1043141144439
30
0
41
1
10
87.5934632937874
20
15.1148379835654
30
0
41
1
10
87.5816731389021
20
15.1245746550669
30
0
41
1
10
87.5600245480421
20
15.1409043189285
30
0
41
1
10
87.5499145553487
20
15.1476664271501
30
0
41
1
10
87.537673048248
20
15.153967446024
30
0
41
1
10
87.5340195691034
20
15.1554547605258
30
0
41
1
10
87.5280334555837
20
15.1569426994495
30
0
41
1
10
87.5256596730595
20
15.1569732503846
30
0
41
1
10
87.5204429724319
20
15.1548652458193
30
0
41
1
10
87.5197313235777
20
15.150516213461
30
0
41
1
10
87.5228604713893
20
15.1376407193304
30
0
41
1
10
87.5266068542954
20
15.1292581336757
30
0
41
1
10
87.5370511584458
20
15.1101564134492
30
0
41
1
10
87.5436321073829
20
15.0996272579293
30
0
41
1
10
87.5588539646259
20
15.0770902678142
30
0
41
1
10
87.5673625711935
20
15.0652921980547
30
0
41
1
10
87.5855242840148
20
15.0412423492768
30
0
41
1
10
87.5952281516895
20
15.0289211940523
30
0
41
1
10
87.6055
20
15.0163333451349
30
0
0
SPLINE
5
1C4
100
AcDbEntity
8
1
62
256
6
ByLayer
370
18
48
1
60
0
100
AcDbSpline
70
4
71
3
72
8
73
4
40
0
40
0
40
0
40
0
40
1
40
1
40
1
40
1
41
1
10
87.6055
20
15.0163333451349
30
0
41
1
10
87.8219338484439
20
14.7511000100563
30
0
41
1
10
88.0366690653106
20
14.4840466183653
30
0
41
1
10
88.2495
20
14.2149528187276
30
0
0
SPLINE
5
1C5
100
AcDbEntity
8
1
62
256
6
ByLayer
370
18
48
1
60
0
100
AcDbSpline
70
4
71
3
72
14
73
10
40
0
40
0
40
0
40
0
40
0.25
40
0.25
40
0.5
40
0.5
40
0.75
40
0.75
40
1
40
1
40
1
40
1
41
1
10
88.3245
20
14.0885911056977
30
0
41
1
10
88.3245
20
14.0944762792782
30
0
41
1
10
88.3219646694255
20
14.1025730885475
30
0
41
1
10
88.313465769562
20
14.1214813899949
30
0
41
1
10
88.3076576638288
20
14.1319667983822
30
0
41
1
10
88.2938287565169
20
14.154378905963
30
0
41
1
10
88.2858501552657
20
14.1662050363976
30
0
41
1
10
88.2686706661524
20
14.1901801511552
30
0
41
1
10
88.2593959172503
20
14.2024408689132
30
0
41
1
10
88.2495
20
14.2149528187276
30
0
0
SPLINE
5
1C6
100
AcDbEntity
8
1
62
256
6
ByLayer
370
18
48
1
60
0
100
AcDbSpline
70
4
71
3
72
14
73
10
40
0
40
0
40
0
40
0
40
0.25
40
0.25
40
0.5
40
0.5
40
0.75
40
0.75
40
1
40
1
40
1
40
1
41
1
10
88.2495
20
14.0433144011905
30
0
41
1
10
88.2592456998771
20
14.0350487746409
30
0
41
1
10
88.2687829184352
20
14.0275202919845
30
0
41
1
10
88.286929658101
20
14.0147646743886
30
0
41
1
10
88.2953844168923
20
14.0096743912255
30
0
41
1
10
88.3095811801607
20
14.0034508710612
30
0
41
1
10
88.3153166990106
20
14.0023753157994
30
0
41
1
10
88.3227268267543
20
14.0046993069554
30
0
41
1
10
88.3245000000001
20
14.0080984772935
30
0
41
1
10
88.3245
20
14.0130715796893
30
0
0
SPLINE
5
1C7
100
AcDbEntity
8
1
62
256
6
ByLayer
370
18
48
1
60
0
100
AcDbSpline
70
4
71
3
72
8
73
4
40
0
40
0
40
0
40
0
40
1
40
1
40
1
40
1
41
1
10
88.2495
20
14.0433144011905
30
0
41
1
10
88.0349363755452
20
14.2252923825811
30
0
41
1
10
87.8202658629212
20
14.4071024217297
30
0
41
1
10
87.6055
20
14.5887620387653
30
0
0
SPLINE
5
1C8
100
AcDbEntity
8
1
62
256
6
ByLayer
370
18
48
1
60
0
100
AcDbSpline
70
4
71
3
72
22
73
18
40
0
40
0
40
0
40
0
40
0.125000000000002
40
0.125000000000002
40
0.250000000000004
40
0.250000000000004
40
0.312500000000002
40
0.312500000000002
40
0.375000000000001
40
0.375000000000001
40
0.499999999999991
40
0.499999999999991
40
0.624999999999982
40
0.624999999999982
40
0.749999999999973
40
0.749999999999973
40
1
40
1
40
1
40
1
41
1
10
87.6055
20
14.5887620387653
30
0
41
1
10
87.5929845031715
20
14.5993482666228
30
0
41
1
10
87.5806879940926
20
14.6088941023579
30
0
41
1
10
87.5581074155187
20
14.6240121378288
30
0
41
1
10
87.5476913182949
20
14.6296362448251
30
0
41
1
10
87.5354071612165
20
14.6332761314103
30
0
41
1
10
87.5319337702329
20
14.6336780888104
30
0
41
1
10
87.5263533110019
20
14.6328644638049
30
0
41
1
10
87.5242053215013
20
14.6316221562861
30
0
41
1
10
87.5199377739814
20
14.6257084033646
30
0
41
1
10
87.5199047753131
20
14.6188074918056
30
0
41
1
10
87.5238982521711
20
14.6017492602949
30
0
41
1
10
87.5279214212342
20
14.5914489173346
30
0
41
1
10
87.538474273465
20
14.5693096491524
30
0
41
1
10
87.5450386933838
20
14.5573625363887
30
0
41
1
10
87.5674538297115
20
14.5199933529968
30
0
41
1
10
87.5853599050208
20
14.4939793181766
30
0
41
1
10
87.6055
20
14.467155704432
30
0
0
SPLINE
5
1C9
100
AcDbEntity
8
1
62
256
6
ByLayer
370
18
48
1
60
0
100
AcDbSpline
70
4
71
3
72
8
73
4
40
0
40
0
40
0
40
0
40
1
40
1
40
1
40
1
41
1
10
87.6055
20
14.467155704432
30
0
41
1
10
87.8225986716764
20
14.1780125340789
30
0
41
1
10
88.0373626674526
20
13.8865772022682
30
0
41
1
10
88.2495
20
13.5925630387594
30
0
0
SPLINE
5
1CA
100
AcDbEntity
8
1
62
256
6
ByLayer
370
18
48
1
60
0
100
AcDbSpline
70
4
71
3
72
12
73
8
40
0
40
0
40
0
40
0
40
0.250000000000018
40
0.250000000000018
40
0.500000000000036
40
0.500000000000036
40
1
40
1
40
1
40
1
41
1
10
88.3245
20
13.4458757333183
30
0
41
1
10
88.3245
20
13.4539674030528
30
0
41
1
10
88.321907268766
20
13.4641512284948
30
0
41
1
10
88.3134446310761
20
13.4868515226099
30
0
41
1
10
88.3076685378331
20
13.4991027991583
30
0
41
1
10
88.2869552366996
20
13.5378326083613
30
0
41
1
10
88.2694958530294
20
13.5648495574429
30
0
41
1
10
88.2495
20
13.5925630387594
30
0
0
SPLINE
5
1CB
100
AcDbEntity
8
1
62
256
6
ByLayer
370
18
48
1
60
0
100
AcDbSpline
70
4
71
3
72
14
73
10
40
0
40
0
40
0
40
0
40
0.25
40
0.25
40
0.5
40
0.5
40
0.75
40
0.75
40
1
40
1
40
1
40
1
41
1
10
88.2495
20
13.3612047752696
30
0
41
1
10
88.2593226313071
20
13.3530852648856
30
0
41
1
10
88.2689953447247
20
13.34584945113
30
0
41
1
10
88.2874920421366
20
13.3342273151596
30
0
41
1
10
88.2961194102698
20
13.3300265400418
30
0
41
1
10
88.3102957488525
20
13.3263612230327
30
0
41
1
10
88.3158785041992
20
13.3269535463815
30
0
41
1
10
88.3229029927876
20
13.3325991686977
30
0
41
1
10
88.3245000000002
20
13.3376563934627
30
0
41
1
10
88.3245000000002
20
13.3440248877616
30
0
0
SPLINE
5
1CC
100
AcDbEntity
8
1
62
256
6
ByLayer
370
18
48
1
60
0
100
AcDbSpline
70
4
71
3
72
8
73
4
40
0
40
0
40
0
40
0
40
1
40
1
40
1
40
1
41
1
10
88.2495
20
13.3612047752696
30
0
41
1
10
88.0348672252561
20
13.5386229220787
30
0
41
1
10
87.8201992608209
20
13.7159843184299
30
0
41
1
10
87.6055
20
13.8932951735594
30
0
0
SPLINE
5
1CD
100
AcDbEntity
8
1
62
256
6
ByLayer
370
18
48
1
60
0
100
AcDbSpline
70
4
71
3
72
22
73
18
40
0
40
0
40
0
40
0
40
0.124999999999997
40
0.124999999999997
40
0.249999999999994
40
0.249999999999994
40
0.374999999999991
40
0.374999999999991
40
0.4375
40
0.4375
40
0.500000000000009
40
0.500000000000009
40
0.625000000000007
40
0.625000000000007
40
0.750000000000006
40
0.750000000000006
40
1
40
1
40
1
40
1
41
1
10
87.6055
20
13.8932951735595
30
0
41
1
10
87.5923897919611
20
13.9041223286666
30
0
41
1
10
87.5794532267683
20
13.9135790463364
30
0
41
1
10
87.5556664555314
20
13.9272949607355
30
0
41
1
10
87.5448178774582
20
13.9313954766623
30
0
41
1
10
87.5289697179716
20
13.931536873672
30
0
41
1
10
87.5239391821993
20
13.9276146247032
30
0
41
1
10
87.5207436371656
20
13.917486852346
30
0
41
1
10
87.5203576388296
20
13.9133751226588
30
0
41
1
10
87.5207360312479
20
13.9042499861399
30
0
41
1
10
87.5214840531057
20
13.8992382854603
30
0
41
1
10
87.5250781219021
20
13.8831153921803
30
0
41
1
10
87.5292894226803
20
13.8709116750718
30
0
41
1
10
87.5399279896784
20
13.8454337851257
30
0
41
1
10
87.5464701116894
20
13.8318876105376
30
0
41
1
10
87.5683265272113
20
13.7906651930248
30
0
41
1
10
87.5857588597082
20
13.7623653527675
30
0
41
1
10
87.6055
20
13.7334235069173
30
0
0
SPLINE
5
1CE
100
AcDbEntity
8
1
62
256
6
ByLayer
370
18
48
1
60
0
100
AcDbSpline
70
4
71
3
72
8
73
4
40
0
40
0
40
0
40
0
40
1
40
1
40
1
40
1
41
1
10
87.6055
20
13.7334235069173
30
0
41
1
10
87.8235756476838
20
13.4137098690188
30
0
41
1
10
88.0383838344783
20
13.0910984549316
30
0
41
1
10
88.2495
20
12.7652127395764
30
0
0
SPLINE
5
1CF
100
AcDbEntity
8
1
62
256
6
ByLayer
370
18
48
1
60
0
100
AcDbSpline
70
4
71
3
72
12
73
8
40
0
40
0
40
0
40
0
40
0.250000000000015
40
0.250000000000015
40
0.500000000000031
40
0.500000000000031
40
1
40
1
40
1
40
1
41
1
10
88.3245000000063
20
12.5934407184059
30
0
41
1
10
88.3245000000059
20
12.6040609437137
30
0
41
1
10
88.3218483991439
20
12.6168702933521
30
0
41
1
10
88.3134516370154
20
12.6440576677465
30
0
41
1
10
88.3076715399339
20
12.6585620464153
30
0
41
1
10
88.2871295287574
20
12.7033373881304
30
0
41
1
10
88.2697437386086
20
12.7339638523981
30
0
41
1
10
88.2495
20
12.7652127395764
30
0
0
SPLINE
5
1D0
100
AcDbEntity
8
1
62
256
6
ByLayer
370
18
48
1
60
0
100
AcDbSpline
70
4
71
3
72
14
73
10
40
0
40
0
40
0
40
0
40
0.25
40
0.25
40
0.5
40
0.5
40
0.75
40
0.75
40
1
40
1
40
1
40
1
41
1
10
88.2495
20
12.4631018098503
30
0
41
1
10
88.2595285451955
20
12.454911578263
30
0
41
1
10
88.2693787576544
20
12.4478868517298
30
0
41
1
10
88.2883493100185
20
12.4374400764857
30
0
41
1
10
88.297175431408
20
12.4343141674245
30
0
41
1
10
88.3112592682041
20
12.4337380572478
30
0
41
1
10
88.3165617376619
20
12.4363049691996
30
0
41
1
10
88.3231105804425
20
12.445697632288
30
0
41
1
10
88.3245000000007
20
12.4525000394183
30
0
41
1
10
88.3245000000006
20
12.4603300643642
30
0
0
SPLINE
5
1D1
100
AcDbEntity
8
1
62
256
6
ByLayer
370
18
48
1
60
0
100
AcDbSpline
70
4
71
3
72
8
73
4
40
0
40
0
40
0
40
0
40
1
40
1
40
1
40
1
41
1
10
88.2495
20
12.4631018098503
30
0
41
1
10
88.0348340263956
20
12.6384177707854
30
0
41
1
10
87.8201673316659
20
12.8137325544142
30
0
41
1
10
87.6055
20
12.9890462981537
30
0
0
SPLINE
5
1D2
100
AcDbEntity
8
1
62
256
6
ByLayer
370
18
48
1
60
0
100
AcDbSpline
70
4
71
3
72
22
73
18
40
0
40
0
40
0
40
0
40
0.124999999999946
40
0.124999999999946
40
0.187499999999951
40
0.187499999999951
40
0.249999999999957
40
0.249999999999957
40
0.312499999999962
40
0.312499999999962
40
0.374999999999967
40
0.374999999999967
40
0.499999999999974
40
0.499999999999974
40
0.749999999999987
40
0.749999999999987
40
1
40
1
40
1
40
1
41
1
10
87.6055
20
12.9890462981537
30
0
41
1
10
87.5916227183264
20
13.0003795466002
30
0
41
1
10
87.5778149847255
20
13.0099058072124
30
0
41
1
10
87.5587640996215
20
13.0187678583176
30
0
41
1
10
87.5528778815586
20
13.0207157324357
30
0
41
1
10
87.5423005181068
20
13.0222994985668
30
0
41
1
10
87.5376805232072
20
13.021890488957
30
0
41
1
10
87.5302189661989
20
13.0188458080784
30
0
41
1
10
87.5272609873016
20
13.016162154544
30
0
41
1
10
87.5230323956632
20
13.0090993002862
30
0
41
1
10
87.5217153832485
20
13.0047461650243
30
0
41
1
10
87.5196904069084
20
12.9896936057726
30
0
41
1
10
87.5209009317693
20
12.9776739740765
30
0
41
1
10
87.5292113354176
20
12.9379891858555
30
0
41
1
10
87.5408135092952
20
12.9076642326321
30
0
41
1
10
87.5692151739163
20
12.8463921083411
30
0
41
1
10
87.5861723846301
20
12.8151481502975
30
0
41
1
10
87.6055
20
12.7833973678526
30
0
0
SPLINE
5
1D3
100
AcDbEntity
8
1
62
256
6
ByLayer
370
18
48
1
60
0
100
AcDbSpline
70
4
71
3
72
8
73
4
40
0
40
0
40
0
40
0
40
1
40
1
40
1
40
1
41
1
10
87.6055
20
12.7833973678526
30
0
41
1
10
87.8251085260618
20
12.4226315723511
30
0
41
1
10
88.0399891728598
20
12.0581547059221
30
0
41
1
10
88.2495
20
11.6894628880304
30
0
0
SPLINE
5
1D4
100
AcDbEntity
8
1
62
256
6
ByLayer
370
18
48
1
60
0
100
AcDbSpline
70
4
71
3
72
12
73
8
40
0
40
0
40
0
40
0
40
0.250000000000002
40
0.250000000000002
40
0.500000000000005
40
0.500000000000005
40
1
40
1
40
1
40
1
41
1
10
88.3245000000049
20
11.4846821471184
30
0
41
1
10
88.3245000000045
20
11.4986186392601
30
0
41
1
10
88.3218168192749
20
11.5145820361711
30
0
41
1
10
88.3134994891632
20
11.5475502348942
30
0
41
1
10
88.3077914383874
20
11.5648102449531
30
0
41
1
10
88.2874223644384
20
11.6176390305913
30
0
41
1
10
88.2700255746268
20
11.6533425045366
30
0
41
1
10
88.2495
20
11.6894628880304
30
0
0
SPLINE
5
1D5
100
AcDbEntity
8
1
62
256
6
ByLayer
370
18
48
1
60
0
100
AcDbSpline
70
4
71
3
72
14
73
10
40
0
40
0
40
0
40
0
40
0.25
40
0.25
40
0.5
40
0.5
40
0.75
40
0.75
40
1
40
1
40
1
40
1
41
1
10
88.2495
20
11.2976112695867
30
0
41
1
10
88.2596835276341
20
11.2892171068577
30
0
41
1
10
88.2700881623099
20
11.2820602997863
30
0
41
1
10
88.2896412795497
20
11.2730146525224
30
0
41
1
10
88.2987161672676
20
11.2713427533697
30
0
41
1
10
88.3126080537397
20
11.2748749611697
30
0
41
1
10
88.3174509941179
20
11.2799276064818
30
0
41
1
10
88.3233327606758
20
11.2936661183256
30
0
41
1
10
88.3245000000031
20
11.3023536797774
30
0
41
1
10
88.324500000003
20
11.3117925379033
30
0
0
SPLINE
5
1D6
100
AcDbEntity
8
1
62
256
6
ByLayer
370
18
48
1
60
0
100
AcDbSpline
70
4
71
3
72
8
73
4
40
0
40
0
40
0
40
0
40
1
40
1
40
1
40
1
41
1
10
88.2495
20
11.2976112695869
30
0
41
1
10
88.0348639249866
20
11.4745332759798
30
0
41
1
10
87.8201958861166
20
11.6514035876185
30
0
41
1
10
87.6055
20
11.8282288061869
30
0
0
SPLINE
5
1D7
100
AcDbEntity
8
1
62
256
6
ByLayer
370
18
48
1
60
0
100
AcDbSpline
70
4
71
3
72
20
73
16
40
0
40
0
40
0
40
0
40
0.125000000000003
40
0.125000000000003
40
0.187500000000005
40
0.187500000000005
40
0.250000000000007
40
0.250000000000007
40
0.375000000000008
40
0.375000000000008
40
0.500000000000009
40
0.500000000000009
40
0.750000000000005
40
0.750000000000005
40
1
40
1
40
1
40
1
41
1
10
87.6055
20
11.8282288061873
30
0
41
1
10
87.5906092734133
20
11.8404929255935
30
0
41
1
10
87.5751942192751
20
11.8504811784598
30
0
41
1
10
87.554890008181
20
11.8568070994773
30
0
41
1
10
87.5487346821652
20
11.8574297155083
30
0
41
1
10
87.5381321528146
20
11.8554795242796
30
0
41
1
10
87.5338980630895
20
11.8529899232154
30
0
41
1
10
87.5238336836561
20
11.8417594961778
30
0
41
1
10
87.5210592914158
20
11.8296427680004
30
0
41
1
10
87.5200966597094
20
11.8027113601617
30
0
41
1
10
87.5217997890807
20
11.7877083777646
30
0
41
1
10
87.530979007161
20
11.7398052885815
30
0
41
1
10
87.5423114350604
20
11.7050551734655
30
0
41
1
10
87.5701098531134
20
11.6349536893476
30
0
41
1
10
87.5866332660355
20
11.5995661446199
30
0
41
1
10
87.6055
20
11.5638910107493
30
0
0
SPLINE
5
1D8
100
AcDbEntity
8
1
62
256
6
ByLayer
370
18
48
1
60
0
100
AcDbSpline
70
4
71
3
72
8
73
4
40
0
40
0
40
0
40
0
40
1
40
1
40
1
40
1
41
1
10
87.6055
20
11.5638910107494
30
0
41
1
10
87.8277685085049
20
11.1436031744424
30
0
41
1
10
88.0427804369158
20
10.7184329254336
30
0
41
1
10
88.2495
20
10.2876833609242
30
0
0
SPLINE
5
1D9
100
AcDbEntity
8
1
62
256
6
ByLayer
370
18
48
1
60
0
100
AcDbSpline
70
4
71
3
72
12
73
8
40
0
40
0
40
0
40
0
40
0.249999999999991
40
0.249999999999991
40
0.499999999999981
40
0.499999999999981
40
1
40
1
40
1
40
1
41
1
10
88.3245
20
10.0349937176221
30
0
41
1
10
88.3245
20
10.0535898597098
30
0
41
1
10
88.3218666312093
20
10.0735403657602
30
0
41
1
10
88.3136339039102
20
10.1149405184586
30
0
41
1
10
88.3079221542003
20
10.1364731820904
30
0
41
1
10
88.2878278136398
20
10.200766017983
30
0
41
1
10
88.2704480558525
20
10.2440330851539
30
0
41
1
10
88.2495000000001
20
10.2876833609241
30
0
0
SPLINE
5
1DA
100
AcDbEntity
8
1
62
256
6
ByLayer
370
18
48
1
60
0
100
AcDbSpline
70
4
71
3
72
14
73
10
40
0
40
0
40
0
40
0
40
0.25
40
0.25
40
0.5
40
0.5
40
0.75
40
0.75
40
1
40
1
40
1
40
1
41
1
10
88.2495
20
9.76950019574684
30
0
41
1
10
88.2600887480643
20
9.76034543126855
30
0
41
1
10
88.2711394646123
20
9.75281867950565
30
0
41
1
10
88.2920202054396
20
9.74561239157399
30
0
41
1
10
88.301227709581
20
9.74652136602663
30
0
41
1
10
88.3144353219523
20
9.75619140774612
30
0
41
1
10
88.3186242563821
20
9.76460347571756
30
0
41
1
10
88.3235888009734
20
9.78369998775338
30
0
41
1
10
88.3245
20
9.79441052495088
30
0
41
1
10
88.3245
20
9.8057878586234
30
0
0
SPLINE
5
1DB
100
AcDbEntity
8
1
62
256
6
ByLayer
370
18
48
1
60
0
100
AcDbSpline
70
4
71
3
72
8
73
4
40
0
40
0
40
0
40
0
40
1
40
1
40
1
40
1
41
1
10
88.2495
20
9.76950019574707
30
0
41
1
10
88.0350577211803
20
9.95490158076939
30
0
41
1
10
87.8203794218738
20
10.1399379145855
30
0
41
1
10
87.6055
20
10.3246631735588
30
0
0
SPLINE
5
1DC
100
AcDbEntity
8
1
62
256
6
ByLayer
370
18
48
1
60
0
100
AcDbSpline
70
4
71
3
72
24
73
20
40
0
40
0
40
0
40
0
40
0.0624999999999959
40
0.0624999999999959
40
0.124999999999992
40
0.124999999999992
40
0.187499999999988
40
0.187499999999988
40
0.249999999999984
40
0.249999999999984
40
0.374999999999981
40
0.374999999999981
40
0.499999999999978
40
0.499999999999978
40
0.624999999999975
40
0.624999999999975
40
0.749999999999972
40
0.749999999999972
40
1
40
1
40
1
40
1
41
1
10
87.6055000000002
20
10.3246631735603
30
0
41
1
10
87.5972908220626
20
10.3317203524529
30
0
41
1
10
87.5888294563666
20
10.3379434777723
30
0
41
1
10
87.572156336855
20
10.3470822248402
30
0
41
1
10
87.56390538009
20
10.3499327609478
30
0
41
1
10
87.5493813671579
20
10.3507384660684
30
0
41
1
10
87.543058016479
20
10.3486864523546
30
0
41
1
10
87.5331440046893
20
10.3406952501179
30
0
41
1
10
87.5295379464697
20
10.3349316455587
30
0
41
1
10
87.5216517000027
20
10.3147017041259
30
0
41
1
10
87.520176950368
20
10.29733388094
30
0
41
1
10
87.5209299083085
20
10.2611121046283
30
0
41
1
10
87.5231701003545
20
10.2420124699813
30
0
41
1
10
87.5299124700065
20
10.202593002112
30
0
41
1
10
87.5344683999725
20
10.1822442124496
30
0
41
1
10
87.5450646287767
20
10.1416343023832
30
0
41
1
10
87.5511391063278
20
10.1212168100558
30
0
41
1
10
87.5712718337635
20
10.0596846218915
30
0
41
1
10
87.5871862607216
20
10.0182966088937
30
0
41
1
10
87.6055
20
9.97656766390924
30
0
0
SPLINE
5
1DD
100
AcDbEntity
8
1
62
256
6
ByLayer
370
18
48
1
60
0
100
AcDbSpline
70
4
71
3
72
8
73
4
40
0
40
0
40
0
40
0
40
1
40
1
40
1
40
1
41
1
10
87.6055
20
9.97656766390924
30
0
41
1
10
87.8332755239774
20
9.45756757526465
30
0
41
1
10
88.0485705188501
20
8.93177794735095
30
0
41
1
10
88.2495
20
8.39817332868469
30
0
0
SPLINE
5
1DE
100
AcDbEntity
8
1
62
256
6
ByLayer
370
18
48
1
60
0
100
AcDbSpline
70
4
71
3
72
12
73
8
40
0
40
0
40
0
40
0
40
0.249999999999996
40
0.249999999999996
40
0.499999999999991
40
0.499999999999991
40
1
40
1
40
1
40
1
41
1
10
88.3245
20
8.06252279407673
30
0
41
1
10
88.3245
20
8.08877438392992
30
0
41
1
10
88.3218617594051
20
8.1162462626074
30
0
41
1
10
88.3136794429823
20
8.17216347578744
30
0
41
1
10
88.3081312899982
20
8.20023384490875
30
0
41
1
10
88.2882979872325
20
8.28467600365445
30
0
41
1
10
88.2709276994985
20
8.34126819284231
30
0
41
1
10
88.2495000000004
20
8.39817332868464
30
0
0
SPLINE
5
1DF
100
AcDbEntity
8
1
62
256
6
ByLayer
370
18
48
1
60
0
100
AcDbSpline
70
4
71
3
72
18
73
14
40
0
40
0
40
0
40
0
40
0.124999999999976
40
0.124999999999976
40
0.249999999999952
40
0.249999999999952
40
0.374999999999928
40
0.374999999999928
40
0.499999999999904
40
0.499999999999904
40
0.749999999999952
40
0.749999999999952
40
1
40
1
40
1
40
1
41
1
10
88.2494999999997
20
7.66487101983387
30
0
41
1
10
88.2550825771808
20
7.65934993796904
30
0
41
1
10
88.2608400805829
20
7.654431232147
30
0
41
1
10
88.272887800992
20
7.64667976028719
30
0
41
1
10
88.2790379838132
20
7.64403531494781
30
0
41
1
10
88.290470788568
20
7.64254219960364
30
0
41
1
10
88.2957720298857
20
7.64374454640068
30
0
41
1
10
88.3045418797552
20
7.64926616914496
30
0
41
1
10
88.3080928103558
20
7.65350242879828
30
0
41
1
10
88.3166378240431
20
7.66829570395609
30
0
41
1
10
88.3198494486438
20
7.68107381810151
30
0
41
1
10
88.3237864855462
20
7.70777675622452
30
0
41
1
10
88.3245
20
7.72183870453077
30
0
41
1
10
88.3245
20
7.73629760518773
30
0
0
SPLINE
5
1E0
100
AcDbEntity
8
1
62
256
6
ByLayer
370
18
48
1
60
0
100
AcDbSpline
70
4
71
3
72
8
73
4
40
0
40
0
40
0
40
0
40
1
40
1
40
1
40
1
41
1
10
88.2495
20
7.66487101983498
30
0
41
1
10
88.0359354469355
20
7.8760830358334
30
0
41
1
10
87.8211953437772
20
8.08569058843594
30
0
41
1
10
87.6055
20
8.29399436962495
30
0
0
SPLINE
5
1E1
100
AcDbEntity
8
1
62
256
6
ByLayer
370
18
48
1
60
0
100
AcDbSpline
70
4
71
3
72
26
73
22
40
0
40
0
40
0
40
0
40
0.0624999999999333
40
0.0624999999999333
40
0.0937499999999236
40
0.0937499999999236
40
0.124999999999914
40
0.124999999999914
40
0.18749999999992
40
0.18749999999992
40
0.249999999999927
40
0.249999999999927
40
0.374999999999937
40
0.374999999999937
40
0.499999999999947
40
0.499999999999947
40
0.624999999999957
40
0.624999999999957
40
0.749999999999967
40
0.749999999999967
40
1
40
1
40
1
40
1
41
1
10
87.605500000001
20
8.29399436962785
30
0
41
1
10
87.5959989241314
20
8.30316985758412
30
0
41
1
10
87.5858638857553
20
8.31101651749412
30
0
41
1
10
87.5706712189838
20
8.31742962374139
30
0
41
1
10
87.5657085906511
20
8.31860057097833
30
0
41
1
10
87.5564049528667
20
8.31864057855299
30
0
41
1
10
87.5521202378956
20
8.31749833255165
30
0
41
1
10
87.5408437021558
20
8.31118135248073
30
0
41
1
10
87.5354920144169
20
8.303364567687
30
0
41
1
10
87.5276841395794
20
8.28493985169897
30
0
41
1
10
87.5251886418262
20
8.27430676989084
30
0
41
1
10
87.5201666391899
20
8.24102638198164
30
0
41
1
10
87.5199416735382
20
8.21682284496848
30
0
41
1
10
87.5222886504303
20
8.16690538917166
30
0
41
1
10
87.5249603294811
20
8.14138275077391
30
0
41
1
10
87.5321803867062
20
8.08960913654192
30
0
41
1
10
87.5367529648605
20
8.06339426308926
30
0
41
1
10
87.5472331069995
20
8.01102482569175
30
0
41
1
10
87.5531603578125
20
7.98477689180956
30
0
41
1
10
87.5726834417356
20
7.90586774237954
30
0
41
1
10
87.5879719682517
20
7.85304415629682
30
0
41
1
10
87.6055
20
7.80001470489827
30
0
0
SPLINE
5
1E2
100
AcDbEntity
8
1
62
256
6
ByLayer
370
18
48
1
60
0
100
AcDbSpline
70
4
71
3
72
8
73
4
40
0
40
0
40
0
40
0
40
1
40
1
40
1
40
1
41
1
10
87.6055
20
7.8000147048983
30
0
41
1
10
87.8503984452163
20
7.059096934742
30
0
41
1
10
88.0666055459679
20
6.30726507168862
30
0
41
1
10
88.2495000000001
20
5.54276118758756
30
0
0
SPLINE
5
1E3
100
AcDbEntity
8
1
62
256
6
ByLayer
370
18
48
1
60
0
100
AcDbSpline
70
4
71
3
72
12
73
8
40
0
40
0
40
0
40
0
40
0.250000000000002
40
0.250000000000002
40
0.500000000000005
40
0.500000000000005
40
1
40
1
40
1
40
1
41
1
10
88.3245
20
4.98070765025412
30
0
41
1
10
88.3245
20
5.02669016522984
30
0
41
1
10
88.3220433117484
20
5.07311941251015
30
0
41
1
10
88.3143532365692
20
5.16642988938005
30
0
41
1
10
88.309043078487
20
5.2133270529221
30
0
41
1
10
88.289529013447
20
5.3545795148647
30
0
41
1
10
88.2719698398409
20
5.44883663463034
30
0
41
1
10
88.2495000000002
20
5.54276118758753
30
0
0
SPLINE
5
1E4
100
AcDbEntity
8
1
62
256
6
ByLayer
370
18
48
1
60
0
100
AcDbSpline
70
4
71
3
72
24
73
20
40
0
40
0
40
0
40
0
40
0.0624999999999889
40
0.0624999999999889
40
0.124999999999978
40
0.124999999999978
40
0.187499999999967
40
0.187499999999967
40
0.249999999999956
40
0.249999999999956
40
0.312499999999944
40
0.312499999999944
40
0.374999999999933
40
0.374999999999933
40
0.499999999999947
40
0.499999999999947
40
0.749999999999973
40
0.749999999999973
40
1
40
1
40
1
40
1
41
1
10
88.2494999999986
20
4.19015052554178
30
0
41
1
10
88.252650479603
20
4.18510211023676
30
0
41
1
10
88.2559980984989
20
4.18024106708776
30
0
41
1
10
88.2631903026624
20
4.17146785933008
30
0
41
1
10
88.2671256027575
20
4.16744353682171
30
0
41
1
10
88.2755433272005
20
4.1617327619141
30
0
41
1
10
88.2801295898292
20
4.16014218404655
30
0
41
1
10
88.288632245568
20
4.16119091466777
30
0
41
1
10
88.2923300996017
20
4.16368208398367
30
0
41
1
10
88.2984842085366
20
4.17052966741846
30
0
41
1
10
88.3009877466848
20
4.1748485196631
30
0
41
1
10
88.3052204195655
20
4.18397506082431
30
0
41
1
10
88.3069865523199
20
4.18886922507815
30
0
41
1
10
88.3116624731073
20
4.20413659332877
30
0
41
1
10
88.3139401583551
20
4.21503076315594
30
0
41
1
10
88.3194736840518
20
4.24825523171034
30
0
41
1
10
88.3214624331312
20
4.27121971459397
30
0
41
1
10
88.3240095526549
20
4.31742214875305
30
0
41
1
10
88.3245
20
4.34078386445873
30
0
41
1
10
88.3245
20
4.36430128929487
30
0
0
SPLINE
5
1E5
100
AcDbEntity
8
1
62
256
6
ByLayer
370
18
48
1
60
0
100
AcDbSpline
70
4
71
3
72
8
73
4
40
0
40
0
40
0
40
0
40
1
40
1
40
1
40
1
41
1
10
88.2495
20
4.19015052554326
30
0
41
1
10
88.0449699968897
20
4.51789503674519
30
0
41
1
10
87.8291937177712
20
4.83553746429027
30
0
41
1
10
87.6054999999937
20
5.14606797073171
30
0
0
SPLINE
5
1E6
100
AcDbEntity
8
1
62
256
6
ByLayer
370
18
48
1
60
0
100
AcDbSpline
70
4
71
3
72
28
73
24
40
0
40
0
40
0
40
0
40
0.0312500000000225
40
0.0312500000000225
40
0.0468750000000218
40
0.0468750000000218
40
0.0625000000000209
40
0.0625000000000209
40
0.0937500000000198
40
0.0937500000000198
40
0.125000000000019
40
0.125000000000019
40
0.187500000000016
40
0.187500000000016
40
0.250000000000014
40
0.250000000000014
40
0.375000000000011
40
0.375000000000011
40
0.500000000000009
40
0.500000000000009
40
0.750000000000004
40
0.750000000000004
40
1
40
1
40
1
40
1
41
1
10
87.6054999999983
20
5.14606797073733
30
0
41
1
10
87.5990607196724
20
5.15500694765893
30
0
41
1
10
87.5920487227008
20
5.16326749775462
30
0
41
1
10
87.5802994716362
20
5.17197447704612
30
0
41
1
10
87.576158718938
20
5.1741975488128
30
0
41
1
10
87.5679779528108
20
5.17625991206882
30
0
41
1
10
87.5639122456636
20
5.17605253125527
30
0
41
1
10
87.5530624890175
20
5.17191324931289
30
0
41
1
10
87.5475688170393
20
5.16482839498335
30
0
41
1
10
87.5392321251935
20
5.14871879582557
30
0
41
1
10
87.5361654659971
20
5.13940504498228
30
0
41
1
10
87.5287598614788
20
5.11072369469056
30
0
41
1
10
87.5260238660047
20
5.09020089867172
30
0
41
1
10
87.5221896601436
20
5.0480795930587
30
0
41
1
10
87.5212210441727
20
5.02660979314069
30
0
41
1
10
87.5198970504747
20
4.96174921408289
30
0
41
1
10
87.5211050214013
20
4.91769994918744
30
0
41
1
10
87.525548934381
20
4.82907530459761
30
0
41
1
10
87.5288395636416
20
4.784597927161
30
0
41
1
10
87.5407635270371
20
4.6508070852712
30
0
41
1
10
87.5514182783238
20
4.56110886777398
30
0
41
1
10
87.5760447906576
20
4.38113636750936
30
0
41
1
10
87.5900307274928
20
4.29110241989687
30
0
41
1
10
87.6055
20
4.20101850039956
30
0
0
SPLINE
5
1E7
100
AcDbEntity
8
1
62
256
6
ByLayer
370
18
48
1
60
0
100
AcDbSpline
70
4
71
3
72
18
73
14
40
0
40
0
40
0
40
0
40
0.125
40
0.125
40
0.1875
40
0.1875
40
0.25
40
0.25
40
0.5
40
0.5
40
0.75
40
0.75
40
1
40
1
40
1
40
1
41
1
10
87.6055
20
4.20101850039956
30
0
41
1
10
87.6653563685371
20
3.85245031258134
30
0
41
1
10
87.7181483814523
20
3.50248654513481
30
0
41
1
10
87.7863367406578
20
2.97536788591319
30
0
41
1
10
87.8072166984996
20
2.79940069396292
30
0
41
1
10
87.8451469744491
20
2.44784254590078
30
0
41
1
10
87.8622142434029
20
2.27212423027109
30
0
41
1
10
87.9380409431602
20
1.39383709401102
30
0
41
1
10
87.9682355588567
20
0.692182747710859
30
0
41
1
10
87.9677439738684
20
-0.70917690571045
30
0
41
1
10
87.9370590393873
20
-1.40888225336789
30
0
41
1
10
87.8157677485281
20
-2.80637462357018
30
0
41
1
10
87.7251647191855
20
-3.50416175262683
30
0
41
1
10
87.6055
20
-4.20101850039953
30
0
0
SPLINE
5
1E8
100
AcDbEntity
8
1
62
256
6
ByLayer
370
18
48
1
60
0
100
AcDbSpline
70
4
71
3
72
28
73
24
40
0
40
0
40
0
40
0
40
0.250000000000006
40
0.250000000000006
40
0.500000000000013
40
0.500000000000013
40
0.625000000000015
40
0.625000000000015
40
0.750000000000017
40
0.750000000000017
40
0.812500000000019
40
0.812500000000019
40
0.875000000000021
40
0.875000000000021
40
0.906250000000022
40
0.906250000000022
40
0.937500000000023
40
0.937500000000023
40
0.953125000000023
40
0.953125000000023
40
0.968750000000024
40
0.968750000000024
40
1
40
1
40
1
40
1
41
1
10
87.6055
20
-4.20101850039953
30
0
41
1
10
87.5900405903694
20
-4.29104498432059
30
0
41
1
10
87.5760739172364
20
-4.38095786881249
30
0
41
1
10
87.5514902680674
20
-4.5605485414651
30
0
41
1
10
87.5408029893666
20
-4.65044602078831
30
0
41
1
10
87.5288664119752
20
-4.78425606075155
30
0
41
1
10
87.5255810643421
20
-4.82864701256341
30
0
41
1
10
87.5211380016733
20
-4.9168328526284
30
0
41
1
10
87.519911680313
20
-4.96064358770147
30
0
41
1
10
87.5211817497251
20
-5.02556265369751
30
0
41
1
10
87.5221342180722
20
-5.04716503765925
30
0
41
1
10
87.5259274289865
20
-5.08943503165497
30
0
41
1
10
87.5286398032354
20
-5.11005347888653
30
0
41
1
10
87.5360219597604
20
-5.13894769977239
30
0
41
1
10
87.5390810604022
20
-5.14832698046169
30
0
41
1
10
87.5473751324916
20
-5.16454996501017
30
0
41
1
10
87.5528351385156
20
-5.17173771322589
30
0
41
1
10
87.5637433641049
20
-5.17603079994515
30
0
41
1
10
87.5678321685479
20
-5.17626990861515
30
0
41
1
10
87.5760245443652
20
-5.17425723115471
30
0
41
1
10
87.5802058669296
20
-5.17203498860582
30
0
41
1
10
87.5920486089098
20
-5.16328508520704
30
0
41
1
10
87.5991058478889
20
-5.15494430088123
30
0
41
1
10
87.6055
20
-5.14606797072292
30
0
0
SPLINE
5
1E9
100
AcDbEntity
8
1
62
256
6
ByLayer
370
18
48
1
60
0
100
AcDbSpline
70
4
71
3
72
8
73
4
40
0
40
0
40
0
40
0
40
1
40
1
40
1
40
1
41
1
10
87.6055
20
-5.14606797072295
30
0
41
1
10
87.8291937177752
20
-4.83553746428427
30
0
41
1
10
88.0449699968917
20
-4.51789503674212
30
0
41
1
10
88.2495
20
-4.19015052554326
30
0
0
SPLINE
5
1EA
100
AcDbEntity
8
SK1
62
256
6
ByLayer
370
18
48
1
60
0
100
AcDbSpline
70
4
71
3
72
24
73
20
40
0
40
0
40
0
40
0
40
0.124999999999985
40
0.124999999999985
40
0.249999999999971
40
0.249999999999971
40
0.374999999999956
40
0.374999999999956
40
0.499999999999941
40
0.499999999999941
40
0.562499999999934
40
0.562499999999934
40
0.624999999999927
40
0.624999999999927
40
0.749999999999951
40
0.749999999999951
40
0.874999999999975
40
0.874999999999975
40
1
40
1
40
1
40
1
41
1
10
-47.912132034356
20
-10.6937840507759
30
0
41
1
10
-47.8997410521641
20
-10.7059667870792
30
0
41
1
10
-47.8860652481906
20
-10.7172591987376
30
0
41
1
10
-47.8557274366988
20
-10.737800655265
30
0
41
1
10
-47.838831591472
20
-10.7471421560911
30
0
41
1
10
-47.8027313723491
20
-10.7625722229586
30
0
41
1
10
-47.7833875621284
20
-10.7687612191777
30
0
41
1
10
-47.7424604924059
20
-10.7772636291268
30
0
41
1
10
-47.7216356381703
20
-10.7794408945151
30
0
41
1
10
-47.6898360774401
20
-10.7794855882309
30
0
41
1
10
-47.6790678968126
20
-10.7789443970293
30
0
41
1
10
-47.6580436774164
20
-10.7768005208152
30
0
41
1
10
-47.6477159002698
20
-10.77520530482
30
0
41
1
10
-47.6172569439725
20
-10.7689289119737
30
0
41
1
10
-47.5975722767646
20
-10.7626810945632
30
0
41
1
10
-47.5614042914632
20
-10.7472635831801
30
0
41
1
10
-47.5445032661901
20
-10.7379438097402
30
0
41
1
10
-47.5139903194204
20
-10.7173097535037
30
0
41
1
10
-47.500274440558
20
-10.7059820194332
30
0
41
1
10
-47.4878679656406
20
-10.6937840507789
30
0
0
SPLINE
5
1EB
100
AcDbEntity
8
SK1
62
256
6
ByLayer
370
18
48
1
60
0
100
AcDbSpline
70
4
71
3
72
24
73
20
40
0
40
0
40
0
40
0
40
0.124999999999985
40
0.124999999999985
40
0.249999999999971
40
0.249999999999971
40
0.374999999999956
40
0.374999999999956
40
0.499999999999941
40
0.499999999999941
40
0.562499999999934
40
0.562499999999934
40
0.624999999999927
40
0.624999999999927
40
0.749999999999951
40
0.749999999999951
40
0.874999999999975
40
0.874999999999975
40
1
40
1
40
1
40
1
41
1
10
-43.912132034356
20
-10.6937840507759
30
0
41
1
10
-43.8997410521641
20
-10.7059667870792
30
0
41
1
10
-43.8860652481906
20
-10.7172591987376
30
0
41
1
10
-43.8557274366988
20
-10.737800655265
30
0
41
1
10
-43.838831591472
20
-10.7471421560911
30
0
41
1
10
-43.8027313723491
20
-10.7625722229586
30
0
41
1
10
-43.7833875621284
20
-10.7687612191777
30
0
41
1
10
-43.7424604924059
20
-10.7772636291268
30
0
41
1
10
-43.7216356381703
20
-10.7794408945151
30
0
41
1
10
-43.6898360774401
20
-10.7794855882309
30
0
41
1
10
-43.6790678968125
20
-10.7789443970293
30
0
41
1
10
-43.6580436774164
20
-10.7768005208152
30
0
41
1
10
-43.6477159002698
20
-10.77520530482
30
0
41
1
10
-43.6172569439725
20
-10.7689289119737
30
0
41
1
10
-43.5975722767646
20
-10.7626810945632
30
0
41
1
10
-43.5614042914632
20
-10.7472635831801
30
0
41
1
10
-43.5445032661901
20
-10.7379438097402
30
0
41
1
10
-43.5139903194204
20
-10.7173097535037
30
0
41
1
10
-43.500274440558
20
-10.7059820194332
30
0
41
1
10
-43.4878679656406
20
-10.6937840507789
30
0
0
SPLINE
5
1EC
100
AcDbEntity
8
SK1
62
256
6
ByLayer
370
18
48
1
60
0
100
AcDbSpline
70
4
71
3
72
24
73
20
40
0
40
0
40
0
40
0
40
0.124999999999985
40
0.124999999999985
40
0.24999999999997
40
0.24999999999997
40
0.374999999999956
40
0.374999999999956
40
0.499999999999941
40
0.499999999999941
40
0.562499999999934
40
0.562499999999934
40
0.624999999999926
40
0.624999999999926
40
0.749999999999951
40
0.749999999999951
40
0.874999999999975
40
0.874999999999975
40
1
40
1
40
1
40
1
41
1
10
-39.912132034356
20
-10.6937840507759
30
0
41
1
10
-39.8997410521641
20
-10.7059667870792
30
0
41
1
10
-39.8860652481906
20
-10.7172591987376
30
0
41
1
10
-39.8557274366988
20
-10.737800655265
30
0
41
1
10
-39.838831591472
20
-10.7471421560911
30
0
41
1
10
-39.8027313723491
20
-10.7625722229586
30
0
41
1
10
-39.7833875621284
20
-10.7687612191777
30
0
41
1
10
-39.7424604924059
20
-10.7772636291268
30
0
41
1
10
-39.7216356381703
20
-10.7794408945151
30
0
41
1
10
-39.6898360774401
20
-10.7794855882309
30
0
41
1
10
-39.6790678968126
20
-10.7789443970293
30
0
41
1
10
-39.6580436774164
20
-10.7768005208152
30
0
41
1
10
-39.6477159002698
20
-10.77520530482
30
0
41
1
10
-39.6172569439725
20
-10.7689289119737
30
0
41
1
10
-39.5975722767647
20
-10.7626810945632
30
0
41
1
10
-39.5614042914632
20
-10.7472635831801
30
0
41
1
10
-39.5445032661901
20
-10.7379438097402
30
0
41
1
10
-39.5139903194204
20
-10.7173097535037
30
0
41
1
10
-39.500274440558
20
-10.7059820194332
30
0
41
1
10
-39.4878679656406
20
-10.693784050779
30
0
0
SPLINE
5
1ED
100
AcDbEntity
8
SK1
62
256
6
ByLayer
370
18
48
1
60
0
100
AcDbSpline
70
4
71
3
72
24
73
20
40
0
40
0
40
0
40
0
40
0.124999999999985
40
0.124999999999985
40
0.24999999999997
40
0.24999999999997
40
0.374999999999956
40
0.374999999999956
40
0.499999999999941
40
0.499999999999941
40
0.562499999999934
40
0.562499999999934
40
0.624999999999926
40
0.624999999999926
40
0.749999999999951
40
0.749999999999951
40
0.874999999999975
40
0.874999999999975
40
1
40
1
40
1
40
1
41
1
10
-35.912132034356
20
-10.6937840507759
30
0
41
1
10
-35.8997410521641
20
-10.7059667870792
30
0
41
1
10
-35.8860652481906
20
-10.7172591987376
30
0
41
1
10
-35.8557274366988
20
-10.737800655265
30
0
41
1
10
-35.838831591472
20
-10.7471421560911
30
0
41
1
10
-35.8027313723491
20
-10.7625722229586
30
0
41
1
10
-35.7833875621284
20
-10.7687612191777
30
0
41
1
10
-35.7424604924059
20
-10.7772636291268
30
0
41
1
10
-35.7216356381703
20
-10.7794408945151
30
0
41
1
10
-35.6898360774402
20
-10.7794855882309
30
0
41
1
10
-35.6790678968125
20
-10.7789443970293
30
0
41
1
10
-35.6580436774164
20
-10.7768005208152
30
0
41
1
10
-35.6477159002698
20
-10.77520530482
30
0
41
1
10
-35.6172569439725
20
-10.7689289119737
30
0
41
1
10
-35.5975722767647
20
-10.7626810945632
30
0
41
1
10
-35.5614042914632
20
-10.7472635831801
30
0
41
1
10
-35.5445032661901
20
-10.7379438097402
30
0
41
1
10
-35.5139903194204
20
-10.7173097535037
30
0
41
1
10
-35.500274440558
20
-10.7059820194332
30
0
41
1
10
-35.4878679656406
20
-10.693784050779
30
0
0
SPLINE
5
1EE
100
AcDbEntity
8
SK1
62
256
6
ByLayer
370
18
48
1
60
0
100
AcDbSpline
70
4
71
3
72
24
73
20
40
0
40
0
40
0
40
0
40
0.124999999999985
40
0.124999999999985
40
0.249999999999971
40
0.249999999999971
40
0.374999999999956
40
0.374999999999956
40
0.499999999999941
40
0.499999999999941
40
0.562499999999934
40
0.562499999999934
40
0.624999999999927
40
0.624999999999927
40
0.749999999999951
40
0.749999999999951
40
0.874999999999975
40
0.874999999999975
40
1
40
1
40
1
40
1
41
1
10
-31.912132034356
20
-10.6937840507759
30
0
41
1
10
-31.8997410521641
20
-10.7059667870792
30
0
41
1
10
-31.8860652481906
20
-10.7172591987376
30
0
41
1
10
-31.8557274366988
20
-10.737800655265
30
0
41
1
10
-31.838831591472
20
-10.7471421560911
30
0
41
1
10
-31.8027313723491
20
-10.7625722229586
30
0
41
1
10
-31.7833875621284
20
-10.7687612191777
30
0
41
1
10
-31.7424604924059
20
-10.7772636291268
30
0
41
1
10
-31.7216356381703
20
-10.7794408945151
30
0
41
1
10
-31.6898360774402
20
-10.7794855882309
30
0
41
1
10
-31.6790678968126
20
-10.7789443970293
30
0
41
1
10
-31.6580436774164
20
-10.7768005208152
30
0
41
1
10
-31.6477159002698
20
-10.77520530482
30
0
41
1
10
-31.6172569439725
20
-10.7689289119737
30
0
41
1
10
-31.5975722767646
20
-10.7626810945632
30
0
41
1
10
-31.5614042914632
20
-10.7472635831801
30
0
41
1
10
-31.5445032661901
20
-10.7379438097402
30
0
41
1
10
-31.5139903194204
20
-10.7173097535037
30
0
41
1
10
-31.500274440558
20
-10.7059820194332
30
0
41
1
10
-31.4878679656406
20
-10.6937840507789
30
0
0
SPLINE
5
1EF
100
AcDbEntity
8
SK1
62
256
6
ByLayer
370
18
48
1
60
0
100
AcDbSpline
70
4
71
3
72
24
73
20
40
0
40
0
40
0
40
0
40
0.124999999999997
40
0.124999999999997
40
0.249999999999994
40
0.249999999999994
40
0.374999999999992
40
0.374999999999992
40
0.499999999999989
40
0.499999999999989
40
0.562499999999997
40
0.562499999999997
40
0.625000000000006
40
0.625000000000006
40
0.750000000000004
40
0.750000000000004
40
0.875000000000002
40
0.875000000000002
40
1
40
1
40
1
40
1
41
1
10
-27.912132034356
20
-10.6937840507759
30
0
41
1
10
-27.8997410521641
20
-10.7059667870792
30
0
41
1
10
-27.8860652481906
20
-10.7172591987376
30
0
41
1
10
-27.8557274366988
20
-10.737800655265
30
0
41
1
10
-27.838831591472
20
-10.7471421560911
30
0
41
1
10
-27.8027313723491
20
-10.7625722229586
30
0
41
1
10
-27.7833875621284
20
-10.7687612191777
30
0
41
1
10
-27.7424604924059
20
-10.7772636291268
30
0
41
1
10
-27.7216356381703
20
-10.7794408945151
30
0
41
1
10
-27.6898360774402
20
-10.7794855882309
30
0
41
1
10
-27.6790678968126
20
-10.7789443970293
30
0
41
1
10
-27.6580436774164
20
-10.7768005208152
30
0
41
1
10
-27.6477159002698
20
-10.77520530482
30
0
41
1
10
-27.6172569439725
20
-10.7689289119737
30
0
41
1
10
-27.5975722767646
20
-10.7626810945632
30
0
41
1
10
-27.5614042914632
20
-10.7472635831801
30
0
41
1
10
-27.5445032661901
20
-10.7379438097402
30
0
41
1
10
-27.5139903194204
20
-10.7173097535037
30
0
41
1
10
-27.500274440558
20
-10.7059820194332
30
0
41
1
10
-27.4878679656406
20
-10.6937840507789
30
0
0
SPLINE
5
1F0
100
AcDbEntity
8
SK1
62
256
6
ByLayer
370
18
48
1
60
0
100
AcDbSpline
70
4
71
3
72
24
73
20
40
0
40
0
40
0
40
0
40
0.125000000000003
40
0.125000000000003
40
0.250000000000006
40
0.250000000000006
40
0.375000000000009
40
0.375000000000009
40
0.500000000000012
40
0.500000000000012
40
0.562500000000003
40
0.562500000000003
40
0.624999999999994
40
0.624999999999994
40
0.749999999999996
40
0.749999999999996
40
0.874999999999998
40
0.874999999999998
40
1
40
1
40
1
40
1
41
1
10
-23.912132034356
20
-10.6937840507759
30
0
41
1
10
-23.8997410521641
20
-10.7059667870792
30
0
41
1
10
-23.8860652481906
20
-10.7172591987376
30
0
41
1
10
-23.8557274366988
20
-10.737800655265
30
0
41
1
10
-23.838831591472
20
-10.7471421560911
30
0
41
1
10
-23.8027313723492
20
-10.7625722229586
30
0
41
1
10
-23.7833875621284
20
-10.7687612191777
30
0
41
1
10
-23.7424604924059
20
-10.7772636291268
30
0
41
1
10
-23.7216356381703
20
-10.7794408945151
30
0
41
1
10
-23.6898360774402
20
-10.7794855882309
30
0
41
1
10
-23.6790678968126
20
-10.7789443970293
30
0
41
1
10
-23.6580436774164
20
-10.7768005208152
30
0
41
1
10
-23.6477159002698
20
-10.77520530482
30
0
41
1
10
-23.6172569439725
20
-10.7689289119737
30
0
41
1
10
-23.5975722767646
20
-10.7626810945632
30
0
41
1
10
-23.5614042914632
20
-10.7472635831801
30
0
41
1
10
-23.5445032661901
20
-10.7379438097402
30
0
41
1
10
-23.5139903194204
20
-10.7173097535037
30
0
41
1
10
-23.500274440558
20
-10.7059820194332
30
0
41
1
10
-23.4878679656406
20
-10.6937840507789
30
0
0
SPLINE
5
1F1
100
AcDbEntity
8
SK1
62
256
6
ByLayer
370
18
48
1
60
0
100
AcDbSpline
70
4
71
3
72
24
73
20
40
0
40
0
40
0
40
0
40
0.124999999999993
40
0.124999999999993
40
0.249999999999985
40
0.249999999999985
40
0.374999999999978
40
0.374999999999978
40
0.49999999999997
40
0.49999999999997
40
0.562499999999967
40
0.562499999999967
40
0.624999999999963
40
0.624999999999963
40
0.749999999999975
40
0.749999999999975
40
0.874999999999988
40
0.874999999999988
40
1
40
1
40
1
40
1
41
1
10
-19.912132034356
20
-10.6937840507759
30
0
41
1
10
-19.8997410521641
20
-10.7059667870792
30
0
41
1
10
-19.8860652481906
20
-10.7172591987376
30
0
41
1
10
-19.8557274366988
20
-10.737800655265
30
0
41
1
10
-19.838831591472
20
-10.7471421560911
30
0
41
1
10
-19.8027313723491
20
-10.7625722229586
30
0
41
1
10
-19.7833875621284
20
-10.7687612191777
30
0
41
1
10
-19.7424604924059
20
-10.7772636291268
30
0
41
1
10
-19.7216356381703
20
-10.7794408945151
30
0
41
1
10
-19.6898360774402
20
-10.7794855882309
30
0
41
1
10
-19.6790678968126
20
-10.7789443970293
30
0
41
1
10
-19.6580436774164
20
-10.7768005208152
30
0
41
1
10
-19.6477159002698
20
-10.77520530482
30
0
41
1
10
-19.6172569439725
20
-10.7689289119737
30
0
41
1
10
-19.5975722767646
20
-10.7626810945632
30
0
41
1
10
-19.5614042914632
20
-10.7472635831801
30
0
41
1
10
-19.5445032661901
20
-10.7379438097402
30
0
41
1
10
-19.5139903194204
20
-10.7173097535037
30
0
41
1
10
-19.5002744405579
20
-10.7059820194332
30
0
41
1
10
-19.4878679656406
20
-10.693784050779
30
0
0
SPLINE
5
1F2
100
AcDbEntity
8
SK1
62
256
6
ByLayer
370
18
48
1
60
0
100
AcDbSpline
70
4
71
3
72
24
73
20
40
0
40
0
40
0
40
0
40
0.125000000000011
40
0.125000000000011
40
0.250000000000022
40
0.250000000000022
40
0.375000000000033
40
0.375000000000033
40
0.500000000000044
40
0.500000000000044
40
0.56250000000005
40
0.56250000000005
40
0.625000000000055
40
0.625000000000055
40
0.750000000000037
40
0.750000000000037
40
0.875000000000018
40
0.875000000000018
40
1
40
1
40
1
40
1
41
1
10
-15.912132034356
20
-10.6937840507759
30
0
41
1
10
-15.8997410521641
20
-10.7059667870792
30
0
41
1
10
-15.8860652481906
20
-10.7172591987376
30
0
41
1
10
-15.8557274366988
20
-10.737800655265
30
0
41
1
10
-15.838831591472
20
-10.7471421560911
30
0
41
1
10
-15.8027313723492
20
-10.7625722229586
30
0
41
1
10
-15.7833875621284
20
-10.7687612191777
30
0
41
1
10
-15.7424604924059
20
-10.7772636291268
30
0
41
1
10
-15.7216356381703
20
-10.7794408945151
30
0
41
1
10
-15.6898360774402
20
-10.7794855882309
30
0
41
1
10
-15.6790678968125
20
-10.7789443970293
30
0
41
1
10
-15.6580436774164
20
-10.7768005208152
30
0
41
1
10
-15.6477159002698
20
-10.77520530482
30
0
41
1
10
-15.6172569439725
20
-10.7689289119737
30
0
41
1
10
-15.5975722767646
20
-10.7626810945632
30
0
41
1
10
-15.5614042914632
20
-10.7472635831801
30
0
41
1
10
-15.5445032661901
20
-10.7379438097402
30
0
41
1
10
-15.5139903194204
20
-10.7173097535037
30
0
41
1
10
-15.500274440558
20
-10.7059820194332
30
0
41
1
10
-15.4878679656406
20
-10.6937840507789
30
0
0
SPLINE
5
1F3
100
AcDbEntity
8
SK1
62
256
6
ByLayer
370
18
48
1
60
0
100
AcDbSpline
70
4
71
3
72
24
73
20
40
0
40
0
40
0
40
0
40
0.125000000000009
40
0.125000000000009
40
0.250000000000017
40
0.250000000000017
40
0.375000000000026
40
0.375000000000026
40
0.500000000000035
40
0.500000000000035
40
0.562500000000034
40
0.562500000000034
40
0.625000000000034
40
0.625000000000034
40
0.750000000000022
40
0.750000000000022
40
0.875000000000011
40
0.875000000000011
40
1
40
1
40
1
40
1
41
1
10
-11.912132034356
20
-10.6937840507759
30
0
41
1
10
-11.8997410521641
20
-10.7059667870792
30
0
41
1
10
-11.8860652481906
20
-10.7172591987376
30
0
41
1
10
-11.8557274366988
20
-10.737800655265
30
0
41
1
10
-11.838831591472
20
-10.7471421560911
30
0
41
1
10
-11.8027313723491
20
-10.7625722229586
30
0
41
1
10
-11.7833875621284
20
-10.7687612191777
30
0
41
1
10
-11.7424604924059
20
-10.7772636291268
30
0
41
1
10
-11.7216356381703
20
-10.7794408945151
30
0
41
1
10
-11.6898360774402
20
-10.7794855882309
30
0
41
1
10
-11.6790678968125
20
-10.7789443970293
30
0
41
1
10
-11.6580436774164
20
-10.7768005208152
30
0
41
1
10
-11.6477159002698
20
-10.77520530482
30
0
41
1
10
-11.6172569439725
20
-10.7689289119737
30
0
41
1
10
-11.5975722767646
20
-10.7626810945632
30
0
41
1
10
-11.5614042914632
20
-10.7472635831801
30
0
41
1
10
-11.5445032661901
20
-10.7379438097402
30
0
41
1
10
-11.5139903194204
20
-10.7173097535037
30
0
41
1
10
-11.500274440558
20
-10.7059820194332
30
0
41
1
10
-11.4878679656406
20
-10.6937840507789
30
0
0
SPLINE
5
1F4
100
AcDbEntity
8
SK1
62
256
6
ByLayer
370
18
48
1
60
0
100
AcDbSpline
70
4
71
3
72
24
73
20
40
0
40
0
40
0
40
0
40
0.125000000000004
40
0.125000000000004
40
0.250000000000007
40
0.250000000000007
40
0.375000000000011
40
0.375000000000011
40
0.500000000000015
40
0.500000000000015
40
0.562500000000017
40
0.562500000000017
40
0.625000000000019
40
0.625000000000019
40
0.750000000000012
40
0.750000000000012
40
0.875000000000006
40
0.875000000000006
40
1
40
1
40
1
40
1
41
1
10
-11.487867965644
20
10.6937840507759
30
0
41
1
10
-11.500258947836
20
10.7059667870792
30
0
41
1
10
-11.5139347518094
20
10.7172591987376
30
0
41
1
10
-11.5442725633012
20
10.737800655265
30
0
41
1
10
-11.561168408528
20
10.7471421560911
30
0
41
1
10
-11.5972686276509
20
10.7625722229586
30
0
41
1
10
-11.6166124378716
20
10.7687612191777
30
0
41
1
10
-11.6575395075941
20
10.7772636291268
30
0
41
1
10
-11.6783643618298
20
10.7794408945151
30
0
41
1
10
-11.7101639225598
20
10.7794855882309
30
0
41
1
10
-11.7209321031874
20
10.7789443970293
30
0
41
1
10
-11.7419563225837
20
10.7768005208152
30
0
41
1
10
-11.7522840997302
20
10.77520530482
30
0
41
1
10
-11.7827430560275
20
10.7689289119737
30
0
41
1
10
-11.8024277232354
20
10.7626810945632
30
0
41
1
10
-11.8385957085368
20
10.7472635831801
30
0
41
1
10
-11.8554967338099
20
10.7379438097402
30
0
41
1
10
-11.8860096805796
20
10.7173097535036
30
0
41
1
10
-11.899725559442
20
10.7059820194332
30
0
41
1
10
-11.9121320343594
20
10.6937840507789
30
0
0
SPLINE
5
1F5
100
AcDbEntity
8
SK1
62
256
6
ByLayer
370
18
48
1
60
0
100
AcDbSpline
70
4
71
3
72
24
73
20
40
0
40
0
40
0
40
0
40
0.125000000000007
40
0.125000000000007
40
0.250000000000015
40
0.250000000000015
40
0.375000000000022
40
0.375000000000022
40
0.50000000000003
40
0.50000000000003
40
0.562500000000033
40
0.562500000000033
40
0.625000000000037
40
0.625000000000037
40
0.750000000000025
40
0.750000000000025
40
0.875000000000012
40
0.875000000000012
40
1
40
1
40
1
40
1
41
1
10
-15.487867965644
20
10.6937840507759
30
0
41
1
10
-15.500258947836
20
10.7059667870792
30
0
41
1
10
-15.5139347518094
20
10.7172591987376
30
0
41
1
10
-15.5442725633012
20
10.737800655265
30
0
41
1
10
-15.561168408528
20
10.7471421560911
30
0
41
1
10
-15.5972686276509
20
10.7625722229586
30
0
41
1
10
-15.6166124378716
20
10.7687612191777
30
0
41
1
10
-15.6575395075941
20
10.7772636291268
30
0
41
1
10
-15.6783643618298
20
10.7794408945151
30
0
41
1
10
-15.7101639225599
20
10.7794855882309
30
0
41
1
10
-15.7209321031874
20
10.7789443970293
30
0
41
1
10
-15.7419563225837
20
10.7768005208152
30
0
41
1
10
-15.7522840997302
20
10.77520530482
30
0
41
1
10
-15.7827430560275
20
10.7689289119737
30
0
41
1
10
-15.8024277232354
20
10.7626810945632
30
0
41
1
10
-15.8385957085368
20
10.7472635831801
30
0
41
1
10
-15.8554967338099
20
10.7379438097402
30
0
41
1
10
-15.8860096805796
20
10.7173097535036
30
0
41
1
10
-15.8997255594421
20
10.7059820194332
30
0
41
1
10
-15.9121320343594
20
10.6937840507789
30
0
0
SPLINE
5
1F6
100
AcDbEntity
8
SK1
62
256
6
ByLayer
370
18
48
1
60
0
100
AcDbSpline
70
4
71
3
72
24
73
20
40
0
40
0
40
0
40
0
40
0.125000000000003
40
0.125000000000003
40
0.250000000000006
40
0.250000000000006
40
0.375000000000009
40
0.375000000000009
40
0.500000000000012
40
0.500000000000012
40
0.562500000000003
40
0.562500000000003
40
0.624999999999994
40
0.624999999999994
40
0.749999999999996
40
0.749999999999996
40
0.874999999999998
40
0.874999999999998
40
1
40
1
40
1
40
1
41
1
10
-19.487867965644
20
10.6937840507759
30
0
41
1
10
-19.500258947836
20
10.7059667870792
30
0
41
1
10
-19.5139347518094
20
10.7172591987376
30
0
41
1
10
-19.5442725633012
20
10.737800655265
30
0
41
1
10
-19.561168408528
20
10.7471421560911
30
0
41
1
10
-19.5972686276509
20
10.7625722229586
30
0
41
1
10
-19.6166124378716
20
10.7687612191777
30
0
41
1
10
-19.6575395075941
20
10.7772636291268
30
0
41
1
10
-19.6783643618298
20
10.7794408945151
30
0
41
1
10
-19.7101639225598
20
10.7794855882309
30
0
41
1
10
-19.7209321031875
20
10.7789443970293
30
0
41
1
10
-19.7419563225837
20
10.7768005208152
30
0
41
1
10
-19.7522840997302
20
10.77520530482
30
0
41
1
10
-19.7827430560275
20
10.7689289119737
30
0
41
1
10
-19.8024277232354
20
10.7626810945632
30
0
41
1
10
-19.8385957085368
20
10.7472635831801
30
0
41
1
10
-19.8554967338099
20
10.7379438097402
30
0
41
1
10
-19.8860096805796
20
10.7173097535036
30
0
41
1
10
-19.8997255594421
20
10.7059820194332
30
0
41
1
10
-19.9121320343594
20
10.6937840507789
30
0
0
SPLINE
5
1F7
100
AcDbEntity
8
SK1
62
256
6
ByLayer
370
18
48
1
60
0
100
AcDbSpline
70
4
71
3
72
24
73
20
40
0
40
0
40
0
40
0
40
0.125000000000007
40
0.125000000000007
40
0.250000000000015
40
0.250000000000015
40
0.375000000000022
40
0.375000000000022
40
0.500000000000029
40
0.500000000000029
40
0.562500000000033
40
0.562500000000033
40
0.625000000000037
40
0.625000000000037
40
0.750000000000024
40
0.750000000000024
40
0.875000000000012
40
0.875000000000012
40
1
40
1
40
1
40
1
41
1
10
-23.487867965644
20
10.6937840507759
30
0
41
1
10
-23.5002589478359
20
10.7059667870792
30
0
41
1
10
-23.5139347518094
20
10.7172591987376
30
0
41
1
10
-23.5442725633012
20
10.737800655265
30
0
41
1
10
-23.561168408528
20
10.7471421560911
30
0
41
1
10
-23.5972686276509
20
10.7625722229586
30
0
41
1
10
-23.6166124378716
20
10.7687612191777
30
0
41
1
10
-23.6575395075941
20
10.7772636291268
30
0
41
1
10
-23.6783643618298
20
10.7794408945151
30
0
41
1
10
-23.7101639225598
20
10.7794855882309
30
0
41
1
10
-23.7209321031875
20
10.7789443970293
30
0
41
1
10
-23.7419563225837
20
10.7768005208152
30
0
41
1
10
-23.7522840997302
20
10.77520530482
30
0
41
1
10
-23.7827430560275
20
10.7689289119737
30
0
41
1
10
-23.8024277232354
20
10.7626810945632
30
0
41
1
10
-23.8385957085368
20
10.7472635831801
30
0
41
1
10
-23.8554967338099
20
10.7379438097402
30
0
41
1
10
-23.8860096805796
20
10.7173097535036
30
0
41
1
10
-23.8997255594421
20
10.7059820194332
30
0
41
1
10
-23.9121320343594
20
10.6937840507789
30
0
0
SPLINE
5
1F8
100
AcDbEntity
8
SK1
62
256
6
ByLayer
370
18
48
1
60
0
100
AcDbSpline
70
4
71
3
72
24
73
20
40
0
40
0
40
0
40
0
40
0.125000000000003
40
0.125000000000003
40
0.250000000000006
40
0.250000000000006
40
0.375000000000008
40
0.375000000000008
40
0.500000000000011
40
0.500000000000011
40
0.562500000000003
40
0.562500000000003
40
0.624999999999994
40
0.624999999999994
40
0.749999999999996
40
0.749999999999996
40
0.874999999999998
40
0.874999999999998
40
1
40
1
40
1
40
1
41
1
10
-27.487867965644
20
10.6937840507759
30
0
41
1
10
-27.500258947836
20
10.7059667870792
30
0
41
1
10
-27.5139347518094
20
10.7172591987376
30
0
41
1
10
-27.5442725633012
20
10.737800655265
30
0
41
1
10
-27.561168408528
20
10.7471421560911
30
0
41
1
10
-27.5972686276509
20
10.7625722229586
30
0
41
1
10
-27.6166124378716
20
10.7687612191777
30
0
41
1
10
-27.6575395075941
20
10.7772636291268
30
0
41
1
10
-27.6783643618298
20
10.7794408945151
30
0
41
1
10
-27.7101639225598
20
10.7794855882309
30
0
41
1
10
-27.7209321031874
20
10.7789443970293
30
0
41
1
10
-27.7419563225836
20
10.7768005208152
30
0
41
1
10
-27.7522840997302
20
10.77520530482
30
0
41
1
10
-27.7827430560275
20
10.7689289119737
30
0
41
1
10
-27.8024277232354
20
10.7626810945632
30
0
41
1
10
-27.8385957085368
20
10.7472635831801
30
0
41
1
10
-27.8554967338099
20
10.7379438097402
30
0
41
1
10
-27.8860096805796
20
10.7173097535036
30
0
41
1
10
-27.8997255594421
20
10.7059820194332
30
0
41
1
10
-27.9121320343594
20
10.6937840507789
30
0
0
SPLINE
5
1F9
100
AcDbEntity
8
SK1
62
256
6
ByLayer
370
18
48
1
60
0
100
AcDbSpline
70
4
71
3
72
24
73
20
40
0
40
0
40
0
40
0
40
0.125000000000015
40
0.125000000000015
40
0.250000000000029
40
0.250000000000029
40
0.375000000000044
40
0.375000000000044
40
0.500000000000059
40
0.500000000000059
40
0.562500000000066
40
0.562500000000066
40
0.625000000000074
40
0.625000000000074
40
0.750000000000049
40
0.750000000000049
40
0.875000000000025
40
0.875000000000025
40
1
40
1
40
1
40
1
41
1
10
-31.487867965644
20
10.6937840507759
30
0
41
1
10
-31.500258947836
20
10.7059667870792
30
0
41
1
10
-31.5139347518094
20
10.7172591987376
30
0
41
1
10
-31.5442725633012
20
10.737800655265
30
0
41
1
10
-31.561168408528
20
10.7471421560911
30
0
41
1
10
-31.5972686276509
20
10.7625722229586
30
0
41
1
10
-31.6166124378716
20
10.7687612191777
30
0
41
1
10
-31.6575395075941
20
10.7772636291268
30
0
41
1
10
-31.6783643618298
20
10.7794408945151
30
0
41
1
10
-31.7101639225599
20
10.7794855882309
30
0
41
1
10
-31.7209321031875
20
10.7789443970293
30
0
41
1
10
-31.7419563225837
20
10.7768005208152
30
0
41
1
10
-31.7522840997302
20
10.77520530482
30
0
41
1
10
-31.7827430560275
20
10.7689289119737
30
0
41
1
10
-31.8024277232354
20
10.7626810945632
30
0
41
1
10
-31.8385957085368
20
10.7472635831801
30
0
41
1
10
-31.8554967338099
20
10.7379438097402
30
0
41
1
10
-31.8860096805796
20
10.7173097535036
30
0
41
1
10
-31.8997255594421
20
10.7059820194332
30
0
41
1
10
-31.9121320343594
20
10.6937840507789
30
0
0
SPLINE
5
1FA
100
AcDbEntity
8
SK1
62
256
6
ByLayer
370
18
48
1
60
0
100
AcDbSpline
70
4
71
3
72
24
73
20
40
0
40
0
40
0
40
0
40
0.124999999999994
40
0.124999999999994
40
0.249999999999989
40
0.249999999999989
40
0.374999999999983
40
0.374999999999983
40
0.499999999999977
40
0.499999999999977
40
0.562499999999995
40
0.562499999999995
40
0.625000000000012
40
0.625000000000012
40
0.750000000000008
40
0.750000000000008
40
0.875000000000004
40
0.875000000000004
40
1
40
1
40
1
40
1
41
1
10
-35.487867965644
20
10.6937840507759
30
0
41
1
10
-35.500258947836
20
10.7059667870792
30
0
41
1
10
-35.5139347518094
20
10.7172591987376
30
0
41
1
10
-35.5442725633012
20
10.737800655265
30
0
41
1
10
-35.561168408528
20
10.7471421560911
30
0
41
1
10
-35.5972686276508
20
10.7625722229586
30
0
41
1
10
-35.6166124378716
20
10.7687612191777
30
0
41
1
10
-35.6575395075941
20
10.7772636291268
30
0
41
1
10
-35.6783643618298
20
10.7794408945151
30
0
41
1
10
-35.7101639225599
20
10.7794855882309
30
0
41
1
10
-35.7209321031875
20
10.7789443970293
30
0
41
1
10
-35.7419563225837
20
10.7768005208152
30
0
41
1
10
-35.7522840997302
20
10.77520530482
30
0
41
1
10
-35.7827430560275
20
10.7689289119737
30
0
41
1
10
-35.8024277232354
20
10.7626810945632
30
0
41
1
10
-35.8385957085368
20
10.7472635831801
30
0
41
1
10
-35.8554967338099
20
10.7379438097402
30
0
41
1
10
-35.8860096805796
20
10.7173097535036
30
0
41
1
10
-35.899725559442
20
10.7059820194332
30
0
41
1
10
-35.9121320343594
20
10.6937840507789
30
0
0
SPLINE
5
1FB
100
AcDbEntity
8
SK1
62
256
6
ByLayer
370
18
48
1
60
0
100
AcDbSpline
70
4
71
3
72
24
73
20
40
0
40
0
40
0
40
0
40
0.124999999999965
40
0.124999999999965
40
0.24999999999993
40
0.24999999999993
40
0.374999999999894
40
0.374999999999894
40
0.499999999999859
40
0.499999999999859
40
0.562499999999862
40
0.562499999999862
40
0.624999999999865
40
0.624999999999865
40
0.74999999999991
40
0.74999999999991
40
0.874999999999955
40
0.874999999999955
40
1
40
1
40
1
40
1
41
1
10
-39.4878679656441
20
10.6937840507759
30
0
41
1
10
-39.500258947836
20
10.7059667870792
30
0
41
1
10
-39.5139347518094
20
10.7172591987376
30
0
41
1
10
-39.5442725633012
20
10.737800655265
30
0
41
1
10
-39.561168408528
20
10.7471421560911
30
0
41
1
10
-39.5972686276509
20
10.7625722229586
30
0
41
1
10
-39.6166124378716
20
10.7687612191777
30
0
41
1
10
-39.6575395075941
20
10.7772636291268
30
0
41
1
10
-39.6783643618298
20
10.7794408945151
30
0
41
1
10
-39.7101639225599
20
10.7794855882309
30
0
41
1
10
-39.7209321031875
20
10.7789443970293
30
0
41
1
10
-39.7419563225836
20
10.7768005208152
30
0
41
1
10
-39.7522840997302
20
10.77520530482
30
0
41
1
10
-39.7827430560275
20
10.7689289119737
30
0
41
1
10
-39.8024277232354
20
10.7626810945632
30
0
41
1
10
-39.8385957085368
20
10.7472635831801
30
0
41
1
10
-39.8554967338099
20
10.7379438097402
30
0
41
1
10
-39.8860096805796
20
10.7173097535036
30
0
41
1
10
-39.899725559442
20
10.7059820194332
30
0
41
1
10
-39.9121320343594
20
10.6937840507789
30
0
0
SPLINE
5
1FC
100
AcDbEntity
8
SK1
62
256
6
ByLayer
370
18
48
1
60
0
100
AcDbSpline
70
4
71
3
72
24
73
20
40
0
40
0
40
0
40
0
40
0.124999999999985
40
0.124999999999985
40
0.249999999999971
40
0.249999999999971
40
0.374999999999956
40
0.374999999999956
40
0.499999999999941
40
0.499999999999941
40
0.562499999999934
40
0.562499999999934
40
0.624999999999927
40
0.624999999999927
40
0.749999999999951
40
0.749999999999951
40
0.874999999999975
40
0.874999999999975
40
1
40
1
40
1
40
1
41
1
10
-43.487867965644
20
10.6937840507759
30
0
41
1
10
-43.500258947836
20
10.7059667870792
30
0
41
1
10
-43.5139347518094
20
10.7172591987376
30
0
41
1
10
-43.5442725633012
20
10.737800655265
30
0
41
1
10
-43.561168408528
20
10.7471421560911
30
0
41
1
10
-43.5972686276509
20
10.7625722229586
30
0
41
1
10
-43.6166124378716
20
10.7687612191777
30
0
41
1
10
-43.6575395075941
20
10.7772636291268
30
0
41
1
10
-43.6783643618297
20
10.7794408945151
30
0
41
1
10
-43.7101639225598
20
10.7794855882309
30
0
41
1
10
-43.7209321031875
20
10.7789443970293
30
0
41
1
10
-43.7419563225836
20
10.7768005208152
30
0
41
1
10
-43.7522840997302
20
10.77520530482
30
0
41
1
10
-43.7827430560275
20
10.7689289119737
30
0
41
1
10
-43.8024277232354
20
10.7626810945632
30
0
41
1
10
-43.8385957085368
20
10.7472635831801
30
0
41
1
10
-43.8554967338099
20
10.7379438097402
30
0
41
1
10
-43.8860096805796
20
10.7173097535037
30
0
41
1
10
-43.8997255594421
20
10.7059820194332
30
0
41
1
10
-43.9121320343594
20
10.6937840507789
30
0
0
SPLINE
5
1FD
100
AcDbEntity
8
SK1
62
256
6
ByLayer
370
18
48
1
60
0
100
AcDbSpline
70
4
71
3
72
24
73
20
40
0
40
0
40
0
40
0
40
0.124999999999985
40
0.124999999999985
40
0.249999999999971
40
0.249999999999971
40
0.374999999999956
40
0.374999999999956
40
0.499999999999941
40
0.499999999999941
40
0.562499999999934
40
0.562499999999934
40
0.624999999999927
40
0.624999999999927
40
0.749999999999951
40
0.749999999999951
40
0.874999999999975
40
0.874999999999975
40
1
40
1
40
1
40
1
41
1
10
-47.4878679656441
20
10.6937840507759
30
0
41
1
10
-47.500258947836
20
10.7059667870792
30
0
41
1
10
-47.5139347518094
20
10.7172591987376
30
0
41
1
10
-47.5442725633012
20
10.737800655265
30
0
41
1
10
-47.561168408528
20
10.7471421560911
30
0
41
1
10
-47.5972686276509
20
10.7625722229586
30
0
41
1
10
-47.6166124378716
20
10.7687612191777
30
0
41
1
10
-47.6575395075941
20
10.7772636291268
30
0
41
1
10
-47.6783643618298
20
10.7794408945151
30
0
41
1
10
-47.7101639225598
20
10.7794855882309
30
0
41
1
10
-47.7209321031875
20
10.7789443970293
30
0
41
1
10
-47.7419563225836
20
10.7768005208152
30
0
41
1
10
-47.7522840997302
20
10.77520530482
30
0
41
1
10
-47.7827430560275
20
10.7689289119737
30
0
41
1
10
-47.8024277232354
20
10.7626810945632
30
0
41
1
10
-47.8385957085368
20
10.7472635831801
30
0
41
1
10
-47.8554967338099
20
10.7379438097402
30
0
41
1
10
-47.8860096805796
20
10.7173097535037
30
0
41
1
10
-47.899725559442
20
10.7059820194332
30
0
41
1
10
-47.9121320343594
20
10.6937840507789
30
0
0
SPLINE
5
1FE
100
AcDbEntity
8
SK1
62
256
6
ByLayer
370
18
48
1
60
0
100
AcDbSpline
70
4
71
3
72
8
73
4
40
0
40
0
40
0
40
0
40
1
40
1
40
1
40
1
41
1
10
-54.5
20
-8.06462763384226
30
0
41
1
10
-53.8378258665708
20
-8.38277930917445
30
0
41
1
10
-53.1707488436145
20
-8.69044029844582
30
0
41
1
10
-52.5
20
-8.99024471302087
30
0
0
SPLINE
5
1FF
100
AcDbEntity
8
SK1
62
256
6
ByLayer
370
18
48
1
60
0
100
AcDbSpline
70
4
71
3
72
8
73
4
40
0
40
0
40
0
40
0
40
1
40
1
40
1
40
1
41
1
10
-52.5
20
8.9902447130209
30
0
41
1
10
-53.1707488436136
20
8.69044029844628
30
0
41
1
10
-53.8378258665689
20
8.38277930917536
30
0
41
1
10
-54.4999999999971
20
8.06462763384366
30
0
0
SPLINE
5
200
100
AcDbEntity
8
1
62
256
6
ByLayer
370
18
48
1
60
0
100
AcDbSpline
70
4
71
3
72
12
73
8
40
0
40
0
40
0
40
0
40
0.275696765765799
40
0.275696765765799
40
0.6378483828829
40
0.6378483828829
40
1
40
1
40
1
40
1
41
1
10
88.2831077647052
20
-10.2033854986444
30
0
41
1
10
88.2892895965336
20
-10.2175292684667
30
0
41
1
10
88.2950150914875
20
-10.2315817776273
30
0
41
1
10
88.3071017294411
20
-10.2638548821781
30
0
41
1
10
88.3129474804952
20
-10.2816796727486
30
0
41
1
10
88.3216283001468
20
-10.3156955475608
30
0
41
1
10
88.3245
20
-10.3319833604656
30
0
41
1
10
88.3245
20
-10.3458881962642
30
0
0
SPLINE
5
201
100
AcDbEntity
8
1
62
256
6
ByLayer
370
18
48
1
60
0
100
AcDbSpline
70
4
71
3
72
12
73
8
40
0
40
0
40
0
40
0
40
0.356300697180093
40
0.356300697180093
40
0.712601394360187
40
0.712601394360187
40
1
40
1
40
1
40
1
41
1
10
88.3245
20
10.3458881962642
30
0
41
1
10
88.3245
20
10.3319941671099
30
0
41
1
10
88.3216805955784
20
10.3159343004304
30
0
41
1
10
88.3129783121616
20
10.2817669754766
30
0
41
1
10
88.3071643812385
20
10.2640535429227
30
0
41
1
10
88.2949070164543
20
10.2312684763709
30
0
41
1
10
88.288757512005
20
10.2162795422265
30
0
41
1
10
88.2820999296464
20
10.2011709996409
30
0
0
LINE
5
75
100
AcDbEntity
8
1
62
256
6
ByLayer
370
18
48
1
60
0
100
AcDbLine
10
88.32436
20
5.278175
30
0
11
92.4755
21
5.278175
31
0
39
0
210
0
220
0
230
1
0
LINE
5
77
100
AcDbEntity
8
1
62
256
6
ByLayer
370
18
48
1
60
0
100
AcDbLine
10
97.0855
20
-3.528175
30
0
11
92.6755
21
-3.528175
31
0
39
0
210
0
220
0
230
1
0
LINE
5
78
100
AcDbEntity
8
1
62
256
6
ByLayer
370
18
48
1
60
0
100
AcDbLine
10
92.6755
20
-12.028175
30
0
11
97.0855
21
-12.028175
31
0
39
0
210
0
220
0
230
1
0
LINE
5
79
100
AcDbEntity
8
1
62
256
6
ByLayer
370
18
48
1
60
0
100
AcDbLine
10
92.6755
20
3.528175
30
0
11
97.0855
21
3.528175
31
0
39
0
210
0
220
0
230
1
0
LINE
5
7A
100
AcDbEntity
8
1
62
256
6
ByLayer
370
18
48
1
60
0
100
AcDbLine
10
97.0855
20
12.028175
30
0
11
92.6755
21
12.028175
31
0
39
0
210
0
220
0
230
1
0
LINE
5
7B
100
AcDbEntity
8
1
62
256
6
ByLayer
370
18
48
1
60
0
100
AcDbLine
10
92.4755
20
10.278175
30
0
11
88.309634
21
10.278175
31
0
39
0
210
0
220
0
230
1
0
LINE
5
7C
100
AcDbEntity
8
1
62
256
6
ByLayer
370
18
48
1
60
0
100
AcDbLine
10
92.4755
20
-5.278175
30
0
11
88.32436
21
-5.278175
31
0
39
0
210
0
220
0
230
1
0
LINE
5
7D
100
AcDbEntity
8
1
62
256
6
ByLayer
370
18
48
1
60
0
100
AcDbLine
10
87.3245
20
16
30
0
11
24
21
16
31
0
39
0
210
0
220
0
230
1
0
LINE
5
7E
100
AcDbEntity
8
1
62
256
6
ByLayer
370
18
48
1
60
0
100
AcDbLine
10
24
20
-16
30
0
11
87.3245
21
-16
31
0
39
0
210
0
220
0
230
1
0
LINE
5
7F
100
AcDbEntity
8
1
62
256
6
ByLayer
370
18
48
1
60
0
100
AcDbLine
10
87.521894
20
15.802606
30
0
11
87.3245
21
16
31
0
39
0
210
0
220
0
230
1
0
LINE
5
80
100
AcDbEntity
8
1
62
256
6
ByLayer
370
18
48
1
60
0
100
AcDbLine
10
87.3245
20
-16
30
0
11
87.521894
21
-15.802606
31
0
39
0
210
0
220
0
230
1
0
LINE
5
81
100
AcDbEntity
8
1
62
256
6
ByLayer
370
18
48
1
60
0
100
AcDbLine
10
0
20
-33.5
30
0
11
0.5
21
-34
31
0
39
0
210
0
220
0
230
1
0
LINE
5
82
100
AcDbEntity
8
1
62
256
6
ByLayer
370
18
48
1
60
0
100
AcDbLine
10
0.5
20
34
30
0
11
0
21
33.5
31
0
39
0
210
0
220
0
230
1
0
LINE
5
83
100
AcDbEntity
8
1
62
256
6
ByLayer
370
18
48
1
60
0
100
AcDbLine
10
0.5
20
-34
30
0
11
10.510695
21
-34
31
0
39
0
210
0
220
0
230
1
0
LINE
5
84
100
AcDbEntity
8
1
62
256
6
ByLayer
370
18
48
1
60
0
100
AcDbLine
10
17.5
20
-34
30
0
11
20
21
-34
31
0
39
0
210
0
220
0
230
1
0
LINE
5
85
100
AcDbEntity
8
1
62
256
6
ByLayer
370
18
48
1
60
0
100
AcDbLine
10
20
20
34
30
0
11
0.5
21
34
31
0
39
0
210
0
220
0
230
1
0
LINE
5
86
100
AcDbEntity
8
1
62
256
6
ByLayer
370
18
48
1
60
0
100
AcDbLine
10
88.309989
20
-10.278175
30
0
11
92.4755
21
-10.278175
31
0
39
0
210
0
220
0
230
1
0
LINE
5
87
100
AcDbEntity
8
SK1
62
256
6
ByLayer
370
18
48
1
60
0
100
AcDbLine
10
-2.4
20
14.99675
30
0
11
-52.5
21
14.99675
31
0
39
0
210
0
220
0
230
1
0
LINE
5
89
100
AcDbEntity
8
SK1
62
256
6
ByLayer
370
18
48
1
60
0
100
AcDbLine
10
-52.5
20
-14.99675
30
0
11
-2.4
21
-14.99675
31
0
39
0
210
0
220
0
230
1
0
LINE
5
8A
100
AcDbEntity
8
SK1
62
256
6
ByLayer
370
18
48
1
60
0
100
AcDbLine
10
-2.4
20
-14.99675
30
0
11
-0.741138
21
-14.552259
31
0
39
0
210
0
220
0
230
1
0
LINE
5
8B
100
AcDbEntity
8
SK1
62
256
6
ByLayer
370
18
48
1
60
0
100
AcDbLine
10
-0.741138
20
14.552259
30
0
11
-2.4
21
14.99675
31
0
39
0
210
0
220
0
230
1
0
LINE
5
8C
100
AcDbEntity
8
SK1
62
256
6
ByLayer
370
18
48
1
60
0
100
AcDbLine
10
-0.534083
20
-14.525
30
0
11
-0.35
21
-14.525
31
0
39
0
210
0
220
0
230
1
0
LINE
5
8D
100
AcDbEntity
8
SK1
62
256
6
ByLayer
370
18
48
1
60
0
100
AcDbLine
10
-0.35
20
14.525
30
0
11
-0.534083
21
14.525
31
0
39
0
210
0
220
0
230
1
0
LINE
5
8E
100
AcDbEntity
8
SK1
62
256
6
ByLayer
370
18
48
1
60
0
100
AcDbLine
10
-52.5
20
14.99675
30
0
11
-55
21
14.326877
31
0
39
0
210
0
220
0
230
1
0
LINE
5
8F
100
AcDbEntity
8
SK1
62
256
6
ByLayer
370
18
48
1
60
0
100
AcDbLine
10
-55
20
-14.326877
30
0
11
-52.5
21
-14.99675
31
0
39
0
210
0
220
0
230
1
0
LINE
5
90
100
AcDbEntity
8
80
62
256
6
ByLayer
370
18
48
1
60
0
100
AcDbLine
10
0
20
0
30
0
11
-5
21
0
31
0
39
0
210
0
220
0
230
1
0
LINE
5
91
100
AcDbEntity
8
81
62
256
6
ByLayer
370
18
48
1
60
0
100
AcDbLine
10
88
20
0
30
0
11
93
21
0
31
0
39
0
210
0
220
0
230
1
0
LINE
5
92
100
AcDbEntity
8
4
62
256
6
ByLayer
370
18
48
0.05
60
0
100
AcDbLine
10
0
20
0
30
0
11
88
21
0
31
0
39
0
210
0
220
0
230
1
0
LINE
5
94
100
AcDbEntity
8
SK4
62
256
6
ByLayer
370
18
48
0.05
60
0
100
AcDbLine
10
-5
20
0
30
0
11
93
21
0
31
0
39
0
210
0
220
0
230
1
0
LINE
5
96
100
AcDbEntity
8
1
62
256
6
ByLayer
370
18
48
1
60
0
100
AcDbLine
10
88.3245
20
14.497219
30
0
11
88.3245
21
14.088558
31
0
39
0
210
0
220
0
230
1
0
LINE
5
97
100
AcDbEntity
8
1
62
256
6
ByLayer
370
18
48
1
60
0
100
AcDbLine
10
88.3245
20
14.814605
30
0
11
88.3245
21
14.549342
31
0
39
0
210
0
220
0
230
1
0
LINE
5
98
100
AcDbEntity
8
SK1
62
256
6
ByLayer
370
18
48
1
60
0
100
AcDbLine
10
-17.99868
20
8.990245
30
0
11
-17.99868
21
-8.990245
31
0
39
0
210
0
220
0
230
1
0
LINE
5
99
100
AcDbEntity
8
SK1
62
256
6
ByLayer
370
18
48
1
60
0
100
AcDbLine
10
-17.40132
20
8.990245
30
0
11
-17.40132
21
-8.990245
31
0
39
0
210
0
220
0
230
1
0
LINE
5
9A
100
AcDbEntity
8
SK1
62
256
6
ByLayer
370
18
48
1
60
0
100
AcDbLine
10
-9.99868
20
8.990245
30
0
11
-9.99868
21
-8.990245
31
0
39
0
210
0
220
0
230
1
0
LINE
5
9B
100
AcDbEntity
8
SK1
62
256
6
ByLayer
370
18
48
1
60
0
100
AcDbLine
10
-55
20
14.326877
30
0
11
-55
21
8.540178
31
0
39
0
210
0
220
0
230
1
0
LINE
5
9C
100
AcDbEntity
8
SK1
62
256
6
ByLayer
370
18
48
1
60
0
100
AcDbLine
10
-55
20
-8.540178
30
0
11
-55
21
-14.326877
31
0
39
0
210
0
220
0
230
1
0
LINE
5
9D
100
AcDbEntity
8
1
62
256
6
ByLayer
370
18
48
1
60
0
100
AcDbLine
10
88.3245
20
-14.845261
30
0
11
88.3245
21
-14.975837
31
0
39
0
210
0
220
0
230
1
0
LINE
5
9E
100
AcDbEntity
8
1
62
256
6
ByLayer
370
18
48
1
60
0
100
AcDbLine
10
88.3245
20
14.975837
30
0
11
88.3245
21
14.845261
31
0
39
0
210
0
220
0
230
1
0
LINE
5
9F
100
AcDbEntity
8
1
62
256
6
ByLayer
370
18
48
1
60
0
100
AcDbLine
10
16
20
-14.735941
30
0
11
16
21
-10.264059
31
0
39
0
210
0
220
0
230
1
0
LINE
5
A0
100
AcDbEntity
8
1
62
256
6
ByLayer
370
18
48
1
60
0
100
AcDbLine
10
88.3245
20
-11.484691
30
0
11
88.3245
21
-12.46033
31
0
39
0
210
0
220
0
230
1
0
LINE
5
A1
100
AcDbEntity
8
1
62
256
6
ByLayer
370
18
48
1
60
0
100
AcDbLine
10
20
20
-19.287302
30
0
11
0.5
21
-19.287302
31
0
39
0
210
0
220
0
230
1
0
LINE
5
A2
100
AcDbEntity
8
1
62
256
6
ByLayer
370
18
48
1
60
0
100
AcDbLine
10
88.3245
20
-12.593438
30
0
11
88.3245
21
-13.344025
31
0
39
0
210
0
220
0
230
1
0
LINE
5
A3
100
AcDbEntity
8
1
62
256
6
ByLayer
370
18
48
1
60
0
100
AcDbLine
10
20
20
-19.287302
30
0
11
20
21
-34
31
0
39
0
210
0
220
0
230
1
0
LINE
5
A4
100
AcDbEntity
8
1
62
256
6
ByLayer
370
18
48
1
60
0
100
AcDbLine
10
20
20
34
30
0
11
20
21
19.287302
31
0
39
0
210
0
220
0
230
1
0
LINE
5
A5
100
AcDbEntity
8
1
62
256
6
ByLayer
370
18
48
1
60
0
100
AcDbLine
10
0
20
33.5
30
0
11
0
21
19.131126
31
0
39
0
210
0
220
0
230
1
0
LINE
5
A6
100
AcDbEntity
8
1
62
256
6
ByLayer
370
18
48
1
60
0
100
AcDbLine
10
0
20
-19.131126
30
0
11
0
21
-33.5
31
0
39
0
210
0
220
0
230
1
0
LINE
5
A7
100
AcDbEntity
8
1
62
256
6
ByLayer
370
18
48
1
60
0
100
AcDbLine
10
0
20
-19.131126
30
0
11
0
21
19.131126
31
0
39
0
210
0
220
0
230
1
0
LINE
5
A8
100
AcDbEntity
8
1
62
256
6
ByLayer
370
18
48
1
60
0
100
AcDbLine
10
0.5
20
19.287302
30
0
11
20
21
19.287302
31
0
39
0
210
0
220
0
230
1
0
LINE
5
A9
100
AcDbEntity
8
SK1
62
256
6
ByLayer
370
18
48
1
60
0
100
AcDbLine
10
-52.5
20
-8.990245
30
0
11
-52.5
21
-14.99675
31
0
39
0
210
0
220
0
230
1
0
LINE
5
AA
100
AcDbEntity
8
SK1
62
256
6
ByLayer
370
18
48
1
60
0
100
AcDbLine
10
-52.5
20
14.99675
30
0
11
-52.5
21
8.990245
31
0
39
0
210
0
220
0
230
1
0
LINE
5
AB
100
AcDbEntity
8
1
62
256
6
ByLayer
370
18
48
1
60
0
100
AcDbLine
10
0.5
20
-19.287302
30
0
11
0.5
21
-34
31
0
39
0
210
0
220
0
230
1
0
LINE
5
AC
100
AcDbEntity
8
1
62
256
6
ByLayer
370
18
48
1
60
0
100
AcDbLine
10
0.5
20
34
30
0
11
0.5
21
19.287302
31
0
39
0
210
0
220
0
230
1
0
LINE
5
AD
100
AcDbEntity
8
1
62
256
6
ByLayer
370
13
48
1
60
0
100
AcDbLine
10
24
20
-16
30
0
11
24
21
16
31
0
39
0
210
0
220
0
230
1
0
LINE
5
AE
100
AcDbEntity
8
1
62
256
6
ByLayer
370
18
48
1
60
0
100
AcDbLine
10
0.5
20
19.287302
30
0
11
0.5
21
-19.287302
31
0
39
0
210
0
220
0
230
1
0
LINE
5
AF
100
AcDbEntity
8
1
62
256
6
ByLayer
370
18
48
1
60
0
100
AcDbLine
10
20
20
19.287302
30
0
11
20
21
-19.287302
31
0
39
0
210
0
220
0
230
1
0
LINE
5
B0
100
AcDbEntity
8
1
62
256
6
ByLayer
370
18
48
1
60
0
100
AcDbLine
10
88.3245
20
-4.364301
30
0
11
88.3245
21
-4.980708
31
0
39
0
210
0
220
0
230
1
0
LINE
5
B1
100
AcDbEntity
8
1
62
256
6
ByLayer
370
18
48
1
60
0
100
AcDbLine
10
88.3245
20
-7.736298
30
0
11
88.3245
21
-8.062523
31
0
39
0
210
0
220
0
230
1
0
LINE
5
B2
100
AcDbEntity
8
1
62
256
6
ByLayer
370
18
48
1
60
0
100
AcDbLine
10
88.3245
20
-9.805788
30
0
11
88.3245
21
-10.034994
31
0
39
0
210
0
220
0
230
1
0
LINE
5
B3
100
AcDbEntity
8
1
62
256
6
ByLayer
370
18
48
1
60
0
100
AcDbLine
10
88.3245
20
-11.311793
30
0
11
88.3245
21
-11.484682
31
0
39
0
210
0
220
0
230
1
0
LINE
5
B4
100
AcDbEntity
8
1
62
256
6
ByLayer
370
18
48
1
60
0
100
AcDbLine
10
88.3245
20
-12.46033
30
0
11
88.3245
21
-12.593441
31
0
39
0
210
0
220
0
230
1
0
LINE
5
B5
100
AcDbEntity
8
1
62
256
6
ByLayer
370
18
48
1
60
0
100
AcDbLine
10
88.3245
20
-13.344025
30
0
11
88.3245
21
-13.445876
31
0
39
0
210
0
220
0
230
1
0
LINE
5
B6
100
AcDbEntity
8
1
62
256
6
ByLayer
370
18
48
1
60
0
100
AcDbLine
10
88.3245
20
-14.013072
30
0
11
88.3245
21
-14.088591
31
0
39
0
210
0
220
0
230
1
0
LINE
5
B7
100
AcDbEntity
8
1
62
256
6
ByLayer
370
18
48
1
60
0
100
AcDbLine
10
88.3245
20
-14.497219
30
0
11
88.3245
21
-14.549406
31
0
39
0
210
0
220
0
230
1
0
LINE
5
B8
100
AcDbEntity
8
SK1
62
256
6
ByLayer
370
18
48
1
60
0
100
AcDbLine
10
-52.5
20
8.990245
30
0
11
-49.40132
21
8.990245
31
0
39
0
210
0
220
0
230
1
0
LINE
5
B9
100
AcDbEntity
8
1
62
256
6
ByLayer
370
18
48
1
60
0
100
AcDbLine
10
88.3245
20
-14.814605
30
0
11
88.3245
21
-14.84527
31
0
39
0
210
0
220
0
230
1
0
LINE
5
BA
100
AcDbEntity
8
1
62
256
6
ByLayer
370
18
48
1
60
0
100
AcDbLine
10
88.3245
20
-14.975837
30
0
11
88.3245
21
-14.985956
31
0
39
0
210
0
220
0
230
1
0
LINE
5
BB
100
AcDbEntity
8
1
62
256
6
ByLayer
370
18
48
1
60
0
100
AcDbLine
10
88.3245
20
14.985956
30
0
11
88.3245
21
14.975837
31
0
39
0
210
0
220
0
230
1
0
LINE
5
BC
100
AcDbEntity
8
1
62
256
6
ByLayer
370
18
48
1
60
0
100
AcDbLine
10
88.3245
20
14.84527
30
0
11
88.3245
21
14.814605
31
0
39
0
210
0
220
0
230
1
0
LINE
5
BD
100
AcDbEntity
8
1
62
256
6
ByLayer
370
18
48
1
60
0
100
AcDbLine
10
88.3245
20
14.549406
30
0
11
88.3245
21
14.497219
31
0
39
0
210
0
220
0
230
1
0
LINE
5
BE
100
AcDbEntity
8
1
62
256
6
ByLayer
370
18
48
1
60
0
100
AcDbLine
10
88.3245
20
14.088591
30
0
11
88.3245
21
14.013072
31
0
39
0
210
0
220
0
230
1
0
LINE
5
BF
100
AcDbEntity
8
1
62
256
6
ByLayer
370
18
48
1
60
0
100
AcDbLine
10
88.3245
20
13.445876
30
0
11
88.3245
21
13.344025
31
0
39
0
210
0
220
0
230
1
0
LINE
5
C0
100
AcDbEntity
8
1
62
256
6
ByLayer
370
18
48
1
60
0
100
AcDbLine
10
88.3245
20
12.593441
30
0
11
88.3245
21
12.46033
31
0
39
0
210
0
220
0
230
1
0
LINE
5
C1
100
AcDbEntity
8
1
62
256
6
ByLayer
370
18
48
1
60
0
100
AcDbLine
10
88.3245
20
11.484682
30
0
11
88.3245
21
11.311793
31
0
39
0
210
0
220
0
230
1
0
LINE
5
C2
100
AcDbEntity
8
1
62
256
6
ByLayer
370
18
48
1
60
0
100
AcDbLine
10
88.3245
20
10.034994
30
0
11
88.3245
21
9.805788
31
0
39
0
210
0
220
0
230
1
0
LINE
5
C3
100
AcDbEntity
8
1
62
256
6
ByLayer
370
18
48
1
60
0
100
AcDbLine
10
88.3245
20
8.062523
30
0
11
88.3245
21
7.736298
31
0
39
0
210
0
220
0
230
1
0
LINE
5
C4
100
AcDbEntity
8
1
62
256
6
ByLayer
370
18
48
1
60
0
100
AcDbLine
10
88.3245
20
4.980708
30
0
11
88.3245
21
4.364301
31
0
39
0
210
0
220
0
230
1
0
LINE
5
C5
100
AcDbEntity
8
SK1
62
256
6
ByLayer
370
13
48
1
60
0
100
AcDbLine
10
-0.35
20
-14.525
30
0
11
-0.35
21
14.525
31
0
39
0
210
0
220
0
230
1
0
LINE
5
C6
100
AcDbEntity
8
1
62
256
6
ByLayer
370
13
48
1
60
0
100
AcDbLine
10
87.6055
20
5.146068
30
0
11
87.6055
21
4.20096
31
0
39
0
210
0
220
0
230
1
0
LINE
5
C7
100
AcDbEntity
8
1
62
256
6
ByLayer
370
13
48
1
60
0
100
AcDbLine
10
87.6055
20
-4.20096
30
0
11
87.6055
21
-5.146068
31
0
39
0
210
0
220
0
230
1
0
LINE
5
C8
100
AcDbEntity
8
1
62
256
6
ByLayer
370
18
48
1
60
0
100
AcDbLine
10
88.3245
20
-10.278229
30
0
11
88.3245
21
-10.3459
31
0
39
0
210
0
220
0
230
1
0
LINE
5
C9
100
AcDbEntity
8
1
62
256
6
ByLayer
370
18
48
1
60
0
100
AcDbLine
10
88.3245
20
-13.445834
30
0
11
88.3245
21
-14.013072
31
0
39
0
210
0
220
0
230
1
0
LINE
5
CA
100
AcDbEntity
8
1
62
256
6
ByLayer
370
18
48
1
60
0
100
AcDbLine
10
88.3245
20
-14.549342
30
0
11
88.3245
21
-14.814605
31
0
39
0
210
0
220
0
230
1
0
LINE
5
CB
100
AcDbEntity
8
SK1
62
256
6
ByLayer
370
18
48
1
60
0
100
AcDbLine
10
-2.4
20
-14.99675
30
0
11
-2.4
21
14.99675
31
0
39
0
210
0
220
0
230
1
0
LINE
5
CC
100
AcDbEntity
8
SK1
62
256
6
ByLayer
370
18
48
1
60
0
100
AcDbLine
10
-45.40132
20
-8.990245
30
0
11
-45.99868
21
-8.990245
31
0
39
0
210
0
220
0
230
1
0
LINE
5
CD
100
AcDbEntity
8
SK1
62
256
6
ByLayer
370
18
48
1
60
0
100
AcDbLine
10
-41.40132
20
-8.990245
30
0
11
-41.99868
21
-8.990245
31
0
39
0
210
0
220
0
230
1
0
LINE
5
CE
100
AcDbEntity
8
SK1
62
256
6
ByLayer
370
18
48
1
60
0
100
AcDbLine
10
-37.40132
20
-8.990245
30
0
11
-37.99868
21
-8.990245
31
0
39
0
210
0
220
0
230
1
0
LINE
5
CF
100
AcDbEntity
8
SK1
62
256
6
ByLayer
370
18
48
1
60
0
100
AcDbLine
10
-33.40132
20
-8.990245
30
0
11
-33.99868
21
-8.990245
31
0
39
0
210
0
220
0
230
1
0
LINE
5
D0
100
AcDbEntity
8
SK1
62
256
6
ByLayer
370
18
48
1
60
0
100
AcDbLine
10
-29.40132
20
-8.990245
30
0
11
-29.99868
21
-8.990245
31
0
39
0
210
0
220
0
230
1
0
LINE
5
D1
100
AcDbEntity
8
SK1
62
256
6
ByLayer
370
18
48
1
60
0
100
AcDbLine
10
-25.40132
20
-8.990245
30
0
11
-25.99868
21
-8.990245
31
0
39
0
210
0
220
0
230
1
0
LINE
5
D2
100
AcDbEntity
8
SK1
62
256
6
ByLayer
370
18
48
1
60
0
100
AcDbLine
10
-21.40132
20
-8.990245
30
0
11
-21.99868
21
-8.990245
31
0
39
0
210
0
220
0
230
1
0
LINE
5
D3
100
AcDbEntity
8
SK1
62
256
6
ByLayer
370
18
48
1
60
0
100
AcDbLine
10
-17.40132
20
-8.990245
30
0
11
-17.99868
21
-8.990245
31
0
39
0
210
0
220
0
230
1
0
LINE
5
D4
100
AcDbEntity
8
SK1
62
256
6
ByLayer
370
18
48
1
60
0
100
AcDbLine
10
-13.40132
20
-8.990245
30
0
11
-13.99868
21
-8.990245
31
0
39
0
210
0
220
0
230
1
0
LINE
5
D5
100
AcDbEntity
8
SK1
62
256
6
ByLayer
370
18
48
1
60
0
100
AcDbLine
10
-7
20
-8.990245
30
0
11
-9.99868
21
-8.990245
31
0
39
0
210
0
220
0
230
1
0
LINE
5
D6
100
AcDbEntity
8
SK1
62
256
6
ByLayer
370
18
48
1
60
0
100
AcDbLine
10
-7
20
8.990245
30
0
11
-7
21
-8.990245
31
0
39
0
210
0
220
0
230
1
0
LINE
5
D7
100
AcDbEntity
8
SK1
62
256
6
ByLayer
370
18
48
1
60
0
100
AcDbLine
10
-9.99868
20
8.990245
30
0
11
-7
21
8.990245
31
0
39
0
210
0
220
0
230
1
0
LINE
5
D8
100
AcDbEntity
8
SK1
62
256
6
ByLayer
370
18
48
1
60
0
100
AcDbLine
10
-13.99868
20
8.990245
30
0
11
-13.40132
21
8.990245
31
0
39
0
210
0
220
0
230
1
0
LINE
5
D9
100
AcDbEntity
8
SK1
62
256
6
ByLayer
370
18
48
1
60
0
100
AcDbLine
10
-17.99868
20
8.990245
30
0
11
-17.40132
21
8.990245
31
0
39
0
210
0
220
0
230
1
0
LINE
5
DA
100
AcDbEntity
8
SK1
62
256
6
ByLayer
370
18
48
1
60
0
100
AcDbLine
10
-21.99868
20
8.990245
30
0
11
-21.40132
21
8.990245
31
0
39
0
210
0
220
0
230
1
0
LINE
5
DB
100
AcDbEntity
8
SK1
62
256
6
ByLayer
370
18
48
1
60
0
100
AcDbLine
10
-25.99868
20
8.990245
30
0
11
-25.40132
21
8.990245
31
0
39
0
210
0
220
0
230
1
0
LINE
5
DC
100
AcDbEntity
8
SK1
62
256
6
ByLayer
370
18
48
1
60
0
100
AcDbLine
10
-29.99868
20
8.990245
30
0
11
-29.40132
21
8.990245
31
0
39
0
210
0
220
0
230
1
0
LINE
5
DD
100
AcDbEntity
8
SK1
62
256
6
ByLayer
370
18
48
1
60
0
100
AcDbLine
10
-33.99868
20
8.990245
30
0
11
-33.40132
21
8.990245
31
0
39
0
210
0
220
0
230
1
0
LINE
5
DE
100
AcDbEntity
8
SK1
62
256
6
ByLayer
370
18
48
1
60
0
100
AcDbLine
10
-37.99868
20
8.990245
30
0
11
-37.40132
21
8.990245
31
0
39
0
210
0
220
0
230
1
0
LINE
5
DF
100
AcDbEntity
8
SK1
62
256
6
ByLayer
370
18
48
1
60
0
100
AcDbLine
10
-41.99868
20
8.990245
30
0
11
-41.40132
21
8.990245
31
0
39
0
210
0
220
0
230
1
0
LINE
5
E0
100
AcDbEntity
8
SK1
62
256
6
ByLayer
370
18
48
1
60
0
100
AcDbLine
10
-45.99868
20
8.990245
30
0
11
-45.40132
21
8.990245
31
0
39
0
210
0
220
0
230
1
0
LINE
5
E1
100
AcDbEntity
8
1
62
256
6
ByLayer
370
18
48
1
60
0
100
AcDbLine
10
88.3245
20
13.344025
30
0
11
88.3245
21
12.593438
31
0
39
0
210
0
220
0
230
1
0
LINE
5
E2
100
AcDbEntity
8
SK1
62
256
6
ByLayer
370
13
48
1
60
0
100
AcDbLine
10
-0.741138
20
-14.552259
30
0
11
-0.741138
21
14.552259
31
0
39
0
210
0
220
0
230
1
0
LINE
5
E3
100
AcDbEntity
8
1
62
256
6
ByLayer
370
13
48
1
60
0
100
AcDbLine
10
88.2495
20
-4.190151
30
0
11
88.2495
21
4.190151
31
0
39
0
210
0
220
0
230
1
0
LINE
5
E4
100
AcDbEntity
8
SK1
62
256
6
ByLayer
370
13
48
1
60
0
100
AcDbLine
10
-0.534083
20
-14.525
30
0
11
-0.534083
21
14.525
31
0
39
0
210
0
220
0
230
1
0
LINE
5
E5
100
AcDbEntity
8
1
62
256
6
ByLayer
370
13
48
1
60
0
100
AcDbLine
10
87.6055
20
8.293994
30
0
11
87.6055
21
7.799983
31
0
39
0
210
0
220
0
230
1
0
LINE
5
E6
100
AcDbEntity
8
1
62
256
6
ByLayer
370
13
48
1
60
0
100
AcDbLine
10
87.6055
20
-7.799983
30
0
11
87.6055
21
-8.293994
31
0
39
0
210
0
220
0
230
1
0
LINE
5
E7
100
AcDbEntity
8
1
62
256
6
ByLayer
370
13
48
1
60
0
100
AcDbLine
10
88.2495
20
-7.664871
30
0
11
88.2495
21
-5.54266
31
0
39
0
210
0
220
0
230
1
0
LINE
5
E8
100
AcDbEntity
8
1
62
256
6
ByLayer
370
13
48
1
60
0
100
AcDbLine
10
88.2495
20
5.54266
30
0
11
88.2495
21
7.664871
31
0
39
0
210
0
220
0
230
1
0
LINE
5
E9
100
AcDbEntity
8
1
62
256
6
ByLayer
370
13
48
1
60
0
100
AcDbLine
10
87.6055
20
10.324663
30
0
11
87.6055
21
9.976528
31
0
39
0
210
0
220
0
230
1
0
LINE
5
EA
100
AcDbEntity
8
1
62
256
6
ByLayer
370
13
48
1
60
0
100
AcDbLine
10
87.6055
20
-9.976528
30
0
11
87.6055
21
-10.324663
31
0
39
0
210
0
220
0
230
1
0
LINE
5
EB
100
AcDbEntity
8
1
62
256
6
ByLayer
370
18
48
1
60
0
100
AcDbLine
10
87.3245
20
16
30
0
11
87.3245
21
-16
31
0
39
0
210
0
220
0
230
1
0
LINE
5
EC
100
AcDbEntity
8
SK1
62
256
6
ByLayer
370
18
48
1
60
0
100
AcDbLine
10
-54.5
20
8.064628
30
0
11
-54.5
21
-8.064628
31
0
39
0
210
0
220
0
230
1
0
LINE
5
ED
100
AcDbEntity
8
SK1
62
256
6
ByLayer
370
18
48
1
60
0
100
AcDbLine
10
-49.40132
20
8.990245
30
0
11
-49.40132
21
-8.990245
31
0
39
0
210
0
220
0
230
1
0
LINE
5
EE
100
AcDbEntity
8
SK1
62
256
6
ByLayer
370
13
48
1
60
0
100
AcDbLine
10
-47.912132
20
-10.693784
30
0
11
-47.912132
21
10.693784
31
0
39
0
210
0
220
0
230
1
0
LINE
5
EF
100
AcDbEntity
8
SK1
62
256
6
ByLayer
370
13
48
1
60
0
100
AcDbLine
10
-39.912132
20
-10.693784
30
0
11
-39.912132
21
10.693784
31
0
39
0
210
0
220
0
230
1
0
LINE
5
F0
100
AcDbEntity
8
1
62
256
6
ByLayer
370
18
48
1
60
0
100
AcDbLine
10
88.3245
20
14.013072
30
0
11
88.3245
21
13.445834
31
0
39
0
210
0
220
0
230
1
0
LINE
5
F1
100
AcDbEntity
8
1
62
256
6
ByLayer
370
18
48
1
60
0
100
AcDbLine
10
88.3245
20
10.3459
30
0
11
88.3245
21
10.278229
31
0
39
0
210
0
220
0
230
1
0
LINE
5
F2
100
AcDbEntity
8
SK1
62
256
6
ByLayer
370
13
48
1
60
0
100
AcDbLine
10
-47.487868
20
-10.693784
30
0
11
-47.487868
21
10.693784
31
0
39
0
210
0
220
0
230
1
0
LINE
5
F3
100
AcDbEntity
8
SK1
62
256
6
ByLayer
370
18
48
1
60
0
100
AcDbLine
10
-55
20
-8.540178
30
0
11
-55
21
8.540178
31
0
39
0
210
0
220
0
230
1
0
LINE
5
F4
100
AcDbEntity
8
SK1
62
256
6
ByLayer
370
13
48
1
60
0
100
AcDbLine
10
-39.487868
20
-10.693784
30
0
11
-39.487868
21
10.693784
31
0
39
0
210
0
220
0
230
1
0
LINE
5
F5
100
AcDbEntity
8
SK1
62
256
6
ByLayer
370
18
48
1
60
0
100
AcDbLine
10
-41.40132
20
8.990245
30
0
11
-41.40132
21
-8.990245
31
0
39
0
210
0
220
0
230
1
0
LINE
5
F6
100
AcDbEntity
8
SK1
62
256
6
ByLayer
370
13
48
1
60
0
100
AcDbLine
10
-35.912132
20
-10.693784
30
0
11
-35.912132
21
10.693784
31
0
39
0
210
0
220
0
230
1
0
LINE
5
F7
100
AcDbEntity
8
SK1
62
256
6
ByLayer
370
13
48
1
60
0
100
AcDbLine
10
-43.487868
20
-10.693784
30
0
11
-43.487868
21
10.693784
31
0
39
0
210
0
220
0
230
1
0
LINE
5
F8
100
AcDbEntity
8
SK1
62
256
6
ByLayer
370
13
48
1
60
0
100
AcDbLine
10
-43.912132
20
-10.693784
30
0
11
-43.912132
21
10.693784
31
0
39
0
210
0
220
0
230
1
0
LINE
5
F9
100
AcDbEntity
8
SK1
62
256
6
ByLayer
370
18
48
1
60
0
100
AcDbLine
10
-37.40132
20
8.990245
30
0
11
-37.40132
21
-8.990245
31
0
39
0
210
0
220
0
230
1
0
LINE
5
FA
100
AcDbEntity
8
SK1
62
256
6
ByLayer
370
13
48
1
60
0
100
AcDbLine
10
-27.487868
20
-10.693784
30
0
11
-27.487868
21
10.693784
31
0
39
0
210
0
220
0
230
1
0
LINE
5
FB
100
AcDbEntity
8
SK1
62
256
6
ByLayer
370
18
48
1
60
0
100
AcDbLine
10
-37.99868
20
-8.990245
30
0
11
-37.99868
21
8.990245
31
0
39
0
210
0
220
0
230
1
0
LINE
5
FC
100
AcDbEntity
8
SK1
62
256
6
ByLayer
370
13
48
1
60
0
100
AcDbLine
10
-35.487868
20
-10.693784
30
0
11
-35.487868
21
10.693784
31
0
39
0
210
0
220
0
230
1
0
LINE
5
FD
100
AcDbEntity
8
SK1
62
256
6
ByLayer
370
13
48
1
60
0
100
AcDbLine
10
-31.912132
20
-10.693784
30
0
11
-31.912132
21
10.693784
31
0
39
0
210
0
220
0
230
1
0
LINE
5
FE
100
AcDbEntity
8
SK1
62
256
6
ByLayer
370
18
48
1
60
0
100
AcDbLine
10
-41.99868
20
-8.990245
30
0
11
-41.99868
21
8.990245
31
0
39
0
210
0
220
0
230
1
0
LINE
5
FF
100
AcDbEntity
8
SK1
62
256
6
ByLayer
370
18
48
1
60
0
100
AcDbLine
10
-25.99868
20
8.990245
30
0
11
-25.99868
21
-8.990245
31
0
39
0
210
0
220
0
230
1
0
LINE
5
100
100
AcDbEntity
8
SK1
62
256
6
ByLayer
370
13
48
1
60
0
100
AcDbLine
10
-31.487868
20
-10.693784
30
0
11
-31.487868
21
10.693784
31
0
39
0
210
0
220
0
230
1
0
LINE
5
101
100
AcDbEntity
8
SK1
62
256
6
ByLayer
370
13
48
1
60
0
100
AcDbLine
10
-27.912132
20
-10.693784
30
0
11
-27.912132
21
10.693784
31
0
39
0
210
0
220
0
230
1
0
LINE
5
102
100
AcDbEntity
8
SK1
62
256
6
ByLayer
370
18
48
1
60
0
100
AcDbLine
10
-45.99868
20
-8.990245
30
0
11
-45.99868
21
8.990245
31
0
39
0
210
0
220
0
230
1
0
LINE
5
103
100
AcDbEntity
8
SK1
62
256
6
ByLayer
370
13
48
1
60
0
100
AcDbLine
10
-23.912132
20
-10.693784
30
0
11
-23.912132
21
10.693784
31
0
39
0
210
0
220
0
230
1
0
LINE
5
104
100
AcDbEntity
8
SK1
62
256
6
ByLayer
370
18
48
1
60
0
100
AcDbLine
10
-33.40132
20
8.990245
30
0
11
-33.40132
21
-8.990245
31
0
39
0
210
0
220
0
230
1
0
LINE
5
105
100
AcDbEntity
8
SK1
62
256
6
ByLayer
370
13
48
1
60
0
100
AcDbLine
10
-19.912132
20
-10.693784
30
0
11
-19.912132
21
10.693784
31
0
39
0
210
0
220
0
230
1
0
LINE
5
106
100
AcDbEntity
8
SK1
62
256
6
ByLayer
370
18
48
1
60
0
100
AcDbLine
10
-25.40132
20
8.990245
30
0
11
-25.40132
21
-8.990245
31
0
39
0
210
0
220
0
230
1
0
LINE
5
107
100
AcDbEntity
8
SK1
62
256
6
ByLayer
370
18
48
1
60
0
100
AcDbLine
10
-45.40132
20
8.990245
30
0
11
-45.40132
21
-8.990245
31
0
39
0
210
0
220
0
230
1
0
LINE
5
108
100
AcDbEntity
8
SK1
62
256
6
ByLayer
370
18
48
1
60
0
100
AcDbLine
10
-29.40132
20
8.990245
30
0
11
-29.40132
21
-8.990245
31
0
39
0
210
0
220
0
230
1
0
LINE
5
109
100
AcDbEntity
8
SK1
62
256
6
ByLayer
370
18
48
1
60
0
100
AcDbLine
10
-21.40132
20
8.990245
30
0
11
-21.40132
21
-8.990245
31
0
39
0
210
0
220
0
230
1
0
LINE
5
10A
100
AcDbEntity
8
SK1
62
256
6
ByLayer
370
18
48
1
60
0
100
AcDbLine
10
-13.99868
20
8.990245
30
0
11
-13.99868
21
-8.990245
31
0
39
0
210
0
220
0
230
1
0
LINE
5
10B
100
AcDbEntity
8
SK1
62
256
6
ByLayer
370
13
48
1
60
0
100
AcDbLine
10
-15.487868
20
-10.693784
30
0
11
-15.487868
21
10.693784
31
0
39
0
210
0
220
0
230
1
0
LINE
5
10C
100
AcDbEntity
8
SK1
62
256
6
ByLayer
370
13
48
1
60
0
100
AcDbLine
10
-19.487868
20
-10.693784
30
0
11
-19.487868
21
10.693784
31
0
39
0
210
0
220
0
230
1
0
LINE
5
10D
100
AcDbEntity
8
SK1
62
256
6
ByLayer
370
13
48
1
60
0
100
AcDbLine
10
-15.912132
20
-10.693784
30
0
11
-15.912132
21
10.693784
31
0
39
0
210
0
220
0
230
1
0
LINE
5
10E
100
AcDbEntity
8
SK1
62
256
6
ByLayer
370
13
48
1
60
0
100
AcDbLine
10
-11.912132
20
-10.693784
30
0
11
-11.912132
21
10.693784
31
0
39
0
210
0
220
0
230
1
0
LINE
5
10F
100
AcDbEntity
8
SK1
62
256
6
ByLayer
370
18
48
1
60
0
100
AcDbLine
10
-29.99868
20
-8.990245
30
0
11
-29.99868
21
8.990245
31
0
39
0
210
0
220
0
230
1
0
LINE
5
110
100
AcDbEntity
8
SK1
62
256
6
ByLayer
370
13
48
1
60
0
100
AcDbLine
10
-23.487868
20
-10.693784
30
0
11
-23.487868
21
10.693784
31
0
39
0
210
0
220
0
230
1
0
LINE
5
111
100
AcDbEntity
8
SK1
62
256
6
ByLayer
370
18
48
1
60
0
100
AcDbLine
10
-21.99868
20
8.990245
30
0
11
-21.99868
21
-8.990245
31
0
39
0
210
0
220
0
230
1
0
LINE
5
112
100
AcDbEntity
8
SK1
62
256
6
ByLayer
370
13
48
1
60
0
100
AcDbLine
10
-11.487868
20
-10.693784
30
0
11
-11.487868
21
10.693784
31
0
39
0
210
0
220
0
230
1
0
LINE
5
113
100
AcDbEntity
8
1
62
256
6
ByLayer
370
13
48
1
60
0
100
AcDbLine
10
88.2495
20
-9.7695
30
0
11
88.2495
21
-8.398107
31
0
39
0
210
0
220
0
230
1
0
LINE
5
114
100
AcDbEntity
8
1
62
256
6
ByLayer
370
13
48
1
60
0
100
AcDbLine
10
88.2495
20
8.398107
30
0
11
88.2495
21
9.7695
31
0
39
0
210
0
220
0
230
1
0
LINE
5
115
100
AcDbEntity
8
SK1
62
256
6
ByLayer
370
18
48
1
60
0
100
AcDbLine
10
-33.99868
20
-8.990245
30
0
11
-33.99868
21
8.990245
31
0
39
0
210
0
220
0
230
1
0
LINE
5
116
100
AcDbEntity
8
SK1
62
256
6
ByLayer
370
18
48
1
60
0
100
AcDbLine
10
-13.40132
20
8.990245
30
0
11
-13.40132
21
-8.990245
31
0
39
0
210
0
220
0
230
1
0
LINE
5
117
100
AcDbEntity
8
1
62
256
6
ByLayer
370
13
48
1
60
0
100
AcDbLine
10
87.6055
20
-11.563846
30
0
11
87.6055
21
-11.828229
31
0
39
0
210
0
220
0
230
1
0
LINE
5
118
100
AcDbEntity
8
1
62
256
6
ByLayer
370
13
48
1
60
0
100
AcDbLine
10
88.2495
20
-11.297611
30
0
11
88.2495
21
-10.287691
31
0
39
0
210
0
220
0
230
1
0
LINE
5
119
100
AcDbEntity
8
1
62
256
6
ByLayer
370
13
48
1
60
0
100
AcDbLine
10
87.6055
20
11.828229
30
0
11
87.6055
21
11.563846
31
0
39
0
210
0
220
0
230
1
0
LINE
5
11A
100
AcDbEntity
8
1
62
256
6
ByLayer
370
13
48
1
60
0
100
AcDbLine
10
88.2495
20
10.287691
30
0
11
88.2495
21
11.297611
31
0
39
0
210
0
220
0
230
1
0
LINE
5
11B
100
AcDbEntity
8
1
62
256
6
ByLayer
370
18
48
1
60
0
100
AcDbLine
10
88.3245
20
4.364301
30
0
11
88.3245
21
-4.364301
31
0
39
0
210
0
220
0
230
1
0
LINE
5
11C
100
AcDbEntity
8
1
62
256
6
ByLayer
370
18
48
1
60
0
100
AcDbLine
10
88.3245
20
7.736298
30
0
11
88.3245
21
4.980483
31
0
39
0
210
0
220
0
230
1
0
LINE
5
11D
100
AcDbEntity
8
1
62
256
6
ByLayer
370
18
48
1
60
0
100
AcDbLine
10
88.3245
20
-4.980483
30
0
11
88.3245
21
-7.736298
31
0
39
0
210
0
220
0
230
1
0
LINE
5
11E
100
AcDbEntity
8
1
62
256
6
ByLayer
370
13
48
1
60
0
100
AcDbLine
10
87.6055
20
12.989046
30
0
11
87.6055
21
12.78336
31
0
39
0
210
0
220
0
230
1
0
LINE
5
11F
100
AcDbEntity
8
1
62
256
6
ByLayer
370
13
48
1
60
0
100
AcDbLine
10
87.6055
20
-12.78336
30
0
11
87.6055
21
-12.989046
31
0
39
0
210
0
220
0
230
1
0
LINE
5
120
100
AcDbEntity
8
1
62
256
6
ByLayer
370
13
48
1
60
0
100
AcDbLine
10
88.2495
20
-12.463102
30
0
11
88.2495
21
-11.689484
31
0
39
0
210
0
220
0
230
1
0
LINE
5
121
100
AcDbEntity
8
1
62
256
6
ByLayer
370
13
48
1
60
0
100
AcDbLine
10
88.2495
20
11.689484
30
0
11
88.2495
21
12.463102
31
0
39
0
210
0
220
0
230
1
0
LINE
5
122
100
AcDbEntity
8
1
62
256
6
ByLayer
370
18
48
1
60
0
100
AcDbLine
10
88.3245
20
9.805788
30
0
11
88.3245
21
8.062503
31
0
39
0
210
0
220
0
230
1
0
LINE
5
123
100
AcDbEntity
8
1
62
256
6
ByLayer
370
18
48
1
60
0
100
AcDbLine
10
88.3245
20
-8.062503
30
0
11
88.3245
21
-9.805788
31
0
39
0
210
0
220
0
230
1
0
LINE
5
124
100
AcDbEntity
8
1
62
256
6
ByLayer
370
13
48
1
60
0
100
AcDbLine
10
87.6055
20
13.893295
30
0
11
87.6055
21
13.733396
31
0
39
0
210
0
220
0
230
1
0
LINE
5
125
100
AcDbEntity
8
1
62
256
6
ByLayer
370
13
48
1
60
0
100
AcDbLine
10
87.6055
20
-13.733396
30
0
11
87.6055
21
-13.893295
31
0
39
0
210
0
220
0
230
1
0
LINE
5
126
100
AcDbEntity
8
1
62
256
6
ByLayer
370
13
48
1
60
0
100
AcDbLine
10
88.2495
20
12.765188
30
0
11
88.2495
21
13.361205
31
0
39
0
210
0
220
0
230
1
0
LINE
5
127
100
AcDbEntity
8
1
62
256
6
ByLayer
370
13
48
1
60
0
100
AcDbLine
10
88.2495
20
-13.361205
30
0
11
88.2495
21
-12.765188
31
0
39
0
210
0
220
0
230
1
0
LINE
5
128
100
AcDbEntity
8
1
62
256
6
ByLayer
370
18
48
1
60
0
100
AcDbLine
10
88.3245
20
-10.345888
30
0
11
88.3245
21
-11.311793
31
0
39
0
210
0
220
0
230
1
0
LINE
5
129
100
AcDbEntity
8
1
62
256
6
ByLayer
370
13
48
1
60
0
100
AcDbLine
10
87.6055
20
-14.467117
30
0
11
87.6055
21
-14.588762
31
0
39
0
210
0
220
0
230
1
0
LINE
5
12A
100
AcDbEntity
8
1
62
256
6
ByLayer
370
13
48
1
60
0
100
AcDbLine
10
87.6055
20
14.588762
30
0
11
87.6055
21
14.467117
31
0
39
0
210
0
220
0
230
1
0
LINE
5
12B
100
AcDbEntity
8
1
62
256
6
ByLayer
370
13
48
1
60
0
100
AcDbLine
10
88.2495
20
13.592505
30
0
11
88.2495
21
14.043314
31
0
39
0
210
0
220
0
230
1
0
LINE
5
12C
100
AcDbEntity
8
1
62
256
6
ByLayer
370
13
48
1
60
0
100
AcDbLine
10
88.2495
20
-14.043314
30
0
11
88.2495
21
-13.592505
31
0
39
0
210
0
220
0
230
1
0
LINE
5
12D
100
AcDbEntity
8
1
62
256
6
ByLayer
370
18
48
1
60
0
100
AcDbLine
10
88.3245
20
12.46033
30
0
11
88.3245
21
11.484691
31
0
39
0
210
0
220
0
230
1
0
LINE
5
12E
100
AcDbEntity
8
SK1
62
256
6
ByLayer
370
18
48
1
60
0
100
AcDbLine
10
-49.40132
20
-8.990245
30
0
11
-52.5
21
-8.990245
31
0
39
0
210
0
220
0
230
1
0
LINE
5
12F
100
AcDbEntity
8
1
62
256
6
ByLayer
370
18
48
1
60
0
100
AcDbLine
10
88.3245
20
11.311793
30
0
11
88.3245
21
10.345888
31
0
39
0
210
0
220
0
230
1
0
LINE
5
130
100
AcDbEntity
8
1
62
256
6
ByLayer
370
13
48
1
60
0
100
AcDbLine
10
87.6055
20
15.104314
30
0
11
87.6055
21
15.016235
31
0
39
0
210
0
220
0
230
1
0
LINE
5
131
100
AcDbEntity
8
1
62
256
6
ByLayer
370
13
48
1
60
0
100
AcDbLine
10
87.6055
20
-15.016235
30
0
11
87.6055
21
-15.104314
31
0
39
0
210
0
220
0
230
1
0
LINE
5
132
100
AcDbEntity
8
1
62
256
6
ByLayer
370
13
48
1
60
0
100
AcDbLine
10
88.2495
20
-14.539861
30
0
11
88.2495
21
-14.214869
31
0
39
0
210
0
220
0
230
1
0
LINE
5
133
100
AcDbEntity
8
1
62
256
6
ByLayer
370
13
48
1
60
0
100
AcDbLine
10
88.2495
20
14.214869
30
0
11
88.2495
21
14.539861
31
0
39
0
210
0
220
0
230
1
0
LINE
5
134
100
AcDbEntity
8
1
62
256
6
ByLayer
370
18
48
1
60
0
100
AcDbLine
10
88.3245
20
-14.088558
30
0
11
88.3245
21
-14.497219
31
0
39
0
210
0
220
0
230
1
0
LINE
5
135
100
AcDbEntity
8
1
62
256
6
ByLayer
370
13
48
1
60
0
100
AcDbLine
10
87.6055
20
15.457963
30
0
11
87.6055
21
15.400639
31
0
39
0
210
0
220
0
230
1
0
LINE
5
136
100
AcDbEntity
8
1
62
256
6
ByLayer
370
13
48
1
60
0
100
AcDbLine
10
87.6055
20
-15.400639
30
0
11
87.6055
21
-15.457963
31
0
39
0
210
0
220
0
230
1
0
LINE
5
137
100
AcDbEntity
8
1
62
256
6
ByLayer
370
13
48
1
60
0
100
AcDbLine
10
88.2495
20
14.658425
30
0
11
88.2495
21
14.869447
31
0
39
0
210
0
220
0
230
1
0
LINE
5
138
100
AcDbEntity
8
1
62
256
6
ByLayer
370
13
48
1
60
0
100
AcDbLine
10
88.2495
20
-14.869447
30
0
11
88.2495
21
-14.658425
31
0
39
0
210
0
220
0
230
1
0
LINE
5
139
100
AcDbEntity
8
1
62
256
6
ByLayer
370
13
48
1
60
0
100
AcDbLine
10
87.6055
20
-15.632398
30
0
11
87.6055
21
-15.660682
31
0
39
0
210
0
220
0
230
1
0
LINE
5
13A
100
AcDbEntity
8
1
62
256
6
ByLayer
370
13
48
1
60
0
100
AcDbLine
10
87.6055
20
15.660682
30
0
11
87.6055
21
15.632398
31
0
39
0
210
0
220
0
230
1
0
LINE
5
13B
100
AcDbEntity
8
1
62
256
6
ByLayer
370
13
48
1
60
0
100
AcDbLine
10
88.2495
20
-15.04305
30
0
11
88.2495
21
-14.939166
31
0
39
0
210
0
220
0
230
1
0
LINE
5
13C
100
AcDbEntity
8
1
62
256
6
ByLayer
370
13
48
1
60
0
100
AcDbLine
10
88.2495
20
14.939166
30
0
11
88.2495
21
15.04305
31
0
39
0
210
0
220
0
230
1
0
LINE
5
13D
100
AcDbEntity
8
1
62
256
6
ByLayer
370
13
48
1
60
0
100
AcDbLine
10
97.0855
20
12.028175
30
0
11
97.0855
21
3.528175
31
0
39
0
210
0
220
0
230
1
0
LINE
5
13E
100
AcDbEntity
8
1
62
256
6
ByLayer
370
18
48
1
60
0
100
AcDbLine
10
97.5855
20
11.528175
30
0
11
97.5855
21
4.028175
31
0
39
0
210
0
220
0
230
1
0
LINE
5
13F
100
AcDbEntity
8
1
62
256
6
ByLayer
370
13
48
1
60
0
100
AcDbLine
10
92.4755
20
10.278175
30
0
11
92.4755
21
5.278175
31
0
39
0
210
0
220
0
230
1
0
LINE
5
140
100
AcDbEntity
8
1
62
256
6
ByLayer
370
18
48
1
60
0
100
AcDbLine
10
92.6755
20
12.028175
30
0
11
92.6755
21
3.528175
31
0
39
0
210
0
220
0
230
1
0
LINE
5
141
100
AcDbEntity
8
1
62
256
6
ByLayer
370
13
48
1
60
0
100
AcDbLine
10
97.0855
20
-3.528175
30
0
11
97.0855
21
-12.028175
31
0
39
0
210
0
220
0
230
1
0
LINE
5
142
100
AcDbEntity
8
1
62
256
6
ByLayer
370
18
48
1
60
0
100
AcDbLine
10
92.6755
20
-12.028175
30
0
11
92.6755
21
-3.528175
31
0
39
0
210
0
220
0
230
1
0
LINE
5
143
100
AcDbEntity
8
1
62
256
6
ByLayer
370
13
48
1
60
0
100
AcDbLine
10
92.4755
20
-5.278175
30
0
11
92.4755
21
-10.278175
31
0
39
0
210
0
220
0
230
1
0
LINE
5
144
100
AcDbEntity
8
1
62
256
6
ByLayer
370
18
48
1
60
0
100
AcDbLine
10
97.5855
20
-11.528175
30
0
11
97.5855
21
-4.028175
31
0
39
0
210
0
220
0
230
1
0
MTEXT
5
202
100
AcDbEntity
8
SK6
62
256
6
ByLayer
370
18
48
1
60
0
100
AcDbMText
10
0.875
20
43.125134
30
0
210
0
220
0
230
1
1
\W0.7733;VDI30-32-SL32N 088
40
3.5
41
0
44
1.084337
50
0
71
7
72
5
7
iso_b_vert
0
DIMENSION
5
20F
100
AcDbEntity
8
SK2
62
256
6
ByLayer
370
13
48
1
60
0
100
AcDbDimension
2
DimnDraft3D1
10
88
20
-44.1
30
0
11
51.708534
21
-44.1
31
0
70
32
71
5
72
1
41
1
210
0
220
0
230
1
3
Standard
100
AcDbAlignedDimension
13
24
23
-17.5875
33
0
14
88
24
-17.5875
34
0
50
0
100
AcDbRotatedDimension
1001
ACAD
1000
DSTYLE
1002
{
1070
   279
1070
     0
1070
   172
1070
     1
1070
   173
1070
     1
1070
   340
1005
203
1070
   271
1070
     2
1070
   272
1070
     2
1070
    77
1070
     1
1070
    73
1070
     0
1070
   171
1070
     3
1070
   274
1070
     4
1070
   177
1070
     2
1070
   176
1070
     2
1070
   178
1070
     2
1070
    78
1070
     8
1070
    48
1040
-0.005
1070
    41
1041
3.5
1070
   147
1041
1.75
1070
    42
1041
1.5875
1070
    44
1041
2.0
1070
   140
1041
3.5
1070
   343
1005
0
1070
   344
1005
0
1002
}
0
DIMENSION
5
21A
100
AcDbEntity
8
2
62
256
6
ByLayer
370
13
48
1
60
0
100
AcDbDimension
2
DimnDraft3D2
10
88
20
-54.1
30
0
11
39.892801
21
-54.1
31
0
70
32
71
5
72
1
41
1
210
0
220
0
230
1
3
Standard
100
AcDbAlignedDimension
13
0
23
-35.5875
33
0
14
88
24
-17.5875
34
0
50
0
100
AcDbRotatedDimension
1001
ACAD
1000
DSTYLE
1002
{
1070
   279
1070
     0
1070
   172
1070
     1
1070
   173
1070
     1
1070
   340
1005
203
1070
   271
1070
     2
1070
   272
1070
     2
1070
    77
1070
     1
1070
    73
1070
     0
1070
   171
1070
     3
1070
   274
1070
     4
1070
   177
1070
     2
1070
   176
1070
     2
1070
   178
1070
     2
1070
    78
1070
     8
1070
    48
1040
-0.005
1070
    41
1041
3.5
1070
   147
1041
1.75
1070
    42
1041
1.5875
1070
    44
1041
2.0
1070
   140
1041
3.5
1070
   343
1005
0
1070
   344
1005
0
1002
}
0
DIMENSION
5
225
100
AcDbEntity
8
SK2
62
256
6
ByLayer
370
13
48
1
60
0
100
AcDbDimension
2
DimnDraft3D3
10
-73.6
20
-34
30
0
11
-74.225
21
2.284534
31
0
70
33
71
5
72
1
41
1
210
0
220
0
230
1
3
Standard
100
AcDbAlignedDimension
13
-1.5875
23
34
33
0
14
-1.5875
24
-34
34
0
1001
ACAD
1000
DSTYLE
1002
{
1070
   279
1070
     0
1070
    74
1070
     0
1070
   173
1070
     1
1070
   340
1005
203
1070
   271
1070
     2
1070
   272
1070
     2
1070
    77
1070
     1
1070
    73
1070
     0
1070
   171
1070
     3
1070
   274
1070
     4
1070
   177
1070
     2
1070
   176
1070
     2
1070
   178
1070
     2
1070
    78
1070
     8
1070
    48
1040
-0.005
1070
    41
1041
3.5
1070
   147
1041
1.75
1070
    42
1041
1.5875
1070
    44
1041
2.0
1070
   140
1041
3.5
1070
   343
1005
0
1070
   344
1005
0
1002
}
0
DIMENSION
5
230
100
AcDbEntity
8
SK2
62
256
6
ByLayer
370
13
48
1
60
0
100
AcDbDimension
2
DimnDraft3D4
10
109.895319
20
-16
30
0
11
105.270319
21
2.284534
31
0
70
33
71
5
72
1
41
1
210
0
220
0
230
1
3
Standard
100
AcDbAlignedDimension
13
89.5875
23
16
33
0
14
89.5875
24
-16
34
0
1001
ACAD
1000
DSTYLE
1002
{
1070
   279
1070
     0
1070
    74
1070
     0
1070
   173
1070
     1
1070
   340
1005
203
1070
   271
1070
     2
1070
   272
1070
     2
1070
    77
1070
     1
1070
    73
1070
     0
1070
   171
1070
     3
1070
   274
1070
     4
1070
   177
1070
     2
1070
   176
1070
     2
1070
   178
1070
     2
1070
    78
1070
     8
1070
    48
1040
-0.005
1070
    41
1041
3.5
1070
   147
1041
1.75
1070
    42
1041
1.5875
1070
    44
1041
2.0
1070
   140
1041
3.5
1070
   343
1005
0
1070
   344
1005
0
1002
}
0
ENDSEC
0
SECTION
2
OBJECTS
0
DICTIONARY
5
29b
330
0
100
AcDbDictionary
280
0
281
1
3
ACAD_GROUP
350
29c
3
ACAD_MLINESTYLE
350
29d
0
DICTIONARY
5
29c
330
0
100
AcDbDictionary
280
0
281
1
0
DICTIONARY
5
29d
330
0
100
AcDbDictionary
280
0
281
1
3
Standard
350
18
0
MLINESTYLE
5
18
330
29d
100
AcDbMlineStyle
2
Standard
70
0
3

62
256
51
90
52
90
71
2
49
-0.5
62
256
6
ByLayer
49
0.5
62
256
6
ByLayer
0
RASTERVARIABLES
5
289
330

100
AcDbRasterVariables
90
0
70
1
71
1
72
1
0
ENDSEC
0
EOF
