0
SECTION
2
HEADER
9
$ACADVER
1
AC1015
9
$DWGCODEPAGE
3
ANSI_1252
9
$HANDSEED
5
285
9
$ANGBASE
50
0
9
$ANGDIR
70
0
9
$ATTMODE
70
1
9
$AUNITS
70
0
9
$AUPREC
70
0
9
$CECOLOR
62
256
9
$CELTSCALE
40
1
9
$CELTYPE
6
ByLayer
9
$CELWEIGHT
370
18
9
$CLAYER
8
0
9
$CMLJUST
70
0
9
$CMLSCALE
40
1
9
$CMLSTYLE
2
Standard
9
$DIMSTYLE
2
Standard
9
$TEXTSIZE
40
0.2
9
$TEXTSTYLE
7
Standard
9
$LUNITS
70
2
9
$LUPREC
70
4
9
$EXTNAMES
290
1
9
$INSUNITS
70
4
9
$LTSCALE
40
1
9
$LWDISPLAY
290
1
9
$PDMODE
70
0
9
$PDSIZE
40
0
9
$PLINEGEN
70
0
0
ENDSEC
0
SECTION
2
CLASSES
0
CLASS
1
RASTERVARIABLES
2
AcDbRasterVariables
3
ISM
90
0
280
0
281
0
0
ENDSEC
0
SECTION
2
TABLES
0
TABLE
2
VPORT
5
27b
100
AcDbSymbolTable
0
VPORT
5
1
100
AcDbSymbolTableRecord
100
AcDbViewportTableRecord
2
*Active
70
0
10
0
20
0
11
1
21
1
12
-1
22
1
13
0
23
0
14
0.5
24
0.5
15
10
25
10
16
0
26
0
36
1
17
0
27
0
37
0
0
ENDTAB
0
TABLE
2
LTYPE
5
27c
100
AcDbSymbolTable
0
LTYPE
5
14
100
AcDbSymbolTableRecord
100
AcDbLinetypeTableRecord
70
0
2
ByBlock
3

72
65
73
0
40
0
0
LTYPE
5
15
100
AcDbSymbolTableRecord
100
AcDbLinetypeTableRecord
70
0
2
ByLayer
3

72
65
73
0
40
0
0
LTYPE
5
16
100
AcDbSymbolTableRecord
100
AcDbLinetypeTableRecord
70
0
2
Continuous
3
Solid line
72
65
73
0
40
0
0
LTYPE
5
6E
100
AcDbSymbolTableRecord
100
AcDbLinetypeTableRecord
70
0
2
CENTER
3
____ _ ____ _ ____ _ ____
72
65
73
4
40
47.5
49
22
74
0
49
-8.5
74
0
49
8.5
74
0
49
-8.5
74
0
0
LTYPE
5
6F
100
AcDbSymbolTableRecord
100
AcDbLinetypeTableRecord
70
0
2
DASHED
3
__ __ __ __ __ __ __ __ __
72
65
73
2
40
25.72
49
12.86
74
0
49
-12.86
74
0
0
ENDTAB
0
TABLE
2
LAYER
5
27d
100
AcDbSymbolTable
0
LAYER
5
10
100
AcDbSymbolTableRecord
100
AcDbLayerTableRecord
2
0
70
0
62
7
6
Continuous
290
1
370
-3
390
0
0
LAYER
5
71
100
AcDbSymbolTableRecord
100
AcDbLayerTableRecord
2
81
70
0
62
-3
6
Continuous
290
1
370
-3
390
0
0
LAYER
5
73
100
AcDbSymbolTableRecord
100
AcDbLayerTableRecord
2
80
70
0
62
-6
6
Continuous
290
1
370
-3
390
0
0
LAYER
5
77
100
AcDbSymbolTableRecord
100
AcDbLayerTableRecord
2
1
70
0
62
4
6
Continuous
290
1
370
-3
390
0
0
LAYER
5
84
100
AcDbSymbolTableRecord
100
AcDbLayerTableRecord
2
4
70
0
62
-2
6
CENTER
290
1
370
-3
390
0
0
LAYER
5
CC
100
AcDbSymbolTableRecord
100
AcDbLayerTableRecord
2
2
70
0
62
7
6
Continuous
290
1
370
-3
390
0
0
LAYER
5
1A9
100
AcDbSymbolTableRecord
100
AcDbLayerTableRecord
2
Defpoints
70
0
62
7
6
Continuous
290
0
370
-3
390
0
0
LAYER
5
267
100
AcDbSymbolTableRecord
100
AcDbLayerTableRecord
2
SK4
70
0
62
2
6
CENTER
290
1
370
-3
390
0
0
LAYER
5
268
100
AcDbSymbolTableRecord
100
AcDbLayerTableRecord
2
SK1
70
0
62
4
6
Continuous
290
1
370
-3
390
0
0
LAYER
5
269
100
AcDbSymbolTableRecord
100
AcDbLayerTableRecord
2
SK2
70
0
62
7
6
Continuous
290
1
370
-3
390
0
0
LAYER
5
26a
100
AcDbSymbolTableRecord
100
AcDbLayerTableRecord
2
SK6
70
0
62
5
6
Continuous
290
1
370
-3
390
0
0
ENDTAB
0
TABLE
2
STYLE
5
27e
100
AcDbSymbolTable
0
STYLE
5
11
100
AcDbSymbolTableRecord
100
AcDbTextStyleTableRecord
2
Standard
3
txt
70
0
71
0
40
0
41
1
42
0
50
0
0
STYLE
5
184
100
AcDbSymbolTableRecord
100
AcDbTextStyleTableRecord
2
iso_b_vert
3
simplex.shx
70
0
71
0
40
0
41
1
42
0
50
0
0
STYLE
5
185
100
AcDbSymbolTableRecord
100
AcDbTextStyleTableRecord
2
DWGDirectTextStyle
3
simplex
70
0
71
0
40
0
41
1
42
0
50
0
0
ENDTAB
0
TABLE
2
DIMSTYLE
5
27f
100
AcDbSymbolTable
100
AcDbDimStyleTable
0
DIMSTYLE
105
27
100
AcDbSymbolTableRecord
100
AcDbDimStyleTableRecord
2
Standard
70
0
3
<>
41
0.18
42
0.0625
44
0.18
140
0.18
147
0.09
73
0
74
0
77
1
271
2
275
0
278
52
280
0
340
11
0
ENDTAB
0
TABLE
2
VIEW
5
280
100
AcDbSymbolTable
0
ENDTAB
0
TABLE
2
UCS
5
281
100
AcDbSymbolTable
0
ENDTAB
0
TABLE
2
APPID
5
282
100
AcDbSymbolTable
0
APPID
5
12
100
AcDbSymbolTableRecord
100
AcDbRegAppTableRecord
2
ACAD
70
0
0
APPID
5
1A5
100
AcDbSymbolTableRecord
100
AcDbRegAppTableRecord
2
ACAD_DSTYLE_DIMBREAK
70
0
0
APPID
5
226
100
AcDbSymbolTableRecord
100
AcDbRegAppTableRecord
2
ACAD_DSTYLE_DIM_LINETYPE
70
0
0
APPID
5
227
100
AcDbSymbolTableRecord
100
AcDbRegAppTableRecord
2
ACAD_DSTYLE_DIM_EXT1_LINETYPE
70
0
0
APPID
5
228
100
AcDbSymbolTableRecord
100
AcDbRegAppTableRecord
2
ACAD_DSTYLE_DIM_EXT2_LINETYPE
70
0
0
APPID
5
263
100
AcDbSymbolTableRecord
100
AcDbRegAppTableRecord
2
ACAD_MLEADERVER
70
0
0
ENDTAB
0
TABLE
2
BLOCK_RECORD
5
283
100
AcDbSymbolTable
0
BLOCK_RECORD
5
1F
100
AcDbSymbolTableRecord
100
AcDbBlockTableRecord
2
*Model_Space
340
0
70
0
0
BLOCK_RECORD
5
1B
100
AcDbSymbolTableRecord
100
AcDbBlockTableRecord
2
*Paper_Space
340
0
70
0
0
BLOCK_RECORD
5
23
100
AcDbSymbolTableRecord
100
AcDbBlockTableRecord
2
*Paper_Space0
340
0
70
0
0
BLOCK_RECORD
5
1AA
100
AcDbSymbolTableRecord
100
AcDbBlockTableRecord
2
*D1
340
0
70
0
0
BLOCK_RECORD
5
1B6
100
AcDbSymbolTableRecord
100
AcDbBlockTableRecord
2
_U0
340
0
70
0
0
BLOCK_RECORD
5
1C2
100
AcDbSymbolTableRecord
100
AcDbBlockTableRecord
2
*D3
340
0
70
0
0
BLOCK_RECORD
5
1CE
100
AcDbSymbolTableRecord
100
AcDbBlockTableRecord
2
_U1
340
0
70
0
0
BLOCK_RECORD
5
1DA
100
AcDbSymbolTableRecord
100
AcDbBlockTableRecord
2
*D5
340
0
70
0
0
BLOCK_RECORD
5
1E6
100
AcDbSymbolTableRecord
100
AcDbBlockTableRecord
2
_U2
340
0
70
0
0
BLOCK_RECORD
5
1F3
100
AcDbSymbolTableRecord
100
AcDbBlockTableRecord
2
*D7
340
0
70
0
0
BLOCK_RECORD
5
1FF
100
AcDbSymbolTableRecord
100
AcDbBlockTableRecord
2
_U3
340
0
70
0
0
ENDTAB
0
ENDSEC
0
SECTION
2
BLOCKS
0
BLOCK
5
20
100
AcDbEntity
8
0
100
AcDbBlockBegin
2
*Model_Space
70
0
10
0
20
0
30
0
3
*Model_Space
0
ENDBLK
5
21
100
AcDbEntity
8
0
100
AcDbBlockEnd
0
BLOCK
5
1C
100
AcDbEntity
8
0
100
AcDbBlockBegin
2
*Paper_Space
70
0
10
0
20
0
30
0
3
*Paper_Space
0
ENDBLK
5
1D
100
AcDbEntity
8
0
100
AcDbBlockEnd
0
BLOCK
5
24
100
AcDbEntity
8
0
100
AcDbBlockBegin
2
*Paper_Space0
70
0
10
0
20
0
30
0
3
*Paper_Space0
0
ENDBLK
5
25
100
AcDbEntity
8
0
100
AcDbBlockEnd
0
BLOCK
5
1AB
100
AcDbEntity
8
0
100
AcDbBlockBegin
2
*D1
70
1
10
0
20
0
30
0
3
*D1
0
LINE
5
1AD
100
AcDbEntity
8
0
62
256
6
ByLayer
370
-2
48
1
60
0
100
AcDbLine
10
54
20
-11.5875
30
0
11
54
21
-22.245967
31
0
39
0
210
0
220
0
230
1
0
LINE
5
1AE
100
AcDbEntity
8
0
62
256
6
ByLayer
370
-2
48
1
60
0
100
AcDbLine
10
16
20
-11.5875
30
0
11
16
21
-22.245967
31
0
39
0
210
0
220
0
230
1
0
LINE
5
1AF
100
AcDbEntity
8
0
62
256
6
ByLayer
370
-2
48
1
60
0
100
AcDbLine
10
50.5
20
-20.245967
30
0
11
19.5
21
-20.245967
31
0
39
0
210
0
220
0
230
1
0
SOLID
5
1B0
100
AcDbEntity
8
0
62
256
6
ByLayer
370
-1
48
1
60
0
100
AcDbTrace
10
50.5
20
-20.8293
30
0
11
50.5
21
-19.662633
31
0
12
54
22
-20.245967
32
0
13
54
23
-20.245967
33
0
39
0
210
0
220
0
230
1
0
SOLID
5
1B1
100
AcDbEntity
8
0
62
256
6
ByLayer
370
-1
48
1
60
0
100
AcDbTrace
10
19.5
20
-19.662633
30
0
11
19.5
21
-20.8293
31
0
12
16
22
-20.245967
32
0
13
16
23
-20.245967
33
0
39
0
210
0
220
0
230
1
0
MTEXT
5
1B2
100
AcDbEntity
8
0
62
256
6
ByLayer
370
18
48
1
60
0
100
AcDbMText
10
35
20
-13.245967
30
0
210
0
220
0
230
1
1
\A1;38
40
3.5
41
0
44
1
50
0
71
5
72
5
7
iso_b_vert
0
POINT
5
1B3
100
AcDbEntity
8
Defpoints
62
0
6
ByLayer
370
-1
48
1
60
0
100
AcDbPoint
10
54
20
-10
30
0
39
0
210
0
220
0
230
1
50
360
0
POINT
5
1B4
100
AcDbEntity
8
Defpoints
62
0
6
ByLayer
370
-1
48
1
60
0
100
AcDbPoint
10
16
20
-10
30
0
39
0
210
0
220
0
230
1
50
360
0
POINT
5
1B5
100
AcDbEntity
8
Defpoints
62
0
6
ByLayer
370
-1
48
1
60
0
100
AcDbPoint
10
16
20
-20.245967
30
0
39
0
210
0
220
0
230
1
50
360
0
ENDBLK
5
1AC
100
AcDbEntity
8
0
100
AcDbBlockEnd
0
BLOCK
5
1BD
100
AcDbEntity
8
0
100
AcDbBlockBegin
2
_U0
70
0
10
0
20
0
30
0
3
_U0
0
MTEXT
5
1B7
100
AcDbEntity
8
SK2
62
256
6
ByLayer
370
18
48
1
60
0
100
AcDbMText
10
33.095034
20
-19.213333
30
0
210
0
220
0
230
1
1
\W0.6740;38
40
3.5
41
0
44
1.084337
50
0
71
7
72
5
7
iso_b_vert
0
LINE
5
1B8
100
AcDbEntity
8
SK2
62
256
6
ByLayer
370
13
48
1
60
0
100
AcDbLine
10
54
20
-11.5875
30
0
11
54
21
-22.245967
31
0
39
0
210
0
220
0
230
1
0
LINE
5
1B9
100
AcDbEntity
8
SK2
62
256
6
ByLayer
370
13
48
1
60
0
100
AcDbLine
10
16
20
-11.5875
30
0
11
16
21
-22.245967
31
0
39
0
210
0
220
0
230
1
0
LINE
5
1BA
100
AcDbEntity
8
SK2
62
256
6
ByLayer
370
13
48
1
60
0
100
AcDbLine
10
54
20
-20.245967
30
0
11
16
21
-20.245967
31
0
39
0
210
0
220
0
230
1
0
SOLID
5
1BB
100
AcDbEntity
8
SK2
62
256
6
ByLayer
370
18
48
1
60
0
100
AcDbTrace
10
54
20
-20.245967
30
0
11
50.500002
21
-20.70675
31
0
12
50.499998
22
-19.785183
32
0
13
50.499998
23
-19.785183
33
0
39
0
210
0
220
0
230
1
0
SOLID
5
1BC
100
AcDbEntity
8
SK2
62
256
6
ByLayer
370
18
48
1
60
0
100
AcDbTrace
10
16
20
-20.245967
30
0
11
19.499998
21
-19.785183
31
0
12
19.500002
22
-20.70675
32
0
13
19.500002
23
-20.70675
33
0
39
0
210
0
220
0
230
1
0
ENDBLK
5
1BE
100
AcDbEntity
8
0
100
AcDbBlockEnd
0
BLOCK
5
1C3
100
AcDbEntity
8
0
100
AcDbBlockBegin
2
*D3
70
1
10
0
20
0
30
0
3
*D3
0
LINE
5
1C5
100
AcDbEntity
8
0
62
256
6
ByLayer
370
-2
48
1
60
0
100
AcDbLine
10
54
20
-11.5875
30
0
11
54
21
-35.245967
31
0
39
0
210
0
220
0
230
1
0
LINE
5
1C6
100
AcDbEntity
8
0
62
256
6
ByLayer
370
-2
48
1
60
0
100
AcDbLine
10
2
20
-11.5875
30
0
11
2
21
-35.245967
31
0
39
0
210
0
220
0
230
1
0
LINE
5
1C7
100
AcDbEntity
8
0
62
256
6
ByLayer
370
-2
48
1
60
0
100
AcDbLine
10
50.5
20
-33.245967
30
0
11
5.5
21
-33.245967
31
0
39
0
210
0
220
0
230
1
0
SOLID
5
1C8
100
AcDbEntity
8
0
62
256
6
ByLayer
370
-1
48
1
60
0
100
AcDbTrace
10
50.5
20
-33.8293
30
0
11
50.5
21
-32.662633
31
0
12
54
22
-33.245967
32
0
13
54
23
-33.245967
33
0
39
0
210
0
220
0
230
1
0
SOLID
5
1C9
100
AcDbEntity
8
0
62
256
6
ByLayer
370
-1
48
1
60
0
100
AcDbTrace
10
5.5
20
-32.662633
30
0
11
5.5
21
-33.8293
31
0
12
2
22
-33.245967
32
0
13
2
23
-33.245967
33
0
39
0
210
0
220
0
230
1
0
MTEXT
5
1CA
100
AcDbEntity
8
0
62
256
6
ByLayer
370
18
48
1
60
0
100
AcDbMText
10
28
20
-26.245967
30
0
210
0
220
0
230
1
1
\A1;52
40
3.5
41
0
44
1
50
0
71
5
72
5
7
iso_b_vert
0
POINT
5
1CB
100
AcDbEntity
8
Defpoints
62
0
6
ByLayer
370
-1
48
1
60
0
100
AcDbPoint
10
54
20
-10
30
0
39
0
210
0
220
0
230
1
50
360
0
POINT
5
1CC
100
AcDbEntity
8
Defpoints
62
0
6
ByLayer
370
-1
48
1
60
0
100
AcDbPoint
10
2
20
-10
30
0
39
0
210
0
220
0
230
1
50
360
0
POINT
5
1CD
100
AcDbEntity
8
Defpoints
62
0
6
ByLayer
370
-1
48
1
60
0
100
AcDbPoint
10
2
20
-33.245967
30
0
39
0
210
0
220
0
230
1
50
360
0
ENDBLK
5
1C4
100
AcDbEntity
8
0
100
AcDbBlockEnd
0
BLOCK
5
1D5
100
AcDbEntity
8
0
100
AcDbBlockBegin
2
_U1
70
0
10
0
20
0
30
0
3
_U1
0
MTEXT
5
1CF
100
AcDbEntity
8
SK2
62
256
6
ByLayer
370
18
48
1
60
0
100
AcDbMText
10
26.095034
20
-32.213333
30
0
210
0
220
0
230
1
1
\W0.6740;52
40
3.5
41
0
44
1.084337
50
0
71
7
72
5
7
iso_b_vert
0
LINE
5
1D0
100
AcDbEntity
8
SK2
62
256
6
ByLayer
370
13
48
1
60
0
100
AcDbLine
10
54
20
-11.5875
30
0
11
54
21
-35.245967
31
0
39
0
210
0
220
0
230
1
0
LINE
5
1D1
100
AcDbEntity
8
SK2
62
256
6
ByLayer
370
13
48
1
60
0
100
AcDbLine
10
2
20
-11.5875
30
0
11
2
21
-35.245967
31
0
39
0
210
0
220
0
230
1
0
LINE
5
1D2
100
AcDbEntity
8
SK2
62
256
6
ByLayer
370
13
48
1
60
0
100
AcDbLine
10
54
20
-33.245967
30
0
11
2
21
-33.245967
31
0
39
0
210
0
220
0
230
1
0
SOLID
5
1D3
100
AcDbEntity
8
SK2
62
256
6
ByLayer
370
18
48
1
60
0
100
AcDbTrace
10
54
20
-33.245967
30
0
11
50.500002
21
-33.70675
31
0
12
50.499998
22
-32.785183
32
0
13
50.499998
23
-32.785183
33
0
39
0
210
0
220
0
230
1
0
SOLID
5
1D4
100
AcDbEntity
8
SK2
62
256
6
ByLayer
370
18
48
1
60
0
100
AcDbTrace
10
2
20
-33.245967
30
0
11
5.499998
21
-32.785183
31
0
12
5.500002
22
-33.70675
32
0
13
5.500002
23
-33.70675
33
0
39
0
210
0
220
0
230
1
0
ENDBLK
5
1D6
100
AcDbEntity
8
0
100
AcDbBlockEnd
0
BLOCK
5
1DB
100
AcDbEntity
8
0
100
AcDbBlockBegin
2
*D5
70
1
10
0
20
0
30
0
3
*D5
0
LINE
5
1DD
100
AcDbEntity
8
0
62
256
6
ByLayer
370
-2
48
1
60
0
100
AcDbLine
10
54
20
11.5875
30
0
11
54
21
22.022297
31
0
39
0
210
0
220
0
230
1
0
LINE
5
1DE
100
AcDbEntity
8
0
62
256
6
ByLayer
370
-2
48
1
60
0
100
AcDbLine
10
34
20
11.5875
30
0
11
34
21
22.022297
31
0
39
0
210
0
220
0
230
1
0
LINE
5
1DF
100
AcDbEntity
8
0
62
256
6
ByLayer
370
-2
48
1
60
0
100
AcDbLine
10
50.5
20
20.022297
30
0
11
37.5
21
20.022297
31
0
39
0
210
0
220
0
230
1
0
SOLID
5
1E0
100
AcDbEntity
8
0
62
256
6
ByLayer
370
-1
48
1
60
0
100
AcDbTrace
10
50.5
20
19.438963
30
0
11
50.5
21
20.60563
31
0
12
54
22
20.022297
32
0
13
54
23
20.022297
33
0
39
0
210
0
220
0
230
1
0
SOLID
5
1E1
100
AcDbEntity
8
0
62
256
6
ByLayer
370
-1
48
1
60
0
100
AcDbTrace
10
37.5
20
20.60563
30
0
11
37.5
21
19.438963
31
0
12
34
22
20.022297
32
0
13
34
23
20.022297
33
0
39
0
210
0
220
0
230
1
0
MTEXT
5
1E2
100
AcDbEntity
8
0
62
256
6
ByLayer
370
18
48
1
60
0
100
AcDbMText
10
44
20
27.022297
30
0
210
0
220
0
230
1
1
\A1;20
40
3.5
41
0
44
1
50
0
71
5
72
5
7
iso_b_vert
0
POINT
5
1E3
100
AcDbEntity
8
Defpoints
62
0
6
ByLayer
370
-1
48
1
60
0
100
AcDbPoint
10
54
20
10
30
0
39
0
210
0
220
0
230
1
50
360
0
POINT
5
1E4
100
AcDbEntity
8
Defpoints
62
0
6
ByLayer
370
-1
48
1
60
0
100
AcDbPoint
10
34
20
10
30
0
39
0
210
0
220
0
230
1
50
360
0
POINT
5
1E5
100
AcDbEntity
8
Defpoints
62
0
6
ByLayer
370
-1
48
1
60
0
100
AcDbPoint
10
34
20
20.022297
30
0
39
0
210
0
220
0
230
1
50
360
0
ENDBLK
5
1DC
100
AcDbEntity
8
0
100
AcDbBlockEnd
0
BLOCK
5
1EE
100
AcDbEntity
8
0
100
AcDbBlockBegin
2
_U2
70
0
10
0
20
0
30
0
3
_U2
0
MTEXT
5
1E7
100
AcDbEntity
8
SK2
62
256
6
ByLayer
370
18
48
1
60
0
100
AcDbMText
10
37.287301
20
21.05493
30
0
210
0
220
0
230
1
1
\W0.6740;20
40
3.5
41
0
44
1.084337
50
0
71
7
72
5
7
iso_b_vert
0
MTEXT
5
1E8
100
AcDbEntity
8
SK2
62
256
6
ByLayer
370
18
48
1
60
0
100
AcDbMText
10
44.968233
20
21.05493
30
0
210
0
220
0
230
1
1
\W0.8470;\W0.4235;%%p\W0.8470;2
40
3.5
41
0
44
1.084337
50
0
71
7
72
5
7
iso_b_vert
0
LINE
5
1E9
100
AcDbEntity
8
SK2
62
256
6
ByLayer
370
13
48
1
60
0
100
AcDbLine
10
54
20
11.5875
30
0
11
54
21
22.022297
31
0
39
0
210
0
220
0
230
1
0
LINE
5
1EA
100
AcDbEntity
8
SK2
62
256
6
ByLayer
370
13
48
1
60
0
100
AcDbLine
10
34
20
11.5875
30
0
11
34
21
22.022297
31
0
39
0
210
0
220
0
230
1
0
LINE
5
1EB
100
AcDbEntity
8
SK2
62
256
6
ByLayer
370
13
48
1
60
0
100
AcDbLine
10
54
20
20.022297
30
0
11
34
21
20.022297
31
0
39
0
210
0
220
0
230
1
0
SOLID
5
1EC
100
AcDbEntity
8
SK2
62
256
6
ByLayer
370
18
48
1
60
0
100
AcDbTrace
10
54
20
20.022297
30
0
11
50.500002
21
19.561513
31
0
12
50.499998
22
20.48308
32
0
13
50.499998
23
20.48308
33
0
39
0
210
0
220
0
230
1
0
SOLID
5
1ED
100
AcDbEntity
8
SK2
62
256
6
ByLayer
370
18
48
1
60
0
100
AcDbTrace
10
34
20
20.022297
30
0
11
37.499998
21
20.48308
31
0
12
37.500002
22
19.561513
32
0
13
37.500002
23
19.561513
33
0
39
0
210
0
220
0
230
1
0
ENDBLK
5
1EF
100
AcDbEntity
8
0
100
AcDbBlockEnd
0
BLOCK
5
1F4
100
AcDbEntity
8
0
100
AcDbBlockBegin
2
*D7
70
1
10
0
20
0
30
0
3
*D7
0
LINE
5
1F6
100
AcDbEntity
8
0
62
256
6
ByLayer
370
-2
48
1
60
0
100
AcDbLine
10
-50
20
-11.5875
30
0
11
-50
21
-47.245967
31
0
39
0
210
0
220
0
230
1
0
LINE
5
1F7
100
AcDbEntity
8
0
62
256
6
ByLayer
370
-2
48
1
60
0
100
AcDbLine
10
54
20
-11.5875
30
0
11
54
21
-47.245967
31
0
39
0
210
0
220
0
230
1
0
LINE
5
1F8
100
AcDbEntity
8
0
62
256
6
ByLayer
370
-2
48
1
60
0
100
AcDbLine
10
-46.5
20
-45.245967
30
0
11
50.5
21
-45.245967
31
0
39
0
210
0
220
0
230
1
0
SOLID
5
1F9
100
AcDbEntity
8
0
62
256
6
ByLayer
370
-1
48
1
60
0
100
AcDbTrace
10
-46.5
20
-44.662633
30
0
11
-46.5
21
-45.8293
31
0
12
-50
22
-45.245967
32
0
13
-50
23
-45.245967
33
0
39
0
210
0
220
0
230
1
0
SOLID
5
1FA
100
AcDbEntity
8
0
62
256
6
ByLayer
370
-1
48
1
60
0
100
AcDbTrace
10
50.5
20
-45.8293
30
0
11
50.5
21
-44.662633
31
0
12
54
22
-45.245967
32
0
13
54
23
-45.245967
33
0
39
0
210
0
220
0
230
1
0
MTEXT
5
1FB
100
AcDbEntity
8
0
62
256
6
ByLayer
370
18
48
1
60
0
100
AcDbMText
10
2
20
-38.245967
30
0
210
0
220
0
230
1
1
\A1;104
40
3.5
41
0
44
1
50
0
71
5
72
5
7
iso_b_vert
0
POINT
5
1FC
100
AcDbEntity
8
Defpoints
62
0
6
ByLayer
370
-1
48
1
60
0
100
AcDbPoint
10
-50
20
-10
30
0
39
0
210
0
220
0
230
1
50
360
0
POINT
5
1FD
100
AcDbEntity
8
Defpoints
62
0
6
ByLayer
370
-1
48
1
60
0
100
AcDbPoint
10
54
20
-10
30
0
39
0
210
0
220
0
230
1
50
360
0
POINT
5
1FE
100
AcDbEntity
8
Defpoints
62
0
6
ByLayer
370
-1
48
1
60
0
100
AcDbPoint
10
54
20
-45.245967
30
0
39
0
210
0
220
0
230
1
50
360
0
ENDBLK
5
1F5
100
AcDbEntity
8
0
100
AcDbBlockEnd
0
BLOCK
5
206
100
AcDbEntity
8
0
100
AcDbBlockBegin
2
_U3
70
0
10
0
20
0
30
0
3
_U3
0
MTEXT
5
200
100
AcDbEntity
8
2
62
256
6
ByLayer
370
18
48
1
60
0
100
AcDbMText
10
-0.959533
20
-44.213333
30
0
210
0
220
0
230
1
1
\W0.6506;104
40
3.5
41
0
44
1.084337
50
0
71
7
72
5
7
iso_b_vert
0
LINE
5
201
100
AcDbEntity
8
2
62
256
6
ByLayer
370
13
48
1
60
0
100
AcDbLine
10
-50
20
-11.5875
30
0
11
-50
21
-47.245967
31
0
39
0
210
0
220
0
230
1
0
LINE
5
202
100
AcDbEntity
8
2
62
256
6
ByLayer
370
13
48
1
60
0
100
AcDbLine
10
54
20
-11.5875
30
0
11
54
21
-47.245967
31
0
39
0
210
0
220
0
230
1
0
LINE
5
203
100
AcDbEntity
8
2
62
256
6
ByLayer
370
13
48
1
60
0
100
AcDbLine
10
-50
20
-45.245967
30
0
11
54
21
-45.245967
31
0
39
0
210
0
220
0
230
1
0
SOLID
5
204
100
AcDbEntity
8
2
62
256
6
ByLayer
370
18
48
1
60
0
100
AcDbTrace
10
-50
20
-45.245967
30
0
11
-46.500002
21
-44.785183
31
0
12
-46.499998
22
-45.70675
32
0
13
-46.499998
23
-45.70675
33
0
39
0
210
0
220
0
230
1
0
SOLID
5
205
100
AcDbEntity
8
2
62
256
6
ByLayer
370
18
48
1
60
0
100
AcDbTrace
10
54
20
-45.245967
30
0
11
50.500002
21
-45.70675
31
0
12
50.499998
22
-44.785183
32
0
13
50.499998
23
-44.785183
33
0
39
0
210
0
220
0
230
1
0
ENDBLK
5
207
100
AcDbEntity
8
0
100
AcDbBlockEnd
0
ENDSEC
0
SECTION
2
ENTITIES
0
ARC
5
D5
100
AcDbEntity
8
1
62
256
6
ByLayer
370
18
48
1
60
0
100
AcDbCircle
39
0
10
1.995358
20
11.5
30
0
40
2
210
0
220
0
230
1
100
AcDbArc
50
240
51
270
0
ARC
5
D6
100
AcDbEntity
8
1
62
256
6
ByLayer
370
18
48
1
60
0
100
AcDbCircle
39
0
10
1.995358
20
-11.5
30
0
40
2
210
0
220
0
230
1
100
AcDbArc
50
90
51
120
0
ELLIPSE
5
D7
100
AcDbEntity
8
1
62
256
6
ByLayer
370
18
48
1
60
0
100
AcDbEllipse
10
52.936526
20
0.368028
30
0
11
0.284211925580963
21
1.05635458463074
31
0
210
0
220
0
230
1
40
0.506867
41
2.94754843907995
42
-2.86758379660376
0
ELLIPSE
5
D8
100
AcDbEntity
8
1
62
256
6
ByLayer
370
18
48
1
60
0
100
AcDbEllipse
10
52.098783
20
0
30
0
11
0.885526347067477
21
1.45026489375117
31
0
210
0
220
0
230
1
40
0.432574
41
-2.12413575180445
42
-1.75390240404256
0
ELLIPSE
5
D9
100
AcDbEntity
8
1
62
256
6
ByLayer
370
18
48
1
60
0
100
AcDbEllipse
10
52.936526
20
-0.368028
30
0
11
0.284211925563727
21
-1.05635458455915
31
0
210
0
220
0
230
1
40
0.506867
41
3.00846026346439
42
-2.94754843907432
0
ELLIPSE
5
DA
100
AcDbEntity
8
1
62
256
6
ByLayer
370
18
48
1
60
0
100
AcDbEllipse
10
52.913179
20
-1.260407
30
0
11
0.421209809256939
21
-1.19586578751531
31
0
210
0
220
0
230
1
40
0.354386
41
-1.6371212890067
42
-1.08929125386079
0
ELLIPSE
5
DB
100
AcDbEntity
8
1
62
256
6
ByLayer
370
18
48
1
60
0
100
AcDbEllipse
10
52.098783
20
0
30
0
11
0.944105861396594
21
-1.45950894801527
31
0
210
0
220
0
230
1
40
0.366664
41
-1.29395820255957
42
-0.713456037391804
0
POINT
5
70
100
AcDbEntity
8
81
62
256
6
ByLayer
370
18
48
1
60
0
100
AcDbPoint
10
54
20
0
30
0
39
0
210
0
220
0
230
1
50
360
0
POINT
5
72
100
AcDbEntity
8
80
62
256
6
ByLayer
370
18
48
1
60
0
100
AcDbPoint
10
0
20
0
30
0
39
0
210
0
220
0
230
1
50
360
0
POINT
5
74
100
AcDbEntity
8
81
62
256
6
ByLayer
370
18
48
1
60
0
100
AcDbPoint
10
-50
20
0
30
0
39
0
210
0
220
0
230
1
50
360
0
POINT
5
75
100
AcDbEntity
8
81
62
256
6
ByLayer
370
18
48
1
60
0
100
AcDbPoint
10
54
20
0
30
0
39
0
210
0
220
0
230
1
50
360
0
POINT
5
76
100
AcDbEntity
8
1
62
256
6
ByLayer
370
18
48
1
60
1
100
AcDbPoint
10
54
20
-10
30
0
39
0
210
0
220
0
230
1
50
360
0
POINT
5
78
100
AcDbEntity
8
1
62
256
6
ByLayer
370
18
48
1
60
1
100
AcDbPoint
10
16
20
-10
30
0
39
0
210
0
220
0
230
1
50
360
0
POINT
5
79
100
AcDbEntity
8
1
62
256
6
ByLayer
370
18
48
1
60
1
100
AcDbPoint
10
54
20
-10
30
0
39
0
210
0
220
0
230
1
50
360
0
POINT
5
7A
100
AcDbEntity
8
1
62
256
6
ByLayer
370
18
48
1
60
1
100
AcDbPoint
10
2
20
-10
30
0
39
0
210
0
220
0
230
1
50
360
0
POINT
5
7B
100
AcDbEntity
8
1
62
256
6
ByLayer
370
18
48
1
60
1
100
AcDbPoint
10
54
20
10
30
0
39
0
210
0
220
0
230
1
50
360
0
POINT
5
7C
100
AcDbEntity
8
1
62
256
6
ByLayer
370
18
48
1
60
1
100
AcDbPoint
10
34
20
10
30
0
39
0
210
0
220
0
230
1
50
360
0
POINT
5
7D
100
AcDbEntity
8
1
62
256
6
ByLayer
370
18
48
1
60
1
100
AcDbPoint
10
-50
20
-10
30
0
39
0
210
0
220
0
230
1
50
360
0
POINT
5
7E
100
AcDbEntity
8
1
62
256
6
ByLayer
370
18
48
1
60
1
100
AcDbPoint
10
54
20
-10
30
0
39
0
210
0
220
0
230
1
50
360
0
SPLINE
5
DC
100
AcDbEntity
8
1
62
256
6
ByLayer
370
18
48
1
60
0
100
AcDbSpline
70
4
71
3
72
20
73
16
40
0
40
0
40
0
40
0
40
0.107264468364143
40
0.107264468364143
40
0.214528936728286
40
0.214528936728286
40
0.429057873456573
40
0.429057873456573
40
0.643586810184859
40
0.643586810184859
40
0.750851278549005
40
0.750851278549005
40
0.858115746913152
40
0.858115746913152
40
1
40
1
40
1
40
1
41
1
10
53.7460624996639
20
-1.60680253515372
30
0
41
1
10
53.7352432424686
20
-1.64741033756627
30
0
41
1
10
53.7238316823821
20
-1.68980424687112
30
0
41
1
10
53.7000619386974
20
-1.77744663668508
30
0
41
1
10
53.687702516795
20
-1.82269885133775
30
0
41
1
10
53.6494485429895
20
-1.96200087784973
30
0
41
1
10
53.6223907416441
20
-2.05955850281706
30
0
41
1
10
53.5660051332431
20
-2.26151902212922
30
0
41
1
10
53.5366693929332
20
-2.36594583943679
30
0
41
1
10
53.4913304459497
20
-2.52661281217667
30
0
41
1
10
53.4760468728455
20
-2.58065438763217
30
0
41
1
10
53.4452437945251
20
-2.68936642859933
30
0
41
1
10
53.4297133867896
20
-2.74407546932631
30
0
41
1
10
53.3933752084394
20
-2.87187664123013
30
0
41
1
10
53.3724827903824
20
-2.94520065407909
30
0
41
1
10
53.351416905444
20
-3.01899985896421
30
0
0
SPLINE
5
DD
100
AcDbEntity
8
1
62
256
6
ByLayer
370
18
48
1
60
0
100
AcDbSpline
70
4
71
3
72
8
73
4
40
0
40
0
40
0
40
0
40
1
40
1
40
1
40
1
41
1
10
53.8900637710201
20
-0.405925278413463
30
0
41
1
10
53.8918529343842
20
-0.410005226284596
30
0
41
1
10
53.8935019698774
20
-0.415214369954953
30
0
41
1
10
53.8950181333392
20
-0.421494239516221
30
0
0
SPLINE
5
DE
100
AcDbEntity
8
1
62
256
6
ByLayer
370
18
48
1
60
0
100
AcDbSpline
70
4
71
3
72
8
73
4
40
0
40
0
40
0
40
0
40
1
40
1
40
1
40
1
41
1
10
53.8950181333382
20
-0.421494239517728
30
0
41
1
10
53.8453686663301
20
-0.816618681782273
30
0
41
1
10
53.7957167039792
20
-1.21172068758491
30
0
41
1
10
53.746062499664
20
-1.6068025351538
30
0
0
SPLINE
5
DF
100
AcDbEntity
8
1
62
256
6
ByLayer
370
18
48
1
60
0
100
AcDbSpline
70
4
71
3
72
8
73
4
40
0
40
0
40
0
40
0
40
1
40
1
40
1
40
1
41
1
10
53.8900637710201
20
-0.405925278413463
30
0
41
1
10
53.8685154723466
20
-0.41124534560015
30
0
41
1
10
53.8473173326728
20
-0.41648281340099
30
0
41
1
10
53.8265517475489
20
-0.421618245416681
30
0
0
SPLINE
5
E0
100
AcDbEntity
8
1
62
256
6
ByLayer
370
18
48
1
60
0
100
AcDbSpline
70
4
71
3
72
41
73
37
40
0
40
0
40
0
40
0
40
0.017935292067392
40
0.017935292067392
40
0.026902938101088
40
0.026902938101088
40
0.035870584134784
40
0.035870584134784
40
0.04483823016848
40
0.04483823016848
40
0.053805876202176
40
0.053805876202176
40
0.071741168269568
40
0.071741168269568
40
0.08967646033696
40
0.08967646033696
40
0.107611752404352
40
0.107611752404352
40
0.143482336539113
40
0.143482336539113
40
0.179352920673874
40
0.179352920673874
40
0.215223504808634
40
0.215223504808634
40
0.286964673078156
40
0.286964673078156
40
0.358705841347678
40
0.358705841347678
40
0.430447009617199
40
0.430447009617199
40
0.573929346156242
40
0.573929346156242
40
0.717411682695285
40
0.860894019234329
40
0.860894019234329
40
1
40
1
40
1
40
1
41
1
10
53.8265516780538
20
-0.421618265774327
30
0
41
1
10
53.8210223624586
20
-0.422985692893462
30
0
41
1
10
53.8146123478503
20
-0.424560140257938
30
0
41
1
10
53.8032308750864
20
-0.427335424443527
30
0
41
1
10
53.7992492965083
20
-0.428303425630759
30
0
41
1
10
53.7909095879057
20
-0.430325479227719
30
0
41
1
10
53.786522822234
20
-0.4313864393269
30
0
41
1
10
53.7775037307547
20
-0.433562855644055
30
0
41
1
10
53.7729510871182
20
-0.434659127437357
30
0
41
1
10
53.763774992543
20
-0.436864919100117
30
0
41
1
10
53.75912318234
20
-0.437981224056728
30
0
41
1
10
53.7453720890132
20
-0.441276584089138
30
0
41
1
10
53.7364203572497
20
-0.4434159407283
30
0
41
1
10
53.7187746253536
20
-0.447625878121357
30
0
41
1
10
53.7100681553819
20
-0.449699319704422
30
0
41
1
10
53.6932023654462
20
-0.453711139480134
30
0
41
1
10
53.6849807899253
20
-0.455664348874251
30
0
41
1
10
53.6607327030592
20
-0.461420072195494
30
0
41
1
10
53.6451130830699
20
-0.46512111237908
30
0
41
1
10
53.6144305914052
20
-0.472384346504299
30
0
41
1
10
53.599378485446
20
-0.475943855607483
30
0
41
1
10
53.5696105992078
20
-0.48297899828961
30
0
41
1
10
53.5548928268673
20
-0.486455060280434
30
0
41
1
10
53.5111639955789
20
-0.496778797653548
30
0
41
1
10
53.482519500421
20
-0.503535852910574
30
0
41
1
10
53.4256384402282
20
-0.51694924824784
30
0
41
1
10
53.3974135684549
20
-0.523602701340764
30
0
41
1
10
53.3411017054685
20
-0.536875565753604
30
0
41
1
10
53.3130187570218
20
-0.543493979323131
30
0
41
1
10
53.2287825215435
20
-0.563346104284648
30
0
41
1
10
53.1726342904287
20
-0.576578565651204
30
0
41
1
10
53.059882657311
20
-0.603155993480414
30
0
41
1
10
52.946695512745
20
-0.6298410671601
30
0
41
1
10
52.8322521728672
20
-0.656836636036132
30
0
41
1
10
52.718864735755
20
-0.683590912564398
30
0
41
1
10
52.6627164968191
20
-0.696843072180656
30
0
41
1
10
52.6062418816574
20
-0.710175902572672
30
0
0
SPLINE
5
E1
100
AcDbEntity
8
1
62
256
6
ByLayer
370
18
48
1
60
0
100
AcDbSpline
70
4
71
3
72
41
73
37
40
0
40
0
40
0
40
0
40
0.0156249999999808
40
0.0156249999999808
40
0.0234374999999708
40
0.0234374999999708
40
0.0312499999999607
40
0.0312499999999607
40
0.0390624999999507
40
0.0390624999999507
40
0.0468749999999407
40
0.0468749999999407
40
0.0624999999999429
40
0.0624999999999429
40
0.0781249999999451
40
0.0781249999999451
40
0.0937499999999474
40
0.0937499999999474
40
0.124999999999952
40
0.124999999999952
40
0.156249999999956
40
0.156249999999956
40
0.187499999999961
40
0.187499999999961
40
0.249999999999971
40
0.249999999999971
40
0.31249999999998
40
0.31249999999998
40
0.37499999999999
40
0.37499999999999
40
0.499999999999993
40
0.499999999999993
40
0.624999999999995
40
0.749999999999997
40
0.749999999999997
40
1
40
1
40
1
40
1
41
1
10
53.8265516780537
20
5.96571954151463
30
0
41
1
10
53.8210222786648
20
5.95803084427706
30
0
41
1
10
53.8146121406173
20
5.95117351985158
30
0
41
1
10
53.8032304612623
20
5.94286589740983
30
0
41
1
10
53.7992488080752
20
5.9405083216763
30
0
41
1
10
53.7909089388838
20
5.93661871960018
30
0
41
1
10
53.7865220757432
20
5.93508007692091
30
0
41
1
10
53.7775028370928
20
5.93285030354704
30
0
41
1
10
53.772950119097
20
5.93217049766696
30
0
41
1
10
53.7637738746839
20
5.93152569647043
30
0
41
1
10
53.7591219913828
20
5.93156482197179
30
0
41
1
10
53.7453707199084
20
5.93254270501285
30
0
41
1
10
53.7364188702682
20
5.9342986927492
30
0
41
1
10
53.7187729034028
20
5.93913009394407
30
0
41
1
10
53.7100663336069
20
5.94223070976926
30
0
41
1
10
53.6932003533537
20
5.9491451480628
30
0
41
1
10
53.6849786817436
20
5.95298017703783
30
0
41
1
10
53.660730305041
20
5.96523015836377
30
0
41
1
10
53.6451104897492
20
5.97437257638262
30
0
41
1
10
53.6144276050195
20
5.99365280108313
30
0
41
1
10
53.5993753011985
20
6.00380985527761
30
0
41
1
10
53.5696070167252
20
6.02472526544005
30
0
41
1
10
53.5548890473074
20
6.03549310348515
30
0
41
1
10
53.5111596263584
20
6.06828597310334
30
0
41
1
10
53.4825147320693
20
6.09081443251495
30
0
41
1
10
53.4256328645754
20
6.13640652837182
30
0
41
1
10
53.3974075830731
20
6.15948550388873
30
0
41
1
10
53.341094890229
20
6.20582433535773
30
0
41
1
10
53.3130115218016
20
6.22908942268316
30
0
41
1
10
53.2287740140259
20
6.2989016811546
30
0
41
1
10
53.1726249181448
20
6.34545580281417
30
0
41
1
10
53.0598715253317
20
6.43794270587466
30
0
41
1
10
52.9466825915569
20
6.52983510430224
30
0
41
1
10
52.8322374035871
20
6.62001274107655
30
0
41
1
10
52.6595194495066
20
6.75384573245572
30
0
41
1
10
52.5429590185754
20
6.84113610522675
30
0
41
1
10
52.4250373995784
20
6.92656848372624
30
0
0
SPLINE
5
E2
100
AcDbEntity
8
1
62
256
6
ByLayer
370
13
48
1
60
0
100
AcDbSpline
70
4
71
3
72
27
73
23
40
0
40
0
40
0
40
0
40
0.0256672732737287
40
0.0695105640880199
40
0.113634269346068
40
0.244540113512032
40
0.309388769535128
40
0.374285497429517
40
0.439594238515553
40
0.505536828220695
40
0.549876185690651
40
0.593981600937987
40
0.6371585492214
40
0.658208607236524
40
0.678775483585743
40
0.698763534148001
40
0.718740769545541
40
0.760304766576868
40
0.847487762349425
40
0.891788486608527
40
0.957684042079752
40
1
40
1
40
1
40
1
41
1
10
53.8265516790696
20
5.96571954108489
30
0
41
1
10
53.8109663508478
20
6.00068163808851
30
0
41
1
10
53.7685126127495
20
6.09402768700045
30
0
41
1
10
53.6976259310942
20
6.24196593925151
30
0
41
1
10
53.5559282460436
20
6.51967724306022
30
0
41
1
10
53.3851637014248
20
6.81581397751742
30
0
41
1
10
53.183349855079
20
7.12106158445917
30
0
41
1
10
53.0256244642162
20
7.33907298995993
30
0
41
1
10
52.8617992181674
20
7.54593399596007
30
0
41
1
10
52.7113296702966
20
7.71923958569954
30
0
41
1
10
52.5771717873633
20
7.86214084702831
30
0
41
1
10
52.4600718945535
20
7.97915233618991
30
0
41
1
10
52.3599281282928
20
8.07285748219834
30
0
41
1
10
52.2783833873482
20
8.14529260614916
30
0
41
1
10
52.2174939421978
20
8.19753800279082
30
0
41
1
10
52.1548265139167
20
8.24939411243403
30
0
41
1
10
52.0700799744185
20
8.31696952559815
30
0
41
1
10
51.921446943376
20
8.42869784815744
30
0
41
1
10
51.7545335434588
20
8.53986849079456
30
0
41
1
10
51.5635552543298
20
8.65163731244982
30
0
41
1
10
51.4129966591592
20
8.7295834049566
30
0
41
1
10
51.304620221125
20
8.77846034236921
30
0
41
1
10
51.2620760747973
20
8.79654954949081
30
0
0
SPLINE
5
E3
100
AcDbEntity
8
1
62
256
6
ByLayer
370
18
48
1
60
0
100
AcDbSpline
70
4
71
3
72
8
73
4
40
0
40
0
40
0
40
0
40
1
40
1
40
1
40
1
41
1
10
53.8900637710204
20
6.05138752550681
30
0
41
1
10
53.8685153024547
20
6.02312846472481
30
0
41
1
10
53.8473171570831
20
5.99459404222253
30
0
41
1
10
53.8265517476051
20
5.9657194841916
30
0
0
SPLINE
5
E4
100
AcDbEntity
8
1
62
256
6
ByLayer
370
18
48
1
60
0
100
AcDbSpline
70
4
71
3
72
8
73
4
40
0
40
0
40
0
40
0
40
1
40
1
40
1
40
1
41
1
10
53.8900637710205
20
6.05138752550678
30
0
41
1
10
53.891852932881
20
6.14073118001849
30
0
41
1
10
53.8935019686259
20
6.22996392705207
30
0
41
1
10
53.8950181333395
20
6.31909150888541
30
0
0
SPLINE
5
E5
100
AcDbEntity
8
1
62
256
6
ByLayer
370
18
48
1
60
0
100
AcDbSpline
70
4
71
3
72
44
73
40
40
0
40
0
40
0
40
0
40
0.124999999999994
40
0.124999999999994
40
0.156249999999993
40
0.156249999999993
40
0.187499999999991
40
0.187499999999991
40
0.249999999999988
40
0.249999999999988
40
0.281249999999987
40
0.281249999999987
40
0.312499999999985
40
0.312499999999985
40
0.374999999999987
40
0.374999999999987
40
0.437499999999989
40
0.437499999999989
40
0.49999999999999
40
0.49999999999999
40
0.531249999999994
40
0.531249999999994
40
0.562499999999997
40
0.562499999999997
40
0.624999999999999
40
0.624999999999999
40
0.65625
40
0.65625
40
0.687500000000001
40
0.687500000000001
40
0.750000000000002
40
0.750000000000002
40
0.812500000000003
40
0.812500000000003
40
0.843750000000003
40
0.843750000000003
40
0.875000000000004
40
0.875000000000004
40
1
40
1
40
1
40
1
41
1
10
51.7565850259323
20
9.49392992009675
30
0
41
1
10
51.8958101282208
20
9.45682547040775
30
0
41
1
10
52.0310314345445
20
9.40396026422215
30
0
41
1
10
52.1954486713991
20
9.31893206432773
30
0
41
1
10
52.2280971668149
20
9.30097599063905
30
0
41
1
10
52.2929296848472
20
9.26315501574877
30
0
41
1
10
52.3251396256495
20
9.24326905207718
30
0
41
1
10
52.4204804943912
20
9.18112376085926
30
0
41
1
10
52.4825181572457
20
9.13627908488047
30
0
41
1
10
52.5733805834403
20
9.06400358311618
30
0
41
1
10
52.6033046747898
20
9.03907048769329
30
0
41
1
10
52.6624409017542
20
8.98751099498492
30
0
41
1
10
52.6916573786553
20
8.96087688260351
30
0
41
1
10
52.7777348272193
20
8.87893508627229
30
0
41
1
10
52.8332039013428
20
8.82144429347196
30
0
41
1
10
52.940442932799
20
8.70105665847379
30
0
41
1
10
52.992214038888
20
8.63815595740402
30
0
41
1
10
53.0921465497645
20
8.50710390211128
30
0
41
1
10
53.1403086673533
20
8.43895046249312
30
0
41
1
10
53.2098733881408
20
8.33278672294779
30
0
41
1
10
53.2326149964818
20
8.29674095436951
30
0
41
1
10
53.2772032668079
20
8.22332627579874
30
0
41
1
10
53.2990515955447
20
8.18594963452011
30
0
41
1
10
53.3629073721982
20
8.07244898522674
30
0
41
1
10
53.4033511823104
20
7.99475828659209
30
0
41
1
10
53.4608956507182
20
7.87524524710543
30
0
41
1
10
53.4795563452813
20
7.83491108270445
30
0
41
1
10
53.5158408888732
20
7.75325399580976
30
0
41
1
10
53.5334775742478
20
7.71189912990567
30
0
41
1
10
53.5847390575913
20
7.58658594266098
30
0
41
1
10
53.6166640910898
20
7.50152445549421
30
0
41
1
10
53.6761083828815
20
7.32842730560714
30
0
41
1
10
53.7036276775419
20
7.24039268496054
30
0
41
1
10
53.7416176968269
20
7.106124444264
30
0
41
1
10
53.7537231333966
20
7.06102637157861
30
0
41
1
10
53.7767520465687
20
6.9704436300336
30
0
41
1
10
53.7876872156195
20
6.92491839052423
30
0
41
1
10
53.8394965176686
20
6.69613780975666
30
0
41
1
10
53.8718134575494
20
6.5094316630784
30
0
41
1
10
53.8950181333395
20
6.31909150888541
30
0
0
SPLINE
5
E6
100
AcDbEntity
8
1
62
256
6
ByLayer
370
18
48
1
60
0
100
AcDbSpline
70
4
71
3
72
8
73
4
40
0
40
0
40
0
40
0
40
1
40
1
40
1
40
1
41
1
10
14.4016850913972
20
-9.46411730969641
30
0
41
1
10
14.2821294359508
20
-9.46502920450988
30
0
41
1
10
14.1613088371809
20
-9.47594394431164
30
0
41
1
10
14.0398757409103
20
-9.49656519571221
30
0
0
SPLINE
5
E7
100
AcDbEntity
8
1
62
256
6
ByLayer
370
18
48
1
60
0
100
AcDbSpline
70
4
71
3
72
29
73
25
40
0
40
0
40
0
40
0
40
0.212726348312509
40
0.212726348312509
40
0.265907935390653
40
0.265907935390653
40
0.319089522468797
40
0.319089522468797
40
0.425452696625085
40
0.425452696625085
40
0.531815870781373
40
0.531815870781373
40
0.638179044937661
40
0.638179044937661
40
0.691360632015792
40
0.691360632015792
40
0.744542219093922
40
0.744542219093922
40
0.850905393250161
40
0.850905393250161
40
0.90408698032829
40
0.90408698032829
40
0.957268567406418
40
1
40
1
40
1
40
1
41
1
10
52.554401911823
20
-0.640723097707564
30
0
41
1
10
52.4736622429129
20
-0.627707913687033
30
0
41
1
10
52.3946376558926
20
-0.608179951608179
30
0
41
1
10
52.2979451527134
20
-0.5753781239072
30
0
41
1
10
52.2786663082433
20
-0.568372719765875
30
0
41
1
10
52.2405971070669
20
-0.553582178250224
30
0
41
1
10
52.2218089359845
20
-0.545800907458528
30
0
41
1
10
52.166181238528
20
-0.521285033836705
30
0
41
1
10
52.1300751343428
20
-0.503384229353316
30
0
41
1
10
52.0598861695439
20
-0.464261487184416
30
0
41
1
10
52.0258022091436
20
-0.443041815549577
30
0
41
1
10
51.9598430160681
20
-0.39686263110994
30
0
41
1
10
51.9279649846196
20
-0.37190857351797
30
0
41
1
10
51.8820749222058
20
-0.331118164771681
30
0
41
1
10
51.867133468102
20
-0.316978958373369
30
0
41
1
10
51.8383885555953
20
-0.287906557333287
30
0
41
1
10
51.8245316086478
20
-0.272927216820193
30
0
41
1
10
51.784596533711
20
-0.226570555226317
30
0
41
1
10
51.7601402299957
20
-0.193787209012498
30
0
41
1
10
51.7272687994303
20
-0.141252580032074
30
0
41
1
10
51.7169526132255
20
-0.123159004320428
30
0
41
1
10
51.6980782142723
20
-0.0864613429930898
30
0
41
1
10
51.6825462810467
20
-0.0527638246857975
30
0
41
1
10
51.6697889195151
20
-0.0179353084458569
30
0
41
1
10
51.6646765036562
20
-0.00218519881048
30
0
0
SPLINE
5
E8
100
AcDbEntity
8
1
62
256
6
ByLayer
370
18
48
1
60
0
100
AcDbSpline
70
4
71
3
72
8
73
4
40
0
40
0
40
0
40
0
40
1
40
1
40
1
40
1
41
1
10
53.8900637710201
20
-6.05138752550647
30
0
41
1
10
53.8918529328806
20
-6.14073118001932
30
0
41
1
10
53.8935019686254
20
-6.229963927054
30
0
41
1
10
53.8950181333391
20
-6.31909150888845
30
0
0
SPLINE
5
E9
100
AcDbEntity
8
1
62
256
6
ByLayer
370
13
48
1
60
0
100
AcDbSpline
70
4
71
1
72
4
73
2
40
0
40
0
40
1
40
1
41
1
10
16
20
-8.88289639922016
30
0
41
1
10
13.0172063930416
20
-9.40119059142702
30
0
0
SPLINE
5
EA
100
AcDbEntity
8
1
62
256
6
ByLayer
370
18
48
1
60
0
100
AcDbSpline
70
4
71
3
72
24
73
20
40
0
40
0
40
0
40
0
40
0.125000000000016
40
0.125000000000016
40
0.250000000000032
40
0.250000000000032
40
0.375000000000048
40
0.375000000000048
40
0.40625000000005
40
0.40625000000005
40
0.437500000000052
40
0.437500000000052
40
0.50000000000005
40
0.50000000000005
40
0.750000000000027
40
0.750000000000027
40
0.875000000000013
40
0.875000000000013
40
1
40
1
40
1
40
1
41
1
10
51.5450520851813
20
8.56906020630063
30
0
41
1
10
51.6031102172354
20
8.52149407541785
30
0
41
1
10
51.6587880412264
20
8.4702525041273
30
0
41
1
10
51.765273313453
20
8.36092380903162
30
0
41
1
10
51.8160313062984
20
8.3027585586596
30
0
41
1
10
51.9125762467952
20
8.18020772943407
30
0
41
1
10
51.9583005541246
20
8.1157246562083
30
0
41
1
10
52.0122131183429
20
8.03156966492153
30
0
41
1
10
52.0228427552252
20
8.0145525054642
30
0
41
1
10
52.0436953467113
20
7.98029485685976
30
0
41
1
10
52.0539247480412
20
7.96303992637081
30
0
41
1
10
52.0840291777231
20
7.91091710955584
30
0
41
1
10
52.1033305121404
20
7.87570002527534
30
0
41
1
10
52.1959965732657
20
7.69746100894912
30
0
41
1
10
52.2577275931428
20
7.54788020437678
30
0
41
1
10
52.3327968066038
20
7.31769102305591
30
0
41
1
10
52.354931567535
20
7.24001948753747
30
0
41
1
10
52.3938417974242
20
7.0837340307429
30
0
41
1
10
52.4106152122671
20
7.00512027807497
30
0
41
1
10
52.4250373995785
20
6.9265684837263
30
0
0
SPLINE
5
EB
100
AcDbEntity
8
1
62
256
6
ByLayer
370
18
48
1
60
0
100
AcDbSpline
70
4
71
3
72
16
73
12
40
0
40
0
40
0
40
0
40
0.392715255038451
40
0.392715255038451
40
0.490894068798076
40
0.490894068798076
40
0.5890728825577
40
0.5890728825577
40
0.785430510076949
40
0.785430510076949
40
1
40
1
40
1
40
1
41
1
10
52.4250373995784
20
6.9265684837263
30
0
41
1
10
52.2990307839972
20
6.79135003803887
30
0
41
1
10
52.1612009317982
20
6.66853036244635
30
0
41
1
10
51.9775914241418
20
6.52687910392706
30
0
41
1
10
51.9402643119085
20
6.49912506003008
30
0
41
1
10
51.8650603201671
20
6.44509971309051
30
0
41
1
10
51.8271229258049
20
6.41877970126035
30
0
41
1
10
51.7123933649584
20
6.34171422522616
30
0
41
1
10
51.6346867017151
20
6.29285737066292
30
0
41
1
10
51.4699223278814
20
6.1950397763454
30
0
41
1
10
51.3826739217536
20
6.14647285912466
30
0
41
1
10
51.2943918850301
20
6.10004058556356
30
0
0
SPLINE
5
EC
100
AcDbEntity
8
1
62
256
6
ByLayer
370
18
48
1
60
0
100
AcDbSpline
70
4
71
3
72
44
73
40
40
0
40
0
40
0
40
0
40
0.12500000000001
40
0.12500000000001
40
0.156250000000009
40
0.156250000000009
40
0.187500000000008
40
0.187500000000008
40
0.250000000000007
40
0.250000000000007
40
0.281250000000006
40
0.281250000000006
40
0.312500000000005
40
0.312500000000005
40
0.375000000000009
40
0.375000000000009
40
0.437500000000013
40
0.437500000000013
40
0.500000000000017
40
0.500000000000017
40
0.531250000000017
40
0.531250000000017
40
0.562500000000016
40
0.562500000000016
40
0.625000000000016
40
0.625000000000016
40
0.656250000000016
40
0.656250000000016
40
0.687500000000015
40
0.687500000000015
40
0.750000000000015
40
0.750000000000015
40
0.812500000000015
40
0.812500000000015
40
0.843750000000013
40
0.843750000000013
40
0.875000000000012
40
0.875000000000012
40
1
40
1
40
1
40
1
41
1
10
51.7565850259322
20
-9.49392992009712
30
0
41
1
10
51.8958101282206
20
-9.45682547040815
30
0
41
1
10
52.0310314345444
20
-9.40396026422255
30
0
41
1
10
52.1954486713988
20
-9.31893206432821
30
0
41
1
10
52.2280971668146
20
-9.30097599063953
30
0
41
1
10
52.2929296848469
20
-9.26315501574931
30
0
41
1
10
52.3251396256491
20
-9.24326905207772
30
0
41
1
10
52.4204804943908
20
-9.18112376085986
30
0
41
1
10
52.4825181572453
20
-9.13627908488115
30
0
41
1
10
52.5733805834399
20
-9.06400358311689
30
0
41
1
10
52.6033046747893
20
-9.03907048769403
30
0
41
1
10
52.6624409017537
20
-8.98751099498568
30
0
41
1
10
52.6916573786548
20
-8.96087688260434
30
0
41
1
10
52.7777348272188
20
-8.87893508627317
30
0
41
1
10
52.8332039013421
20
-8.82144429347287
30
0
41
1
10
52.9404429327983
20
-8.70105665847484
30
0
41
1
10
52.9922140388874
20
-8.63815595740516
30
0
41
1
10
53.0921465497639
20
-8.50710390211253
30
0
41
1
10
53.1403086673526
20
-8.4389504624944
30
0
41
1
10
53.2098733881401
20
-8.33278672294918
30
0
41
1
10
53.2326149964811
20
-8.29674095437093
30
0
41
1
10
53.2772032668072
20
-8.22332627580025
30
0
41
1
10
53.2990515955439
20
-8.18594963452162
30
0
41
1
10
53.3629073721974
20
-8.07244898522839
30
0
41
1
10
53.4033511823096
20
-7.99475828659379
30
0
41
1
10
53.4608956507174
20
-7.87524524710724
30
0
41
1
10
53.4795563452805
20
-7.8349110827063
30
0
41
1
10
53.5158408888724
20
-7.75325399581169
30
0
41
1
10
53.5334775742471
20
-7.71189912990764
30
0
41
1
10
53.5847390575906
20
-7.58658594266305
30
0
41
1
10
53.616664091089
20
-7.50152445549634
30
0
41
1
10
53.6761083828809
20
-7.32842730560944
30
0
41
1
10
53.7036276775413
20
-7.2403926849629
30
0
41
1
10
53.7416176968263
20
-7.10612444426647
30
0
41
1
10
53.753723133396
20
-7.06102637158111
30
0
41
1
10
53.776752046568
20
-6.97044363003616
30
0
41
1
10
53.7876872156189
20
-6.92491839052684
30
0
41
1
10
53.839496517668
20
-6.69613780975945
30
0
41
1
10
53.871813457549
20
-6.5094316630813
30
0
41
1
10
53.8950181333392
20
-6.31909150888845
30
0
0
SPLINE
5
ED
100
AcDbEntity
8
1
62
256
6
ByLayer
370
18
48
1
60
0
100
AcDbSpline
70
4
71
3
72
8
73
4
40
0
40
0
40
0
40
0
40
1
40
1
40
1
40
1
41
1
10
53.8950181333391
20
-6.31909150888845
30
0
41
1
10
53.8453686651719
20
-6.256157706972
30
0
41
1
10
53.7957167028604
20
-6.19301969763788
30
0
41
1
10
53.7460624996635
20
-6.1296982163858
30
0
0
SPLINE
5
EE
100
AcDbEntity
8
1
62
256
6
ByLayer
370
18
48
1
60
0
100
AcDbSpline
70
4
71
3
72
8
73
4
40
0
40
0
40
0
40
0
40
1
40
1
40
1
40
1
41
1
10
16.0000000000001
20
8.55427155299034
30
0
41
1
10
15.8664508896338
20
8.5725375929791
30
0
41
1
10
15.7325596778349
20
8.58599737964153
30
0
41
1
10
15.5980762113533
20
8.59447249430119
30
0
0
SPLINE
5
EF
100
AcDbEntity
8
1
62
256
6
ByLayer
370
18
48
1
60
0
100
AcDbSpline
70
4
71
3
72
14
73
10
40
0
40
0
40
0
40
0
40
0.25
40
0.25
40
0.5
40
0.5
40
0.75
40
0.75
40
1
40
1
40
1
40
1
41
1
10
15.5980762113533
20
8.59447249430119
30
0
41
1
10
15.5206929393627
20
8.59934916888446
30
0
41
1
10
15.4415436799456
20
8.60811082758067
30
0
41
1
10
15.2801895075183
20
8.63284695609102
30
0
41
1
10
15.1979827838119
20
8.64882549044953
30
0
41
1
10
15.0308748457076
20
8.68791207434145
30
0
41
1
10
14.945972655778
20
8.71102089049552
30
0
41
1
10
14.7737658080929
20
8.76467400463577
30
0
41
1
10
14.6864606510256
20
8.79521630843936
30
0
41
1
10
14.5980762113533
20
8.82983351525269
30
0
0
SPLINE
5
F0
100
AcDbEntity
8
1
62
256
6
ByLayer
370
18
48
1
60
0
100
AcDbSpline
70
4
71
1
72
4
73
2
40
0
40
0
40
1
40
1
41
1
10
16.0000000000001
20
8.03156828631327
30
0
41
1
10
14.1882172898083
20
8.98060650282974
30
0
0
SPLINE
5
F1
100
AcDbEntity
8
1
62
256
6
ByLayer
370
18
48
1
60
0
100
AcDbSpline
70
4
71
3
72
24
73
20
40
0
40
0
40
0
40
0
40
0.0625000000000011
40
0.0625000000000011
40
0.125000000000002
40
0.125000000000002
40
0.250000000000002
40
0.250000000000002
40
0.312500000000002
40
0.312500000000002
40
0.375000000000002
40
0.375000000000002
40
0.500000000000001
40
0.500000000000001
40
0.625000000000001
40
0.625000000000001
40
0.750000000000001
40
0.750000000000001
40
1
40
1
40
1
40
1
41
1
10
53.7460624996633
20
-6.12969821638654
30
0
41
1
10
53.7353275824125
20
-6.17469444488677
30
0
41
1
10
53.7239821370885
20
-6.21728641295002
30
0
41
1
10
53.7003008626406
20
-6.29857021620768
30
0
41
1
10
53.6879639529517
20
-6.33725779613476
30
0
41
1
10
53.6497096778963
20
-6.4484234500197
30
0
41
1
10
53.6225609670733
20
-6.51605248376055
30
0
41
1
10
53.5800059474312
20
-6.61028179917224
30
0
41
1
10
53.5654864878466
20
-6.64052110854107
30
0
41
1
10
53.5361048560038
20
-6.69846634062034
30
0
41
1
10
53.521226255504
20
-6.72621424975657
30
0
41
1
10
53.4761022553995
20
-6.80627400852276
30
0
41
1
10
53.4453721495994
20
-6.85542466657827
30
0
41
1
10
53.3828988908244
20
-6.94711901909585
30
0
41
1
10
53.3511539293658
20
-6.98965091885216
30
0
41
1
10
53.2868345013942
20
-7.06930479290057
30
0
41
1
10
53.2542363009561
20
-7.10643992762729
30
0
41
1
10
53.1558122654192
20
-7.21058785892762
30
0
41
1
10
53.0892313903669
20
-7.27060632374329
30
0
41
1
10
53.0219436929646
20
-7.32372873704682
30
0
0
SPLINE
5
F2
100
AcDbEntity
8
1
62
256
6
ByLayer
370
18
48
1
60
0
100
AcDbSpline
70
4
71
3
72
50
73
46
40
0
40
0
40
0
40
0
40
0.125000000000045
40
0.125000000000045
40
0.156250000000046
40
0.156250000000046
40
0.187500000000048
40
0.187500000000048
40
0.25000000000005
40
0.25000000000005
40
0.312500000000053
40
0.312500000000053
40
0.375000000000056
40
0.375000000000056
40
0.406250000000057
40
0.406250000000057
40
0.437500000000058
40
0.437500000000058
40
0.500000000000047
40
0.500000000000047
40
0.531250000000047
40
0.531250000000047
40
0.562500000000047
40
0.593750000000047
40
0.609375000000044
40
0.609375000000044
40
0.625000000000041
40
0.625000000000041
40
0.687500000000029
40
0.687500000000029
40
0.718750000000023
40
0.718750000000023
40
0.734375000000021
40
0.734375000000021
40
0.750000000000018
40
0.750000000000018
40
0.812500000000009
40
0.812500000000009
40
0.843750000000005
40
0.843750000000005
40
0.875
40
0.875
40
0.9375
40
0.9375
40
1
40
1
40
1
40
1
41
1
10
52.554401911823
20
0.640723097707195
30
0
41
1
10
52.4736622429129
20
0.627707913686663
30
0
41
1
10
52.3946376558926
20
0.608179951607838
30
0
41
1
10
52.2979451527134
20
0.575378123906859
30
0
41
1
10
52.2786663082433
20
0.568372719765534
30
0
41
1
10
52.2405971070669
20
0.553582178249854
30
0
41
1
10
52.2218089359844
20
0.545800907458187
30
0
41
1
10
52.166181238528
20
0.521285033836364
30
0
41
1
10
52.1300751343428
20
0.503384229352946
30
0
41
1
10
52.0598861695439
20
0.464261487184046
30
0
41
1
10
52.0258022091436
20
0.443041815549236
30
0
41
1
10
51.9598430160681
20
0.39686263110957
30
0
41
1
10
51.9279649846196
20
0.371908573517629
30
0
41
1
10
51.8820749222058
20
0.33111816477134
30
0
41
1
10
51.867133468102
20
0.316978958373028
30
0
41
1
10
51.8383885555953
20
0.287906557332917
30
0
41
1
10
51.8245316086478
20
0.272927216819824
30
0
41
1
10
51.784596533711
20
0.226570555225976
30
0
41
1
10
51.7601402299957
20
0.193787209012157
30
0
41
1
10
51.7272687994303
20
0.141252580031733
30
0
41
1
10
51.7169526132255
20
0.123159004320087
30
0
41
1
10
51.6980782142723
20
0.0864613429927488
30
0
41
1
10
51.680854007128
20
0.0490923286439227
30
0
41
1
10
51.6635888894087
20
0.0006424623135501
30
0
41
1
10
51.6552382768603
20
-0.0292476519637148
30
0
41
1
10
51.6501304837194
20
-0.0493621125759489
30
0
41
1
10
51.6478003469015
20
-0.0595443238101723
30
0
41
1
10
51.6374273227454
20
-0.110445933535743
30
0
41
1
10
51.6331557054829
20
-0.151203952802291
30
0
41
1
10
51.6323796077295
20
-0.212366742646765
30
0
41
1
10
51.6330622128883
20
-0.232758734091675
30
0
41
1
10
51.6354688147309
20
-0.263350351850392
30
0
41
1
10
51.6365052520755
20
-0.273573150662401
30
0
41
1
10
51.6390120925431
20
-0.293844421379333
30
0
41
1
10
51.6404819831337
20
-0.30390286399205
30
0
41
1
10
51.6488605906667
20
-0.353825821890666
30
0
41
1
10
51.6588383721032
20
-0.392588350436569
30
0
41
1
10
51.6779471631673
20
-0.449210697474683
30
0
41
1
10
51.6850402590643
20
-0.467894423122232
30
0
41
1
10
51.7003267122012
20
-0.504340472243086
30
0
41
1
10
51.7085229688324
20
-0.522130117860883
30
0
41
1
10
51.7345796156405
20
-0.574338358402315
30
0
41
1
10
51.7538990434653
20
-0.607602699194985
30
0
41
1
10
51.795709439244
20
-0.671579360246938
30
0
41
1
10
51.8182047754987
20
-0.702288556948105
30
0
41
1
10
51.8420480486254
20
-0.731895796634973
30
0
0
SPLINE
5
F3
100
AcDbEntity
8
1
62
256
6
ByLayer
370
18
48
1
60
0
100
AcDbSpline
70
4
71
3
72
10
73
6
40
0
40
0
40
0
40
0
40
0.564318683168899
40
0.564318683168899
40
1
40
1
40
1
40
1
41
1
10
52.7005126997808
20
5.15850556642906
30
0
41
1
10
52.6839459725685
20
5.19845524512402
30
0
41
1
10
52.6705300928562
20
5.22771202125745
30
0
41
1
10
52.6522355099371
20
5.26096256863104
30
0
41
1
10
52.646108027604
20
5.26919427062393
30
0
41
1
10
52.6418340197147
20
5.27113591204542
30
0
0
SPLINE
5
F4
100
AcDbEntity
8
1
62
256
6
ByLayer
370
13
48
1
60
0
100
AcDbSpline
70
4
71
1
72
4
73
2
40
0
40
0
40
1
40
1
41
1
10
32.1934347764496
20
-6.96822002918586
30
0
41
1
10
27.8571786822091
20
-7.77646326300018
30
0
0
SPLINE
5
F5
100
AcDbEntity
8
1
62
256
6
ByLayer
370
18
48
1
60
0
100
AcDbSpline
70
4
71
3
72
9
73
5
40
0
40
0
40
0
40
0
40
0.5
40
1
40
1
40
1
40
1
41
1
10
53.0216740227839
20
4.1658507390523
30
0
41
1
10
52.9642216449186
20
4.34575951244187
30
0
41
1
10
52.8532368889724
20
4.69113099229236
30
0
41
1
10
52.7500900078621
20
5.0076181684008
30
0
41
1
10
52.7005126997808
20
5.15850556642917
30
0
0
SPLINE
5
F6
100
AcDbEntity
8
1
62
256
6
ByLayer
370
18
48
1
60
0
100
AcDbSpline
70
4
71
3
72
18
73
14
40
0
40
0
40
0
40
0
40
0.260213349540643
40
0.260213349540643
40
0.520426699081285
40
0.520426699081285
40
0.650533373851607
40
0.650533373851607
40
0.715586711236767
40
0.715586711236767
40
0.780640048621928
40
0.780640048621928
40
1
40
1
40
1
40
1
41
1
10
52.7005126997808
20
5.15850556642906
30
0
41
1
10
52.3120005382127
20
5.43878407105043
30
0
41
1
10
51.9248432124363
20
5.70378653525128
30
0
41
1
10
51.1497265758383
20
6.20123834727946
30
0
41
1
10
50.7617741302057
20
6.43369751158684
30
0
41
1
10
50.1768153985772
20
6.75596939477134
30
0
41
1
10
49.9813255671659
20
6.85898433995186
30
0
41
1
10
49.6870355817723
20
7.00657069872318
30
0
41
1
10
49.588660920174
20
7.05465614157205
30
0
41
1
10
49.3923832598425
20
7.14804475079518
30
0
41
1
10
49.2944052360616
20
7.19338799746112
30
0
41
1
10
48.8666453845696
20
7.38570148666932
30
0
41
1
10
48.538171128639
20
7.51868659128024
30
0
41
1
10
48.2104974943527
20
7.63636793951451
30
0
0
SPLINE
5
F7
100
AcDbEntity
8
1
62
256
6
ByLayer
370
18
48
1
60
0
100
AcDbSpline
70
4
71
3
72
10
73
6
40
0
40
0
40
0
40
0
40
0.5
40
0.5
40
1
40
1
40
1
40
1
41
1
10
51.2620760747941
20
8.79654954949223
30
0
41
1
10
51.3146426239647
20
8.76708798775266
30
0
41
1
10
51.3647601395062
20
8.73342688085478
30
0
41
1
10
51.4593214607301
20
8.65753660684084
30
0
41
1
10
51.5037679944551
20
8.61531587148107
30
0
41
1
10
51.5450520851804
20
8.56906020629964
30
0
0
SPLINE
5
F8
100
AcDbEntity
8
1
62
256
6
ByLayer
370
18
48
1
60
0
100
AcDbSpline
70
4
71
3
72
8
73
4
40
0
40
0
40
0
40
0
40
1
40
1
40
1
40
1
41
1
10
51.2061249498361
20
8.82583977883721
30
0
41
1
10
51.2249944388334
20
8.81662428373846
30
0
41
1
10
51.2436533693401
20
8.80687477880144
30
0
41
1
10
51.2620760747974
20
8.79654954949098
30
0
0
SPLINE
5
F9
100
AcDbEntity
8
1
62
256
6
ByLayer
370
18
48
1
60
0
100
AcDbSpline
70
4
71
3
72
18
73
14
40
0
40
0
40
0
40
0
40
0.0030903234146743
40
0.0030903234146743
40
0.202472258731742
40
0.202472258731742
40
0.401854194048811
40
0.401854194048811
40
0.501545161707346
40
0.501545161707346
40
0.60123612936588
40
0.60123612936588
40
1
40
1
40
1
40
1
41
1
10
48.8014349694146
20
7.40586283942736
30
0
41
1
10
48.8042657345469
20
7.40745052434525
30
0
41
1
10
48.8070964813529
20
7.40903705927826
30
0
41
1
10
48.9925606036519
20
7.5129084745472
30
0
41
1
10
49.175122722898
20
7.61035309402172
30
0
41
1
10
49.5404705262852
20
7.79532544380191
30
0
41
1
10
49.7232548728043
20
7.88289149725631
30
0
41
1
10
49.9978547740873
20
8.00686192417632
30
0
41
1
10
50.0895222071225
20
8.04698046717675
30
0
41
1
10
50.2724598696243
20
8.12450921267617
30
0
41
1
10
50.3637846201699
20
8.16194581233876
30
0
41
1
10
50.8198050681365
20
8.34256026243548
30
0
41
1
10
51.1827046407268
20
8.46609560143889
30
0
41
1
10
51.5450520851815
20
8.56906020630848
30
0
0
SPLINE
5
FA
100
AcDbEntity
8
1
62
256
6
ByLayer
370
13
48
1
60
0
100
AcDbSpline
70
4
71
3
72
8
73
4
40
0
40
0
40
0
40
0
40
1
40
1
40
1
40
1
41
1
10
52.9527968623386
20
3.9303669016814
30
0
41
1
10
52.4801090623342
20
4.34039645179715
30
0
41
1
10
52.0074212623298
20
4.73383363517081
30
0
41
1
10
51.5347334623254
20
5.10629778842827
30
0
0
SPLINE
5
FB
100
AcDbEntity
8
1
62
256
6
ByLayer
370
13
48
1
60
0
100
AcDbSpline
70
4
71
3
72
8
73
4
40
0
40
0
40
0
40
0
40
1
40
1
40
1
40
1
41
1
10
17.3828434247523
20
-8.36551018273329
30
0
41
1
10
16.9218956165016
20
-8.49642733397175
30
0
41
1
10
16.4609478082508
20
-8.59428962618168
30
0
41
1
10
16
20
-8.65673281389229
30
0
0
SPLINE
5
FC
100
AcDbEntity
8
1
62
256
6
ByLayer
370
18
48
1
60
0
100
AcDbSpline
70
4
71
5
72
12
73
6
40
0
40
0
40
0
40
0
40
0
40
0
40
1
40
1
40
1
40
1
40
1
40
1
41
1
10
16
20
-8.65673281389229
30
0
41
0.982012158910336
10
16
20
-8.67005910057538
30
0
41
0.973220464882422
10
16
20
-8.70122634493298
30
0
41
0.973220464882422
10
16
20
-8.7487727761307
30
0
41
0.982012158910337
10
16
20
-8.81036188151643
30
0
41
1
10
16
20
-8.88289639922013
30
0
0
SPLINE
5
FD
100
AcDbEntity
8
1
62
256
6
ByLayer
370
18
48
1
60
0
100
AcDbSpline
70
4
71
3
72
8
73
4
40
0
40
0
40
0
40
0
40
1
40
1
40
1
40
1
41
1
10
52.7975531008945
20
-6.58129864762054
30
0
41
1
10
52.7873673113362
20
-6.430377744737
30
0
41
1
10
52.7799311851966
20
-6.28003934111183
30
0
41
1
10
52.7752049490069
20
-6.13027501098068
30
0
0
SPLINE
5
FE
100
AcDbEntity
8
1
62
256
6
ByLayer
370
18
48
1
60
0
100
AcDbSpline
70
4
71
3
72
24
73
20
40
0
40
0
40
0
40
0
40
0.124999999999989
40
0.124999999999989
40
0.249999999999979
40
0.249999999999979
40
0.374999999999969
40
0.374999999999969
40
0.406249999999968
40
0.406249999999968
40
0.437499999999968
40
0.437499999999968
40
0.499999999999974
40
0.499999999999974
40
0.624999999999978
40
0.624999999999978
40
0.749999999999982
40
0.749999999999982
40
1
40
1
40
1
40
1
41
1
10
51.4642163452312
20
-3.97685318369082
30
0
41
1
10
51.5055942097277
20
-4.07561892259511
30
0
41
1
10
51.5496841104647
20
-4.17321896247969
30
0
41
1
10
51.6423335372746
20
-4.36649788866114
30
0
41
1
10
51.6908984336248
20
-4.46217446671079
30
0
41
1
10
51.7918688706881
20
-4.65187682057842
30
0
41
1
10
51.8442772672321
20
-4.745901368891
30
0
41
1
10
51.9119137899727
20
-4.86251823621248
30
0
41
1
10
51.9255477657188
20
-4.88579575980495
30
0
41
1
10
51.953023477429
20
-4.93226150660203
30
0
41
1
10
51.9668807107056
20
-4.95547527197974
30
0
41
1
10
52.0086100832716
20
-5.02474418257347
30
0
41
1
10
52.0366479212464
20
-5.07044378838449
30
0
41
1
10
52.1213635786662
20
-5.20621925815698
30
0
41
1
10
52.1786413687183
20
-5.29497654987398
30
0
41
1
10
52.2945837947485
20
-5.46944322308926
30
0
41
1
10
52.3532492834349
20
-5.55515073056674
30
0
41
1
10
52.5310976768258
20
-5.80820322031963
30
0
41
1
10
52.6521198563033
20
-5.97150597679976
30
0
41
1
10
52.7752049490067
20
-6.13027501097952
30
0
0
SPLINE
5
FF
100
AcDbEntity
8
1
62
256
6
ByLayer
370
18
48
1
60
0
100
AcDbSpline
70
4
71
3
72
26
73
22
40
0
40
0
40
0
40
0
40
0.13595499314441
40
0.13595499314441
40
0.27190998628882
40
0.27190998628882
40
0.407864979433231
40
0.407864979433231
40
0.543819972577641
40
0.543819972577641
40
0.679774965722051
40
0.679774965722051
40
0.747752462294256
40
0.747752462294256
40
0.781741210580359
40
0.781741210580359
40
0.815729958866461
40
0.815729958866461
40
0.951684952010875
40
0.951684952010875
40
1
40
1
40
1
40
1
41
1
10
27.8571786822091
20
-7.77646326300018
30
0
41
1
10
28.137853122389
20
-7.84673501958125
30
0
41
1
10
28.4121627650675
20
-7.91302368048881
30
0
41
1
10
28.9496015850859
20
-8.03352835027067
30
0
41
1
10
29.212731472553
20
-8.08773658913898
30
0
41
1
10
29.7300460735074
20
-8.18003740503747
30
0
41
1
10
29.9842296817703
20
-8.21812555792283
30
0
41
1
10
30.4865686298218
20
-8.27441368669531
30
0
41
1
10
30.7347277682602
20
-8.29260630014994
30
0
41
1
10
31.2284536057054
20
-8.30624376843872
30
0
41
1
10
31.4740106929464
20
-8.30168649045132
30
0
41
1
10
31.843574954498
20
-8.27596291099519
30
0
41
1
10
31.9669751006834
20
-8.26424380454961
30
0
41
1
10
32.152870058159
20
-8.24175589808203
30
0
41
1
10
32.2149779709117
20
-8.23344054526746
30
0
41
1
10
32.3395067516532
20
-8.21515158105609
30
0
41
1
10
32.4018041229742
20
-8.20519634390652
30
0
41
1
10
32.7136729295356
20
-8.15136111912551
30
0
41
1
10
32.9643657223048
20
-8.09523580222634
30
0
41
1
10
33.3098474804293
20
-8.00204766515259
30
0
41
1
10
33.4009635392409
20
-7.97601892751078
30
0
41
1
10
33.492764517862
20
-7.94844126488232
30
0
0
SPLINE
5
100
100
AcDbEntity
8
1
62
256
6
ByLayer
370
18
48
1
60
0
100
AcDbSpline
70
4
71
3
72
92
73
88
40
0
40
0
40
0
40
0
40
0.0625000000000226
40
0.0625000000000226
40
0.125000000000045
40
0.125000000000045
40
0.156250000000057
40
0.156250000000057
40
0.187500000000068
40
0.187500000000068
40
0.195312500000073
40
0.195312500000073
40
0.203125000000079
40
0.203125000000079
40
0.21875000000009
40
0.21875000000009
40
0.250000000000109
40
0.250000000000109
40
0.281250000000128
40
0.281250000000128
40
0.296875000000139
40
0.296875000000139
40
0.304687500000145
40
0.304687500000145
40
0.31250000000015
40
0.31250000000015
40
0.328125000000158
40
0.328125000000158
40
0.335937500000161
40
0.335937500000161
40
0.343750000000163
40
0.343750000000163
40
0.359375000000169
40
0.359375000000169
40
0.375000000000174
40
0.375000000000174
40
0.382812500000176
40
0.382812500000176
40
0.386718750000176
40
0.386718750000176
40
0.390625000000177
40
0.406250000000178
40
0.406250000000178
40
0.414062500000179
40
0.414062500000179
40
0.417968750000179
40
0.417968750000179
40
0.421875000000179
40
0.437500000000179
40
0.437500000000179
40
0.445312500000179
40
0.445312500000179
40
0.453125000000179
40
0.453125000000179
40
0.468750000000179
40
0.468750000000179
40
0.484375000000179
40
0.484375000000179
40
0.492187500000178
40
0.492187500000178
40
0.500000000000177
40
0.500000000000177
40
0.53125000000017
40
0.53125000000017
40
0.562500000000162
40
0.562500000000162
40
0.570312500000161
40
0.570312500000161
40
0.578125000000159
40
0.578125000000159
40
0.593750000000153
40
0.593750000000153
40
0.625000000000141
40
0.625000000000141
40
0.656250000000129
40
0.656250000000129
40
0.687500000000118
40
0.687500000000118
40
0.750000000000094
40
0.750000000000094
40
0.812500000000071
40
0.812500000000071
40
0.875000000000047
40
0.875000000000047
40
0.937500000000024
40
0.937500000000024
40
1
40
1
40
1
40
1
41
1
10
27.6519176751834
20
-3.51810210331007
30
0
41
1
10
27.4304058374162
20
-3.49599954133103
30
0
41
1
10
27.2090312580356
20
-3.48316599652725
30
0
41
1
10
26.766823188583
20
-3.47832427593173
30
0
41
1
10
26.5459902402526
20
-3.48632640674074
30
0
41
1
10
26.2153099785063
20
-3.51629778881693
30
0
41
1
10
26.105177642731
20
-3.52929009247632
30
0
41
1
10
25.8851240574012
20
-3.56189237799634
30
0
41
1
10
25.7752027978263
20
-3.58149657525757
30
0
41
1
10
25.6379452723097
20
-3.61070878233602
30
0
41
1
10
25.6105009631391
20
-3.61678760238533
30
0
41
1
10
25.5556270144329
20
-3.62943716242529
30
0
41
1
10
25.5281713402772
20
-3.63601449886855
30
0
41
1
10
25.4460440987069
20
-3.65646197228202
30
0
41
1
10
25.3916399901752
20
-3.67103732962113
30
0
41
1
10
25.2295293391081
20
-3.71776387702573
30
0
41
1
10
25.1229159069938
20
-3.75289054723294
30
0
41
1
10
24.9130877272989
20
-3.83246835448711
30
0
41
1
10
24.8098637134894
20
-3.87689261229255
30
0
41
1
10
24.6582103991959
20
-3.95235414328809
30
0
41
1
10
24.6081933263693
20
-3.97898926601334
30
0
41
1
10
24.5341023271757
20
-4.02155094472278
30
0
41
1
10
24.5095761224879
20
-4.03616839591172
30
0
41
1
10
24.4611873752566
20
-4.06615027125537
30
0
41
1
10
24.4372863928701
20
-4.08153664510772
30
0
41
1
10
24.3665250328383
20
-4.12896438432281
30
0
41
1
10
24.3206010126094
20
-4.16226735562509
30
0
41
1
10
24.2539091676722
20
-4.21517588356306
30
0
41
1
10
24.232045383364
20
-4.233305923659
30
0
41
1
10
24.1891220958558
20
-4.27064838505993
30
0
41
1
10
24.1680090408005
20
-4.28991285066391
30
0
41
1
10
24.1064101063223
20
-4.34911023814306
30
0
41
1
10
24.0678274838468
20
-4.39025792973749
30
0
41
1
10
23.9963019119111
20
-4.47634055495467
30
0
41
1
10
23.9633550460575
20
-4.52127300863191
30
0
41
1
10
23.9188742811015
20
-4.59195917486824
30
0
41
1
10
23.9048731307669
20
-4.61607074744396
30
0
41
1
10
23.8852282682102
20
-4.6531370213728
30
0
41
1
10
23.8788908820264
20
-4.66567533923629
30
0
41
1
10
23.866773774423
20
-4.69089273946545
30
0
41
1
10
23.8379096000789
20
-4.75419970955971
30
0
41
1
10
23.8161902832145
20
-4.81880958482691
30
0
41
1
10
23.7970978342327
20
-4.89755606230602
30
0
41
1
10
23.7918963919755
20
-4.92400749424473
30
0
41
1
10
23.7858605042503
20
-4.96398546133236
30
0
41
1
10
23.7841440961249
20
-4.977367870526
30
0
41
1
10
23.7813253707953
20
-5.00396855399862
30
0
41
1
10
23.7757889548835
20
-5.07022477658489
30
0
41
1
10
23.777505257713
20
-5.13528188285864
30
0
41
1
10
23.7856751120422
20
-5.2122811269123
30
0
41
1
10
23.7894208692832
20
-5.2377775248849
30
0
41
1
10
23.798831674662
20
-5.28839061234413
30
0
41
1
10
23.8044441025297
20
-5.31323537022277
30
0
41
1
10
23.8236944764366
20
-5.38652592940605
30
0
41
1
10
23.8397343335647
20
-5.43373311860705
30
0
41
1
10
23.8769864825029
20
-5.52541499712515
30
0
41
1
10
23.8982014209662
20
-5.56988846192965
30
0
41
1
10
23.9332363017972
20
-5.63485986904357
30
0
41
1
10
23.9454780519033
20
-5.6562677864049
30
0
41
1
10
23.9708112683215
20
-5.69831888212047
30
0
41
1
10
23.9838904340649
20
-5.71894767446312
30
0
41
1
10
24.0511234601344
20
-5.82030623153665
30
0
41
1
10
24.1106880912556
20
-5.89576757217282
30
0
41
1
10
24.2376109319561
20
-6.0387703184843
30
0
41
1
10
24.3050138430533
20
-6.10627313743623
30
0
41
1
10
24.3928797241912
20
-6.18682728576988
30
0
41
1
10
24.4106360325012
20
-6.20274467319885
30
0
41
1
10
24.4464908501331
20
-6.23421412471805
30
0
41
1
10
24.4646025385727
20
-6.24977692560373
30
0
41
1
10
24.5192486199118
20
-6.29580507113005
30
0
41
1
10
24.5561331225725
20
-6.32564882739774
30
0
41
1
10
24.6679515892762
20
-6.41296112380428
30
0
41
1
10
24.7440414545903
20
-6.46822479940494
30
0
41
1
10
24.8985660825875
20
-6.57402564394283
30
0
41
1
10
24.9770053972166
20
-6.62455586655244
30
0
41
1
10
25.1357405596522
20
-6.72165404813092
30
0
41
1
10
25.2160387377957
20
-6.76821842421103
30
0
41
1
10
25.4591983275748
20
-6.90277709701897
30
0
41
1
10
25.6243052638149
20
-6.98566481001924
30
0
41
1
10
25.9586680734917
20
-7.14068118454765
30
0
41
1
10
26.1279346202425
20
-7.21279639582454
30
0
41
1
10
26.4694774128188
20
-7.34799789077221
30
0
41
1
10
26.6418949416263
20
-7.41111126708759
30
0
41
1
10
26.9875794538613
20
-7.52890148119542
30
0
41
1
10
27.1610066885733
20
-7.58364149991834
30
0
41
1
10
27.5086044369006
20
-7.68559497493879
30
0
41
1
10
27.682776585843
20
-7.73280430857102
30
0
41
1
10
27.8571786822091
20
-7.77646326300018
30
0
0
SPLINE
5
101
100
AcDbEntity
8
1
62
256
6
ByLayer
370
13
48
1
60
0
100
AcDbSpline
70
4
71
3
72
14
73
10
40
0
40
0
40
0
40
0
40
0.25
40
0.25
40
0.5
40
0.5
40
0.75
40
0.75
40
1
40
1
40
1
40
1
41
1
10
34
20
-3.17961572751395
30
0
41
1
10
34
20
-2.97090214056306
30
0
41
1
10
34
20
-2.76634545395118
30
0
41
1
10
34
20
-2.36822921024694
30
0
41
1
10
34
20
-2.17467169585603
30
0
41
1
10
34
20
-1.80102634013315
30
0
41
1
10
34
20
-1.62094023969885
30
0
41
1
10
34
20
-1.27643788000191
30
0
41
1
10
34
20
-1.11202299348165
30
0
41
1
10
34
20
-0.956383451313002
30
0
0
SPLINE
5
102
100
AcDbEntity
8
1
62
256
6
ByLayer
370
13
48
1
60
0
100
AcDbSpline
70
4
71
1
72
4
73
2
40
0
40
0
40
1
40
1
41
1
10
34
20
-0.956383451313002
30
0
41
1
10
26.9563163744212
20
3.93317425400531
30
0
0
SPLINE
5
103
100
AcDbEntity
8
1
62
256
6
ByLayer
370
18
48
1
60
0
100
AcDbSpline
70
4
71
3
72
8
73
4
40
0
40
0
40
0
40
0
40
1
40
1
40
1
40
1
41
1
10
53.0219436929646
20
-7.32372873704685
30
0
41
1
10
53.0002487071902
20
-7.4159986688677
30
0
41
1
10
52.9772119889714
20
-7.50706387930146
30
0
41
1
10
52.9527819110467
20
-7.596945670786
30
0
0
SPLINE
5
104
100
AcDbEntity
8
1
62
256
6
ByLayer
370
18
48
1
60
0
100
AcDbSpline
70
4
71
3
72
8
73
4
40
0
40
0
40
0
40
0
40
1
40
1
40
1
40
1
41
1
10
53.0219436929646
20
-7.32372873704679
30
0
41
1
10
52.9433845143055
20
-7.08904932225806
30
0
41
1
10
52.8685781411257
20
-6.84160497059321
30
0
41
1
10
52.7975531008945
20
-6.58129864762051
30
0
0
SPLINE
5
105
100
AcDbEntity
8
1
62
256
6
ByLayer
370
18
48
1
60
0
100
AcDbSpline
70
4
71
3
72
57
73
53
40
0
40
0
40
0
40
0
40
0.0653167855932849
40
0.0653167855932849
40
0.13063357118657
40
0.13063357118657
40
0.163291963983212
40
0.163291963983212
40
0.179621160381533
40
0.179621160381533
40
0.195950356779854
40
0.195950356779854
40
0.261267142373141
40
0.261267142373141
40
0.326583927966428
40
0.326583927966428
40
0.391900713559716
40
0.391900713559716
40
0.424559106356359
40
0.424559106356359
40
0.43272370455552
40
0.43272370455552
40
0.440888302754681
40
0.457217499153002
40
0.457217499153002
40
0.489875891949643
40
0.489875891949643
40
0.522534284746284
40
0.522534284746284
40
0.587851070339566
40
0.587851070339566
40
0.653167855932849
40
0.653167855932849
40
0.669497052331169
40
0.669497052331169
40
0.677661650530329
40
0.677661650530329
40
0.685826248729488
40
0.718484641526127
40
0.718484641526127
40
0.783801427119406
40
0.783801427119406
40
0.849118212712685
40
0.849118212712685
40
0.914434998305964
40
0.914434998305964
40
0.930764194704284
40
0.930764194704284
40
0.947093391102604
40
0.979751783899245
40
0.979751783899245
40
1
40
1
40
1
40
1
41
1
10
52.7975531008945
20
-6.58129864762049
30
0
41
1
10
52.4068951412178
20
-6.35475800655715
30
0
41
1
10
52.0177336622573
20
-6.11000269418582
30
0
41
1
10
51.2388283389302
20
-5.58769547625468
30
0
41
1
10
50.8490924245844
20
-5.31014223785635
30
0
41
1
10
50.2616221142407
20
-4.87100664332826
30
0
41
1
10
50.0653227336014
20
-4.72081761632705
30
0
41
1
10
49.7698618670966
20
-4.48995447323645
30
0
41
1
10
49.6711681688952
20
-4.41203913014058
30
0
41
1
10
49.4735529096693
20
-4.25448954757053
30
0
41
1
10
49.3749220994957
20
-4.17508782836694
30
0
41
1
10
48.8825401231016
20
-3.77506362423639
30
0
41
1
10
48.4910040557567
20
-3.44552575194405
30
0
41
1
10
47.7101194165576
20
-2.77038315843376
30
0
41
1
10
47.3208169609561
20
-2.42472092459531
30
0
41
1
10
46.5415687814511
20
-1.72010271984118
30
0
41
1
10
46.1515707910512
20
-1.36119632264672
30
0
41
1
10
45.5632080819179
20
-0.815855267358671
30
0
41
1
10
45.3665334059916
20
-0.632899902872794
30
0
41
1
10
45.119732318765
20
-0.402980945706133
30
0
41
1
10
45.070371762102
20
-0.356980066177698
30
0
41
1
10
44.9717764852687
20
-0.265074003082759
30
0
41
1
10
44.8240113066343
20
-0.127301515314855
30
0
41
1
10
44.6766023460804
20
0.0101835393458884
30
0
41
1
10
44.3821928406577
20
0.284700593387527
30
0
41
1
10
44.1864698670928
20
0.467111084819237
30
0
41
1
10
43.7956532933231
20
0.83028158175506
30
0
41
1
10
43.6005659570549
20
1.01104846551928
30
0
41
1
10
43.0158228564987
20
1.55045065729249
30
0
41
1
10
42.6267113905923
20
1.90622094721607
30
0
41
1
10
41.8469854166359
20
2.60693578375006
30
0
41
1
10
41.4563277942178
20
2.95182919109351
30
0
41
1
10
40.9646720291867
20
3.37361888812418
30
0
41
1
10
40.8661783394373
20
3.45751364874073
30
0
41
1
10
40.7181572735157
20
3.58261838112324
30
0
41
1
10
40.6687425307821
20
3.62422008025482
30
0
41
1
10
40.5700338069644
20
3.70698593657823
30
0
41
1
10
40.3234785927942
20
3.91287969114006
30
0
41
1
10
40.0779310734104
20
4.11362335181371
30
0
41
1
10
39.4900376499631
20
4.58510392132817
30
0
41
1
10
39.0999991703459
20
4.8856500701246
30
0
41
1
10
38.3203956925106
20
5.4573039030322
30
0
41
1
10
37.9309484578531
20
5.7284898417133
30
0
41
1
10
37.1502179336884
20
6.23898791216379
30
0
41
1
10
36.7589567828232
20
6.47824892052006
30
0
41
1
10
36.2664908397564
20
6.75525839390116
30
0
41
1
10
36.1677469854192
20
6.8095963772187
30
0
41
1
10
35.9705329566309
20
6.91564226092339
30
0
41
1
10
35.6749504298816
20
7.07086791653072
30
0
41
1
10
35.3798206832434
20
7.21446011112454
30
0
41
1
10
35.0610382877367
20
7.36097109773729
30
0
41
1
10
34.9390275037348
20
7.41500252039478
30
0
41
1
10
34.8169456958174
20
7.46698052237133
30
0
0
SPLINE
5
106
100
AcDbEntity
8
1
62
256
6
ByLayer
370
18
48
1
60
0
100
AcDbSpline
70
4
71
3
72
49
73
45
40
0
40
0
40
0
40
0
40
0.0709459608605091
40
0.0709459608605091
40
0.1554054189641
40
0.1554054189641
40
0.176520283489998
40
0.187077715752947
40
0.187077715752947
40
0.197635148015895
40
0.197635148015895
40
0.239864877067689
40
0.239864877067689
40
0.282094606119483
40
0.282094606119483
40
0.324324335171277
40
0.324324335171277
40
0.408783793274864
40
0.408783793274864
40
0.493243251378452
40
0.493243251378452
40
0.514358115904349
40
0.514358115904349
40
0.524915548167297
40
0.524915548167297
40
0.535472980430245
40
0.577702709482043
40
0.577702709482043
40
0.61993243853384
40
0.61993243853384
40
0.662162167585637
40
0.662162167585637
40
0.74662162568923
40
0.74662162568923
40
0.831081083792824
40
0.831081083792824
40
0.841638516055773
40
0.841638516055773
40
0.852195948318723
40
0.852195948318723
40
0.87331081284462
40
0.915540541896414
40
0.915540541896414
40
1
40
1
40
1
40
1
41
1
10
47.8411525140383
20
-7.76263080044299
30
0
41
1
10
47.5151595086779
20
-7.86840720309843
30
0
41
1
10
47.1897210749626
20
-7.95889430991818
30
0
41
1
10
46.4763617599012
20
-8.12258052313643
30
0
41
1
10
46.0882795570365
20
-8.1892002343003
30
0
41
1
10
45.6003382071335
20
-8.24374752877031
30
0
41
1
10
45.4537451173699
20
-8.25795241913656
30
0
41
1
10
45.3067746442505
20
-8.26888025459164
30
0
41
1
10
45.2087037571353
20
-8.27543223405169
30
0
41
1
10
45.1595923887961
20
-8.27834305532969
30
0
41
1
10
44.9142614907773
20
-8.29102833330563
30
0
41
1
10
44.7186878974893
20
-8.29521230837722
30
0
41
1
10
44.3285504234345
20
-8.29177358670583
30
0
41
1
10
44.1339872217327
20
-8.28414465791491
30
0
41
1
10
43.7453567019247
20
-8.25745861334627
30
0
41
1
10
43.5513065440244
20
-8.23839376364933
30
0
41
1
10
42.9695749079825
20
-8.16422742133142
30
0
41
1
10
42.5823409249658
20
-8.09218174849818
30
0
41
1
10
41.8064027774775
20
-7.90304004596328
30
0
41
1
10
41.4176461946779
20
-7.78593941818554
30
0
41
1
10
40.9284260076638
20
-7.61178803442752
30
0
41
1
10
40.8304223008604
20
-7.57556211434982
30
0
41
1
10
40.6831410139525
20
-7.5191193827626
30
0
41
1
10
40.6339871933518
20
-7.49994843520113
30
0
41
1
10
40.5358215873337
20
-7.46099965072571
30
0
41
1
10
40.2906212459596
20
-7.3620562417303
30
0
41
1
10
40.0464153689422
20
-7.25532588465563
30
0
41
1
10
39.6566242333036
20
-7.07482868457646
30
0
41
1
10
39.4622093974691
20
-6.97969135931288
30
0
41
1
10
39.0738442950877
20
-6.7801659664558
30
0
41
1
10
38.8798803755345
20
-6.67579632826039
30
0
41
1
10
38.298155686291
20
-6.3493245771478
30
0
41
1
10
37.9106304383484
20
-6.11383448177068
30
0
41
1
10
37.133924687422
20
-5.60806686603306
30
0
41
1
10
36.744774435712
20
-5.33767837426632
30
0
41
1
10
36.3040602175743
20
-5.01501988604608
30
0
41
1
10
36.2550510765214
20
-4.97891231244247
30
0
41
1
10
36.1569434695236
20
-4.90618780482794
30
0
41
1
10
36.1078481262661
20
-4.86957292799607
30
0
41
1
10
35.9606897766436
20
-4.75917655472134
30
0
41
1
10
35.6666119878572
20
-4.53597563491564
30
0
41
1
10
35.37298661763
20
-4.30581947868311
30
0
41
1
10
34.7856500408953
20
-3.83689376154993
30
0
41
1
10
34.3940174440363
20
-3.51269492638204
30
0
41
1
10
34
20
-3.1795902662771
30
0
0
SPLINE
5
107
100
AcDbEntity
8
1
62
256
6
ByLayer
370
18
48
1
60
0
100
AcDbSpline
70
4
71
3
72
31
73
27
40
0
40
0
40
0
40
0
40
0.124999999999996
40
0.124999999999996
40
0.249999999999993
40
0.249999999999993
40
0.374999999999989
40
0.374999999999989
40
0.499999999999985
40
0.499999999999985
40
0.562499999999984
40
0.562499999999984
40
0.578124999999985
40
0.578124999999985
40
0.593749999999986
40
0.624999999999987
40
0.624999999999987
40
0.749999999999991
40
0.749999999999991
40
0.812499999999993
40
0.812499999999993
40
0.874999999999995
40
0.874999999999995
40
0.937499999999998
40
0.937499999999998
40
1
40
1
40
1
40
1
41
1
10
26.9563163744212
20
3.93317425400534
30
0
41
1
10
27.2799331264863
20
3.68720951769586
30
0
41
1
10
27.5950599952108
20
3.43054478098858
30
0
41
1
10
28.2110273519431
20
2.89675908760412
30
0
41
1
10
28.5118719804773
20
2.61964819221441
30
0
41
1
10
29.1026357505261
20
2.04688103037853
30
0
41
1
10
29.3925492857038
20
1.75121823939131
30
0
41
1
10
29.9657386328631
20
1.14418018016815
30
0
41
1
10
30.2490150551713
20
0.832796595417932
30
0
41
1
10
30.6730386851079
20
0.35698330146397
30
0
41
1
10
30.8142341117777
20
0.196929884597154
30
0
41
1
10
30.9910407849637
20
-0.0045443379628693
30
0
41
1
10
31.0264361878679
20
-0.0449300108117257
30
0
41
1
10
31.0971197731612
20
-0.125655611983205
30
0
41
1
10
31.203023059982
20
-0.246719186846889
30
0
41
1
10
31.3086202340308
20
-0.367649670155515
30
0
41
1
10
31.6602118268778
20
-0.770182962072056
30
0
41
1
10
31.9401218842805
20
-1.09046749314129
30
0
41
1
10
32.3642669528556
20
-1.56223313431229
30
0
41
1
10
32.5063787488416
20
-1.71802992502015
30
0
41
1
10
32.7933791792107
20
-2.02546595143829
30
0
41
1
10
32.9382658703217
20
-2.17710719802864
30
0
41
1
10
33.2322965879071
20
-2.47486565574161
30
0
41
1
10
33.3814393339495
20
-2.62098382959468
30
0
41
1
10
33.6857189558355
20
-2.90610809318812
30
0
41
1
10
33.840855182743
20
-3.04511449772178
30
0
41
1
10
34.0000000000001
20
-3.17965037953144
30
0
0
SPLINE
5
108
100
AcDbEntity
8
1
62
256
6
ByLayer
370
18
48
1
60
0
100
AcDbSpline
70
4
71
3
72
80
73
76
40
0
40
0
40
0
40
0
40
0.0624999999999889
40
0.0624999999999889
40
0.124999999999978
40
0.124999999999978
40
0.187499999999967
40
0.187499999999967
40
0.218749999999961
40
0.218749999999961
40
0.234374999999956
40
0.234374999999956
40
0.249999999999951
40
0.249999999999951
40
0.281249999999945
40
0.281249999999945
40
0.296874999999942
40
0.296874999999942
40
0.312499999999939
40
0.312499999999939
40
0.343749999999938
40
0.343749999999938
40
0.374999999999936
40
0.374999999999936
40
0.382812499999935
40
0.382812499999935
40
0.390624999999934
40
0.406249999999931
40
0.406249999999931
40
0.421874999999929
40
0.421874999999929
40
0.429687499999929
40
0.429687499999929
40
0.437499999999929
40
0.437499999999929
40
0.468749999999929
40
0.468749999999929
40
0.476562499999929
40
0.476562499999929
40
0.484374999999929
40
0.49999999999993
40
0.49999999999993
40
0.50781249999993
40
0.50781249999993
40
0.515624999999931
40
0.515624999999931
40
0.531249999999932
40
0.531249999999932
40
0.562499999999933
40
0.562499999999933
40
0.570312499999934
40
0.570312499999934
40
0.578124999999935
40
0.578124999999935
40
0.593749999999934
40
0.593749999999934
40
0.624999999999936
40
0.624999999999936
40
0.656249999999938
40
0.656249999999938
40
0.68749999999994
40
0.68749999999994
40
0.703124999999941
40
0.703124999999941
40
0.718749999999942
40
0.718749999999942
40
0.749999999999947
40
0.749999999999947
40
0.81249999999996
40
0.81249999999996
40
0.874999999999973
40
0.874999999999973
40
0.937499999999987
40
0.937499999999987
40
1
40
1
40
1
40
1
41
1
10
27.8066937693464
20
6.23105230399597
30
0
41
1
10
27.6349127092334
20
6.2540878900673
30
0
41
1
10
27.4633769574212
20
6.27516805217331
30
0
41
1
10
27.1209354080065
20
6.31391881068365
30
0
41
1
10
26.9500288795864
20
6.33159936718482
30
0
41
1
10
26.6089856759682
20
6.36373334746114
30
0
41
1
10
26.4388477932316
20
6.37820209649928
30
0
41
1
10
26.1843435262538
20
6.39712439484555
30
0
41
1
10
26.0996261563501
20
6.40296220105284
30
0
41
1
10
25.9727473298897
20
6.41087626655445
30
0
41
1
10
25.9304873097731
20
6.41337303725686
30
0
41
1
10
25.8460374653256
20
6.41804830529142
30
0
41
1
10
25.8037864762064
20
6.42022929236589
30
0
41
1
10
25.6780657965645
20
6.42618293367082
30
0
41
1
10
25.5953859855858
20
6.42938904928471
30
0
41
1
10
25.4733364137532
20
6.43271240475002
30
0
41
1
10
25.4329831464085
20
6.43357037458537
30
0
41
1
10
25.3529962906034
20
6.43470807679174
30
0
41
1
10
25.3133264172851
20
6.43498807789015
30
0
41
1
10
25.1957417326988
20
6.4348066978497
30
0
41
1
10
25.1199466587797
20
6.4333426743521
30
0
41
1
10
24.9745530586167
20
6.42675846562773
30
0
41
1
10
24.9049367189847
20
6.42165540604256
30
0
41
1
10
24.8228783986958
20
6.41194547365507
30
0
41
1
10
24.806684539539
20
6.40982933692896
30
0
41
1
10
24.7750058844113
20
6.40524394152536
30
0
41
1
10
24.7286339658998
20
6.39784970855001
30
0
41
1
10
24.6858401479693
20
6.38879366533936
30
0
41
1
10
24.6322916811357
20
6.37498370907034
30
0
41
1
10
24.6072712259204
20
6.3672119996213
30
0
41
1
10
24.5727010428293
20
6.3540021972417
30
0
41
1
10
24.5616357327033
20
6.34932087003571
30
0
41
1
10
24.5408007422169
20
6.3395060619109
30
0
41
1
10
24.5310186347373
20
6.33437177162884
30
0
41
1
10
24.4853017826184
20
6.30752299614036
30
0
41
1
10
24.4589175017848
20
6.2822896811561
30
0
41
1
10
24.4392499528119
20
6.24524323399444
30
0
41
1
10
24.435978032758
20
6.23752870367866
30
0
41
1
10
24.430844701699
20
6.22174823967535
30
0
41
1
10
24.4252216429304
20
6.19750902794777
30
0
41
1
10
24.4254845867783
20
6.17159698825577
30
0
41
1
10
24.4292941062729
20
6.14460607614646
30
0
41
1
10
24.4311559010753
20
6.13542921707381
30
0
41
1
10
24.4360096405299
20
6.11672095646387
30
0
41
1
10
24.439011479561
20
6.1071639408863
30
0
41
1
10
24.4495615295742
20
6.0781723286907
30
0
41
1
10
24.4586164657191
20
6.05846721336485
30
0
41
1
10
24.490883254085
20
5.99830034774243
30
0
41
1
10
24.5191501880899
20
5.95679050958421
30
0
41
1
10
24.5607925642512
20
5.90335259923992
30
0
41
1
10
24.5694404974403
20
5.89258720068787
30
0
41
1
10
24.587335938295
20
5.87090468304928
30
0
41
1
10
24.5965979917892
20
5.85997112015218
30
0
41
1
10
24.6250905683434
20
5.82710796489886
30
0
41
1
10
24.6450335836341
20
5.80510130226116
30
0
41
1
10
24.7072760413
20
5.73878171890129
30
0
41
1
10
24.7519683225204
20
5.69416869940008
30
0
41
1
10
24.8461726181304
20
5.6041338266366
30
0
41
1
10
24.8956958516756
20
5.55871242954709
30
0
41
1
10
24.9985652904007
20
5.46706519838347
30
0
41
1
10
25.0519169853747
20
5.42083955820519
30
0
41
1
10
25.1342922204442
20
5.35090313061471
30
0
41
1
10
25.1621023147388
20
5.32752691504837
30
0
41
1
10
25.2181852359105
20
5.28078431325761
30
0
41
1
10
25.2464844788242
20
5.2573955432039
30
0
41
1
10
25.3320750159064
20
5.18716203504783
30
0
41
1
10
25.3900559940147
20
5.14024951838274
30
0
41
1
10
25.5662578664086
20
4.9991502921618
30
0
41
1
10
25.6867143418362
20
4.90459693009899
30
0
41
1
10
25.9318266536181
20
4.71421162794761
30
0
41
1
10
26.056497359528
20
4.61838286136435
30
0
41
1
10
26.308975625188
20
4.42526356409655
30
0
41
1
10
26.436790021258
20
4.32797432093037
30
0
41
1
10
26.6948493215164
20
4.13179910708837
30
0
41
1
10
26.825097673042
20
4.03291373418782
30
0
41
1
10
26.9563163744212
20
3.93317425400531
30
0
0
SPLINE
5
109
100
AcDbEntity
8
1
62
256
6
ByLayer
370
18
48
1
60
0
100
AcDbSpline
70
4
71
3
72
8
73
4
40
0
40
0
40
0
40
0
40
1
40
1
40
1
40
1
41
1
10
49.952420711168
20
9.00693843635426
30
0
41
1
10
49.9547811235402
20
9.00720520218999
30
0
41
1
10
49.9571390811117
20
9.00746792177085
30
0
41
1
10
49.959494658041
20
9.00772663156761
30
0
0
SPLINE
5
10A
100
AcDbEntity
8
1
62
256
6
ByLayer
370
13
48
1
60
0
100
AcDbSpline
70
4
71
3
72
9
73
5
40
0
40
0
40
0
40
0
40
0.715919524914774
40
1
40
1
40
1
40
1
41
1
10
51.2061249498361
20
8.82583977883718
30
0
41
1
10
50.5540832998908
20
8.61152114740884
30
0
41
1
10
49.6433082375359
20
8.21631443133751
30
0
41
1
10
48.732533175181
20
7.69560258561995
30
0
41
1
10
48.4737997627715
20
7.5382827347901
30
0
0
SPLINE
5
10B
100
AcDbEntity
8
1
62
256
6
ByLayer
370
18
48
1
60
0
100
AcDbSpline
70
4
71
3
72
20
73
16
40
0
40
0
40
0
40
0
40
0.125
40
0.125
40
0.25
40
0.25
40
0.375
40
0.375
40
0.5
40
0.5
40
0.625
40
0.625
40
0.75
40
0.75
40
1
40
1
40
1
40
1
41
1
10
49.959494658041
20
9.00772663156761
30
0
41
1
10
50.0130786234132
20
9.02206286034888
30
0
41
1
10
50.0662139269707
20
9.03275212553032
30
0
41
1
10
50.1718864514133
20
9.0478909544137
30
0
41
1
10
50.224429538901
20
9.05239291966868
30
0
41
1
10
50.3291177036456
20
9.05569533635054
30
0
41
1
10
50.3812608239154
20
9.05447733932562
30
0
41
1
10
50.4853459594245
20
9.04698473233515
30
0
41
1
10
50.5372879858615
20
9.04071551818114
30
0
41
1
10
50.641110182342
20
9.0234039053517
30
0
41
1
10
50.6929887443782
20
9.01234552394592
30
0
41
1
10
50.796820269756
20
8.98577009930665
30
0
41
1
10
50.848483233087
20
8.9703312907468
30
0
41
1
10
51.0027069350918
20
8.91813804525395
30
0
41
1
10
51.1045985166087
20
8.87540856597224
30
0
41
1
10
51.2061249498364
20
8.82583977883726
30
0
0
SPLINE
5
10C
100
AcDbEntity
8
1
62
256
6
ByLayer
370
13
48
1
60
0
100
AcDbSpline
70
4
71
3
72
11
73
7
40
0
40
0
40
0
40
0
40
0.256678315998826
40
0.517083937950264
40
0.777489559901702
40
1
40
1
40
1
40
1
41
1
10
51.464216345209
20
-3.97685318367274
30
0
41
1
10
50.642810896806
20
-3.47039344579414
30
0
41
1
10
48.9880721150697
20
-2.35432950392285
30
0
41
1
10
46.5
20
-0.473176916004661
30
0
41
1
10
44.1212697251861
20
1.33900816332675
30
0
41
1
10
42.5758727837055
20
2.46318044370906
30
0
41
1
10
41.8638091755581
20
2.95257303378352
30
0
0
SPLINE
5
10D
100
AcDbEntity
8
1
62
256
6
ByLayer
370
18
48
1
60
0
100
AcDbSpline
70
4
71
3
72
20
73
16
40
0
40
0
40
0
40
0
40
0.25
40
0.25
40
0.375
40
0.375
40
0.5
40
0.5
40
0.625
40
0.625
40
0.75
40
0.75
40
0.875
40
0.875
40
1
40
1
40
1
40
1
41
1
10
49.6291893215818
20
-0.22128126399204
30
0
41
1
10
49.7911443630377
20
-0.531594040801252
30
0
41
1
10
49.9520595037538
20
-0.842330665826296
30
0
41
1
10
50.1910002120076
20
-1.30904537822477
30
0
41
1
10
50.2702433164156
20
-1.46473237374073
30
0
41
1
10
50.4277129074843
20
-1.77639696233757
30
0
41
1
10
50.5059405790917
20
-1.93237421670452
30
0
41
1
10
50.6610829653597
20
-2.24470403080019
30
0
41
1
10
50.737999756147
20
-2.40105599707349
30
0
41
1
10
50.8900883882229
20
-2.71425871894041
30
0
41
1
10
50.9652641744499
20
-2.87110834688357
30
0
41
1
10
51.1132176015223
20
-3.18549310645099
30
0
41
1
10
51.1860036172945
20
-3.34302584412407
30
0
41
1
10
51.3281312282709
20
-3.65907589821887
30
0
41
1
10
51.3974936655991
20
-3.81758725698219
30
0
41
1
10
51.4642163452191
20
-3.97685318367894
30
0
0
SPLINE
5
10E
100
AcDbEntity
8
1
62
256
6
ByLayer
370
18
48
1
60
0
100
AcDbSpline
70
4
71
3
72
50
73
46
40
0
40
0
40
0
40
0
40
0.0625000000000113
40
0.0625000000000113
40
0.125000000000023
40
0.125000000000023
40
0.140625000000026
40
0.140625000000026
40
0.156250000000028
40
0.156250000000028
40
0.187500000000034
40
0.187500000000034
40
0.250000000000044
40
0.250000000000044
40
0.28125000000005
40
0.28125000000005
40
0.312500000000056
40
0.312500000000056
40
0.375000000000064
40
0.375000000000064
40
0.437500000000072
40
0.437500000000072
40
0.468750000000072
40
0.468750000000072
40
0.500000000000072
40
0.500000000000072
40
0.562500000000072
40
0.562500000000072
40
0.593750000000073
40
0.593750000000073
40
0.625000000000073
40
0.625000000000073
40
0.687500000000061
40
0.687500000000061
40
0.750000000000049
40
0.750000000000049
40
0.812500000000037
40
0.812500000000037
40
0.875000000000025
40
0.875000000000025
40
0.906250000000019
40
0.906250000000019
40
0.937500000000013
40
0.937500000000013
40
1
40
1
40
1
40
1
41
1
10
49.6291893215818
20
-0.22128126399204
30
0
41
1
10
49.6073476676267
20
-0.179431722119205
30
0
41
1
10
49.5887464599163
20
-0.136541010941272
30
0
41
1
10
49.5578414357392
20
-0.048729636070334
30
0
41
1
10
49.5455369735293
20
-0.0038091930383928
30
0
41
1
10
49.5341175477944
20
0.0536231324290668
30
0
41
1
10
49.5320323127253
20
0.0651738803752835
30
0
41
1
10
49.5282623057591
20
0.0884050989412799
30
0
41
1
10
49.5265756420536
20
0.100105108525725
30
0
41
1
10
49.5221525222708
20
0.135139288339275
30
0
41
1
10
49.5200390896046
20
0.158471028939431
30
0
41
1
10
49.5161014405948
20
0.228389353543577
30
0
41
1
10
49.5166694502495
20
0.274899298176877
30
0
41
1
10
49.5220944707362
20
0.344491622703174
30
0
41
1
10
49.5246675940131
20
0.367660238971155
30
0
41
1
10
49.5313396110417
20
0.413935747392458
30
0
41
1
10
49.5354578084709
20
0.437114736861162
30
0
41
1
10
49.549896134404
20
0.505560031929434
30
0
41
1
10
49.5623052977075
20
0.549994204406516
30
0
41
1
10
49.5923197657124
20
0.636531988800357
30
0
41
1
10
49.6099254457556
20
0.6786358067707
30
0
41
1
10
49.6402317722809
20
0.739991042656499
30
0
41
1
10
49.6509901808277
20
0.760132517756006
30
0
41
1
10
49.6734644401821
20
0.799185301744757
30
0
41
1
10
49.6852189775485
20
0.818178758785564
30
0
41
1
10
49.7219962165959
20
0.873589702995446
30
0
41
1
10
49.7485225775419
20
0.908445476760875
30
0
41
1
10
49.7913536329169
20
0.957578525374089
30
0
41
1
10
49.806140033403
20
0.973429206520336
30
0
41
1
10
49.8367681621127
20
1.00404810468999
30
0
41
1
10
49.8525448400993
20
1.0187436327557
30
0
41
1
10
49.900764899678
20
1.06055486115315
30
0
41
1
10
49.9342838812791
20
1.08560231702205
30
0
41
1
10
50.0042041626475
20
1.13010492153671
30
0
41
1
10
50.0406037462898
20
1.14956135784132
30
0
41
1
10
50.1166826211614
20
1.18258298836793
30
0
41
1
10
50.1554939109971
20
1.19576170232699
30
0
41
1
10
50.2346563134861
20
1.21556611916205
30
0
41
1
10
50.2750446188371
20
1.22220804020554
30
0
41
1
10
50.3371086186112
20
1.22713660620937
30
0
41
1
10
50.3580983369876
20
1.22793678210192
30
0
41
1
10
50.4003934956915
20
1.22779065955604
30
0
41
1
10
50.4215700370764
20
1.22684935495275
30
0
41
1
10
50.4852377493601
20
1.22146752765386
30
0
41
1
10
50.5278664923368
20
1.21447998414288
30
0
41
1
10
50.5708173908761
20
1.20408055433683
30
0
0
SPLINE
5
10F
100
AcDbEntity
8
1
62
256
6
ByLayer
370
18
48
1
60
0
100
AcDbSpline
70
4
71
3
72
18
73
14
40
0
40
0
40
0
40
0
40
0.250000000000017
40
0.250000000000017
40
0.312500000000022
40
0.312500000000022
40
0.375000000000027
40
0.375000000000027
40
0.500000000000022
40
0.500000000000022
40
0.750000000000011
40
0.750000000000011
40
1
40
1
40
1
40
1
41
1
10
52.4250588436766
20
0.752962748574674
30
0
41
1
10
52.2990679983172
20
0.783911275433667
30
0
41
1
10
52.1612160141728
20
0.817641898894266
30
0
41
1
10
51.9775242691592
20
0.862473662195498
30
0
41
1
10
51.9402072081522
20
0.87157578526427
30
0
41
1
10
51.8650337718009
20
0.889901676892606
30
0
41
1
10
51.8271101560074
20
0.899141862640562
30
0
41
1
10
51.712417559907
20
0.927073747618749
30
0
41
1
10
51.6347297071177
20
0.945976115153059
30
0
41
1
10
51.3985766743743
20
1.00339153619979
30
0
41
1
10
51.2370493251346
20
1.04260664796573
30
0
41
1
10
50.9080439908566
20
1.12240116347039
30
0
41
1
10
50.7405525517638
20
1.16298365179688
30
0
41
1
10
50.570817390876
20
1.20408055433683
30
0
0
SPLINE
5
110
100
AcDbEntity
8
1
62
256
6
ByLayer
370
18
48
1
60
0
100
AcDbSpline
70
4
71
3
72
24
73
20
40
0
40
0
40
0
40
0
40
0.124999999999999
40
0.124999999999999
40
0.249999999999999
40
0.249999999999999
40
0.374999999999999
40
0.374999999999999
40
0.406250000000003
40
0.406250000000003
40
0.437500000000006
40
0.437500000000006
40
0.500000000000007
40
0.500000000000007
40
0.750000000000002
40
0.750000000000002
40
0.875000000000001
40
0.875000000000001
40
1
40
1
40
1
40
1
41
1
10
51.5450505862953
20
2.11392315229921
30
0
41
1
10
51.6030980763276
20
2.04983199011753
30
0
41
1
10
51.6587701847534
20
1.98733471169072
30
0
41
1
10
51.7652516724604
20
1.86495919216711
30
0
41
1
10
51.8160116579453
20
1.80511577794573
30
0
41
1
10
51.9125658538347
20
1.68737174795959
30
0
41
1
10
51.9582975350348
20
1.62951382325212
30
0
41
1
10
52.0122212198348
20
1.55797573220778
30
0
41
1
10
52.0228504364717
20
1.54369966614965
30
0
41
1
10
52.0436996219556
20
1.51532425770901
30
0
41
1
10
52.0539275165541
20
1.50121334627357
30
0
41
1
10
52.0840279611703
20
1.45908719666571
30
0
41
1
10
52.1033273434026
20
1.43127145593195
30
0
41
1
10
52.1959866300546
20
1.29328340415884
30
0
41
1
10
52.257721704916
20
1.18646223190598
30
0
41
1
10
52.3328005078047
20
1.02587072814984
30
0
41
1
10
52.3549390583902
20
0.972258339118468
30
0
41
1
10
52.3938566618921
20
0.863809190428867
30
0
41
1
10
52.4106336505326
20
0.808971253521065
30
0
41
1
10
52.4250588436765
20
0.752962748574674
30
0
0
SPLINE
5
111
100
AcDbEntity
8
1
62
256
6
ByLayer
370
18
48
1
60
0
100
AcDbSpline
70
4
71
3
72
41
73
37
40
0
40
0
40
0
40
0
40
0.0156249999999985
40
0.0156249999999985
40
0.0234374999999978
40
0.0234374999999978
40
0.031249999999997
40
0.031249999999997
40
0.0390624999999963
40
0.0390624999999963
40
0.0468749999999955
40
0.0468749999999955
40
0.0624999999999941
40
0.0624999999999941
40
0.0781249999999926
40
0.0781249999999926
40
0.0937499999999911
40
0.0937499999999911
40
0.124999999999989
40
0.124999999999989
40
0.156249999999987
40
0.156249999999987
40
0.187499999999984
40
0.187499999999984
40
0.249999999999979
40
0.249999999999979
40
0.312499999999973
40
0.312499999999973
40
0.374999999999968
40
0.374999999999968
40
0.499999999999974
40
0.499999999999974
40
0.624999999999981
40
0.749999999999987
40
0.749999999999987
40
1
40
1
40
1
40
1
41
1
10
53.8265516780536
20
0.421618265774015
30
0
41
1
10
53.8210223624585
20
0.42298569289315
30
0
41
1
10
53.8146123478501
20
0.424560140257626
30
0
41
1
10
53.8032308750861
20
0.427335424443186
30
0
41
1
10
53.7992492965081
20
0.428303425630418
30
0
41
1
10
53.7909095879056
20
0.430325479227378
30
0
41
1
10
53.7865228222339
20
0.431386439326559
30
0
41
1
10
53.7775037307547
20
0.433562855643714
30
0
41
1
10
53.7729510871181
20
0.434659127437016
30
0
41
1
10
53.7637749925429
20
0.436864919099776
30
0
41
1
10
53.7591231823398
20
0.437981224056387
30
0
41
1
10
53.745372089013
20
0.441276584088797
30
0
41
1
10
53.7364203572495
20
0.443415940727959
30
0
41
1
10
53.7187746253534
20
0.447625878121016
30
0
41
1
10
53.7100681553818
20
0.449699319704081
30
0
41
1
10
53.6932023654461
20
0.453711139479793
30
0
41
1
10
53.6849807899252
20
0.455664348873881
30
0
41
1
10
53.6607327030592
20
0.461420072195125
30
0
41
1
10
53.6451130830698
20
0.465121112378739
30
0
41
1
10
53.614430591405
20
0.472384346503958
30
0
41
1
10
53.5993784854459
20
0.475943855607142
30
0
41
1
10
53.5696105992077
20
0.482978998289241
30
0
41
1
10
53.5548928268671
20
0.486455060280093
30
0
41
1
10
53.5111639955787
20
0.496778797653178
30
0
41
1
10
53.482519500421
20
0.503535852910233
30
0
41
1
10
53.4256384402281
20
0.516949248247499
30
0
41
1
10
53.3974135684548
20
0.523602701340423
30
0
41
1
10
53.3411017054684
20
0.536875565753263
30
0
41
1
10
53.3130187570217
20
0.54349397932279
30
0
41
1
10
53.2287825215434
20
0.563346104284307
30
0
41
1
10
53.1726342904286
20
0.576578565650863
30
0
41
1
10
53.059882657311
20
0.603155993480044
30
0
41
1
10
52.946695512745
20
0.629841067159731
30
0
41
1
10
52.8322521728672
20
0.656836636035791
30
0
41
1
10
52.6595370242065
20
0.697589553339299
30
0
41
1
10
52.5429785134242
20
0.725107931367006
30
0
41
1
10
52.4250588436765
20
0.752962748574561
30
0
0
SPLINE
5
112
100
AcDbEntity
8
1
62
256
6
ByLayer
370
13
48
1
60
0
100
AcDbSpline
70
4
71
3
72
13
73
9
40
0
40
0
40
0
40
0
40
0.110913772622996
40
0.259094810519164
40
0.407275848415331
40
0.555456886311498
40
0.703637924207665
40
1
40
1
40
1
40
1
41
1
10
32.0276917594828
20
-8.35624919079305
30
0
41
1
10
31.4351278396552
20
-8.525793341174
30
0
41
1
10
30.0508972531609
20
-8.79528288918689
30
0
41
1
10
27.875
20
-8.73095865312723
30
0
41
1
10
25.5
20
-8.05757725451071
30
0
41
1
10
23.1250000000001
20
-6.82539968519649
30
0
41
1
10
19.9583333333333
20
-4.55522305297308
30
0
41
1
10
17.5833333333334
20
-2.31928496843761
30
0
41
1
10
16
20
-0.784283334950459
30
0
0
SPLINE
5
113
100
AcDbEntity
8
1
62
256
6
ByLayer
370
13
48
1
60
0
100
AcDbSpline
70
4
71
5
72
12
73
6
40
0
40
0
40
0
40
0
40
0
40
0
40
1
40
1
40
1
40
1
40
1
40
1
41
1
10
16.0000000000803
20
4.88496240896171
30
0
41
0.986734859160823
10
16.0000000000802
20
4.06266007450156
30
0
41
0.980212266217162
10
16.0000000000802
20
3.04514807666434
30
0
41
0.980212266217162
10
16.0000000000802
20
1.86890592448613
30
0
41
0.986734859160823
10
16.0000000000802
20
0.576634332047444
30
0
41
1
10
16.0000000000803
20
-0.784283335028221
30
0
0
SPLINE
5
114
100
AcDbEntity
8
1
62
256
6
ByLayer
370
18
48
1
60
0
100
AcDbSpline
70
4
71
1
72
4
73
2
40
0
40
0
40
1
40
1
41
1
10
16
20
4.88496240900633
30
0
41
1
10
9.45315867918507
20
8.52727971684288
30
0
0
SPLINE
5
115
100
AcDbEntity
8
1
62
256
6
ByLayer
370
18
48
1
60
0
100
AcDbSpline
70
4
71
3
72
26
73
22
40
0
40
0
40
0
40
0
40
0.125000000000042
40
0.125000000000042
40
0.187500000000051
40
0.187500000000051
40
0.25000000000006
40
0.25000000000006
40
0.375000000000084
40
0.375000000000084
40
0.437500000000073
40
0.437500000000073
40
0.500000000000063
40
0.500000000000063
40
0.625000000000097
40
0.625000000000097
40
0.687500000000088
40
0.687500000000088
40
0.75000000000008
40
0.75000000000008
40
1
40
1
40
1
40
1
41
1
10
52.9527819110468
20
-7.596945670786
30
0
41
1
10
52.9495159494556
20
-7.60896307121374
30
0
41
1
10
52.9457371389496
20
-7.62150928929952
30
0
41
1
10
52.9392283754542
20
-7.64116379992745
30
0
41
1
10
52.9369182678621
20
-7.64785489097676
30
0
41
1
10
52.9319990030733
20
-7.66152871293195
30
0
41
1
10
52.9293743223283
20
-7.66855000881009
30
0
41
1
10
52.9211825027035
20
-7.68965910198941
30
0
41
1
10
52.9152811319129
20
-7.70385335373663
30
0
41
1
10
52.9057764209949
20
-7.72530952941079
30
0
41
1
10
52.9024991262052
20
-7.73248915641838
30
0
41
1
10
52.8957244803802
20
-7.74690173438105
30
0
41
1
10
52.8922451083203
20
-7.7540946923971
30
0
41
1
10
52.8816783919699
20
-7.77535739647249
30
0
41
1
10
52.8744089127578
20
-7.7892278218805
30
0
41
1
10
52.8631950964566
20
-7.80962526788292
30
0
41
1
10
52.8593909560064
20
-7.81638083751142
30
0
41
1
10
52.8517675770057
20
-7.82961433859677
30
0
41
1
10
52.8479488705703
20
-7.83609298222797
30
0
41
1
10
52.8288203885383
20
-7.86786104975434
30
0
41
1
10
52.8134050106668
20
-7.89130852679904
30
0
41
1
10
52.797886477908
20
-7.91327865251859
30
0
0
SPLINE
5
116
100
AcDbEntity
8
1
62
256
6
ByLayer
370
13
48
1
60
0
100
AcDbSpline
70
4
71
3
72
13
73
9
40
0
40
0
40
0
40
0
40
0.246720117641586
40
0.40496877864175
40
0.563217439641914
40
0.721466100642077
40
0.879714761642241
40
1
40
1
40
1
40
1
41
1
10
52.9527819110467
20
-7.596945670786
30
0
41
1
10
51.7185212740311
20
-7.00264148883102
30
0
41
1
10
49.6925939703489
20
-5.67055340819257
30
0
41
1
10
46.875
20
-3.26026170124115
30
0
41
1
10
44.5
20
-1.00290802522164
30
0
41
1
10
42.1250000000001
20
1.32248163835823
30
0
41
1
10
39.9399186765223
20
3.37964817759689
30
0
41
1
10
38.5465040197112
20
4.56343463526267
30
0
41
1
10
37.9447560295668
20
5.04099032326852
30
0
0
SPLINE
5
117
100
AcDbEntity
8
1
62
256
6
ByLayer
370
13
48
1
60
0
100
AcDbSpline
70
4
71
5
72
12
73
6
40
0
40
0
40
0
40
0
40
0
40
0
40
1
40
1
40
1
40
1
40
1
40
1
41
0.979997494516001
10
34.0000000000171
20
5.54699664108144
30
0
41
0.905653775633702
10
34.000000000017
20
4.7152067396787
30
0
41
0.873996937079623
10
34.000000000017
20
3.33683769877348
30
0
41
0.87759979359449
10
34.000000000017
20
1.70420618253123
30
0
41
0.916859989760237
10
34.000000000017
20
0.16393960645203
30
0
41
1
10
34.0000000000171
20
-0.956383451324768
30
0
0
SPLINE
5
118
100
AcDbEntity
8
1
62
256
6
ByLayer
370
13
48
1
60
0
100
AcDbSpline
70
4
71
3
72
11
73
7
40
0
40
0
40
0
40
0
40
0.164556930921288
40
0.373417698190966
40
0.582278465460644
40
1
40
1
40
1
40
1
41
1
10
45.9696965240583
20
-6.29644426739733
30
0
41
1
10
45.3131310160388
20
-6.25599665320928
30
0
41
1
10
43.8232321746861
20
-6.05222346286513
30
0
41
1
10
41.5
20
-5.33018786527211
30
0
41
1
10
38.1666666666667
20
-3.77464159037802
30
0
41
1
10
35.6666666666667
20
-2.11334382537117
30
0
41
1
10
34
20
-0.956383451313002
30
0
0
SPLINE
5
119
100
AcDbEntity
8
1
62
256
6
ByLayer
370
13
48
1
60
0
100
AcDbSpline
70
4
71
3
72
17
73
13
40
0
40
0
40
0
40
0
40
0.0533063627990972
40
0.159657832703051
40
0.266009302607006
40
0.37236077251096
40
0.478712242414914
40
0.585063712318868
40
0.691415182222822
40
0.797766652126776
40
0.90411812203073
40
1
40
1
40
1
40
1
41
1
10
45.6904171306912
20
-8.35925254670758
30
0
41
1
10
45.2936114204609
20
-8.47251937644939
30
0
41
1
10
44.1051390435638
20
-8.73888372819081
30
0
41
1
10
42.125
20
-8.80260995487964
30
0
41
1
10
39.75
20
-8.27520879762829
30
0
41
1
10
37.375
20
-7.1723644973581
30
0
41
1
10
35
20
-5.5750880116519
30
0
41
1
10
32.625
20
-3.59039260166986
30
0
41
1
10
30.2500000000001
20
-1.35825746484824
30
0
41
1
10
27.875
20
0.967870048428807
30
0
41
1
10
25.5779342961201
20
3.15364698944245
30
0
41
1
10
24.0725352589067
20
4.45043001368151
30
0
41
1
10
23.3588028883601
20
5.01810063225099
30
0
0
SPLINE
5
11A
100
AcDbEntity
8
1
62
256
6
ByLayer
370
18
48
1
60
0
100
AcDbSpline
70
4
71
3
72
10
73
6
40
0
40
0
40
0
40
0
40
0.5
40
0.5
40
1
40
1
40
1
40
1
41
1
10
51.2620755775483
20
2.43893036078791
30
0
41
1
10
51.3146418848761
20
2.38247745175019
30
0
41
1
10
51.3647591894654
20
2.32734922002743
30
0
41
1
10
51.4593201710998
20
2.21925076137842
30
0
41
1
10
51.5037665762345
20
2.16627611398687
30
0
41
1
10
51.5450505862952
20
2.11392315229921
30
0
0
SPLINE
5
11B
100
AcDbEntity
8
1
62
256
6
ByLayer
370
18
48
1
60
0
100
AcDbSpline
70
4
71
3
72
78
73
74
40
0
40
0
40
0
40
0
40
0.030882562739182
40
0.030882562739182
40
0.0470345200268634
40
0.0470345200268634
40
0.0631864773145447
40
0.0631864773145447
40
0.0954903918899074
40
0.0954903918899074
40
0.160098221040633
40
0.160098221040633
40
0.176250178328314
40
0.176250178328314
40
0.192402135615996
40
0.192402135615996
40
0.224706050191359
40
0.257009964766722
40
0.257009964766722
40
0.289313879342086
40
0.289313879342086
40
0.305465836629767
40
0.305465836629767
40
0.321617793917449
40
0.321617793917449
40
0.353921708492811
40
0.353921708492811
40
0.386225623068173
40
0.386225623068173
40
0.418529537643535
40
0.418529537643535
40
0.434681494931215
40
0.434681494931215
40
0.450833452218895
40
0.450833452218895
40
0.483137366794256
40
0.483137366794256
40
0.515441281369617
40
0.515441281369617
40
0.547745195944978
40
0.547745195944978
40
0.563897153232658
40
0.563897153232658
40
0.580049110520338
40
0.580049110520338
40
0.612353025095697
40
0.612353025095697
40
0.644656939671057
40
0.644656939671057
40
0.660808896958736
40
0.660808896958736
40
0.676960854246415
40
0.676960854246415
40
0.709264768821773
40
0.709264768821773
40
0.741568683397132
40
0.77387259797249
40
0.77387259797249
40
0.790024555260169
40
0.790024555260169
40
0.806176512547848
40
0.806176512547848
40
0.838480427123206
40
0.838480427123206
40
0.870784341698565
40
0.870784341698565
40
0.903088256273923
40
0.903088256273923
40
0.919240213561603
40
0.919240213561603
40
0.935392170849282
40
0.935392170849282
40
1
40
1
40
1
40
1
41
1
10
34.5731197680143
20
7.6169155693263
30
0
41
1
10
34.7479459778047
20
7.70755345134134
30
0
41
1
10
34.922723234644
20
7.79375439118706
30
0
41
1
10
35.1890493603791
20
7.91827472667845
30
0
41
1
10
35.28053189582
20
7.95982565683295
30
0
41
1
10
35.4635835723751
20
8.04051530285921
30
0
41
1
10
35.5551828114464
20
8.07966641766339
30
0
41
1
10
35.8299628247171
20
8.19341763282165
30
0
41
1
10
36.0128417907655
20
8.26420571565768
30
0
41
1
10
36.561024923548
20
8.46156213322777
30
0
41
1
10
36.9258690636173
20
8.57319440980748
30
0
41
1
10
37.3827099085724
20
8.68719223070119
30
0
41
1
10
37.4741178054016
20
8.70870905600279
30
0
41
1
10
37.6570547891465
20
8.74913781304269
30
0
41
1
10
37.7486330608342
20
8.7680589426075
30
0
41
1
10
38.0232359654161
20
8.820765907105
30
0
41
1
10
38.3887591656197
20
8.88020011768725
30
0
41
1
10
38.7537384267499
20
8.91726306549111
30
0
41
1
10
39.1188283183722
20
8.94261611798291
30
0
41
1
10
39.3014323458854
20
8.94938899089419
30
0
41
1
10
39.5757242357064
20
8.95064880032405
30
0
41
1
10
39.6672188885795
20
8.94959168712015
30
0
41
1
10
39.8503778105588
20
8.94458479876042
30
0
41
1
10
39.9419988210963
20
8.94063674184349
30
0
41
1
10
40.2165334046166
20
8.92460331856455
30
0
41
1
10
40.3993185466956
20
8.90833278520617
30
0
41
1
10
40.7647423526957
20
8.86512065280735
30
0
41
1
10
40.9473799445925
20
8.8381782230025
30
0
41
1
10
41.3128099324681
20
8.77385150750888
30
0
41
1
10
41.4956015771875
20
8.73646260381557
30
0
41
1
10
41.7701341707768
20
8.67255315317658
30
0
41
1
10
41.8617514153634
20
8.6499328148827
30
0
41
1
10
42.0448580529856
20
8.60215420859666
30
0
41
1
10
42.1363415973024
20
8.57699925549181
30
0
41
1
10
42.4106413278268
20
8.49775129886569
30
0
41
1
10
42.5933058921047
20
8.4398815240813
30
0
41
1
10
42.9585508082582
20
8.31399403397106
30
0
41
1
10
43.141130240822
20
8.24597602777536
30
0
41
1
10
43.5065567647372
20
8.09952670207088
30
0
41
1
10
43.6894029778621
20
8.02109479168962
30
0
41
1
10
43.964182937161
20
7.89530256450391
30
0
41
1
10
44.0557792657845
20
7.8520443600801
30
0
41
1
10
44.2387616010431
20
7.7630017971407
30
0
41
1
10
44.3301884761988
20
7.71720235396748
30
0
41
1
10
44.6043516238165
20
7.57608234718887
30
0
41
1
10
44.786971869393
20
7.47705647678328
30
0
41
1
10
45.1522595912775
20
7.26978904905741
30
0
41
1
10
45.3349264144549
20
7.16154630790851
30
0
41
1
10
45.6092002576354
20
6.99264743828962
30
0
41
1
10
45.7006702334126
20
6.93525743950448
30
0
41
1
10
45.8837386590488
20
6.81834553408862
30
0
41
1
10
45.9753850290246
20
6.75879147309868
30
0
41
1
10
46.2500889592731
20
6.57731350258197
30
0
41
1
10
46.4329685481653
20
6.45254823217036
30
0
41
1
10
46.7985176974866
20
6.19580271085945
30
0
41
1
10
47.1638549981167
20
5.93182905518864
30
0
41
1
10
47.5293616844482
20
5.65372740541289
30
0
41
1
10
47.8037935358372
20
5.43990588259376
30
0
41
1
10
47.8953213384271
20
5.3677571277656
30
0
41
1
10
48.0785211304654
20
5.22171057824877
30
0
41
1
10
48.1700832090838
20
5.14790000753652
30
0
41
1
10
48.444521195345
20
4.92428720595231
30
0
41
1
10
48.6272310935417
20
4.77223881366194
30
0
41
1
10
48.9924997612469
20
4.46229042098889
30
0
41
1
10
49.1750608391571
20
4.30436344213578
30
0
41
1
10
49.5404025688499
20
3.98290544068644
30
0
41
1
10
49.7231818957999
20
3.81939552512026
30
0
41
1
10
49.9977711926751
20
3.57026980233874
30
0
41
1
10
50.089438744516
20
3.48652104761379
30
0
41
1
10
50.2723888507645
20
3.31830643031998
30
0
41
1
10
50.3637195937099
20
3.23379771017974
30
0
41
1
10
50.8197688511462
20
2.80938240351014
30
0
41
1
10
51.1826877890609
20
2.46388708749393
30
0
41
1
10
51.5450505862997
20
2.11392315229512
30
0
0
SPLINE
5
11C
100
AcDbEntity
8
1
62
256
6
ByLayer
370
18
48
1
60
0
100
AcDbSpline
70
4
71
3
72
8
73
4
40
0
40
0
40
0
40
0
40
1
40
1
40
1
40
1
41
1
10
16
20
-4.72443749088762
30
0
41
1
10
15.8664508896338
20
-4.54468511068995
30
0
41
1
10
15.7325596778348
20
-4.36508070677593
30
0
41
1
10
15.5980762113533
20
-4.18580716694456
30
0
0
SPLINE
5
11D
100
AcDbEntity
8
1
62
256
6
ByLayer
370
18
48
1
60
0
100
AcDbSpline
70
4
71
5
72
12
73
6
40
0
40
0
40
0
40
0
40
0
40
0
40
1
40
1
40
1
40
1
40
1
40
1
41
1
10
16
20
-0.784283334950459
30
0
41
0.982046544621805
10
16
20
-0.868223599464085
30
0
41
0.973271271032717
10
16
20
-0.947042757899796
30
0
41
0.973271271032717
10
16
20
-1.01682470573163
30
0
41
0.982046544621805
10
16
20
-1.07414675099707
30
0
41
1
10
16
20
-1.11624628143909
30
0
0
SPLINE
5
11E
100
AcDbEntity
8
1
62
256
6
ByLayer
370
13
48
1
60
0
100
AcDbSpline
70
4
71
1
72
4
73
2
40
0
40
0
40
1
40
1
41
1
10
16
20
-0.784283334950459
30
0
41
1
10
12.1637574328882
20
2.93485683787233
30
0
0
SPLINE
5
11F
100
AcDbEntity
8
1
62
256
6
ByLayer
370
13
48
1
60
0
100
AcDbSpline
70
4
71
3
72
9
73
5
40
0
40
0
40
0
40
0
40
0.690855214193177
40
1
40
1
40
1
40
1
41
1
10
27.8066937693428
20
6.23105230399727
30
0
41
1
10
27.0377958462286
20
6.50546846203537
30
0
41
1
10
25.9248304848653
20
6.80262941655786
30
0
41
1
10
24.8118651235019
20
6.94271747979528
30
0
41
1
10
24.4677976852528
20
6.97084322802343
30
0
0
SPLINE
5
120
100
AcDbEntity
8
1
62
256
6
ByLayer
370
13
48
1
60
0
100
AcDbSpline
70
4
71
3
72
9
73
5
40
0
40
0
40
0
40
0
40
0.400983167983302
40
1
40
1
40
1
40
1
41
1
10
24.4071035993919
20
6.97564715062694
30
0
41
1
10
23.979735732928
20
7.00836390799398
30
0
41
1
10
22.9139357178966
20
7.0315033910006
30
0
41
1
10
21.8481357028651
20
6.90684283399875
30
0
41
1
10
21.2097035542977
20
6.78074233729691
30
0
0
SPLINE
5
121
100
AcDbEntity
8
1
62
256
6
ByLayer
370
18
48
1
60
0
100
AcDbSpline
70
4
71
3
72
57
73
53
40
0
40
0
40
0
40
0
40
0.062500000000013
40
0.062500000000013
40
0.125000000000026
40
0.125000000000026
40
0.156250000000032
40
0.156250000000032
40
0.187500000000039
40
0.187500000000039
40
0.250000000000048
40
0.250000000000048
40
0.281250000000053
40
0.281250000000053
40
0.296875000000055
40
0.296875000000055
40
0.312500000000058
40
0.312500000000058
40
0.375000000000064
40
0.375000000000064
40
0.43750000000007
40
0.43750000000007
40
0.468750000000071
40
0.468750000000071
40
0.484375000000072
40
0.484375000000072
40
0.500000000000072
40
0.562500000000078
40
0.562500000000078
40
0.593750000000079
40
0.593750000000079
40
0.62500000000008
40
0.62500000000008
40
0.656250000000081
40
0.656250000000081
40
0.671875000000079
40
0.671875000000079
40
0.687500000000078
40
0.687500000000078
40
0.750000000000071
40
0.750000000000071
40
0.812500000000065
40
0.812500000000065
40
0.828125000000059
40
0.828125000000059
40
0.843750000000054
40
0.843750000000054
40
0.875000000000043
40
0.875000000000043
40
0.937500000000022
40
0.937500000000022
40
1
40
1
40
1
40
1
41
1
10
34
20
5.54674958163562
30
0
41
1
10
33.8846760528403
20
5.63690162071316
30
0
41
1
10
33.7692869947451
20
5.72758003857155
30
0
41
1
10
33.5387254562578
20
5.90782310620889
30
0
41
1
10
33.4235488165102
20
5.99744054339607
30
0
41
1
10
33.2510393980817
20
6.12892549377901
30
0
41
1
10
33.1935777406062
20
6.17225336952998
30
0
41
1
10
33.0787343329512
20
6.2573182288327
30
0
41
1
10
33.0213532744947
20
6.29905761328473
30
0
41
1
10
32.8492860367048
20
6.42063068987295
30
0
41
1
10
32.7347332144136
20
6.49686706879697
30
0
41
1
10
32.5622995857055
20
6.59692948149555
30
0
41
1
10
32.5047072552185
20
6.62787872940208
30
0
41
1
10
32.4178971249988
20
6.67004023053562
30
0
41
1
10
32.3887993086947
20
6.68342420600945
30
0
41
1
10
32.3310652381478
20
6.70845225351931
30
0
41
1
10
32.3023863788351
20
6.72012266587171
30
0
41
1
10
32.1597388342034
20
6.77445321821352
30
0
41
1
10
32.0479617949605
20
6.80510452243803
30
0
41
1
10
31.8243158608978
20
6.84650965647151
30
0
41
1
10
31.7124634821727
20
6.85728204042118
30
0
41
1
10
31.542065587637
20
6.86077394600289
30
0
41
1
10
31.4848377543148
20
6.85980551904643
30
0
41
1
10
31.3980683517988
20
6.85529562455542
30
0
41
1
10
31.3689608514051
20
6.85327863033507
30
0
41
1
10
31.3106763542852
20
6.84827010618136
30
0
41
1
10
31.164651576437
20
6.83330925528017
30
0
41
1
10
31.0165355341474
20
6.80662716223867
30
0
41
1
10
30.8347305541268
20
6.76498812111854
30
0
41
1
10
30.77345029128
20
6.7495040092642
30
0
41
1
10
30.6491565837216
20
6.71563357804061
30
0
41
1
10
30.5861459192647
20
6.69722749687188
30
0
41
1
10
30.4579635192136
20
6.65798636178169
30
0
41
1
10
30.392785894457
20
6.63718158204193
30
0
41
1
10
30.2930498069858
20
6.60478811533059
30
0
41
1
10
30.2594955156736
20
6.59379870092911
30
0
41
1
10
30.1920567498487
20
6.57165070715394
30
0
41
1
10
30.1581280034009
20
6.56047798062144
30
0
41
1
10
29.9873500502189
20
6.50439259195204
30
0
41
1
10
29.8470760145194
20
6.45881997411001
30
0
41
1
10
29.55736149948
20
6.37305282903731
30
0
41
1
10
29.4079156784441
20
6.33281993435349
30
0
41
1
10
29.2145878494293
20
6.29026683875642
30
0
41
1
10
29.1755982540228
20
6.28214584621796
30
0
41
1
10
29.0969609254663
20
6.26679518214789
30
0
41
1
10
29.0573070796014
20
6.25956731523473
30
0
41
1
10
28.9382985271304
20
6.23952460892139
30
0
41
1
10
28.8585886490434
20
6.228293495244
30
0
41
1
10
28.6185085546287
20
6.20164359349846
30
0
41
1
10
28.4571882526777
20
6.19334293398941
30
0
41
1
10
28.1329319671861
20
6.19711155456301
30
0
41
1
10
27.9700001782068
20
6.20915090086925
30
0
41
1
10
27.8066937693464
20
6.23105230399599
30
0
0
SPLINE
5
122
100
AcDbEntity
8
1
62
256
6
ByLayer
370
18
48
1
60
0
100
AcDbSpline
70
4
71
3
72
8
73
4
40
0
40
0
40
0
40
0
40
1
40
1
40
1
40
1
41
1
10
33.999855281432
20
5.54687964439415
30
0
41
1
10
33.9999035232078
20
5.54752035700963
30
0
41
1
10
33.9999517649711
20
5.54816028157245
30
0
41
1
10
34.0000000067219
20
5.5487994173773
30
0
0
SPLINE
5
123
100
AcDbEntity
8
1
62
256
6
ByLayer
370
18
48
1
60
0
100
AcDbSpline
70
4
71
3
72
25
73
21
40
0
40
0
40
0
40
0
40
0.12237654391428
40
0.12237654391428
40
0.24475308782856
40
0.24475308782856
40
0.3059413597857
40
0.3059413597857
40
0.36712963174284
40
0.36712963174284
40
0.48950617565712
40
0.48950617565712
40
0.734259263485684
40
0.734259263485684
40
0.795447535442826
40
0.795447535442826
40
0.856635807399967
40
0.856635807399967
40
0.979012351314245
40
1
40
1
40
1
40
1
41
1
10
34.0000000000171
20
5.54879932786449
30
0
41
1
10
34.1831615507221
20
5.4054921391957
30
0
41
1
10
34.3661057176593
20
5.25910406518713
30
0
41
1
10
34.7318670036124
20
4.96007361982757
30
0
41
1
10
34.9146883042734
20
4.8074369231673
30
0
41
1
10
35.189071075507
20
4.57407342114536
30
0
41
1
10
35.2805567343861
20
4.49555342168946
30
0
41
1
10
35.4636152573752
20
4.3370980832841
30
0
41
1
10
35.5552225133682
20
4.25713240229311
30
0
41
1
10
35.8299910517697
20
4.01538941706261
30
0
41
1
10
36.012864542365
20
3.85197736516702
30
0
41
1
10
36.5610373986769
20
3.35553807123489
30
0
41
1
10
36.9258827853641
20
3.01632844966622
30
0
41
1
10
37.382735085117
20
2.58340902367712
30
0
41
1
10
37.4741457755913
20
2.49637809714645
30
0
41
1
10
37.6570893848318
20
2.32145132886328
30
0
41
1
10
37.7486732857735
20
2.233506213417
30
0
41
1
10
38.0232662980661
20
1.96880852152057
30
0
41
1
10
38.2373662875276
20
1.76083992622495
30
0
41
1
10
38.4512825797919
20
1.55162376639865
30
0
41
1
10
38.482595656991
20
1.52096984514796
30
0
0
SPLINE
5
124
100
AcDbEntity
8
1
62
256
6
ByLayer
370
18
48
1
60
0
100
AcDbSpline
70
4
71
5
72
12
73
6
40
0
40
0
40
0
40
0
40
0
40
0
40
1
40
1
40
1
40
1
40
1
40
1
41
1
10
16.0000000001477
20
8.03156828623597
30
0
41
0.93160221957584
10
16.0000000001477
20
7.47690576495355
30
0
41
0.900327239593104
10
16.0000000001476
20
6.7504799362647
30
0
41
0.900327239593104
10
16.0000000001476
20
5.98613933829315
30
0
41
0.93160221957584
10
16.0000000001477
20
5.3240185619402
30
0
41
1
10
16.0000000001476
20
4.88496240892422
30
0
0
SPLINE
5
125
100
AcDbEntity
8
1
62
256
6
ByLayer
370
13
48
1
60
0
100
AcDbSpline
70
4
71
3
72
11
73
7
40
0
40
0
40
0
40
0
40
0.184683563270004
40
0.388512672452503
40
0.592341781635002
40
1
40
1
40
1
40
1
41
1
10
27.6519176751812
20
-3.51810210330862
30
0
41
1
10
26.9346117834541
20
-3.03423579835501
30
0
41
1
10
25.4256392250605
20
-1.94777485763794
30
0
41
1
10
23.1250000000001
20
-0.153693060049136
30
0
41
1
10
19.9583333333333
20
2.31612288781594
30
0
41
1
10
17.5833333333334
20
4.00407922863366
30
0
41
1
10
16
20
4.88496240900633
30
0
0
SPLINE
5
126
100
AcDbEntity
8
1
62
256
6
ByLayer
370
18
48
1
60
0
100
AcDbSpline
70
4
71
3
72
10
73
6
40
0
40
0
40
0
40
0
40
0.480721586779044
40
0.480721586779044
40
1
40
1
40
1
40
1
41
1
10
28.6054872457452
20
-3.63711404314228
30
0
41
1
10
28.4536850478407
20
-3.61102146028981
30
0
41
1
10
28.3011467046188
20
-3.5899734547329
30
0
41
1
10
27.9830905536106
20
-3.55156784265643
30
0
41
1
10
27.8175147982277
20
-3.53462858601381
30
0
41
1
10
27.6519176751833
20
-3.51810210331007
30
0
0
SPLINE
5
127
100
AcDbEntity
8
1
62
256
6
ByLayer
370
13
48
1
60
0
100
AcDbSpline
70
4
71
3
72
15
73
11
40
0
40
0
40
0
40
0
40
0.115671463300163
40
0.256112249233064
40
0.396553035165965
40
0.536993821098866
40
0.677434607031767
40
0.817875392964668
40
0.958316178897569
40
1
40
1
40
1
40
1
41
1
10
51.2061249498358
20
2.49855438488149
30
0
41
1
10
50.5540832998905
20
3.1483309899688
30
0
41
1
10
49.1103749832786
20
4.54368455389766
30
0
41
1
10
46.8750000000001
20
6.43717932779919
30
0
41
1
10
44.5
20
8.01195297131738
30
0
41
1
10
42.1250000000001
20
9.02205150796641
30
0
41
1
10
39.7500000000001
20
9.41959376675788
30
0
41
1
10
37.375
20
9.15373322084414
30
0
41
1
10
35.5566943864499
20
8.47448845958405
30
0
41
1
10
34.5300554395665
20
7.92766146087789
30
0
41
1
10
34.2950831593497
20
7.794479866426
30
0
0
SPLINE
5
128
100
AcDbEntity
8
1
62
256
6
ByLayer
370
13
48
1
60
0
100
AcDbSpline
70
4
71
1
72
4
73
2
40
0
40
0
40
1
40
1
41
1
10
16
20
-8.65673281389229
30
0
41
1
10
12.1637531927749
20
-9.17641741852654
30
0
0
SPLINE
5
129
100
AcDbEntity
8
1
62
256
6
ByLayer
370
13
48
1
60
0
100
AcDbSpline
70
4
71
5
72
12
73
6
40
0
40
0
40
0
40
0
40
0
40
0
40
1
40
1
40
1
40
1
40
1
40
1
41
0.998960200527676
10
16.0000000001075
20
-4.78884381387768
30
0
41
0.984046473444812
10
16.0000000001074
20
-6.03067047245199
30
0
41
0.97683271953676
10
16.0000000001076
20
-7.07705849764171
30
0
41
0.977036745496606
10
16.0000000001076
20
-7.88372166009135
30
0
41
0.98466248525897
10
16.0000000001074
20
-8.41730108709061
30
0
41
1
10
16.0000000001075
20
-8.65673281387774
30
0
0
SPLINE
5
12A
100
AcDbEntity
8
1
62
256
6
ByLayer
370
18
48
1
60
0
100
AcDbSpline
70
4
71
3
72
52
73
48
40
0
40
0
40
0
40
0
40
0.020570806402616
40
0.020570806402616
40
0.190928654322874
40
0.190928654322874
40
0.276107578283006
40
0.276107578283006
40
0.361286502243138
40
0.361286502243138
40
0.446465426203269
40
0.446465426203269
40
0.531644350163401
40
0.531644350163401
40
0.552939081153434
40
0.552939081153434
40
0.574233812143467
40
0.574233812143467
40
0.616823274123526
40
0.616823274123526
40
0.659412736103585
40
0.659412736103585
40
0.702002198083645
40
0.702002198083645
40
0.723296929073674
40
0.723296929073674
40
0.744591660063704
40
0.744591660063704
40
0.787181122043757
40
0.787181122043757
40
0.808475853033781
40
0.808475853033781
40
0.829770584023804
40
0.829770584023804
40
0.872360046003857
40
0.872360046003857
40
0.893654776993884
40
0.893654776993884
40
0.91494950798391
40
0.91494950798391
40
0.957538969963962
40
0.957538969963962
40
0.968186335458976
40
0.968186335458976
40
0.97883370095399
40
0.97883370095399
40
1
40
1
40
1
40
1
41
1
10
10.5657646293687
20
-9.49999759717946
30
0
41
1
10
10.5469890108176
20
-9.49998973942328
30
0
41
1
10
10.5281693645712
20
-9.4999621711209
30
0
41
1
10
10.353074130544
20
-9.49953131597013
30
0
41
1
10
10.1937749951794
20
-9.49784539747381
30
0
41
1
10
9.94872249367236
20
-9.49422107993698
30
0
41
1
10
9.86601426157108
20
-9.49283223434691
30
0
41
1
10
9.69815496283974
20
-9.48986738762915
30
0
41
1
10
9.61285117908415
20
-9.48828818830853
30
0
41
1
10
9.44090361229104
20
-9.48518039347917
30
0
41
1
10
9.35411312108033
20
-9.48364900099992
30
0
41
1
10
9.17850205536814
20
-9.4808818270669
30
0
41
1
10
9.08968907194193
20
-9.47964505503998
30
0
41
1
10
8.97707748842473
20
-9.47845467511317
30
0
41
1
10
8.95445754439012
20
-9.47823438955442
30
0
41
1
10
8.90925601614188
20
-9.47783614782347
30
0
41
1
10
8.88665214233097
20
-9.47765792771486
30
0
41
1
10
8.81883067139614
20
-9.47719219093457
30
0
41
1
10
8.77360325948004
20
-9.47697356118823
30
0
41
1
10
8.68311876365311
20
-9.47675390583598
30
0
41
1
10
8.63786170084919
20
-9.47675285741889
30
0
41
1
10
8.54731310089494
20
-9.47700365165352
30
0
41
1
10
8.5020216038061
20
-9.4772554634641
30
0
41
1
10
8.43405323594462
20
-9.47785099215773
30
0
41
1
10
8.41133940723088
20
-9.47808656956576
30
0
41
1
10
8.36630716193127
20
-9.4786299991612
30
0
41
1
10
8.34396041959948
20
-9.47893793207277
30
0
41
1
10
8.27746830542517
20
-9.47997161246241
30
0
41
1
10
8.23386675264558
20
-9.48080773846104
30
0
41
1
10
8.16977565025817
20
-9.48228016275277
30
0
41
1
10
8.14863142166507
20
-9.48280723564949
30
0
41
1
10
8.10683443233648
20
-9.48393171047081
30
0
41
1
10
8.08628701098021
20
-9.48452656993422
30
0
41
1
10
8.02639960908283
20
-9.48637804975007
30
0
41
1
10
7.98856085279351
20
-9.48770987685128
30
0
41
1
10
7.93540351045414
20
-9.48977141477999
30
0
41
1
10
7.91824563370244
20
-9.49047038784735
30
0
41
1
10
7.88539242454485
20
-9.49186142546978
30
0
41
1
10
7.86990235646263
20
-9.49254451016702
30
0
41
1
10
7.82618429237789
20
-9.49452352964187
30
0
41
1
10
7.80070205466674
20
-9.49574974302362
30
0
41
1
10
7.77334028481653
20
-9.49705020446729
30
0
41
1
10
7.7680929879381
20
-9.49729864181788
30
0
41
1
10
7.75804829171423
20
-9.49776913342117
30
0
41
1
10
7.75324664599768
20
-9.49799135676744
30
0
41
1
10
7.73970520194788
20
-9.49860533941489
30
0
41
1
10
7.73170820573387
20
-9.49895012724832
30
0
41
1
10
7.72464264983012
20
-9.4992251376465
30
0
0
SPLINE
5
12B
100
AcDbEntity
8
1
62
256
6
ByLayer
370
18
48
1
60
0
100
AcDbSpline
70
4
71
3
72
14
73
10
40
0
40
0
40
0
40
0
40
0.500000000000005
40
0.500000000000005
40
0.624999999999998
40
0.624999999999998
40
0.749999999999991
40
0.749999999999991
40
1
40
1
40
1
40
1
41
1
10
14.2800791980978
20
-9.49724475678806
30
0
41
1
10
14.2165416746056
20
-9.49885566082961
30
0
41
1
10
14.1653165896949
20
-9.49995968423124
30
0
41
1
10
14.1152764231898
20
-9.50000873223809
30
0
41
1
10
14.1059452200155
20
-9.49995101723314
30
0
41
1
10
14.0888780628619
20
-9.49968865164115
30
0
41
1
10
14.081114577825
20
-9.4994845104064
30
0
41
1
10
14.0599562592396
20
-9.49864134199075
30
0
41
1
10
14.0486869402556
20
-9.49777133337017
30
0
41
1
10
14.0398757409098
20
-9.49656519571221
30
0
0
SPLINE
5
12C
100
AcDbEntity
8
1
62
256
6
ByLayer
370
18
48
1
60
0
100
AcDbSpline
70
4
71
3
72
8
73
4
40
0
40
0
40
0
40
0
40
1
40
1
40
1
40
1
41
1
10
13.0172063930417
20
-9.40119059142702
30
0
41
1
10
13.3601560898737
20
-9.45458967618401
30
0
41
1
10
13.7000384051303
20
-9.48654513993122
30
0
41
1
10
14.0398757409103
20
-9.49656519571221
30
0
0
SPLINE
5
12D
100
AcDbEntity
8
1
62
256
6
ByLayer
370
18
48
1
60
0
100
AcDbSpline
70
4
71
3
72
20
73
16
40
0
40
0
40
0
40
0
40
0.0625000000000031
40
0.0625000000000031
40
0.125000000000006
40
0.125000000000006
40
0.250000000000005
40
0.250000000000005
40
0.375000000000005
40
0.375000000000005
40
0.500000000000004
40
0.500000000000004
40
0.750000000000002
40
0.750000000000002
40
1
40
1
40
1
40
1
41
1
10
12.1637531927618
20
-9.17641741852833
30
0
41
1
10
12.1762538723731
20
-9.18331821074034
30
0
41
1
10
12.18976620609
20
-9.18995593711622
30
0
41
1
10
12.218069765253
20
-9.20284091280072
30
0
41
1
10
12.2328731586682
20
-9.20908604057738
30
0
41
1
10
12.2786825207025
20
-9.22733356795945
30
0
41
1
10
12.3110897613478
20
-9.2388611814763
30
0
41
1
10
12.3780608485869
20
-9.26085875198959
30
0
41
1
10
12.4126108949633
20
-9.27131322324678
30
0
41
1
10
12.4832149265922
20
-9.29130095132993
30
0
41
1
10
12.5192765543209
20
-9.30083239681247
30
0
41
1
10
12.6292181022511
20
-9.32818826042606
30
0
41
1
10
12.704853706582
20
-9.34478382084862
30
0
41
1
10
12.8589750638041
20
-9.37507877738307
30
0
41
1
10
12.9375262489654
20
-9.38878396776551
30
0
41
1
10
13.0172063930416
20
-9.40119059142702
30
0
0
SPLINE
5
12E
100
AcDbEntity
8
1
62
256
6
ByLayer
370
18
48
1
60
0
100
AcDbSpline
70
4
71
3
72
49
73
45
40
0
40
0
40
0
40
0
40
0.0624999999999996
40
0.0624999999999996
40
0.124999999999999
40
0.124999999999999
40
0.187499999999999
40
0.187499999999999
40
0.218749999999998
40
0.218749999999998
40
0.234374999999998
40
0.234374999999998
40
0.249999999999998
40
0.249999999999998
40
0.312499999999997
40
0.312499999999997
40
0.374999999999996
40
0.374999999999996
40
0.437499999999995
40
0.437499999999995
40
0.468749999999995
40
0.468749999999995
40
0.484374999999995
40
0.484374999999995
40
0.499999999999994
40
0.499999999999994
40
0.562499999999994
40
0.562499999999994
40
0.624999999999993
40
0.624999999999993
40
0.687499999999992
40
0.687499999999992
40
0.749999999999992
40
0.749999999999992
40
0.765624999999992
40
0.765624999999992
40
0.781249999999992
40
0.812499999999993
40
0.812499999999993
40
0.874999999999995
40
0.874999999999995
40
0.937499999999998
40
0.937499999999998
40
1
40
1
40
1
40
1
41
1
10
7.70215485021598
20
0.0921451541248928
30
0
41
1
10
7.75561673586955
20
-0.183059610532922
30
0
41
1
10
7.81263053317926
20
-0.455445198130974
30
0
41
1
10
7.93363685871486
20
-0.994805149608823
30
0
41
1
10
7.99762773271885
20
-1.26177944699802
30
0
41
1
10
8.13246527001385
20
-1.79045354076357
30
0
41
1
10
8.20331067724976
20
-2.05215346216559
30
0
41
1
10
8.31466533511437
20
-2.44078196476627
30
0
41
1
10
8.35263180669364
20
-2.56967051495411
30
0
41
1
10
8.41085277447948
20
-2.76201941704386
30
0
41
1
10
8.43047168502912
20
-2.82597168176221
30
0
41
1
10
8.47013374544096
20
-2.95354711872159
30
0
41
1
10
8.49019211151591
20
-3.01721785974928
30
0
41
1
10
8.59137508580531
20
-3.33420890370621
30
0
41
1
10
8.6745859372059
20
-3.58164898694235
30
0
41
1
10
8.84522702090774
20
-4.06482241882935
30
0
41
1
10
8.93265724185892
20
-4.30055436650318
30
0
41
1
10
9.11153461979967
20
-4.76062734741848
30
0
41
1
10
9.2029815301365
20
-4.98496788562994
30
0
41
1
10
9.34309554041522
20
-5.31298465930982
30
0
41
1
10
9.39029170277229
20
-5.42090599602435
30
0
41
1
10
9.46182305466866
20
-5.58065045315723
30
0
41
1
10
9.4857889863753
20
-5.63354243510423
30
0
41
1
10
9.53397315546272
20
-5.73860871488526
30
0
41
1
10
9.55821746327524
20
-5.79083698056962
30
0
41
1
10
9.67972043992233
20
-6.04936122928601
30
0
41
1
10
9.77780841650269
20
-6.24781130293161
30
0
41
1
10
9.97626709796046
20
-6.62845053663622
30
0
41
1
10
10.0766365154529
20
-6.81063874747267
30
0
41
1
10
10.2801567112969
20
-7.1589488844879
30
0
41
1
10
10.383306129042
20
-7.32507063222417
30
0
41
1
10
10.5929138879954
20
-7.64117942158944
30
0
41
1
10
10.699370609467
20
-7.79116697602001
30
0
41
1
10
10.8348848448412
20
-7.96835681151077
30
0
41
1
10
10.8621277264994
20
-8.00330043350877
30
0
41
1
10
10.9166667257345
20
-8.07189887177688
30
0
41
1
10
10.9986196200861
20
-8.17294995858333
30
0
41
1
10
11.0810410979801
20
-8.26851123211372
30
0
41
1
10
11.246606619648
20
-8.4524164180865
30
0
41
1
10
11.3579443491982
20
-8.56540625829908
30
0
41
1
10
11.5831111586432
20
-8.77246079947838
30
0
41
1
10
11.6969383015761
20
-8.86652470462332
30
0
41
1
10
11.9277599010684
20
-9.03573126392769
30
0
41
1
10
12.0447517510939
20
-9.11087363758116
30
0
41
1
10
12.1637531927618
20
-9.17641741852833
30
0
0
SPLINE
5
12F
100
AcDbEntity
8
1
62
256
6
ByLayer
370
18
48
1
60
0
100
AcDbSpline
70
4
71
3
72
8
73
4
40
0
40
0
40
0
40
0
40
1
40
1
40
1
40
1
41
1
10
14.5980762113531
20
-3.03793842826829
30
0
41
1
10
14.4616676428468
20
-2.90072839781564
30
0
41
1
10
14.3251173657894
20
-2.76265766528328
30
0
41
1
10
14.1882172898082
20
-2.62392341313171
30
0
0
SPLINE
5
130
100
AcDbEntity
8
1
62
256
6
ByLayer
370
18
48
1
60
0
100
AcDbSpline
70
4
71
3
72
20
73
16
40
0
40
0
40
0
40
0
40
0.0625000000000059
40
0.0625000000000059
40
0.125000000000012
40
0.125000000000012
40
0.250000000000015
40
0.250000000000015
40
0.375000000000019
40
0.375000000000019
40
0.500000000000022
40
0.500000000000022
40
0.750000000000011
40
0.750000000000011
40
1
40
1
40
1
40
1
41
1
10
12.1637574328751
20
2.93485683788506
30
0
41
1
10
12.1762682439603
20
2.90951866105678
30
0
41
1
10
12.1897850669566
20
2.88471397484429
30
0
41
1
10
12.2180923773411
20
2.83576248390003
30
0
41
1
10
12.2328948794432
20
2.81162236499517
30
0
41
1
10
12.2786967494637
20
2.73990384291574
30
0
41
1
10
12.3110923122944
20
2.69297812908252
30
0
41
1
10
12.3780362301355
20
2.60037196769269
30
0
41
1
10
12.4125700451113
20
2.55475610469455
30
0
41
1
10
12.4831385611652
20
2.46445547580174
30
0
41
1
10
12.5191808622856
20
2.4197761819255
30
0
41
1
10
12.6290612492946
20
2.28678311693503
30
0
41
1
10
12.7046519324843
20
2.19947297762329
30
0
41
1
10
12.858679698506
20
2.02694979885723
30
0
41
1
10
12.9371819403698
20
1.94170111232344
30
0
41
1
10
13.0168117052148
20
1.85717458980557
30
0
0
SPLINE
5
131
100
AcDbEntity
8
1
62
256
6
ByLayer
370
18
48
1
60
0
100
AcDbSpline
70
4
71
3
72
46
73
42
40
0
40
0
40
0
40
0
40
0.0625000000000009
40
0.0625000000000009
40
0.125000000000002
40
0.125000000000002
40
0.187500000000003
40
0.250000000000004
40
0.250000000000004
40
0.281250000000004
40
0.281250000000004
40
0.296875000000004
40
0.296875000000004
40
0.312500000000004
40
0.375000000000003
40
0.375000000000003
40
0.437500000000002
40
0.437500000000002
40
0.500000000000001
40
0.500000000000001
40
0.5625
40
0.5625
40
0.578125
40
0.578125
40
0.59375
40
0.624999999999999
40
0.624999999999999
40
0.687499999999999
40
0.687499999999999
40
0.749999999999999
40
0.749999999999999
40
0.8125
40
0.8125
40
0.84375
40
0.859375
40
0.859375
40
0.875
40
0.875
40
0.9375
40
0.9375
40
1
40
1
40
1
40
1
41
1
10
7.73378578039308
20
9.48384813831726
30
0
41
1
10
7.8032534439163
20
9.46942259099961
30
0
41
1
10
7.87451847528197
20
9.44549265243492
30
0
41
1
10
8.020746266034
20
9.37949593080884
30
0
41
1
10
8.09570817209746
20
9.33742735564419
30
0
41
1
10
8.24941577514704
20
9.23567307226034
30
0
41
1
10
8.40690642167729
20
9.11630001119113
30
0
41
1
10
8.57215156842173
20
8.962117041336
30
0
41
1
10
8.69908695273276
20
8.83336513756228
30
0
41
1
10
8.74189929297239
20
8.78825976567472
30
0
41
1
10
8.80688368761238
20
8.71729082960391
30
0
41
1
10
8.82867033757159
20
8.69308419749149
30
0
41
1
10
8.87232361172707
20
8.64376642544028
30
0
41
1
10
8.98176641121282
20
8.51808980474863
30
0
41
1
10
9.09275214114624
20
8.38066387792674
30
0
41
1
10
9.27231228139786
20
8.1462412811988
30
0
41
1
10
9.363083477223
20
8.02175831272962
30
0
41
1
10
9.54665276951081
20
7.75849195123555
30
0
41
1
10
9.63943803856696
20
7.61970507933756
30
0
41
1
10
9.82718717274975
20
7.32785651303081
30
0
41
1
10
9.92218218629574
20
7.17480121126655
30
0
41
1
10
10.042671650349
20
6.97451236935257
30
0
41
1
10
10.0668783715612
20
6.93396916403395
30
0
41
1
10
10.1153153756448
20
6.85225316392263
30
0
41
1
10
10.1880382482692
20
6.72868307790628
30
0
41
1
10
10.2609962214947
20
6.60216640562751
30
0
41
1
10
10.407311362575
20
6.34530029372348
30
0
41
1
10
10.5053869895807
20
6.16895028252745
30
0
41
1
10
10.7030516877498
20
5.80643380044174
30
0
41
1
10
10.8026397955829
20
5.62026659581093
30
0
41
1
10
11.0037899622405
20
5.23837651591907
30
0
41
1
10
11.1053509273379
20
5.04265311341334
30
0
41
1
10
11.2595510224735
20
4.74201133339037
30
0
41
1
10
11.3371163953408
20
4.58992500803717
30
0
41
1
10
11.415458852663
20
4.43520047845473
30
0
41
1
10
11.4678693379465
20
4.33146492826333
30
0
41
1
10
11.4941830750199
20
4.27926956126723
30
0
41
1
10
11.6259776422347
20
4.01733380945549
30
0
41
1
10
11.7321061632726
20
3.80477601359883
30
0
41
1
10
11.9463101015247
20
3.37399117904784
30
0
41
1
10
12.0543838978108
20
3.15576312856714
30
0
41
1
10
12.163757432875
20
2.93485683788509
30
0
0
SPLINE
5
132
100
AcDbEntity
8
1
62
256
6
ByLayer
370
18
48
1
60
0
100
AcDbSpline
70
4
71
3
72
69
73
65
40
0
40
0
40
0
40
0
40
0.137091921637857
40
0.137091921637857
40
0.205637882456787
40
0.205637882456787
40
0.239910862866254
40
0.239910862866254
40
0.274183843275721
40
0.274183843275721
40
0.342729804094651
40
0.342729804094651
40
0.411275764913581
40
0.411275764913581
40
0.479821725732512
40
0.479821725732512
40
0.548367686551442
40
0.548367686551442
40
0.565504176756174
40
0.565504176756174
40
0.582640666960907
40
0.616913647370372
40
0.616913647370372
40
0.685459608189302
40
0.685459608189302
40
0.719732588598767
40
0.719732588598767
40
0.754005569008232
40
0.754005569008232
40
0.788278549417697
40
0.788278549417697
40
0.822551529827163
40
0.822551529827163
40
0.831119774929529
40
0.831119774929529
40
0.839688020031896
40
0.839688020031896
40
0.85682451023663
40
0.85682451023663
40
0.873961000441364
40
0.873961000441364
40
0.891097490646098
40
0.891097490646098
40
0.899665735748463
40
0.899665735748463
40
0.908233980850829
40
0.908233980850829
40
0.925370471055558
40
0.925370471055558
40
0.933938716157922
40
0.933938716157922
40
0.942506961260286
40
0.942506961260286
40
0.959643451465015
40
0.959643451465015
40
0.968211696567379
40
0.968211696567379
40
0.976779941669744
40
0.976779941669744
40
0.993916431874473
40
0.993916431874473
40
0.998200554425655
40
0.998200554425655
40
1
40
1
40
1
40
1
41
1
10
14.1882172898083
20
8.98060650282974
30
0
41
1
10
13.9386744176075
20
9.06644700260301
30
0
41
1
10
13.6875670658625
20
9.14112250602494
30
0
41
1
10
13.3049302651318
20
9.23647355744427
30
0
41
1
10
13.1763853175509
20
9.26548724827182
30
0
41
1
10
12.9815685294278
20
9.304930735098
30
0
41
1
10
12.9162959580058
20
9.31739954371812
30
0
41
1
10
12.7849938993488
20
9.34099823090935
30
0
41
1
10
12.7189449991126
20
9.35213062635856
30
0
41
1
10
12.5198599274821
20
9.38350433494912
30
0
41
1
10
12.3857950607053
20
9.40173821594152
30
0
41
1
10
12.1142526367857
20
9.43316272196213
30
0
41
1
10
11.9767774482775
20
9.44635290429875
30
0
41
1
10
11.6975523385196
20
9.46809465071664
30
0
41
1
10
11.5558067407261
20
9.47664540149765
30
0
41
1
10
11.2669480505201
20
9.48961555251918
30
0
41
1
10
11.1198326621083
20
9.4940335337522
30
0
41
1
10
10.9317123351714
20
9.49737707303353
30
0
41
1
10
10.8938670987405
20
9.49793719561328
30
0
41
1
10
10.8178874811002
20
9.49885051138673
30
0
41
1
10
10.7034284760384
20
9.4999114305289
30
0
41
1
10
10.5874196300896
20
9.50010796767677
30
0
41
1
10
10.3530741305433
20
9.49953131597005
30
0
41
1
10
10.1937749951786
20
9.49784539747372
30
0
41
1
10
9.9487224936714
20
9.49422107993689
30
0
41
1
10
9.86601426157009
20
9.49283223434682
30
0
41
1
10
9.69815496283857
20
9.48986738762903
30
0
41
1
10
9.61285117908287
20
9.48828818830845
30
0
41
1
10
9.44090361228962
20
9.48518039347908
30
0
41
1
10
9.35411312107885
20
9.48364900099983
30
0
41
1
10
9.17850205536652
20
9.48088182706681
30
0
41
1
10
9.08968907194028
20
9.4796450550399
30
0
41
1
10
8.97707748842302
20
9.47845467511311
30
0
41
1
10
8.95445754438836
20
9.47823438955436
30
0
41
1
10
8.90925601614009
20
9.47783614782341
30
0
41
1
10
8.88665214232921
20
9.4776579277148
30
0
41
1
10
8.81883067139435
20
9.47719219093452
30
0
41
1
10
8.77360325947819
20
9.4769735611882
30
0
41
1
10
8.68311876365121
20
9.47675390583592
30
0
41
1
10
8.63786170084731
20
9.47675285741886
30
0
41
1
10
8.54731310089304
20
9.47700365165346
30
0
41
1
10
8.5020216038042
20
9.47725546346408
30
0
41
1
10
8.43405323594268
20
9.4778509921577
30
0
41
1
10
8.41133940722892
20
9.47808656956573
30
0
41
1
10
8.36630716192931
20
9.47862999916117
30
0
41
1
10
8.34396041959749
20
9.47893793207274
30
0
41
1
10
8.27746830542316
20
9.47997161246238
30
0
41
1
10
8.23386675264354
20
9.48080773846098
30
0
41
1
10
8.16977565025607
20
9.48228016275272
30
0
41
1
10
8.14863142166297
20
9.48280723564946
30
0
41
1
10
8.10683443233438
20
9.48393171047078
30
0
41
1
10
8.08628701097805
20
9.48452656993419
30
0
41
1
10
8.02639960908056
20
9.48637804975002
30
0
41
1
10
7.98856085279118
20
9.48770987685123
30
0
41
1
10
7.93540351045172
20
9.48977141477994
30
0
41
1
10
7.91824563370002
20
9.4904703878473
30
0
41
1
10
7.88539242454235
20
9.49186142546975
30
0
41
1
10
7.86990235646013
20
9.49254451016697
30
0
41
1
10
7.82618429237536
20
9.49452352964181
30
0
41
1
10
7.80070205466424
20
9.49574974302359
30
0
41
1
10
7.77334028481405
20
9.49705020446726
30
0
41
1
10
7.76809298793569
20
9.49729864181785
30
0
41
1
10
7.76096111985206
20
9.4976326971217
30
0
41
1
10
7.75889053672074
20
9.49772920917141
30
0
41
1
10
7.75686251449224
20
9.49782314856893
30
0
0
SPLINE
5
133
100
AcDbEntity
8
1
62
256
6
ByLayer
370
18
48
1
60
0
100
AcDbSpline
70
4
71
3
72
20
73
16
40
0
40
0
40
0
40
0
40
0.0229580086925625
40
0.0229580086925625
40
0.145088257605993
40
0.145088257605993
40
0.267218506519423
40
0.267218506519423
40
0.51147900434628
40
0.51147900434628
40
0.633609253259711
40
0.633609253259711
40
0.755739502173141
40
0.755739502173141
40
1
40
1
40
1
40
1
41
1
10
7.69482634007534
20
9.49999997205217
30
0
41
1
10
7.6940946942976
20
9.50000023518828
30
0
41
1
10
7.69339234784272
20
9.49999764681661
30
0
41
1
10
7.68913631912417
20
9.49996303791181
30
0
41
1
10
7.68639855800683
20
9.49985201762144
30
0
41
1
10
7.68247420588901
20
9.49946734176649
30
0
41
1
10
7.68127848538404
20
9.49919364773928
30
0
41
1
10
7.67975185438746
20
9.49812959955864
30
0
41
1
10
7.68147106816738
20
9.49709632332971
30
0
41
1
10
7.68745293992981
20
9.49506398929233
30
0
41
1
10
7.6900170213205
20
9.49430612941779
30
0
41
1
10
7.69619697218749
20
9.49263002907105
30
0
41
1
10
7.69981896541924
20
9.49171035635757
30
0
41
1
10
7.71209992075936
20
9.48872352671813
30
0
41
1
10
7.72215744448667
20
9.48643052304772
30
0
41
1
10
7.73378578039311
20
9.48384813831726
30
0
0
SPLINE
5
134
100
AcDbEntity
8
1
62
256
6
ByLayer
370
18
48
1
60
0
100
AcDbSpline
70
4
71
3
72
8
73
4
40
0
40
0
40
0
40
0
40
1
40
1
40
1
40
1
41
1
10
14.5980762113533
20
8.82983351525272
30
0
41
1
10
14.4616676428469
20
8.88326015510705
30
0
41
1
10
14.3251173657895
20
8.93353065865702
30
0
41
1
10
14.1882172898084
20
8.98060650282974
30
0
0
SPLINE
5
135
100
AcDbEntity
8
1
62
256
6
ByLayer
370
18
48
1
60
0
100
AcDbSpline
70
4
71
3
72
10
73
6
40
0
40
0
40
0
40
0
40
0.991416924436136
40
0.991416924436136
40
1
40
1
40
1
40
1
41
1
10
14.2800791980981
20
9.49724475678792
30
0
41
1
10
14.2165416746058
20
9.49885566082946
30
0
41
1
10
14.1653165896949
20
9.49995968423116
30
0
41
1
10
14.124937883
20
9.49999926233852
30
0
41
1
10
14.1245921211669
20
9.49999952106461
30
0
41
1
10
14.1242471760078
20
9.4999996985681
30
0
0
SPLINE
5
136
100
AcDbEntity
8
1
62
256
6
ByLayer
370
18
48
1
60
0
100
AcDbSpline
70
4
71
3
72
80
73
76
40
0
40
0
40
0
40
0
40
0.125000000000002
40
0.125000000000002
40
0.187500000000004
40
0.187500000000004
40
0.218750000000004
40
0.218750000000004
40
0.250000000000005
40
0.250000000000005
40
0.312500000000003
40
0.312500000000003
40
0.375000000000001
40
0.375000000000001
40
0.40625
40
0.40625
40
0.437499999999998
40
0.437499999999998
40
0.499999999999996
40
0.499999999999996
40
0.562499999999994
40
0.562499999999994
40
0.624999999999992
40
0.624999999999992
40
0.640624999999991
40
0.640624999999991
40
0.656249999999991
40
0.656249999999991
40
0.687499999999987
40
0.687499999999987
40
0.718749999999984
40
0.718749999999984
40
0.749999999999981
40
0.749999999999981
40
0.76562499999998
40
0.76562499999998
40
0.78124999999998
40
0.78124999999998
40
0.812499999999979
40
0.812499999999979
40
0.820312499999979
40
0.820312499999979
40
0.82812499999998
40
0.82812499999998
40
0.843749999999978
40
0.843749999999978
40
0.859374999999976
40
0.859374999999976
40
0.867187499999976
40
0.867187499999976
40
0.874999999999977
40
0.874999999999977
40
0.890624999999979
40
0.890624999999979
40
0.89453124999998
40
0.89453124999998
40
0.898437499999981
40
0.898437499999981
40
0.906249999999982
40
0.906249999999982
40
0.921874999999985
40
0.921874999999985
40
0.929687499999987
40
0.929687499999987
40
0.937499999999988
40
0.937499999999988
40
0.953124999999991
40
0.953124999999991
40
0.968749999999994
40
0.968749999999994
40
0.984374999999997
40
0.984374999999997
40
0.992187499999999
40
0.992187499999999
40
1
40
1
40
1
40
1
41
1
10
14.1882172898082
20
-2.62392341313174
30
0
41
1
10
13.9431413468436
20
-2.3754776626885
30
0
41
1
10
13.6965570304052
20
-2.12631665443593
30
0
41
1
10
13.3209837898961
20
-1.75504146271686
30
0
41
1
10
13.1948400253702
20
-1.6316987967607
30
0
41
1
10
13.0037223656062
20
-1.44780874739718
30
0
41
1
10
12.939699091989
20
-1.38669987915799
30
0
41
1
10
12.8109331835709
20
-1.26494826232246
30
0
41
1
10
12.7461727104607
20
-1.20428918205218
30
0
41
1
10
12.5509075434973
20
-1.02336710591607
30
0
41
1
10
12.419371724828
20
-0.90410589804199
30
0
41
1
10
12.15285845947
20
-0.669145316157568
30
0
41
1
10
12.0178833129098
20
-0.553443261339282
30
0
41
1
10
11.8121972302592
20
-0.383321806350295
30
0
41
1
10
11.7430658347759
20
-0.327163611813262
30
0
41
1
10
11.6037402510951
20
-0.216257328446971
30
0
41
1
10
11.5336081055715
20
-0.161557575051603
30
0
41
1
10
11.3216384181746
20
2.51291476445E-05
30
0
41
1
10
11.1782313110152
20
0.104397191078959
30
0
41
1
10
10.8862334246592
20
0.304896958208246
30
0
41
1
10
10.7376515082914
20
0.401038551792169
30
0
41
1
10
10.433968511306
20
0.583002667458857
30
0
41
1
10
10.2788874688477
20
0.668856581798252
30
0
41
1
10
10.079666985414
20
0.767708726820757
30
0
41
1
10
10.0395515776214
20
0.787051431269276
30
0
41
1
10
9.95873104610538
20
0.824807948071509
30
0
41
1
10
9.91798873584622
20
0.843238031002102
30
0
41
1
10
9.79505061801436
20
0.896892848535146
30
0
41
1
10
9.71243644325037
20
0.93036853187445
30
0
41
1
10
9.54566792918499
20
0.991953441720739
30
0
41
1
10
9.46151539671737
20
1.02006892033981
30
0
41
1
10
9.29133646848817
20
1.06979478958945
30
0
41
1
10
9.20531468806851
20
1.0914212007491
30
0
41
1
10
9.07455902247617
20
1.1178951462777
30
0
41
1
10
9.03068524942981
20
1.12572071882974
30
0
41
1
10
8.9422815379838
20
1.13910203744967
30
0
41
1
10
8.8977033833072
20
1.14466365846613
30
0
41
1
10
8.76313522355068
20
1.15736715064105
30
0
41
1
10
8.6733915906556
20
1.160504766092
30
0
41
1
10
8.56115992018877
20
1.15561399801561
30
0
41
1
10
8.53871094459345
20
1.15418923945359
30
0
41
1
10
8.49380721666282
20
1.15036287912184
30
0
41
1
10
8.47134752153801
20
1.14795815862135
30
0
41
1
10
8.40448771481741
20
1.13920996460519
30
0
41
1
10
8.36043609456976
20
1.13132986820583
30
0
41
1
10
8.27355262165574
20
1.11077643644168
30
0
41
1
10
8.23071894991133
20
1.09811032042461
30
0
41
1
10
8.16758442520825
20
1.07472055858383
30
0
41
1
10
8.14668547778737
20
1.06616993316481
30
0
41
1
10
8.10548768343972
20
1.04748561549295
30
0
41
1
10
8.08535359981849
20
1.0374292046705
30
0
41
1
10
8.02643593273348
20
1.00497673060519
30
0
41
1
10
7.98913332942013
20
0.980303183484779
30
0
41
1
10
7.94532648492603
20
0.945113366273716
30
0
41
1
10
7.93670676286641
20
0.937857106368654
30
0
41
1
10
7.91976204607994
20
0.922890115545755
30
0
41
1
10
7.91143678115281
20
0.915176342088728
30
0
41
1
10
7.8871910499856
20
0.891601491889105
30
0
41
1
10
7.87190340736305
20
0.875224532596008
30
0
41
1
10
7.82863976652706
20
0.82413176160378
30
0
41
1
10
7.80325705457525
20
0.787458631829651
30
0
41
1
10
7.77036771925728
20
0.728523863938591
30
0
41
1
10
7.76024794087749
20
0.708149456290073
30
0
41
1
10
7.74209362121647
20
0.666933383281844
30
0
41
1
10
7.73400238436406
20
0.646005265732413
30
0
41
1
10
7.71247252417234
20
0.58232803106506
30
0
41
1
10
7.70175935227041
20
0.538635140386077
30
0
41
1
10
7.68681927221385
20
0.449360529637062
30
0
41
1
10
7.68272752723297
20
0.404715682072748
30
0
41
1
10
7.67995383723101
20
0.315409736642294
30
0
41
1
10
7.68128077675252
20
0.270748646554551
30
0
41
1
10
7.68667466084548
20
0.203744251606395
30
0
41
1
10
7.6890425969107
20
0.181407328944772
30
0
41
1
10
7.69483382051871
20
0.136729159735239
30
0
41
1
10
7.69825908290451
20
0.114385622155311
30
0
41
1
10
7.702154850216
20
0.0921451541248643
30
0
0
SPLINE
5
137
100
AcDbEntity
8
1
62
256
6
ByLayer
370
18
48
1
60
0
100
AcDbSpline
70
4
71
1
72
4
73
2
40
0
40
0
40
1
40
1
41
1
10
15.9736800265964
20
-4.68922833787775
30
0
41
1
10
7.70215485021598
20
0.0921451541248643
30
0
0
SPLINE
5
138
100
AcDbEntity
8
1
62
256
6
ByLayer
370
18
48
1
60
0
100
AcDbSpline
70
4
71
3
72
14
73
10
40
0
40
0
40
0
40
0
40
0.499999999999968
40
0.499999999999968
40
0.624999999999976
40
0.624999999999976
40
0.749999999999984
40
0.749999999999984
40
1
40
1
40
1
40
1
41
1
10
14.2800791980979
20
0.268577120598508
30
0
41
1
10
14.2165416158825
20
0.335441492635653
30
0
41
1
10
14.1653164949289
20
0.410393880602271
30
0
41
1
10
14.1152763081357
20
0.513243516054644
30
0
41
1
10
14.105945102473
20
0.534345581457529
30
0
41
1
10
14.0888779437952
20
0.576873709042928
30
0
41
1
10
14.0811144591219
20
0.598342964389559
30
0
41
1
10
14.059956144654
20
0.663316792705501
30
0
41
1
10
14.0486868324352
20
0.707385602031309
30
0
41
1
10
14.0398756431872
20
0.752102029793974
30
0
0
SPLINE
5
139
100
AcDbEntity
8
1
62
256
6
ByLayer
370
13
48
1
60
0
100
AcDbSpline
70
4
71
3
72
8
73
4
40
0
40
0
40
0
40
0
40
1
40
1
40
1
40
1
41
1
10
18.7701858269905
20
-7.98514554624737
30
0
41
1
10
17.8467905513271
20
-8.41622445563254
30
0
41
1
10
16.9233952756636
20
-8.72244600554518
30
0
41
1
10
16
20
-8.88289639922016
30
0
0
SPLINE
5
13A
100
AcDbEntity
8
1
62
256
6
ByLayer
370
18
48
1
60
0
100
AcDbSpline
70
4
71
3
72
8
73
4
40
0
40
0
40
0
40
0
40
1
40
1
40
1
40
1
41
1
10
14.4016852483
20
0.368443388162007
30
0
41
1
10
14.2821294971288
20
0.499271257406576
30
0
41
1
10
14.1613088134664
20
0.626922311254589
30
0
41
1
10
14.0398756431876
20
0.752102029794088
30
0
0
SPLINE
5
13B
100
AcDbEntity
8
1
62
256
6
ByLayer
370
13
48
1
60
0
100
AcDbSpline
70
4
71
1
72
4
73
2
40
0
40
0
40
1
40
1
41
1
10
16
20
-1.11624628143909
30
0
41
1
10
13.0168117052148
20
1.85717458980557
30
0
0
SPLINE
5
13C
100
AcDbEntity
8
1
62
256
6
ByLayer
370
18
48
1
60
0
100
AcDbSpline
70
4
71
3
72
8
73
4
40
0
40
0
40
0
40
0
40
1
40
1
40
1
40
1
41
1
10
13.0168117052148
20
1.85717458980559
30
0
41
1
10
13.3598949817241
20
1.49299303225169
30
0
41
1
10
13.6999076980063
20
1.12372876123052
30
0
41
1
10
14.0398756431876
20
0.752102029794088
30
0
0
SPLINE
5
13D
100
AcDbEntity
8
1
62
256
6
ByLayer
370
18
48
1
60
0
100
AcDbSpline
70
4
71
3
72
8
73
4
40
0
40
0
40
0
40
0
40
1
40
1
40
1
40
1
41
1
10
53.8950181333389
20
0.421494239516676
30
0
41
1
10
53.8453686663313
20
0.816618681781875
30
0
41
1
10
53.7957167039807
20
1.21172068758517
30
0
41
1
10
53.746062499666
20
1.60680253515474
30
0
0
SPLINE
5
13E
100
AcDbEntity
8
1
62
256
6
ByLayer
370
18
48
1
60
0
100
AcDbSpline
70
4
71
3
72
26
73
22
40
0
40
0
40
0
40
0
40
0.0624999999999999
40
0.0624999999999999
40
0.125
40
0.125
40
0.25
40
0.25
40
0.374999999999999
40
0.374999999999999
40
0.437499999999999
40
0.437499999999999
40
0.499999999999999
40
0.499999999999999
40
0.625
40
0.625
40
0.75
40
0.75
40
0.875
40
0.875
40
1
40
1
40
1
40
1
41
1
10
53.746062499666
20
1.6068025351546
30
0
41
1
10
53.7352432424708
20
1.64741033756678
30
0
41
1
10
53.7238316823844
20
1.68980424687137
30
0
41
1
10
53.7000619386999
20
1.77744663668491
30
0
41
1
10
53.6877025167976
20
1.82269885133741
30
0
41
1
10
53.6494485429922
20
1.96200087784905
30
0
41
1
10
53.622390741647
20
2.05955850281634
30
0
41
1
10
53.566005133246
20
2.26151902212871
30
0
41
1
10
53.5366693929361
20
2.36594583943656
30
0
41
1
10
53.4913304459524
20
2.52661281217695
30
0
41
1
10
53.4760468728482
20
2.58065438763251
30
0
41
1
10
53.4452437945277
20
2.6893664285999
30
0
41
1
10
53.4297133867923
20
2.74407546932702
30
0
41
1
10
53.3827800287639
20
2.90913982945028
30
0
41
1
10
53.3510368842406
20
3.02042707076595
30
0
41
1
10
53.2868165081686
20
3.24501249811422
30
0
41
1
10
53.2543383759145
20
3.35831315152245
30
0
41
1
10
53.1887674865696
20
3.58659815049677
30
0
41
1
10
53.1556742434947
20
3.70158382735926
30
0
41
1
10
53.0889604973041
20
3.93299954770023
30
0
41
1
10
53.0553910821492
20
4.04925211182487
30
0
41
1
10
53.0216740227838
20
4.16585073905233
30
0
0
SPLINE
5
13F
100
AcDbEntity
8
1
62
256
6
ByLayer
370
18
48
1
60
0
100
AcDbSpline
70
4
71
3
72
8
73
4
40
0
40
0
40
0
40
0
40
1
40
1
40
1
40
1
41
1
10
53.0216740227839
20
4.16585073905225
30
0
41
1
10
53.000108083793
20
4.08836701185581
30
0
41
1
10
52.9771718586813
20
4.00985471283457
30
0
41
1
10
52.9527968623387
20
3.93036690168137
30
0
0
SPLINE
5
140
100
AcDbEntity
8
1
62
256
6
ByLayer
370
18
48
1
60
0
100
AcDbSpline
70
4
71
3
72
26
73
22
40
0
40
0
40
0
40
0
40
0.124999999999982
40
0.124999999999982
40
0.187499999999957
40
0.187499999999957
40
0.249999999999933
40
0.249999999999933
40
0.374999999999872
40
0.374999999999872
40
0.437499999999864
40
0.437499999999864
40
0.499999999999856
40
0.499999999999856
40
0.62499999999984
40
0.62499999999984
40
0.687499999999857
40
0.687499999999857
40
0.749999999999875
40
0.749999999999875
40
1
40
1
40
1
40
1
41
1
10
52.9527968623387
20
3.93036690168137
30
0
41
1
10
52.9495356371698
20
3.91972928134703
30
0
41
1
10
52.945760658263
20
3.9102155283681
30
0
41
1
10
52.9392557910596
20
3.89773714487066
30
0
41
1
10
52.9369466714475
20
3.89387725038671
30
0
41
1
10
52.9320286407376
20
3.88678645893779
30
0
41
1
10
52.9294042353955
20
3.88354217600272
30
0
41
1
10
52.9212126655359
20
3.87496939098745
30
0
41
1
10
52.9153100205853
20
3.87074547546524
30
0
41
1
10
52.9058009609929
20
3.86654805889901
30
0
41
1
10
52.9025218090633
20
3.86550640172334
30
0
41
1
10
52.8957425690752
20
3.86413355364371
30
0
41
1
10
52.8922612363549
20
3.86380918658065
30
0
41
1
10
52.881687240246
20
3.86386324085876
30
0
41
1
10
52.8744117906649
20
3.86525187221869
30
0
41
1
10
52.863187418371
20
3.86911681842418
30
0
41
1
10
52.8593794144674
20
3.870711168881
30
0
41
1
10
52.8517497588073
20
3.87442323494821
30
0
41
1
10
52.8479278496162
20
3.87653823482921
30
0
41
1
10
52.8287830536202
20
3.88828159319414
30
0
41
1
10
52.8133536732546
20
3.90134920884617
30
0
41
1
10
52.7978203716237
20
3.91715311267518
30
0
0
SPLINE
5
141
100
AcDbEntity
8
1
62
256
6
ByLayer
370
18
48
1
60
0
100
AcDbSpline
70
4
71
3
72
8
73
4
40
0
40
0
40
0
40
0
40
1
40
1
40
1
40
1
41
1
10
52.7978203716237
20
3.91715311267518
30
0
41
1
10
52.7121272903791
20
4.00433900645407
30
0
41
1
10
52.6215701221578
20
4.0996227183245
30
0
41
1
10
52.5264499407451
20
4.20270007859415
30
0
0
SPLINE
5
142
100
AcDbEntity
8
1
62
256
6
ByLayer
370
18
48
1
60
0
100
AcDbSpline
70
4
71
3
72
14
73
10
40
0
40
0
40
0
40
0
40
0.25
40
0.25
40
0.5
40
0.5
40
0.75
40
0.75
40
1
40
1
40
1
40
1
41
1
10
15.5980762113533
20
-4.18580716694456
30
0
41
1
10
15.5206929393627
20
-4.08265119203958
30
0
41
1
10
15.4415436799456
20
-3.98164583359605
30
0
41
1
10
15.2801895075183
20
-3.78343203181305
30
0
41
1
10
15.1979827838119
20
-3.68622580607135
30
0
41
1
10
15.0308748457075
20
-3.49528023227185
30
0
41
1
10
14.9459726557777
20
-3.40154185928057
30
0
41
1
10
14.7737658080925
20
-3.21732276102622
30
0
41
1
10
14.6864606510253
20
-3.12684216644104
30
0
41
1
10
14.5980762113529
20
-3.03793842826846
30
0
0
SPLINE
5
143
100
AcDbEntity
8
1
62
256
6
ByLayer
370
18
48
1
60
0
100
AcDbSpline
70
4
71
3
72
29
73
25
40
0
40
0
40
0
40
0
40
0.0867963991850205
40
0.130288272175982
40
0.173779153919786
40
0.217269089290448
40
0.260758133994377
40
0.304246355228665
40
0.347733831677535
40
0.391220643102766
40
0.434706861701121
40
0.478192554396687
40
0.521677783560145
40
0.565162607677086
40
0.608647082016682
40
0.65213125930074
40
0.695615190373087
40
0.739098924869239
40
0.782582511886455
40
0.826066000654097
40
0.869549441204156
40
0.91303288504224
40
0.956516385818688
40
1
40
1
40
1
40
1
41
1
10
47.9165072895038
20
7.80329570483673
30
0
41
1
10
47.9753924967445
20
7.84423797504263
30
0
41
1
10
48.063781920323
20
7.90494525982976
30
0
41
1
10
48.1816692583606
20
7.98438584429323
30
0
41
1
10
48.2701808009885
20
8.04325838479392
30
0
41
1
10
48.3586909293569
20
8.1013509247033
30
0
41
1
10
48.4472000039118
20
8.15865698710823
30
0
41
1
10
48.5357078649052
20
8.21516988592759
30
0
41
1
10
48.6242144557791
20
8.27088273084914
30
0
41
1
10
48.7127198451157
20
8.32579034457751
30
0
41
1
10
48.8012241891621
20
8.37988825393907
30
0
41
1
10
48.8897276221365
20
8.43317181259974
30
0
41
1
10
48.9782302838202
20
8.48563642121005
30
0
41
1
10
49.0667323125034
20
8.53727746774612
30
0
41
1
10
49.1552338468813
20
8.58809034661641
30
0
41
1
10
49.2437350255533
20
8.63807044172154
30
0
41
1
10
49.3322359871279
20
8.68721317491551
30
0
41
1
10
49.4207368702953
20
8.73551382890881
30
0
41
1
10
49.5092378134305
20
8.78296820699896
30
0
41
1
10
49.5977389561011
20
8.82957017106258
30
0
41
1
10
49.6862404334307
20
8.87532082963983
30
0
41
1
10
49.7747423971296
20
8.92019424744564
30
0
41
1
10
49.8632449370074
20
8.96426541913658
30
0
41
1
10
49.9222471242029
20
8.99291019810781
30
0
41
1
10
49.9517482562699
20
9.00723260626978
30
0
0
SPLINE
5
144
100
AcDbEntity
8
1
62
256
6
ByLayer
370
18
48
1
60
0
100
AcDbSpline
70
4
71
3
72
12
73
8
40
0
40
0
40
0
40
0
40
0.25
40
0.25
40
0.5
40
0.5
40
1
40
1
40
1
40
1
41
1
10
49.9523056228573
20
9.00692542647545
30
0
41
1
10
50.0909614170128
20
9.06761796059749
30
0
41
1
10
50.232768118842
20
9.12241620903555
30
0
41
1
10
50.5223175204825
20
9.2216478996861
30
0
41
1
10
50.6700340349876
20
9.26609902190356
30
0
41
1
10
51.1216644470865
20
9.38566814046015
30
0
41
1
10
51.43402675713
20
9.44708786867713
30
0
41
1
10
51.7565850259322
20
9.49392992009675
30
0
0
SPLINE
5
145
100
AcDbEntity
8
1
62
256
6
ByLayer
370
18
48
1
60
0
100
AcDbSpline
70
4
71
3
72
10
73
6
40
0
40
0
40
0
40
0
40
0.5
40
0.5
40
1
40
1
40
1
40
1
41
1
10
14.401685248574
20
0.368443387862129
30
0
41
1
10
14.6654947256978
20
0.079761066513754
30
0
41
1
10
14.9294050601024
20
-0.209157080123106
30
0
41
1
10
15.4609197006548
20
-0.784237708303579
30
0
41
1
10
15.7285163547809
20
-1.07040737340421
30
0
41
1
10
16
20
-1.35331065215766
30
0
0
SPLINE
5
146
100
AcDbEntity
8
1
62
256
6
ByLayer
370
13
48
1
60
0
100
AcDbSpline
70
4
71
3
72
8
73
4
40
0
40
0
40
0
40
0
40
1
40
1
40
1
40
1
41
1
10
14.2800791981118
20
0.268577120610018
30
0
41
1
10
14.3205043537434
20
0.302047240650779
30
0
41
1
10
14.3610415399558
20
0.33533292333189
30
0
41
1
10
14.4016852536613
20
0.368443392529599
30
0
0
SPLINE
5
147
100
AcDbEntity
8
1
62
256
6
ByLayer
370
18
48
1
60
0
100
AcDbSpline
70
4
71
3
72
8
73
4
40
0
40
0
40
0
40
0
40
1
40
1
40
1
40
1
41
1
10
14.2800791981118
20
0.268577120610018
30
0
41
1
10
14.3860355462571
20
0.157072961417015
30
0
41
1
10
14.4920158055683
20
0.0453688742022962
30
0
41
1
10
14.5980762113535
20
-0.0664830716450808
30
0
0
SPLINE
5
148
100
AcDbEntity
8
1
62
256
6
ByLayer
370
18
48
1
60
0
100
AcDbSpline
70
4
71
3
72
28
73
24
40
0
40
0
40
0
40
0
40
0.031249999999997
40
0.031249999999997
40
0.0624999999999939
40
0.0624999999999939
40
0.124999999999996
40
0.124999999999996
40
0.187499999999998
40
0.187499999999998
40
0.249999999999999
40
0.249999999999999
40
0.312500000000001
40
0.312500000000001
40
0.375000000000003
40
0.375000000000003
40
0.500000000000002
40
0.500000000000002
40
0.625000000000001
40
0.625000000000001
40
0.75
40
0.75
40
1
40
1
40
1
40
1
41
1
10
14.5980762113529
20
-0.066483071642466
30
0
41
1
10
14.6201768901448
20
-0.0897905812556985
30
0
41
1
10
14.6408230674109
20
-0.113920163141898
30
0
41
1
10
14.6800765116488
20
-0.163332931353921
30
0
41
1
10
14.6986748479953
20
-0.188621154264041
30
0
41
1
10
14.7521501009267
20
-0.26579988574349
30
0
41
1
10
14.7847453626179
20
-0.31898297785844
30
0
41
1
10
14.8460293151749
20
-0.427568665877771
30
0
41
1
10
14.8746858245694
20
-0.482989407403153
30
0
41
1
10
14.9291724518671
20
-0.595441821479795
30
0
41
1
10
14.9549914781179
20
-0.652479747157685
30
0
41
1
10
15.0044640951701
20
-0.767794243404666
30
0
41
1
10
15.028144411149
20
-0.826158460444731
30
0
41
1
10
15.0735535012944
20
-0.943289363519597
30
0
41
1
10
15.0952995243944
20
-1.00209358324091
30
0
41
1
10
15.1582190538379
20
-1.17905543276987
30
0
41
1
10
15.1971023258781
20
-1.29775377106515
30
0
41
1
10
15.270566286223
20
-1.53605082745622
30
0
41
1
10
15.305127803764
20
-1.65565531067895
30
0
41
1
10
15.3709712287892
20
-1.89545722318081
30
0
41
1
10
15.4022452929005
20
-2.01565701487135
30
0
41
1
10
15.4921456566712
20
-2.37684447022602
30
0
41
1
10
15.5469026169375
20
-2.61840511415806
30
0
41
1
10
15.5980762113533
20
-2.86024448909581
30
0
0
SPLINE
5
149
100
AcDbEntity
8
1
62
256
6
ByLayer
370
18
48
1
60
0
100
AcDbSpline
70
4
71
3
72
10
73
6
40
0
40
0
40
0
40
0
40
0.5
40
0.5
40
1
40
1
40
1
40
1
41
1
10
15.5980762113533
20
-2.86024448909572
30
0
41
1
10
15.6653939931403
20
-3.17837907501632
30
0
41
1
10
15.7324206970166
20
-3.49225359867612
30
0
41
1
10
15.866270639677
20
-4.11158219060053
30
0
41
1
10
15.9330930158479
20
-4.41703611230233
30
0
41
1
10
16.0000000000001
20
-4.71821222293357
30
0
0
SPLINE
5
14A
100
AcDbEntity
8
1
62
256
6
ByLayer
370
18
48
1
60
0
100
AcDbSpline
70
4
71
3
72
8
73
4
40
0
40
0
40
0
40
0
40
1
40
1
40
1
40
1
41
1
10
16
20
-4.71821222295503
30
0
41
1
10
16
20
-4.72052952825527
30
0
41
1
10
16
20
-4.7228466041617
30
0
41
1
10
16
20
-4.72516345063551
30
0
0
SPLINE
5
14B
100
AcDbEntity
8
1
62
256
6
ByLayer
370
18
48
1
60
0
100
AcDbSpline
70
4
71
3
72
26
73
22
40
0
40
0
40
0
40
0
40
0.125000000000001
40
0.125000000000001
40
0.250000000000002
40
0.250000000000002
40
0.375000000000003
40
0.375000000000003
40
0.500000000000004
40
0.500000000000004
40
0.531250000000003
40
0.531250000000003
40
0.562500000000002
40
0.562500000000002
40
0.625000000000003
40
0.625000000000003
40
0.750000000000002
40
0.750000000000002
40
0.875000000000001
40
0.875000000000001
40
1
40
1
40
1
40
1
41
1
10
16
20
-4.72516345063551
30
0
41
1
10
16.30365519989
20
-5.02219174475735
30
0
41
1
10
16.6054969380927
20
-5.30949684157096
30
0
41
1
10
17.2072423615182
20
-5.86388320304024
30
0
41
1
10
17.5071429831284
20
-6.13096263454889
30
0
41
1
10
18.1067445001191
20
-6.64357491571732
30
0
41
1
10
18.406448129857
20
-6.88912422302647
30
0
41
1
10
19.0073618982876
20
-7.35759105131558
30
0
41
1
10
19.3085688634679
20
-7.5805115396499
30
0
41
1
10
19.6871062813343
20
-7.8439981435526
30
0
41
1
10
19.7629153164017
20
-7.89593645654253
30
0
41
1
10
19.9147630660384
20
-7.99827047488569
30
0
41
1
10
19.9906219784638
20
-8.04854445570598
30
0
41
1
10
20.2178355505616
20
-8.19655293390201
30
0
41
1
10
20.3689174901272
20
-8.2915357548074
30
0
41
1
10
20.821278662921
20
-8.56542265474297
30
0
41
1
10
21.1216562043589
20
-8.73329898356349
30
0
41
1
10
21.7216525643943
20
-9.03904592374346
30
0
41
1
10
22.0212781461075
20
-9.17692191858421
30
0
41
1
10
22.621478049159
20
-9.42217526658374
30
0
41
1
10
22.9220504156399
20
-9.52955320683404
30
0
41
1
10
23.2239811791255
20
-9.62114675589265
30
0
0
SPLINE
5
14C
100
AcDbEntity
8
1
62
256
6
ByLayer
370
18
48
1
60
0
100
AcDbSpline
70
4
71
3
72
57
73
53
40
0
40
0
40
0
40
0
40
0.0117818847954316
40
0.0235643415164888
40
0.0353473331387446
40
0.0471308225784883
40
0.0589147727100466
40
0.0706991463831972
40
0.0824839064405031
40
0.0942690157346522
40
0.106054437145799
40
0.117840133598906
40
0.129626068081064
40
0.141412203658786
40
0.153198503495364
40
0.164984930868141
40
0.176771449185837
40
0.188558022005855
40
0.20034461305157
40
0.212131186229655
40
0.223917705647355
40
0.235704135629808
40
0.247490440737359
40
0.259276585782835
40
0.271062535848902
40
0.282848256305336
40
0.294633712826362
40
0.306418871407987
40
0.318203698385308
40
0.329988160449871
40
0.341772224667002
40
0.353555858493164
40
0.365339029793311
40
0.377121706858273
40
0.388903858422114
40
0.400685453679556
40
0.412466462303322
40
0.424246854461612
40
0.436026600835489
40
0.447805672636317
40
0.459584042216502
40
0.471361705624503
40
0.483138689068889
40
0.494915020387665
40
0.506690727016776
40
0.518465836000834
40
0.530240374003818
40
0.542014367319847
40
0.676845052772761
40
0.811686873420206
40
0.94657254798385
40
1
40
1
40
1
40
1
41
1
10
23.2239811791256
20
-9.62114675589265
30
0
41
1
10
23.2393089715561
20
-9.62577251091702
30
0
41
1
10
23.269965300471
20
-9.63502424551285
30
0
41
1
10
23.3159504640056
20
-9.64858446988433
30
0
41
1
10
23.3619374991909
20
-9.66191233156144
30
0
41
1
10
23.4079262881426
20
-9.67498466143729
30
0
41
1
10
23.4539167545728
20
-9.68780718615602
30
0
41
1
10
23.4999088110495
20
-9.70037788932137
30
0
41
1
10
23.5459023731287
20
-9.71269682946527
30
0
41
1
10
23.5918973555674
20
-9.72476350917387
30
0
41
1
10
23.6378936733384
20
-9.73657758006709
30
0
41
1
10
23.6838912413582
20
-9.74813865389072
30
0
41
1
10
23.7298899745602
20
-9.75944635313647
30
0
41
1
10
23.7758897878743
20
-9.77050029747809
30
0
41
1
10
23.8218905962333
20
-9.78130010740603
30
0
41
1
10
23.86789231457
20
-9.79184540325383
30
0
41
1
10
23.9138948578188
20
-9.80213580545905
30
0
41
1
10
23.9598981409148
20
-9.81217093449357
30
0
41
1
10
24.0059020787938
20
-9.82195041088255
30
0
41
1
10
24.0519065863929
20
-9.83147385519942
30
0
41
1
10
24.0979115786493
20
-9.84074088806736
30
0
41
1
10
24.1439169705014
20
-9.84975113015929
30
0
41
1
10
24.189922676888
20
-9.85850420219785
30
0
41
1
10
24.2359286127487
20
-9.86699972495566
30
0
41
1
10
24.2819346930232
20
-9.87523731925549
30
0
41
1
10
24.3279408326522
20
-9.88321660597035
30
0
41
1
10
24.3739469465764
20
-9.89093720602355
30
0
41
1
10
24.419952949737
20
-9.8983987403891
30
0
41
1
10
24.4659587570756
20
-9.90560083009154
30
0
41
1
10
24.5119642835338
20
-9.91254309620635
30
0
41
1
10
24.5579694440536
20
-9.91922515985985
30
0
41
1
10
24.6039741535771
20
-9.92564664222982
30
0
41
1
10
24.6499783270464
20
-9.93180716454393
30
0
41
1
10
24.6959818794031
20
-9.93770634808664
30
0
41
1
10
24.741984725592
20
-9.94334381417357
30
0
41
1
10
24.7879867805439
20
-9.9487191842482
30
0
41
1
10
24.8339879592432
20
-9.95383207952159
30
0
41
1
10
24.8799881764722
20
-9.95868212231755
30
0
41
1
10
24.9259873477666
20
-9.96326893105336
30
0
41
1
10
24.9719853866219
20
-9.96759213904411
30
0
41
1
10
25.017982247909
20
-9.9716513272337
30
0
41
1
10
25.0639779105812
20
-9.97544631961702
30
0
41
1
10
25.1099723563598
20
-9.97897731953131
30
0
41
1
10
25.1559656230862
20
-9.98224446363483
30
0
41
1
10
25.2019577465765
20
-9.9852479107048
30
0
41
1
10
25.247948767732
20
-9.98798780236567
30
0
41
1
10
25.2939387117949
20
-9.99046432688763
30
0
41
1
10
25.500147098344
20
-10.0003879169169
30
0
41
1
10
25.8666327170497
20
-10.0049948031152
30
0
41
1
10
26.393257381865
20
-9.97733638072748
30
0
41
1
10
26.8138068511739
20
-9.92799572856532
30
0
41
1
10
27.0587418334557
20
-9.88825607060579
30
0
41
1
10
27.1282317206154
20
-9.87610189305232
30
0
0
SPLINE
5
14D
100
AcDbEntity
8
1
62
256
6
ByLayer
370
18
48
1
60
0
100
AcDbSpline
70
4
71
3
72
20
73
16
40
0
40
0
40
0
40
0
40
0.124999999999998
40
0.124999999999998
40
0.249999999999996
40
0.249999999999996
40
0.374999999999995
40
0.374999999999995
40
0.499999999999993
40
0.499999999999993
40
0.624999999999991
40
0.624999999999991
40
0.749999999999989
40
0.749999999999989
40
1
40
1
40
1
40
1
41
1
10
49.9594946580417
20
3.86075238506498
30
0
41
1
10
50.013078623414
20
3.80336119225149
30
0
41
1
10
50.0662139269714
20
3.74579733574444
30
0
41
1
10
50.1718864514139
20
3.63052796484223
30
0
41
1
10
50.2244295389015
20
3.5728244053719
30
0
41
1
10
50.3291177036459
20
3.45742250572104
30
0
41
1
10
50.3812608239158
20
3.39972357560072
30
0
41
1
10
50.4853459594248
20
3.28446808614584
30
0
41
1
10
50.5372879858617
20
3.22691119043381
30
0
41
1
10
50.6411101823421
20
3.11204784858452
30
0
41
1
10
50.6929887443783
20
3.05474097063407
30
0
41
1
10
50.7968202697561
20
2.94048103373555
30
0
41
1
10
50.848483233087
20
2.88384811818472
30
0
41
1
10
51.0027069350916
20
2.71574767895242
30
0
41
1
10
51.1045985166084
20
2.60596927754443
30
0
41
1
10
51.206124949836
20
2.49855438488129
30
0
0
SPLINE
5
14E
100
AcDbEntity
8
1
62
256
6
ByLayer
370
18
48
1
60
0
100
AcDbSpline
70
4
71
3
72
8
73
4
40
0
40
0
40
0
40
0
40
1
40
1
40
1
40
1
41
1
10
51.2061249498357
20
2.49855438488152
30
0
41
1
10
51.2249942689392
20
2.4785892528127
30
0
41
1
10
51.2436530334324
20
2.45871501487903
30
0
41
1
10
51.2620755775976
20
2.43893036073683
30
0
0
SPLINE
5
14F
100
AcDbEntity
8
1
62
256
6
ByLayer
370
13
48
1
60
0
100
AcDbSpline
70
4
71
3
72
27
73
23
40
0
40
0
40
0
40
0
40
0.0256672690425726
40
0.069510552629548
40
0.113634250614055
40
0.24454007320094
40
0.309388718534105
40
0.37428543573064
40
0.439594166050903
40
0.505536744885786
40
0.549876095046652
40
0.593981503023463
40
0.637158444189403
40
0.658208498734545
40
0.678775371693432
40
0.698763418960774
40
0.718740651065181
40
0.760304641244921
40
0.847487622645859
40
0.89178833960224
40
0.95768388421096
40
1
40
1
40
1
40
1
41
1
10
53.8265516790695
20
0.42161826948967
30
0
41
1
10
53.8109663508477
20
0.428128795860516
30
0
41
1
10
53.7685126127494
20
0.446474821578221
30
0
41
1
10
53.6976259310942
20
0.479673867770742
30
0
41
1
10
53.5559282460435
20
0.551866681647937
30
0
41
1
10
53.3851637014248
20
0.651347358225053
30
0
41
1
10
53.183349855079
20
0.783399625004165
30
0
41
1
10
53.0256244642162
20
0.893257527676752
30
0
41
1
10
52.8617992181674
20
1.0137039955554
30
0
41
1
10
52.7113296702966
20
1.12973526773712
30
0
41
1
10
52.5771717873633
20
1.23694940422917
30
0
41
1
10
52.4600718945534
20
1.33303091901308
30
0
41
1
10
52.3599281282928
20
1.41725991717382
30
0
41
1
10
52.2783833873482
20
1.48709757561244
30
0
41
1
10
52.2174939421978
20
1.53984169094517
30
0
41
1
10
52.1548265139167
20
1.59474591425584
30
0
41
1
10
52.0700799744185
20
1.66981994852807
30
0
41
1
10
51.921446943376
20
1.80368689858722
30
0
41
1
10
51.7545335434588
20
1.95864773358176
30
0
41
1
10
51.5635552543298
20
2.1409459002426
30
0
41
1
10
51.4129964964265
20
2.2879535009811
30
0
41
1
10
51.3046198909337
20
2.39611502211091
30
0
41
1
10
51.2620755775975
20
2.438930360737
30
0
0
SPLINE
5
150
100
AcDbEntity
8
1
62
256
6
ByLayer
370
18
48
1
60
0
100
AcDbSpline
70
4
71
3
72
8
73
4
40
0
40
0
40
0
40
0
40
1
40
1
40
1
40
1
41
1
10
53.8900637710209
20
0.405925278412923
30
0
41
1
10
53.868515472347
20
0.411245345599696
30
0
41
1
10
53.847317332673
20
0.416482813400592
30
0
41
1
10
53.8265517475488
20
0.42161824541634
30
0
0
SPLINE
5
151
100
AcDbEntity
8
1
62
256
6
ByLayer
370
18
48
1
60
0
100
AcDbSpline
70
4
71
3
72
8
73
4
40
0
40
0
40
0
40
0
40
1
40
1
40
1
40
1
41
1
10
53.890063771021
20
0.405925278412894
30
0
41
1
10
53.8918529343851
20
0.410005226283943
30
0
41
1
10
53.8935019698781
20
0.415214369954128
30
0
41
1
10
53.89501813334
20
0.42149423951517
30
0
0
SPLINE
5
152
100
AcDbEntity
8
1
62
256
6
ByLayer
370
18
48
1
60
0
100
AcDbSpline
70
4
71
3
72
44
73
40
40
0
40
0
40
0
40
0
40
0.125000000000028
40
0.125000000000028
40
0.156250000000035
40
0.156250000000035
40
0.187500000000042
40
0.187500000000042
40
0.250000000000051
40
0.250000000000051
40
0.281250000000052
40
0.281250000000052
40
0.312500000000053
40
0.312500000000053
40
0.375000000000049
40
0.375000000000049
40
0.437500000000046
40
0.437500000000046
40
0.500000000000042
40
0.500000000000042
40
0.531250000000038
40
0.531250000000038
40
0.562500000000034
40
0.562500000000034
40
0.62500000000003
40
0.62500000000003
40
0.656250000000028
40
0.656250000000028
40
0.687500000000026
40
0.687500000000026
40
0.750000000000022
40
0.750000000000022
40
0.812500000000017
40
0.812500000000017
40
0.843750000000015
40
0.843750000000015
40
0.875000000000012
40
0.875000000000012
40
1
40
1
40
1
40
1
41
1
10
51.7565850259322
20
2.395865235423
30
0
41
1
10
51.8958101282206
20
2.27026476076233
30
0
41
1
10
52.0310314345445
20
2.1472215548865
30
0
41
1
10
52.195448671399
20
1.9967113765021
30
0
41
1
10
52.2280971668147
20
1.9667705522071
30
0
41
1
10
52.2929296848471
20
1.90722065224486
30
0
41
1
10
52.3251396256493
20
1.8775902331042
30
0
41
1
10
52.4204804943911
20
1.78978124291675
30
0
41
1
10
52.4825181572456
20
1.73249772327443
30
0
41
1
10
52.5733805834402
20
1.64845574039151
30
0
41
1
10
52.6033046747896
20
1.62076341046071
30
0
41
1
10
52.662440901754
20
1.56604636882969
30
0
41
1
10
52.6916573786551
20
1.53901480765015
30
0
41
1
10
52.7777348272191
20
1.45941014201512
30
0
41
1
10
52.8332039013426
20
1.40814915480567
30
0
41
1
10
52.9404429327987
20
1.30896088565319
30
0
41
1
10
52.9922140388878
20
1.26103979441709
30
0
41
1
10
53.0921465497643
20
1.1684184774048
30
0
41
1
10
53.140308667353
20
1.12372168971078
30
0
41
1
10
53.2098733881405
20
1.05911538991208
30
0
41
1
10
53.2326149964816
20
1.03798916031349
30
0
41
1
10
53.2772032668077
20
0.996563112202494
30
0
41
1
10
53.2990515955445
20
0.976261231046692
30
0
41
1
10
53.362907372198
20
0.916920721704713
30
0
41
1
10
53.4033511823102
20
0.879332484646596
30
0
41
1
10
53.460895650718
20
0.825858527439749
30
0
41
1
10
53.479556345281
20
0.80851867677373
30
0
41
1
10
53.5158408888729
20
0.774804782273094
30
0
41
1
10
53.5334775742477
20
0.75841910863096
30
0
41
1
10
53.5847390575911
20
0.710794169325652
30
0
41
1
10
53.6166640910895
20
0.681133634066498
30
0
41
1
10
53.6761083828813
20
0.625900102559825
30
0
41
1
10
53.7036276775417
20
0.600324284701998
30
0
41
1
10
53.7416176968268
20
0.565001175961157
30
0
41
1
10
53.7537231333964
20
0.553742356127231
30
0
41
1
10
53.7767520465685
20
0.532311361720417
30
0
41
1
10
53.7876872156193
20
0.522128312633953
30
0
41
1
10
53.8394965176684
20
0.473835325808921
30
0
41
1
10
53.8718134575493
20
0.4435738653751
30
0
41
1
10
53.8950181333393
20
0.421494239515369
30
0
0
SPLINE
5
153
100
AcDbEntity
8
1
62
256
6
ByLayer
370
18
48
1
60
0
100
AcDbSpline
70
4
71
3
72
8
73
4
40
0
40
0
40
0
40
0
40
1
40
1
40
1
40
1
41
1
10
49.952420711168
20
3.869100398336
30
0
41
1
10
49.9547811235405
20
3.86631364104557
30
0
41
1
10
49.9571390811122
20
3.86353100217124
30
0
41
1
10
49.9594946580417
20
3.86075238506501
30
0
0
SPLINE
5
154
100
AcDbEntity
8
1
62
256
6
ByLayer
370
18
48
1
60
0
100
AcDbSpline
70
4
71
3
72
58
73
54
40
0
40
0
40
0
40
0
40
0.0060680599158368
40
0.0129908602648404
40
0.0207683651725832
40
0.0294004958070102
40
0.0388871181951195
40
0.0492280304788082
40
0.0604229499095904
40
0.0724714999384417
40
0.0853731978219443
40
0.0991274432397645
40
0.113733508502453
40
0.129190565023333
40
0.145498117520288
40
0.162656002495641
40
0.180664148346286
40
0.199522581483356
40
0.219231438418431
40
0.239790978474631
40
0.261201597356027
40
0.283463841870671
40
0.30657842617104
40
0.330546249950909
40
0.355368418957599
40
0.381045988670906
40
0.407579270934418
40
0.43496831617886
40
0.516274865501384
40
0.597589330122731
40
0.678898656666453
40
0.760198487309494
40
0.771619179172371
40
0.783039610739985
40
0.794459793795977
40
0.805879742968496
40
0.817299475903071
40
0.82871901326169
40
0.840138375989291
40
0.851557583044288
40
0.862976652000526
40
0.874395599236152
40
0.885814440109116
40
0.897233189132752
40
0.908651860151474
40
0.920070466516552
40
0.93148902126196
40
0.94290753728033
40
0.954326027498977
40
0.965744505055995
40
0.977162983476426
40
0.988581476848513
40
1
40
1
40
1
40
1
41
1
10
42.2015046891736
20
9.51217979794839
30
0
41
1
10
42.2171760320888
20
9.50683443623495
30
0
41
1
10
42.25072616653
20
9.49539077087113
30
0
41
1
10
42.3043546206115
20
9.47670776611369
30
0
41
1
10
42.364600091222
20
9.4553483108887
30
0
41
1
10
42.4314615874586
20
9.43114478234693
30
0
41
1
10
42.5049390865689
20
9.40395411653714
30
0
41
1
10
42.5850320237224
20
9.37360585392204
30
0
41
1
10
42.6717397031976
20
9.33991851297745
30
0
41
1
10
42.7650611061459
20
9.30269459092497
30
0
41
1
10
42.8649948706227
20
9.2617221926827
30
0
41
1
10
42.9715392507289
20
9.21677450698456
30
0
41
1
10
43.0846920142682
20
9.16761047165323
30
0
41
1
10
43.2044521279142
20
9.11397222251242
30
0
41
1
10
43.3308177678215
20
9.05559639387945
30
0
41
1
10
43.4637874089066
20
8.99221287377884
30
0
41
1
10
43.6033607682907
20
8.92353963522618
30
0
41
1
10
43.7495377575279
20
8.84928521108245
30
0
41
1
10
43.9023186348132
20
8.76914885572242
30
0
41
1
10
44.061704014894
20
8.68282132368006
30
0
41
1
10
44.2276949271449
20
8.58998550246747
30
0
41
1
10
44.4002928618855
20
8.49031713936506
30
0
41
1
10
44.5794998261989
20
8.3834855205333
30
0
41
1
10
44.765318386796
20
8.26915443084005
30
0
41
1
10
44.9577510458999
20
8.14698262586307
30
0
41
1
10
45.1567975481105
20
8.01662950335466
30
0
41
1
10
45.3624617946062
20
7.87777797077584
30
0
41
1
10
45.7118210052382
20
7.63476569155213
30
0
41
1
10
46.2027213934949
20
7.27352304476636
30
0
41
1
10
46.8328385461549
20
6.774514472281
30
0
41
1
10
47.4629819943661
20
6.24279136227827
30
0
41
1
10
47.9126355291374
20
5.84179092496746
30
0
41
1
10
48.1816692584197
20
5.59511052011979
30
0
41
1
10
48.2701808010446
20
5.51341348726049
30
0
41
1
10
48.3586909294101
20
5.43118465232001
30
0
41
1
10
48.447200003962
20
5.34843063937376
30
0
41
1
10
48.5357078649524
20
5.26515850850848
30
0
41
1
10
48.6242144558234
20
5.18137502110457
30
0
41
1
10
48.712719845157
20
5.09708828594384
30
0
41
1
10
48.8012241892004
20
5.01230691808686
30
0
41
1
10
48.8897276221719
20
4.92703940753182
30
0
41
1
10
48.9782302838527
20
4.84129427751586
30
0
41
1
10
49.0667323125328
20
4.75508004139471
30
0
41
1
10
49.1552338469079
20
4.66840521552103
30
0
41
1
10
49.2437350255768
20
4.5812783107196
30
0
41
1
10
49.3322359871485
20
4.49370785341083
30
0
41
1
10
49.4207368703129
20
4.40570230954509
30
0
41
1
10
49.5092378134453
20
4.31727036764195
30
0
41
1
10
49.5977389561128
20
4.2284198826064
30
0
41
1
10
49.6862404334396
20
4.13916181731688
30
0
41
1
10
49.7747423971355
20
4.04949553237375
30
0
41
1
10
49.8632449370103
20
3.9594636854581
30
0
41
1
10
49.9222471242038
20
3.89911956394124
30
0
41
1
10
49.9517482562699
20
3.86894746383854
30
0
0
SPLINE
5
155
100
AcDbEntity
8
1
62
256
6
ByLayer
370
18
48
1
60
0
100
AcDbSpline
70
4
71
3
72
12
73
8
40
0
40
0
40
0
40
0
40
0.25
40
0.25
40
0.5
40
0.5
40
1
40
1
40
1
40
1
41
1
10
49.9523056228573
20
3.86923627521713
30
0
41
1
10
50.0909614170128
20
3.73655795763602
30
0
41
1
10
50.2327681188421
20
3.6064222633849
30
0
41
1
10
50.5223175204825
20
3.35113017370173
30
0
41
1
10
50.6700340349876
20
3.22594463635139
30
0
41
1
10
51.1216644470864
20
2.85776415062503
30
0
41
1
10
51.4340267571299
20
2.62212560439059
30
0
41
1
10
51.7565850259322
20
2.395865235423
30
0
0
SPLINE
5
156
100
AcDbEntity
8
1
62
256
6
ByLayer
370
18
48
1
60
0
100
AcDbSpline
70
4
71
3
72
24
73
20
40
0
40
0
40
0
40
0
40
0.0312499999999943
40
0.0312499999999943
40
0.0624999999999886
40
0.0624999999999886
40
0.124999999999985
40
0.124999999999985
40
0.249999999999989
40
0.249999999999989
40
0.374999999999991
40
0.374999999999991
40
0.499999999999994
40
0.499999999999994
40
0.624999999999997
40
0.624999999999997
40
0.75
40
0.75
40
1
40
1
40
1
40
1
41
1
10
51.7565850259327
20
2.39586523542263
30
0
41
1
10
51.7698210362237
20
2.41326464441329
30
0
41
1
10
51.7826683614436
20
2.43103328850171
30
0
41
1
10
51.8075438193735
20
2.46690442845852
30
0
41
1
10
51.8195713275771
20
2.48500221886152
30
0
41
1
10
51.8546491914398
20
2.53967103487088
30
0
41
1
10
51.8767063719071
20
2.57661187168009
30
0
41
1
10
51.9400606148611
20
2.6883433356607
30
0
41
1
10
51.9785977076835
20
2.76401465420287
30
0
41
1
10
52.0513388788883
20
2.91620319968345
30
0
41
1
10
52.085488613488
20
2.99274713354839
30
0
41
1
10
52.1507754927945
20
3.14601787829534
30
0
41
1
10
52.1818953785667
20
3.22275322056183
30
0
41
1
10
52.2418583168718
20
3.37603115169145
30
0
41
1
10
52.2707057382655
20
3.45261088006487
30
0
41
1
10
52.3264111257252
20
3.60492314776434
30
0
41
1
10
52.3532866639529
20
3.68070844573907
30
0
41
1
10
52.4314383806083
20
3.90676984264763
30
0
41
1
10
52.4802687623267
20
4.05574234445254
30
0
41
1
10
52.5264499407451
20
4.20270007859412
30
0
0
SPLINE
5
157
100
AcDbEntity
8
1
62
256
6
ByLayer
370
18
48
1
60
0
100
AcDbSpline
70
4
71
3
72
33
73
29
40
0
40
0
40
0
40
0
40
0.132485433220354
40
0.132485433220354
40
0.264970866440709
40
0.264970866440709
40
0.331213583050886
40
0.331213583050886
40
0.347774262203432
40
0.347774262203432
40
0.364334941355978
40
0.397456299661068
40
0.397456299661068
40
0.463699016271247
40
0.463699016271247
40
0.529941732881427
40
0.529941732881427
40
0.662427166101783
40
0.662427166101783
40
0.794912599322139
40
0.794912599322139
40
0.828033957627226
40
0.828033957627226
40
0.861155315932314
40
0.861155315932314
40
0.927398032542489
40
0.927398032542489
40
1
40
1
40
1
40
1
41
1
10
52.5264499407451
20
4.20270007859415
30
0
41
1
10
52.1470759445083
20
4.55985007318708
30
0
41
1
10
51.7686594813366
20
4.90532101517547
30
0
41
1
10
51.0113633258913
20
5.56937619231357
30
0
41
1
10
50.6324980904646
20
5.88794024171546
30
0
41
1
10
50.0612271007069
20
6.34173398463906
30
0
41
1
10
49.8702801112133
20
6.48902005333173
30
0
41
1
10
49.630577460136
20
6.66805826673394
30
0
41
1
10
49.5825742897355
20
6.70362080812347
30
0
41
1
10
49.4867196605768
20
6.77404649401473
30
0
41
1
10
49.3430697267124
20
6.87870814678038
30
0
41
1
10
49.1997666219154
20
6.98047014503427
30
0
41
1
10
48.9135141670545
20
7.18020720166339
30
0
41
1
10
48.7231491704086
20
7.30832091331345
30
0
41
1
10
48.3428934874293
20
7.55480920836206
30
0
41
1
10
48.1530133639435
20
7.67316997608845
30
0
41
1
10
47.5837515185981
20
8.0131354011327
30
0
41
1
10
47.2047714499579
20
8.21965495932145
30
0
41
1
10
46.4453686103048
20
8.58908615098866
30
0
41
1
10
46.0649533255122
20
8.75203452956887
30
0
41
1
10
45.5865369276786
20
8.92601562240247
30
0
41
1
10
45.4907069109902
20
8.95932003228583
30
0
41
1
10
45.2986945087487
20
9.02285486828691
30
0
41
1
10
45.2024000834344
20
9.05311537663127
30
0
41
1
10
44.9144208051726
20
9.13869688875533
30
0
41
1
10
44.7232828480562
20
9.18889710023262
30
0
41
1
10
44.3238068151873
20
9.28015274807976
30
0
41
1
10
44.1155625039213
20
9.31989693328697
30
0
41
1
10
43.9076276991528
20
9.35203555778168
30
0
0
SPLINE
5
158
100
AcDbEntity
8
1
62
256
6
ByLayer
370
18
48
1
60
0
100
AcDbSpline
70
4
71
3
72
16
73
12
40
0
40
0
40
0
40
0
40
0.0586758097532762
40
0.0586758097532762
40
0.37245053983552
40
0.37245053983552
40
0.529337904876641
40
0.529337904876641
40
0.686225269917763
40
0.686225269917763
40
1
40
1
40
1
40
1
41
1
10
19.6376360697016
20
-7.80920443458004
30
0
41
1
10
19.5661192888599
20
-7.85155814763235
30
0
41
1
10
19.4946638998861
20
-7.89318594217548
30
0
41
1
10
19.0414333398521
20
-8.15282202342542
30
0
41
1
10
18.6612089619848
20
-8.35080913058846
30
0
41
1
10
18.0919272346655
20
-8.61365652851634
30
0
41
1
10
17.9023351000837
20
-8.69556729002412
30
0
41
1
10
17.523161026997
20
-8.84732013305828
30
0
41
1
10
17.3335705485934
20
-8.91718049077161
30
0
41
1
10
16.7640642045934
20
-9.10863798543409
30
0
41
1
10
16.3834020067537
20
-9.21216423125327
30
0
41
1
10
16
20
-9.29083421057481
30
0
0
SPLINE
5
159
100
AcDbEntity
8
1
62
256
6
ByLayer
370
18
48
1
60
0
100
AcDbSpline
70
4
71
3
72
10
73
6
40
0
40
0
40
0
40
0
40
0.5
40
0.5
40
1
40
1
40
1
40
1
41
1
10
14.4016850916712
20
-9.46411730969433
30
0
41
1
10
14.6654949199476
20
-9.46210513541152
30
0
41
1
10
14.9294054405198
20
-9.44666956970281
30
0
41
1
10
15.4609201339925
20
-9.38888905192539
30
0
41
1
10
15.7285166550807
20
-9.34653966641369
30
0
41
1
10
16
20
-9.29083421057484
30
0
0
SPLINE
5
15A
100
AcDbEntity
8
1
62
256
6
ByLayer
370
13
48
1
60
0
100
AcDbSpline
70
4
71
3
72
8
73
4
40
0
40
0
40
0
40
0
40
1
40
1
40
1
40
1
41
1
10
14.2800791981118
20
-9.49724475678431
30
0
41
1
10
14.3205043017236
20
-9.48633786845943
30
0
41
1
10
14.3610414356279
20
-9.47529297940409
30
0
41
1
10
14.4016850967583
20
-9.46411730822231
30
0
0
SPLINE
5
15B
100
AcDbEntity
8
1
62
256
6
ByLayer
370
18
48
1
60
0
100
AcDbSpline
70
4
71
3
72
8
73
4
40
0
40
0
40
0
40
0
40
1
40
1
40
1
40
1
41
1
10
14.2800791981117
20
-9.49724475678428
30
0
41
1
10
14.3860355462572
20
-9.49455838344042
30
0
41
1
10
14.4920158055682
20
-9.4899043987354
30
0
41
1
10
14.5980762113534
20
-9.48326880949236
30
0
0
SPLINE
5
15C
100
AcDbEntity
8
1
62
256
6
ByLayer
370
18
48
1
60
0
100
AcDbSpline
70
4
71
3
72
20
73
16
40
0
40
0
40
0
40
0
40
0.0908058265610986
40
0.0908058265610986
40
0.181611653122197
40
0.181611653122197
40
0.363223306244371
40
0.363223306244371
40
0.544834959366545
40
0.544834959366545
40
0.726446612488719
40
0.726446612488719
40
0.908058265610893
40
0.908058265610893
40
1
40
1
40
1
40
1
41
1
10
14.5980762113533
20
-9.4832688094923
30
0
41
1
10
14.6201768901452
20
-9.48188609720333
30
0
41
1
10
14.6408230674113
20
-9.4807283879787
30
0
41
1
10
14.6800765116491
20
-9.47864550072998
30
0
41
1
10
14.6986748479956
20
-9.47772244128623
30
0
41
1
10
14.7521501009269
20
-9.47511282362797
30
0
41
1
10
14.7847453626181
20
-9.47357620412743
30
0
41
1
10
14.846029315175
20
-9.47032904732512
30
0
41
1
10
14.8746858245696
20
-9.46862639311163
30
0
41
1
10
14.9291724518672
20
-9.46474955330666
30
0
41
1
10
14.9549914781181
20
-9.46257814776942
30
0
41
1
10
15.0044640951702
20
-9.45757520185066
30
0
41
1
10
15.0281444111491
20
-9.45473968910457
30
0
41
1
10
15.0623432365536
20
-9.44990010449789
30
0
41
1
10
15.0735918537254
20
-9.44817682345186
30
0
41
1
10
15.084618899091
20
-9.44635176171491
30
0
0
SPLINE
5
15D
100
AcDbEntity
8
1
62
256
6
ByLayer
370
18
48
1
60
0
100
AcDbSpline
70
4
71
3
72
24
73
20
40
0
40
0
40
0
40
0
40
0.0476839111641382
40
0.158331855730295
40
0.262157283714663
40
0.35915820788355
40
0.44933996244255
40
0.532720116762318
40
0.609311132375707
40
0.679115008344087
40
0.742106229043153
40
0.798262395971501
40
0.847574123315622
40
0.890041271507929
40
0.925669928213229
40
0.954472437860289
40
0.976458864560893
40
0.991634066706039
40
1
40
1
40
1
40
1
41
1
10
33.7418840721081
20
8.09993047192538
30
0
41
1
10
33.8432095086783
20
8.1659423188529
30
0
41
1
10
34.1796671907364
20
8.37999578940227
30
0
41
1
10
34.7368195214516
20
8.70533537851816
30
0
41
1
10
35.3987361229385
20
9.04333481371054
30
0
41
1
10
36.0170419868213
20
9.31527669841714
30
0
41
1
10
36.5917737252001
20
9.52899853614517
30
0
41
1
10
37.1230700117931
20
9.69223563949703
30
0
41
1
10
37.6110306037912
20
9.81245720037563
30
0
41
1
10
38.0556350519376
20
9.89675234298261
30
0
41
1
10
38.456869405783
20
9.95197227438672
30
0
41
1
10
38.8146635971226
20
9.98439552268161
30
0
41
1
10
39.1289594502759
20
9.99969046124576
30
0
41
1
10
39.3997324492789
20
10.0029110482398
30
0
41
1
10
39.626994625664
20
9.99843821151501
30
0
41
1
10
39.8107538520255
20
9.99006455634472
30
0
41
1
10
39.9510261800958
20
9.98080360972349
30
0
41
1
10
40.0478429945502
20
9.97304347335714
30
0
41
1
10
40.097889301951
20
9.96848025976843
30
0
41
1
10
40.1156745133061
20
9.96685860729596
30
0
0
SPLINE
5
15E
100
AcDbEntity
8
1
62
256
6
ByLayer
370
18
48
1
60
0
100
AcDbSpline
70
4
71
3
72
9
73
5
40
0
40
0
40
0
40
0
40
0.573479996708922
40
1
40
1
40
1
40
1
41
1
10
40.1156745133061
20
9.96685860729596
30
0
41
1
10
40.5142415244582
20
9.92969352505452
30
0
41
1
10
41.2090898977216
20
9.8135978049296
30
0
41
1
10
41.9047571431668
20
9.61299331669028
30
0
41
1
10
42.2015046891739
20
9.51217979794831
30
0
0
SPLINE
5
15F
100
AcDbEntity
8
1
62
256
6
ByLayer
370
13
48
1
60
0
100
AcDbSpline
70
4
71
3
72
16
73
12
40
0
40
0
40
0
40
0
40
0.0465190605692292
40
0.179428508773915
40
0.312337956978602
40
0.445247405183288
40
0.578156853387974
40
0.71106630159266
40
0.843975749797346
40
0.976885198002032
40
1
40
1
40
1
40
1
41
1
10
38.2062634680552
20
1.82185109050991
30
0
41
1
10
37.9291756453701
20
2.1028564313404
30
0
41
1
10
36.8604211560184
20
3.17691617016351
30
0
41
1
10
35
20
4.95003358489487
30
0
41
1
10
32.625
20
6.86473997102758
30
0
41
1
10
30.2500000000001
20
8.31330375614382
30
0
41
1
10
27.875
20
9.1764887225853
30
0
41
1
10
25.5000000000001
20
9.41670752371192
30
0
41
1
10
23.1250000000001
20
8.99328047689042
30
0
41
1
10
21.4039848201496
20
8.24407204303799
30
0
41
1
10
20.4746363069658
20
7.71076218515262
30
0
41
1
10
20.3369544604487
20
7.62903937493735
30
0
0
SPLINE
5
160
100
AcDbEntity
8
1
62
256
6
ByLayer
370
13
48
1
60
0
100
AcDbSpline
70
4
71
3
72
14
73
10
40
0
40
0
40
0
40
0
40
0.043762690058754
40
0.180368020050361
40
0.316973350041967
40
0.453578680033574
40
0.59018401002518
40
0.726789340016787
40
1
40
1
40
1
40
1
41
1
10
33.3858516365791
20
-7.98530065250159
30
0
41
1
10
33.1322344243861
20
-8.1036026474041
30
0
41
1
10
32.0869505455264
20
-8.55208474213418
30
0
41
1
10
30.2500000000001
20
-9.04376877725124
30
0
41
1
10
27.875
20
-9.05349483290738
30
0
41
1
10
25.5000000000001
20
-8.43774352542803
30
0
41
1
10
23.1250000000001
20
-7.23688622568312
30
0
41
1
10
19.9583333333333
20
-4.97054472390934
30
0
41
1
10
17.5833333333334
20
-2.69439553460575
30
0
41
1
10
16
20
-1.11624628143909
30
0
0
SPLINE
5
161
100
AcDbEntity
8
1
62
256
6
ByLayer
370
18
48
1
60
0
100
AcDbSpline
70
4
71
3
72
70
73
66
40
0
40
0
40
0
40
0
40
0.0031192499056256
40
0.0031192499056256
40
0.035276693457064
40
0.035276693457064
40
0.0513554152327831
40
0.0593947761206423
40
0.0593947761206423
40
0.0674341370085014
40
0.0674341370085014
40
0.0995915805599345
40
0.0995915805599345
40
0.163906467662802
40
0.163906467662802
40
0.196063911214235
40
0.196063911214235
40
0.228221354765669
40
0.228221354765669
40
0.292536241868535
40
0.292536241868535
40
0.300575602756393
40
0.300575602756393
40
0.308614963644252
40
0.308614963644252
40
0.324693685419967
40
0.356851128971398
40
0.356851128971398
40
0.389008572522828
40
0.389008572522828
40
0.421166016074259
40
0.421166016074259
40
0.485480903177118
40
0.485480903177118
40
0.517638346728548
40
0.517638346728548
40
0.533717068504262
40
0.533717068504262
40
0.549795790279977
40
0.549795790279977
40
0.581953233831407
40
0.581953233831407
40
0.614110677382837
40
0.614110677382837
40
0.678425564485696
40
0.678425564485696
40
0.710583008037126
40
0.710583008037126
40
0.742740451588557
40
0.742740451588557
40
0.774897895139987
40
0.774897895139987
40
0.782937256027844
40
0.782937256027844
40
0.790976616915702
40
0.790976616915702
40
0.807055338691418
40
0.807055338691418
40
0.871370225794279
40
0.871370225794279
40
0.903527669345709
40
0.903527669345709
40
0.93568511289714
40
0.93568511289714
40
1
40
1
40
1
40
1
41
1
10
33.7406338981767
20
-8.09990567309495
30
0
41
1
10
33.7221817879675
20
-8.10993421069975
30
0
41
1
10
33.7037263023052
20
-8.1199162860396
30
0
41
1
10
33.4949670946974
20
-8.23227981995043
30
0
41
1
10
33.3043003015437
20
-8.3297304877299
30
0
41
1
10
33.0175137658433
20
-8.46796496435877
30
0
41
1
10
32.8739230282422
20
-8.53509534466008
30
0
41
1
10
32.7299833471987
20
-8.59914295652248
30
0
41
1
10
32.6339395436409
20
-8.64114399223826
30
0
41
1
10
32.5858495586122
20
-8.66180680037877
30
0
41
1
10
32.3454861249507
20
-8.76321492303873
30
0
41
1
10
32.154021662257
20
-8.83799624178312
30
0
41
1
10
31.5815203410631
20
-9.04316652152232
30
0
41
1
10
31.2023249126248
20
-9.15457225344446
30
0
41
1
10
30.6346137951136
20
-9.2832996290291
30
0
41
1
10
30.4455646459545
20
-9.31976712944598
30
0
41
1
10
30.0673771204702
20
-9.37975778380721
30
0
41
1
10
29.8782252599576
20
-9.40333868310219
30
0
41
1
10
29.3098601737392
20
-9.45556089352357
30
0
41
1
10
28.929708854302
20
-9.46574139359228
30
0
41
1
10
28.4988196914344
20
-9.45114507243008
30
0
41
1
10
28.4508993336519
20
-9.44915629036041
30
0
41
1
10
28.3549666493709
20
-9.44443032672706
30
0
41
1
10
28.3069249517083
20
-9.44169105867064
30
0
41
1
10
28.1629339386047
20
-9.43234688797759
30
0
41
1
10
27.8754365228669
20
-9.40915640986611
30
0
41
1
10
27.5893081590276
20
-9.37219881743246
30
0
41
1
10
27.2088301904393
20
-9.31012875738986
30
0
41
1
10
27.019105002249
20
-9.27269617956125
30
0
41
1
10
26.6403906941991
20
-9.1844202015568
30
0
41
1
10
26.4513985543549
20
-9.13355444386096
30
0
41
1
10
25.8845424682569
20
-8.96208842311944
30
0
41
1
10
25.5067374387955
20
-8.82267177568912
30
0
41
1
10
24.9371767370826
20
-8.58047829784948
30
0
41
1
10
24.7468636006995
20
-8.49428416057066
30
0
41
1
10
24.4604877862203
20
-8.35664883741376
30
0
41
1
10
24.3648783333262
20
-8.30937397096679
30
0
41
1
10
24.1733175374675
20
-8.21197644527291
30
0
41
1
10
24.0772594895294
20
-8.16179441892984
30
0
41
1
10
23.7898212184354
20
-8.00759790269547
30
0
41
1
10
23.5988942944618
20
-7.8998033738263
30
0
41
1
10
23.218157612039
20
-7.67417798415025
30
0
41
1
10
23.0283555698864
20
-7.55631544482074
30
0
41
1
10
22.4600707659776
20
-7.18783530693719
30
0
41
1
10
22.0826964044319
20
-6.922427453875
30
0
41
1
10
21.5162442986453
20
-6.49609338487778
30
0
41
1
10
21.3273658237761
20
-6.34923874474373
30
0
41
1
10
20.9489845315127
20
-6.04645813968878
30
0
41
1
10
20.7594684612802
20
-5.89058369505835
30
0
41
1
10
20.3792886364488
20
-5.57059096134279
30
0
41
1
10
20.1886314603974
20
-5.40646697878094
30
0
41
1
10
19.9493565299525
20
-5.19651182015079
30
0
41
1
10
19.9014262586855
20
-5.1542559326119
30
0
41
1
10
19.8056353682195
20
-5.0694230812442
30
0
41
1
10
19.7577726081624
20
-5.02684453538066
30
0
41
1
10
19.6142717262462
20
-4.89863764511915
30
0
41
1
10
19.5187189450797
20
-4.81254244504481
30
0
41
1
10
19.0414331842887
20
-4.37905080355762
30
0
41
1
10
18.6612088560003
20
-4.02252190005933
30
0
41
1
10
18.0919271795976
20
-3.47337034107372
30
0
41
1
10
17.9023350581466
20
-3.28792822662004
30
0
41
1
10
17.5231610049018
20
-2.9123472371484
30
0
41
1
10
17.3335705332209
20
-2.7222244028122
30
0
41
1
10
16.7640642029042
20
-2.14558850210773
30
0
41
1
10
16.3834020054963
20
-1.7528404604075
30
0
41
1
10
16
20
-1.35331065215763
30
0
0
SPLINE
5
162
100
AcDbEntity
8
1
62
256
6
ByLayer
370
13
48
1
60
0
100
AcDbSpline
70
4
71
3
72
18
73
14
40
0
40
0
40
0
40
0
40
0.0082102904365389
40
0.116159578563669
40
0.224108866690799
40
0.33205815481793
40
0.44000744294506
40
0.547956731072191
40
0.655906019199321
40
0.763855307326451
40
0.871804595453582
40
0.979753883580712
40
1
40
1
40
1
40
1
41
1
10
47.0556351864389
20
-7.98636346987226
30
0
41
1
10
46.995423457626
20
-8.01445367992332
30
0
41
1
10
46.1435450621463
20
-8.40428423104913
30
0
41
1
10
44.5
20
-8.94661270351585
30
0
41
1
10
42.1250000000001
20
-9.1077026491734
30
0
41
1
10
39.75
20
-8.64390573576623
30
0
41
1
10
37.375
20
-7.5791268333119
30
0
41
1
10
35
20
-5.99178999170437
30
0
41
1
10
32.6250000000001
20
-3.98821100400446
30
0
41
1
10
30.2500000000001
20
-1.70967057187244
30
0
41
1
10
27.875
20
0.687163290711624
30
0
41
1
10
26.1431879154245
20
2.40080812678437
30
0
41
1
10
25.2030424975156
20
3.28125905885909
30
0
41
1
10
25.0545637462734
20
3.41890954614189
30
0
0
SPLINE
5
163
100
AcDbEntity
8
1
62
256
6
ByLayer
370
18
48
1
60
0
100
AcDbSpline
70
4
71
3
72
58
73
54
40
0
40
0
40
0
40
0
40
0.0060680599154012
40
0.0129908602640009
40
0.0207683651713779
40
0.0294004958054667
40
0.0388871181932744
40
0.0492280304766949
40
0.0604229499072391
40
0.0724714999358887
40
0.085373197819225
40
0.0991274432369107
40
0.113733508499497
40
0.129190565020308
40
0.145498117517232
40
0.162656002492583
40
0.18066414834326
40
0.199522581480396
40
0.219231438415569
40
0.239790978471902
40
0.261201597353462
40
0.283463841868304
40
0.306578426168907
40
0.330546249949041
40
0.355368418956028
40
0.381045988669665
40
0.407579270933542
40
0.434968316178383
40
0.516274865500812
40
0.597589330122068
40
0.678898656665695
40
0.760198487308644
40
0.771619179171562
40
0.783039610739218
40
0.79445979379525
40
0.805879742967807
40
0.817299475902425
40
0.828719013261081
40
0.840138375988726
40
0.851557583043761
40
0.862976652000041
40
0.874395599235707
40
0.885814440108711
40
0.897233189132389
40
0.90865186015115
40
0.920070466516269
40
0.931489021261717
40
0.942907537280128
40
0.954326027498816
40
0.965744505055874
40
0.977162983476345
40
0.988581476848472
40
1
40
1
40
1
40
1
41
1
10
42.2015046891488
20
-2.5744278851472
30
0
41
1
10
42.217176032063
20
-2.59125897316881
30
0
41
1
10
42.2507261665021
20
-2.62729195827905
30
0
41
1
10
42.3043546205806
20
-2.68479917549882
30
0
41
1
10
42.3646000911885
20
-2.7493061361817
30
0
41
1
10
42.4314615874227
20
-2.82076226882353
30
0
41
1
10
42.5049390865309
20
-2.89911918632876
30
0
41
1
10
42.5850320236825
20
-2.98431732221366
30
0
41
1
10
42.6717397031561
20
-3.0762889824511
30
0
41
1
10
42.7650611061032
20
-3.17495615174934
30
0
41
1
10
42.8649948705791
20
-3.28022983367478
30
0
41
1
10
42.9715392506845
20
-3.39200872748276
30
0
41
1
10
43.0846920142234
20
-3.51017846716559
30
0
41
1
10
43.2044521278692
20
-3.63461025792367
30
0
41
1
10
43.3308177677767
20
-3.76516848395164
30
0
41
1
10
43.4637874088622
20
-3.90170953908012
30
0
41
1
10
43.6033607682469
20
-4.04407632892512
30
0
41
1
10
43.7495377574852
20
-4.19209772099168
30
0
41
1
10
43.9023186347717
20
-4.34558728621548
30
0
41
1
10
44.061704014854
20
-4.50434239770149
30
0
41
1
10
44.2276949271068
20
-4.66814317275492
30
0
41
1
10
44.4002928618494
20
-4.83675140470237
30
0
41
1
10
44.5794998261652
20
-5.00990943121488
30
0
41
1
10
44.765318386765
20
-5.18733899834194
30
0
41
1
10
44.9577510458718
20
-5.36873924630532
30
0
41
1
10
45.1567975480856
20
-5.55378358096641
30
0
41
1
10
45.3624617945847
20
-5.74212914397222
30
0
41
1
10
45.7118210052197
20
-6.05691692222274
30
0
41
1
10
46.2027213934784
20
-6.48419328979401
30
0
41
1
10
46.8328385461398
20
-7.00121343995562
30
0
41
1
10
47.4629819943522
20
-7.48430867315477
30
0
41
1
10
47.9126355291246
20
-7.80309244123137
30
0
41
1
10
48.1816692584077
20
-7.98438584432503
30
0
41
1
10
48.2701808010333
20
-8.04325838482376
30
0
41
1
10
48.3586909293994
20
-8.10135092473118
30
0
41
1
10
48.4472000039518
20
-8.15865698713424
30
0
41
1
10
48.5357078649429
20
-8.21516988595172
30
0
41
1
10
48.6242144558144
20
-8.27088273087151
30
0
41
1
10
48.7127198451486
20
-8.32579034459806
30
0
41
1
10
48.8012241891927
20
-8.37988825395794
30
0
41
1
10
48.8897276221648
20
-8.43317181261688
30
0
41
1
10
48.9782302838461
20
-8.48563642122556
30
0
41
1
10
49.0667323125269
20
-8.53727746776002
30
0
41
1
10
49.1552338469025
20
-8.58809034662877
30
0
41
1
10
49.2437350255721
20
-8.6380704417324
30
0
41
1
10
49.3322359871443
20
-8.68721317492486
30
0
41
1
10
49.4207368703094
20
-8.73551382891674
30
0
41
1
10
49.5092378134422
20
-8.78296820700552
30
0
41
1
10
49.5977389561104
20
-8.82957017106781
30
0
41
1
10
49.6862404334378
20
-8.87532082964375
30
0
41
1
10
49.7747423971342
20
-8.92019424744834
30
0
41
1
10
49.8632449370097
20
-8.96426541913806
30
0
41
1
10
49.9222471242036
20
-8.99291019810852
30
0
41
1
10
49.9517482562698
20
-9.00723260627012
30
0
0
SPLINE
5
164
100
AcDbEntity
8
1
62
256
6
ByLayer
370
18
48
1
60
0
100
AcDbSpline
70
4
71
3
72
12
73
8
40
0
40
0
40
0
40
0
40
0.25
40
0.25
40
0.5
40
0.5
40
1
40
1
40
1
40
1
41
1
10
49.9523056228572
20
-9.00692542647579
30
0
41
1
10
50.0909614170127
20
-9.06761796059783
30
0
41
1
10
50.232768118842
20
-9.12241620903592
30
0
41
1
10
50.5223175204825
20
-9.2216478996865
30
0
41
1
10
50.6700340349876
20
-9.2660990219039
30
0
41
1
10
51.1216644470864
20
-9.38566814046061
30
0
41
1
10
51.4340267571299
20
-9.44708786867747
30
0
41
1
10
51.7565850259322
20
-9.49392992009709
30
0
0
SPLINE
5
165
100
AcDbEntity
8
1
62
256
6
ByLayer
370
18
48
1
60
0
100
AcDbSpline
70
4
71
3
72
24
73
20
40
0
40
0
40
0
40
0
40
0.0312500000000039
40
0.0312500000000039
40
0.0625000000000077
40
0.0625000000000077
40
0.125000000000008
40
0.125000000000008
40
0.250000000000007
40
0.250000000000007
40
0.375000000000006
40
0.375000000000006
40
0.500000000000006
40
0.500000000000006
40
0.625000000000004
40
0.625000000000004
40
0.750000000000003
40
0.750000000000003
40
1
40
1
40
1
40
1
41
1
10
51.7565850259326
20
-9.49392992009709
30
0
41
1
10
51.769821036337
20
-9.48314237173426
30
0
41
1
10
51.7826683616638
20
-9.47218807119066
30
0
41
1
10
51.8075438197927
20
-9.45013680722656
30
0
41
1
10
51.8195713280896
20
-9.43904263434371
30
0
41
1
10
51.8546491922184
20
-9.40555646398823
30
0
41
1
10
51.8767063728448
20
-9.38296094528795
30
0
41
1
10
51.9400606162434
20
-9.31436757573101
30
0
41
1
10
51.9785977093196
20
-9.26756332881158
30
0
41
1
10
52.0513388809926
20
-9.17180946751841
30
0
41
1
10
52.0854886158054
20
-9.12285932035763
30
0
41
1
10
52.1507754955127
20
-9.02280347578724
30
0
41
1
10
52.1818953814723
20
-8.9716976904084
30
0
41
1
10
52.2418583201329
20
-8.86731476825949
30
0
41
1
10
52.2707057416926
20
-8.81401204895468
30
0
41
1
10
52.3264111294502
20
-8.70552227923298
30
0
41
1
10
52.3532866678137
20
-8.65030155524241
30
0
41
1
10
52.4314383848415
20
-8.48168466327928
30
0
41
1
10
52.4802687667616
20
-8.36533544112066
30
0
41
1
10
52.5264499453398
20
-8.24496781880677
30
0
0
SPLINE
5
166
100
AcDbEntity
8
1
62
256
6
ByLayer
370
18
48
1
60
0
100
AcDbSpline
70
4
71
3
72
18
73
14
40
0
40
0
40
0
40
0
40
0.0558913256832359
40
0.0558913256832359
40
0.118831903971022
40
0.118831903971022
40
0.244713060546591
40
0.244713060546591
40
0.496475373697727
40
0.496475373697727
40
0.748237686848863
40
0.748237686848863
40
1
40
1
40
1
40
1
41
1
10
19.6368400198318
20
7.80897831155934
30
0
41
1
10
19.7040887236986
20
7.85562249858134
30
0
41
1
10
19.7714186792174
20
7.90166708665342
30
0
41
1
10
19.91476306605
20
7.99827047489316
30
0
41
1
10
19.9906219784754
20
8.04854445571351
30
0
41
1
10
20.2178355505739
20
8.19655293390969
30
0
41
1
10
20.36891749014
20
8.29153575481516
30
0
41
1
10
20.821278662935
20
8.56542265475085
30
0
41
1
10
21.1216562043737
20
8.73329898357139
30
0
41
1
10
21.7216525644108
20
9.03904592375119
30
0
41
1
10
22.0212781461249
20
9.1769219185918
30
0
41
1
10
22.6214780491782
20
9.42217526659078
30
0
41
1
10
22.92205041566
20
9.52955320684072
30
0
41
1
10
23.2239811791466
20
9.62114675589888
30
0
0
SPLINE
5
167
100
AcDbEntity
8
1
62
256
6
ByLayer
370
18
48
1
60
0
100
AcDbSpline
70
4
71
3
72
87
73
83
40
0
40
0
40
0
40
0
40
0.0027230879649741
40
0.0054463081162501
40
0.0081696518965612
40
0.0108931107349294
40
0.0136166760506887
40
0.0163403392574931
40
0.0190640917673284
40
0.0217879249945258
40
0.0245118303597595
40
0.0272357992940639
40
0.0299598232428271
40
0.0326838936698025
40
0.0354080020611013
40
0.0381321399292039
40
0.0408562988169493
40
0.0435804703015429
40
0.0463046459985517
40
0.0490288175659033
40
0.0517529767078871
40
0.0544771151791509
40
0.0572012247887047
40
0.0599252974039138
40
0.0626493249545089
40
0.0653732994365803
40
0.0680972129165854
40
0.0708210575353487
40
0.0735448255120727
40
0.0762685091483413
40
0.078992100832126
40
0.081715593041804
40
0.0844389783501642
40
0.0871622494284226
40
0.089885399050243
40
0.0926084200957518
40
0.0953313055555618
40
0.0980540485347975
40
0.100776642257119
40
0.103499080068753
40
0.106221355579651
40
0.108943467876512
40
0.111665423016791
40
0.114387227434548
40
0.117108887470915
40
0.119830409376577
40
0.122551799314246
40
0.125273063361148
40
0.156435803724085
40
0.187601117708708
40
0.218776567429122
40
0.249966550478845
40
0.266618138767417
40
0.312810258846905
40
0.328471428681432
40
0.344084146847695
40
0.359648388905706
40
0.375164203366559
40
0.390046331750096
40
0.409965347328477
40
0.434921412680109
40
0.46491625316689
40
0.499951419940823
40
0.549432060425963
40
0.5963373855581
40
0.640664376181773
40
0.682414955270593
40
0.721591207115953
40
0.758192381878731
40
0.792220492304612
40
0.823682167810902
40
0.852582110484164
40
0.87892107462643
40
0.902689432475571
40
0.923878732447528
40
0.942485433011091
40
0.958509481503484
40
0.971953174971725
40
0.982821171315713
40
0.99111726800766
40
0.996843298255027
40
1
40
1
40
1
40
1
41
1
10
23.2239811791466
20
9.62114675589888
30
0
41
1
10
23.239308971577
20
9.62577251092318
30
0
41
1
10
23.2699653004917
20
9.63502424551885
30
0
41
1
10
23.3159504640258
20
9.64858446989012
30
0
41
1
10
23.3619374992109
20
9.66191233156701
30
0
41
1
10
23.4079262881623
20
9.67498466144272
30
0
41
1
10
23.4539167545922
20
9.68780718616125
30
0
41
1
10
23.4999088110686
20
9.7003778893264
30
0
41
1
10
23.5459023731474
20
9.7126968294701
30
0
41
1
10
23.5918973555858
20
9.7247635091785
30
0
41
1
10
23.6378936733564
20
9.73657758007155
30
0
41
1
10
23.683891241376
20
9.74813865389501
30
0
41
1
10
23.7298899745776
20
9.75944635314059
30
0
41
1
10
23.7758897878915
20
9.77050029748202
30
0
41
1
10
23.8218905962501
20
9.78130010740981
30
0
41
1
10
23.8678923145865
20
9.79184540325741
30
0
41
1
10
23.913894857835
20
9.80213580546246
30
0
41
1
10
23.9598981409306
20
9.81217093449683
30
0
41
1
10
24.0059020788094
20
9.82195041088568
30
0
41
1
10
24.0519065864081
20
9.83147385520238
30
0
41
1
10
24.0979115786642
20
9.84074088807017
30
0
41
1
10
24.143916970516
20
9.84975113016196
30
0
41
1
10
24.1899226769023
20
9.85850420220038
30
0
41
1
10
24.2359286127626
20
9.86699972495805
30
0
41
1
10
24.2819346930369
20
9.87523731925776
30
0
41
1
10
24.3279408326655
20
9.88321660597245
30
0
41
1
10
24.3739469465894
20
9.89093720602557
30
0
41
1
10
24.4199529497497
20
9.89839874039097
30
0
41
1
10
24.465958757088
20
9.90560083009331
30
0
41
1
10
24.5119642835459
20
9.91254309620797
30
0
41
1
10
24.5579694440654
20
9.91922515986136
30
0
41
1
10
24.6039741535885
20
9.92564664223121
30
0
41
1
10
24.6499783270576
20
9.93180716454523
30
0
41
1
10
24.6959818794138
20
9.93770634808783
30
0
41
1
10
24.7419847256025
20
9.94334381417465
30
0
41
1
10
24.787986780554
20
9.9487191842492
30
0
41
1
10
24.833987959253
20
9.95383207952247
30
0
41
1
10
24.8799881764818
20
9.95868212231838
30
0
41
1
10
24.9259873477758
20
9.9632689310541
30
0
41
1
10
24.9719853866308
20
9.96759213904477
30
0
41
1
10
25.0179822479175
20
9.97165132723427
30
0
41
1
10
25.0639779105894
20
9.97544631961753
30
0
41
1
10
25.1099723563676
20
9.97897731953171
30
0
41
1
10
25.1559656230939
20
9.9822444636352
30
0
41
1
10
25.2019577465839
20
9.98524791070508
30
0
41
1
10
25.247948767739
20
9.98798780236589
30
0
41
1
10
25.2939387118016
20
9.9904643268878
30
0
41
1
10
25.5001470983492
20
10.0003879169168
30
0
41
1
10
25.8666327170523
20
10.0049948031149
30
0
41
1
10
26.393257381864
20
9.97733638072731
30
0
41
1
10
26.9198973104179
20
9.91554874472786
30
0
41
1
10
27.3644689422272
20
9.83476674844891
30
0
41
1
10
27.8938551155705
20
9.71291345195013
30
0
41
1
10
28.3359130307652
20
9.58324395836732
30
0
41
1
10
28.7720130957358
20
9.42887355878807
30
0
41
1
10
29.0357148803327
20
9.32750797764172
30
0
41
1
10
29.2986073766637
20
9.21854557170644
30
0
41
1
10
29.5574008479434
20
9.10358600992859
30
0
41
1
10
29.8407186468875
20
8.96955495409682
30
0
41
1
10
30.177206761875
20
8.79934729782048
30
0
41
1
10
30.5988047578123
20
8.56844029000791
30
0
41
1
10
31.1055021230732
20
8.2654976859441
30
0
41
1
10
31.7502161191141
20
7.84359613824995
30
0
41
1
10
32.4901842935373
20
7.30804375270628
30
0
41
1
10
33.282453045337
20
6.67720594547356
30
0
41
1
10
34.0313409034763
20
6.03383419087717
30
0
41
1
10
34.7368195214915
20
5.3895407421592
30
0
41
1
10
35.3987361229735
20
4.75505240019467
30
0
41
1
10
36.0170419868522
20
4.13919394622249
30
0
41
1
10
36.5917737252279
20
3.54916713903628
30
0
41
1
10
37.1230700118185
20
2.99081962814233
30
0
41
1
10
37.6110306038152
20
2.46876377001155
30
0
41
1
10
38.0556350519609
20
1.98665412246967
30
0
41
1
10
38.4568694058065
20
1.54745999645937
30
0
41
1
10
38.8146635971472
20
1.15337877328619
30
0
41
1
10
39.1289594503023
20
0.805898470466104
30
0
41
1
10
39.3997324493081
20
0.505937958657881
30
0
41
1
10
39.6269946256968
20
0.253993370004167
30
0
41
1
10
39.8107538520626
20
0.0502520825505712
30
0
41
1
10
39.9510261801382
20
-0.105262611161407
30
0
41
1
10
40.0478429945987
20
-0.212574143235628
30
0
41
1
10
40.0978893020038
20
-0.268060894734163
30
0
41
1
10
40.1156745133613
20
-0.287779504439982
30
0
0
SPLINE
5
168
100
AcDbEntity
8
1
62
256
6
ByLayer
370
18
48
1
60
0
100
AcDbSpline
70
4
71
3
72
9
73
5
40
0
40
0
40
0
40
0
40
0.573479996704412
40
1
40
1
40
1
40
1
41
1
10
40.1156745133613
20
-0.287779504439982
30
0
41
1
10
40.514241524495
20
-0.72925482056479
30
0
41
1
10
41.2090898977318
20
-1.497276929143
30
0
41
1
10
41.9047571431503
20
-2.25518214020664
30
0
41
1
10
42.2015046891491
20
-2.57442788514754
30
0
0
SPLINE
5
169
100
AcDbEntity
8
1
62
256
6
ByLayer
370
18
48
1
60
0
100
AcDbSpline
70
4
71
3
72
117
73
113
40
0
40
0
40
0
40
0
40
0.0343002372934162
40
0.0343002372934162
40
0.0700668951714352
40
0.0700668951714352
40
0.0790085596409402
40
0.0790085596409402
40
0.0879502241104452
40
0.0879502241104452
40
0.105833553049455
40
0.105833553049455
40
0.141600210927475
40
0.141600210927475
40
0.159483539866485
40
0.159483539866485
40
0.177366868805494
40
0.177366868805494
40
0.195250197744504
40
0.195250197744504
40
0.213133526683514
40
0.213133526683514
40
0.222075191153019
40
0.222075191153019
40
0.231016855622524
40
0.231016855622524
40
0.248900184561534
40
0.248900184561534
40
0.266783513500544
40
0.266783513500544
40
0.284666842439553
40
0.284666842439553
40
0.302550171378563
40
0.302550171378563
40
0.320433500317573
40
0.320433500317573
40
0.338316829256583
40
0.338316829256583
40
0.347258493726087
40
0.347258493726087
40
0.35172932596084
40
0.35172932596084
40
0.356200158195592
40
0.374083487134603
40
0.374083487134603
40
0.391966816073614
40
0.391966816073614
40
0.427733473951636
40
0.427733473951636
40
0.445616802890646
40
0.445616802890646
40
0.463500131829657
40
0.463500131829657
40
0.472441796299163
40
0.476912628533915
40
0.476912628533915
40
0.481383460768668
40
0.481383460768668
40
0.49926678970768
40
0.49926678970768
40
0.535033447585704
40
0.535033447585704
40
0.552916776524715
40
0.552916776524715
40
0.570800105463727
40
0.570800105463727
40
0.606566763341751
40
0.606566763341751
40
0.611037595576504
40
0.611037595576504
40
0.615508427811256
40
0.615508427811256
40
0.624450092280762
40
0.642333421219773
40
0.642333421219773
40
0.660216750158784
40
0.660216750158784
40
0.678100079097795
40
0.678100079097795
40
0.713866736975818
40
0.713866736975818
40
0.731750065914829
40
0.731750065914829
40
0.740691730384335
40
0.740691730384335
40
0.74963339485384
40
0.74963339485384
40
0.76751672379285
40
0.76751672379285
40
0.785400052731861
40
0.785400052731861
40
0.821166710609882
40
0.821166710609882
40
0.839050039548892
40
0.839050039548892
40
0.856933368487903
40
0.856933368487903
40
0.874816697426914
40
0.874816697426914
40
0.879287529661666
40
0.879287529661666
40
0.883758361896419
40
0.883758361896419
40
0.892700026365926
40
0.892700026365926
40
0.92846668424395
40
0.92846668424395
40
0.946350013182963
40
0.946350013182963
40
0.964233342121975
40
0.964233342121975
40
1
40
1
40
1
40
1
41
1
10
47.9165829142242
20
-7.8142671140946
30
0
41
1
10
47.5526742029311
20
-8.03003320999986
30
0
41
1
10
47.189203823261
20
-8.22722823477153
30
0
41
1
10
46.4453686103047
20
-8.58908615098898
30
0
41
1
10
46.0649533255121
20
-8.75203452956919
30
0
41
1
10
45.5865369276785
20
-8.92601562240279
30
0
41
1
10
45.4907069109901
20
-8.95932003228614
30
0
41
1
10
45.2986945087486
20
-9.02285486828723
30
0
41
1
10
45.2024000834343
20
-9.05311537663158
30
0
41
1
10
44.9144208051725
20
-9.13869688875562
30
0
41
1
10
44.7232828480562
20
-9.18889710023291
30
0
41
1
10
44.1515135113564
20
-9.31951114700053
30
0
41
1
10
43.772471599363
20
-9.380035890079
30
0
41
1
10
43.204085087279
20
-9.43434930870231
30
0
41
1
10
43.0146519205065
20
-9.44640778782022
30
0
41
1
10
42.6354550314478
20
-9.45873923927013
30
0
41
1
10
42.4456974924528
20
-9.458992356691
30
0
41
1
10
42.0655536937642
20
-9.44746438627956
30
0
41
1
10
41.8751689473316
20
-9.4356842516633
30
0
41
1
10
41.4934605810358
20
-9.39950882130154
30
0
41
1
10
41.3021412312104
20
-9.37508374180467
30
0
41
1
10
41.0141616548618
20
-9.32836524204629
30
0
41
1
10
40.9179027721437
20
-9.31110093994732
30
0
41
1
10
40.725959469718
20
-9.27340972023657
30
0
41
1
10
40.6301771536151
20
-9.25297026352794
30
0
41
1
10
40.343299729767
20
-9.18696078196459
30
0
41
1
10
40.1526739256735
20
-9.13669515602837
30
0
41
1
10
39.772142093473
20
-9.02423926154898
30
0
41
1
10
39.5822291749798
20
-8.96205995120522
30
0
41
1
10
39.2026486213826
20
-8.82645378631355
30
0
41
1
10
39.0129913057484
20
-8.75300517649453
30
0
41
1
10
38.6336243603764
20
-8.59487518185671
30
0
41
1
10
38.4439156916519
20
-8.51019323154489
30
0
41
1
10
38.0641213471614
20
-8.32944762592379
30
0
41
1
10
37.8740365886677
20
-8.23338373827238
30
0
41
1
10
37.4931288815217
20
-8.02953193380566
30
0
41
1
10
37.3023029406016
20
-7.92174230873792
30
0
41
1
10
37.0151677120028
20
-7.7512629981419
30
0
41
1
10
36.9193068372663
20
-7.69296956793238
30
0
41
1
10
36.7752482496134
20
-7.60332072146608
30
0
41
1
10
36.7271602410735
20
-7.57305403397899
30
0
41
1
10
36.6311347584109
20
-7.51194112006169
30
0
41
1
10
36.3913213977117
20
-7.35763239488577
30
0
41
1
10
36.1526689879514
20
-7.19577784561031
30
0
41
1
10
35.7718618891673
20
-6.92749534000535
30
0
41
1
10
35.5819844975336
20
-6.7886635298328
30
0
41
1
10
35.0130378533786
20
-6.35934531298145
30
0
41
1
10
34.6345857549518
20
-6.05614025979639
30
0
41
1
10
34.0654956330999
20
-5.57983815679816
30
0
41
1
10
33.875567894937
20
-5.4175170429362
30
0
41
1
10
33.4949674909393
20
-5.08582561588816
30
0
41
1
10
33.3043007206828
20
-4.91643037132874
30
0
41
1
10
33.0175142305889
20
-4.65691546168779
30
0
41
1
10
32.8739235185985
20
-4.52580237059644
30
0
41
1
10
32.7299838673245
20
-4.3926368636177
30
0
41
1
10
32.6339400845279
20
-4.3034016524503
30
0
41
1
10
32.5858501216614
20
-4.25853056062013
30
0
41
1
10
32.3454866132104
20
-4.03331620557816
30
0
41
1
10
32.1540220981761
20
-3.85088766060059
30
0
41
1
10
31.5815206402305
20
-3.29737068803183
30
0
41
1
10
31.2023251468417
20
-2.92014382954764
30
0
41
1
10
30.6346139697097
20
-2.3444646589075
30
0
41
1
10
30.4455648071431
20
-2.1509141889799
30
0
41
1
10
30.0673772689562
20
-1.76093730057499
30
0
41
1
10
29.8782254091341
20
-1.56453723146851
30
0
41
1
10
29.3098603472451
20
-0.971983599791486
30
0
41
1
10
28.9297090740154
20
-0.572518114248908
30
0
41
1
10
28.4988199966405
20
-0.120291829439594
30
0
41
1
10
28.4508996488197
20
-0.0700031092285656
30
0
41
1
10
28.3549669853968
20
0.0306560663991604
30
0
41
1
10
28.306925296693
20
0.0810573278467359
30
0
41
1
10
28.1629342444231
20
0.232089061302759
30
0
41
1
10
27.8754367562847
20
0.533517516359296
30
0
41
1
10
27.5893083370767
20
0.832891089508223
30
0
41
1
10
27.2088303084424
20
1.22990012796271
30
0
41
1
10
27.0191050971182
20
1.42732709607498
30
0
41
1
10
26.6403907564147
20
1.81958054602916
30
0
41
1
10
26.4513986070951
20
2.01439843669385
30
0
41
1
10
25.8845425118849
20
2.59427609530829
30
0
41
1
10
25.5067375015419
20
2.97471134008021
30
0
41
1
10
24.9371768720115
20
3.53427414748265
30
0
41
1
10
24.7468637670172
20
3.71897478711875
30
0
41
1
10
24.4604880118449
20
3.99304085181092
30
0
41
1
10
24.3648785807569
20
4.08389746630897
30
0
41
1
10
24.1733178327414
20
4.26455926241093
30
0
41
1
10
24.0772597912933
20
4.35446241333753
30
0
41
1
10
23.7898214418201
20
4.62128769209201
30
0
41
1
10
23.5988944745245
20
4.79560265570487
30
0
41
1
10
23.2181577219406
20
5.13668622613571
30
0
41
1
10
23.028355652949
20
5.30343656392463
30
0
41
1
10
22.4600707901033
20
5.79177932443034
30
0
41
1
10
22.0826964172615
20
6.10153834914385
30
0
41
1
10
21.5162443337655
20
6.54027789675121
30
0
41
1
10
21.3273658730644
20
6.68217761032449
30
0
41
1
10
20.9489846236215
20
6.95699176146422
30
0
41
1
10
20.7594685820014
20
7.08993497897566
30
0
41
1
10
20.3792888302309
20
7.34688711419869
30
0
41
1
10
20.1886316986285
20
7.47089962543916
30
0
41
1
10
19.9493568342726
20
7.62033528415625
30
0
41
1
10
19.9014265759411
20
7.64996015434934
30
0
41
1
10
19.8056356651454
20
7.70854759480775
30
0
41
1
10
19.7577728952122
20
7.73751195087459
30
0
41
1
10
19.614271984524
20
7.82342708900518
30
0
41
1
10
19.5187191853181
20
7.87940571508207
30
0
41
1
10
19.0414333398522
20
8.15282202342524
30
0
41
1
10
18.6612089619849
20
8.35080913058829
30
0
41
1
10
18.0919272346656
20
8.6136565285162
30
0
41
1
10
17.9023351000838
20
8.69556729002397
30
0
41
1
10
17.5231610269971
20
8.84732013305813
30
0
41
1
10
17.3335705485935
20
8.91718049077147
30
0
41
1
10
16.7640642045935
20
9.10863798543397
30
0
41
1
10
16.3834020067538
20
9.21216423125315
30
0
41
1
10
16.0000000000001
20
9.29083421057473
30
0
0
SPLINE
5
16A
100
AcDbEntity
8
1
62
256
6
ByLayer
370
18
48
1
60
0
100
AcDbSpline
70
4
71
3
72
8
73
4
40
0
40
0
40
0
40
0
40
1
40
1
40
1
40
1
41
1
10
15.6040312750815
20
9.36300087683099
30
0
41
1
10
15.7352501678354
20
9.34215117185872
30
0
41
1
10
15.8671597789843
20
9.318091591935
30
0
41
1
10
16.0000000000001
20
9.29083421057476
30
0
0
SPLINE
5
16B
100
AcDbEntity
8
1
62
256
6
ByLayer
370
18
48
1
60
0
100
AcDbSpline
70
4
71
3
72
8
73
4
40
0
40
0
40
0
40
0
40
1
40
1
40
1
40
1
41
1
10
14.2800791981118
20
9.4972447567842
30
0
41
1
10
14.3860355462573
20
9.49455838344036
30
0
41
1
10
14.4920158055683
20
9.48990439873529
30
0
41
1
10
14.5980762113535
20
9.48326880949224
30
0
0
SPLINE
5
16C
100
AcDbEntity
8
1
62
256
6
ByLayer
370
18
48
1
60
0
100
AcDbSpline
70
4
71
3
72
28
73
24
40
0
40
0
40
0
40
0
40
0.0312499999999963
40
0.0312499999999963
40
0.0624999999999925
40
0.0624999999999925
40
0.124999999999993
40
0.124999999999993
40
0.187499999999994
40
0.187499999999994
40
0.249999999999994
40
0.249999999999994
40
0.312499999999995
40
0.312499999999995
40
0.374999999999995
40
0.374999999999995
40
0.499999999999996
40
0.499999999999996
40
0.624999999999997
40
0.624999999999997
40
0.749999999999998
40
0.749999999999998
40
1
40
1
40
1
40
1
41
1
10
14.5980762113533
20
9.48326880949224
30
0
41
1
10
14.6201768901452
20
9.48188609720324
30
0
41
1
10
14.6408230674113
20
9.48072838797862
30
0
41
1
10
14.6800765116491
20
9.4786455007299
30
0
41
1
10
14.6986748479957
20
9.47772244128615
30
0
41
1
10
14.752150100927
20
9.47511282362788
30
0
41
1
10
14.7847453626182
20
9.47357620412734
30
0
41
1
10
14.8460293151751
20
9.47032904732504
30
0
41
1
10
14.8746858245697
20
9.46862639311155
30
0
41
1
10
14.9291724518673
20
9.46474955330658
30
0
41
1
10
14.9549914781181
20
9.46257814776936
30
0
41
1
10
15.0044640951702
20
9.45757520185057
30
0
41
1
10
15.0281444111492
20
9.45473968910449
30
0
41
1
10
15.0735535012945
20
9.44831370426229
30
0
41
1
10
15.0952995243946
20
9.44472345382118
30
0
41
1
10
15.158219053838
20
9.43270319813925
30
0
41
1
10
15.1971023258783
20
9.42301782617244
30
0
41
1
10
15.2705662862232
20
9.39991709391683
30
0
41
1
10
15.3051278037641
20
9.38650594799989
30
0
41
1
10
15.3709712287893
20
9.35573116019356
30
0
41
1
10
15.4022452929006
20
9.33836928666338
30
0
41
1
10
15.4921456566712
20
9.28011970137982
30
0
41
1
10
15.5469026169376
20
9.23306462289071
30
0
41
1
10
15.5980762113534
20
9.17730483288645
30
0
0
SPLINE
5
16D
100
AcDbEntity
8
1
62
256
6
ByLayer
370
18
48
1
60
0
100
AcDbSpline
70
4
71
3
72
10
73
6
40
0
40
0
40
0
40
0
40
0.5
40
0.5
40
1
40
1
40
1
40
1
41
1
10
15.5980762113533
20
9.17730483288648
30
0
41
1
10
15.6653939931395
20
9.10395400774314
30
0
41
1
10
15.7324206970151
20
9.01548531112223
30
0
41
1
10
15.866270639674
20
8.80895135118462
30
0
41
1
10
15.9330930158487
20
8.69088491332738
30
0
41
1
10
16.0000000000001
20
8.55792694603917
30
0
0
SPLINE
5
16E
100
AcDbEntity
8
1
62
256
6
ByLayer
370
18
48
1
60
0
100
AcDbSpline
70
4
71
3
72
8
73
4
40
0
40
0
40
0
40
0
40
1
40
1
40
1
40
1
41
1
10
16
20
8.5579269460392
30
0
41
1
10
16
20
8.55699838944557
30
0
41
1
10
16
20
8.55606897029801
30
0
41
1
10
16
20
8.55513868845199
30
0
0
SPLINE
5
16F
100
AcDbEntity
8
1
62
256
6
ByLayer
370
18
48
1
60
0
100
AcDbSpline
70
4
71
3
72
8
73
4
40
0
40
0
40
0
40
0
40
1
40
1
40
1
40
1
41
1
10
52.797886477908
20
-7.91327865251856
30
0
41
1
10
52.7121740166435
20
-8.0346247844127
30
0
41
1
10
52.6215947368177
20
-8.14501969353455
30
0
41
1
10
52.5264499453399
20
-8.24496781880677
30
0
0
SPLINE
5
170
100
AcDbEntity
8
1
62
256
6
ByLayer
370
13
48
1
60
0
100
AcDbSpline
70
4
71
3
72
13
73
9
40
0
40
0
40
0
40
0
40
0.270213330117608
40
0.45109754471281
40
0.631981759308013
40
0.812865973903215
40
0.993750188498418
40
1
40
1
40
1
40
1
41
1
10
52.797886477908
20
-7.91327865251859
30
0
41
1
10
51.6152576519387
20
-7.3431047572256
30
0
41
1
10
49.6409621593027
20
-6.04550882759321
30
0
41
1
10
46.8750000000001
20
-3.65226786102485
30
0
41
1
10
44.5000000000001
20
-1.3445149223198
30
0
41
1
10
42.1250000000001
20
1.05485355560131
30
0
41
1
10
40.5143134371446
20
2.63403075220629
30
0
41
1
10
39.6952935409558
20
3.39493458794109
30
0
41
1
10
39.6679403114337
20
3.4202989664542
30
0
0
SPLINE
5
171
100
AcDbEntity
8
1
62
256
6
ByLayer
370
18
48
1
60
0
100
AcDbSpline
70
4
71
3
72
85
73
81
40
0
40
0
40
0
40
0
40
0.0512216354489458
40
0.0512216354489458
40
0.102443270897892
40
0.102443270897892
40
0.128054088622365
40
0.128054088622365
40
0.134456793053483
40
0.134456793053483
40
0.140859497484601
40
0.153664906346836
40
0.153664906346836
40
0.179275724071307
40
0.179275724071307
40
0.204886541795777
40
0.204886541795777
40
0.256108177244719
40
0.256108177244719
40
0.30732981269366
40
0.30732981269366
40
0.320135221555895
40
0.320135221555895
40
0.33294063041813
40
0.33294063041813
40
0.3585514481426
40
0.3585514481426
40
0.409773083591539
40
0.409773083591539
40
0.435383901316009
40
0.435383901316009
40
0.460994719040478
40
0.460994719040478
40
0.486605536764948
40
0.486605536764948
40
0.512216354489418
40
0.512216354489418
40
0.525021763351653
40
0.525021763351653
40
0.537827172213887
40
0.537827172213887
40
0.563437989938357
40
0.563437989938357
40
0.589048807662827
40
0.589048807662827
40
0.614659625387297
40
0.614659625387297
40
0.640270443111766
40
0.640270443111766
40
0.665881260836236
40
0.665881260836236
40
0.691492078560706
40
0.691492078560706
40
0.70429748742294
40
0.70429748742294
40
0.710700191854058
40
0.710700191854058
40
0.717102896285176
40
0.742713714009648
40
0.742713714009648
40
0.76832453173412
40
0.76832453173412
40
0.819546167183064
40
0.819546167183064
40
0.845156984907536
40
0.845156984907536
40
0.870767802632008
40
0.870767802632008
40
0.883573211494244
40
0.889975915925362
40
0.889975915925362
40
0.89637862035648
40
0.89637862035648
40
0.921989438080951
40
0.921989438080951
40
0.973211073529893
40
0.973211073529893
40
0.998821891254364
40
0.998821891254364
40
1
40
1
40
1
40
1
41
1
10
52.5264499453398
20
-8.24496781880677
30
0
41
1
10
52.1470759135256
20
-8.05167811796153
30
0
41
1
10
51.7686594059572
20
-7.83768726881388
30
0
41
1
10
51.0113631509676
20
-7.36704229606798
30
0
41
1
10
50.6324978603601
20
-7.11032842900278
30
0
41
1
10
50.0612267780123
20
-6.69188160171674
30
0
41
1
10
49.8702797559664
20
-6.54693761078823
30
0
41
1
10
49.6305770617278
20
-6.35945746525169
30
0
41
1
10
49.5825738940804
20
-6.32163628320336
30
0
41
1
10
49.4867192754609
20
-6.24558419012172
30
0
41
1
10
49.3430693563932
20
-6.13081660054664
30
0
41
1
10
49.1997662634014
20
-6.01405305002424
30
0
41
1
10
48.9135138281332
20
-5.77803058409447
30
0
41
1
10
48.7231488391472
20
-5.61735975825647
30
0
41
1
10
48.3428931603078
20
-5.29008941205873
30
0
41
1
10
48.1530130333227
20
-5.12347037990094
30
0
41
1
10
47.5837511598996
20
-4.61481238474175
30
0
41
1
10
47.204771048842
20
-4.2639641706578
30
0
41
1
10
46.4453680793562
20
-3.53972472472526
30
0
41
1
10
46.0649527085217
20
-3.16634544836469
30
0
41
1
10
45.5865361789936
20
-2.68641480550181
30
0
41
1
10
45.4907061347054
20
-2.58976680026129
30
0
41
1
10
45.2986936745811
20
-2.3951630742452
30
0
41
1
10
45.2023992452145
20
-2.29709187877657
30
0
41
1
10
44.9144200498127
20
-2.00250659071821
30
0
41
1
10
44.7232821406837
20
-1.80522966700204
30
0
41
1
10
44.1515129254404
20
-1.21160933573285
30
0
41
1
10
43.7724710641019
20
-0.813530284093872
30
0
41
1
10
43.2040845781975
20
-0.215859087512257
30
0
41
1
10
43.0146514120104
20
-0.016543971658848
30
0
41
1
10
42.635454508732
20
0.38189259732178
30
0
41
1
10
42.4456969549048
20
0.581020198040079
30
0
41
1
10
42.0655531125814
20
0.978797967577805
30
0
41
1
10
41.8751683374401
20
1.17744957993935
30
0
41
1
10
41.4934599013596
20
1.57398358137641
30
0
41
1
10
41.3021405104425
20
1.7718703847365
30
0
41
1
10
41.01416086271
20
2.06784549671116
30
0
41
1
10
40.917901981273
20
2.16645755010822
30
0
41
1
10
40.7259587309826
20
2.36234106394147
30
0
41
1
10
40.6301764393421
20
2.45971373654507
30
0
41
1
10
40.3432990841021
20
2.75006519401936
30
0
41
1
10
40.1526733194173
20
2.94127502826453
30
0
41
1
10
39.7721415525611
20
3.31870959906382
30
0
41
1
10
39.5822286599006
20
3.50493241391482
30
0
41
1
10
39.2026481430718
20
3.87222332325686
30
0
41
1
10
39.0129908383666
20
4.05329172508775
30
0
41
1
10
38.6336238990222
20
4.40997023430734
30
0
41
1
10
38.4439152253995
20
4.5855810729208
30
0
41
1
10
38.0641208551668
20
4.9309338463396
30
0
41
1
10
37.8740360758356
20
5.10067662697418
30
0
41
1
10
37.493128311609
20
5.43375154654169
30
0
41
1
10
37.3023023344524
20
5.59707974002151
30
0
41
1
10
37.0151670409933
20
5.83690542260257
30
0
41
1
10
36.9193061428757
20
5.91598591280345
30
0
41
1
10
36.775247517535
20
6.03326509885415
30
0
41
1
10
36.7271595102996
20
6.07215343403408
30
0
41
1
10
36.6311340557098
20
6.14927653205703
30
0
41
1
10
36.3913207630352
20
6.34055352768971
30
0
41
1
10
36.152668410949
20
6.5241489001497
30
0
41
1
10
35.7718613917768
20
6.80782616955776
30
0
41
1
10
35.581984033522
20
6.94459765549485
30
0
41
1
10
35.0130374701988
20
7.33993468156052
30
0
41
1
10
34.6345853997361
20
7.58355055952117
30
0
41
1
10
34.0654952756609
20
7.92004046715019
30
0
41
1
10
33.8755675295236
20
8.02742365884899
30
0
41
1
10
33.4949670946976
20
8.23227981995015
30
0
41
1
10
33.3043003015439
20
8.32973048772965
30
0
41
1
10
33.0175137658436
20
8.46796496435849
30
0
41
1
10
32.8739230282424
20
8.53509534465982
30
0
41
1
10
32.729983347199
20
8.59914295652223
30
0
41
1
10
32.6339395436411
20
8.641143992238
30
0
41
1
10
32.5858495586123
20
8.66180680037851
30
0
41
1
10
32.3454861249508
20
8.76321492303848
30
0
41
1
10
32.1540216622572
20
8.83799624178286
30
0
41
1
10
31.5815203410633
20
9.04316652152207
30
0
41
1
10
31.202324912625
20
9.15457225344423
30
0
41
1
10
30.6346137951137
20
9.28329962902887
30
0
41
1
10
30.4455646459546
20
9.31976712944575
30
0
41
1
10
30.2477724879473
20
9.35114225471247
30
0
41
1
10
30.2390739697449
20
9.35250847961271
30
0
41
1
10
30.2303753047505
20
9.35386115477911
30
0
0
SPLINE
5
172
100
AcDbEntity
8
1
62
256
6
ByLayer
370
18
48
1
60
0
100
AcDbSpline
70
4
71
3
72
24
73
20
40
0
40
0
40
0
40
0
40
0.0195488768579161
40
0.0788668004810364
40
0.138446031091426
40
0.198286575680372
40
0.25838844291526
40
0.318751643254857
40
0.379376189069286
40
0.440262094764394
40
0.50140937691094
40
0.562818054378588
40
0.62448814847472
40
0.686419683088528
40
0.74861268483994
40
0.811067183234181
40
0.873783210821559
40
0.93676080336279
40
1
40
1
40
1
40
1
41
1
10
40.813089698306
20
-9.87228243827224
30
0
41
1
10
40.8085455744821
20
-9.87309004807489
30
0
41
1
10
40.7902129972986
20
-9.87633326665221
30
0
41
1
10
40.7580309526303
20
-9.88192058946265
30
0
41
1
10
40.7164824923186
20
-9.88892742033721
30
0
41
1
10
40.6747512672477
20
-9.89575626785452
30
0
41
1
10
40.6328372773797
20
-9.90240405028277
30
0
41
1
10
40.5907405226752
20
-9.90886766539521
30
0
41
1
10
40.5484610030932
20
-9.91514399013903
30
0
41
1
10
40.5059987185922
20
-9.92122988141057
30
0
41
1
10
40.4633536691259
20
-9.92712217267373
30
0
41
1
10
40.4205258546578
20
-9.93281768618851
30
0
41
1
10
40.3775152751077
20
-9.93831318660605
30
0
41
1
10
40.3343219305512
20
-9.94360555478278
30
0
41
1
10
40.2909458204722
20
-9.94869113449104
30
0
41
1
10
40.2473869465674
20
-9.9535681854928
30
0
41
1
10
40.2036453022153
20
-9.95822767029517
30
0
41
1
10
40.159720912026
20
-9.96268785402947
30
0
41
1
10
40.1303769195301
20
-9.96546643652695
30
0
41
1
10
40.1156745132682
20
-9.96685860729977
30
0
0
SPLINE
5
173
100
AcDbEntity
8
1
62
256
6
ByLayer
370
18
48
1
60
0
100
AcDbSpline
70
4
71
3
72
91
73
87
40
0
40
0
40
0
40
0
40
0.0051222224915938
40
0.0101609899075503
40
0.0151163131171713
40
0.0199882034259006
40
0.0247766724075078
40
0.0294817309453798
40
0.0341033874609256
40
0.0386416479159268
40
0.0430965161364146
40
0.0474679941049773
40
0.0517560822250741
40
0.0559607795593942
40
0.0600820840441987
40
0.0641199926814652
40
0.0680745017105612
40
0.0719456067610744
40
0.0757333029883306
40
0.0794375851930266
40
0.0830584479263488
40
0.0865958855818264
40
0.0900498924751127
40
0.0934204629128033
40
0.096707591251321
40
0.0999112719468344
40
0.103031499597105
40
0.106068268976099
40
0.10902157506212
40
0.111891413060203
40
0.114677778419395
40
0.117380666845564
40
0.120000074310257
40
0.122535997056161
40
0.124988431599597
40
0.137393043069504
40
0.156100973536291
40
0.181111171381633
40
0.212420955649483
40
0.250025602141008
40
0.26970645121206
40
0.286708084412032
40
0.301031457957749
40
0.312677199471382
40
0.333413654193828
40
0.354163991349468
40
0.374928508768806
40
0.407288518344125
40
0.438933582275338
40
0.469861259111458
40
0.500069279216247
40
0.541724692751736
40
0.583376434352425
40
0.625030164050623
40
0.666691617823894
40
0.708360784382516
40
0.750034029258963
40
0.77895918274264
40
0.812523369134997
40
0.830976983591256
40
0.847495520600408
40
0.862079576442591
40
0.874729610571799
40
0.882973852927241
40
0.890963834734238
40
0.898699576425359
40
0.906181083240289
40
0.913408349046899
40
0.920381359495541
40
0.927100094594836
40
0.93356453078853
40
0.939774642604807
40
0.945730403941907
40
0.95143178904675
40
0.95687877323686
40
0.962071333409724
40
0.967009448378332
40
0.971693099066489
40
0.976122268592975
40
0.980296942269425
40
0.984217107533059
40
0.987882753832093
40
0.991293872478599
40
0.994450456481053
40
0.997352500366455
40
1
40
1
40
1
40
1
41
1
10
40.1156745132682
20
-9.96685860729977
30
0
41
1
10
40.0868229596224
20
-9.96945560458809
30
0
41
1
10
40.0295899233978
20
-9.97460728694472
30
0
41
1
10
39.9444459189097
20
-9.98111013901297
30
0
41
1
10
39.860712543599
20
-9.98668208163775
30
0
41
1
10
39.7783898208784
20
-9.99128284961708
30
0
41
1
10
39.6974777522953
20
-9.99497495333617
30
0
41
1
10
39.6179763568888
20
-9.99779621593402
30
0
41
1
10
39.5398856329444
20
-9.99979215680114
30
0
41
1
10
39.46320557826
20
-10.0010051866506
30
0
41
1
10
39.3879361905447
20
-10.0014773940302
30
0
41
1
10
39.314077467802
20
-10.0012498268588
30
0
41
1
10
39.2416294082084
20
-10.0003626881023
30
0
41
1
10
39.1705920101264
20
-9.99885529295574
30
0
41
1
10
39.1009652720834
20
-9.99676608801911
30
0
41
1
10
39.0327491927613
20
-9.99413265417002
30
0
41
1
10
38.9659437709828
20
-9.99099171352449
30
0
41
1
10
38.9005490057007
20
-9.98737913517877
30
0
41
1
10
38.8365648959865
20
-9.98332994111237
30
0
41
1
10
38.7739914410205
20
-9.97887831189414
30
0
41
1
10
38.7128286400821
20
-9.97405759228437
30
0
41
1
10
38.6530764925403
20
-9.96890029670877
30
0
41
1
10
38.5947349978462
20
-9.96343811461213
30
0
41
1
10
38.5378041555241
20
-9.9577019156844
30
0
41
1
10
38.4822839651645
20
-9.9517217549805
30
0
41
1
10
38.4281744264185
20
-9.94552687785981
30
0
41
1
10
38.3754755389832
20
-9.93914572501131
30
0
41
1
10
38.3241873026284
20
-9.93260593661017
30
0
41
1
10
38.2743097170699
20
-9.92593435902748
30
0
41
1
10
38.2258427824005
20
-9.91915704184242
30
0
41
1
10
38.178786497522
20
-9.91229926896852
30
0
41
1
10
38.1331408657229
20
-9.90538546741183
30
0
41
1
10
38.0889058747711
20
-9.89843955183363
30
0
41
1
10
38.0460815677596
20
-9.89148371671769
30
0
41
1
10
37.9481776520097
20
-9.87507497244101
30
0
41
1
10
37.7592595917403
20
-9.84036271967364
30
0
41
1
10
37.4433923893742
20
-9.77219051435114
30
0
41
1
10
37.0211158326425
20
-9.66234985735923
30
0
41
1
10
36.4924423400941
20
-9.49511847192213
30
0
41
1
10
35.9936392116758
20
-9.30350389615467
30
0
41
1
10
35.5753848320457
20
-9.1197716916424
30
0
41
1
10
35.2881640461013
20
-8.98369893119147
30
0
41
1
10
35.0461688097465
20
-8.86199749915463
30
0
41
1
10
34.7831112389915
20
-8.72359039368783
30
0
41
1
10
34.483831391338
20
-8.55734411977997
30
0
41
1
10
34.1332380501728
20
-8.34930963527179
30
0
41
1
10
33.7172317496911
20
-8.08734400132718
30
0
41
1
10
33.2399054943729
20
-7.76518305102061
30
0
41
1
10
32.7054449032923
20
-7.37682728715413
30
0
41
1
10
32.1831244823062
20
-6.97231036182393
30
0
41
1
10
31.6044643814884
20
-6.49855788497624
30
0
41
1
10
30.9652859100814
20
-5.9441314985057
30
0
41
1
10
30.2615485163779
20
-5.29747350412285
30
0
41
1
10
29.5577597430917
20
-4.6177499973636
30
0
41
1
10
28.8539783192871
20
-3.9096318810152
30
0
41
1
10
28.1501892296674
20
-3.17771350218945
30
0
41
1
10
27.5180992914159
20
-2.50314785406573
30
0
41
1
10
26.9316917888488
20
-1.86701492346933
30
0
41
1
10
26.4759167714649
20
-1.36702926610786
30
0
41
1
10
26.0900072542171
20
-0.941083588789013
30
0
41
1
10
25.8109413521616
20
-0.632156901486781
30
0
41
1
10
25.5645464111472
20
-0.358918387122145
30
0
41
1
10
25.3647405501392
20
-0.137159111080081
30
0
41
1
10
25.2020723254863
20
0.0434216845072797
30
0
41
1
10
25.067083824431
20
0.193272987283166
30
0
41
1
10
24.9363943962502
20
0.338316658407479
30
0
41
1
10
24.8100041539485
20
0.478527801153831
30
0
41
1
10
24.6879130371164
20
0.613886589116248
30
0
41
1
10
24.570121035208
20
0.744378379930907
30
0
41
1
10
24.4566281298553
20
0.86999311089167
30
0
41
1
10
24.3474343088583
20
0.990724897563496
30
0
41
1
10
24.2425395620139
20
1.10657160075635
30
0
41
1
10
24.1419438816231
20
1.21753442154136
30
0
41
1
10
24.045647261875
20
1.32361750915183
30
0
41
1
10
23.9536496985717
20
1.42482758569042
30
0
41
1
10
23.8659511888214
20
1.52117358640874
30
0
41
1
10
23.7825517307787
20
1.61266631676736
30
0
41
1
10
23.7034513234446
20
1.6993181229121
30
0
41
1
10
23.6286499663928
20
1.78114258702311
30
0
41
1
10
23.5581476598765
20
1.85815420825239
30
0
41
1
10
23.4919444037485
20
1.93036820364384
30
0
41
1
10
23.4300402005004
20
1.99779997187267
30
0
41
1
10
23.3724350444678
20
2.06046576569935
30
0
41
1
10
23.3191289574568
20
2.11837938201705
30
0
41
1
10
23.270121870028
20
2.17156216303181
30
0
41
1
10
23.2388838043865
20
2.20541287034359
30
0
41
1
10
23.2239811791425
20
2.22156189861903
30
0
0
SPLINE
5
174
100
AcDbEntity
8
1
62
256
6
ByLayer
370
18
48
1
60
0
100
AcDbSpline
70
4
71
3
72
26
73
22
40
0
40
0
40
0
40
0
40
0.125000000000004
40
0.125000000000004
40
0.250000000000008
40
0.250000000000008
40
0.375000000000013
40
0.375000000000013
40
0.437500000000015
40
0.437500000000015
40
0.468750000000015
40
0.468750000000015
40
0.500000000000015
40
0.500000000000015
40
0.625000000000011
40
0.625000000000011
40
0.750000000000007
40
0.750000000000007
40
0.875000000000004
40
0.875000000000004
40
1
40
1
40
1
40
1
41
1
10
23.2239811791424
20
2.22156189861906
30
0
41
1
10
22.9220504156559
20
2.54863828940353
30
0
41
1
10
22.6214780491744
20
2.87053306032217
30
0
41
1
10
22.0212781461215
20
3.50263111815209
30
0
41
1
10
21.7216525644075
20
3.81283611685311
30
0
41
1
10
21.1216562043707
20
4.42007265419832
30
0
41
1
10
20.8212786629322
20
4.71709519846451
30
0
41
1
10
20.3689174901374
20
5.15168843785986
30
0
41
1
10
20.2178355505714
20
5.29473018087717
30
0
41
1
10
19.9906219784731
20
5.50640900017109
30
0
41
1
10
19.9147630660476
20
5.57650828833306
30
0
41
1
10
19.7629153164105
20
5.71563089678114
30
0
41
1
10
19.687106281343
20
5.78448978412789
30
0
41
1
10
19.3085688634757
20
6.12524815653026
30
0
41
1
10
19.0073618982947
20
6.38655131018785
30
0
41
1
10
18.4064481298627
20
6.88594408907411
30
0
41
1
10
18.1067445001241
20
7.1240348252262
30
0
41
1
10
17.507142983132
20
7.57588149299789
30
0
41
1
10
17.2072423615212
20
7.7896151993146
30
0
41
1
10
16.6054969380941
20
8.19174365768683
30
0
41
1
10
16.3036551998907
20
8.38014473674841
30
0
41
1
10
16.0000000000001
20
8.55513868845199
30
0
0
SPLINE
5
175
100
AcDbEntity
8
1
62
256
6
ByLayer
370
13
48
1
60
0
100
AcDbSpline
70
4
71
3
72
10
73
6
40
0
40
0
40
0
40
0
40
0.0615641214033693
40
0.374376080935579
40
1
40
1
40
1
40
1
41
1
10
23.592420710358
20
1.82079062750316
30
0
41
1
10
23.4366138069053
20
1.97882371506668
30
0
41
1
10
22.489140236786
20
2.93494088192648
30
0
41
1
10
19.9583333333333
20
5.38827736543857
30
0
41
1
10
17.5833333333334
20
7.20219518634656
30
0
41
1
10
16
20
8.03156828631327
30
0
0
SPLINE
5
176
100
AcDbEntity
8
1
62
256
6
ByLayer
370
18
48
1
60
0
100
AcDbSpline
70
4
71
3
72
15
73
11
40
0
40
0
40
0
40
0
40
0.203888594681351
40
0.366576922495395
40
0.468120374580666
40
0.540392540723121
40
0.615423227049996
40
0.69715737252977
40
0.822365629988772
40
1
40
1
40
1
40
1
41
1
10
43.9099857370574
20
9.3518803160334
30
0
41
1
10
43.6993480560791
20
9.38432594129705
30
0
41
1
10
43.3206481218307
20
9.44393762104704
30
0
41
1
10
42.837078743863
20
9.52332541203157
30
0
41
1
10
42.4894758580089
20
9.58152397846013
30
0
41
1
10
42.2323631465259
20
9.62505949055046
30
0
41
1
10
41.9957079824455
20
9.66546767367041
30
0
41
1
10
41.7043578495164
20
9.71561773364104
30
0
41
1
10
41.3073276290435
20
9.78466334566983
30
0
41
1
10
40.9947535629804
20
9.83980658040514
30
0
41
1
10
40.8114684070766
20
9.87241414502924
30
0
0
SPLINE
5
177
100
AcDbEntity
8
1
62
256
6
ByLayer
370
18
48
1
60
0
100
AcDbSpline
70
4
71
2
72
6
73
3
40
0
40
0
40
0
40
1
40
1
40
1
41
1
10
52.6458021643383
20
5.26921309616156
30
0
41
1
10
51.9440078372645
20
5.70035646640588
30
0
41
1
10
51.2484537949859
20
6.13481560142574
30
0
0
SPLINE
5
178
100
AcDbEntity
8
1
62
256
6
ByLayer
370
18
48
1
60
0
100
AcDbSpline
70
4
71
3
72
15
73
11
40
0
40
0
40
0
40
0
40
0.155083363985304
40
0.284789138337015
40
0.3943318968677
40
0.49280816993748
40
0.592843412362265
40
0.699098597126629
40
0.873996819099073
40
1
40
1
40
1
40
1
41
1
10
17.3827744021655
20
-8.36552978609492
30
0
41
1
10
17.4561186572545
20
-8.34371894966853
30
0
41
1
10
17.6079896733574
20
-8.29826407520255
30
0
41
1
10
17.8543989159614
20
-8.22108134756019
30
0
41
1
10
18.1088378683598
20
-8.14589662554118
30
0
41
1
10
18.3725783672901
20
-8.0754473878487
30
0
41
1
10
18.6286236423044
20
-8.01445625581235
30
0
41
1
10
18.9073212669711
20
-7.9505494344433
30
0
41
1
10
19.2458474150265
20
-7.86691884845479
30
0
41
1
10
19.502190511939
20
-7.8050308908598
30
0
41
1
10
19.6082241734181
20
-7.77986303795603
30
0
0
SPLINE
5
179
100
AcDbEntity
8
1
62
256
6
ByLayer
370
18
48
1
60
0
100
AcDbSpline
70
4
71
3
72
18
73
14
40
0
40
0
40
0
40
0
40
0.145132271038644
40
0.260280539689379
40
0.345395543336599
40
0.401497563781167
40
0.447537998262159
40
0.490600268799812
40
0.531389629778542
40
0.58551209952535
40
0.659434045376598
40
0.807437358665095
40
1
40
1
40
1
40
1
41
1
10
41.8797035596383
20
2.94164427790301
30
0
41
1
10
41.7037685855775
20
3.06279406156745
30
0
41
1
10
41.3884104231019
20
3.28116808177487
30
0
41
1
10
40.9703470319602
20
3.57383574874825
30
0
41
1
10
40.6602285039965
20
3.79223424998116
30
0
41
1
10
40.4342650007175
20
3.95194980730213
30
0
41
1
10
40.2590113942761
20
4.07606983201796
30
0
41
1
10
40.102033755332
20
4.18740870287092
30
0
41
1
10
39.9351550510855
20
4.30590595758997
30
0
41
1
10
39.7309179854674
20
4.45108006724627
30
0
41
1
10
39.396976471855
20
4.68863245851446
30
0
41
1
10
38.895501153226
20
5.04553726107102
30
0
41
1
10
38.4834994673398
20
5.3371739759514
30
0
41
1
10
38.2505468559163
20
5.50173759893721
30
0
0
SPLINE
5
17A
100
AcDbEntity
8
1
62
256
6
ByLayer
370
18
48
1
60
0
100
AcDbSpline
70
4
71
3
72
10
73
6
40
0
40
0
40
0
40
0
40
0.529819361974532
40
0.969370324280934
40
1
40
1
40
1
40
1
41
1
10
32.0230408117459
20
-8.35757880545097
30
0
41
1
10
32.2337162698706
20
-8.29732870937045
30
0
41
1
10
32.6190366939781
20
-8.18937682040803
30
0
41
1
10
33.0165033216033
20
-8.08015023622519
30
0
41
1
10
33.2032106785617
20
-8.03086965248355
30
0
41
1
10
33.2153732386083
20
-8.02766484578868
30
0
0
SPLINE
5
17B
100
AcDbEntity
8
1
62
256
6
ByLayer
370
18
48
1
60
0
100
AcDbSpline
70
4
71
3
72
18
73
14
40
0
40
0
40
0
40
0
40
0.141897966188515
40
0.260139033977484
40
0.36104797013056
40
0.448100367233807
40
0.518512407658727
40
0.573924873520646
40
0.636061676689121
40
0.725910960661565
40
0.832452624013692
40
0.931768736609331
40
1
40
1
40
1
40
1
41
1
10
24.5150474122458
20
6.96688538559562
30
0
41
1
10
24.3230024289401
20
6.9821665477304
30
0
41
1
10
23.9502431840243
20
7.0174589011111
30
0
41
1
10
23.3819174933101
20
7.08076893364637
30
0
41
1
10
22.8597032500286
20
7.15427761079513
30
0
41
1
10
22.4261707949728
20
7.22063048668724
30
0
41
1
10
22.0656607888414
20
7.27889620762363
30
0
41
1
10
21.763690407807
20
7.33119861132585
30
0
41
1
10
21.4434048301493
20
7.38934755881107
30
0
41
1
10
21.0238476796901
20
7.4697856561813
30
0
41
1
10
20.5455540008904
20
7.56809155894004
30
0
41
1
10
20.1000719351242
20
7.66569620476687
30
0
41
1
10
19.8307451145092
20
7.72755147758269
30
0
41
1
10
19.7197265281066
20
7.75356516409383
30
0
0
SPLINE
5
17C
100
AcDbEntity
8
1
62
256
6
ByLayer
370
18
48
1
60
0
100
AcDbSpline
70
4
71
2
72
6
73
3
40
0
40
0
40
0
40
1
40
1
40
1
41
1
10
45.6879077089905
20
-8.35996852812505
30
0
41
1
10
46.3222436005747
20
-8.17645724170063
30
0
41
1
10
47.0007231423876
20
-8.00212829595145
30
0
0
SPLINE
5
17D
100
AcDbEntity
8
1
62
256
6
ByLayer
370
18
48
1
60
0
100
AcDbSpline
70
4
71
2
72
6
73
3
40
0
40
0
40
0
40
1
40
1
40
1
41
1
10
9.45308838825608
20
8.52731882300944
30
0
41
1
10
8.80826146555629
20
8.88545671115082
30
0
41
1
10
8.22910734233449
20
9.25249279678906
30
0
0
SPLINE
5
17E
100
AcDbEntity
8
1
62
256
6
ByLayer
370
18
48
1
60
0
100
AcDbSpline
70
4
71
3
72
16
73
12
40
0
40
0
40
0
40
0
40
0.226342254153687
40
0.387814754033396
40
0.459528095095577
40
0.510710579412342
40
0.561003842391657
40
0.636415010970047
40
0.725190701614023
40
0.853031396166139
40
1
40
1
40
1
40
1
41
1
10
27.1273233218713
20
-9.87626118357585
30
0
41
1
10
27.3615813869317
20
-9.83521877763084
30
0
41
1
10
27.7629889088195
20
-9.76511811205199
30
0
41
1
10
28.2388722925564
20
-9.68201621343073
30
0
41
1
10
28.5332158232552
20
-9.6311937998197
30
0
41
1
10
28.7117261117935
20
-9.60064993026634
30
0
41
1
10
28.8943324564231
20
-9.56966567149883
30
0
41
1
10
29.1159081031038
20
-9.53250616805866
30
0
41
1
10
29.4180798501448
20
-9.48267580227821
30
0
41
1
10
29.7946747009081
20
-9.42199622149684
30
0
41
1
10
30.0794521400031
20
-9.37730275341357
30
0
41
1
10
30.231811139316
20
-9.35374751699399
30
0
0
SPLINE
5
17F
100
AcDbEntity
8
1
62
256
6
ByLayer
370
18
48
1
60
0
100
AcDbSpline
70
4
71
1
72
4
73
2
40
0
40
0
40
1
40
1
41
1
10
15.0771962873844
20
-9.44791785138173
30
0
41
1
10
15.6593468391736
20
-9.35425162264107
30
0
0
SPLINE
5
180
100
AcDbEntity
8
1
62
256
6
ByLayer
370
18
48
1
60
0
100
AcDbSpline
70
4
71
3
72
14
73
10
40
0
40
0
40
0
40
0
40
0.193995938806296
40
0.337986286044033
40
0.439002398044574
40
0.514448966051541
40
0.612179983121631
40
0.773654674265914
40
1
40
1
40
1
40
1
41
1
10
30.2318192403348
20
9.35378814587804
30
0
41
1
10
30.0306831331461
20
9.38484475847238
30
0
41
1
10
29.6804944733212
20
9.44003218654316
30
0
41
1
10
29.2259226063824
20
9.51412407952699
30
0
41
1
10
28.894708680712
20
9.56954131178048
30
0
41
1
10
28.6119568645077
20
9.6176259500333
30
0
41
1
10
28.2659300864817
20
9.6772889430689
30
0
41
1
10
27.7629322535516
20
9.76512911417328
30
0
41
1
10
27.3615813869317
20
9.83521877763067
30
0
41
1
10
27.1273233218713
20
9.87626118357568
30
0
0
SPLINE
5
181
100
AcDbEntity
8
1
62
256
6
ByLayer
370
18
48
1
60
0
100
AcDbSpline
70
4
71
1
72
4
73
2
40
0
40
0
40
1
40
1
41
1
10
15.6593468391741
20
9.35425162264093
30
0
41
1
10
15.0771962873844
20
9.44791785138165
30
0
0
SPLINE
5
182
100
AcDbEntity
8
1
62
256
6
ByLayer
370
18
48
1
60
0
100
AcDbSpline
70
4
71
3
72
15
73
11
40
0
40
0
40
0
40
0
40
0.177634370011234
40
0.302842627470226
40
0.384576772950006
40
0.459607459276903
40
0.531879625419377
40
0.633423077504676
40
0.796111405318753
40
1
40
1
40
1
40
1
41
1
10
40.8114684070766
20
-9.87241414502952
30
0
41
1
10
40.9947535629803
20
-9.83980658040542
30
0
41
1
10
41.3073276290434
20
-9.78466334567014
30
0
41
1
10
41.7043578495163
20
-9.71561773364132
30
0
41
1
10
41.9957079824455
20
-9.66546767367069
30
0
41
1
10
42.2323631465259
20
-9.62505949055074
30
0
41
1
10
42.489475858009
20
-9.58152397846041
30
0
41
1
10
42.8370787438632
20
-9.52332541203185
30
0
41
1
10
43.3206481218308
20
-9.44393762104733
30
0
41
1
10
43.6993480560792
20
-9.38432594129736
30
0
41
1
10
43.9099857370574
20
-9.35188031603371
30
0
0
LINE
5
7F
100
AcDbEntity
8
80
62
256
6
ByLayer
370
18
48
1
60
0
100
AcDbLine
10
0
20
0
30
0
11
-5
21
0
31
0
39
0
210
0
220
0
230
1
0
LINE
5
80
100
AcDbEntity
8
SK4
62
256
6
ByLayer
370
18
48
0.05
60
0
100
AcDbLine
10
-50
20
0
30
0
11
54
21
0
31
0
39
0
210
0
220
0
230
1
0
LINE
5
82
100
AcDbEntity
8
81
62
256
6
ByLayer
370
18
48
1
60
0
100
AcDbLine
10
54
20
0
30
0
11
59
21
0
31
0
39
0
210
0
220
0
230
1
0
LINE
5
83
100
AcDbEntity
8
4
62
256
6
ByLayer
370
18
48
0.05
60
0
100
AcDbLine
10
0
20
0
30
0
11
54
21
0
31
0
39
0
210
0
220
0
230
1
0
LINE
5
85
100
AcDbEntity
8
1
62
256
6
ByLayer
370
18
48
1
60
0
100
AcDbLine
10
0
20
10
30
0
11
0
21
0
31
0
39
0
210
0
220
0
230
1
0
LINE
5
86
100
AcDbEntity
8
1
62
256
6
ByLayer
370
18
48
1
60
0
100
AcDbLine
10
0
20
0
30
0
11
0
21
-10
31
0
39
0
210
0
220
0
230
1
0
LINE
5
87
100
AcDbEntity
8
1
62
256
6
ByLayer
370
18
48
1
60
0
100
AcDbLine
10
53.746062
20
-1.606803
30
0
11
53.694887
21
-1.606652
31
0
39
0
210
0
220
0
230
1
0
LINE
5
88
100
AcDbEntity
8
1
62
256
6
ByLayer
370
18
48
1
60
0
100
AcDbLine
10
53.890064
20
-0.405925
30
0
11
53.819466
21
-0.436574
31
0
39
0
210
0
220
0
230
1
0
LINE
5
89
100
AcDbEntity
8
1
62
256
6
ByLayer
370
18
48
1
60
0
100
AcDbLine
10
53.350543
20
3.021348
30
0
11
53.830802
21
3.856735
31
0
39
0
210
0
220
0
230
1
0
LINE
5
8A
100
AcDbEntity
8
1
62
256
6
ByLayer
370
18
48
1
60
0
100
AcDbLine
10
53.890064
20
6.051388
30
0
11
53.830802
21
3.856735
31
0
39
0
210
0
220
0
230
1
0
LINE
5
8B
100
AcDbEntity
8
1
62
256
6
ByLayer
370
18
48
1
60
0
100
AcDbLine
10
53.694887
20
-1.606652
30
0
11
53.308262
21
-2.94788
31
0
39
0
210
0
220
0
230
1
0
LINE
5
8C
100
AcDbEntity
8
1
62
256
6
ByLayer
370
18
48
1
60
0
100
AcDbLine
10
53.819466
20
-0.436574
30
0
11
53.694887
21
-1.606652
31
0
39
0
210
0
220
0
230
1
0
LINE
5
8D
100
AcDbEntity
8
1
62
256
6
ByLayer
370
18
48
1
60
0
100
AcDbLine
10
52.807801
20
-0.687899
30
0
11
53.819466
21
-0.436574
31
0
39
0
210
0
220
0
230
1
0
LINE
5
8E
100
AcDbEntity
8
1
62
256
6
ByLayer
370
18
48
1
60
0
100
AcDbLine
10
53.890064
20
-6.051388
30
0
11
53.830802
21
-3.856735
31
0
39
0
210
0
220
0
230
1
0
LINE
5
8F
100
AcDbEntity
8
1
62
256
6
ByLayer
370
13
48
1
60
0
100
AcDbLine
10
15.598076
20
9.177305
30
0
11
15.598076
21
8.594472
31
0
39
0
210
0
220
0
230
1
0
LINE
5
90
100
AcDbEntity
8
1
62
256
6
ByLayer
370
18
48
1
60
0
100
AcDbLine
10
53.746062
20
-6.129698
30
0
11
53.711261
21
-4.768611
31
0
39
0
210
0
220
0
230
1
0
LINE
5
91
100
AcDbEntity
8
1
62
256
6
ByLayer
370
13
48
1
60
0
100
AcDbLine
10
51.842048
20
-0.731896
30
0
11
49.629189
21
-0.221281
31
0
39
0
210
0
220
0
230
1
0
LINE
5
92
100
AcDbEntity
8
1
62
256
6
ByLayer
370
18
48
1
60
0
100
AcDbLine
10
53.711261
20
-4.768611
30
0
11
52.775205
21
-6.130275
31
0
39
0
210
0
220
0
230
1
0
LINE
5
93
100
AcDbEntity
8
1
62
256
6
ByLayer
370
18
48
1
60
0
100
AcDbLine
10
53.830802
20
-3.856735
30
0
11
53.711261
21
-4.768611
31
0
39
0
210
0
220
0
230
1
0
LINE
5
94
100
AcDbEntity
8
1
62
256
6
ByLayer
370
18
48
1
60
0
100
AcDbLine
10
52.732635
20
-1.946528
30
0
11
53.830802
21
-3.856735
31
0
39
0
210
0
220
0
230
1
0
LINE
5
95
100
AcDbEntity
8
1
62
256
6
ByLayer
370
13
48
1
60
0
100
AcDbLine
10
14.598076
20
8.829834
30
0
11
14.598076
21
9.483269
31
0
39
0
210
0
220
0
230
1
0
LINE
5
96
100
AcDbEntity
8
1
62
256
6
ByLayer
370
13
48
1
60
0
100
AcDbLine
10
16
20
-8.882896
30
0
11
16
21
-9.290834
31
0
39
0
210
0
220
0
230
1
0
LINE
5
97
100
AcDbEntity
8
1
62
256
6
ByLayer
370
13
48
1
60
0
100
AcDbLine
10
14.598076
20
-3.037938
30
0
11
14.598076
21
-0.066483
31
0
39
0
210
0
220
0
230
1
0
LINE
5
98
100
AcDbEntity
8
1
62
256
6
ByLayer
370
13
48
1
60
0
100
AcDbLine
10
15.598076
20
-2.860244
30
0
11
15.598076
21
-4.185807
31
0
39
0
210
0
220
0
230
1
0
LINE
5
99
100
AcDbEntity
8
1
62
256
6
ByLayer
370
13
48
1
60
0
100
AcDbLine
10
1.995358
20
-9.5
30
0
11
1.995358
21
0
31
0
39
0
210
0
220
0
230
1
0
LINE
5
9A
100
AcDbEntity
8
1
62
256
6
ByLayer
370
13
48
1
60
0
100
AcDbLine
10
1.995358
20
0
30
0
11
1.995358
21
9.5
31
0
39
0
210
0
220
0
230
1
0
LINE
5
9B
100
AcDbEntity
8
1
62
256
6
ByLayer
370
13
48
1
60
0
100
AcDbLine
10
0.995358
20
9.767949
30
0
11
0.995358
21
0
31
0
39
0
210
0
220
0
230
1
0
LINE
5
9C
100
AcDbEntity
8
1
62
256
6
ByLayer
370
13
48
1
60
0
100
AcDbLine
10
0.995358
20
0
30
0
11
0.995358
21
-9.767949
31
0
39
0
210
0
220
0
230
1
0
LINE
5
9D
100
AcDbEntity
8
1
62
256
6
ByLayer
370
18
48
1
60
0
100
AcDbLine
10
0.593434
20
10
30
0
11
0.593434
21
0
31
0
39
0
210
0
220
0
230
1
0
LINE
5
9E
100
AcDbEntity
8
1
62
256
6
ByLayer
370
18
48
1
60
0
100
AcDbLine
10
0.593434
20
0
30
0
11
0.593434
21
-10
31
0
39
0
210
0
220
0
230
1
0
LINE
5
9F
100
AcDbEntity
8
1
62
256
6
ByLayer
370
13
48
1
60
0
100
AcDbLine
10
16
20
-1.116246
30
0
11
16
21
-1.353311
31
0
39
0
210
0
220
0
230
1
0
LINE
5
A0
100
AcDbEntity
8
1
62
256
6
ByLayer
370
18
48
1
60
0
100
AcDbLine
10
16
20
8.554272
30
0
11
16
21
8.555139
31
0
39
0
210
0
220
0
230
1
0
LINE
5
A1
100
AcDbEntity
8
1
62
256
6
ByLayer
370
13
48
1
60
0
100
AcDbLine
10
16
20
8.554272
30
0
11
16
21
8.031568
31
0
39
0
210
0
220
0
230
1
0
LINE
5
A2
100
AcDbEntity
8
SK1
62
256
6
ByLayer
370
18
48
1
60
0
100
AcDbLine
10
-50
20
-9
30
0
11
-50
21
9
31
0
39
0
210
0
220
0
230
1
0
LINE
5
A4
100
AcDbEntity
8
SK1
62
256
6
ByLayer
370
18
48
1
60
0
100
AcDbLine
10
0
20
10
30
0
11
0
21
0
31
0
39
0
210
0
220
0
230
1
0
LINE
5
A5
100
AcDbEntity
8
SK1
62
256
6
ByLayer
370
18
48
1
60
0
100
AcDbLine
10
0
20
0
30
0
11
0
21
-10
31
0
39
0
210
0
220
0
230
1
0
LINE
5
A6
100
AcDbEntity
8
SK1
62
256
6
ByLayer
370
18
48
1
60
0
100
AcDbLine
10
-49
20
10
30
0
11
-49
21
-10
31
0
39
0
210
0
220
0
230
1
0
LINE
5
A7
100
AcDbEntity
8
SK1
62
256
6
ByLayer
370
18
48
1
60
0
100
AcDbLine
10
-30.5
20
8.2
30
0
11
-32.3
21
10
31
0
39
0
210
0
220
0
230
1
0
LINE
5
A8
100
AcDbEntity
8
SK1
62
256
6
ByLayer
370
18
48
1
60
0
100
AcDbLine
10
-17.7
20
10
30
0
11
-19.5
21
8.2
31
0
39
0
210
0
220
0
230
1
0
LINE
5
A9
100
AcDbEntity
8
SK1
62
256
6
ByLayer
370
18
48
1
60
0
100
AcDbLine
10
-30.5
20
8.2
30
0
11
-19.5
21
8.2
31
0
39
0
210
0
220
0
230
1
0
LINE
5
AA
100
AcDbEntity
8
1
62
256
6
ByLayer
370
18
48
1
60
0
100
AcDbLine
10
0.593434
20
10
30
0
11
0
21
10
31
0
39
0
210
0
220
0
230
1
0
LINE
5
AB
100
AcDbEntity
8
1
62
256
6
ByLayer
370
18
48
1
60
0
100
AcDbLine
10
0
20
-10
30
0
11
0.593434
21
-10
31
0
39
0
210
0
220
0
230
1
0
LINE
5
AC
100
AcDbEntity
8
1
62
256
6
ByLayer
370
18
48
1
60
0
100
AcDbLine
10
14.129188
20
9.5
30
0
11
10.561646
21
9.5
31
0
39
0
210
0
220
0
230
1
0
LINE
5
AD
100
AcDbEntity
8
1
62
256
6
ByLayer
370
18
48
1
60
0
100
AcDbLine
10
7.697607
20
9.5
30
0
11
1.995358
21
9.5
31
0
39
0
210
0
220
0
230
1
0
LINE
5
AE
100
AcDbEntity
8
1
62
256
6
ByLayer
370
18
48
1
60
0
100
AcDbLine
10
1.995358
20
-9.5
30
0
11
7.697607
21
-9.5
31
0
39
0
210
0
220
0
230
1
0
LINE
5
AF
100
AcDbEntity
8
1
62
256
6
ByLayer
370
18
48
1
60
0
100
AcDbLine
10
10.561646
20
-9.5
30
0
11
14.129188
21
-9.5
31
0
39
0
210
0
220
0
230
1
0
LINE
5
B0
100
AcDbEntity
8
1
62
256
6
ByLayer
370
18
48
1
60
0
100
AcDbLine
10
0.995358
20
9.767949
30
0
11
0.593434
21
10
31
0
39
0
210
0
220
0
230
1
0
LINE
5
B1
100
AcDbEntity
8
1
62
256
6
ByLayer
370
18
48
1
60
0
100
AcDbLine
10
0.593434
20
-10
30
0
11
0.995358
21
-9.767949
31
0
39
0
210
0
220
0
230
1
0
LINE
5
B2
100
AcDbEntity
8
1
62
256
6
ByLayer
370
18
48
1
60
0
100
AcDbLine
10
25.053187
20
3.420185
30
0
11
25.053172
21
3.4202
31
0
39
0
210
0
220
0
230
1
0
LINE
5
B3
100
AcDbEntity
8
SK1
62
256
6
ByLayer
370
18
48
1
60
0
100
AcDbLine
10
-50
20
-9
30
0
11
-49
21
-10
31
0
39
0
210
0
220
0
230
1
0
LINE
5
B4
100
AcDbEntity
8
SK1
62
256
6
ByLayer
370
18
48
1
60
0
100
AcDbLine
10
-49
20
10
30
0
11
-50
21
9
31
0
39
0
210
0
220
0
230
1
0
LINE
5
B5
100
AcDbEntity
8
SK1
62
256
6
ByLayer
370
18
48
1
60
0
100
AcDbLine
10
0
20
10
30
0
11
-17.7
21
10
31
0
39
0
210
0
220
0
230
1
0
LINE
5
B6
100
AcDbEntity
8
SK1
62
256
6
ByLayer
370
18
48
1
60
0
100
AcDbLine
10
-32.3
20
10
30
0
11
-49
21
10
31
0
39
0
210
0
220
0
230
1
0
LINE
5
B7
100
AcDbEntity
8
SK1
62
256
6
ByLayer
370
18
48
1
60
0
100
AcDbLine
10
-49
20
-10
30
0
11
0
21
-10
31
0
39
0
210
0
220
0
230
1
0
LINE
5
B8
100
AcDbEntity
8
SK2
62
256
6
ByLayer
370
13
48
1
60
0
100
AcDbLine
10
-78.25
20
10
30
0
11
-78.25
21
-10
31
0
39
0
210
0
220
0
230
1
0
LINE
5
BA
100
AcDbEntity
8
SK2
62
256
6
ByLayer
370
13
48
1
60
0
100
AcDbLine
10
-51.5875
20
-10
30
0
11
-80.25
21
-10
31
0
39
0
210
0
220
0
230
1
0
LINE
5
BB
100
AcDbEntity
8
SK2
62
256
6
ByLayer
370
13
48
1
60
0
100
AcDbLine
10
-51.5875
20
10
30
0
11
-80.25
21
10
31
0
39
0
210
0
220
0
230
1
0
LINE
5
BC
100
AcDbEntity
8
1
62
256
6
ByLayer
370
18
48
1
60
1
100
AcDbLine
10
-78.25
20
-10
30
0
11
-78.710784
21
-6.500002
31
0
39
0
210
0
220
0
230
1
0
LINE
5
BD
100
AcDbEntity
8
1
62
256
6
ByLayer
370
18
48
1
60
1
100
AcDbLine
10
-78.710784
20
-6.500002
30
0
11
-77.789216
21
-6.499998
31
0
39
0
210
0
220
0
230
1
0
LINE
5
BE
100
AcDbEntity
8
1
62
256
6
ByLayer
370
18
48
1
60
1
100
AcDbLine
10
-77.789216
20
-6.499998
30
0
11
-78.25
21
-10
31
0
39
0
210
0
220
0
230
1
0
LINE
5
BF
100
AcDbEntity
8
1
62
256
6
ByLayer
370
18
48
1
60
1
100
AcDbLine
10
-78.25
20
10
30
0
11
-77.789216
21
6.500002
31
0
39
0
210
0
220
0
230
1
0
LINE
5
C0
100
AcDbEntity
8
1
62
256
6
ByLayer
370
18
48
1
60
1
100
AcDbLine
10
-77.789216
20
6.500002
30
0
11
-78.710784
21
6.499998
31
0
39
0
210
0
220
0
230
1
0
LINE
5
C1
100
AcDbEntity
8
1
62
256
6
ByLayer
370
18
48
1
60
1
100
AcDbLine
10
-78.710784
20
6.499998
30
0
11
-78.25
21
10
31
0
39
0
210
0
220
0
230
1
0
LINE
5
C2
100
AcDbEntity
8
SK2
62
256
6
ByLayer
370
13
48
1
60
0
100
AcDbLine
10
7.75
20
9.5
30
0
11
7.75
21
-9.5
31
0
39
0
210
0
220
0
230
1
0
LINE
5
C3
100
AcDbEntity
8
SK2
62
256
6
ByLayer
370
13
48
1
60
0
100
AcDbLine
10
14.4125
20
-9.5
30
0
11
5.75
21
-9.5
31
0
39
0
210
0
220
0
230
1
0
LINE
5
C4
100
AcDbEntity
8
SK2
62
256
6
ByLayer
370
13
48
1
60
0
100
AcDbLine
10
14.4125
20
9.5
30
0
11
5.75
21
9.5
31
0
39
0
210
0
220
0
230
1
0
LINE
5
C5
100
AcDbEntity
8
1
62
256
6
ByLayer
370
18
48
1
60
1
100
AcDbLine
10
7.75
20
-9.5
30
0
11
7.289216
21
-6.000002
31
0
39
0
210
0
220
0
230
1
0
LINE
5
C6
100
AcDbEntity
8
1
62
256
6
ByLayer
370
18
48
1
60
1
100
AcDbLine
10
7.289216
20
-6.000002
30
0
11
8.210784
21
-5.999998
31
0
39
0
210
0
220
0
230
1
0
LINE
5
C7
100
AcDbEntity
8
1
62
256
6
ByLayer
370
18
48
1
60
1
100
AcDbLine
10
8.210784
20
-5.999998
30
0
11
7.75
21
-9.5
31
0
39
0
210
0
220
0
230
1
0
LINE
5
C8
100
AcDbEntity
8
1
62
256
6
ByLayer
370
18
48
1
60
1
100
AcDbLine
10
7.75
20
9.5
30
0
11
8.210784
21
6.000002
31
0
39
0
210
0
220
0
230
1
0
LINE
5
C9
100
AcDbEntity
8
1
62
256
6
ByLayer
370
18
48
1
60
1
100
AcDbLine
10
8.210784
20
6.000002
30
0
11
7.289216
21
5.999998
31
0
39
0
210
0
220
0
230
1
0
LINE
5
CA
100
AcDbEntity
8
1
62
256
6
ByLayer
370
18
48
1
60
1
100
AcDbLine
10
7.289216
20
5.999998
30
0
11
7.75
21
9.5
31
0
39
0
210
0
220
0
230
1
0
LINE
5
CB
100
AcDbEntity
8
2
62
256
6
ByLayer
370
13
48
1
60
0
100
AcDbLine
10
71
20
10
30
0
11
71
21
-10
31
0
39
0
210
0
220
0
230
1
0
LINE
5
CD
100
AcDbEntity
8
2
62
256
6
ByLayer
370
13
48
1
60
0
100
AcDbLine
10
55.5875
20
-10
30
0
11
73
21
-10
31
0
39
0
210
0
220
0
230
1
0
LINE
5
CE
100
AcDbEntity
8
2
62
256
6
ByLayer
370
13
48
1
60
0
100
AcDbLine
10
55.5875
20
10
30
0
11
73
21
10
31
0
39
0
210
0
220
0
230
1
0
LINE
5
CF
100
AcDbEntity
8
1
62
256
6
ByLayer
370
18
48
1
60
1
100
AcDbLine
10
71
20
-10
30
0
11
70.539216
21
-6.500002
31
0
39
0
210
0
220
0
230
1
0
LINE
5
D0
100
AcDbEntity
8
1
62
256
6
ByLayer
370
18
48
1
60
1
100
AcDbLine
10
70.539216
20
-6.500002
30
0
11
71.460784
21
-6.499998
31
0
39
0
210
0
220
0
230
1
0
LINE
5
D1
100
AcDbEntity
8
1
62
256
6
ByLayer
370
18
48
1
60
1
100
AcDbLine
10
71.460784
20
-6.499998
30
0
11
71
21
-10
31
0
39
0
210
0
220
0
230
1
0
LINE
5
D2
100
AcDbEntity
8
1
62
256
6
ByLayer
370
18
48
1
60
1
100
AcDbLine
10
71
20
10
30
0
11
71.460784
21
6.500002
31
0
39
0
210
0
220
0
230
1
0
LINE
5
D3
100
AcDbEntity
8
1
62
256
6
ByLayer
370
18
48
1
60
1
100
AcDbLine
10
71.460784
20
6.500002
30
0
11
70.539216
21
6.499998
31
0
39
0
210
0
220
0
230
1
0
LINE
5
D4
100
AcDbEntity
8
1
62
256
6
ByLayer
370
18
48
1
60
1
100
AcDbLine
10
70.539216
20
6.499998
30
0
11
71
21
10
31
0
39
0
210
0
220
0
230
1
0
LINE
5
187
100
AcDbEntity
8
1
62
256
6
ByLayer
370
18
48
1
60
1
100
AcDbLine
10
-78.25
20
-10
30
0
11
-78.710784
21
-6.500002
31
0
39
0
210
0
220
0
230
1
0
LINE
5
188
100
AcDbEntity
8
1
62
256
6
ByLayer
370
18
48
1
60
1
100
AcDbLine
10
-78.710784
20
-6.500002
30
0
11
-77.789216
21
-6.499998
31
0
39
0
210
0
220
0
230
1
0
LINE
5
189
100
AcDbEntity
8
1
62
256
6
ByLayer
370
18
48
1
60
1
100
AcDbLine
10
-77.789216
20
-6.499998
30
0
11
-78.25
21
-10
31
0
39
0
210
0
220
0
230
1
0
LINE
5
18B
100
AcDbEntity
8
1
62
256
6
ByLayer
370
18
48
1
60
1
100
AcDbLine
10
-78.25
20
10
30
0
11
-77.789216
21
6.500002
31
0
39
0
210
0
220
0
230
1
0
LINE
5
18C
100
AcDbEntity
8
1
62
256
6
ByLayer
370
18
48
1
60
1
100
AcDbLine
10
-77.789216
20
6.500002
30
0
11
-78.710784
21
6.499998
31
0
39
0
210
0
220
0
230
1
0
LINE
5
18D
100
AcDbEntity
8
1
62
256
6
ByLayer
370
18
48
1
60
1
100
AcDbLine
10
-78.710784
20
6.499998
30
0
11
-78.25
21
10
31
0
39
0
210
0
220
0
230
1
0
LINE
5
191
100
AcDbEntity
8
1
62
256
6
ByLayer
370
18
48
1
60
1
100
AcDbLine
10
7.75
20
-9.5
30
0
11
7.289216
21
-6.000002
31
0
39
0
210
0
220
0
230
1
0
LINE
5
192
100
AcDbEntity
8
1
62
256
6
ByLayer
370
18
48
1
60
1
100
AcDbLine
10
7.289216
20
-6.000002
30
0
11
8.210784
21
-5.999998
31
0
39
0
210
0
220
0
230
1
0
LINE
5
193
100
AcDbEntity
8
1
62
256
6
ByLayer
370
18
48
1
60
1
100
AcDbLine
10
8.210784
20
-5.999998
30
0
11
7.75
21
-9.5
31
0
39
0
210
0
220
0
230
1
0
LINE
5
195
100
AcDbEntity
8
1
62
256
6
ByLayer
370
18
48
1
60
1
100
AcDbLine
10
7.75
20
9.5
30
0
11
8.210784
21
6.000002
31
0
39
0
210
0
220
0
230
1
0
LINE
5
196
100
AcDbEntity
8
1
62
256
6
ByLayer
370
18
48
1
60
1
100
AcDbLine
10
8.210784
20
6.000002
30
0
11
7.289216
21
5.999998
31
0
39
0
210
0
220
0
230
1
0
LINE
5
197
100
AcDbEntity
8
1
62
256
6
ByLayer
370
18
48
1
60
1
100
AcDbLine
10
7.289216
20
5.999998
30
0
11
7.75
21
9.5
31
0
39
0
210
0
220
0
230
1
0
LINE
5
19B
100
AcDbEntity
8
1
62
256
6
ByLayer
370
18
48
1
60
1
100
AcDbLine
10
71
20
-10
30
0
11
70.539216
21
-6.500002
31
0
39
0
210
0
220
0
230
1
0
LINE
5
19C
100
AcDbEntity
8
1
62
256
6
ByLayer
370
18
48
1
60
1
100
AcDbLine
10
70.539216
20
-6.500002
30
0
11
71.460784
21
-6.499998
31
0
39
0
210
0
220
0
230
1
0
LINE
5
19D
100
AcDbEntity
8
1
62
256
6
ByLayer
370
18
48
1
60
1
100
AcDbLine
10
71.460784
20
-6.499998
30
0
11
71
21
-10
31
0
39
0
210
0
220
0
230
1
0
LINE
5
19F
100
AcDbEntity
8
1
62
256
6
ByLayer
370
18
48
1
60
1
100
AcDbLine
10
71
20
10
30
0
11
71.460784
21
6.500002
31
0
39
0
210
0
220
0
230
1
0
LINE
5
1A0
100
AcDbEntity
8
1
62
256
6
ByLayer
370
18
48
1
60
1
100
AcDbLine
10
71.460784
20
6.500002
30
0
11
70.539216
21
6.499998
31
0
39
0
210
0
220
0
230
1
0
LINE
5
1A1
100
AcDbEntity
8
1
62
256
6
ByLayer
370
18
48
1
60
1
100
AcDbLine
10
70.539216
20
6.499998
30
0
11
71
21
10
31
0
39
0
210
0
220
0
230
1
0
MTEXT
5
183
100
AcDbEntity
8
SK2
62
256
6
ByLayer
370
18
48
1
60
0
100
AcDbMText
10
-79.814634
20
-4.530622
30
0
210
0
220
0
230
1
1
%%c
40
3.5
41
0
44
1.084337
50
90
71
7
72
5
7
iso_b_vert
0
MTEXT
5
186
100
AcDbEntity
8
SK2
62
256
6
ByLayer
370
18
48
1
60
0
100
AcDbMText
10
-79.814634
20
2.442034
30
0
210
0
220
0
230
1
1
\W0.6740;20
40
3.5
41
0
44
1.084337
50
90
71
7
72
5
7
iso_b_vert
0
MTEXT
5
18F
100
AcDbEntity
8
SK2
62
256
6
ByLayer
370
18
48
1
60
0
100
AcDbMText
10
6.185366
20
-4.093189
30
0
210
0
220
0
230
1
1
%%c
40
3.5
41
0
44
1.084337
50
90
71
7
72
5
7
iso_b_vert
0
MTEXT
5
190
100
AcDbEntity
8
SK2
62
256
6
ByLayer
370
18
48
1
60
0
100
AcDbMText
10
6.185366
20
2.879467
30
0
210
0
220
0
230
1
1
\W0.5469;19
40
3.5
41
0
44
1.084337
50
90
71
7
72
5
7
iso_b_vert
0
MTEXT
5
199
100
AcDbEntity
8
2
62
256
6
ByLayer
370
18
48
1
60
0
100
AcDbMText
10
69.435366
20
-4.530622
30
0
210
0
220
0
230
1
1
%%c
40
3.5
41
0
44
1.084337
50
90
71
7
72
5
7
iso_b_vert
0
MTEXT
5
19A
100
AcDbEntity
8
2
62
256
6
ByLayer
370
18
48
1
60
0
100
AcDbMText
10
69.435366
20
2.442034
30
0
210
0
220
0
230
1
1
\W0.6740;20
40
3.5
41
0
44
1.084337
50
90
71
7
72
5
7
iso_b_vert
0
MTEXT
5
1A3
100
AcDbEntity
8
SK6
62
256
6
ByLayer
370
18
48
1
60
0
100
AcDbMText
10
-24.357946
20
-62.976721
30
0
210
0
220
0
230
1
1
\W0.7596;2F440-2000-400ASD   1725
40
3
41
0
44
1.084337
50
0
71
7
72
5
7
iso_b_vert
0
HATCH
5
18A
100
AcDbEntity
8
SK2
62
256
6
ByLayer
370
13
48
1
60
0
100
AcDbHatch
10
0
20
0
30
0
210
0
220
0
230
1
2
ANSI31
70
0
71
0
91
1
92
5
93
3
72
1
10
-78.25
20
-9.9999999999998
11
-78.7107837415527
21
-6.50000169255298
72
1
10
-78.7107837415527
20
-6.50000169255298
11
-77.7892162584472
21
-6.49999830744662
72
1
10
-77.7892162584472
20
-6.49999830744662
11
-78.25
21
-9.9999999999998
97
0
75
0
76
1
52
0
41
0.0062
77
0
78
1
53
45
43
0
44
0
45
-0.0139193969876572
46
0.0139193969876572
79
0
47
0
98
1
10
0
20
0
0
HATCH
5
18E
100
AcDbEntity
8
SK2
62
256
6
ByLayer
370
13
48
1
60
0
100
AcDbHatch
10
0
20
0
30
0
210
0
220
0
230
1
2
ANSI31
70
0
71
0
91
1
92
5
93
3
72
1
10
-78.25
20
10.0000000000002
11
-77.7892162584472
21
6.50000169255338
72
1
10
-77.7892162584472
20
6.50000169255338
11
-78.7107837415527
21
6.49999830744702
72
1
10
-78.7107837415527
20
6.49999830744702
11
-78.25
21
10.0000000000002
97
0
75
0
76
1
52
0
41
0.0062
77
0
78
1
53
45
43
0
44
0
45
-0.0139193969876572
46
0.0139193969876572
79
0
47
0
98
1
10
0
20
0
0
HATCH
5
194
100
AcDbEntity
8
SK2
62
256
6
ByLayer
370
13
48
1
60
0
100
AcDbHatch
10
0
20
0
30
0
210
0
220
0
230
1
2
ANSI31
70
0
71
0
91
1
92
5
93
3
72
1
10
7.75000000000003
20
-9.50000000000006
11
7.28921625844725
21
-6.00000169255324
72
1
10
7.28921625844725
20
-6.00000169255324
11
8.2107837415528
21
-5.99999830744687
72
1
10
8.2107837415528
20
-5.99999830744687
11
7.75000000000003
21
-9.50000000000006
97
0
75
0
76
1
52
0
41
0.0062
77
0
78
1
53
45
43
0
44
0
45
-0.0139193969876572
46
0.0139193969876572
79
0
47
0
98
1
10
0
20
0
0
HATCH
5
198
100
AcDbEntity
8
SK2
62
256
6
ByLayer
370
13
48
1
60
0
100
AcDbHatch
10
0
20
0
30
0
210
0
220
0
230
1
2
ANSI31
70
0
71
0
91
1
92
5
93
3
72
1
10
7.75000000000003
20
9.49999999999994
11
8.2107837415528
21
6.00000169255313
72
1
10
8.2107837415528
20
6.00000169255313
11
7.28921625844725
21
5.99999830744676
72
1
10
7.28921625844725
20
5.99999830744676
11
7.75000000000003
21
9.49999999999994
97
0
75
0
76
1
52
0
41
0.0062
77
0
78
1
53
45
43
0
44
0
45
-0.0139193969876572
46
0.0139193969876572
79
0
47
0
98
1
10
0
20
0
0
HATCH
5
19E
100
AcDbEntity
8
2
62
256
6
ByLayer
370
13
48
1
60
0
100
AcDbHatch
10
0
20
0
30
0
210
0
220
0
230
1
2
ANSI31
70
0
71
0
91
1
92
5
93
3
72
1
10
71
20
-10.0000000000002
11
70.5392162584472
21
-6.50000169255338
72
1
10
70.5392162584472
20
-6.50000169255338
11
71.4607837415528
21
-6.49999830744702
72
1
10
71.4607837415528
20
-6.49999830744702
11
71
21
-10.0000000000002
97
0
75
0
76
1
52
0
41
0.0062
77
0
78
1
53
45
43
0
44
0
45
-0.0139193969876572
46
0.0139193969876572
79
0
47
0
98
1
10
0
20
0
0
HATCH
5
1A2
100
AcDbEntity
8
2
62
256
6
ByLayer
370
13
48
1
60
0
100
AcDbHatch
10
0
20
0
30
0
210
0
220
0
230
1
2
ANSI31
70
0
71
0
91
1
92
5
93
3
72
1
10
71
20
9.9999999999998
11
71.4607837415528
21
6.50000169255298
72
1
10
71.4607837415528
20
6.50000169255298
11
70.5392162584472
21
6.49999830744662
72
1
10
70.5392162584472
20
6.49999830744662
11
71
21
9.9999999999998
97
0
75
0
76
1
52
0
41
0.0062
77
0
78
1
53
45
43
0
44
0
45
-0.0139193969876572
46
0.0139193969876572
79
0
47
0
98
1
10
0
20
0
0
DIMENSION
5
1A6
100
AcDbEntity
8
SK2
62
256
6
ByLayer
370
18
48
1
60
0
100
AcDbDimension
2
_U0
10
16
20
-20.245967
30
0
11
35
21
-20.245967
31
0
70
32
71
1
72
1
41
1
210
0
220
0
230
1
3
Standard
100
AcDbAlignedDimension
13
54
23
-10
33
0
14
16
24
-10
34
0
50
0
100
AcDbRotatedDimension
1001
ACAD
1000
DSTYLE
1002
{
1070
   371
1070
    13
1070
   372
1070
    13
1070
   170
1070
     0
1070
   144
1040
1.0
1070
   277
1070
     2
1070
   284
1070
     8
1070
   278
1070
    46
1070
   146
1040
1.0
1070
   345
1005
16
1070
   347
1005
16
1070
   346
1005
16
1070
   344
1005
0
1070
   343
1005
0
1070
   172
1070
     1
1070
    76
1070
     0
1070
    75
1070
     0
1070
   282
1070
     0
1070
   281
1070
     0
1070
    71
1070
     0
1070
    74
1070
     0
1070
   279
1070
     0
1070
   173
1070
     1
1070
   340
1005
184
1070
   271
1070
     2
1070
   272
1070
     2
1070
    77
1070
     1
1070
    73
1070
     1
1070
   171
1070
     3
1070
   274
1070
     4
1070
   177
1070
     2
1070
   176
1070
     2
1070
   178
1070
     2
1070
    78
1070
     8
1070
    48
1040
-0.1
1070
    41
1040
3.5
1070
   147
1040
1.75
1070
    42
1040
1.5875
1070
    44
1040
2.0
1070
   140
1040
3.5
1002
}
1001
ACAD_DSTYLE_DIM_LINETYPE
1070
   380
1005
16
1001
ACAD_DSTYLE_DIM_EXT1_LINETYPE
1070
   381
1005
16
1001
ACAD_DSTYLE_DIM_EXT2_LINETYPE
1070
   382
1005
16
0
DIMENSION
5
1BF
100
AcDbEntity
8
SK2
62
256
6
ByLayer
370
18
48
1
60
0
100
AcDbDimension
2
_U1
10
2
20
-33.245967
30
0
11
28
21
-33.245967
31
0
70
32
71
1
72
1
41
1
210
0
220
0
230
1
3
Standard
100
AcDbAlignedDimension
13
54
23
-10
33
0
14
2
24
-10
34
0
50
0
100
AcDbRotatedDimension
1001
ACAD
1000
DSTYLE
1002
{
1070
   371
1070
    13
1070
   372
1070
    13
1070
   170
1070
     0
1070
   144
1040
1.0
1070
   277
1070
     2
1070
   284
1070
     8
1070
   278
1070
    46
1070
   146
1040
1.0
1070
   345
1005
16
1070
   347
1005
16
1070
   346
1005
16
1070
   344
1005
0
1070
   343
1005
0
1070
   172
1070
     1
1070
    76
1070
     0
1070
    75
1070
     0
1070
   282
1070
     0
1070
   281
1070
     0
1070
    71
1070
     0
1070
    74
1070
     0
1070
   279
1070
     0
1070
   173
1070
     1
1070
   340
1005
184
1070
   271
1070
     2
1070
   272
1070
     2
1070
    77
1070
     1
1070
    73
1070
     1
1070
   171
1070
     3
1070
   274
1070
     4
1070
   177
1070
     2
1070
   176
1070
     2
1070
   178
1070
     2
1070
    78
1070
     8
1070
    48
1040
-0.1
1070
    41
1040
3.5
1070
   147
1040
1.75
1070
    42
1040
1.5875
1070
    44
1040
2.0
1070
   140
1040
3.5
1002
}
1001
ACAD_DSTYLE_DIM_LINETYPE
1070
   380
1005
16
1001
ACAD_DSTYLE_DIM_EXT1_LINETYPE
1070
   381
1005
16
1001
ACAD_DSTYLE_DIM_EXT2_LINETYPE
1070
   382
1005
16
0
DIMENSION
5
1D7
100
AcDbEntity
8
SK2
62
256
6
ByLayer
370
18
48
1
60
0
100
AcDbDimension
2
_U2
10
34
20
20.022297
30
0
11
44
21
20.022297
31
0
70
32
71
1
72
1
41
1
210
0
220
0
230
1
3
Standard
100
AcDbAlignedDimension
13
54
23
10
33
0
14
34
24
10
34
0
50
0
100
AcDbRotatedDimension
1001
ACAD
1000
DSTYLE
1002
{
1070
   371
1070
    13
1070
   372
1070
    13
1070
   170
1070
     0
1070
   144
1040
1.0
1070
   277
1070
     2
1070
   284
1070
     8
1070
   278
1070
    46
1070
   146
1040
1.0
1070
   345
1005
16
1070
   347
1005
16
1070
   346
1005
16
1070
   344
1005
0
1070
   343
1005
0
1070
   172
1070
     1
1070
    76
1070
     0
1070
    75
1070
     0
1070
   282
1070
     0
1070
   281
1070
     0
1070
    47
1040
2.0
1070
    72
1070
     0
1070
    71
1070
     1
1070
    74
1070
     0
1070
   279
1070
     0
1070
   173
1070
     1
1070
   340
1005
184
1070
   271
1070
     2
1070
   272
1070
     2
1070
    77
1070
     1
1070
    73
1070
     1
1070
   171
1070
     3
1070
   274
1070
     4
1070
   177
1070
     2
1070
   176
1070
     2
1070
   178
1070
     2
1070
    78
1070
     8
1070
    48
1040
2.0
1070
    41
1040
3.5
1070
   147
1040
1.75
1070
    42
1040
1.5875
1070
    44
1040
2.0
1070
   140
1040
3.5
1002
}
1001
ACAD_DSTYLE_DIM_LINETYPE
1070
   380
1005
16
1001
ACAD_DSTYLE_DIM_EXT1_LINETYPE
1070
   381
1005
16
1001
ACAD_DSTYLE_DIM_EXT2_LINETYPE
1070
   382
1005
16
0
DIMENSION
5
1F0
100
AcDbEntity
8
2
62
256
6
ByLayer
370
18
48
1
60
0
100
AcDbDimension
2
_U3
10
54
20
-45.245967
30
0
11
2
21
-45.245967
31
0
70
32
71
1
72
1
41
1
210
0
220
0
230
1
3
Standard
100
AcDbAlignedDimension
13
-50
23
-10
33
0
14
54
24
-10
34
0
50
0
100
AcDbRotatedDimension
1001
ACAD
1000
DSTYLE
1002
{
1070
   371
1070
    13
1070
   372
1070
    13
1070
   170
1070
     0
1070
   144
1040
1.0
1070
   277
1070
     2
1070
   284
1070
     8
1070
   278
1070
    46
1070
   146
1040
1.0
1070
   345
1005
16
1070
   347
1005
16
1070
   346
1005
16
1070
   344
1005
0
1070
   343
1005
0
1070
   172
1070
     1
1070
    76
1070
     0
1070
    75
1070
     0
1070
   282
1070
     0
1070
   281
1070
     0
1070
    71
1070
     0
1070
    74
1070
     0
1070
   279
1070
     0
1070
   173
1070
     1
1070
   340
1005
184
1070
   271
1070
     2
1070
   272
1070
     2
1070
    77
1070
     1
1070
    73
1070
     1
1070
   171
1070
     3
1070
   274
1070
     4
1070
   177
1070
     2
1070
   176
1070
     2
1070
   178
1070
     2
1070
    78
1070
     8
1070
    48
1040
-0.1
1070
    41
1040
3.5
1070
   147
1040
1.75
1070
    42
1040
1.5875
1070
    44
1040
2.0
1070
   140
1040
3.5
1002
}
1001
ACAD_DSTYLE_DIM_LINETYPE
1070
   380
1005
16
1001
ACAD_DSTYLE_DIM_EXT1_LINETYPE
1070
   381
1005
16
1001
ACAD_DSTYLE_DIM_EXT2_LINETYPE
1070
   382
1005
16
0
ENDSEC
0
SECTION
2
OBJECTS
0
DICTIONARY
5
278
330
0
100
AcDbDictionary
280
0
281
1
3
ACAD_GROUP
350
279
3
ACAD_MLINESTYLE
350
27a
0
DICTIONARY
5
279
330
0
100
AcDbDictionary
280
0
281
1
0
DICTIONARY
5
27a
330
0
100
AcDbDictionary
280
0
281
1
3
Standard
350
18
0
MLINESTYLE
5
18
330
27a
100
AcDbMlineStyle
2
Standard
70
0
3

62
256
51
90
52
90
71
2
49
-0.5
62
256
6
ByLayer
49
0.5
62
256
6
ByLayer
0
RASTERVARIABLES
5
266
330

100
AcDbRasterVariables
90
0
70
1
71
1
72
1
0
ENDSEC
0
EOF
