0
SECTION
2
HEADER
9
$ACADVER
1
AC1015
9
$DWGCODEPAGE
3
ANSI_1252
9
$HANDSEED
5
291
9
$ANGBASE
50
0
9
$ANGDIR
70
0
9
$ATTMODE
70
1
9
$AUNITS
70
0
9
$AUPREC
70
0
9
$CECOLOR
62
256
9
$CELTSCALE
40
1
9
$CELTYPE
6
ByLayer
9
$CELWEIGHT
370
18
9
$CLAYER
8
0
9
$CMLJUST
70
0
9
$CMLSCALE
40
1
9
$CMLSTYLE
2
Standard
9
$DIMSTYLE
2
Standard
9
$TEXTSIZE
40
0.2
9
$TEXTSTYLE
7
Standard
9
$LUNITS
70
2
9
$LUPREC
70
4
9
$EXTNAMES
290
1
9
$INSUNITS
70
4
9
$LTSCALE
40
1
9
$LWDISPLAY
290
1
9
$PDMODE
70
0
9
$PDSIZE
40
0
9
$PLINEGEN
70
0
0
ENDSEC
0
SECTION
2
CLASSES
0
CLASS
1
RASTERVARIABLES
2
AcDbRasterVariables
3
ISM
90
0
280
0
281
0
0
ENDSEC
0
SECTION
2
TABLES
0
TABLE
2
VPORT
5
287
100
AcDbSymbolTable
0
VPORT
5
1
100
AcDbSymbolTableRecord
100
AcDbViewportTableRecord
2
*Active
70
0
10
0
20
0
11
1
21
1
12
-1
22
1
13
0
23
0
14
0.5
24
0.5
15
10
25
10
16
0
26
0
36
1
17
0
27
0
37
0
0
ENDTAB
0
TABLE
2
LTYPE
5
288
100
AcDbSymbolTable
0
LTYPE
5
14
100
AcDbSymbolTableRecord
100
AcDbLinetypeTableRecord
70
0
2
ByBlock
3

72
65
73
0
40
0
0
LTYPE
5
15
100
AcDbSymbolTableRecord
100
AcDbLinetypeTableRecord
70
0
2
ByLayer
3

72
65
73
0
40
0
0
LTYPE
5
16
100
AcDbSymbolTableRecord
100
AcDbLinetypeTableRecord
70
0
2
Continuous
3
Solid line
72
65
73
0
40
0
0
LTYPE
5
6E
100
AcDbSymbolTableRecord
100
AcDbLinetypeTableRecord
70
0
2
CENTER
3
____ _ ____ _ ____ _ ____
72
65
73
4
40
47.5
49
22
74
0
49
-8.5
74
0
49
8.5
74
0
49
-8.5
74
0
0
LTYPE
5
6F
100
AcDbSymbolTableRecord
100
AcDbLinetypeTableRecord
70
0
2
DASHED
3
__ __ __ __ __ __ __ __ __
72
65
73
2
40
25.72
49
12.86
74
0
49
-12.86
74
0
0
ENDTAB
0
TABLE
2
LAYER
5
289
100
AcDbSymbolTable
0
LAYER
5
10
100
AcDbSymbolTableRecord
100
AcDbLayerTableRecord
2
0
70
0
62
7
6
Continuous
290
1
370
-3
390
0
0
LAYER
5
71
100
AcDbSymbolTableRecord
100
AcDbLayerTableRecord
2
80
70
0
62
-6
6
Continuous
290
1
370
-3
390
0
0
LAYER
5
73
100
AcDbSymbolTableRecord
100
AcDbLayerTableRecord
2
81
70
0
62
-3
6
Continuous
290
1
370
-3
390
0
0
LAYER
5
77
100
AcDbSymbolTableRecord
100
AcDbLayerTableRecord
2
1
70
0
62
4
6
Continuous
290
1
370
-3
390
0
0
LAYER
5
84
100
AcDbSymbolTableRecord
100
AcDbLayerTableRecord
2
4
70
0
62
-2
6
CENTER
290
1
370
-3
390
0
0
LAYER
5
CF
100
AcDbSymbolTableRecord
100
AcDbLayerTableRecord
2
2
70
0
62
7
6
Continuous
290
1
370
-3
390
0
0
LAYER
5
1B4
100
AcDbSymbolTableRecord
100
AcDbLayerTableRecord
2
Defpoints
70
0
62
7
6
Continuous
290
0
370
-3
390
0
0
LAYER
5
273
100
AcDbSymbolTableRecord
100
AcDbLayerTableRecord
2
SK4
70
0
62
2
6
CENTER
290
1
370
-3
390
0
0
LAYER
5
274
100
AcDbSymbolTableRecord
100
AcDbLayerTableRecord
2
SK1
70
0
62
4
6
Continuous
290
1
370
-3
390
0
0
LAYER
5
275
100
AcDbSymbolTableRecord
100
AcDbLayerTableRecord
2
SK2
70
0
62
7
6
Continuous
290
1
370
-3
390
0
0
LAYER
5
276
100
AcDbSymbolTableRecord
100
AcDbLayerTableRecord
2
SK6
70
0
62
5
6
Continuous
290
1
370
-3
390
0
0
ENDTAB
0
TABLE
2
STYLE
5
28a
100
AcDbSymbolTable
0
STYLE
5
11
100
AcDbSymbolTableRecord
100
AcDbTextStyleTableRecord
2
Standard
3
txt
70
0
71
0
40
0
41
1
42
0
50
0
0
STYLE
5
18F
100
AcDbSymbolTableRecord
100
AcDbTextStyleTableRecord
2
iso_b_vert
3
simplex.shx
70
0
71
0
40
0
41
1
42
0
50
0
0
STYLE
5
190
100
AcDbSymbolTableRecord
100
AcDbTextStyleTableRecord
2
DWGDirectTextStyle
3
simplex
70
0
71
0
40
0
41
1
42
0
50
0
0
ENDTAB
0
TABLE
2
DIMSTYLE
5
28b
100
AcDbSymbolTable
100
AcDbDimStyleTable
0
DIMSTYLE
105
27
100
AcDbSymbolTableRecord
100
AcDbDimStyleTableRecord
2
Standard
70
0
3
<>
41
0.18
42
0.0625
44
0.18
140
0.18
147
0.09
73
0
74
0
77
1
271
2
275
0
278
52
280
0
340
11
0
ENDTAB
0
TABLE
2
VIEW
5
28c
100
AcDbSymbolTable
0
ENDTAB
0
TABLE
2
UCS
5
28d
100
AcDbSymbolTable
0
ENDTAB
0
TABLE
2
APPID
5
28e
100
AcDbSymbolTable
0
APPID
5
12
100
AcDbSymbolTableRecord
100
AcDbRegAppTableRecord
2
ACAD
70
0
0
APPID
5
1B0
100
AcDbSymbolTableRecord
100
AcDbRegAppTableRecord
2
ACAD_DSTYLE_DIMBREAK
70
0
0
APPID
5
232
100
AcDbSymbolTableRecord
100
AcDbRegAppTableRecord
2
ACAD_DSTYLE_DIM_LINETYPE
70
0
0
APPID
5
233
100
AcDbSymbolTableRecord
100
AcDbRegAppTableRecord
2
ACAD_DSTYLE_DIM_EXT1_LINETYPE
70
0
0
APPID
5
234
100
AcDbSymbolTableRecord
100
AcDbRegAppTableRecord
2
ACAD_DSTYLE_DIM_EXT2_LINETYPE
70
0
0
APPID
5
26F
100
AcDbSymbolTableRecord
100
AcDbRegAppTableRecord
2
ACAD_MLEADERVER
70
0
0
ENDTAB
0
TABLE
2
BLOCK_RECORD
5
28f
100
AcDbSymbolTable
0
BLOCK_RECORD
5
1F
100
AcDbSymbolTableRecord
100
AcDbBlockTableRecord
2
*Model_Space
340
0
70
0
0
BLOCK_RECORD
5
1B
100
AcDbSymbolTableRecord
100
AcDbBlockTableRecord
2
*Paper_Space
340
0
70
0
0
BLOCK_RECORD
5
23
100
AcDbSymbolTableRecord
100
AcDbBlockTableRecord
2
*Paper_Space0
340
0
70
0
0
BLOCK_RECORD
5
1B5
100
AcDbSymbolTableRecord
100
AcDbBlockTableRecord
2
*D1
340
0
70
0
0
BLOCK_RECORD
5
1C1
100
AcDbSymbolTableRecord
100
AcDbBlockTableRecord
2
_U0
340
0
70
0
0
BLOCK_RECORD
5
1CD
100
AcDbSymbolTableRecord
100
AcDbBlockTableRecord
2
*D3
340
0
70
0
0
BLOCK_RECORD
5
1D9
100
AcDbSymbolTableRecord
100
AcDbBlockTableRecord
2
_U1
340
0
70
0
0
BLOCK_RECORD
5
1E5
100
AcDbSymbolTableRecord
100
AcDbBlockTableRecord
2
*D5
340
0
70
0
0
BLOCK_RECORD
5
1F2
100
AcDbSymbolTableRecord
100
AcDbBlockTableRecord
2
_U2
340
0
70
0
0
BLOCK_RECORD
5
1FF
100
AcDbSymbolTableRecord
100
AcDbBlockTableRecord
2
*D7
340
0
70
0
0
BLOCK_RECORD
5
20B
100
AcDbSymbolTableRecord
100
AcDbBlockTableRecord
2
_U3
340
0
70
0
0
ENDTAB
0
ENDSEC
0
SECTION
2
BLOCKS
0
BLOCK
5
20
100
AcDbEntity
8
0
100
AcDbBlockBegin
2
*Model_Space
70
0
10
0
20
0
30
0
3
*Model_Space
0
ENDBLK
5
21
100
AcDbEntity
8
0
100
AcDbBlockEnd
0
BLOCK
5
1C
100
AcDbEntity
8
0
100
AcDbBlockBegin
2
*Paper_Space
70
0
10
0
20
0
30
0
3
*Paper_Space
0
ENDBLK
5
1D
100
AcDbEntity
8
0
100
AcDbBlockEnd
0
BLOCK
5
24
100
AcDbEntity
8
0
100
AcDbBlockBegin
2
*Paper_Space0
70
0
10
0
20
0
30
0
3
*Paper_Space0
0
ENDBLK
5
25
100
AcDbEntity
8
0
100
AcDbBlockEnd
0
BLOCK
5
1B6
100
AcDbEntity
8
0
100
AcDbBlockBegin
2
*D1
70
1
10
0
20
0
30
0
3
*D1
0
LINE
5
1B8
100
AcDbEntity
8
0
62
256
6
ByLayer
370
-2
48
1
60
0
100
AcDbLine
10
46.85
20
-9.525
30
0
11
46.85
21
-18.731615
31
0
39
0
210
0
220
0
230
1
0
LINE
5
1B9
100
AcDbEntity
8
0
62
256
6
ByLayer
370
-2
48
1
60
0
100
AcDbLine
10
13.51
20
-9.525
30
0
11
13.51
21
-18.731615
31
0
39
0
210
0
220
0
230
1
0
LINE
5
1BA
100
AcDbEntity
8
0
62
256
6
ByLayer
370
-2
48
1
60
0
100
AcDbLine
10
43.35
20
-16.731615
30
0
11
17.01
21
-16.731615
31
0
39
0
210
0
220
0
230
1
0
SOLID
5
1BB
100
AcDbEntity
8
0
62
256
6
ByLayer
370
-1
48
1
60
0
100
AcDbTrace
10
43.35
20
-17.314948
30
0
11
43.35
21
-16.148282
31
0
12
46.85
22
-16.731615
32
0
13
46.85
23
-16.731615
33
0
39
0
210
0
220
0
230
1
0
SOLID
5
1BC
100
AcDbEntity
8
0
62
256
6
ByLayer
370
-1
48
1
60
0
100
AcDbTrace
10
17.01
20
-16.148282
30
0
11
17.01
21
-17.314948
31
0
12
13.51
22
-16.731615
32
0
13
13.51
23
-16.731615
33
0
39
0
210
0
220
0
230
1
0
MTEXT
5
1BD
100
AcDbEntity
8
0
62
256
6
ByLayer
370
18
48
1
60
0
100
AcDbMText
10
30.18
20
-9.731615
30
0
210
0
220
0
230
1
1
\A1;33.34
40
3.5
41
0
44
1
50
0
71
5
72
5
7
iso_b_vert
0
POINT
5
1BE
100
AcDbEntity
8
Defpoints
62
0
6
ByLayer
370
-1
48
1
60
0
100
AcDbPoint
10
46.85
20
-7.9375
30
0
39
0
210
0
220
0
230
1
50
360
0
POINT
5
1BF
100
AcDbEntity
8
Defpoints
62
0
6
ByLayer
370
-1
48
1
60
0
100
AcDbPoint
10
13.51
20
-7.9375
30
0
39
0
210
0
220
0
230
1
50
360
0
POINT
5
1C0
100
AcDbEntity
8
Defpoints
62
0
6
ByLayer
370
-1
48
1
60
0
100
AcDbPoint
10
13.51
20
-16.731615
30
0
39
0
210
0
220
0
230
1
50
360
0
ENDBLK
5
1B7
100
AcDbEntity
8
0
100
AcDbBlockEnd
0
BLOCK
5
1C8
100
AcDbEntity
8
0
100
AcDbBlockBegin
2
_U0
70
0
10
0
20
0
30
0
3
_U0
0
MTEXT
5
1C2
100
AcDbEntity
8
SK2
62
256
6
ByLayer
370
18
48
1
60
0
100
AcDbMText
10
24.766301
20
-15.698982
30
0
210
0
220
0
230
1
1
\W0.7607;33.34
40
3.5
41
0
44
1.084337
50
0
71
7
72
5
7
iso_b_vert
0
LINE
5
1C3
100
AcDbEntity
8
SK2
62
256
6
ByLayer
370
13
48
1
60
0
100
AcDbLine
10
46.85
20
-9.525
30
0
11
46.85
21
-18.731615
31
0
39
0
210
0
220
0
230
1
0
LINE
5
1C4
100
AcDbEntity
8
SK2
62
256
6
ByLayer
370
13
48
1
60
0
100
AcDbLine
10
13.51
20
-9.525
30
0
11
13.51
21
-18.731615
31
0
39
0
210
0
220
0
230
1
0
LINE
5
1C5
100
AcDbEntity
8
SK2
62
256
6
ByLayer
370
13
48
1
60
0
100
AcDbLine
10
46.85
20
-16.731615
30
0
11
13.51
21
-16.731615
31
0
39
0
210
0
220
0
230
1
0
SOLID
5
1C6
100
AcDbEntity
8
SK2
62
256
6
ByLayer
370
18
48
1
60
0
100
AcDbTrace
10
46.85
20
-16.731615
30
0
11
43.350002
21
-17.192399
31
0
12
43.349998
22
-16.270831
32
0
13
43.349998
23
-16.270831
33
0
39
0
210
0
220
0
230
1
0
SOLID
5
1C7
100
AcDbEntity
8
SK2
62
256
6
ByLayer
370
18
48
1
60
0
100
AcDbTrace
10
13.51
20
-16.731615
30
0
11
17.009998
21
-16.270831
31
0
12
17.010002
22
-17.192399
32
0
13
17.010002
23
-17.192399
33
0
39
0
210
0
220
0
230
1
0
ENDBLK
5
1C9
100
AcDbEntity
8
0
100
AcDbBlockEnd
0
BLOCK
5
1CE
100
AcDbEntity
8
0
100
AcDbBlockBegin
2
*D3
70
1
10
0
20
0
30
0
3
*D3
0
LINE
5
1D0
100
AcDbEntity
8
0
62
256
6
ByLayer
370
-2
48
1
60
0
100
AcDbLine
10
46.85
20
-9.525
30
0
11
46.85
21
-31.731615
31
0
39
0
210
0
220
0
230
1
0
LINE
5
1D1
100
AcDbEntity
8
0
62
256
6
ByLayer
370
-2
48
1
60
0
100
AcDbLine
10
7.16
20
-9.525
30
0
11
7.16
21
-31.731615
31
0
39
0
210
0
220
0
230
1
0
LINE
5
1D2
100
AcDbEntity
8
0
62
256
6
ByLayer
370
-2
48
1
60
0
100
AcDbLine
10
43.35
20
-29.731615
30
0
11
10.66
21
-29.731615
31
0
39
0
210
0
220
0
230
1
0
SOLID
5
1D3
100
AcDbEntity
8
0
62
256
6
ByLayer
370
-1
48
1
60
0
100
AcDbTrace
10
43.35
20
-30.314948
30
0
11
43.35
21
-29.148282
31
0
12
46.85
22
-29.731615
32
0
13
46.85
23
-29.731615
33
0
39
0
210
0
220
0
230
1
0
SOLID
5
1D4
100
AcDbEntity
8
0
62
256
6
ByLayer
370
-1
48
1
60
0
100
AcDbTrace
10
10.66
20
-29.148282
30
0
11
10.66
21
-30.314948
31
0
12
7.16
22
-29.731615
32
0
13
7.16
23
-29.731615
33
0
39
0
210
0
220
0
230
1
0
MTEXT
5
1D5
100
AcDbEntity
8
0
62
256
6
ByLayer
370
18
48
1
60
0
100
AcDbMText
10
27.005
20
-22.731615
30
0
210
0
220
0
230
1
1
\A1;39.69
40
3.5
41
0
44
1
50
0
71
5
72
5
7
iso_b_vert
0
POINT
5
1D6
100
AcDbEntity
8
Defpoints
62
0
6
ByLayer
370
-1
48
1
60
0
100
AcDbPoint
10
46.85
20
-7.9375
30
0
39
0
210
0
220
0
230
1
50
360
0
POINT
5
1D7
100
AcDbEntity
8
Defpoints
62
0
6
ByLayer
370
-1
48
1
60
0
100
AcDbPoint
10
7.16
20
-7.9375
30
0
39
0
210
0
220
0
230
1
50
360
0
POINT
5
1D8
100
AcDbEntity
8
Defpoints
62
0
6
ByLayer
370
-1
48
1
60
0
100
AcDbPoint
10
7.16
20
-29.731615
30
0
39
0
210
0
220
0
230
1
50
360
0
ENDBLK
5
1CF
100
AcDbEntity
8
0
100
AcDbBlockEnd
0
BLOCK
5
1E0
100
AcDbEntity
8
0
100
AcDbBlockBegin
2
_U1
70
0
10
0
20
0
30
0
3
_U1
0
MTEXT
5
1DA
100
AcDbEntity
8
SK2
62
256
6
ByLayer
370
18
48
1
60
0
100
AcDbMText
10
21.775568
20
-28.698982
30
0
210
0
220
0
230
1
1
\W0.7555;39.69
40
3.5
41
0
44
1.084337
50
0
71
7
72
5
7
iso_b_vert
0
LINE
5
1DB
100
AcDbEntity
8
SK2
62
256
6
ByLayer
370
13
48
1
60
0
100
AcDbLine
10
46.85
20
-9.525
30
0
11
46.85
21
-31.731615
31
0
39
0
210
0
220
0
230
1
0
LINE
5
1DC
100
AcDbEntity
8
SK2
62
256
6
ByLayer
370
13
48
1
60
0
100
AcDbLine
10
7.16
20
-9.525
30
0
11
7.16
21
-31.731615
31
0
39
0
210
0
220
0
230
1
0
LINE
5
1DD
100
AcDbEntity
8
SK2
62
256
6
ByLayer
370
13
48
1
60
0
100
AcDbLine
10
46.85
20
-29.731615
30
0
11
7.16
21
-29.731615
31
0
39
0
210
0
220
0
230
1
0
SOLID
5
1DE
100
AcDbEntity
8
SK2
62
256
6
ByLayer
370
18
48
1
60
0
100
AcDbTrace
10
46.85
20
-29.731615
30
0
11
43.350002
21
-30.192399
31
0
12
43.349998
22
-29.270831
32
0
13
43.349998
23
-29.270831
33
0
39
0
210
0
220
0
230
1
0
SOLID
5
1DF
100
AcDbEntity
8
SK2
62
256
6
ByLayer
370
18
48
1
60
0
100
AcDbTrace
10
7.16
20
-29.731615
30
0
11
10.659998
21
-29.270831
31
0
12
10.660002
22
-30.192399
32
0
13
10.660002
23
-30.192399
33
0
39
0
210
0
220
0
230
1
0
ENDBLK
5
1E1
100
AcDbEntity
8
0
100
AcDbBlockEnd
0
BLOCK
5
1E6
100
AcDbEntity
8
0
100
AcDbBlockBegin
2
*D5
70
1
10
0
20
0
30
0
3
*D5
0
LINE
5
1E8
100
AcDbEntity
8
0
62
256
6
ByLayer
370
-2
48
1
60
0
100
AcDbLine
10
46.85
20
9.525
30
0
11
46.85
21
20.231615
31
0
39
0
210
0
220
0
230
1
0
LINE
5
1E9
100
AcDbEntity
8
0
62
256
6
ByLayer
370
-2
48
1
60
0
100
AcDbLine
10
30.975
20
9.525
30
0
11
30.975
21
20.231615
31
0
39
0
210
0
220
0
230
1
0
LINE
5
1EA
100
AcDbEntity
8
0
62
256
6
ByLayer
370
-2
48
1
60
0
100
AcDbLine
10
50.35
20
18.231615
30
0
11
53.85
21
18.231615
31
0
39
0
210
0
220
0
230
1
0
LINE
5
1EB
100
AcDbEntity
8
0
62
256
6
ByLayer
370
-2
48
1
60
0
100
AcDbLine
10
27.475
20
18.231615
30
0
11
23.975
21
18.231615
31
0
39
0
210
0
220
0
230
1
0
SOLID
5
1EC
100
AcDbEntity
8
0
62
256
6
ByLayer
370
-1
48
1
60
0
100
AcDbTrace
10
50.35
20
18.814948
30
0
11
50.35
21
17.648282
31
0
12
46.85
22
18.231615
32
0
13
46.85
23
18.231615
33
0
39
0
210
0
220
0
230
1
0
SOLID
5
1ED
100
AcDbEntity
8
0
62
256
6
ByLayer
370
-1
48
1
60
0
100
AcDbTrace
10
27.475
20
17.648282
30
0
11
27.475
21
18.814948
31
0
12
30.975
22
18.231615
32
0
13
30.975
23
18.231615
33
0
39
0
210
0
220
0
230
1
0
MTEXT
5
1EE
100
AcDbEntity
8
0
62
256
6
ByLayer
370
18
48
1
60
0
100
AcDbMText
10
38.9125
20
25.231615
30
0
210
0
220
0
230
1
1
\A1;15.88
40
3.5
41
0
44
1
50
0
71
5
72
5
7
iso_b_vert
0
POINT
5
1EF
100
AcDbEntity
8
Defpoints
62
0
6
ByLayer
370
-1
48
1
60
0
100
AcDbPoint
10
46.85
20
7.9375
30
0
39
0
210
0
220
0
230
1
50
360
0
POINT
5
1F0
100
AcDbEntity
8
Defpoints
62
0
6
ByLayer
370
-1
48
1
60
0
100
AcDbPoint
10
30.975
20
7.9375
30
0
39
0
210
0
220
0
230
1
50
360
0
POINT
5
1F1
100
AcDbEntity
8
Defpoints
62
0
6
ByLayer
370
-1
48
1
60
0
100
AcDbPoint
10
30.975
20
18.231615
30
0
39
0
210
0
220
0
230
1
50
360
0
ENDBLK
5
1E7
100
AcDbEntity
8
0
100
AcDbBlockEnd
0
BLOCK
5
1FA
100
AcDbEntity
8
0
100
AcDbBlockBegin
2
_U2
70
0
10
0
20
0
30
0
3
_U2
0
MTEXT
5
1F3
100
AcDbEntity
8
SK2
62
256
6
ByLayer
370
18
48
1
60
0
100
AcDbMText
10
26.425735
20
19.264249
30
0
210
0
220
0
230
1
1
\W0.6864;15.88
40
3.5
41
0
44
1.084337
50
0
71
7
72
5
7
iso_b_vert
0
MTEXT
5
1F4
100
AcDbEntity
8
SK2
62
256
6
ByLayer
370
18
48
1
60
0
100
AcDbMText
10
39.880733
20
19.264249
30
0
210
0
220
0
230
1
1
\W0.7739;\W0.3870;%%p\W0.7739;1.59
40
3.5
41
0
44
1.084337
50
0
71
7
72
5
7
iso_b_vert
0
LINE
5
1F5
100
AcDbEntity
8
SK2
62
256
6
ByLayer
370
13
48
1
60
0
100
AcDbLine
10
46.85
20
9.525
30
0
11
46.85
21
20.231615
31
0
39
0
210
0
220
0
230
1
0
LINE
5
1F6
100
AcDbEntity
8
SK2
62
256
6
ByLayer
370
13
48
1
60
0
100
AcDbLine
10
30.975
20
9.525
30
0
11
30.975
21
20.231615
31
0
39
0
210
0
220
0
230
1
0
LINE
5
1F7
100
AcDbEntity
8
SK2
62
256
6
ByLayer
370
13
48
1
60
0
100
AcDbLine
10
26.240235
20
18.231615
30
0
11
51.584765
21
18.231615
31
0
39
0
210
0
220
0
230
1
0
SOLID
5
1F8
100
AcDbEntity
8
SK2
62
256
6
ByLayer
370
18
48
1
60
0
100
AcDbTrace
10
46.85
20
18.231615
30
0
11
43.350002
21
17.770831
31
0
12
43.349998
22
18.692399
32
0
13
43.349998
23
18.692399
33
0
39
0
210
0
220
0
230
1
0
SOLID
5
1F9
100
AcDbEntity
8
SK2
62
256
6
ByLayer
370
18
48
1
60
0
100
AcDbTrace
10
30.975
20
18.231615
30
0
11
34.474998
21
18.692399
31
0
12
34.475002
22
17.770831
32
0
13
34.475002
23
17.770831
33
0
39
0
210
0
220
0
230
1
0
ENDBLK
5
1FB
100
AcDbEntity
8
0
100
AcDbBlockEnd
0
BLOCK
5
200
100
AcDbEntity
8
0
100
AcDbBlockBegin
2
*D7
70
1
10
0
20
0
30
0
3
*D7
0
LINE
5
202
100
AcDbEntity
8
0
62
256
6
ByLayer
370
-2
48
1
60
0
100
AcDbLine
10
-48.4
20
-9.525
30
0
11
-48.4
21
-43.731615
31
0
39
0
210
0
220
0
230
1
0
LINE
5
203
100
AcDbEntity
8
0
62
256
6
ByLayer
370
-2
48
1
60
0
100
AcDbLine
10
46.85
20
-9.525
30
0
11
46.85
21
-43.731615
31
0
39
0
210
0
220
0
230
1
0
LINE
5
204
100
AcDbEntity
8
0
62
256
6
ByLayer
370
-2
48
1
60
0
100
AcDbLine
10
-44.9
20
-41.731615
30
0
11
43.35
21
-41.731615
31
0
39
0
210
0
220
0
230
1
0
SOLID
5
205
100
AcDbEntity
8
0
62
256
6
ByLayer
370
-1
48
1
60
0
100
AcDbTrace
10
-44.9
20
-41.148282
30
0
11
-44.9
21
-42.314948
31
0
12
-48.4
22
-41.731615
32
0
13
-48.4
23
-41.731615
33
0
39
0
210
0
220
0
230
1
0
SOLID
5
206
100
AcDbEntity
8
0
62
256
6
ByLayer
370
-1
48
1
60
0
100
AcDbTrace
10
43.35
20
-42.314948
30
0
11
43.35
21
-41.148282
31
0
12
46.85
22
-41.731615
32
0
13
46.85
23
-41.731615
33
0
39
0
210
0
220
0
230
1
0
MTEXT
5
207
100
AcDbEntity
8
0
62
256
6
ByLayer
370
18
48
1
60
0
100
AcDbMText
10
-0.775
20
-34.731615
30
0
210
0
220
0
230
1
1
\A1;95.25
40
3.5
41
0
44
1
50
0
71
5
72
5
7
iso_b_vert
0
POINT
5
208
100
AcDbEntity
8
Defpoints
62
0
6
ByLayer
370
-1
48
1
60
0
100
AcDbPoint
10
-48.4
20
-7.9375
30
0
39
0
210
0
220
0
230
1
50
360
0
POINT
5
209
100
AcDbEntity
8
Defpoints
62
0
6
ByLayer
370
-1
48
1
60
0
100
AcDbPoint
10
46.85
20
-7.9375
30
0
39
0
210
0
220
0
230
1
50
360
0
POINT
5
20A
100
AcDbEntity
8
Defpoints
62
0
6
ByLayer
370
-1
48
1
60
0
100
AcDbPoint
10
46.85
20
-41.731615
30
0
39
0
210
0
220
0
230
1
50
360
0
ENDBLK
5
201
100
AcDbEntity
8
0
100
AcDbBlockEnd
0
BLOCK
5
212
100
AcDbEntity
8
0
100
AcDbBlockBegin
2
_U3
70
0
10
0
20
0
30
0
3
_U3
0
MTEXT
5
20C
100
AcDbEntity
8
2
62
256
6
ByLayer
370
18
48
1
60
0
100
AcDbMText
10
-6.004432
20
-40.698982
30
0
210
0
220
0
230
1
1
\W0.7468;95.25
40
3.5
41
0
44
1.084337
50
0
71
7
72
5
7
iso_b_vert
0
LINE
5
20D
100
AcDbEntity
8
2
62
256
6
ByLayer
370
13
48
1
60
0
100
AcDbLine
10
-48.4
20
-9.525
30
0
11
-48.4
21
-43.731615
31
0
39
0
210
0
220
0
230
1
0
LINE
5
20E
100
AcDbEntity
8
2
62
256
6
ByLayer
370
13
48
1
60
0
100
AcDbLine
10
46.85
20
-9.525
30
0
11
46.85
21
-43.731615
31
0
39
0
210
0
220
0
230
1
0
LINE
5
20F
100
AcDbEntity
8
2
62
256
6
ByLayer
370
13
48
1
60
0
100
AcDbLine
10
-48.4
20
-41.731615
30
0
11
46.85
21
-41.731615
31
0
39
0
210
0
220
0
230
1
0
SOLID
5
210
100
AcDbEntity
8
2
62
256
6
ByLayer
370
18
48
1
60
0
100
AcDbTrace
10
-48.4
20
-41.731615
30
0
11
-44.900002
21
-41.270831
31
0
12
-44.899998
22
-42.192399
32
0
13
-44.899998
23
-42.192399
33
0
39
0
210
0
220
0
230
1
0
SOLID
5
211
100
AcDbEntity
8
2
62
256
6
ByLayer
370
18
48
1
60
0
100
AcDbTrace
10
46.85
20
-41.731615
30
0
11
43.350002
21
-42.192399
31
0
12
43.349998
22
-41.270831
32
0
13
43.349998
23
-41.270831
33
0
39
0
210
0
220
0
230
1
0
ENDBLK
5
213
100
AcDbEntity
8
0
100
AcDbBlockEnd
0
ENDSEC
0
SECTION
2
ENTITIES
0
ARC
5
D8
100
AcDbEntity
8
1
62
256
6
ByLayer
370
18
48
1
60
0
100
AcDbCircle
39
0
10
12.285611
20
-9.54
30
0
40
2
210
0
220
0
230
1
100
AcDbArc
50
60
51
73.474687
0
ARC
5
D9
100
AcDbEntity
8
1
62
256
6
ByLayer
370
18
48
1
60
0
100
AcDbCircle
39
0
10
7.155358
20
9.54
30
0
40
2
210
0
220
0
230
1
100
AcDbArc
50
240
51
270
0
ARC
5
DA
100
AcDbEntity
8
1
62
256
6
ByLayer
370
18
48
1
60
0
100
AcDbCircle
39
0
10
7.155358
20
-9.54
30
0
40
2
210
0
220
0
230
1
100
AcDbArc
50
90
51
120
0
ELLIPSE
5
DB
100
AcDbEntity
8
1
62
256
6
ByLayer
370
18
48
1
60
0
100
AcDbEllipse
10
46.003228
20
0.36093
30
0
11
0.225593215919962
21
0.838481451502962
31
0
210
0
220
0
230
1
40
0.506867
41
3.03795539575487
42
-2.86758379659438
0
ELLIPSE
5
DC
100
AcDbEntity
8
1
62
256
6
ByLayer
370
18
48
1
60
0
100
AcDbEllipse
10
45.303933
20
0
30
0
11
0.737938622550719
21
1.20855407809606
31
0
210
0
220
0
230
1
40
0.432574
41
-2.12414214550846
42
-1.69047528471126
0
ELLIPSE
5
DD
100
AcDbEntity
8
1
62
256
6
ByLayer
370
18
48
1
60
0
100
AcDbEllipse
10
45.986718
20
-1.004812
30
0
11
0.334335286106686
21
-0.949218468894626
31
0
210
0
220
0
230
1
40
0.354386
41
-1.55275012736586
42
-1.08929125385898
0
ELLIPSE
5
DE
100
AcDbEntity
8
1
62
256
6
ByLayer
370
18
48
1
60
0
100
AcDbEllipse
10
45.303933
20
0
30
0
11
0.786754884496184
21
-1.21625745667561
31
0
210
0
220
0
230
1
40
0.366664
41
-1.26024448903293
42
-0.654750951327263
0
POINT
5
70
100
AcDbEntity
8
80
62
256
6
ByLayer
370
18
48
1
60
0
100
AcDbPoint
10
0
20
0
30
0
39
0
210
0
220
0
230
1
50
360
0
POINT
5
72
100
AcDbEntity
8
81
62
256
6
ByLayer
370
18
48
1
60
0
100
AcDbPoint
10
-48.4
20
0
30
0
39
0
210
0
220
0
230
1
50
360
0
POINT
5
74
100
AcDbEntity
8
81
62
256
6
ByLayer
370
18
48
1
60
0
100
AcDbPoint
10
46.85
20
0
30
0
39
0
210
0
220
0
230
1
50
360
0
POINT
5
75
100
AcDbEntity
8
81
62
256
6
ByLayer
370
18
48
1
60
0
100
AcDbPoint
10
46.85
20
0
30
0
39
0
210
0
220
0
230
1
50
360
0
POINT
5
76
100
AcDbEntity
8
1
62
256
6
ByLayer
370
18
48
1
60
1
100
AcDbPoint
10
46.85
20
-7.9375
30
0
39
0
210
0
220
0
230
1
50
360
0
POINT
5
78
100
AcDbEntity
8
1
62
256
6
ByLayer
370
18
48
1
60
1
100
AcDbPoint
10
13.51
20
-7.9375
30
0
39
0
210
0
220
0
230
1
50
360
0
POINT
5
79
100
AcDbEntity
8
1
62
256
6
ByLayer
370
18
48
1
60
1
100
AcDbPoint
10
46.85
20
-7.9375
30
0
39
0
210
0
220
0
230
1
50
360
0
POINT
5
7A
100
AcDbEntity
8
1
62
256
6
ByLayer
370
18
48
1
60
1
100
AcDbPoint
10
7.16
20
-7.9375
30
0
39
0
210
0
220
0
230
1
50
360
0
POINT
5
7B
100
AcDbEntity
8
1
62
256
6
ByLayer
370
18
48
1
60
1
100
AcDbPoint
10
46.85
20
7.9375
30
0
39
0
210
0
220
0
230
1
50
360
0
POINT
5
7C
100
AcDbEntity
8
1
62
256
6
ByLayer
370
18
48
1
60
1
100
AcDbPoint
10
30.975
20
7.9375
30
0
39
0
210
0
220
0
230
1
50
360
0
POINT
5
7D
100
AcDbEntity
8
1
62
256
6
ByLayer
370
18
48
1
60
1
100
AcDbPoint
10
-48.4
20
-7.9375
30
0
39
0
210
0
220
0
230
1
50
360
0
POINT
5
7E
100
AcDbEntity
8
1
62
256
6
ByLayer
370
18
48
1
60
1
100
AcDbPoint
10
46.85
20
-7.9375
30
0
39
0
210
0
220
0
230
1
50
360
0
SPLINE
5
DF
100
AcDbEntity
8
1
62
256
6
ByLayer
370
18
48
1
60
0
100
AcDbSpline
70
4
71
3
72
20
73
16
40
0
40
0
40
0
40
0
40
0.103562580777981
40
0.103562580777981
40
0.207125161555962
40
0.207125161555962
40
0.414250323111931
40
0.414250323111931
40
0.6213754846679
40
0.6213754846679
40
0.724938065445884
40
0.724938065445884
40
0.828500646223868
40
0.828500646223868
40
1
40
1
40
1
40
1
41
1
10
46.6438716756851
20
-1.27530245507319
30
0
41
1
10
46.6352912171103
20
-1.30722271815131
30
0
41
1
10
46.6263242515616
20
-1.34029791612508
30
0
41
1
10
46.6077676886937
20
-1.40830881966366
30
0
41
1
10
46.5981773556336
20
-1.44324672372142
30
0
41
1
10
46.5686287827709
20
-1.55038393078738
30
0
41
1
10
46.5479008927053
20
-1.624883052444
30
0
41
1
10
46.504931679107
20
-1.77840363879739
30
0
41
1
10
46.4826854275303
20
-1.85743982915332
30
0
41
1
10
46.4484220518876
20
-1.97866550195181
30
0
41
1
10
46.4368347635271
20
-2.01957907467016
30
0
41
1
10
46.4134864503562
20
-2.10187381668527
30
0
41
1
10
46.4017246665793
20
-2.14325794186669
30
0
41
1
10
46.370278721272
20
-2.25373247999431
30
0
41
1
10
46.3504598473592
20
-2.32318686351039
30
0
41
1
10
46.3304614665154
20
-2.3931262450555
30
0
0
SPLINE
5
E0
100
AcDbEntity
8
1
62
256
6
ByLayer
370
18
48
1
60
0
100
AcDbSpline
70
4
71
3
72
8
73
4
40
0
40
0
40
0
40
0
40
1
40
1
40
1
40
1
41
1
10
46.7647055701802
20
-0.251871074750454
30
0
41
1
10
46.7667592723289
20
-0.25627682828005
30
0
41
1
10
46.7685827054317
20
-0.262535745055089
30
0
41
1
10
46.7701850605539
20
-0.270573857058935
30
0
0
SPLINE
5
E1
100
AcDbEntity
8
1
62
256
6
ByLayer
370
18
48
1
60
0
100
AcDbSpline
70
4
71
3
72
8
73
4
40
0
40
0
40
0
40
0
40
1
40
1
40
1
40
1
41
1
10
46.7701850605531
20
-0.2705738570601
30
0
41
1
10
46.7280823868641
20
-0.605500084625362
30
0
41
1
10
46.6859778652428
20
-0.940409057051681
30
0
41
1
10
46.6438716756852
20
-1.27530245507322
30
0
0
SPLINE
5
E2
100
AcDbEntity
8
1
62
256
6
ByLayer
370
18
48
1
60
0
100
AcDbSpline
70
4
71
3
72
8
73
4
40
0
40
0
40
0
40
0
40
1
40
1
40
1
40
1
41
1
10
46.7647055701802
20
-0.251871074750454
30
0
41
1
10
46.7528567001105
20
-0.254808988303438
30
0
41
1
10
46.7412223665685
20
-0.25769617929501
30
0
41
1
10
46.729842456776
20
-0.260523217226876
30
0
0
SPLINE
5
E3
100
AcDbEntity
8
1
62
256
6
ByLayer
370
18
48
1
60
0
100
AcDbSpline
70
4
71
3
72
37
73
33
40
0
40
0
40
0
40
0
40
0.0175281859566981
40
0.0175281859566981
40
0.0350563719133963
40
0.0350563719133963
40
0.0438204648917453
40
0.0438204648917453
40
0.0525845578700944
40
0.0525845578700944
40
0.0701127438268274
40
0.0701127438268274
40
0.0876409297835604
40
0.0876409297835604
40
0.105169115740293
40
0.105169115740293
40
0.140225487653758
40
0.140225487653758
40
0.175281859567224
40
0.175281859567224
40
0.210338231480689
40
0.210338231480689
40
0.280450975307589
40
0.280450975307589
40
0.350563719134489
40
0.350563719134489
40
0.420676462961389
40
0.560901950615189
40
0.560901950615189
40
0.841352925922815
40
0.841352925922815
40
1
40
1
40
1
40
1
41
1
10
46.7298423980959
20
-0.260523234520889
30
0
41
1
10
46.7262583766156
20
-0.261413589964633
30
0
41
1
10
46.7221583050558
20
-0.26242546910396
30
0
41
1
10
46.7124127976371
20
-0.264813159539983
30
0
41
1
10
46.7069170104866
20
-0.266152028353844
30
0
41
1
10
46.6978368446276
20
-0.268352495676879
30
0
41
1
10
46.6946489225746
20
-0.269123271375008
30
0
41
1
10
46.6882442597978
20
-0.270668653044169
30
0
41
1
10
46.6849959197978
20
-0.271450933408033
30
0
41
1
10
46.6751317387663
20
-0.273822611115179
30
0
41
1
10
46.6685346157007
20
-0.275403702576625
30
0
41
1
10
46.655650479196
20
-0.278485187596175
30
0
41
1
10
46.6492547085992
20
-0.280011589086655
30
0
41
1
10
46.6367974072787
20
-0.282980380527903
30
0
41
1
10
46.6307400554696
20
-0.284421803169778
30
0
41
1
10
46.6129009560399
20
-0.288662543735285
30
0
41
1
10
46.6014444287669
20
-0.291380274896142
30
0
41
1
10
46.5789727105779
20
-0.296705020884645
30
0
41
1
10
46.5679478949986
20
-0.299314180766544
30
0
41
1
10
46.546280691033
20
-0.304438174136664
30
0
41
1
10
46.5356363191521
20
-0.306953449498479
30
0
41
1
10
46.5040560776614
20
-0.314412150189014
30
0
41
1
10
46.4834604594794
20
-0.319271566701048
30
0
41
1
10
46.4426379999981
20
-0.328899347911488
30
0
41
1
10
46.4224219039141
20
-0.333665059592931
30
0
41
1
10
46.3821442416358
20
-0.343158329190317
30
0
41
1
10
46.3219696975397
20
-0.357338501559326
30
0
41
1
10
46.2620093642171
20
-0.371465761665377
30
0
41
1
10
46.1417985546097
20
-0.399792001102128
30
0
41
1
10
46.0612493593442
20
-0.418777294633543
30
0
41
1
10
45.9337276458622
20
-0.448850498735311
30
0
41
1
10
45.8873749052175
20
-0.459785026999384
30
0
41
1
10
45.8407505552699
20
-0.470786773025395
30
0
0
SPLINE
5
E4
100
AcDbEntity
8
1
62
256
6
ByLayer
370
18
48
1
60
0
100
AcDbSpline
70
4
71
3
72
37
73
33
40
0
40
0
40
0
40
0
40
0.0156249999999544
40
0.0156249999999544
40
0.0312499999999088
40
0.0312499999999088
40
0.039062499999886
40
0.039062499999886
40
0.0468749999998632
40
0.0468749999998632
40
0.0624999999998486
40
0.0624999999998486
40
0.078124999999834
40
0.078124999999834
40
0.0937499999998195
40
0.0937499999998195
40
0.12499999999982
40
0.12499999999982
40
0.156249999999821
40
0.156249999999821
40
0.187499999999821
40
0.187499999999821
40
0.249999999999848
40
0.249999999999848
40
0.312499999999875
40
0.312499999999875
40
0.374999999999902
40
0.499999999999931
40
0.499999999999931
40
0.749999999999966
40
0.749999999999966
40
1
40
1
40
1
40
1
41
1
10
46.7298423980959
20
4.83677569947693
30
0
41
1
10
46.7262583064642
20
4.83102710920153
30
0
41
1
10
46.722158145098
20
4.82572366011865
30
0
41
1
10
46.7124123853366
20
4.81644979763789
30
0
41
1
10
46.7069164647935
20
4.81267417789908
30
0
41
1
10
46.6978360510953
20
4.8086525889245
30
0
41
1
10
46.6946480540724
20
4.80757993249162
30
0
41
1
10
46.6882432478885
20
4.80602349313975
30
0
41
1
10
46.6849948350551
20
4.80552252988477
30
0
41
1
10
46.6751304328987
20
4.80473772476196
30
0
41
1
10
46.6685332149341
20
4.8051813680151
30
0
41
1
10
46.65564885374
20
4.80726415594242
30
0
41
1
10
46.6492529675635
20
4.80892153533097
30
0
41
1
10
46.6367954908611
20
4.8129590327294
30
0
41
1
10
46.6307380500739
20
4.81533234848456
30
0
41
1
10
46.6128986817741
20
4.82314147389991
30
0
41
1
10
46.6014419726946
20
4.82925044982653
30
0
41
1
10
46.5789698885018
20
4.84238191428463
30
0
41
1
10
46.5679448885675
20
4.84943588557448
30
0
41
1
10
46.5462773359841
20
4.86402793135409
30
0
41
1
10
46.5356327881113
20
4.8715725383839
30
0
41
1
10
46.5040520134073
20
4.89466991360638
30
0
41
1
10
46.4834560329708
20
4.91066965407714
30
0
41
1
10
46.4426328381347
20
4.9431535727615
30
0
41
1
10
46.4224163688739
20
4.95965186656693
30
0
41
1
10
46.3821379511589
20
4.9928514438875
30
0
41
1
10
46.3219622596453
20
5.04296752775281
30
0
41
1
10
46.262000750059
20
5.09336939854123
30
0
41
1
10
46.1417875478062
20
5.1937762249309
30
0
41
1
10
46.0612367054291
20
5.2601321786604
30
0
41
1
10
45.8983376318518
20
5.39028490791983
30
0
41
1
10
45.8160165900468
20
5.45412039655776
30
0
41
1
10
45.7328641627668
20
5.51677213265694
30
0
0
SPLINE
5
E5
100
AcDbEntity
8
1
62
256
6
ByLayer
370
13
48
1
60
0
100
AcDbSpline
70
4
71
3
72
23
73
19
40
0
40
0
40
0
40
0
40
0.0375167435478504
40
0.136311089865283
40
0.283327614513392
40
0.429043767649317
40
0.502387505595363
40
0.57644049836802
40
0.626229612471425
40
0.675758683177248
40
0.724254179025703
40
0.747890719212506
40
0.770990182165644
40
0.793446496062975
40
0.815896963737527
40
0.862595847863283
40
0.96049546686523
40
1
40
1
40
1
40
1
41
1
10
46.7298423989744
20
4.83677569909918
30
0
41
1
10
46.7142786471433
20
4.87204598722883
30
0
41
1
10
46.6573608662578
20
4.99770735292748
30
0
41
1
10
46.5349095822284
20
5.24530482641842
30
0
41
1
10
46.3445966646241
20
5.57621457847387
30
0
41
1
10
46.146149851408
20
5.86429768426595
30
0
41
1
10
45.9793968965725
20
6.07596685412642
30
0
41
1
10
45.8643802892625
20
6.20930673145216
30
0
41
1
10
45.7618606039736
20
6.31928464147603
30
0
41
1
10
45.6723976178497
20
6.4093762192133
30
0
41
1
10
45.5959466696432
20
6.48151233807252
30
0
41
1
10
45.5336637285292
20
6.53733050755136
30
0
41
1
10
45.4871770267171
20
6.57758614908175
30
0
41
1
10
45.4393385294675
20
6.61755151016357
30
0
41
1
10
45.3746705042755
20
6.66963123573126
30
0
41
1
10
45.2612738949
20
6.75577619933725
30
0
41
1
10
45.1405820115004
20
6.83712338051603
30
0
41
1
10
45.0502945158904
20
6.89117416090212
30
0
41
1
10
45.0241999158398
20
6.90622653282475
30
0
0
SPLINE
5
E6
100
AcDbEntity
8
1
62
256
6
ByLayer
370
18
48
1
60
0
100
AcDbSpline
70
4
71
3
72
8
73
4
40
0
40
0
40
0
40
0
40
1
40
1
40
1
40
1
41
1
10
46.7647055701805
20
4.8910379035398
30
0
41
1
10
46.7528565263832
20
4.87310615901524
30
0
41
1
10
46.7412221900378
20
4.85502782206001
30
0
41
1
10
46.7298424568571
20
4.83677565721723
30
0
0
SPLINE
5
E7
100
AcDbEntity
8
1
62
256
6
ByLayer
370
18
48
1
60
0
100
AcDbSpline
70
4
71
3
72
8
73
4
40
0
40
0
40
0
40
0
40
1
40
1
40
1
40
1
41
1
10
46.7647055701805
20
4.89103790353974
30
0
41
1
10
46.7667592707574
20
4.99227279034241
30
0
41
1
10
46.768582704222
20
5.09331387811253
30
0
41
1
10
46.770185060554
20
5.19416890138552
30
0
0
SPLINE
5
E8
100
AcDbEntity
8
1
62
256
6
ByLayer
370
18
48
1
60
0
100
AcDbSpline
70
4
71
3
72
40
73
36
40
0
40
0
40
0
40
0
40
0.062499999999993
40
0.062499999999993
40
0.124999999999986
40
0.124999999999986
40
0.156249999999987
40
0.156249999999987
40
0.187499999999987
40
0.187499999999987
40
0.249999999999988
40
0.249999999999988
40
0.312499999999988
40
0.312499999999988
40
0.374999999999989
40
0.374999999999989
40
0.406249999999992
40
0.406249999999992
40
0.437499999999996
40
0.437499999999996
40
0.499999999999998
40
0.499999999999998
40
0.562499999999999
40
0.562499999999999
40
0.625000000000001
40
0.625000000000001
40
0.75
40
0.75
40
0.812499999999999
40
0.812499999999999
40
0.843749999999999
40
0.843749999999999
40
0.874999999999999
40
0.874999999999999
40
1
40
1
40
1
40
1
41
1
10
45.1113024872764
20
7.56694095803866
30
0
41
1
10
45.1648988727422
20
7.55412880419186
30
0
41
1
10
45.217946811148
20
7.53819134144885
30
0
41
1
10
45.3227384899664
20
7.50023792108806
30
0
41
1
10
45.3742150307987
20
7.47832481207939
30
0
41
1
10
45.45011558954
20
7.44119460753191
30
0
41
1
10
45.4751956928328
20
7.42810756975936
30
0
41
1
10
45.524921095475
20
7.40052791614164
30
0
41
1
10
45.5496029993225
20
7.38601145037615
30
0
41
1
10
45.6227343879399
20
7.34052432651771
30
0
41
1
10
45.6701901181994
20
7.30768137740586
30
0
41
1
10
45.7626447390047
20
7.23718850907687
30
0
41
1
10
45.8076519767577
20
7.19952249769636
30
0
41
1
10
45.8953375038481
20
7.11938625118887
30
0
41
1
10
45.9380149740503
20
7.0769129147364
30
0
41
1
10
46.0002786339593
20
7.00967838173
30
0
41
1
10
46.02074065453
20
6.98667959316472
30
0
41
1
10
46.0610785164721
20
6.93950758018957
30
0
41
1
10
46.0809819289613
20
6.9152983159143
30
0
41
1
10
46.1395527099368
20
6.84123297496328
30
0
41
1
10
46.1770949271909
20
6.78993951955553
30
0
41
1
10
46.249254419473
20
6.6836080527126
30
0
41
1
10
46.2838889590288
20
6.62853535614067
30
0
41
1
10
46.3501980498455
20
6.51476304894007
30
0
41
1
10
46.3816329804143
20
6.45648082672
30
0
41
1
10
46.4709877091591
20
6.27760505195019
30
0
41
1
10
46.5239821669789
20
6.15299464140642
30
0
41
1
10
46.5939251251913
20
5.95833024067807
30
0
41
1
10
46.6156415800249
20
5.89214665927454
30
0
41
1
10
46.6458001895469
20
5.79091103853011
30
0
41
1
10
46.6554620439716
20
5.7567913005575
30
0
41
1
10
46.6738947104093
20
5.6881864456285
30
0
41
1
10
46.6826686692479
20
5.65369671466223
30
0
41
1
10
46.7243514808905
20
5.48032567668236
30
0
41
1
10
46.7507363556605
20
5.33869790655098
30
0
41
1
10
46.7701850605541
20
5.19416890138552
30
0
0
SPLINE
5
E9
100
AcDbEntity
8
1
62
256
6
ByLayer
370
18
48
1
60
0
100
AcDbSpline
70
4
71
3
72
8
73
4
40
0
40
0
40
0
40
0
40
1
40
1
40
1
40
1
41
1
10
13.51
20
7.89798293204862
30
0
41
1
10
13.4353650765353
20
7.86416327959765
30
0
41
1
10
13.3605918008433
20
7.82861842682607
30
0
41
1
10
13.2856114191291
20
7.79132296494231
30
0
0
SPLINE
5
EA
100
AcDbEntity
8
1
62
256
6
ByLayer
370
18
48
1
60
0
100
AcDbSpline
70
4
71
3
72
14
73
10
40
0
40
0
40
0
40
0
40
0.25
40
0.25
40
0.5
40
0.5
40
0.75
40
0.75
40
1
40
1
40
1
40
1
41
1
10
13.2856114191291
20
7.79132296494231
30
0
41
1
10
13.2083959924348
20
7.75291578512704
30
0
41
1
10
13.129349639723
20
7.71860893643162
30
0
41
1
10
12.9681018266855
20
7.65752699837361
30
0
41
1
10
12.8858985067435
20
7.63075619362161
30
0
41
1
10
12.7187348103287
20
7.5845695778805
30
0
41
1
10
12.6337733289601
20
7.56515482288393
30
0
41
1
10
12.4614313353531
20
7.53390322012126
30
0
41
1
10
12.3740501115706
20
7.52206481966226
30
0
41
1
10
12.285611419129
20
7.51433093943794
30
0
0
SPLINE
5
EB
100
AcDbEntity
8
1
62
256
6
ByLayer
370
18
48
1
60
0
100
AcDbSpline
70
4
71
3
72
8
73
4
40
0
40
0
40
0
40
0
40
1
40
1
40
1
40
1
41
1
10
12.2856114191291
20
7.51433093943797
30
0
41
1
10
12.2067922106631
20
7.50743827401269
30
0
41
1
10
12.1278946394857
20
7.49916759594086
30
0
41
1
10
12.048855440649
20
7.48953513634089
30
0
0
SPLINE
5
EC
100
AcDbEntity
8
1
62
256
6
ByLayer
370
18
48
1
60
0
100
AcDbSpline
70
4
71
3
72
28
73
24
40
0
40
0
40
0
40
0
40
0.223482410944342
40
0.223482410944342
40
0.335223616416492
40
0.335223616416492
40
0.391094219152587
40
0.391094219152587
40
0.446964821888683
40
0.446964821888683
40
0.558706027360874
40
0.558706027360874
40
0.670447232833065
40
0.670447232833065
40
0.726317835569161
40
0.726317835569161
40
0.782188438305257
40
0.782188438305257
40
0.893929643777448
40
0.893929643777448
40
0.949800246513556
40
0.949800246513556
40
1
40
1
40
1
40
1
41
1
10
45.7348781601068
20
-0.461223294265949
30
0
41
1
10
45.6660070044719
20
-0.455092548982151
30
0
41
1
10
45.5987997099018
20
-0.442794651932076
30
0
41
1
10
45.5003078056931
20
-0.41544970229242
30
0
41
1
10
45.4678682198583
20
-0.404832254252312
30
0
41
1
10
45.4198183332415
20
-0.386500405936772
30
0
41
1
10
45.4038966544889
20
-0.379981431147144
30
0
41
1
10
45.3725835718727
20
-0.3662431820959
30
0
41
1
10
45.3571517063238
20
-0.359009402510708
30
0
41
1
10
45.3115393627583
20
-0.336184918544092
30
0
41
1
10
45.2820380543009
20
-0.319478342306667
30
0
41
1
10
45.2249868399683
20
-0.282774062590278
30
0
41
1
10
45.1974346303489
20
-0.262780786074188
30
0
41
1
10
45.1577888327665
20
-0.229880909692838
30
0
41
1
10
45.1448850744568
20
-0.218444697748083
30
0
41
1
10
45.120046260312
20
-0.194848793602773
30
0
41
1
10
45.1080676218898
20
-0.182654022098518
30
0
41
1
10
45.0735298127398
20
-0.144801769390057
30
0
41
1
10
45.0523557306508
20
-0.117888591525826
30
0
41
1
10
45.0238655917998
20
-0.0745128816671468
30
0
41
1
10
45.0149366930982
20
-0.0595618045349227
30
0
41
1
10
44.9994346349947
20
-0.030730709702425
30
0
41
1
10
44.9926756314424
20
-0.0168398304364814
30
0
41
1
10
44.9865125480365
20
-0.0026951703324869
30
0
0
SPLINE
5
ED
100
AcDbEntity
8
1
62
256
6
ByLayer
370
18
48
1
60
0
100
AcDbSpline
70
4
71
3
72
8
73
4
40
0
40
0
40
0
40
0
40
1
40
1
40
1
40
1
41
1
10
46.7647055701802
20
-4.89103790353997
30
0
41
1
10
46.7667592707571
20
-4.99227279034324
30
0
41
1
10
46.7685827042218
20
-5.09331387811397
30
0
41
1
10
46.7701850605539
20
-5.19416890138754
30
0
0
SPLINE
5
EE
100
AcDbEntity
8
1
62
256
6
ByLayer
370
18
48
1
60
0
100
AcDbSpline
70
4
71
3
72
22
73
18
40
0
40
0
40
0
40
0
40
0.206435626652461
40
0.206435626652461
40
0.412871253304922
40
0.412871253304922
40
0.516089066631152
40
0.516089066631152
40
0.619306879957383
40
0.619306879957383
40
0.825742506609839
40
0.825742506609839
40
0.92896031993607
40
0.92896031993607
40
0.980569226599185
40
0.980569226599185
40
1
40
1
40
1
40
1
41
1
10
12.0488554406489
20
7.48953513634089
30
0
41
1
10
11.8774732836489
20
7.4686448508796
30
0
41
1
10
11.7051514533527
20
7.44143565310389
30
0
41
1
10
11.3561355705565
20
7.37551432356918
30
0
41
1
10
11.1794485231148
20
7.33679735832021
30
0
41
1
10
10.9090469011874
20
7.27137097417099
30
0
41
1
10
10.81802528413
20
7.24834280221168
30
0
41
1
10
10.6343653174595
20
7.2002906437057
30
0
41
1
10
10.5416610125131
20
7.17525049338079
30
0
41
1
10
10.2603324830992
20
7.09765571559183
30
0
41
1
10
10.0685507827731
20
7.04257295316407
30
0
41
1
10
9.77142985410475
20
6.95793792312327
30
0
41
1
10
9.67079841697208
20
6.92940489389221
30
0
41
1
10
9.51693382715865
20
6.88663790233227
30
0
41
1
10
9.46510952978966
20
6.87237553661305
30
0
41
1
10
9.39322398897701
20
6.85287598414624
30
0
41
1
10
9.37350618075723
20
6.84755630030756
30
0
41
1
10
9.35373047638555
20
6.84225368332815
30
0
0
SPLINE
5
EF
100
AcDbEntity
8
1
62
256
6
ByLayer
370
18
48
1
60
0
100
AcDbSpline
70
4
71
1
72
4
73
2
40
0
40
0
40
1
40
1
41
1
10
13.51
20
7.36447291223431
30
0
41
1
10
12.048855440649
20
7.48953513634089
30
0
0
SPLINE
5
F0
100
AcDbEntity
8
1
62
256
6
ByLayer
370
18
48
1
60
0
100
AcDbSpline
70
4
71
3
72
23
73
19
40
0
40
0
40
0
40
0
40
0.124327833884768
40
0.124327833884768
40
0.248655667769537
40
0.248655667769537
40
0.497311335539075
40
0.497311335539075
40
0.559475252481461
40
0.559475252481461
40
0.621639169423847
40
0.621639169423847
40
0.74596700330862
40
0.74596700330862
40
0.870294837193393
40
0.870294837193393
40
0.994622671078166
40
1
40
1
40
1
40
1
41
1
10
7.15535784432169
20
-7.20150469180967
30
0
41
1
10
7.209144012385
20
-7.2553593743003
30
0
41
1
10
7.26410248374728
20
-7.30247955539841
30
0
41
1
10
7.3763830890604
20
-7.38381689346923
30
0
41
1
10
7.4337048427777
20
-7.41803301732892
30
0
41
1
10
7.60924513682428
20
-7.5018535753295
30
0
41
1
10
7.73102700534352
20
-7.53271803583314
30
0
41
1
10
7.88941095287353
20
-7.54039723624209
30
0
41
1
10
7.92139645989909
20
-7.54038100984263
30
0
41
1
10
7.98599443418598
20
-7.53722549223244
30
0
41
1
10
8.01862309741281
20
-7.53408385691563
30
0
41
1
10
8.11736629875401
20
-7.51994313455964
30
0
41
1
10
8.18373375040468
20
-7.50432743026451
30
0
41
1
10
8.31755243730237
20
-7.46115956313611
30
0
41
1
10
8.38500349627654
20
-7.43360650273314
30
0
41
1
10
8.52101756018899
20
-7.3668162088382
30
0
41
1
10
8.59253822097088
20
-7.32587969879057
30
0
41
1
10
8.66482407602186
20
-7.27864737825385
30
0
41
1
10
8.66782223808337
20
-7.27667839458746
30
0
0
SPLINE
5
F1
100
AcDbEntity
8
1
62
256
6
ByLayer
370
18
48
1
60
0
100
AcDbSpline
70
4
71
3
72
12
73
8
40
0
40
0
40
0
40
0
40
0.095687431015524
40
0.095687431015524
40
0.547843715507762
40
0.547843715507762
40
1
40
1
40
1
40
1
41
1
10
12.8551934891813
20
-7.62281919615944
30
0
41
1
10
12.8376308856388
20
-7.6176018104558
30
0
41
1
10
12.8200046407866
20
-7.61254999974162
30
0
41
1
10
12.7187348103288
20
-7.58456957788067
30
0
41
1
10
12.6337733289603
20
-7.56515482288407
30
0
41
1
10
12.4614313353533
20
-7.53390322012137
30
0
41
1
10
12.3740501115707
20
-7.52206481966235
30
0
41
1
10
12.2856114191291
20
-7.51433093943805
30
0
0
SPLINE
5
F2
100
AcDbEntity
8
1
62
256
6
ByLayer
370
18
48
1
60
0
100
AcDbSpline
70
4
71
3
72
21
73
17
40
0
40
0
40
0
40
0
40
0.250000000000005
40
0.250000000000005
40
0.375000000000007
40
0.375000000000007
40
0.437500000000004
40
0.437500000000004
40
0.5
40
0.5
40
0.625
40
0.625
40
0.75
40
0.875
40
0.875
40
1
40
1
40
1
40
1
41
1
10
45.0757779187673
20
6.84864511464085
30
0
41
1
10
45.1656733491041
20
6.77071373639794
30
0
41
1
10
45.2476343767445
20
6.68086690605688
30
0
41
1
10
45.3580666972
20
6.53079974651061
30
0
41
1
10
45.3928179067721
20
6.47827528014739
30
0
41
1
10
45.4417106839019
20
6.39603799607008
30
0
41
1
10
45.4574032215061
20
6.36817584092282
30
0
41
1
10
45.487493398215
20
6.31176435157812
30
0
41
1
10
45.5019025139257
20
6.28318858977389
30
0
41
1
10
45.5432605364883
20
6.19647023338209
30
0
41
1
10
45.5683351529269
20
6.13733217272855
30
0
41
1
10
45.6136179001151
20
6.01697861479167
30
0
41
1
10
45.6540149602824
20
5.89453478391621
30
0
41
1
10
45.6852287561185
20
5.7693095206734
30
0
41
1
10
45.7121472129502
20
5.64337529062934
30
0
41
1
10
45.7234433936006
20
5.58002912743933
30
0
41
1
10
45.7328641627668
20
5.51677213265694
30
0
0
SPLINE
5
F3
100
AcDbEntity
8
1
62
256
6
ByLayer
370
18
48
1
60
0
100
AcDbSpline
70
4
71
3
72
16
73
12
40
0
40
0
40
0
40
0
40
0.387897745814543
40
0.387897745814543
40
0.48487218226818
40
0.48487218226818
40
0.581846618721816
40
0.581846618721816
40
0.775795491629062
40
0.775795491629062
40
1
40
1
40
1
40
1
41
1
10
45.7328641627668
20
5.51677213265694
30
0
41
1
10
45.62750352966
20
5.39981407161437
30
0
41
1
10
45.5107018882014
20
5.29464889593052
30
0
41
1
10
45.3539374962192
20
5.17428577052959
30
0
41
1
10
45.3221348704252
20
5.15084606497032
30
0
41
1
10
45.257987272815
20
5.10531528400517
30
0
41
1
10
45.2255982987362
20
5.0831903441705
30
0
41
1
10
45.1275751763428
20
5.01855536275463
30
0
41
1
10
45.0610878710391
20
4.97777897540362
30
0
41
1
10
44.915705699644
20
4.89400175000702
30
0
41
1
10
44.8365025881342
20
4.85162728082514
30
0
41
1
10
44.7562555964693
20
4.81137402411633
30
0
0
SPLINE
5
F4
100
AcDbEntity
8
1
62
256
6
ByLayer
370
18
48
1
60
0
100
AcDbSpline
70
4
71
3
72
40
73
36
40
0
40
0
40
0
40
0
40
0.0625000000000149
40
0.0625000000000149
40
0.12500000000003
40
0.12500000000003
40
0.156250000000033
40
0.156250000000033
40
0.187500000000037
40
0.187500000000037
40
0.250000000000036
40
0.250000000000036
40
0.312500000000034
40
0.312500000000034
40
0.375000000000033
40
0.375000000000033
40
0.406250000000033
40
0.406250000000033
40
0.437500000000032
40
0.437500000000032
40
0.500000000000031
40
0.500000000000031
40
0.562500000000029
40
0.562500000000029
40
0.625000000000028
40
0.625000000000028
40
0.750000000000021
40
0.750000000000021
40
0.812500000000017
40
0.812500000000017
40
0.843750000000014
40
0.843750000000014
40
0.87500000000001
40
0.87500000000001
40
1
40
1
40
1
40
1
41
1
10
45.1113024872764
20
-7.56694095803903
30
0
41
1
10
45.1648988727421
20
-7.55412880419223
30
0
41
1
10
45.2179468111479
20
-7.53819134144925
30
0
41
1
10
45.3227384899663
20
-7.50023792108846
30
0
41
1
10
45.3742150307985
20
-7.47832481207979
30
0
41
1
10
45.4501155895398
20
-7.44119460753237
30
0
41
1
10
45.4751956928325
20
-7.42810756975982
30
0
41
1
10
45.5249210954748
20
-7.40052791614212
30
0
41
1
10
45.5496029993222
20
-7.38601145037663
30
0
41
1
10
45.6227343879396
20
-7.34052432651825
30
0
41
1
10
45.6701901181991
20
-7.3076813774064
30
0
41
1
10
45.7626447390043
20
-7.23718850907747
30
0
41
1
10
45.8076519767573
20
-7.19952249769699
30
0
41
1
10
45.8953375038476
20
-7.11938625118958
30
0
41
1
10
45.9380149740499
20
-7.07691291473714
30
0
41
1
10
46.0002786339588
20
-7.00967838173079
30
0
41
1
10
46.0207406545295
20
-6.98667959316555
30
0
41
1
10
46.0610785164716
20
-6.93950758019042
30
0
41
1
10
46.0809819289609
20
-6.91529831591515
30
0
41
1
10
46.1395527099363
20
-6.84123297496421
30
0
41
1
10
46.1770949271904
20
-6.78993951955653
30
0
41
1
10
46.2492544194725
20
-6.68360805271362
30
0
41
1
10
46.2838889590284
20
-6.62853535614175
30
0
41
1
10
46.350198049845
20
-6.51476304894123
30
0
41
1
10
46.3816329804138
20
-6.45648082672122
30
0
41
1
10
46.4709877091586
20
-6.27760505195153
30
0
41
1
10
46.5239821669784
20
-6.15299464140784
30
0
41
1
10
46.5939251251909
20
-5.95833024067963
30
0
41
1
10
46.6156415800244
20
-5.89214665927614
30
0
41
1
10
46.6458001895465
20
-5.79091103853179
30
0
41
1
10
46.6554620439712
20
-5.7567913005592
30
0
41
1
10
46.673894710409
20
-5.68818644563024
30
0
41
1
10
46.6826686692476
20
-5.65369671466399
30
0
41
1
10
46.7243514808902
20
-5.4803256766842
30
0
41
1
10
46.7507363556602
20
-5.33869790655294
30
0
41
1
10
46.7701850605539
20
-5.19416890138754
30
0
0
SPLINE
5
F5
100
AcDbEntity
8
1
62
256
6
ByLayer
370
18
48
1
60
0
100
AcDbSpline
70
4
71
3
72
8
73
4
40
0
40
0
40
0
40
0
40
1
40
1
40
1
40
1
41
1
10
46.7701850605539
20
-5.19416890138754
30
0
41
1
10
46.728082386271
20
-5.14014179674626
30
0
41
1
10
46.6859778646688
20
-5.08596042440891
30
0
41
1
10
46.643871675685
20
-5.03163981079408
30
0
0
SPLINE
5
F6
100
AcDbEntity
8
1
62
256
6
ByLayer
370
18
48
1
60
0
100
AcDbSpline
70
4
71
1
72
4
73
2
40
0
40
0
40
1
40
1
41
1
10
8.31994781383597
20
-6.619930997137
30
0
41
1
10
6.95056237635336
20
-6.98842563402008
30
0
0
SPLINE
5
F7
100
AcDbEntity
8
1
62
256
6
ByLayer
370
18
48
1
60
0
100
AcDbSpline
70
4
71
3
72
24
73
20
40
0
40
0
40
0
40
0
40
0.0625000000000021
40
0.0625000000000021
40
0.125000000000004
40
0.125000000000004
40
0.250000000000004
40
0.250000000000004
40
0.375000000000003
40
0.375000000000003
40
0.500000000000002
40
0.500000000000002
40
0.625000000000002
40
0.625000000000002
40
0.750000000000001
40
0.750000000000001
40
0.875000000000001
40
0.875000000000001
40
1
40
1
40
1
40
1
41
1
10
46.6438716756848
20
-5.03163981079535
30
0
41
1
10
46.6353371410703
20
-5.06414871453308
30
0
41
1
10
46.6264107208434
20
-5.09492250696431
30
0
41
1
10
46.6079222229495
20
-5.15365565726668
30
0
41
1
10
46.5983594560742
20
-5.18161196360052
30
0
41
1
10
46.5688732856105
20
-5.26194823702355
30
0
41
1
10
46.5481598495937
20
-5.31083025941774
30
0
41
1
10
46.505167615343
20
-5.40166351216968
30
0
41
1
10
46.4828840352015
20
-5.44359357017103
30
0
41
1
10
46.4370778734713
20
-5.52196788789058
30
0
41
1
10
46.4137389437622
20
-5.55809143171578
30
0
41
1
10
46.3664342192448
20
-5.62545387280144
30
0
41
1
10
46.3424567324065
20
-5.65670219256481
30
0
41
1
10
46.2939716306166
20
-5.71523189393744
30
0
41
1
10
46.2694634352999
20
-5.74250893268717
30
0
41
1
10
46.2200003730694
20
-5.79372057548477
30
0
41
1
10
46.1950274523198
20
-5.8176680249012
30
0
41
1
10
46.1447965409509
20
-5.86259458964807
30
0
41
1
10
46.1195414342248
20
-5.88357303371473
30
0
41
1
10
46.0941652208452
20
-5.90326381245407
30
0
0
SPLINE
5
F8
100
AcDbEntity
8
1
62
256
6
ByLayer
370
18
48
1
60
0
100
AcDbSpline
70
4
71
3
72
8
73
4
40
0
40
0
40
0
40
0
40
1
40
1
40
1
40
1
41
1
10
12.2392310206725
20
-6.81770222414536
30
0
41
1
10
12.1342382478875
20
-6.7693584108226
30
0
41
1
10
12.0280438648499
20
-6.7313423365452
30
0
41
1
10
11.921345479993
20
-6.70303080069181
30
0
0
SPLINE
5
F9
100
AcDbEntity
8
1
62
256
6
ByLayer
370
18
48
1
60
0
100
AcDbSpline
70
4
71
3
72
47
73
43
40
0
40
0
40
0
40
0
40
0.124999999999929
40
0.124999999999929
40
0.187499999999906
40
0.187499999999906
40
0.218749999999906
40
0.218749999999906
40
0.249999999999906
40
0.249999999999906
40
0.312499999999906
40
0.312499999999906
40
0.374999999999907
40
0.374999999999907
40
0.406249999999907
40
0.406249999999907
40
0.437499999999907
40
0.437499999999907
40
0.499999999999907
40
0.499999999999907
40
0.531249999999914
40
0.531249999999914
40
0.562499999999921
40
0.593749999999928
40
0.593749999999928
40
0.624999999999935
40
0.624999999999935
40
0.687499999999953
40
0.687499999999953
40
0.718749999999963
40
0.718749999999963
40
0.749999999999972
40
0.749999999999972
40
0.81249999999999
40
0.81249999999999
40
0.843749999999996
40
0.843749999999996
40
0.875000000000001
40
0.875000000000001
40
0.9375
40
0.9375
40
1
40
1
40
1
40
1
41
1
10
45.7348781601068
20
0.461223294265608
30
0
41
1
10
45.6660070044719
20
0.45509254898181
30
0
41
1
10
45.5987997099017
20
0.442794651931735
30
0
41
1
10
45.5003078056931
20
0.415449702292079
30
0
41
1
10
45.4678682198583
20
0.404832254251971
30
0
41
1
10
45.4198183332415
20
0.386500405936403
30
0
41
1
10
45.4038966544889
20
0.379981431146803
30
0
41
1
10
45.3725835718727
20
0.366243182095559
30
0
41
1
10
45.3571517063238
20
0.359009402510338
30
0
41
1
10
45.3115393627583
20
0.336184918543722
30
0
41
1
10
45.2820380543009
20
0.319478342306326
30
0
41
1
10
45.2249868399683
20
0.282774062589937
30
0
41
1
10
45.1974346303489
20
0.262780786073847
30
0
41
1
10
45.1577888327665
20
0.229880909692497
30
0
41
1
10
45.1448850744568
20
0.218444697747742
30
0
41
1
10
45.120046260312
20
0.194848793602432
30
0
41
1
10
45.1080676218898
20
0.182654022098177
30
0
41
1
10
45.0735298127398
20
0.144801769389716
30
0
41
1
10
45.0523557306508
20
0.117888591525514
30
0
41
1
10
45.0238655917998
20
0.0745128816668341
30
0
41
1
10
45.0149366930982
20
0.0595618045345816
30
0
41
1
10
44.9986058470308
20
0.0291893102166796
30
0
41
1
10
44.9837059058023
20
-0.0017926520293656
30
0
41
1
10
44.9717690704512
20
-0.034036471661409
30
0
41
1
10
44.961386349346
20
-0.0669420116732908
30
0
41
1
10
44.9569540437008
20
-0.0838331477775967
30
0
41
1
10
44.9463281583928
20
-0.13451578449525
30
0
41
1
10
44.9427179338169
20
-0.168393372627179
30
0
41
1
10
44.9421716493747
20
-0.219304484212927
30
0
41
1
10
44.9428045080083
20
-0.236301940791321
30
0
41
1
10
44.9456639189025
20
-0.270278329135436
30
0
41
1
10
44.9478673410704
20
-0.287006972301185
30
0
41
1
10
44.9565707405669
20
-0.336479403457417
30
0
41
1
10
44.9651529657177
20
-0.368512853968212
30
0
41
1
10
44.9815517253864
20
-0.415325022037592
30
0
41
1
10
44.9875838675703
20
-0.430640936380598
30
0
41
1
10
45.0005259828839
20
-0.460455327973761
30
0
41
1
10
45.0074536133112
20
-0.475004299294142
30
0
41
1
10
45.0294467614389
20
-0.517691168840969
30
0
41
1
10
45.0457151699987
20
-0.544874330326763
30
0
41
1
10
45.0808604210328
20
-0.597126460479274
30
0
41
1
10
45.0997409317396
20
-0.622192850524215
30
0
41
1
10
45.119727433253
20
-0.646344747291778
30
0
0
SPLINE
5
FA
100
AcDbEntity
8
1
62
256
6
ByLayer
370
13
48
1
60
0
100
AcDbSpline
70
4
71
1
72
4
73
2
40
0
40
0
40
1
40
1
41
1
10
13.51
20
-6.90662311688007
30
0
41
1
10
11.1296434876421
20
-6.26483332048937
30
0
0
SPLINE
5
FB
100
AcDbEntity
8
1
62
256
6
ByLayer
370
18
48
1
60
0
100
AcDbSpline
70
4
71
3
72
9
73
5
40
0
40
0
40
0
40
0
40
0.5
40
1
40
1
40
1
40
1
41
1
10
45.8073080095286
20
4.10214884239758
30
0
41
1
10
45.7951051727238
20
4.13151616086967
30
0
41
1
10
45.7750490160059
20
4.17549112517079
30
0
41
1
10
45.7635350647834
20
4.19047892609274
30
0
41
1
10
45.7599231963567
20
4.19069360897282
30
0
0
SPLINE
5
FC
100
AcDbEntity
8
1
62
256
6
ByLayer
370
18
48
1
60
0
100
AcDbSpline
70
4
71
1
72
4
73
2
40
0
40
0
40
1
40
1
41
1
10
29.533697481415
20
-5.53368325128528
30
0
41
1
10
26.0503625057702
20
-6.18606707806933
30
0
0
SPLINE
5
FD
100
AcDbEntity
8
1
62
256
6
ByLayer
370
18
48
1
60
0
100
AcDbSpline
70
4
71
3
72
9
73
5
40
0
40
0
40
0
40
0
40
0.5
40
1
40
1
40
1
40
1
41
1
10
46.0940288839054
20
3.21471817644158
30
0
41
1
10
46.0423465968018
20
3.3769743929939
30
0
41
1
10
45.9428807980663
20
3.68712356037355
30
0
41
1
10
45.8511796724292
20
3.96866731977684
30
0
41
1
10
45.8073080095287
20
4.10214884239767
30
0
0
SPLINE
5
FE
100
AcDbEntity
8
1
62
256
6
ByLayer
370
18
48
1
60
0
100
AcDbSpline
70
4
71
3
72
21
73
17
40
0
40
0
40
0
40
0
40
0.261403765112237
40
0.261403765112237
40
0.522807530224474
40
0.522807530224474
40
0.653509412780596
40
0.653509412780596
40
0.686184883419628
40
0.686184883419628
40
0.71886035405866
40
0.784211295336724
40
0.784211295336724
40
0.914913177892854
40
0.914913177892854
40
1
40
1
40
1
40
1
41
1
10
45.8073080095286
20
4.10214884239758
30
0
41
1
10
45.4992257102346
20
4.32420598148536
30
0
41
1
10
45.192328473748
20
4.53415480167359
30
0
41
1
10
44.5778395246146
20
4.92817107609017
30
0
41
1
10
44.2702523832332
20
5.11224679939556
30
0
41
1
10
43.8062922392676
20
5.36741819667248
30
0
41
1
10
43.6512109836936
20
5.44898119730217
30
0
41
1
10
43.4566200635416
20
5.54636774852455
30
0
41
1
10
43.4176421807058
20
5.56562759367839
30
0
41
1
10
43.339730752928
20
5.6036249054246
30
0
41
1
10
43.2229559698043
20
5.65982573121801
30
0
41
1
10
43.1064366972756
20
5.71363946107567
30
0
41
1
10
42.8736852781555
20
5.81807456966453
30
0
41
1
10
42.7188870861304
20
5.88344048811493
30
0
41
1
10
42.4638383036892
20
5.98426361686137
30
0
41
1
10
42.3634028385643
20
6.02220302054707
30
0
41
1
10
42.2630661282811
20
6.05832597544193
30
0
0
SPLINE
5
FF
100
AcDbEntity
8
1
62
256
6
ByLayer
370
18
48
1
60
0
100
AcDbSpline
70
4
71
1
72
4
73
2
40
0
40
0
40
1
40
1
41
1
10
13.51
20
5.22331442491725
30
0
41
1
10
12.1458416188605
20
5.59040248759842
30
0
0
SPLINE
5
100
100
AcDbEntity
8
1
62
256
6
ByLayer
370
13
48
1
60
0
100
AcDbSpline
70
4
71
3
72
8
73
4
40
0
40
0
40
0
40
0
40
1
40
1
40
1
40
1
41
1
10
46.058353209882
20
3.08559561322693
30
0
41
1
10
45.6508206903968
20
3.44013633167296
30
0
41
1
10
45.2432881709115
20
3.77912671579892
30
0
41
1
10
44.8357556514262
20
4.09825442396183
30
0
0
SPLINE
5
101
100
AcDbEntity
8
1
62
256
6
ByLayer
370
13
48
1
60
0
100
AcDbSpline
70
4
71
3
72
9
73
5
40
0
40
0
40
0
40
0
40
0.0286180295184811
40
1
40
1
40
1
40
1
41
1
10
17.800279340818
20
-6.63498729870332
30
0
41
1
10
17.7593528938787
20
-6.6466575417364
30
0
41
1
10
16.3292597802727
20
-7.04295155965426
30
0
41
1
10
14.8991666666666
20
-7.03433211583317
30
0
41
1
10
13.51
20
-6.62695645565836
30
0
0
SPLINE
5
102
100
AcDbEntity
8
1
62
256
6
ByLayer
370
18
48
1
60
0
100
AcDbSpline
70
4
71
5
72
12
73
6
40
0
40
0
40
0
40
0
40
0
40
0
40
1
40
1
40
1
40
1
40
1
40
1
41
1
10
13.51
20
-6.62695645565836
30
0
41
0.9820120696427
10
13.51
20
-6.665451180457
30
0
41
0.973220332988137
10
13.51
20
-6.71530361342242
30
0
41
0.973220332988137
10
13.51
20
-6.77409802529362
30
0
41
0.9820120696427
10
13.51
20
-6.8389451442375
30
0
41
1
10
13.51
20
-6.90662311688007
30
0
0
SPLINE
5
103
100
AcDbEntity
8
1
62
256
6
ByLayer
370
18
48
1
60
0
100
AcDbSpline
70
4
71
3
72
8
73
4
40
0
40
0
40
0
40
0
40
1
40
1
40
1
40
1
41
1
10
45.8841147656956
20
-5.21842135506941
30
0
41
1
10
45.8775819642161
20
-5.12098930291631
30
0
41
1
10
45.8724940023452
20
-5.02387062830761
30
0
41
1
10
45.8688306372105
20
-4.92706094067955
30
0
0
SPLINE
5
104
100
AcDbEntity
8
1
62
256
6
ByLayer
370
18
48
1
60
0
100
AcDbSpline
70
4
71
3
72
27
73
23
40
0
40
0
40
0
40
0
40
0.12500000000001
40
0.12500000000001
40
0.25000000000002
40
0.25000000000002
40
0.37500000000003
40
0.37500000000003
40
0.40625000000003
40
0.40625000000003
40
0.43750000000003
40
0.500000000000031
40
0.500000000000031
40
0.62500000000002
40
0.62500000000002
40
0.75000000000001
40
0.75000000000001
40
0.874999999999999
40
0.874999999999999
40
0.9375
40
0.9375
40
1
40
1
40
1
40
1
41
1
10
44.75593039681
20
-3.10612586125075
30
0
41
1
10
44.790145192475
20
-3.18985427398832
30
0
41
1
10
44.8269295852685
20
-3.27263382588424
30
0
41
1
10
44.9046866416194
20
-3.43664625300787
30
0
41
1
10
44.9456652372184
20
-3.51787696446317
30
0
41
1
10
45.0312004509552
20
-3.67901711359727
30
0
41
1
10
45.075760108795
20
-3.75892542879046
30
0
41
1
10
45.1334352298293
20
-3.85808130229716
30
0
41
1
10
45.1450786903794
20
-3.87789109154528
30
0
41
1
10
45.1684481513287
20
-3.91725486323574
30
0
41
1
10
45.2036623822893
20
-3.9759797228678
30
0
41
1
10
45.2393343329476
20
-4.03378708722036
30
0
41
1
10
45.3112386375936
20
-4.14827849217059
30
0
41
1
10
45.3599199360819
20
-4.22311255803353
30
0
41
1
10
45.4585716908163
20
-4.37019658388951
30
0
41
1
10
45.5085429923998
20
-4.44244484941109
30
0
41
1
10
45.6096341000115
20
-4.58463921296567
30
0
41
1
10
45.6607543963625
20
-4.65458432815066
30
0
41
1
10
45.738219522856
20
-4.75792911253316
30
0
41
1
10
45.76417227061
20
-4.79211470757673
30
0
41
1
10
45.8163296329895
20
-4.85998103264058
30
0
41
1
10
45.8425573665267
20
-4.89369080180799
30
0
41
1
10
45.8688306372105
20
-4.92706094068004
30
0
0
SPLINE
5
105
100
AcDbEntity
8
1
62
256
6
ByLayer
370
13
48
1
60
0
100
AcDbSpline
70
4
71
1
72
4
73
2
40
0
40
0
40
1
40
1
41
1
10
13.51
20
2.40885874611584
30
0
41
1
10
10.4513931927585
20
5.19382663966886
30
0
0
SPLINE
5
106
100
AcDbEntity
8
1
62
256
6
ByLayer
370
13
48
1
60
0
100
AcDbSpline
70
4
71
3
72
14
73
10
40
0
40
0
40
0
40
0
40
0.25
40
0.25
40
0.5
40
0.5
40
0.75
40
0.75
40
1
40
1
40
1
40
1
41
1
10
30.975
20
-2.5228720903242
30
0
41
1
10
30.975
20
-2.35729723691475
30
0
41
1
10
30.975
20
-2.19502086902821
30
0
41
1
10
30.9749999999999
20
-1.87919170954774
30
0
41
1
10
30.975
20
-1.72564053519213
30
0
41
1
10
30.975
20
-1.4292213041569
30
0
41
1
10
30.975
20
-1.28635462577029
30
0
41
1
10
30.975
20
-1.01304810249488
30
0
41
1
10
30.975
20
-0.8826093444778
30
0
41
1
10
30.975
20
-0.759129364479662
30
0
0
SPLINE
5
107
100
AcDbEntity
8
1
62
256
6
ByLayer
370
18
48
1
60
0
100
AcDbSpline
70
4
71
1
72
4
73
2
40
0
40
0
40
1
40
1
41
1
10
30.975
20
-0.759129364479662
30
0
41
1
10
25.3239324442733
20
3.13214272745393
30
0
0
SPLINE
5
108
100
AcDbEntity
8
1
62
256
6
ByLayer
370
18
48
1
60
0
100
AcDbSpline
70
4
71
3
72
46
73
42
40
0
40
0
40
0
40
0
40
0.071534075016478
40
0.071534075016478
40
0.155940068196799
40
0.155940068196799
40
0.177041566491879
40
0.177041566491879
40
0.198143064786959
40
0.198143064786959
40
0.24034606137712
40
0.24034606137712
40
0.28254905796728
40
0.28254905796728
40
0.324752054557441
40
0.324752054557441
40
0.409158047737761
40
0.409158047737761
40
0.493564040918082
40
0.493564040918082
40
0.514665539213162
40
0.514665539213162
40
0.535767037508242
40
0.577970034098403
40
0.620173030688565
40
0.620173030688565
40
0.662376027278726
40
0.662376027278726
40
0.704579023868887
40
0.704579023868887
40
0.746782020459049
40
0.746782020459049
40
0.83118801363937
40
0.83118801363937
40
0.852289511934449
40
0.852289511934449
40
0.873391010229528
40
0.873391010229528
40
0.915594006819685
40
0.915594006819685
40
1
40
1
40
1
40
1
41
1
10
41.9609340924
20
-6.16169481270205
30
0
41
1
10
41.7001189978252
20
-6.24624303956494
30
0
41
1
10
41.4397403961795
20
-6.31844660781576
30
0
41
1
10
40.8715639718839
20
-6.4483077559052
30
0
41
1
10
40.5636722730659
20
-6.50094082511629
30
0
41
1
10
40.1765736597407
20
-6.54372808465243
30
0
41
1
10
40.0990389882489
20
-6.55114057019969
30
0
41
1
10
39.943689658768
20
-6.56366136647341
30
0
41
1
10
39.8657824147561
20
-6.56877303924398
30
0
41
1
10
39.6325299183801
20
-6.58058380514953
30
0
41
1
10
39.4775203731329
20
-6.58378476066164
30
0
41
1
10
39.168139098285
20
-6.58104481638219
30
0
41
1
10
39.0137665819412
20
-6.57510503187544
30
0
41
1
10
38.7053878359918
20
-6.55418807184228
30
0
41
1
10
38.5513993670231
20
-6.53919734419216
30
0
41
1
10
38.0898553746254
20
-6.48053462260313
30
0
41
1
10
37.7826908937811
20
-6.42327036673797
30
0
41
1
10
37.1670478235557
20
-6.27303783341779
30
0
41
1
10
36.8585323948221
20
-6.18010482161924
30
0
41
1
10
36.4703744576722
20
-6.04145344704969
30
0
41
1
10
36.392610927115
20
-6.01258702661224
30
0
41
1
10
36.2368334168201
20
-5.95259848396381
30
0
41
1
10
36.0036131188859
20
-5.85955623396276
30
0
41
1
10
35.6167406598368
20
-5.68962851506231
30
0
41
1
10
35.3084501143749
20
-5.53860175240189
30
0
41
1
10
35.0004461789926
20
-5.38031941912064
30
0
41
1
10
34.8465774532549
20
-5.29756242046088
30
0
41
1
10
34.5389233681922
20
-5.12490668958839
30
0
41
1
10
34.3851521896684
20
-5.03498911540623
30
0
41
1
10
34.0775463907205
20
-4.84799436797414
30
0
41
1
10
33.9237010359495
20
-4.75093832704957
30
0
41
1
10
33.4615692327985
20
-4.44943956032228
30
0
41
1
10
33.1526985817687
20
-4.23468228748536
30
0
41
1
10
32.763932444037
20
-3.949922185541
30
0
41
1
10
32.6860140169104
20
-3.89212904467121
30
0
41
1
10
32.5304373637927
20
-3.77536379521752
30
0
41
1
10
32.4527104161226
20
-3.71634202440509
30
0
41
1
10
32.219648513306
20
-3.53742008046944
30
0
41
1
10
32.0644413687007
20
-3.4156469197498
30
0
41
1
10
31.5986315869405
20
-3.04362718416326
30
0
41
1
10
31.2878093797705
20
-2.78673159472956
30
0
41
1
10
30.975
20
-2.52285147431192
30
0
0
SPLINE
5
109
100
AcDbEntity
8
1
62
256
6
ByLayer
370
18
48
1
60
0
100
AcDbSpline
70
4
71
3
72
30
73
26
40
0
40
0
40
0
40
0
40
0.125000000000003
40
0.125000000000003
40
0.250000000000007
40
0.250000000000007
40
0.37500000000001
40
0.37500000000001
40
0.500000000000014
40
0.500000000000014
40
0.562500000000013
40
0.562500000000013
40
0.593750000000013
40
0.593750000000013
40
0.625000000000013
40
0.625000000000013
40
0.750000000000007
40
0.750000000000007
40
0.812500000000005
40
0.812500000000005
40
0.875000000000003
40
0.875000000000003
40
0.937500000000002
40
0.937500000000002
40
1
40
1
40
1
40
1
41
1
10
25.3239324442732
20
3.13214272745395
30
0
41
1
10
25.5845766112794
20
2.93759131901294
30
0
41
1
10
25.838368347564
20
2.73449805965589
30
0
41
1
10
26.3343159102258
20
2.31183179126739
30
0
41
1
10
26.5764722859889
20
2.0922692533083
30
0
41
1
10
27.0517650462111
20
1.63812788698596
30
0
41
1
10
27.2848978688418
20
1.40354513724856
30
0
41
1
10
27.7454981220924
20
0.921591534088066
30
0
41
1
10
27.9729562017356
20
0.674209605981844
30
0
41
1
10
28.3131239317698
20
0.295972643093762
30
0
41
1
10
28.4263471552368
20
0.168706595099792
30
0
41
1
10
28.5963990411623
20
-0.0235870219647722
30
0
41
1
10
28.6531302494311
20
-0.0879286114951867
30
0
41
1
10
28.7662187768349
20
-0.216390981705871
30
0
41
1
10
28.8226424087969
20
-0.280586624683934
30
0
41
1
10
29.1043819343638
20
-0.601168021938406
30
0
41
1
10
29.3284907463061
20
-0.856426730558923
30
0
41
1
10
29.6678021646874
20
-1.2326214121116
30
0
41
1
10
29.7814444058837
20
-1.35689182299805
30
0
41
1
10
30.010866916294
20
-1.6021707964656
30
0
41
1
10
30.1266465774038
20
-1.72317960805591
30
0
41
1
10
30.3615959357368
20
-1.960760918804
30
0
41
1
10
30.480762042697
20
-2.07733742938984
30
0
41
1
10
30.7238832695242
20
-2.30477384696638
30
0
41
1
10
30.8478380729786
20
-2.41563380334816
30
0
41
1
10
30.9749999999999
20
-2.52290015760033
30
0
0
SPLINE
5
10A
100
AcDbEntity
8
1
62
256
6
ByLayer
370
18
48
1
60
0
100
AcDbSpline
70
4
71
3
72
76
73
72
40
0
40
0
40
0
40
0
40
0.0624999999999897
40
0.0624999999999897
40
0.124999999999979
40
0.124999999999979
40
0.187499999999969
40
0.187499999999969
40
0.218749999999964
40
0.218749999999964
40
0.234374999999964
40
0.234374999999964
40
0.249999999999965
40
0.249999999999965
40
0.281249999999966
40
0.281249999999966
40
0.312499999999967
40
0.312499999999967
40
0.32812499999997
40
0.32812499999997
40
0.343749999999973
40
0.343749999999973
40
0.37499999999998
40
0.37499999999998
40
0.38281249999998
40
0.38281249999998
40
0.39062499999998
40
0.39062499999998
40
0.406249999999981
40
0.406249999999981
40
0.421874999999982
40
0.421874999999982
40
0.429687499999982
40
0.429687499999982
40
0.437499999999983
40
0.437499999999983
40
0.468749999999984
40
0.468749999999984
40
0.476562499999984
40
0.476562499999984
40
0.484374999999984
40
0.499999999999983
40
0.515624999999983
40
0.515624999999983
40
0.531249999999982
40
0.531249999999982
40
0.562499999999981
40
0.562499999999981
40
0.570312499999981
40
0.570312499999981
40
0.578124999999981
40
0.578124999999981
40
0.593749999999982
40
0.593749999999982
40
0.624999999999984
40
0.624999999999984
40
0.656249999999986
40
0.656249999999986
40
0.671874999999987
40
0.671874999999987
40
0.687499999999988
40
0.687499999999988
40
0.74999999999999
40
0.74999999999999
40
0.812499999999992
40
0.812499999999992
40
0.874999999999995
40
0.874999999999995
40
0.937499999999997
40
0.937499999999997
40
1
40
1
40
1
40
1
41
1
10
26.0535935910353
20
4.94741551971029
30
0
41
1
10
25.9151189252404
20
4.96603812400147
30
0
41
1
10
25.7768250629448
20
4.98310454477368
30
0
41
1
10
25.5007121060786
20
5.0146140765066
30
0
41
1
10
25.3628924942234
20
5.02906541684493
30
0
41
1
10
25.0878358230312
20
5.05556087151078
30
0
41
1
10
24.9505979087869
20
5.06761592991552
30
0
41
1
10
24.7452690578801
20
5.0836564092092
30
0
41
1
10
24.6769142788737
20
5.08865804326314
30
0
41
1
10
24.5745292009984
20
5.09554283184107
30
0
41
1
10
24.5404253890543
20
5.09773421355337
30
0
41
1
10
24.4722698614996
20
5.10188387965096
30
0
41
1
10
24.4381598209156
20
5.10384529140146
30
0
41
1
10
24.3363604871894
20
5.10930444689097
30
0
41
1
10
24.2693656524397
20
5.11237560995613
30
0
41
1
10
24.1373820789507
20
5.11704356175952
30
0
41
1
10
24.07239231817
20
5.11864262573545
30
0
41
1
10
23.9767097990141
20
5.11952943308498
30
0
41
1
10
23.9451986020711
20
5.11956903838237
30
0
41
1
10
23.8833533872734
20
5.11905232036909
30
0
41
1
10
23.8529696338986
20
5.11849691520106
30
0
41
1
10
23.763591979108
20
5.11578690922465
30
0
41
1
10
23.7063465104105
20
5.1126129035662
30
0
41
1
10
23.6385233282467
20
5.10615112439206
30
0
41
1
10
23.6251473596907
20
5.10473213104163
30
0
41
1
10
23.5988025006137
20
5.10161200389257
30
0
41
1
10
23.5858544639336
20
5.09991244482742
30
0
41
1
10
23.5480064679383
20
5.09439673342541
30
0
41
1
10
23.5239931058654
20
5.09015299719746
30
0
41
1
10
23.4786593894564
20
5.08033143739894
30
0
41
1
10
23.4573380636952
20
5.07475433234606
30
0
41
1
10
23.4276313421592
20
5.06519206091502
30
0
41
1
10
23.4181090742716
20
5.06180465648049
30
0
41
1
10
23.3998782812271
20
5.05458913593719
30
0
41
1
10
23.3912426329156
20
5.05078841635174
30
0
41
1
10
23.3506891005703
20
5.03086250050802
30
0
41
1
10
23.3264078220293
20
5.01190114056479
30
0
41
1
10
23.3068819439302
20
4.98369681279681
30
0
41
1
10
23.3035197501551
20
4.97782898946596
30
0
41
1
10
23.2979033699738
20
4.96562403390581
30
0
41
1
10
23.2912420240307
20
4.94683307820264
30
0
41
1
10
23.2884762702713
20
4.91314108160751
30
0
41
1
10
23.2943154955925
20
4.88373332178401
30
0
41
1
10
23.3038393378638
20
4.85313045485901
30
0
41
1
10
23.3103769946025
20
4.83744647606201
30
0
41
1
10
23.3343791829463
20
4.78956087258879
30
0
41
1
10
23.3562218490609
20
4.75642593733596
30
0
41
1
10
23.3889292404521
20
4.71367644648694
30
0
41
1
10
23.3957445856189
20
4.7050597309609
30
0
41
1
10
23.4098883369631
20
4.68769625551701
30
0
41
1
10
23.4172290673137
20
4.67893539963603
30
0
41
1
10
23.439864907755
20
4.65258876430821
30
0
41
1
10
23.4557677374324
20
4.63493903950982
30
0
41
1
10
23.5055321870201
20
4.58173089177859
30
0
41
1
10
23.5414313731835
20
4.54591316267786
30
0
41
1
10
23.6172977803555
20
4.47358646730837
30
0
41
1
10
23.6572752731584
20
4.43707784766227
30
0
41
1
10
23.7196467286759
20
4.38180300080776
30
0
41
1
10
23.7408409867381
20
4.36329276192382
30
0
41
1
10
23.7839548390618
20
4.32610287035465
30
0
41
1
10
23.8058987686917
20
4.30740284142257
30
0
41
1
10
23.9169702435232
20
4.21372579134746
30
0
41
1
10
24.0095678222787
20
4.13862250949455
30
0
41
1
10
24.19955299642
20
3.98761772491312
30
0
41
1
10
24.2969743757891
20
3.9117240592602
30
0
41
1
10
24.4952184759537
20
3.75891445333619
30
0
41
1
10
24.5960541651013
20
3.68200111768226
30
0
41
1
10
24.8002695527949
20
3.52701014746668
30
0
41
1
10
24.9036549769453
20
3.44893358639072
30
0
41
1
10
25.1124042934459
20
3.29151144688424
30
0
41
1
10
25.2177710444715
20
3.21216636639963
30
0
41
1
10
25.3239324442733
20
3.13214272745393
30
0
0
SPLINE
5
10B
100
AcDbEntity
8
1
62
256
6
ByLayer
370
18
48
1
60
0
100
AcDbSpline
70
4
71
3
72
37
73
33
40
0
40
0
40
0
40
0
40
0.015625000000025
40
0.015625000000025
40
0.03125000000005
40
0.03125000000005
40
0.039062500000062
40
0.039062500000062
40
0.0468750000000741
40
0.0468750000000741
40
0.0625000000000674
40
0.0625000000000674
40
0.0781250000000606
40
0.0781250000000606
40
0.0937500000000539
40
0.0937500000000539
40
0.12500000000004
40
0.12500000000004
40
0.156250000000027
40
0.156250000000027
40
0.187500000000013
40
0.187500000000013
40
0.250000000000012
40
0.250000000000012
40
0.31250000000001
40
0.31250000000001
40
0.375000000000009
40
0.500000000000007
40
0.500000000000007
40
0.750000000000004
40
0.750000000000004
40
1
40
1
40
1
40
1
41
1
10
46.7298423980958
20
0.260523234520576
30
0
41
1
10
46.7262583766154
20
0.261413589964292
30
0
41
1
10
46.7221583050556
20
0.262425469103675
30
0
41
1
10
46.7124127976369
20
0.264813159539642
30
0
41
1
10
46.7069170104864
20
0.266152028353559
30
0
41
1
10
46.6978368446275
20
0.268352495676567
30
0
41
1
10
46.6946489225746
20
0.269123271374696
30
0
41
1
10
46.6882442597978
20
0.270668653043856
30
0
41
1
10
46.6849959197977
20
0.271450933407721
30
0
41
1
10
46.6751317387663
20
0.273822611114838
30
0
41
1
10
46.6685346157007
20
0.275403702576284
30
0
41
1
10
46.655650479196
20
0.278485187595834
30
0
41
1
10
46.6492547085994
20
0.280011589086314
30
0
41
1
10
46.6367974072787
20
0.282980380527562
30
0
41
1
10
46.6307400554697
20
0.284421803169437
30
0
41
1
10
46.6129009560401
20
0.288662543734944
30
0
41
1
10
46.601444428767
20
0.2913802748958
30
0
41
1
10
46.5789727105779
20
0.296705020884332
30
0
41
1
10
46.5679478949985
20
0.299314180766203
30
0
41
1
10
46.546280691033
20
0.304438174136351
30
0
41
1
10
46.535636319152
20
0.306953449498138
30
0
41
1
10
46.5040560776614
20
0.314412150188673
30
0
41
1
10
46.4834604594792
20
0.319271566700706
30
0
41
1
10
46.4426379999979
20
0.328899347911147
30
0
41
1
10
46.422421903914
20
0.333665059592619
30
0
41
1
10
46.3821442416357
20
0.343158329189976
30
0
41
1
10
46.3219696975397
20
0.357338501559013
30
0
41
1
10
46.2620093642171
20
0.371465761665036
30
0
41
1
10
46.1417985546097
20
0.399792001101787
30
0
41
1
10
46.0612493593441
20
0.418777294633202
30
0
41
1
10
45.8983536736584
20
0.457192675584167
30
0
41
1
10
45.8160343625414
20
0.476616036680582
30
0
41
1
10
45.7328836932114
20
0.496245141976004
30
0
0
SPLINE
5
10C
100
AcDbEntity
8
1
62
256
6
ByLayer
370
18
48
1
60
0
100
AcDbSpline
70
4
71
3
72
8
73
4
40
0
40
0
40
0
40
0
40
1
40
1
40
1
40
1
41
1
10
46.0941652208471
20
-5.90326381245171
30
0
41
1
10
46.0827268479759
20
-5.95242412161281
30
0
41
1
10
46.0707902111884
20
-6.00113977726375
30
0
41
1
10
46.0583431265186
20
-6.04941598939905
30
0
0
SPLINE
5
10D
100
AcDbEntity
8
1
62
256
6
ByLayer
370
18
48
1
60
0
100
AcDbSpline
70
4
71
3
72
8
73
4
40
0
40
0
40
0
40
0
40
1
40
1
40
1
40
1
41
1
10
46.0941652208474
20
-5.90326381245143
30
0
41
1
10
46.0200431987601
20
-5.68889121102964
30
0
41
1
10
45.9500198164015
20
-5.4606326303086
30
0
41
1
10
45.8841147656956
20
-5.21842135506944
30
0
0
SPLINE
5
10E
100
AcDbEntity
8
1
62
256
6
ByLayer
370
18
48
1
60
0
100
AcDbSpline
70
4
71
3
72
63
73
59
40
0
40
0
40
0
40
0
40
0.0653413258341102
40
0.0653413258341102
40
0.13068265166822
40
0.13068265166822
40
0.163353314585275
40
0.163353314585275
40
0.17152098031454
40
0.17152098031454
40
0.179688646043804
40
0.179688646043804
40
0.196023977502332
40
0.196023977502332
40
0.228694640419387
40
0.228694640419387
40
0.261365303336443
40
0.261365303336443
40
0.326706629170553
40
0.326706629170553
40
0.392047955004663
40
0.392047955004663
40
0.40838328646319
40
0.416550952192454
40
0.416550952192454
40
0.424718617921717
40
0.424718617921717
40
0.457389280838772
40
0.490059943755828
40
0.490059943755828
40
0.522730606672883
40
0.522730606672883
40
0.588071932506993
40
0.588071932506993
40
0.653413258341103
40
0.653413258341103
40
0.669748589799631
40
0.669748589799631
40
0.677916255528894
40
0.677916255528894
40
0.686083921258157
40
0.718754584175209
40
0.718754584175209
40
0.784095910009313
40
0.784095910009313
40
0.816766572926365
40
0.816766572926365
40
0.849437235843416
40
0.849437235843416
40
0.914778561677519
40
0.914778561677519
40
0.931113893136044
40
0.931113893136044
40
0.947449224594569
40
0.947449224594569
40
0.980119887511619
40
0.980119887511619
40
1
40
1
40
1
40
1
41
1
10
45.8841147656956
20
-5.21842135506941
30
0
41
1
10
45.5743218370343
20
-5.03841005985404
30
0
41
1
10
45.2658090273164
20
-4.84375926351265
30
0
41
1
10
44.6482786226436
20
-4.42837618706477
30
0
41
1
10
44.3392666320924
20
-4.20764447688779
30
0
41
1
10
43.873341171361
20
-3.8586308151796
30
0
41
1
10
43.717633672731
20
-3.73929903282334
30
0
41
1
10
43.5222996025377
20
-3.58650116927637
30
0
41
1
10
43.4831978184876
20
-3.55575976986316
30
0
41
1
10
43.4049193299001
20
-3.49391535826314
30
0
41
1
10
43.3657190112949
20
-3.46279342974236
30
0
41
1
10
43.2482346881266
20
-3.36907697376267
30
0
41
1
10
43.1700413969143
20
-3.30611236108294
30
0
41
1
10
42.9357967950435
20
-3.11581575608022
30
0
41
1
10
42.7800697209966
20
-2.98709419656919
30
0
41
1
10
42.4693204504197
20
-2.72609593352837
30
0
41
1
10
42.314300695555
20
-2.5938192945643
30
0
41
1
10
41.8499058189675
20
-2.19211720253821
30
0
41
1
10
41.5412111559539
20
-1.91781117041879
30
0
41
1
10
40.9231496803848
20
-1.35875812785869
30
0
41
1
10
40.6137691765248
20
-1.07401218361915
30
0
41
1
10
40.224829564147
20
-0.713287785831795
30
0
41
1
10
40.1079787827329
20
-0.604716480185004
30
0
41
1
10
39.990821137112
20
-0.495669953496986
30
0
41
1
10
39.9126421150077
20
-0.422872446310294
30
0
41
1
10
39.8734944706436
20
-0.386404079791845
30
0
41
1
10
39.6778180192948
20
-0.204069958299897
30
0
41
1
10
39.3657991174117
20
0.086981140873462
30
0
41
1
10
39.0552448082602
20
0.376013407916247
30
0
41
1
10
38.7451574738618
20
0.66376203774243
30
0
41
1
10
38.590355521139
20
0.807002406824125
30
0
41
1
10
38.126435853319
20
1.234542300203
30
0
41
1
10
37.8177877919986
20
1.51665835928984
30
0
41
1
10
37.1992219979977
20
2.07242053980798
30
0
41
1
10
36.8892722012517
20
2.34603715855951
30
0
41
1
10
36.4992450594982
20
2.68077151065918
30
0
41
1
10
36.4211129629405
20
2.74735575696951
30
0
41
1
10
36.3036932300063
20
2.84665172039678
30
0
41
1
10
36.2645394364385
20
2.87963375264957
30
0
41
1
10
36.1863424864374
20
2.94523889142272
30
0
41
1
10
35.9910219785696
20
3.10844357239625
30
0
41
1
10
35.7964773257905
20
3.26756931426092
30
0
41
1
10
35.3305256626518
20
3.64134739665744
30
0
41
1
10
35.0211259138588
20
3.87970547581247
30
0
41
1
10
34.5572952701989
20
4.21976024323516
30
0
41
1
10
34.4027529186498
20
4.33020144046384
30
0
41
1
10
34.0935956516366
20
4.54500861138231
30
0
41
1
10
33.9389729009942
20
4.64937808220481
30
0
41
1
10
33.4744883701208
20
4.95299972610985
30
0
41
1
10
33.1640228433302
20
5.14279522395884
30
0
41
1
10
32.7731628864072
20
5.36255819476872
30
0
41
1
10
32.6948450681339
20
5.40563515025207
30
0
41
1
10
32.5384785579577
20
5.48967229466669
30
0
41
1
10
32.4603555843237
20
5.53067490677392
30
0
41
1
10
32.2260993351786
20
5.65059919128532
30
0
41
1
10
32.07008544881
20
5.72642742952189
30
0
41
1
10
31.8190308348033
20
5.84169117882686
30
0
41
1
10
31.7240291683591
20
5.88375479788928
30
0
41
1
10
31.6289540060251
20
5.92426534039203
30
0
0
SPLINE
5
10F
100
AcDbEntity
8
1
62
256
6
ByLayer
370
18
48
1
60
0
100
AcDbSpline
70
4
71
3
72
19
73
15
40
0
40
0
40
0
40
0
40
0.250000000000001
40
0.250000000000001
40
0.375000000000001
40
0.375000000000001
40
0.5
40
0.5
40
0.625
40
0.625
40
0.75
40
0.875
40
0.875
40
1
40
1
40
1
40
1
41
1
10
45.0757769481342
20
1.50897289405421
30
0
41
1
10
45.1656545823691
20
1.41150564326091
30
0
41
1
10
45.2476150551253
20
1.31971128677247
30
0
41
1
10
45.3580599024031
20
1.1874107299908
30
0
41
1
10
45.3928174650281
20
1.14418128670917
30
0
41
1
10
45.4580229539683
20
1.05889495430907
30
0
41
1
10
45.4881149805181
20
1.01730797533557
30
0
41
1
10
45.5432556487704
20
0.935664778590478
30
0
41
1
10
45.568330494086
20
0.895578646112568
30
0
41
1
10
45.6136159075595
20
0.816111847363459
30
0
41
1
10
45.6540178083745
20
0.737359997334408
30
0
41
1
10
45.6852378871848
20
0.658301023800078
30
0
41
1
10
45.7121622037775
20
0.578246233154204
30
0
41
1
10
45.7234637572139
20
0.537706509421355
30
0
41
1
10
45.7328836932115
20
0.496245141976004
30
0
0
SPLINE
5
110
100
AcDbEntity
8
1
62
256
6
ByLayer
370
13
48
1
60
0
100
AcDbSpline
70
4
71
3
72
11
73
7
40
0
40
0
40
0
40
0
40
0.248315805087269
40
0.511161499030413
40
0.774007192973557
40
1
40
1
40
1
40
1
41
1
10
44.7559304192525
20
-3.10612587974481
30
0
41
1
10
44.1310369461683
20
-2.71784686252843
30
0
41
1
10
42.8446851397509
20
-1.84808726611789
30
0
41
1
10
40.896875
20
-0.374478673806635
30
0
41
1
10
39.0052412916406
20
1.06525558605628
30
0
41
1
10
37.7750659166144
20
1.96012767317813
30
0
41
1
10
37.2063488749216
20
2.35080038220804
30
0
0
SPLINE
5
111
100
AcDbEntity
8
1
62
256
6
ByLayer
370
18
48
1
60
0
100
AcDbSpline
70
4
71
3
72
18
73
14
40
0
40
0
40
0
40
0
40
0.25
40
0.25
40
0.5
40
0.5
40
0.625
40
0.625
40
0.75
40
0.75
40
0.875
40
0.875
40
1
40
1
40
1
40
1
41
1
10
43.3783147181981
20
-0.244515824021903
30
0
41
1
10
43.5003684690999
20
-0.480694262477812
30
0
41
1
10
43.6215333679759
20
-0.7171532462865
30
0
41
1
10
43.8612818357099
20
-1.19088595034984
30
0
41
1
10
43.9798839116462
20
-1.42815382927793
30
0
41
1
10
44.1546897705629
20
-1.78503322376614
30
0
41
1
10
44.2124349524213
20
-1.9041582328218
30
0
41
1
10
44.3265384745507
20
-2.14284597504346
30
0
41
1
10
44.3828998957078
20
-2.26240773579985
30
0
41
1
10
44.4937279255907
20
-2.50212931053926
30
0
41
1
10
44.5482011168442
20
-2.62228704690131
30
0
41
1
10
44.6544388165285
20
-2.86345745200558
30
0
41
1
10
44.7062198569402
20
-2.98446490281472
30
0
41
1
10
44.7559304090696
20
-3.10612585482386
30
0
0
SPLINE
5
112
100
AcDbEntity
8
1
62
256
6
ByLayer
370
18
48
1
60
0
100
AcDbSpline
70
4
71
3
72
50
73
46
40
0
40
0
40
0
40
0
40
0.0625000000000011
40
0.0625000000000011
40
0.125000000000002
40
0.125000000000002
40
0.156250000000003
40
0.156250000000003
40
0.187500000000003
40
0.187500000000003
40
0.250000000000005
40
0.250000000000005
40
0.281250000000005
40
0.281250000000005
40
0.312500000000006
40
0.312500000000006
40
0.375000000000007
40
0.375000000000007
40
0.437500000000008
40
0.437500000000008
40
0.468750000000003
40
0.468750000000003
40
0.499999999999999
40
0.499999999999999
40
0.562499999999989
40
0.562499999999989
40
0.593749999999985
40
0.593749999999985
40
0.62499999999998
40
0.62499999999998
40
0.68749999999997
40
0.68749999999997
40
0.718749999999975
40
0.718749999999975
40
0.749999999999979
40
0.749999999999979
40
0.812499999999969
40
0.812499999999969
40
0.874999999999958
40
0.874999999999958
40
0.906249999999963
40
0.906249999999963
40
0.937499999999968
40
0.937499999999968
40
1
40
1
40
1
40
1
41
1
10
43.3783147181981
20
-0.244515824021903
30
0
41
1
10
43.3611445523365
20
-0.211290929815476
30
0
41
1
10
43.3465933360636
20
-0.177242004242856
30
0
41
1
10
43.3225793707156
20
-0.107531045136227
30
0
41
1
10
43.3131160286227
20
-0.0718692226669475
30
0
41
1
10
43.3027632513836
20
-0.0171476634494354
30
0
41
1
10
43.2999469315762
20
0.0013742559307559
30
0
41
1
10
43.2956667197744
20
0.0384060117015963
30
0
41
1
10
43.2941972951846
20
0.0569017632611519
30
0
41
1
10
43.2917181961573
20
0.112328148985853
30
0
41
1
10
43.2926290644168
20
0.149198152382752
30
0
41
1
10
43.2976718247656
20
0.204375657106283
30
0
41
1
10
43.2999676518108
20
0.222746851120462
30
0
41
1
10
43.3057877685123
20
0.259444829525592
30
0
41
1
10
43.3093218480823
20
0.277790721254121
30
0
41
1
10
43.3215693952333
20
0.331912912297014
30
0
41
1
10
43.3319553474818
20
0.367062415190787
30
0
41
1
10
43.3568942089538
20
0.435548066826243
30
0
41
1
10
43.3714472725667
20
0.468884392332313
30
0
41
1
10
43.3964226081291
20
0.517485883817159
30
0
41
1
10
43.4052285003462
20
0.533355185364087
30
0
41
1
10
43.4236234885038
20
0.564175571739099
30
0
41
1
10
43.4332345293109
20
0.57916979403609
30
0
41
1
10
43.4632819889514
20
0.622924402020402
30
0
41
1
10
43.4849247299515
20
0.650462921977407
30
0
41
1
10
43.5198465287519
20
0.689291117420026
30
0
41
1
10
43.5319041941115
20
0.701824372351979
30
0
41
1
10
43.5568529169703
20
0.726014499713642
30
0
41
1
10
43.5696052802828
20
0.7375375794729
30
0
41
1
10
43.6086919306645
20
0.770434798339124
30
0
41
1
10
43.6358498800747
20
0.79014530100082
30
0
41
1
10
43.6783275812945
20
0.816395536029745
30
0
41
1
10
43.6927783999856
20
0.824590920111405
30
0
41
1
10
43.7222971144546
20
0.839848782835503
30
0
41
1
10
43.7374145902872
20
0.846931674593918
30
0
41
1
10
43.7834145883961
20
0.866272706904965
30
0
41
1
10
43.814635077919
20
0.876524497219265
30
0
41
1
10
43.8783627966636
20
0.891884260024341
30
0
41
1
10
43.9108691809254
20
0.896992039326932
30
0
41
1
10
43.960804037957
20
0.900667788132381
30
0
41
1
10
43.9777127420379
20
0.901223751711143
30
0
41
1
10
44.0115501855957
20
0.900960958131691
30
0
41
1
10
44.0284865798127
20
0.900149392340325
30
0
41
1
10
44.0793872243035
20
0.89571025962249
30
0
41
1
10
44.1134426522256
20
0.890086512725702
30
0
41
1
10
44.1477226327576
20
0.881790806375506
30
0
0
SPLINE
5
113
100
AcDbEntity
8
1
62
256
6
ByLayer
370
18
48
1
60
0
100
AcDbSpline
70
4
71
3
72
18
73
14
40
0
40
0
40
0
40
0
40
0.249999999999998
40
0.249999999999998
40
0.374999999999989
40
0.374999999999989
40
0.49999999999998
40
0.49999999999998
40
0.74999999999998
40
0.74999999999998
40
0.87499999999999
40
0.87499999999999
40
1
40
1
40
1
40
1
41
1
10
45.7328836932114
20
0.496245141976004
30
0
41
1
10
45.6275440965868
20
0.522141291811977
30
0
41
1
10
45.5107233317294
20
0.550731547435703
30
0
41
1
10
45.3225048033475
20
0.596664476022482
30
0
41
1
10
45.258280807698
20
0.612317300077336
30
0
41
1
10
45.127628546292
20
0.644127518317987
30
0
41
1
10
45.0611574875698
20
0.660295333280686
30
0
41
1
10
44.8588941784519
20
0.709452746422841
30
0
41
1
10
44.7202797094269
20
0.743089907863776
30
0
41
1
10
44.5083265687025
20
0.794470670711519
30
0
41
1
10
44.4369955386288
20
0.811753615050264
30
0
41
1
10
44.2931681239153
20
0.846586896478925
30
0
41
1
10
44.2205945211605
20
0.864155913414919
30
0
41
1
10
44.1477226327576
20
0.881790806375506
30
0
0
SPLINE
5
114
100
AcDbEntity
8
1
62
256
6
ByLayer
370
18
48
1
60
0
100
AcDbSpline
70
4
71
3
72
26
73
22
40
0
40
0
40
0
40
0
40
0.135862642886522
40
0.135862642886522
40
0.271725285773044
40
0.271725285773044
40
0.407587928659566
40
0.407587928659566
40
0.543450571546088
40
0.543450571546088
40
0.67931321443261
40
0.67931321443261
40
0.747244535875873
40
0.747244535875873
40
0.781210196597505
40
0.781210196597505
40
0.815175857319137
40
0.815175857319137
40
0.951038500205663
40
0.951038500205663
40
1
40
1
40
1
40
1
41
1
10
26.0503625057701
20
-6.18606707806933
30
0
41
1
10
26.2761126377203
20
-6.24013979485773
30
0
41
1
10
26.4967484487508
20
-6.29131037136005
30
0
41
1
10
26.9289393367792
20
-6.38449316527417
30
0
41
1
10
27.140495454552
20
-6.42649842502047
30
0
41
1
10
27.5562426944206
20
-6.4980619228493
30
0
41
1
10
27.7604332951831
20
-6.52761679989345
30
0
41
1
10
28.1637154598071
20
-6.57123104769329
30
0
41
1
10
28.3628177768516
20
-6.58525892044543
30
0
41
1
10
28.7586556630243
20
-6.59541332955448
30
0
41
1
10
28.955380505408
20
-6.5915464499173
30
0
41
1
10
29.2512022638546
20
-6.57083554538036
30
0
41
1
10
29.3499379215103
20
-6.56144927524457
30
0
41
1
10
29.49861371071
20
-6.54348647370526
30
0
41
1
10
29.5482681908662
20
-6.53685185919488
30
0
41
1
10
29.6478386647982
20
-6.52226498645879
30
0
41
1
10
29.6977003703411
20
-6.51431994053172
30
0
41
1
10
29.9471458594186
20
-6.47138953863649
30
0
41
1
10
30.1475208957567
20
-6.42668412538853
30
0
41
1
10
30.4246208566065
20
-6.35203676754898
30
0
41
1
10
30.4984579040479
20
-6.33094470764891
30
0
41
1
10
30.5728545617725
20
-6.30857616204537
30
0
0
SPLINE
5
115
100
AcDbEntity
8
1
62
256
6
ByLayer
370
18
48
1
60
0
100
AcDbSpline
70
4
71
3
72
89
73
85
40
0
40
0
40
0
40
0
40
0.0624999999999713
40
0.0624999999999713
40
0.124999999999943
40
0.124999999999943
40
0.156249999999928
40
0.156249999999928
40
0.187499999999914
40
0.187499999999914
40
0.203124999999907
40
0.203124999999907
40
0.2187499999999
40
0.2187499999999
40
0.249999999999881
40
0.249999999999881
40
0.281249999999862
40
0.281249999999862
40
0.296874999999852
40
0.296874999999852
40
0.304687499999848
40
0.304687499999848
40
0.312499999999843
40
0.312499999999843
40
0.328124999999838
40
0.328124999999838
40
0.335937499999837
40
0.335937499999837
40
0.343749999999836
40
0.343749999999836
40
0.359374999999834
40
0.359374999999834
40
0.374999999999833
40
0.374999999999833
40
0.382812499999833
40
0.382812499999833
40
0.390624999999834
40
0.390624999999834
40
0.406249999999835
40
0.406249999999835
40
0.414062499999835
40
0.414062499999835
40
0.417968749999836
40
0.417968749999836
40
0.421874999999837
40
0.437499999999839
40
0.437499999999839
40
0.445312499999841
40
0.445312499999841
40
0.453124999999842
40
0.453124999999842
40
0.468749999999844
40
0.468749999999844
40
0.484374999999846
40
0.484374999999846
40
0.492187499999847
40
0.492187499999847
40
0.499999999999849
40
0.499999999999849
40
0.531249999999858
40
0.531249999999858
40
0.562499999999867
40
0.562499999999867
40
0.578124999999871
40
0.578124999999871
40
0.593749999999876
40
0.593749999999876
40
0.624999999999885
40
0.624999999999885
40
0.656249999999894
40
0.656249999999894
40
0.687499999999904
40
0.687499999999904
40
0.749999999999926
40
0.749999999999926
40
0.781249999999935
40
0.781249999999935
40
0.812499999999944
40
0.812499999999944
40
0.874999999999963
40
0.874999999999963
40
0.937499999999981
40
0.937499999999981
40
1
40
1
40
1
40
1
41
1
10
25.927663823686
20
-2.78750528243438
30
0
41
1
10
25.7483582600702
20
-2.76894042886352
30
0
41
1
10
25.5690944996392
20
-2.75783577242672
30
0
41
1
10
25.2108647370265
20
-2.75225334483605
30
0
41
1
10
25.0318988859079
20
-2.7577839688195
30
0
41
1
10
24.7637893987929
20
-2.78030793349521
30
0
41
1
10
24.6744756199828
20
-2.79019252571004
30
0
41
1
10
24.4959731003579
20
-2.81517810544904
30
0
41
1
10
24.4067843847663
20
-2.83027480367264
30
0
41
1
10
24.2731012340467
20
-2.85735056046403
30
0
41
1
10
24.2284795673496
20
-2.86713598358301
30
0
41
1
10
24.1397787835019
20
-2.8881857096722
30
0
41
1
10
24.0956820549723
20
-2.89945038639976
30
0
41
1
10
23.96419688909
20
-2.93560090842584
30
0
41
1
10
23.8776081673452
20
-2.9628268556869
30
0
41
1
10
23.7069104049407
20
-3.02460297625663
30
0
41
1
10
23.6227944491308
20
-3.05913088439388
30
0
41
1
10
23.4989235173997
20
-3.11780654214073
30
0
41
1
10
23.4580195127006
20
-3.13852022934344
30
0
41
1
10
23.3973356920707
20
-3.17161559732992
30
0
41
1
10
23.3772502672816
20
-3.18297077933244
30
0
41
1
10
23.337557744621
20
-3.20627535212085
30
0
41
1
10
23.3179262029073
20
-3.21823811353565
30
0
41
1
10
23.259720900529
20
-3.25512322121648
30
0
41
1
10
23.2218324515458
20
-3.28103658343784
30
0
41
1
10
23.1666031067201
20
-3.32222562841122
30
0
41
1
10
23.1484613662223
20
-3.33634299723957
30
0
41
1
10
23.1127650634267
20
-3.36542709878179
30
0
41
1
10
23.0951778055367
20
-3.38042315149687
30
0
41
1
10
23.0436150193964
20
-3.42661889584642
30
0
41
1
10
23.0110902640502
20
-3.4587814629391
30
0
41
1
10
22.950272974112
20
-3.52620577736417
30
0
41
1
10
22.9219770519796
20
-3.56146515933952
30
0
41
1
10
22.8832740734978
20
-3.61707291591679
30
0
41
1
10
22.8709986427877
20
-3.63606340549876
30
0
41
1
10
22.8478263377065
20
-3.67504233566109
30
0
41
1
10
22.8368794189582
20
-3.69514183987476
30
0
41
1
10
22.8068654924958
20
-3.75597767739407
30
0
41
1
10
22.7905124218677
20
-3.79735349285363
30
0
41
1
10
22.7716667645942
20
-3.86064479311102
30
0
41
1
10
22.7663330906383
20
-3.88194667044871
30
0
41
1
10
22.7597881277098
20
-3.91420823315909
30
0
41
1
10
22.7578451118266
20
-3.92504159723495
30
0
41
1
10
22.7544739500782
20
-3.94665299685164
30
0
41
1
10
22.7473314392008
20
-4.00051556259567
30
0
41
1
10
22.7463818869239
20
-4.0535617983067
30
0
41
1
10
22.7505168787323
20
-4.11647226665164
30
0
41
1
10
22.7527762204469
20
-4.13731814659923
30
0
41
1
10
22.7589651013424
20
-4.17876667009554
30
0
41
1
10
22.7628695446931
20
-4.19918858852571
30
0
41
1
10
22.7766881477691
20
-4.25931703682573
30
0
41
1
10
22.7887184961233
20
-4.29803870050296
30
0
41
1
10
22.8173210820362
20
-4.37322827031244
30
0
41
1
10
22.8338955728136
20
-4.4096952091698
30
0
41
1
10
22.8615742812683
20
-4.46296250641009
30
0
41
1
10
22.8712850917008
20
-4.48049651755324
30
0
41
1
10
22.8913885222684
20
-4.51482235280199
30
0
41
1
10
22.9018003226259
20
-4.53165371132741
30
0
41
1
10
22.9554590410405
20
-4.61432211336373
30
0
41
1
10
23.0034143938961
20
-4.67576981883286
30
0
41
1
10
23.1060634698648
20
-4.79211105951339
30
0
41
1
10
23.1607978106492
20
-4.8469709299971
30
0
41
1
10
23.2466369304083
20
-4.92547498249178
30
0
41
1
10
23.2757817682068
20
-4.95091344693228
30
0
41
1
10
23.3347801637599
20
-5.00035715472481
30
0
41
1
10
23.3646667053676
20
-5.02439177484413
30
0
41
1
10
23.4553204072224
20
-5.09468621600598
30
0
41
1
10
23.5170738669394
20
-5.13914829889046
30
0
41
1
10
23.6425822578933
20
-5.22422574061844
30
0
41
1
10
23.7063411285753
20
-5.26483529857384
30
0
41
1
10
23.8354455324919
20
-5.34283310007876
30
0
41
1
10
23.9007932236762
20
-5.38021804305799
30
0
41
1
10
24.0987747746175
20
-5.48820351370748
30
0
41
1
10
24.2333215911733
20
-5.55467647026433
30
0
41
1
10
24.4377880046704
20
-5.64790691128542
30
0
41
1
10
24.5063913966169
20
-5.67789306173088
30
0
41
1
10
24.6443585445409
20
-5.7358829145046
30
0
41
1
10
24.7137683545662
20
-5.76390362879388
30
0
41
1
10
24.9225889624521
20
-5.84507277366916
30
0
41
1
10
25.0625523037156
20
-5.89533929312731
30
0
41
1
10
25.3434622146338
20
-5.98920895740449
30
0
41
1
10
25.4844114510433
20
-6.03280590705671
30
0
41
1
10
25.7669565249502
20
-6.11392266708336
30
0
41
1
10
25.9085538315673
20
-6.15143858518906
30
0
41
1
10
26.0503625057702
20
-6.18606707806933
30
0
0
SPLINE
5
116
100
AcDbEntity
8
1
62
256
6
ByLayer
370
13
48
1
60
0
100
AcDbSpline
70
4
71
5
72
12
73
6
40
0
40
0
40
0
40
0
40
0
40
0
40
1
40
1
40
1
40
1
40
1
40
1
41
1
10
13.5100000000738
20
5.22331442489741
30
0
41
0.986727442165217
10
13.5100000000737
20
5.0168536523997
30
0
41
0.9802012637425
10
13.5100000000737
20
4.61463202873672
30
0
41
0.9802012637425
10
13.5100000000737
20
4.03068313605883
30
0
41
0.986727442165218
10
13.5100000000738
20
3.286217665272
30
0
41
1
10
13.5100000000738
20
2.40885874604868
30
0
0
SPLINE
5
117
100
AcDbEntity
8
1
62
256
6
ByLayer
370
18
48
1
60
0
100
AcDbSpline
70
4
71
3
72
8
73
4
40
0
40
0
40
0
40
0
40
1
40
1
40
1
40
1
41
1
10
12.2392310537384
20
3.48988695837241
30
0
41
1
10
12.134238252213
20
3.59120478466278
30
0
41
1
10
12.028043853482
20
3.69398436595296
30
0
41
1
10
11.9213454659666
20
3.79875477921152
30
0
0
SPLINE
5
118
100
AcDbEntity
8
1
62
256
6
ByLayer
370
13
48
1
60
0
100
AcDbSpline
70
4
71
1
72
4
73
2
40
0
40
0
40
1
40
1
41
1
10
13.51
20
2.25409980962141
30
0
41
1
10
13.0090926717236
20
2.73044774028034
30
0
0
SPLINE
5
119
100
AcDbEntity
8
1
62
256
6
ByLayer
370
13
48
1
60
0
100
AcDbSpline
70
4
71
5
72
12
73
6
40
0
40
0
40
0
40
0
40
0
40
0
40
1
40
1
40
1
40
1
40
1
40
1
41
0.97950242119254
10
30.9750000000033
20
4.39885104773327
30
0
41
0.905485244772699
10
30.9750000000034
20
3.73705862767168
30
0
41
0.874011544901508
10
30.9750000000034
20
2.64340764348784
30
0
41
0.877704609434452
10
30.9750000000034
20
1.34930681918002
30
0
41
0.916970889600079
10
30.9750000000033
20
0.128833485555003
30
0
41
1
10
30.9750000000033
20
-0.759129364481964
30
0
0
SPLINE
5
11A
100
AcDbEntity
8
1
62
256
6
ByLayer
370
13
48
1
60
0
100
AcDbSpline
70
4
71
3
72
11
73
7
40
0
40
0
40
0
40
0
40
0.164025127337047
40
0.373018845502785
40
0.582012563668523
40
1
40
1
40
1
40
1
41
1
10
40.469902609591
20
-4.99713924049595
30
0
41
1
10
39.950768406394
20
-4.96501329827802
30
0
41
1
10
38.7701758698637
20
-4.80384147485773
30
0
41
1
10
36.9281249999999
20
-4.22988109047603
30
0
41
1
10
34.2822916666667
20
-2.99884273407028
30
0
41
1
10
32.2979166666667
20
-1.6700773675233
30
0
41
1
10
30.975
20
-0.759129364479662
30
0
0
SPLINE
5
11B
100
AcDbEntity
8
1
62
256
6
ByLayer
370
13
48
1
60
0
100
AcDbSpline
70
4
71
3
72
16
73
12
40
0
40
0
40
0
40
0
40
0.0989962614621811
40
0.216616149515653
40
0.334236037569126
40
0.451855925622598
40
0.56947581367607
40
0.687095701729542
40
0.804715589783015
40
0.922335477836487
40
1
40
1
40
1
40
1
41
1
10
40.2688144546443
20
-6.63072894719076
30
0
41
1
10
39.6842096364295
20
-6.79852356798918
30
0
41
1
10
38.4050214848814
20
-7.01993242936709
30
0
41
1
10
36.43125
20
-6.84408091990844
30
0
41
1
10
34.3475
20
-6.0806855111291
30
0
41
1
10
32.26375
20
-4.8041156284936
30
0
41
1
10
30.1799999999999
20
-3.1222765068436
30
0
41
1
10
28.09625
20
-1.17677320861591
30
0
41
1
10
26.0125
20
0.868022643619184
30
0
41
1
10
24.1646993082647
20
2.61629944503864
30
0
41
1
10
23.0114819498629
20
3.59733316566141
30
0
41
1
10
22.5528479247945
20
3.96305553544269
30
0
0
SPLINE
5
11C
100
AcDbEntity
8
1
62
256
6
ByLayer
370
18
48
1
60
0
100
AcDbSpline
70
4
71
3
72
24
73
20
40
0
40
0
40
0
40
0
40
0.124999999999942
40
0.124999999999942
40
0.187499999999918
40
0.187499999999918
40
0.249999999999894
40
0.249999999999894
40
0.374999999999891
40
0.374999999999891
40
0.437499999999912
40
0.437499999999912
40
0.499999999999934
40
0.499999999999934
40
0.624999999999968
40
0.624999999999968
40
0.750000000000003
40
0.750000000000003
40
1
40
1
40
1
40
1
41
1
10
46.0583431265186
20
-6.04941598939902
30
0
41
1
10
46.0558965948606
20
-6.05890690695517
30
0
41
1
10
46.0530530925377
20
-6.06882384525775
30
0
41
1
10
46.0481348449152
20
-6.08437419794501
30
0
41
1
10
46.0463862615281
20
-6.08967045526774
30
0
41
1
10
46.0426563504029
20
-6.10049901741741
30
0
41
1
10
46.0406628743387
20
-6.10606305658902
30
0
41
1
10
46.0344211410584
20
-6.12282569900893
30
0
41
1
10
46.0299104116803
20
-6.13411252186174
30
0
41
1
10
46.0226231067681
20
-6.1511962179388
30
0
41
1
10
46.0201069149999
20
-6.1569164499449
30
0
41
1
10
46.0148983314262
20
-6.16840686982729
30
0
41
1
10
46.0122096331167
20
-6.17416691971007
30
0
41
1
10
46.0040416196462
20
-6.19118575307167
30
0
41
1
10
45.9984098946996
20
-6.20229796159424
30
0
41
1
10
45.9868036288177
20
-6.22410368025717
30
0
41
1
10
45.9808135451065
20
-6.23481571004064
30
0
41
1
10
45.9628857735671
20
-6.26550196947795
30
0
41
1
10
45.9508122005767
20
-6.28439260691155
30
0
41
1
10
45.9386310724541
20
-6.30210515741922
30
0
0
SPLINE
5
11D
100
AcDbEntity
8
1
62
256
6
ByLayer
370
13
48
1
60
0
100
AcDbSpline
70
4
71
3
72
13
73
9
40
0
40
0
40
0
40
0
40
0.282971285837709
40
0.457636219830774
40
0.632301153823838
40
0.806966087816902
40
0.981631021809967
40
1
40
1
40
1
40
1
41
1
10
46.0583431265186
20
-6.04941598939905
30
0
41
1
10
44.9330620843458
20
-5.51309762942364
30
0
41
1
10
43.1131977088395
20
-4.27425943523875
30
0
41
1
10
40.59875
20
-2.04072048876424
30
0
41
1
10
38.515
20
-0.0179541490789745
30
0
41
1
10
36.4312500000001
20
2.00646550382473
30
0
41
1
10
34.9690361234013
20
3.30817850771024
30
0
41
1
10
34.2014055801359
20
3.9251728358611
30
0
41
1
10
34.1283583702038
20
3.98325961818682
30
0
0
SPLINE
5
11E
100
AcDbEntity
8
1
62
256
6
ByLayer
370
18
48
1
60
0
100
AcDbSpline
70
4
71
3
72
8
73
4
40
0
40
0
40
0
40
0
40
1
40
1
40
1
40
1
41
1
10
45.0242014325301
20
1.57142572313936
30
0
41
1
10
45.0422285413723
20
1.55024202458637
30
0
41
1
10
45.0594187161682
20
1.5294528561848
30
0
41
1
10
45.0757769481342
20
1.50897289405424
30
0
0
SPLINE
5
11F
100
AcDbEntity
8
1
62
256
6
ByLayer
370
18
48
1
60
0
100
AcDbSpline
70
4
71
3
72
66
73
62
40
0
40
0
40
0
40
0
40
0.0295031142304125
40
0.0295031142304125
40
0.0456780623265709
40
0.0456780623265709
40
0.0618530104227293
40
0.0618530104227293
40
0.094202906615046
40
0.094202906615046
40
0.158902698999679
40
0.158902698999679
40
0.175077647095839
40
0.175077647095839
40
0.191252595191998
40
0.191252595191998
40
0.223602491384316
40
0.223602491384316
40
0.288302283768953
40
0.288302283768953
40
0.304477231865112
40
0.304477231865112
40
0.320652179961272
40
0.320652179961272
40
0.353002076153591
40
0.353002076153591
40
0.417701868538226
40
0.417701868538226
40
0.433876816634385
40
0.433876816634385
40
0.450051764730545
40
0.482401660922864
40
0.514751557115183
40
0.514751557115183
40
0.547101453307502
40
0.547101453307502
40
0.579451349499821
40
0.579451349499821
40
0.61180124569214
40
0.644151141884459
40
0.66032608998062
40
0.66032608998062
40
0.67650103807678
40
0.67650103807678
40
0.741200830461423
40
0.741200830461423
40
0.773550726653744
40
0.773550726653744
40
0.789725674749905
40
0.789725674749905
40
0.805900622846066
40
0.805900622846066
40
0.87060041523071
40
0.87060041523071
40
0.902950311423032
40
0.902950311423032
40
0.919125259519193
40
0.919125259519193
40
0.935300207615354
40
0.935300207615354
40
1
40
1
40
1
40
1
41
1
10
31.4551660484355
20
6.05346584264322
30
0
41
1
10
31.5892219862098
20
6.12312329911344
30
0
41
1
10
31.7232262054549
20
6.18966761251846
30
0
41
1
10
31.9307692470024
20
6.28761457948315
30
0
41
1
10
32.0042776414956
20
6.32131435290523
30
0
41
1
10
32.1513647545054
20
6.38670070691856
30
0
41
1
10
32.2249783730363
20
6.41840164138111
30
0
41
1
10
32.4457276791773
20
6.51031851106438
30
0
41
1
10
32.5926281492197
20
6.56729070254067
30
0
41
1
10
33.0330039740388
20
6.72514301954024
30
0
41
1
10
33.3261679850684
20
6.81292126330027
30
0
41
1
10
33.6935677728003
20
6.90092944010382
30
0
41
1
10
33.7670939193282
20
6.91744824353694
30
0
41
1
10
33.9142701743723
20
6.94833412762725
30
0
41
1
10
33.9879539425976
20
6.96270636628972
30
0
41
1
10
34.2087560381717
20
7.00254236656852
30
0
41
1
10
34.3557508530929
20
7.02476101767783
30
0
41
1
10
34.7964443832065
20
7.07890177855984
30
0
41
1
10
35.0898067715525
20
7.09837849525616
30
0
41
1
10
35.4572385316513
20
7.10000080074067
30
0
41
1
10
35.5307633761913
20
7.0991931038983
30
0
41
1
10
35.6779289182674
20
7.09527783059988
30
0
41
1
10
35.7515367619327
20
7.09216959877091
30
0
41
1
10
35.9720646265729
20
7.07939193068347
30
0
41
1
10
36.118850964299
20
7.06626401991988
30
0
41
1
10
36.5589904455632
20
7.01303773071285
30
0
41
1
10
36.8521295670038
20
6.95908010438393
30
0
41
1
10
37.2197828412367
20
6.86889678128108
30
0
41
1
10
37.2934191976496
20
6.84971201916784
30
0
41
1
10
37.4405771783949
20
6.80916391194862
30
0
41
1
10
37.661151557649
20
6.74507668056336
30
0
41
1
10
38.0282507826247
20
6.62223351394118
30
0
41
1
10
38.3219157830149
20
6.50748950624234
30
0
41
1
10
38.6158017938072
20
6.3848246640971
30
0
41
1
10
38.7628501129884
20
6.31956626566469
30
0
41
1
10
39.0573896410844
20
6.18111134271274
30
0
41
1
10
39.2044623226658
20
6.10807709097278
30
0
41
1
10
39.4982483095216
20
5.95456703575601
30
0
41
1
10
39.7917476513437
20
5.793581553433
30
0
41
1
10
40.1586077839969
20
5.57386954957204
30
0
41
1
10
40.379053250744
20
5.43383690079116
30
0
41
1
10
40.5261288911698
20
5.33867239838881
30
0
41
1
10
40.5997559028685
20
5.29016233974264
30
0
41
1
10
40.9674423357695
20
5.04368514140364
30
0
41
1
10
41.260686973076
20
4.83361411042048
30
0
41
1
10
41.701001252789
20
4.50067599062643
30
0
41
1
10
41.8478461275466
20
4.38672376024363
30
0
41
1
10
42.0684355038026
20
4.21150835199634
30
0
41
1
10
42.142035791829
20
4.15237479475167
30
0
41
1
10
42.2893053988875
20
4.03276351986239
30
0
41
1
10
42.3628810343942
20
3.97236226084834
30
0
41
1
10
42.7305464006387
20
3.66747190891533
30
0
41
1
10
43.0239937880887
20
3.41436847635325
30
0
41
1
10
43.4646403160027
20
3.02225127425987
30
0
41
1
10
43.6116034504824
20
2.88947062301719
30
0
41
1
10
43.8323732414281
20
2.68735777540849
30
0
41
1
10
43.9060234030387
20
2.61949010219675
30
0
41
1
10
44.0529849785609
20
2.48325265087536
30
0
41
1
10
44.1263567526379
20
2.41482787611946
30
0
41
1
10
44.4927608365904
20
2.07126894033215
30
0
41
1
10
44.7844321847789
20
1.79183745407437
30
0
41
1
10
45.0757769481342
20
1.5089728940543
30
0
0
SPLINE
5
120
100
AcDbEntity
8
1
62
256
6
ByLayer
370
13
48
1
60
0
100
AcDbSpline
70
4
71
3
72
14
73
10
40
0
40
0
40
0
40
0
40
0.0827060569705796
40
0.213748048831925
40
0.344790040693271
40
0.475832032554617
40
0.606874024415963
40
0.737916016277308
40
1
40
1
40
1
40
1
41
1
10
29.4113913815107
20
-6.63190788624101
30
0
41
1
10
28.9730109210071
20
-6.75752292771284
30
0
41
1
10
27.8400471271702
20
-6.98571003805012
30
0
41
1
10
26.0125
20
-6.9316288003408
30
0
41
1
10
23.9287499999999
20
-6.2848658055515
30
0
41
1
10
21.845
20
-5.10783884770126
30
0
41
1
10
19.76125
20
-3.49961584394924
30
0
41
1
10
16.9829166666667
20
-0.961462979077851
30
0
41
1
10
14.8991666666667
20
1.14397417308044
30
0
41
1
10
13.51
20
2.40885874611584
30
0
0
SPLINE
5
121
100
AcDbEntity
8
1
62
256
6
ByLayer
370
18
48
1
60
0
100
AcDbSpline
70
4
71
5
72
12
73
6
40
0
40
0
40
0
40
0
40
0
40
0
40
1
40
1
40
1
40
1
40
1
40
1
41
1
10
13.51
20
2.40885874611584
30
0
41
0.982046375545599
10
13.51
20
2.35476869192774
30
0
41
0.973271021212804
10
13.51
20
2.31033869203301
30
0
41
0.973271021212804
10
13.51
20
2.27780679275331
30
0
41
0.982046375545599
10
13.51
20
2.25876864619224
30
0
41
1
10
13.51
20
2.25409980962141
30
0
0
SPLINE
5
122
100
AcDbEntity
8
1
62
256
6
ByLayer
370
18
48
1
60
0
100
AcDbSpline
70
4
71
3
72
8
73
4
40
0
40
0
40
0
40
0
40
1
40
1
40
1
40
1
41
1
10
45.0241999158406
20
6.90622653282435
30
0
41
1
10
45.042227949718
20
6.88786358530129
30
0
41
1
10
45.0594189528175
20
6.86864282119663
30
0
41
1
10
45.0757779187673
20
6.84864511464085
30
0
0
SPLINE
5
123
100
AcDbEntity
8
1
62
256
6
ByLayer
370
18
48
1
60
0
100
AcDbSpline
70
4
71
3
72
10
73
6
40
0
40
0
40
0
40
0
40
0.5
40
0.5
40
1
40
1
40
1
40
1
41
1
10
44.8081264106498
20
7.06025235181801
30
0
41
1
10
44.8472020385384
20
7.0406791479665
30
0
41
1
10
44.8850354277005
20
7.01845008707656
30
0
41
1
10
44.9574221944529
20
6.96760209044197
30
0
41
1
10
44.992001056251
20
6.93902356288126
30
0
41
1
10
45.0241999158399
20
6.906226532825
30
0
0
SPLINE
5
124
100
AcDbEntity
8
1
62
256
6
ByLayer
370
13
48
1
60
0
100
AcDbSpline
70
4
71
3
72
8
73
4
40
0
40
0
40
0
40
0
40
1
40
1
40
1
40
1
41
1
10
16.6168909830781
20
-3.69305449238251
30
0
41
1
10
15.5812606553854
20
-3.08985765712239
30
0
41
1
10
14.5456303276927
20
-2.37091337679783
30
0
41
1
10
13.51
20
-1.59671586102166
30
0
0
SPLINE
5
125
100
AcDbEntity
8
1
62
256
6
ByLayer
370
18
48
1
60
0
100
AcDbSpline
70
4
71
3
72
16
73
12
40
0
40
0
40
0
40
0
40
0.248544036684719
40
0.248544036684719
40
0.436408027513537
40
0.436408027513537
40
0.530340022927946
40
0.530340022927946
40
0.624272018342355
40
0.624272018342355
40
1
40
1
40
1
40
1
41
1
10
42.7297100600935
20
5.88041546480156
30
0
41
1
10
42.9243984974802
20
5.98851681362532
30
0
41
1
10
43.1188600457193
20
6.08998434359449
30
0
41
1
10
43.4604203763081
20
6.25624966099647
30
0
41
1
10
43.6074930871963
20
6.32395195590919
30
0
41
1
10
43.8283636080917
20
6.41958246174914
30
0
41
1
10
43.9020307934714
20
6.45047180747341
30
0
41
1
10
44.049487754698
20
6.51025213711412
30
0
41
1
10
44.1231699648699
20
6.53909853589675
30
0
41
1
10
44.4909289963796
20
6.67791332733907
30
0
41
1
10
44.7835675031844
20
6.77186327623869
30
0
41
1
10
45.0757779187674
20
6.84864511464073
30
0
0
SPLINE
5
126
100
AcDbEntity
8
1
62
256
6
ByLayer
370
13
48
1
60
0
100
AcDbSpline
70
4
71
3
72
10
73
6
40
0
40
0
40
0
40
0
40
0.015550544537975
40
0.804078545246179
40
1
40
1
40
1
40
1
41
1
10
26.0535935910354
20
4.94741551971029
30
0
41
1
10
26.0398957273569
20
4.95228982169752
30
0
41
1
10
25.3316145303451
20
5.20292321261505
30
0
41
1
10
24.4507538218991
20
5.42403787715298
30
0
41
1
10
23.5835909771315
20
5.51941399456166
30
0
41
1
10
23.4110114656973
20
5.53354336188218
30
0
0
SPLINE
5
127
100
AcDbEntity
8
1
62
256
6
ByLayer
370
18
48
1
60
0
100
AcDbSpline
70
4
71
3
72
57
73
53
40
0
40
0
40
0
40
0
40
0.0624999999999963
40
0.0624999999999963
40
0.124999999999993
40
0.124999999999993
40
0.156249999999991
40
0.156249999999991
40
0.187499999999989
40
0.187499999999989
40
0.24999999999998
40
0.24999999999998
40
0.281249999999976
40
0.281249999999976
40
0.296874999999974
40
0.296874999999974
40
0.312499999999972
40
0.312499999999972
40
0.374999999999974
40
0.374999999999974
40
0.437499999999976
40
0.437499999999976
40
0.468749999999979
40
0.468749999999979
40
0.484374999999983
40
0.484374999999983
40
0.499999999999987
40
0.562499999999988
40
0.562499999999988
40
0.593749999999986
40
0.593749999999986
40
0.624999999999984
40
0.624999999999984
40
0.656249999999982
40
0.656249999999982
40
0.671874999999984
40
0.671874999999984
40
0.687499999999986
40
0.687499999999986
40
0.749999999999987
40
0.749999999999987
40
0.812499999999989
40
0.812499999999989
40
0.87499999999999
40
0.87499999999999
40
0.906249999999994
40
0.906249999999994
40
0.921874999999996
40
0.921874999999996
40
0.937499999999998
40
0.937499999999998
40
1
40
1
40
1
40
1
41
1
10
30.975
20
4.39864754373906
30
0
41
1
10
30.8835675669499
20
4.46992710954126
30
0
41
1
10
30.7920766908899
20
4.54160083764913
30
0
41
1
10
30.6092543566969
20
4.68399120562128
30
0
41
1
10
30.5179198436899
20
4.75474838136938
30
0
41
1
10
30.3811100551981
20
4.85846798219274
30
0
41
1
10
30.3355378572232
20
4.89263036047657
30
0
41
1
10
30.2444519082533
20
4.95966637184895
30
0
41
1
10
30.1989386903653
20
4.99254178923337
30
0
41
1
10
30.0624489235121
20
5.08825178927827
30
0
41
1
10
29.9715667521759
20
5.14820352971628
30
0
41
1
10
29.8347365818778
20
5.22689642297564
30
0
41
1
10
29.7890315119262
20
5.25123812981627
30
0
41
1
10
29.7201357275125
20
5.28439348111877
30
0
41
1
10
29.6970402772454
20
5.2949181773846
30
0
41
1
10
29.6511989043034
20
5.31459831324818
30
0
41
1
10
29.628426664654
20
5.32377107511624
30
0
41
1
10
29.5151597808224
20
5.36643891057767
30
0
41
1
10
29.4264175886308
20
5.39036948371174
30
0
41
1
10
29.2489119765154
20
5.42227684312002
30
0
41
1
10
29.1601550041723
20
5.4302821646429
30
0
41
1
10
29.024930973646
20
5.43227715504335
30
0
41
1
10
28.9795146216249
20
5.43125719663647
30
0
41
1
10
28.9106488954168
20
5.42733309102019
30
0
41
1
10
28.8875411612767
20
5.42562242573504
30
0
41
1
10
28.8412423593429
20
5.42143955445786
30
0
41
1
10
28.7252351832607
20
5.40908008823757
30
0
41
1
10
28.6075007189325
20
5.38762658125378
30
0
41
1
10
28.4629302963084
20
5.35457913363783
30
0
41
1
10
28.4141915819604
20
5.342345181864
30
0
41
1
10
28.3153246297235
20
5.315704288316
30
0
41
1
10
28.2651989000711
20
5.30127786342752
30
0
41
1
10
28.1632250271826
20
5.27068137246531
30
0
41
1
10
28.1113734946663
20
5.25452995903808
30
0
41
1
10
28.0320465167371
20
5.22948166344892
30
0
41
1
10
28.0053325948571
20
5.22099112909248
30
0
41
1
10
27.9515643640285
20
5.20388337401636
30
0
41
1
10
27.9244855351716
20
5.19525844372416
30
0
41
1
10
27.7880428486538
20
5.15197995758277
30
0
41
1
10
27.6754736658453
20
5.11684623403357
30
0
41
1
10
27.4421109978552
20
5.05080497485352
30
0
41
1
10
27.3229722113187
20
5.02037571362118
30
0
41
1
10
27.0795316230298
20
4.96957268300812
30
0
41
1
10
26.9552287822244
20
4.94925759992938
30
0
41
1
10
26.7651099849371
20
4.92933028183143
30
0
41
1
10
26.7011304142072
20
4.92443361128986
30
0
41
1
10
26.604310711544
20
4.91996046024562
30
0
41
1
10
26.5718595249987
20
4.91894759967002
30
0
41
1
10
26.5070156001683
20
4.91791162483284
30
0
41
1
10
26.4745924492113
20
4.91788596785093
30
0
41
1
10
26.3124951219021
20
4.92022326456714
30
0
41
1
10
26.1828831189833
20
4.93002617429926
30
0
41
1
10
26.0535935910353
20
4.94741551971029
30
0
0
SPLINE
5
128
100
AcDbEntity
8
1
62
256
6
ByLayer
370
18
48
1
60
0
100
AcDbSpline
70
4
71
3
72
8
73
4
40
0
40
0
40
0
40
0
40
1
40
1
40
1
40
1
41
1
10
30.9748806489729
20
4.39875481176401
30
0
41
1
10
30.9749204345261
20
4.39927091558135
30
0
41
1
10
30.9749602201097
20
4.39978638327139
30
0
41
1
10
30.9750000057234
20
4.40030121424971
30
0
0
SPLINE
5
129
100
AcDbEntity
8
1
62
256
6
ByLayer
370
18
48
1
60
0
100
AcDbSpline
70
4
71
3
72
24
73
20
40
0
40
0
40
0
40
0
40
0.24827758992021
40
0.24827758992021
40
0.310346987400263
40
0.310346987400263
40
0.372416384880315
40
0.372416384880315
40
0.49655517984042
40
0.49655517984042
40
0.744832769760631
40
0.744832769760631
40
0.806902167240683
40
0.806902167240683
40
0.868971564720736
40
0.868971564720736
40
0.993110359680841
40
0.993110359680841
40
1
40
1
40
1
40
1
41
1
10
30.9750000000034
20
4.40030113982064
30
0
41
1
10
31.2699705810031
20
4.17013711659723
30
0
41
1
10
31.5641302900298
20
3.93009221961003
30
0
41
1
10
31.9321175285051
20
3.6177952623303
30
0
41
1
10
32.0057312786039
20
3.55472748240516
30
0
41
1
10
32.1530302657673
20
3.42739174668134
30
0
41
1
10
32.2267535648182
20
3.36309023928388
30
0
41
1
10
32.4477940502299
20
3.16867942563638
30
0
41
1
10
32.5948911276023
20
3.03714568392385
30
0
41
1
10
33.0358663502312
20
2.63721177894982
30
0
41
1
10
33.3294429080964
20
2.36347988047035
30
0
41
1
10
33.6973791456224
20
2.01403465155195
30
0
41
1
10
33.7710136064777
20
1.9437815660846
30
0
41
1
10
33.918408593863
20
1.80258624734193
30
0
41
1
10
33.9921950983956
20
1.73161871309679
30
0
41
1
10
34.2132882296232
20
1.51822136497083
30
0
41
1
10
34.3604802650686
20
1.37515659710027
30
0
41
1
10
34.5157423625748
20
1.22344842379971
30
0
41
1
10
34.523905915179
20
1.21546933484737
30
0
41
1
10
34.5320691654383
20
1.20748818147877
30
0
0
SPLINE
5
12A
100
AcDbEntity
8
1
62
256
6
ByLayer
370
18
48
1
60
0
100
AcDbSpline
70
4
71
5
72
12
73
6
40
0
40
0
40
0
40
0
40
0
40
0
40
1
40
1
40
1
40
1
40
1
40
1
41
1
10
13.5100000001238
20
7.3644729122237
30
0
41
0.931616988572233
10
13.5100000001238
20
6.79841025827187
30
0
41
0.900348130515806
10
13.5100000001238
20
6.19920190746584
30
0
41
0.900348130515806
10
13.5100000001238
20
5.6791166434501
30
0
41
0.931616988572233
10
13.5100000001238
20
5.33348711438387
30
0
41
1
10
13.5100000001238
20
5.22331442488394
30
0
0
SPLINE
5
12B
100
AcDbEntity
8
1
62
256
6
ByLayer
370
13
48
1
60
0
100
AcDbSpline
70
4
71
3
72
12
73
8
40
0
40
0
40
0
40
0
40
0.160973420770911
40
0.328778736616729
40
0.496584052462546
40
0.664389368308364
40
1
40
1
40
1
40
1
41
1
10
25.9276638236811
20
-2.78750528243111
30
0
41
1
10
25.2613592157874
20
-2.3369849084676
30
0
41
1
10
23.9004712745603
20
-1.33921457177692
30
0
41
1
10
21.845
20
0.266966199289271
30
0
41
1
10
19.76125
20
1.88410749000374
30
0
41
1
10
16.9829166666667
20
3.81669518251786
30
0
41
1
10
14.8991666666667
20
4.84949676015168
30
0
41
1
10
13.51
20
5.22331442491725
30
0
0
SPLINE
5
12C
100
AcDbEntity
8
1
62
256
6
ByLayer
370
18
48
1
60
0
100
AcDbSpline
70
4
71
3
72
10
73
6
40
0
40
0
40
0
40
0
40
0.484669004575766
40
0.484669004575766
40
1
40
1
40
1
40
1
41
1
10
26.6903955539854
20
-2.88582197900354
30
0
41
1
10
26.5678570507615
20
-2.86422491947155
30
0
41
1
10
26.4447777599263
20
-2.8467400406638
30
0
41
1
10
26.1903562247032
20
-2.81504498994138
30
0
41
1
10
26.0589852632489
20
-2.80110023807074
30
0
41
1
10
25.927663823686
20
-2.78750528243438
30
0
0
SPLINE
5
12D
100
AcDbEntity
8
1
62
256
6
ByLayer
370
13
48
1
60
0
100
AcDbSpline
70
4
71
1
72
4
73
2
40
0
40
0
40
1
40
1
41
1
10
13.51
20
-6.62695645565836
30
0
41
1
10
10.4513845463181
20
-5.7300118920127
30
0
0
SPLINE
5
12E
100
AcDbEntity
8
1
62
256
6
ByLayer
370
13
48
1
60
0
100
AcDbSpline
70
4
71
5
72
12
73
6
40
0
40
0
40
0
40
0
40
0
40
0
40
1
40
1
40
1
40
1
40
1
40
1
41
1
10
13.5100000000965
20
-1.59671586109383
30
0
41
0.984442337078794
10
13.5100000000965
20
-2.81900984689745
30
0
41
0.976814781165423
10
13.5100000000965
20
-3.98030346635549
30
0
41
0.976814781165423
10
13.5100000000965
20
-5.03065698034079
30
0
41
0.984442337078794
10
13.5100000000965
20
-5.92538761993465
30
0
41
1
10
13.5100000000965
20
-6.6269564556867
30
0
0
SPLINE
5
12F
100
AcDbEntity
8
1
62
256
6
ByLayer
370
18
48
1
60
0
100
AcDbSpline
70
4
71
3
72
14
73
10
40
0
40
0
40
0
40
0
40
0.500000000000023
40
0.500000000000023
40
0.625000000000017
40
0.625000000000017
40
0.75000000000001
40
0.75000000000001
40
1
40
1
40
1
40
1
41
1
10
12.1197849875493
20
-6.8905120516425
30
0
41
1
10
12.0640480700627
20
-6.86633045177197
30
0
41
1
10
12.0202783046894
20
-6.83835831390374
30
0
41
1
10
11.9789984353664
20
-6.79839968638916
30
0
41
1
10
11.9714645753063
20
-6.79019775697273
30
0
41
1
10
11.9578786336529
20
-6.77354797679484
30
0
41
1
10
11.9518002948256
20
-6.76507516226005
30
0
41
1
10
11.9355352543409
20
-6.73922212556241
30
0
41
1
10
11.9273116829759
20
-6.72140787874758
30
0
41
1
10
11.9213454800063
20
-6.70303080068698
30
0
0
SPLINE
5
130
100
AcDbEntity
8
1
62
256
6
ByLayer
370
18
48
1
60
0
100
AcDbSpline
70
4
71
3
72
8
73
4
40
0
40
0
40
0
40
0
40
1
40
1
40
1
40
1
41
1
10
11.1296434876422
20
-6.26483332048937
30
0
41
1
10
11.3950507346782
20
-6.42456023057051
30
0
41
1
10
11.6582131038129
20
-6.57103101761282
30
0
41
1
10
11.9213454799937
20
-6.70303080068837
30
0
0
SPLINE
5
131
100
AcDbEntity
8
1
62
256
6
ByLayer
370
18
48
1
60
0
100
AcDbSpline
70
4
71
3
72
20
73
16
40
0
40
0
40
0
40
0
40
0.0625000000000005
40
0.0625000000000005
40
0.125000000000001
40
0.125000000000001
40
0.25
40
0.25
40
0.375
40
0.375
40
0.499999999999999
40
0.499999999999999
40
0.75
40
0.75
40
1
40
1
40
1
40
1
41
1
10
10.4513845463182
20
-5.7300118920127
30
0
41
1
10
10.4613190260885
20
-5.74377861475907
30
0
41
1
10
10.4720582720127
20
-5.75716758806385
30
0
41
1
10
10.4945535155429
20
-5.78343173002577
30
0
41
1
10
10.5063192193792
20
-5.79630300177917
30
0
41
1
10
10.5427284243973
20
-5.83431657239174
30
0
41
1
10
10.5684860143084
20
-5.85888557649744
30
0
41
1
10
10.6217125711553
20
-5.90681556673596
30
0
41
1
10
10.6491714964178
20
-5.93014411414876
30
0
41
1
10
10.7052838253098
20
-5.9758041986999
30
0
41
1
10
10.7339433074724
20
-5.99813251222398
30
0
41
1
10
10.8213167573396
20
-6.06384844062569
30
0
41
1
10
10.8814248359584
20
-6.10598814041381
30
0
41
1
10
11.0039030741877
20
-6.18741923124225
30
0
41
1
10
11.0663253454386
20
-6.22672722071778
30
0
41
1
10
11.1296434876421
20
-6.26483332048937
30
0
0
SPLINE
5
132
100
AcDbEntity
8
1
62
256
6
ByLayer
370
18
48
1
60
0
100
AcDbSpline
70
4
71
3
72
35
73
31
40
0
40
0
40
0
40
0
40
0.0625000000000003
40
0.0625000000000003
40
0.125000000000001
40
0.187500000000001
40
0.250000000000001
40
0.250000000000001
40
0.281250000000002
40
0.281250000000002
40
0.312500000000002
40
0.312500000000002
40
0.375000000000002
40
0.375000000000002
40
0.437500000000002
40
0.437500000000002
40
0.500000000000003
40
0.562500000000003
40
0.562500000000003
40
0.625000000000003
40
0.625000000000003
40
0.750000000000003
40
0.750000000000003
40
0.812500000000003
40
0.812500000000003
40
0.843750000000003
40
0.843750000000003
40
0.875000000000002
40
0.875000000000002
40
1
40
1
40
1
40
1
41
1
10
7.15535784432171
20
2.38714927980044
30
0
41
1
10
7.20105157625685
20
2.20188846259785
30
0
41
1
10
7.24882179241368
20
2.01604678401259
30
0
41
1
10
7.34833038957183
20
1.64326138627899
30
0
41
1
10
7.45180676574407
20
1.26937345974275
30
0
41
1
10
7.61847964777709
20
0.705307486038009
30
0
41
1
10
7.73702899511494
20
0.327103661473188
30
0
41
1
10
7.82869337217383
20
0.042623116618131
30
0
41
1
10
7.85970734727223
20
-0.0523418386228798
30
0
41
1
10
7.92265375332568
20
-0.242552778078704
30
0
41
1
10
7.95441425667448
20
-0.337278636159027
30
0
41
1
10
8.05043997165586
20
-0.620084203385431
30
0
41
1
10
8.11548637188153
20
-0.806911278022511
30
0
41
1
10
8.24752546025465
20
-1.17727203146211
30
0
41
1
10
8.31450529270586
20
-1.36081007938509
30
0
41
1
10
8.45042002659034
20
-1.72462911076835
30
0
41
1
10
8.58834843324905
20
-2.08516959412441
30
0
41
1
10
8.73098880376551
20
-2.43891412747701
30
0
41
1
10
8.87635604442826
20
-2.7890954412199
30
0
41
1
10
8.94961814394273
20
-2.96050876202162
30
0
41
1
10
9.17139130744667
20
-3.46358435232818
30
0
41
1
10
9.32194499844212
20
-3.78429890165717
30
0
41
1
10
9.55355787661819
20
-4.24343252942739
30
0
41
1
10
9.63172825144267
20
-4.3928084309558
30
0
41
1
10
9.75069278822471
20
-4.61126396668098
30
0
41
1
10
9.79063289408253
20
-4.6831469514284
30
0
41
1
10
9.87113334591257
20
-4.82501417109413
30
0
41
1
10
9.91174032657776
20
-4.89507460445913
30
0
41
1
10
10.1154814923983
20
-5.23891047678171
30
0
41
1
10
10.281204794824
20
-5.49434013653919
30
0
41
1
10
10.4513845463181
20
-5.7300118920127
30
0
0
SPLINE
5
133
100
AcDbEntity
8
1
62
256
6
ByLayer
370
18
48
1
60
0
100
AcDbSpline
70
4
71
3
72
52
73
48
40
0
40
0
40
0
40
0
40
0.125
40
0.125
40
0.249999999999999
40
0.249999999999999
40
0.312500000000001
40
0.312500000000001
40
0.375000000000002
40
0.375000000000002
40
0.500000000000004
40
0.500000000000004
40
0.562500000000007
40
0.562500000000007
40
0.593750000000008
40
0.593750000000008
40
0.625000000000009
40
0.625000000000009
40
0.687500000000012
40
0.687500000000012
40
0.750000000000014
40
0.750000000000014
40
0.781250000000014
40
0.781250000000014
40
0.812500000000013
40
0.812500000000013
40
0.843750000000013
40
0.843750000000013
40
0.859375000000013
40
0.859375000000013
40
0.875000000000012
40
0.875000000000012
40
0.906250000000012
40
0.906250000000012
40
0.921875000000012
40
0.921875000000012
40
0.929687500000012
40
0.929687500000012
40
0.937500000000011
40
0.937500000000011
40
0.968750000000008
40
0.968750000000008
40
0.976562500000005
40
0.976562500000005
40
0.984375000000002
40
0.984375000000002
40
1
40
1
40
1
40
1
41
1
10
12.0488554406487
20
-7.48953513634098
30
0
41
1
10
11.8774732836487
20
-7.46864485087968
30
0
41
1
10
11.7051514533525
20
-7.44143565310401
30
0
41
1
10
11.3561355705563
20
-7.37551432356929
30
0
41
1
10
11.1794485231146
20
-7.33679735832035
30
0
41
1
10
10.9090469011872
20
-7.27137097417113
30
0
41
1
10
10.81802528413
20
-7.24834280221182
30
0
41
1
10
10.6343653174596
20
-7.20029064370581
30
0
41
1
10
10.5416610125132
20
-7.1752504933809
30
0
41
1
10
10.2603324830995
20
-7.09765571559188
30
0
41
1
10
10.0685507827735
20
-7.0425729531641
30
0
41
1
10
9.77142985410546
20
-6.95793792312321
30
0
41
1
10
9.67079841697279
20
-6.92940489389213
30
0
41
1
10
9.51693382715948
20
-6.88663790233213
30
0
41
1
10
9.46510952979054
20
-6.87237553661291
30
0
41
1
10
9.36066271463355
20
-6.84404346692091
30
0
41
1
10
9.30804654524118
20
-6.82997502314419
30
0
41
1
10
9.1488948965974
20
-6.78824420104729
30
0
41
1
10
9.04106809778659
20
-6.76104390513609
30
0
41
1
10
8.82108159236563
20
-6.70908640933089
30
0
41
1
10
8.70893707129778
20
-6.68431487118053
30
0
41
1
10
8.53641241807682
20
-6.65029724979345
30
0
41
1
10
8.47806548532645
20
-6.63946885553054
30
0
41
1
10
8.36053230142582
20
-6.6193445071894
30
0
41
1
10
8.30129156110905
20
-6.61003329610793
30
0
41
1
10
8.18167396192797
20
-6.59332052584745
30
0
41
1
10
8.12129465736288
20
-6.5859234981437
30
0
41
1
10
8.02968915746771
20
-6.57664389777602
30
0
41
1
10
7.9989808358871
20
-6.57385403898971
30
0
41
1
10
7.93717715584825
20
-6.56896212141552
30
0
41
1
10
7.9060446260356
20
-6.56685945164293
30
0
41
1
10
7.81279573510201
20
-6.56176916238817
30
0
41
1
10
7.75059935983418
20
-6.55996453398478
30
0
41
1
10
7.65724744299763
20
-6.56027302955536
30
0
41
1
10
7.62612052093667
20
-6.56088113437894
30
0
41
1
10
7.5794134279023
20
-6.56266894926151
30
0
41
1
10
7.56384160452765
20
-6.56341117660702
30
0
41
1
10
7.53269187914668
20
-6.56521313252281
30
0
41
1
10
7.5170808176432
20
-6.566275616555
30
0
41
1
10
7.43945797182974
20
-6.57241880511853
30
0
41
1
10
7.37892344822606
20
-6.57992210905448
30
0
41
1
10
7.30589095087754
20
-6.59353298503962
30
0
41
1
10
7.2914183492812
20
-6.59646961861145
30
0
41
1
10
7.26276875458265
20
-6.60281134038766
30
0
41
1
10
7.24859848222113
20
-6.60621711203387
30
0
41
1
10
7.20707998976246
20
-6.61706564750807
30
0
41
1
10
7.18055350395227
20
-6.62517180294117
30
0
41
1
10
7.15535784432169
20
-6.63425556137227
30
0
0
SPLINE
5
134
100
AcDbEntity
8
1
62
256
6
ByLayer
370
18
48
1
60
0
100
AcDbSpline
70
4
71
3
72
8
73
4
40
0
40
0
40
0
40
0
40
1
40
1
40
1
40
1
41
1
10
12.2856114191291
20
-7.51433093943808
30
0
41
1
10
12.206792210663
20
-7.50743827401277
30
0
41
1
10
12.1278946394856
20
-7.49916759594095
30
0
41
1
10
12.0488554406488
20
-7.48953513634098
30
0
0
SPLINE
5
135
100
AcDbEntity
8
1
62
256
6
ByLayer
370
18
48
1
60
0
100
AcDbSpline
70
4
71
1
72
4
73
2
40
0
40
0
40
1
40
1
41
1
10
13.51
20
-1.59671586102166
30
0
41
1
10
6.916850706248
20
3.3320696987218
30
0
0
SPLINE
5
136
100
AcDbEntity
8
1
62
256
6
ByLayer
370
18
48
1
60
0
100
AcDbSpline
70
4
71
5
72
12
73
6
40
0
40
0
40
0
40
0
40
0
40
0
40
1
40
1
40
1
40
1
40
1
40
1
41
0.921023861181229
10
13.5100000000618
20
-0.431628861067852
30
0
41
0.918739629152035
10
13.5100000000617
20
-0.580905276124044
30
0
41
0.925336257762025
10
13.5100000000618
20
-0.783763402766177
30
0
41
0.94075870539017
10
13.5100000000618
20
-1.02951271270618
30
0
41
0.96537975217208
10
13.5100000000618
20
-1.3052816538744
30
0
41
1
10
13.5100000000618
20
-1.59671586106785
30
0
0
SPLINE
5
137
100
AcDbEntity
8
1
62
256
6
ByLayer
370
18
48
1
60
0
100
AcDbSpline
70
4
71
3
72
8
73
4
40
0
40
0
40
0
40
0
40
1
40
1
40
1
40
1
41
1
10
12.2856114191292
20
1.01405313506504
30
0
41
1
10
12.2067922106631
20
1.09689678403893
30
0
41
1
10
12.1278946394857
20
1.17945709239837
30
0
41
1
10
12.0488554406489
20
1.26167651373089
30
0
0
SPLINE
5
138
100
AcDbEntity
8
1
62
256
6
ByLayer
370
18
48
1
60
0
100
AcDbSpline
70
4
71
3
72
14
73
10
40
0
40
0
40
0
40
0
40
0.500000000000002
40
0.500000000000002
40
0.624999999999997
40
0.624999999999997
40
0.749999999999993
40
0.749999999999993
40
1
40
1
40
1
40
1
41
1
10
12.1197849875528
20
3.41787063610315
30
0
41
1
10
12.0640480591461
20
3.47095695228973
30
0
41
1
10
12.0202782875179
20
3.53063968901904
30
0
41
1
10
11.9789984153957
20
3.61226826679948
30
0
41
1
10
11.9714645552715
20
3.62886289971695
30
0
41
1
10
11.9578786137599
20
3.66221244037072
30
0
41
1
10
11.9518002752215
20
3.67901846983131
30
0
41
1
10
11.9355352361875
20
3.72978365002982
30
0
41
1
10
11.9273116665648
20
3.76408816880763
30
0
41
1
10
11.921345465979
20
3.79875477921272
30
0
0
SPLINE
5
139
100
AcDbEntity
8
1
62
256
6
ByLayer
370
18
48
1
60
0
100
AcDbSpline
70
4
71
3
72
8
73
4
40
0
40
0
40
0
40
0
40
1
40
1
40
1
40
1
41
1
10
11.129332314383
20
4.51804378012085
30
0
41
1
10
11.3948448289384
20
4.28814843303215
30
0
41
1
10
11.6581100718653
20
4.04785727004258
30
0
41
1
10
11.9213454659673
20
3.7987547792103
30
0
0
SPLINE
5
13A
100
AcDbEntity
8
1
62
256
6
ByLayer
370
18
48
1
60
0
100
AcDbSpline
70
4
71
3
72
20
73
16
40
0
40
0
40
0
40
0
40
0.0625000000000015
40
0.0625000000000015
40
0.125000000000003
40
0.125000000000003
40
0.250000000000006
40
0.250000000000006
40
0.375000000000009
40
0.375000000000009
40
0.500000000000012
40
0.500000000000012
40
0.750000000000006
40
0.750000000000006
40
1
40
1
40
1
40
1
41
1
10
10.4513931927487
20
5.19382663967784
30
0
41
1
10
10.4613354594966
20
5.17848779752416
30
0
41
1
10
10.4720780685754
20
5.16343248571431
30
0
41
1
10
10.4945759417674
20
5.13364852538189
30
0
41
1
10
10.5063407917707
20
5.11892384871112
30
0
41
1
10
10.542743659464
20
5.07507372783553
30
0
41
1
10
10.5684917872375
20
5.04624192057824
30
0
41
1
10
10.6216964477054
20
4.98908910168481
30
0
41
1
10
10.649142351785
20
4.9608068613515
30
0
41
1
10
10.7052262476111
20
4.90457783786744
30
0
41
1
10
10.7338702846548
20
4.87663426676059
30
0
41
1
10
10.8211949084348
20
4.79310972876388
30
0
41
1
10
10.881267190831
20
4.73780956943833
30
0
41
1
10
11.0036709064694
20
4.62768297804473
30
0
41
1
10
11.0660542364869
20
4.57283353647532
30
0
41
1
10
11.129332314383
20
4.51804378012088
30
0
0
SPLINE
5
13B
100
AcDbEntity
8
1
62
256
6
ByLayer
370
18
48
1
60
0
100
AcDbSpline
70
4
71
3
72
33
73
29
40
0
40
0
40
0
40
0
40
0.0214639280086749
40
0.0214639280086749
40
0.0640089746169935
40
0.0640089746169935
40
0.149099067833631
40
0.149099067833631
40
0.234189161050268
40
0.234189161050268
40
0.319279254266905
40
0.404369347483542
40
0.404369347483542
40
0.446914394091861
40
0.46818691739602
40
0.46818691739602
40
0.48945944070018
40
0.48945944070018
40
0.659639627133452
40
0.659639627133452
40
0.829819813566725
40
0.829819813566725
40
0.914909906783361
40
0.914909906783361
40
0.936182430087521
40
0.936182430087521
40
0.957454953391681
40
1
40
1
40
1
40
1
41
1
10
7.90504978782033
20
7.54000007959513
30
0
41
1
10
7.92118562856714
20
7.53999776627086
30
0
41
1
10
7.93740064445547
20
7.53959922857436
30
0
41
1
10
7.98599443416779
20
7.5372254922323
30
0
41
1
10
8.01862309739411
20
7.53408385691543
30
0
41
1
10
8.11736629873377
20
7.5199431345593
30
0
41
1
10
8.18373375038351
20
7.50432743026405
30
0
41
1
10
8.31755243727937
20
7.46115956313534
30
0
41
1
10
8.38500349625281
20
7.4336065027322
30
0
41
1
10
8.5210175601637
20
7.36681620883684
30
0
41
1
10
8.65812885573175
20
7.288337475964
30
0
41
1
10
8.79805201186755
20
7.18672033969642
30
0
41
1
10
8.90429091245429
20
7.10181988878722
30
0
41
1
10
8.95773463472418
20
7.05719621027109
30
0
41
1
10
9.01171242585909
20
7.00929608245161
30
0
41
1
10
9.04782182352844
20
6.97663174727285
30
0
41
1
10
9.0659534263861
20
6.95992017043605
30
0
41
1
10
9.22938005342837
20
6.80653565805616
30
0
41
1
10
9.37571908116558
20
6.64973547644942
30
0
41
1
10
9.67281417539053
20
6.29791677812005
30
0
41
1
10
9.82355126251244
20
6.10288245637486
30
0
41
1
10
10.0548724360834
20
5.78237603055888
30
0
41
1
10
10.1328527046693
20
5.67086943003829
30
0
41
1
10
10.231670524495
20
5.52564131083503
30
0
41
1
10
10.2515076240988
20
5.4962938135985
30
0
41
1
10
10.2912468587337
20
5.43712780470557
30
0
41
1
10
10.350978430707
20
5.3476357019525
30
0
41
1
10
10.4111058044015
20
5.25593177487664
30
0
41
1
10
10.4513931927487
20
5.19382663967781
30
0
0
SPLINE
5
13C
100
AcDbEntity
8
1
62
256
6
ByLayer
370
18
48
1
60
0
100
AcDbSpline
70
4
71
3
72
53
73
49
40
0
40
0
40
0
40
0
40
0.124999999999997
40
0.124999999999997
40
0.249999999999995
40
0.249999999999995
40
0.281249999999995
40
0.281249999999995
40
0.312499999999996
40
0.374999999999997
40
0.374999999999997
40
0.500000000000001
40
0.500000000000001
40
0.562500000000002
40
0.562500000000002
40
0.625000000000003
40
0.625000000000003
40
0.656250000000002
40
0.656250000000002
40
0.687500000000001
40
0.687500000000001
40
0.749999999999996
40
0.749999999999996
40
0.765624999999995
40
0.765624999999995
40
0.781249999999995
40
0.781249999999995
40
0.812499999999997
40
0.812499999999997
40
0.843749999999999
40
0.843749999999999
40
0.875000000000002
40
0.875000000000002
40
0.890625000000003
40
0.890625000000003
40
0.898437500000003
40
0.898437500000003
40
0.906250000000004
40
0.906250000000004
40
0.937500000000003
40
0.937500000000003
40
0.953125000000002
40
0.953125000000002
40
0.968750000000001
40
0.968750000000001
40
0.984375000000001
40
0.984375000000001
40
1
40
1
40
1
40
1
41
1
10
12.0488554406488
20
1.26167651373092
30
0
41
1
10
11.8774438201252
20
1.44001945049448
30
0
41
1
10
11.7050932640467
20
1.6158646932376
30
0
41
1
10
11.3560209185351
20
1.96031816931469
30
0
41
1
10
11.179306210249
20
2.12893235186317
30
0
41
1
10
10.9539336260022
20
2.33367221723569
30
0
41
1
10
10.9086180615651
20
2.37433187153888
30
0
41
1
10
10.8176317838034
20
2.45487897851666
30
0
41
1
10
10.6805807280719
20
2.57457635261474
30
0
41
1
10
10.5416229733776
20
2.69072155876225
30
0
41
1
10
10.2605885548936
20
2.91773656092533
30
0
41
1
10
10.0691289981529
20
3.06209853742425
30
0
41
1
10
9.77277791688317
20
3.26537676238459
30
0
41
1
10
9.67245257795256
20
3.33091106079618
30
0
41
1
10
9.46804770179403
20
3.45690727224223
30
0
41
1
10
9.36397317764946
20
3.51737454499641
30
0
41
1
10
9.20437298674028
20
3.60363539614099
30
0
41
1
10
9.15053688315911
20
3.63167122974826
30
0
41
1
10
9.04200377590615
20
3.68589025874996
30
0
41
1
10
8.98727070077354
20
3.71209545034941
30
0
41
1
10
8.82149687730677
20
3.78774831437343
30
0
41
1
10
8.70890701804694
20
3.83427494663721
30
0
41
1
10
8.56471749612368
20
3.88626631392421
30
0
41
1
10
8.53569399690815
20
3.89635567031749
30
0
41
1
10
8.4775132702263
20
3.9157837197809
30
0
41
1
10
8.44832795597955
20
3.92513296668616
30
0
41
1
10
8.36046507810229
20
3.95201359614174
30
0
41
1
10
8.30148218332874
20
3.96838373076761
30
0
41
1
10
8.18254829955211
20
3.99750737576497
30
0
41
1
10
8.12259952440641
20
4.01026914493471
30
0
41
1
10
8.0015547198964
20
4.03156252796075
30
0
41
1
10
7.9404610154682
20
4.04010280383182
30
0
41
1
10
7.84774703869317
20
4.04898861430445
30
0
41
1
10
7.81666249856744
20
4.0512928195111
30
0
41
1
10
7.76972531525632
20
4.05361670942551
30
0
41
1
10
7.75402773973127
20
4.05420216041668
30
0
41
1
10
7.72252035056334
20
4.05496375323011
30
0
41
1
10
7.70668147062491
20
4.05513947967458
30
0
41
1
10
7.62767448517855
20
4.05490797765165
30
0
41
1
10
7.56493050769987
20
4.05124334666908
30
0
41
1
10
7.47172595153745
20
4.03885234601233
30
0
41
1
10
7.44081088731747
20
4.03356337051693
30
0
41
1
10
7.37934965421056
20
4.02018228806458
30
0
41
1
10
7.34931382066026
20
4.01219742440446
30
0
41
1
10
7.29084884725194
20
3.99329948978365
30
0
41
1
10
7.26241223302986
20
3.98238775235524
30
0
41
1
10
7.20739700894444
20
3.95712249879574
30
0
41
1
10
7.18081954921087
20
3.94276719326228
30
0
41
1
10
7.15535784432171
20
3.92632565304166
30
0
0
SPLINE
5
13D
100
AcDbEntity
8
1
62
256
6
ByLayer
370
13
48
1
60
0
100
AcDbSpline
70
4
71
3
72
14
73
10
40
0
40
0
40
0
40
0
40
0.156312760535362
40
0.309546044208124
40
0.462779327880886
40
0.616012611553648
40
0.76924589522641
40
0.922479178899173
40
1
40
1
40
1
40
1
41
1
10
44.8081264106507
20
1.80739620993944
30
0
41
1
10
44.0995842737672
20
2.5180794381267
30
0
41
1
10
42.6964588035503
20
3.87317113171525
30
0
41
1
10
40.59875
20
5.55902514283915
30
0
41
1
10
38.515
20
6.77512780717953
30
0
41
1
10
36.43125
20
7.40614587462162
30
0
41
1
10
34.3475
20
7.42614980838326
30
0
41
1
10
32.6069431586116
20
6.90769762767945
30
0
41
1
10
31.5609696505566
20
6.3840093999307
30
0
41
1
10
31.2095794758349
20
6.18576769242793
30
0
0
SPLINE
5
13E
100
AcDbEntity
8
1
62
256
6
ByLayer
370
13
48
1
60
0
100
AcDbSpline
70
4
71
3
72
9
73
5
40
0
40
0
40
0
40
0
40
0.209605700907136
40
1
40
1
40
1
40
1
41
1
10
18.7826847913542
20
-6.38563182395779
30
0
41
1
10
18.4142898609028
20
-6.55280205302265
30
0
41
1
10
16.6567282637847
20
-7.22920533333604
30
0
41
1
10
14.8991666666666
20
-7.28116910926573
30
0
41
1
10
13.51
20
-6.90662311688007
30
0
0
SPLINE
5
13F
100
AcDbEntity
8
1
62
256
6
ByLayer
370
18
48
1
60
0
100
AcDbSpline
70
4
71
3
72
14
73
10
40
0
40
0
40
0
40
0
40
0.25
40
0.25
40
0.5
40
0.5
40
0.75
40
0.75
40
1
40
1
40
1
40
1
41
1
10
13.2856114191291
20
-0.10080681825346
30
0
41
1
10
13.2083959924348
20
-0.0070497982810878
30
0
41
1
10
13.1293496397231
20
0.0863079599329808
30
0
41
1
10
12.9681018266858
20
0.272473808696418
30
0
41
1
10
12.8858985067438
20
0.365281529367422
30
0
41
1
10
12.7187348103291
20
0.550646309010887
30
0
41
1
10
12.6337733289606
20
0.643202705877428
30
0
41
1
10
12.4614313353536
20
0.828429515849621
30
0
41
1
10
12.374050111571
20
0.921098839596795
30
0
41
1
10
12.2856114191294
20
1.01405313506515
30
0
0
SPLINE
5
140
100
AcDbEntity
8
1
62
256
6
ByLayer
370
18
48
1
60
0
100
AcDbSpline
70
4
71
3
72
10
73
6
40
0
40
0
40
0
40
0
40
0.5
40
0.5
40
1
40
1
40
1
40
1
41
1
10
6.95056237635325
20
-6.98842563402008
30
0
41
1
10
6.9864390807852
20
-7.0264534928979
30
0
41
1
10
7.02126016194788
20
-7.06337358400819
30
0
41
1
10
7.08937057403651
20
-7.13452564815839
30
0
41
1
10
7.12265599958505
20
-7.16876119048649
30
0
41
1
10
7.15535784432169
20
-7.20150469180967
30
0
0
SPLINE
5
141
100
AcDbEntity
8
1
62
256
6
ByLayer
370
18
48
1
60
0
100
AcDbSpline
70
4
71
3
72
31
73
27
40
0
40
0
40
0
40
0
40
0.125000000000018
40
0.125000000000018
40
0.187500000000019
40
0.187500000000019
40
0.21875000000002
40
0.21875000000002
40
0.25000000000002
40
0.25000000000002
40
0.375000000000019
40
0.375000000000019
40
0.437500000000019
40
0.468750000000019
40
0.468750000000019
40
0.500000000000019
40
0.500000000000019
40
0.625000000000015
40
0.625000000000015
40
0.687500000000012
40
0.687500000000012
40
0.75000000000001
40
0.75000000000001
40
0.875000000000005
40
0.875000000000005
40
1
40
1
40
1
40
1
41
1
10
7.15535784432169
20
-6.63425556137227
30
0
41
1
10
7.12522174781057
20
-6.64512048909307
30
0
41
1
10
7.09668856055012
20
-6.65725706032518
30
0
41
1
10
7.05682838717524
20
-6.67725164180874
30
0
41
1
10
7.04403423502819
20
-6.68421534769985
30
0
41
1
10
7.02567774383436
20
-6.69509966036782
30
0
41
1
10
7.01969826622963
20
-6.69880092743162
30
0
41
1
10
7.00803703506463
20
-6.70634867222699
30
0
41
1
10
7.00234066157125
20
-6.7102058868534
30
0
41
1
10
6.97488518548423
20
-6.72968700738534
30
0
41
1
10
6.95616784084743
20
-6.7458997337184
30
0
41
1
10
6.93336800621228
20
-6.77075931894575
30
0
41
1
10
6.92328660823887
20
-6.78332522939064
30
0
41
1
10
6.91524384240452
20
-6.79603090619958
30
0
41
1
10
6.91033990664354
20
-6.80452617351301
30
0
41
1
10
6.90811523911086
20
-6.80879302784595
30
0
41
1
10
6.89825786342792
20
-6.8299052913556
30
0
41
1
10
6.89428396713404
20
-6.84628051028574
30
0
41
1
10
6.89305364990531
20
-6.87005222566356
30
0
41
1
10
6.89343373276699
20
-6.87784950101471
30
0
41
1
10
6.89560060886842
20
-6.89318466788959
30
0
41
1
10
6.89737407529478
20
-6.90064498482667
30
0
41
1
10
6.90442723871482
20
-6.9224953356954
30
0
41
1
10
6.91142345827635
20
-6.93635821592991
30
0
41
1
10
6.92871704880875
20
-6.96307492185235
30
0
41
1
10
6.93902177224331
20
-6.97592792387934
30
0
41
1
10
6.95056237635339
20
-6.98842563402008
30
0
0
SPLINE
5
142
100
AcDbEntity
8
1
62
256
6
ByLayer
370
18
48
1
60
0
100
AcDbSpline
70
4
71
3
72
10
73
6
40
0
40
0
40
0
40
0
40
0.5
40
0.5
40
1
40
1
40
1
40
1
41
1
10
6.91685070624797
20
3.33206969872177
30
0
41
1
10
6.95687313601232
20
3.1779327762616
30
0
41
1
10
6.99664101592134
20
3.02210794120762
30
0
41
1
10
7.07605298473715
20
2.70712525509134
30
0
41
1
10
7.11569274003105
20
2.54796760923227
30
0
41
1
10
7.15535784432171
20
2.38714927980044
30
0
0
SPLINE
5
143
100
AcDbEntity
8
1
62
256
6
ByLayer
370
18
48
1
60
0
100
AcDbSpline
70
4
71
3
72
24
73
20
40
0
40
0
40
0
40
0
40
0.124999999999999
40
0.124999999999999
40
0.249999999999999
40
0.249999999999999
40
0.312499999999998
40
0.312499999999998
40
0.374999999999998
40
0.499999999999998
40
0.499999999999998
40
0.562499999999997
40
0.562499999999997
40
0.624999999999997
40
0.749999999999998
40
0.749999999999998
40
0.874999999999999
40
0.874999999999999
40
1
40
1
40
1
40
1
41
1
10
7.15535784432171
20
3.92632565304166
30
0
41
1
10
7.12939993052834
20
3.9095636928534
30
0
41
1
10
7.10462219331583
20
3.89201750290775
30
0
41
1
10
7.05786569800452
20
3.8547817937206
30
0
41
1
10
7.03588421834749
20
3.83509537540195
30
0
41
1
10
7.00550897547922
20
3.8033498719808
30
0
41
1
10
6.99579867190644
20
3.79236381081506
30
0
41
1
10
6.97764958439112
20
3.76990445103169
30
0
41
1
10
6.95221674809684
20
3.73537791563877
30
0
41
1
10
6.93241596441311
20
3.69806757860937
30
0
41
1
10
6.91668476376694
20
3.6585771028864
30
0
41
1
10
6.91214390994449
20
3.64508949355374
30
0
41
1
10
6.90456814194098
20
3.61793978709818
30
0
41
1
10
6.89538013281256
20
3.57675703090996
30
0
41
1
10
6.8922640177278
20
3.53422581347604
30
0
41
1
10
6.89270334507188
20
3.47643157778197
30
0
41
1
10
6.89520386174161
20
3.44752207808472
30
0
41
1
10
6.9036423608558
20
3.38977489524143
30
0
41
1
10
6.90958453032599
20
3.36091621490061
30
0
41
1
10
6.916850706248
20
3.3320696987218
30
0
0
SPLINE
5
144
100
AcDbEntity
8
1
62
256
6
ByLayer
370
18
48
1
60
0
100
AcDbSpline
70
4
71
3
72
8
73
4
40
0
40
0
40
0
40
0
40
1
40
1
40
1
40
1
41
1
10
46.7701850605545
20
0.270573857058395
30
0
41
1
10
46.7280823868668
20
0.605500084624737
30
0
41
1
10
46.6859778652467
20
0.940409057052221
30
0
41
1
10
46.6438716756903
20
1.27530245507495
30
0
0
SPLINE
5
145
100
AcDbEntity
8
1
62
256
6
ByLayer
370
18
48
1
60
0
100
AcDbSpline
70
4
71
3
72
26
73
22
40
0
40
0
40
0
40
0
40
0.0625000000000011
40
0.0625000000000011
40
0.125000000000002
40
0.125000000000002
40
0.250000000000007
40
0.250000000000007
40
0.375000000000012
40
0.375000000000012
40
0.437500000000013
40
0.437500000000013
40
0.500000000000014
40
0.500000000000014
40
0.62500000000001
40
0.62500000000001
40
0.750000000000007
40
0.750000000000007
40
0.875000000000003
40
0.875000000000003
40
1
40
1
40
1
40
1
41
1
10
46.6438716756903
20
1.27530245507492
30
0
41
1
10
46.6352912171157
20
1.30722271815233
30
0
41
1
10
46.6263242515673
20
1.34029791612556
30
0
41
1
10
46.6077676886997
20
1.40830881966326
30
0
41
1
10
46.5981773556397
20
1.44324672372073
30
0
41
1
10
46.5686287827773
20
1.55038393078604
30
0
41
1
10
46.5479008927117
20
1.62488305244267
30
0
41
1
10
46.5049316791135
20
1.7784036387965
30
0
41
1
10
46.4826854275367
20
1.85743982915295
30
0
41
1
10
46.4484220518938
20
1.97866550195249
30
0
41
1
10
46.4368347635331
20
2.01957907467124
30
0
41
1
10
46.4134864503622
20
2.10187381668686
30
0
41
1
10
46.4017246665852
20
2.14325794186857
30
0
41
1
10
46.3662058669048
20
2.26804105623205
30
0
41
1
10
46.3422166698121
20
2.3520673605743
30
0
41
1
10
46.2937346236254
20
2.52148075363971
30
0
41
1
10
46.2692411986363
20
2.60686939833627
30
0
41
1
10
46.2198311231279
20
2.77879017309246
30
0
41
1
10
46.1949141576881
20
2.86532315401465
30
0
41
1
10
46.1447161784228
20
3.0393727143678
30
0
41
1
10
46.1194223298163
20
3.12693341405489
30
0
41
1
10
46.0940288839055
20
3.21471817644158
30
0
0
SPLINE
5
146
100
AcDbEntity
8
1
62
256
6
ByLayer
370
18
48
1
60
0
100
AcDbSpline
70
4
71
3
72
8
73
4
40
0
40
0
40
0
40
0
40
1
40
1
40
1
40
1
41
1
10
46.0940288839055
20
3.21471817644155
30
0
41
1
10
46.0826521252163
20
3.17204910256743
30
0
41
1
10
46.0707657471244
20
3.12900407283104
30
0
41
1
10
46.058353209882
20
3.0855956132269
30
0
0
SPLINE
5
147
100
AcDbEntity
8
1
62
256
6
ByLayer
370
18
48
1
60
0
100
AcDbSpline
70
4
71
3
72
24
73
20
40
0
40
0
40
0
40
0
40
0.125000000000007
40
0.125000000000007
40
0.187499999999992
40
0.187499999999992
40
0.249999999999977
40
0.249999999999977
40
0.374999999999946
40
0.374999999999946
40
0.437499999999961
40
0.437499999999961
40
0.499999999999976
40
0.499999999999976
40
0.624999999999998
40
0.624999999999998
40
0.750000000000021
40
0.750000000000021
40
1
40
1
40
1
40
1
41
1
10
46.058353209882
20
3.08559561322693
30
0
41
1
10
46.0559104189313
20
3.07704923366072
30
0
41
1
10
46.0530699808494
20
3.0693704083192
30
0
41
1
10
46.0481549448057
20
3.05923936260953
30
0
41
1
10
46.0464071994168
20
3.05609421147941
30
0
41
1
10
46.0426784085306
20
3.05029138532029
30
0
41
1
10
46.0406852121218
20
3.04762160109485
30
0
41
1
10
46.0344439131417
20
3.04051247531592
30
0
41
1
10
46.0299323767356
20
3.03694281183675
30
0
41
1
10
46.0226419927904
20
3.03327353523036
30
0
41
1
10
46.0201244621921
20
3.03233214066424
30
0
41
1
10
46.014912523762
20
3.03101045479431
30
0
41
1
10
46.0122222425442
20
3.03063467091823
30
0
41
1
10
46.004048756383
20
3.03033417417257
30
0
41
1
10
45.9984125055423
20
3.03121685023166
30
0
41
1
10
45.9867955036649
20
3.03488862277268
30
0
41
1
10
45.9808000788811
20
3.0377003905314
30
0
41
1
10
45.9628569414224
20
3.0483723413023
30
0
41
1
10
45.9507723228726
20
3.05846891028091
30
0
41
1
10
45.9385795027686
20
3.07078811685807
30
0
0
SPLINE
5
148
100
AcDbEntity
8
1
62
256
6
ByLayer
370
18
48
1
60
0
100
AcDbSpline
70
4
71
3
72
8
73
4
40
0
40
0
40
0
40
0
40
1
40
1
40
1
40
1
41
1
10
45.9385795027686
20
3.0707881168581
30
0
41
1
10
45.8719905184754
20
3.13806729547582
30
0
41
1
10
45.8013580251372
20
3.21190510786261
30
0
41
1
10
45.7269235199775
20
3.29207793382867
30
0
0
SPLINE
5
149
100
AcDbEntity
8
1
62
256
6
ByLayer
370
18
48
1
60
0
100
AcDbSpline
70
4
71
3
72
21
73
17
40
0
40
0
40
0
40
0
40
0.124999999999991
40
0.124999999999991
40
0.249999999999982
40
0.249999999999982
40
0.374999999999973
40
0.499999999999964
40
0.499999999999964
40
0.562499999999969
40
0.562499999999969
40
0.624999999999973
40
0.624999999999973
40
0.749999999999982
40
0.749999999999982
40
1
40
1
40
1
40
1
41
1
10
43.7651361546365
20
2.93917832106595
30
0
41
1
10
43.8098236418969
20
2.89153419582391
30
0
41
1
10
43.854160320409
20
2.84369923523556
30
0
41
1
10
43.9423943164967
20
2.74784677520725
30
0
41
1
10
43.9862987735338
20
2.69983274203455
30
0
41
1
10
44.0738360462646
20
2.60375810210397
30
0
41
1
10
44.1611024520384
20
2.50763771045095
30
0
41
1
10
44.2481572457507
20
2.41168355110182
30
0
41
1
10
44.3134677721244
20
2.33986057973908
30
0
41
1
10
44.3352409823382
20
2.31594323335074
30
0
41
1
10
44.3788079688342
20
2.26816802485453
30
0
41
1
10
44.4006173428406
20
2.24429323719548
30
0
41
1
10
44.4657709764167
20
2.17313056809897
30
0
41
1
10
44.5089432873028
20
2.12619260171522
30
0
41
1
10
44.6379013842396
20
1.98691027756718
30
0
41
1
10
44.7231377028243
20
1.89609429045612
30
0
41
1
10
44.8081264106661
20
1.80739620992412
30
0
0
SPLINE
5
14A
100
AcDbEntity
8
1
62
256
6
ByLayer
370
18
48
1
60
0
100
AcDbSpline
70
4
71
3
72
10
73
6
40
0
40
0
40
0
40
0
40
0.5
40
0.5
40
1
40
1
40
1
40
1
41
1
10
44.8081264106494
20
1.80739620993825
30
0
41
1
10
44.8472022926674
20
1.76661543156737
30
0
41
1
10
44.8850359355175
20
1.72654846490116
30
0
41
1
10
44.9574232086715
20
1.64787475893922
30
0
41
1
10
44.9920023235377
20
1.60926297283621
30
0
41
1
10
45.0242014325295
20
1.57142572314021
30
0
0
SPLINE
5
14B
100
AcDbEntity
8
1
62
256
6
ByLayer
370
13
48
1
60
0
100
AcDbSpline
70
4
71
3
72
23
73
19
40
0
40
0
40
0
40
0
40
0.0375167722620004
40
0.136311194193785
40
0.283327831364114
40
0.429044096026992
40
0.502387890108226
40
0.576440939558914
40
0.626230091769475
40
0.675759200383425
40
0.724254733348937
40
0.747891291626468
40
0.770990772259271
40
0.793447103344019
40
0.815897588201514
40
0.862596508069253
40
0.960496202000753
40
1
40
1
40
1
40
1
41
1
10
46.7298423989743
20
0.260523237724556
30
0
41
1
10
46.7142786471432
20
0.267134336864416
30
0
41
1
10
46.6573608662578
20
0.292397197645073
30
0
41
1
10
46.5349095822284
20
0.354174398276257
30
0
41
1
10
46.3445966646241
20
0.467789270494592
30
0
41
1
10
46.146149851408
20
0.604862015615311
30
0
41
1
10
45.9793968965725
20
0.729970706947142
30
0
41
1
10
45.8643802892625
20
0.820396441957229
30
0
41
1
10
45.7618606039736
20
0.903894771758218
30
0
41
1
10
45.6723976178496
20
0.978678817602287
30
0
41
1
10
45.5959466696432
20
1.04417011904056
30
0
41
1
10
45.5336637285292
20
1.09848758253997
30
0
41
1
10
45.487177026717
20
1.13948807447812
30
0
41
1
10
45.4393385294674
20
1.18215784235574
30
0
41
1
10
45.3746705042755
20
1.24047400878601
30
0
41
1
10
45.2612738948999
20
1.3444232042707
30
0
41
1
10
45.1405825132521
20
1.45843563074669
30
0
41
1
10
45.0502955217317
20
1.54594775238311
30
0
41
1
10
45.0242014325293
20
1.57142572314024
30
0
0
SPLINE
5
14C
100
AcDbEntity
8
1
62
256
6
ByLayer
370
18
48
1
60
0
100
AcDbSpline
70
4
71
3
72
8
73
4
40
0
40
0
40
0
40
0
40
1
40
1
40
1
40
1
41
1
10
46.7647055701818
20
0.251871074749715
30
0
41
1
10
46.7528567001114
20
0.254808988302841
30
0
41
1
10
46.7412223665688
20
0.257696179294527
30
0
41
1
10
46.7298424567759
20
0.260523217226535
30
0
0
SPLINE
5
14D
100
AcDbEntity
8
1
62
256
6
ByLayer
370
18
48
1
60
0
100
AcDbSpline
70
4
71
3
72
8
73
4
40
0
40
0
40
0
40
0
40
1
40
1
40
1
40
1
41
1
10
46.7647055701818
20
0.251871074749715
30
0
41
1
10
46.7667592723304
20
0.256276828279113
30
0
41
1
10
46.7685827054331
20
0.262535745053867
30
0
41
1
10
46.7701850605553
20
0.270573857057201
30
0
0
SPLINE
5
14E
100
AcDbEntity
8
1
62
256
6
ByLayer
370
18
48
1
60
0
100
AcDbSpline
70
4
71
3
72
40
73
36
40
0
40
0
40
0
40
0
40
0.0624999999999912
40
0.0624999999999912
40
0.124999999999982
40
0.124999999999982
40
0.156249999999978
40
0.156249999999978
40
0.187499999999973
40
0.187499999999973
40
0.249999999999972
40
0.249999999999972
40
0.312499999999971
40
0.312499999999971
40
0.37499999999997
40
0.37499999999997
40
0.406249999999969
40
0.406249999999969
40
0.437499999999968
40
0.437499999999968
40
0.499999999999973
40
0.499999999999973
40
0.562499999999977
40
0.562499999999977
40
0.624999999999982
40
0.624999999999982
40
0.749999999999991
40
0.749999999999991
40
0.812499999999994
40
0.812499999999994
40
0.843749999999995
40
0.843749999999995
40
0.874999999999996
40
0.874999999999996
40
1
40
1
40
1
40
1
41
1
10
45.1113024872764
20
1.81771743308818
30
0
41
1
10
45.1648988727423
20
1.76906306546826
30
0
41
1
10
45.2179468111482
20
1.72067855574423
30
0
41
1
10
45.3227384899667
20
1.62474199717283
30
0
41
1
10
45.374215030799
20
1.57743232014997
30
0
41
1
10
45.4501155895406
20
1.50744404777518
30
0
41
1
10
45.4751956928333
20
1.48427635185016
30
0
41
1
10
45.5249210954755
20
1.438261738433
30
0
41
1
10
45.5496029993232
20
1.41538339138734
30
0
41
1
10
45.6227343879407
20
1.34750775091524
30
0
41
1
10
45.6701901182003
20
1.30334613339488
30
0
41
1
10
45.7626447390056
20
1.21712363717424
30
0
41
1
10
45.8076519767587
20
1.17508667230439
30
0
41
1
10
45.8953375038491
20
1.09324112990296
30
0
41
1
10
45.9380149740515
20
1.05343468795888
30
0
41
1
10
46.0002786339605
20
0.995315062733937
30
0
41
1
10
46.0207406545312
20
0.9762062727917
30
0
41
1
10
46.0610785164733
20
0.938516281083366
30
0
41
1
10
46.0809819289626
20
0.919909777844055
30
0
41
1
10
46.1395527099382
20
0.865113456098186
30
0
41
1
10
46.1770949271923
20
0.829937266510711
30
0
41
1
10
46.2492544194744
20
0.76224687315414
30
0
41
1
10
46.2838889590303
20
0.729727995012155
30
0
41
1
10
46.350198049847
20
0.667442769497967
30
0
41
1
10
46.3816329804158
20
0.637898730191267
30
0
41
1
10
46.4709877091605
20
0.553892133613459
30
0
41
1
10
46.5239821669803
20
0.504050075799228
30
0
41
1
10
46.5939251251927
20
0.438155910183553
30
0
41
1
10
46.6156415800262
20
0.417672498467994
30
0
41
1
10
46.6458001895482
20
0.389190544075234
30
0
41
1
10
46.6554620439729
20
0.380060333323286
30
0
41
1
10
46.6738947104105
20
0.36262554758207
30
0
41
1
10
46.6826686692491
20
0.354317766274875
30
0
41
1
10
46.7243514808916
20
0.314789033371426
30
0
41
1
10
46.7507363556614
20
0.28954360304715
30
0
41
1
10
46.7701850605549
20
0.270573857057343
30
0
0
SPLINE
5
14F
100
AcDbEntity
8
1
62
256
6
ByLayer
370
18
48
1
60
0
100
AcDbSpline
70
4
71
3
72
166
73
162
40
0
40
0
40
0
40
0
40
0.0035163379130912
40
0.0070444247286571
40
0.0105842472800299
40
0.0141357921761953
40
0.0176990458089978
40
0.0212739943607483
40
0.0248606238122445
40
0.0284589199512169
40
0.0320688683812009
40
0.0356904545308695
40
0.0393236636638042
40
0.0429684808887421
40
0.046624891170295
40
0.050292879340145
40
0.0539724301087599
40
0.0576635280775945
40
0.0613661577518237
40
0.0650803035536051
40
0.0688059498358827
40
0.0725430808967484
40
0.0762916809943636
40
0.080051734362468
40
0.0838232252264785
40
0.0876061378201831
40
0.0914004564030613
40
0.0952061652782308
40
0.0990232514372922
40
0.102851717741329
40
0.106691572999253
40
0.110542826103691
40
0.114405486025975
40
0.118279561821367
40
0.122165062634564
40
0.126061997705509
40
0.129970376375502
40
0.133890208093607
40
0.137821502423385
40
0.141764269049949
40
0.145718517787339
40
0.149684258586236
40
0.153661501542019
40
0.157650256903172
40
0.161650535080044
40
0.16566234665397
40
0.169685702386776
40
0.173720613230642
40
0.177767090338369
40
0.181825145074022
40
0.185894789023991
40
0.189976034008441
40
0.194068892093197
40
0.198173375602028
40
0.202289497129389
40
0.206417269553583
40
0.210556706050371
40
0.21470782010704
40
0.21887062553694
40
0.223045136494474
40
0.227231367490582
40
0.231429333408701
40
0.235639049521226
40
0.239860531506466
40
0.24409379538684
40
0.248338851822149
40
0.252595701810885
40
0.256864344948423
40
0.261144780306879
40
0.26543700643797
40
0.269741021376336
40
0.274056822643429
40
0.27838440725189
40
0.282723771710503
40
0.287074912029689
40
0.291437823727564
40
0.295812501836584
40
0.30019894091078
40
0.304597135033592
40
0.309007077826325
40
0.31342876245723
40
0.317862181651232
40
0.322307327700318
40
0.32676419247457
40
0.331232767433917
40
0.335713043640561
40
0.34020501177211
40
0.344708662135463
40
0.349223984681394
40
0.353750969019938
40
0.358289604436505
40
0.362839879908807
40
0.367401784124566
40
0.371975305500059
40
0.376560432199469
40
0.381157152155111
40
0.385765453088504
40
0.39038532253388
40
0.395016749867236
40
0.399659730394958
40
0.404314260698425
40
0.408980337583418
40
0.413657958109414
40
0.418347119619783
40
0.423047819772956
40
0.427760056574546
40
0.432483828410461
40
0.437219134081
40
0.441965972835972
40
0.446724344410845
40
0.451494249063921
40
0.456275687614606
40
0.46106866148272
40
0.465873172728923
40
0.47068922409624
40
0.475516819052719
40
0.480355961835219
40
0.485206657494359
40
0.490068911940648
40
0.494942731991787
40
0.499828125421196
40
0.504725101007734
40
0.509633668586676
40
0.514553839101939
40
0.51948562465955
40
0.524429038582421
40
0.529384095466408
40
0.534350811237667
40
0.539329203051702
40
0.544319284672897
40
0.549321064516088
40
0.554334549848936
40
0.559359747058762
40
0.564396661666285
40
0.569445298340395
40
0.574505660913959
40
0.579577752400676
40
0.584661575013008
40
0.589757130181191
40
0.59486441857336
40
0.599983440116789
40
0.605114194020294
40
0.610256678797764
40
0.61541089229292
40
0.620576831705226
40
0.625754493617059
40
0.630943874022107
40
0.63614496835502
40
0.699750128910881
40
0.763350390005819
40
0.826935658350725
40
0.890500977574325
40
0.954056350883005
40
0.958186313532048
40
0.962777052279371
40
0.967828596387886
40
0.973340983906935
40
0.979314263807296
40
0.985748492339036
40
0.992643720537259
40
1
40
1
40
1
40
1
41
1
10
32.4302758979899
20
7.32772191848798
30
0
41
1
10
32.4435527553606
20
7.33336834408874
30
0
41
1
10
32.4701508311691
20
7.3446800613109
30
0
41
1
10
32.5101139125819
20
7.36138907432917
30
0
41
1
10
32.5502096476893
20
7.37794140278393
30
0
41
1
10
32.5904379238321
20
7.39431350803085
30
0
41
1
10
32.6307986825387
20
7.41050797209465
30
0
41
1
10
32.6712918488479
20
7.42652031642561
30
0
41
1
10
32.7119173503256
20
7.44234793688105
30
0
41
1
10
32.7526751119282
20
7.45798769760344
30
0
41
1
10
32.7935650573696
20
7.47343657877553
30
0
41
1
10
32.8345871087379
20
7.48869150205982
30
0
41
1
10
32.8757411865819
20
7.5037493774569
30
0
41
1
10
32.9170272098728
20
7.51860709054492
30
0
41
1
10
32.9584450959975
20
7.53326150577067
30
0
41
1
10
32.9999947607452
20
7.54770946541873
30
0
41
1
10
33.0416761182943
20
7.56194778974344
30
0
41
1
10
33.0834890812
20
7.57597327678769
30
0
41
1
10
33.1254335603815
20
7.58978270228516
30
0
41
1
10
33.1675094651089
20
7.60337281954023
30
0
41
1
10
33.2097167029911
20
7.61674035931142
30
0
41
1
10
33.252055179961
20
7.62988202970089
30
0
41
1
10
33.2945248002684
20
7.64279451601436
30
0
41
1
10
33.3371254664467
20
7.65547448073028
30
0
41
1
10
33.3798570793739
20
7.66791856305852
30
0
41
1
10
33.4227195379849
20
7.68012338003604
30
0
41
1
10
33.4657127402857
20
7.69208552185793
30
0
41
1
10
33.50883658941
20
7.70380157151351
30
0
41
1
10
33.552091067676
20
7.71526805616236
30
0
41
1
10
33.5954761142225
20
7.7264820760879
30
0
41
1
10
33.638991733117
20
7.73744082070803
30
0
41
1
10
33.6826379560784
20
7.7481414532194
30
0
41
1
10
33.7264148143371
20
7.7585811307527
30
0
41
1
10
33.7703223402024
20
7.7687569973196
30
0
41
1
10
33.8143605666375
20
7.77866618567487
30
0
41
1
10
33.8585295273811
20
7.78830581678116
30
0
41
1
10
33.9028292569226
20
7.79767299991923
30
0
41
1
10
33.9472597905161
20
7.80676483262414
30
0
41
1
10
33.9918211641836
20
7.81557840066853
30
0
41
1
10
34.0365134147224
20
7.82411077803295
30
0
41
1
10
34.08133657971
20
7.83235902687963
30
0
41
1
10
34.1262906975105
20
7.8403201975253
30
0
41
1
10
34.1713758072803
20
7.84799132841434
30
0
41
1
10
34.2165919489746
20
7.85536944609143
30
0
41
1
10
34.2619391633527
20
7.86245156517472
30
0
41
1
10
34.3074174919844
20
7.86923468832839
30
0
41
1
10
34.353026977256
20
7.87571580623569
30
0
41
1
10
34.3987676623759
20
7.88189189757139
30
0
41
1
10
34.4446395913814
20
7.88775992897479
30
0
41
1
10
34.4906428091442
20
7.89331685502208
30
0
41
1
10
34.5367773613766
20
7.89855961819913
30
0
41
1
10
34.5830432946375
20
7.90348514887401
30
0
41
1
10
34.629440656339
20
7.90809036526946
30
0
41
1
10
34.6759694947517
20
7.91237217343541
30
0
41
1
10
34.7226298590117
20
7.91632746722138
30
0
41
1
10
34.7694217991262
20
7.9199531282492
30
0
41
1
10
34.8163453659796
20
7.92324602588354
30
0
41
1
10
34.8634006113409
20
7.92620301721209
30
0
41
1
10
34.9105875878654
20
7.92882094698709
30
0
41
1
10
34.9579063491175
20
7.93109664771367
30
0
41
1
10
35.0053569495158
20
7.93302693918662
30
0
41
1
10
35.0529394445664
20
7.93460863009446
30
0
41
1
10
35.1006538900202
20
7.93583851187526
30
0
41
1
10
35.1485003447614
20
7.9367133816061
30
0
41
1
10
35.1964788369611
20
7.93722995584235
30
0
41
1
10
35.2445893738847
20
7.93738521716415
30
0
41
1
10
35.2928319974788
20
7.93717680431831
30
0
41
1
10
35.3412066970278
20
7.936602249712
30
0
41
1
10
35.3897134622198
20
7.93565911521864
30
0
41
1
10
35.4383522814661
20
7.93434495586183
30
0
41
1
10
35.4871231432439
20
7.93265732966682
30
0
41
1
10
35.5360260357333
20
7.93059379508736
30
0
41
1
10
35.5850609469128
20
7.92815191177559
30
0
41
1
10
35.6342278645322
20
7.92532924045273
30
0
41
1
10
35.6835267761182
20
7.92212334302204
30
0
41
1
10
35.7329576689707
20
7.91853178261658
30
0
41
1
10
35.7825205301623
20
7.91455212366469
30
0
41
1
10
35.8322153465371
20
7.91018193195112
30
0
41
1
10
35.8820421047083
20
7.90541877467922
30
0
41
1
10
35.9320007910578
20
7.90026022053331
30
0
41
1
10
35.9820913917345
20
7.89470383974106
30
0
41
1
10
36.0323138926525
20
7.88874720413594
30
0
41
1
10
36.0826682794907
20
7.88238788722015
30
0
41
1
10
36.13315453769
20
7.87562346422729
30
0
41
1
10
36.1837726524535
20
7.86845151218546
30
0
41
1
10
36.2345226087438
20
7.86086960998045
30
0
41
1
10
36.2854043912821
20
7.85287533841884
30
0
41
1
10
36.3364179845474
20
7.84446628029184
30
0
41
1
10
36.3875633727737
20
7.83564002043843
30
0
41
1
10
36.4388405399505
20
7.82639414580962
30
0
41
1
10
36.4902494698194
20
7.81672624553141
30
0
41
1
10
36.541790145875
20
7.80663391097147
30
0
41
1
10
36.5934625513592
20
7.79611473579448
30
0
41
1
10
36.6452666692727
20
7.78516631605845
30
0
41
1
10
36.6972024823283
20
7.7737862501601
30
0
41
1
10
36.7492699731175
20
7.7619721393456
30
0
41
1
10
36.8014691234859
20
7.74972158610257
30
0
41
1
10
36.8537999244702
20
7.73703219864765
30
0
41
1
10
36.9062623903134
20
7.72390156126832
30
0
41
1
10
36.9588564939998
20
7.71032705981153
30
0
41
1
10
37.0115822394926
20
7.69630608694396
30
0
41
1
10
37.0644396335988
20
7.6818360302091
30
0
41
1
10
37.1174286836124
20
7.66691427769035
30
0
41
1
10
37.170549396853
20
7.65153821682205
30
0
41
1
10
37.223801780791
20
7.63570523476932
30
0
41
1
10
37.2771858430141
20
7.61941271838603
30
0
41
1
10
37.3307015912376
20
7.60265805428659
30
0
41
1
10
37.3843490333018
20
7.58543862888718
30
0
41
1
10
37.4381281771739
20
7.56775182845541
30
0
41
1
10
37.4920390309478
20
7.54959503915816
30
0
41
1
10
37.5460816028449
20
7.5309656471095
30
0
41
1
10
37.6002559012148
20
7.51186103841945
30
0
41
1
10
37.6545619345355
20
7.49227859924238
30
0
41
1
10
37.7089997114143
20
7.4722157158256
30
0
41
1
10
37.7635692405877
20
7.45166977455824
30
0
41
1
10
37.8182705309228
20
7.43063816202039
30
0
41
1
10
37.8731035914169
20
7.40911826503199
30
0
41
1
10
37.9280684311988
20
7.38710747070235
30
0
41
1
10
37.9831650595284
20
7.3646031664791
30
0
41
1
10
38.0383934857983
20
7.34160274019979
30
0
41
1
10
38.0937537195329
20
7.31810358013399
30
0
41
1
10
38.1492457703911
20
7.29410307506188
30
0
41
1
10
38.2048696481607
20
7.26959861421685
30
0
41
1
10
38.2606253627801
20
7.24458758773804
30
0
41
1
10
38.3165129242602
20
7.21906738521474
30
0
41
1
10
38.3725323429774
20
7.19303540137608
30
0
41
1
10
38.4286836285801
20
7.16648901502231
30
0
41
1
10
38.4849667934824
20
7.13942566846333
30
0
41
1
10
38.5413818192388
20
7.11184258029533
30
0
41
1
10
38.5979286978977
20
7.08373805940343
30
0
41
1
10
38.6546074576586
20
7.05511171243521
30
0
41
1
10
38.7114180961108
20
7.02596292703831
30
0
41
1
10
38.7683606133259
20
6.9962911897284
30
0
41
1
10
38.8254350084334
20
6.96609599801712
30
0
41
1
10
38.8826412808006
20
6.93537688418556
30
0
41
1
10
38.9399794297152
20
6.90413340916601
30
0
41
1
10
38.9974494544726
20
6.87236516446171
30
0
41
1
10
39.0550513543482
20
6.84007177190867
30
0
41
1
10
39.1127851286203
20
6.80725288400689
30
0
41
1
10
39.1706507765117
20
6.77390818414256
30
0
41
1
10
39.2286482974015
20
6.74003738667781
30
0
41
1
10
39.2867776900361
20
6.70564023768466
30
0
41
1
10
39.3450389554871
20
6.67071651323101
30
0
41
1
10
39.4034320860733
20
6.63526602684467
30
0
41
1
10
39.4619571068521
20
6.5992886026099
30
0
41
1
10
39.5206139202401
20
6.56278417696325
30
0
41
1
10
39.5794028878785
20
6.52575241854638
30
0
41
1
10
39.8588188786905
20
6.34763934827202
30
0
41
1
10
40.3589821804891
20
6.00401584952033
30
0
41
1
10
41.0795997508254
20
5.44839352930643
30
0
41
1
10
41.8002194396885
20
4.83808488378932
30
0
41
1
10
42.5207384488347
20
4.1789085842737
30
0
41
1
10
43.0168011168533
20
3.69599719048406
30
0
41
1
10
43.2898537235976
20
3.4230048120277
30
0
41
1
10
43.3418805430168
20
3.37080867493427
30
0
41
1
10
43.3991268671448
20
3.313163305274
30
0
41
1
10
43.4615928331283
20
3.25001142385398
30
0
41
1
10
43.5292788097131
20
3.18129528118016
30
0
41
1
10
43.6021850183799
20
3.10694465139105
30
0
41
1
10
43.680312028789
20
3.02692850404773
30
0
41
1
10
43.734135435043
20
2.97146995125439
30
0
41
1
10
43.7619177600756
20
2.94284360359686
30
0
0
SPLINE
5
150
100
AcDbEntity
8
1
62
256
6
ByLayer
370
18
48
1
60
0
100
AcDbSpline
70
4
71
3
72
12
73
8
40
0
40
0
40
0
40
0
40
0.250000000000004
40
0.250000000000004
40
0.500000000000009
40
0.500000000000009
40
1
40
1
40
1
40
1
41
1
10
43.7620406616055
20
2.94288881849298
30
0
41
1
10
43.8658750211181
20
2.8416876889431
30
0
41
1
10
43.972039041995
20
2.74242092750527
30
0
41
1
10
44.1886921479613
20
2.54759325028172
30
0
41
1
10
44.2992125730548
20
2.45206543784153
30
0
41
1
10
44.6369141950584
20
2.17090065075769
30
0
41
1
10
44.8703680405428
20
1.99083430723593
30
0
41
1
10
45.1113024872764
20
1.81771743308818
30
0
0
SPLINE
5
151
100
AcDbEntity
8
1
62
256
6
ByLayer
370
18
48
1
60
0
100
AcDbSpline
70
4
71
3
72
24
73
20
40
0
40
0
40
0
40
0
40
0.0312500000000019
40
0.0312500000000019
40
0.0625000000000038
40
0.0625000000000038
40
0.125000000000008
40
0.125000000000008
40
0.250000000000006
40
0.250000000000006
40
0.375000000000004
40
0.375000000000004
40
0.500000000000002
40
0.500000000000002
40
0.625
40
0.625
40
0.749999999999999
40
0.749999999999999
40
1
40
1
40
1
40
1
41
1
10
45.1113024872764
20
1.81771743308818
30
0
41
1
10
45.1224413905627
20
1.83151205424582
30
0
41
1
10
45.1331603097335
20
1.84564620884936
30
0
41
1
10
45.1539260807948
20
1.87444267093227
30
0
41
1
10
45.1639815471078
20
1.88912206496022
30
0
41
1
10
45.193102310494
20
1.93344603463319
30
0
41
1
10
45.2112238462863
20
1.96348436524647
30
0
41
1
10
45.2629780079203
20
2.0544591915708
30
0
41
1
10
45.2940571481798
20
2.1162281868036
30
0
41
1
10
45.3524370125532
20
2.24052474604451
30
0
41
1
10
45.379675219527
20
2.30308218376342
30
0
41
1
10
45.4315875275361
20
2.42836345755882
30
0
41
1
10
45.4562435644732
20
2.49109597585382
30
0
41
1
10
45.5036487732828
20
2.61640176328754
30
0
41
1
10
45.5264021591694
20
2.67901184161153
30
0
41
1
10
45.5702659993997
20
2.80353452657386
30
0
41
1
10
45.5913886220345
20
2.86548674965334
30
0
41
1
10
45.6527178382276
20
3.05026562100161
30
0
41
1
10
45.6909107778307
20
3.17200696871473
30
0
41
1
10
45.7269235199775
20
3.29207793382867
30
0
0
SPLINE
5
152
100
AcDbEntity
8
1
62
256
6
ByLayer
370
18
48
1
60
0
100
AcDbSpline
70
4
71
3
72
32
73
28
40
0
40
0
40
0
40
0
40
0.146102705627797
40
0.146102705627797
40
0.292205411255594
40
0.292205411255594
40
0.328731087662544
40
0.328731087662544
40
0.365256764069493
40
0.365256764069493
40
0.438308116883396
40
0.438308116883396
40
0.511359469697299
40
0.511359469697299
40
0.584410822511202
40
0.584410822511202
40
0.730513528139005
40
0.730513528139005
40
0.803564880952906
40
0.803564880952906
40
0.840090557359858
40
0.840090557359858
40
0.87661623376681
40
0.87661623376681
40
0.949667586580714
40
0.949667586580714
40
1
40
1
40
1
40
1
41
1
10
45.7269235199775
20
3.29207793382869
30
0
41
1
10
45.3920591330331
20
3.60818593191377
30
0
41
1
10
45.0580776162318
20
3.91297989417112
30
0
41
1
10
44.38949479787
20
4.49649412678565
30
0
41
1
10
44.0549081947143
20
4.77522174580983
30
0
41
1
10
43.6339974996473
20
5.10380194401569
30
0
41
1
10
43.5496778979063
20
5.16851935245921
30
0
41
1
10
43.3806884796947
20
5.29585307656393
30
0
41
1
10
43.2959096196311
20
5.35854974934833
30
0
41
1
10
43.0424747017531
20
5.5423563058159
30
0
41
1
10
42.8742965324033
20
5.65951113824883
30
0
41
1
10
42.5387192941797
20
5.88360781487259
30
0
41
1
10
42.3713220073086
20
5.99055125750587
30
0
41
1
10
42.0367615128145
20
6.19472429004495
30
0
41
1
10
41.8695919009811
20
6.29198267188994
30
0
41
1
10
41.3678505466426
20
6.56955693253261
30
0
41
1
10
41.0332029506762
20
6.73546386366638
30
0
41
1
10
40.5293402221621
20
6.95105494269109
30
0
41
1
10
40.36105483705
20
7.01735780561498
30
0
41
1
10
40.1078235355201
20
7.10776828568555
30
0
41
1
10
40.0232780759411
20
7.13639499953308
30
0
41
1
10
39.8538456134357
20
7.19060169060174
30
0
41
1
10
39.7688814703308
20
7.21619898985213
30
0
41
1
10
39.5149328562013
20
7.28795308155571
30
0
41
1
10
39.3464140140868
20
7.32924250512963
30
0
41
1
10
39.062621571664
20
7.38818535019684
30
0
41
1
10
38.9470884142753
20
7.40919593576589
30
0
41
1
10
38.8317081887636
20
7.4271920374828
30
0
0
SPLINE
5
153
100
AcDbEntity
8
1
62
256
6
ByLayer
370
18
48
1
60
0
100
AcDbSpline
70
4
71
3
72
30
73
26
40
0
40
0
40
0
40
0
40
0.0047275282376486
40
0.0047275282376486
40
0.170606273531383
40
0.170606273531383
40
0.336485018825117
40
0.336485018825117
40
0.419424391471984
40
0.419424391471984
40
0.502363764118851
40
0.502363764118851
40
0.523098607280567
40
0.523098607280567
40
0.543833450442283
40
0.543833450442283
40
0.585303136765712
40
0.585303136765712
40
0.66824250941257
40
0.66824250941257
40
0.751181882059427
40
0.751181882059427
40
0.834121254706284
40
0.834121254706284
40
1
40
1
40
1
40
1
41
1
10
19.5745157483912
20
-6.20060161125508
30
0
41
1
10
19.5648745684457
20
-6.20636598238988
30
0
41
1
10
19.555235618893
20
-6.21211256147475
30
0
41
1
10
19.2074666716296
20
-6.41885013043407
30
0
41
1
10
18.8721326730683
20
-6.59799203419306
30
0
41
1
10
18.2046911554841
20
-6.90632018423648
30
0
41
1
10
17.8724588521485
20
-7.03522284966726
30
0
41
1
10
17.3721640167956
20
-7.19435865204565
30
0
41
1
10
17.2050991970265
20
-7.24170914296053
30
0
41
1
10
16.8699106922146
20
-7.32568107023269
30
0
41
1
10
16.7017797004967
20
-7.36240626376687
30
0
41
1
10
16.4907661049643
20
-7.40155657831227
30
0
41
1
10
16.4485211743226
20
-7.40904439828483
30
0
41
1
10
16.3639423064476
20
-7.42332109715616
30
0
41
1
10
16.3216016787253
20
-7.43011046580679
30
0
41
1
10
16.1947545543158
20
-7.44936157436206
30
0
41
1
10
16.1103202152549
20
-7.46072488846693
30
0
41
1
10
15.8573754735448
20
-7.49028625493105
30
0
41
1
10
15.6892261825365
20
-7.50396262496417
30
0
41
1
10
15.3536548514615
20
-7.51845819999639
30
0
41
1
10
15.1862423695628
20
-7.51923147187682
30
0
41
1
10
14.8517695672312
20
-7.50712985212905
30
0
41
1
10
14.6846846907332
20
-7.49434641164407
30
0
41
1
10
14.1829754163711
20
-7.4362770393395
30
0
41
1
10
13.8478606442807
20
-7.37125081738913
30
0
41
1
10
13.51
20
-7.28148112066404
30
0
0
SPLINE
5
154
100
AcDbEntity
8
1
62
256
6
ByLayer
370
18
48
1
60
0
100
AcDbSpline
70
4
71
3
72
10
73
6
40
0
40
0
40
0
40
0
40
0.5
40
0.5
40
1
40
1
40
1
40
1
41
1
10
12.2392310212458
20
-6.81770222440932
30
0
41
1
10
12.4491695856368
20
-6.91436821860191
30
0
41
1
10
12.6592156165564
20
-7.00135980899327
30
0
41
1
10
13.0818632378343
20
-7.15632599878114
30
0
41
1
10
13.2944618967466
20
-7.22421266801058
30
0
41
1
10
13.51
20
-7.28148112066407
30
0
0
SPLINE
5
155
100
AcDbEntity
8
1
62
256
6
ByLayer
370
13
48
1
60
0
100
AcDbSpline
70
4
71
3
72
8
73
4
40
0
40
0
40
0
40
0
40
1
40
1
40
1
40
1
41
1
10
12.1197849875336
20
-6.89051205165205
30
0
41
1
10
12.15943234517
20
-6.86627649351274
30
0
41
1
10
12.1992456096284
20
-6.84200136359391
30
0
41
1
10
12.2392310312562
20
-6.81770221771362
30
0
0
SPLINE
5
156
100
AcDbEntity
8
1
62
256
6
ByLayer
370
18
48
1
60
0
100
AcDbSpline
70
4
71
3
72
8
73
4
40
0
40
0
40
0
40
0
40
1
40
1
40
1
40
1
41
1
10
12.1197849875336
20
-6.89051205165211
30
0
41
1
10
12.1750360643478
20
-6.91448286834199
30
0
41
1
10
12.2302945465816
20
-6.93784259380934
30
0
41
1
10
12.2856114191291
20
-6.96056953057686
30
0
0
SPLINE
5
157
100
AcDbEntity
8
1
62
256
6
ByLayer
370
18
48
1
60
0
100
AcDbSpline
70
4
71
3
72
28
73
24
40
0
40
0
40
0
40
0
40
0.0312499999999979
40
0.0312499999999979
40
0.0624999999999959
40
0.0624999999999959
40
0.124999999999996
40
0.124999999999996
40
0.187499999999996
40
0.187499999999996
40
0.249999999999996
40
0.249999999999996
40
0.312499999999997
40
0.312499999999997
40
0.374999999999997
40
0.374999999999997
40
0.499999999999998
40
0.499999999999998
40
0.624999999999998
40
0.624999999999998
40
0.749999999999999
40
0.749999999999999
40
1
40
1
40
1
40
1
41
1
10
12.2856114191291
20
-6.96056953057686
30
0
41
1
10
12.3073532098216
20
-6.96950214515766
30
0
41
1
10
12.3276984531488
20
-6.9789449586134
30
0
41
1
10
12.3664202291415
20
-6.99845968098401
30
0
41
1
10
12.3847885403723
20
-7.00853538085744
30
0
41
1
10
12.4376471583954
20
-7.03936608855324
30
0
41
1
10
12.4699277282045
20
-7.06070725246312
30
0
41
1
10
12.5306926735641
20
-7.10392833722528
30
0
41
1
10
12.5591465663027
20
-7.12582257440687
30
0
41
1
10
12.6133049219003
20
-7.16962516799566
30
0
41
1
10
12.6389987713022
20
-7.19153857568219
30
0
41
1
10
12.6882785335851
20
-7.23505090234818
30
0
41
1
10
12.711860194925
20
-7.25665204907412
30
0
41
1
10
12.7573356119326
20
-7.29931675362812
30
0
41
1
10
12.7792532658708
20
-7.32040739165132
30
0
41
1
10
12.8426391318551
20
-7.38235760874045
30
0
41
1
10
12.8818277405078
20
-7.42193569354751
30
0
41
1
10
12.9558670465975
20
-7.49703670172099
30
0
41
1
10
12.9906991138355
20
-7.53256631048481
30
0
41
1
10
13.0570422620731
20
-7.59921689030577
30
0
41
1
10
13.088545675523
20
-7.63034067449033
30
0
41
1
10
13.1790727719339
20
-7.71672169946891
30
0
41
1
10
13.2341649688984
20
-7.76498485511078
30
0
41
1
10
13.2856114191294
20
-7.80312986566702
30
0
0
SPLINE
5
158
100
AcDbEntity
8
1
62
256
6
ByLayer
370
18
48
1
60
0
100
AcDbSpline
70
4
71
3
72
8
73
4
40
0
40
0
40
0
40
0
40
1
40
1
40
1
40
1
41
1
10
13.2856114191291
20
-7.80312986566719
30
0
41
1
10
13.3608296442562
20
-7.85890047721793
30
0
41
1
10
13.4355263199131
20
-7.89072108501372
30
0
41
1
10
13.51
20
-7.89872442104232
30
0
0
SPLINE
5
159
100
AcDbEntity
8
1
62
256
6
ByLayer
370
18
48
1
60
0
100
AcDbSpline
70
4
71
3
72
8
73
4
40
0
40
0
40
0
40
0
40
1
40
1
40
1
40
1
41
1
10
13.51
20
-7.89872442104232
30
0
41
1
10
13.51
20
-7.89887757619385
30
0
41
1
10
13.51
20
-7.89902946199237
30
0
41
1
10
13.51
20
-7.8991800781516
30
0
0
SPLINE
5
15A
100
AcDbEntity
8
1
62
256
6
ByLayer
370
18
48
1
60
0
100
AcDbSpline
70
4
71
3
72
8
73
4
40
0
40
0
40
0
40
0
40
1
40
1
40
1
40
1
41
1
10
13.51
20
-7.8991800781516
30
0
41
1
10
13.6470818527124
20
-7.88415756392115
30
0
41
1
10
13.7836989826273
20
-7.86473407733263
30
0
41
1
10
13.9199760939629
20
-7.84102464992924
30
0
0
SPLINE
5
15B
100
AcDbEntity
8
1
62
256
6
ByLayer
370
18
48
1
60
0
100
AcDbSpline
70
4
71
3
72
15
73
11
40
0
40
0
40
0
40
0
40
0.0037127412302206
40
0.17699117095321
40
0.339948813740218
40
0.492589223232022
40
0.634914359901129
40
0.766924896228046
40
0.888620485635042
40
1
40
1
40
1
40
1
41
1
10
30.768140095687
20
6.42887810680597
30
0
41
1
10
30.7689662872086
20
6.42941515331265
30
0
41
1
10
30.8083518850538
20
6.45501069389545
30
0
41
1
10
30.8839984357031
20
6.50360815892429
30
0
41
1
10
30.9927785222603
20
6.5719407533195
30
0
41
1
10
31.0946643377142
20
6.6345663167489
30
0
41
1
10
31.1896576028841
20
6.69175416156028
30
0
41
1
10
31.2777591135659
20
6.74372749716244
30
0
41
1
10
31.3589701892578
20
6.7907975468965
30
0
41
1
10
31.4108103614299
20
6.8201788285819
30
0
41
1
10
31.4355832054947
20
6.83421925088604
30
0
0
SPLINE
5
15C
100
AcDbEntity
8
1
62
256
6
ByLayer
370
18
48
1
60
0
100
AcDbSpline
70
4
71
3
72
9
73
5
40
0
40
0
40
0
40
0
40
0.413787869138097
40
1
40
1
40
1
40
1
41
1
10
31.4355832054946
20
6.83421925088601
30
0
41
1
10
31.5727143039817
20
6.91149280266518
30
0
41
1
10
31.9041622776299
20
7.08923844447884
30
0
41
1
10
32.2358206092895
20
7.24464619600914
30
0
41
1
10
32.43027589799
20
7.32772191848801
30
0
0
SPLINE
5
15D
100
AcDbEntity
8
1
62
256
6
ByLayer
370
18
48
1
60
0
100
AcDbSpline
70
4
71
3
72
8
73
4
40
0
40
0
40
0
40
0
40
1
40
1
40
1
40
1
41
1
10
13.51
20
-0.376624822577099
30
0
41
1
10
13.4353650765353
20
-0.283811191519504
30
0
41
1
10
13.3605918008433
20
-0.191849987304948
30
0
41
1
10
13.2856114191291
20
-0.100806818253432
30
0
0
SPLINE
5
15E
100
AcDbEntity
8
1
62
256
6
ByLayer
370
18
48
1
60
0
100
AcDbSpline
70
4
71
3
72
12
73
8
40
0
40
0
40
0
40
0
40
0.249999999999996
40
0.249999999999996
40
0.499999999999991
40
0.499999999999991
40
1
40
1
40
1
40
1
41
1
10
43.7620406616055
20
7.20827779284136
30
0
41
1
10
43.8658750211181
20
7.25270112428927
30
0
41
1
10
43.972039041995
20
7.29285723403285
30
0
41
1
10
44.1886921479613
20
7.36572732330225
30
0
41
1
10
44.2992125730548
20
7.39841354655712
30
0
41
1
10
44.6369141950583
20
7.4865656443873
30
0
41
1
10
44.8703680405428
20
7.532059003158
30
0
41
1
10
45.1113024872764
20
7.56694095803866
30
0
0
SPLINE
5
15F
100
AcDbEntity
8
1
62
256
6
ByLayer
370
18
48
1
60
0
100
AcDbSpline
70
4
71
3
72
10
73
6
40
0
40
0
40
0
40
0
40
0.5
40
0.5
40
1
40
1
40
1
40
1
41
1
10
12.2392310543117
20
3.48988695781921
30
0
41
1
10
12.4491693785312
20
3.28729692919998
30
0
41
1
10
12.6592152905201
20
3.08003649420445
30
0
41
1
10
13.0818628987532
20
2.65870766114753
30
0
41
1
10
13.2944616642858
20
2.44459285856328
30
0
41
1
10
13.51
20
2.22820764195086
30
0
0
SPLINE
5
160
100
AcDbEntity
8
1
62
256
6
ByLayer
370
13
48
1
60
0
100
AcDbSpline
70
4
71
3
72
8
73
4
40
0
40
0
40
0
40
0
40
1
40
1
40
1
40
1
41
1
10
12.1197849875337
20
3.41787063609147
30
0
41
1
10
12.159432356099
20
3.44219220133203
30
0
41
1
10
12.1992456315777
20
3.46619566585582
30
0
41
1
10
12.2392310643225
20
3.48988696464349
30
0
0
SPLINE
5
161
100
AcDbEntity
8
1
62
256
6
ByLayer
370
18
48
1
60
0
100
AcDbSpline
70
4
71
3
72
8
73
4
40
0
40
0
40
0
40
0
40
1
40
1
40
1
40
1
41
1
10
12.1197849875337
20
3.41787063609141
30
0
41
1
10
12.1750360643465
20
3.36524706645477
30
0
41
1
10
12.2302945465832
20
3.31225894819633
30
0
41
1
10
12.2856114191292
20
3.25894833532149
30
0
0
SPLINE
5
162
100
AcDbEntity
8
1
62
256
6
ByLayer
370
18
48
1
60
0
100
AcDbSpline
70
4
71
3
72
28
73
24
40
0
40
0
40
0
40
0
40
0.0312499999999984
40
0.0312499999999984
40
0.0624999999999967
40
0.0624999999999967
40
0.124999999999997
40
0.124999999999997
40
0.187499999999997
40
0.187499999999997
40
0.249999999999997
40
0.249999999999997
40
0.312499999999997
40
0.312499999999997
40
0.374999999999997
40
0.374999999999997
40
0.499999999999998
40
0.499999999999998
40
0.624999999999998
40
0.624999999999998
40
0.749999999999998
40
0.749999999999998
40
1
40
1
40
1
40
1
41
1
10
12.285611419129
20
3.25894833532874
30
0
41
1
10
12.3073532098217
20
3.23799508664581
30
0
41
1
10
12.3276984531443
20
3.21647118820994
30
0
41
1
10
12.3664202291373
20
3.17257605471457
30
0
41
1
10
12.3847885403684
20
3.15020183498586
30
0
41
1
10
12.437647158392
20
3.08205801303348
30
0
41
1
10
12.4699277282013
20
3.03528024883681
30
0
41
1
10
12.5306926735613
20
2.93976993594265
30
0
41
1
10
12.5591465663001
20
2.89102644489242
30
0
41
1
10
12.6133049218979
20
2.7919447182062
30
0
41
1
10
12.6389987713001
20
2.74160270439373
30
0
41
1
10
12.6882785335832
20
2.63954120214342
30
0
41
1
10
12.7118601949232
20
2.58782029746905
30
0
41
1
10
12.757335611931
20
2.4831394980699
30
0
41
1
10
12.7792532658693
20
2.43010971985316
30
0
41
1
10
12.8426391318539
20
2.270019265668
30
0
41
1
10
12.8818277405067
20
2.16185699279453
30
0
41
1
10
12.9558670465966
20
1.94297740769147
30
0
41
1
10
12.9906991138348
20
1.83225694459321
30
0
41
1
10
13.0570422620726
20
1.60843668293148
30
0
41
1
10
13.0885456755225
20
1.49533560758721
30
0
41
1
10
13.1790727719336
20
1.15262601782337
30
0
41
1
10
13.2341649688983
20
0.919624673368503
30
0
41
1
10
13.2856114191294
20
0.682298152626458
30
0
0
SPLINE
5
163
100
AcDbEntity
8
1
62
256
6
ByLayer
370
18
48
1
60
0
100
AcDbSpline
70
4
71
3
72
8
73
4
40
0
40
0
40
0
40
0
40
1
40
1
40
1
40
1
41
1
10
13.2856114191291
20
0.68229815262643
30
0
41
1
10
13.3608296442583
20
0.335310564831104
30
0
41
1
10
13.4355263199111
20
-0.0152021411134342
30
0
41
1
10
13.51
20
-0.369157802919489
30
0
0
SPLINE
5
164
100
AcDbEntity
8
1
62
256
6
ByLayer
370
18
48
1
60
0
100
AcDbSpline
70
4
71
3
72
8
73
4
40
0
40
0
40
0
40
0
40
1
40
1
40
1
40
1
41
1
10
13.51
20
-0.369157802950042
30
0
41
1
10
13.51
20
-0.371741587583841
30
0
41
1
10
13.51
20
-0.374325633108725
30
0
41
1
10
13.51
20
-0.376909939596118
30
0
0
SPLINE
5
165
100
AcDbEntity
8
1
62
256
6
ByLayer
370
13
48
1
60
0
100
AcDbSpline
70
4
71
3
72
15
73
11
40
0
40
0
40
0
40
0
40
0.0163156412556294
40
0.139276186098676
40
0.262236730941722
40
0.385197275784768
40
0.508157820627815
40
0.631118365470861
40
0.754078910313907
40
1
40
1
40
1
40
1
41
1
10
30.4564928986759
20
-6.35222614671287
30
0
41
1
10
30.3643285991172
20
-6.39489541861303
30
0
41
1
10
29.5775809662253
20
-6.74557574200239
30
0
41
1
10
28.09625
20
-7.18261302729354
30
0
41
1
10
26.0125
20
-7.19120868037012
30
0
41
1
10
23.9287499999999
20
-6.59279963194766
30
0
41
1
10
21.845
20
-5.43813288681102
30
0
41
1
10
19.76125
20
-3.82439490087299
30
0
41
1
10
16.9829166666667
20
-1.2423599395116
30
0
41
1
10
14.8991666666667
20
0.933043738662974
30
0
41
1
10
13.51
20
2.25409980962141
30
0
0
SPLINE
5
166
100
AcDbEntity
8
1
62
256
6
ByLayer
370
18
48
1
60
0
100
AcDbSpline
70
4
71
3
72
78
73
74
40
0
40
0
40
0
40
0
40
0.0082547969580899
40
0.0082547969580899
40
0.0374237735181457
40
0.0374237735181457
40
0.052008261798174
40
0.052008261798174
40
0.0665927500782025
40
0.0665927500782025
40
0.124930703198315
40
0.124930703198315
40
0.154099679758371
40
0.154099679758371
40
0.183268656318428
40
0.212437632878484
40
0.212437632878484
40
0.24160660943854
40
0.24160660943854
40
0.248898853578554
40
0.256191097718569
40
0.256191097718569
40
0.270775585998597
40
0.270775585998597
40
0.299944562558654
40
0.299944562558654
40
0.32911353911871
40
0.32911353911871
40
0.358282515678766
40
0.358282515678766
40
0.416620468798878
40
0.416620468798878
40
0.431204957078906
40
0.431204957078906
40
0.43849720121892
40
0.43849720121892
40
0.445789445358934
40
0.445789445358934
40
0.474958421918989
40
0.474958421918989
40
0.5332963750391
40
0.5332963750391
40
0.59163432815921
40
0.59163432815921
40
0.620803304719266
40
0.620803304719266
40
0.635387792999294
40
0.635387792999294
40
0.642680037139308
40
0.642680037139308
40
0.649972281279322
40
0.649972281279322
40
0.708310234399431
40
0.708310234399431
40
0.76664818751954
40
0.76664818751954
40
0.795817164079595
40
0.795817164079595
40
0.82498614063965
40
0.82498614063965
40
0.832278384779664
40
0.832278384779664
40
0.839570628919679
40
0.839570628919679
40
0.854155117199708
40
0.854155117199708
40
0.883324093759767
40
0.883324093759767
40
0.912493070319825
40
0.912493070319825
40
0.941662046879883
40
0.941662046879883
40
1
40
1
40
1
40
1
41
1
10
30.7678806719331
20
-6.43509902307613
30
0
41
1
10
30.7206119221661
20
-6.4606694374977
30
0
41
1
10
30.6733205230604
20
-6.48582313262449
30
0
41
1
10
30.458790007398
20
-6.59796892470143
30
0
41
1
10
30.2912232804938
20
-6.68017082431643
30
0
41
1
10
30.0389724665436
20
-6.79561351141004
30
0
41
1
10
29.9547401668104
20
-6.83278185584888
30
0
41
1
10
29.7859276824518
20
-6.90445082549772
30
0
41
1
10
29.7012408617443
20
-6.9389908209381
30
0
41
1
10
29.2789049280129
20
-7.10409636285789
30
0
41
1
10
28.9435209830613
20
-7.2124478974641
30
0
41
1
10
28.441742507682
20
-7.33943341600192
30
0
41
1
10
28.2746998854418
20
-7.37582873624501
30
0
41
1
10
27.9406606865267
20
-7.43652726660039
30
0
41
1
10
27.6066707382426
20
-7.4851333029811
30
0
41
1
10
27.2720589856837
20
-7.50868818246005
30
0
41
1
10
26.9367043099095
20
-7.51908385146086
30
0
41
1
10
26.7686624590789
20
-7.51762010913694
30
0
41
1
10
26.5577941441512
20
-7.50734271252077
30
0
41
1
10
26.4733643136251
20
-7.50239789889596
30
0
41
1
10
26.3887494097985
20
-7.49579565718287
30
0
41
1
10
26.2620491516427
20
-7.48469921758101
30
0
41
1
10
26.1777520695539
20
-7.47570334348237
30
0
41
1
10
25.9252370591602
20
-7.44412225527105
30
0
41
1
10
25.7573892529655
20
-7.41694961862586
30
0
41
1
10
25.4221256272416
20
-7.35130307987617
30
0
41
1
10
25.2547074881331
20
-7.31284479165433
30
0
41
1
10
24.9198655589771
20
-7.22533580568123
30
0
41
1
10
24.752463429275
20
-7.17621283379069
30
0
41
1
10
24.249966688219
20
-7.01200725159094
30
0
41
1
10
23.9146198821965
20
-6.88012701307852
30
0
41
1
10
23.4931936606199
20
-6.68421347631568
30
0
41
1
10
23.4087941835874
20
-6.64346583454852
30
0
41
1
10
23.2819720985284
20
-6.58000637991708
30
0
41
1
10
23.2396608499578
20
-6.55846421575347
30
0
41
1
10
23.1549550722342
20
-6.5146049095041
30
0
41
1
10
23.1125410277121
20
-6.49227683624679
30
0
41
1
10
22.9008687424269
20
-6.37904602071595
30
0
41
1
10
22.7323497242024
20
-6.28315141572111
30
0
41
1
10
22.2283850424288
20
-5.98049368676567
30
0
41
1
10
21.8945283734312
20
-5.75873038762609
30
0
41
1
10
21.2270566754048
20
-5.27893973374967
30
0
41
1
10
20.8933988926931
20
-5.02113742884296
30
0
41
1
10
20.3902567744442
20
-4.61120213433722
30
0
41
1
10
20.2221040746177
20
-4.47069272292177
30
0
41
1
10
19.968931773709
20
-4.25437683573318
30
0
41
1
10
19.8843859737701
20
-4.18133100032352
30
0
41
1
10
19.7573034225485
20
-4.07030938460895
30
0
41
1
10
19.7148805176833
20
-4.03304389597241
30
0
41
1
10
19.6301743683663
20
-3.95822753215609
30
0
41
1
10
19.5878652578588
20
-3.92065419336115
30
0
41
1
10
19.2074665965112
20
-3.58100587294268
30
0
41
1
10
18.8721326436989
20
-3.26847527765861
30
0
41
1
10
18.2046911699169
20
-2.62242844442395
30
0
41
1
10
17.872458864452
20
-2.2889412483238
30
0
41
1
10
17.3721639898759
20
-1.77863958897166
30
0
41
1
10
17.2050991510011
20
-1.60683808355461
30
0
41
1
10
16.8699105962371
20
-1.26054184650295
30
0
41
1
10
16.7017795737756
20
-1.08609132856137
30
0
41
1
10
16.4907659322838
20
-0.866521799676462
30
0
41
1
10
16.4485209920691
20
-0.822530717443925
30
0
41
1
10
16.3639421042675
20
-0.734393840263635
30
0
41
1
10
16.3216014817188
20
-0.690241035868922
30
0
41
1
10
16.1947543794292
20
-0.557879936824065
30
0
41
1
10
16.1103200542237
20
-0.469661785503632
30
0
41
1
10
15.8573753514384
20
-0.205118324375832
30
0
41
1
10
15.6892260828591
20
-0.0289005979918215
30
0
41
1
10
15.3536547897801
20
0.322941894801858
30
0
41
1
10
15.1862423234285
20
0.498571212440993
30
0
41
1
10
14.851769545563
20
0.848798093519974
30
0
41
1
10
14.6846846780382
20
1.02338130010216
30
0
41
1
10
14.1829754221328
20
1.54471697424697
30
0
41
1
10
13.8478606510992
20
1.88901912686833
30
0
41
1
10
13.51
20
2.22820764195086
30
0
0
SPLINE
5
167
100
AcDbEntity
8
1
62
256
6
ByLayer
370
13
48
1
60
0
100
AcDbSpline
70
4
71
3
72
17
73
13
40
0
40
0
40
0
40
0
40
0.0405079806817335
40
0.160051653299157
40
0.27959532591658
40
0.399138998534004
40
0.518682671151427
40
0.638226343768851
40
0.757770016386274
40
0.877313689003698
40
0.996857361621121
40
1
40
1
40
1
40
1
41
1
10
41.3048392717902
20
-6.35432096859449
30
0
41
1
10
41.0694761811935
20
-6.46314336540215
30
0
41
1
10
40.1395297572635
20
-6.85234702328992
30
0
41
1
10
38.515
20
-7.23529842620249
30
0
41
1
10
36.4312500000001
20
-7.11586975786045
30
0
41
1
10
34.3475
20
-6.39575425658421
30
0
41
1
10
32.26375
20
-5.13587545630136
30
0
41
1
10
30.18
20
-3.44272427907626
30
0
41
1
10
28.09625
20
-1.45886743698293
30
0
41
1
10
26.0125
20
0.64809342006663
30
0
41
1
10
24.605073694886
20
2.03423803660559
30
0
41
1
10
23.8922307231053
20
2.69630827801114
30
0
41
1
10
23.8739710846579
20
2.7132406526168
30
0
0
SPLINE
5
168
100
AcDbEntity
8
1
62
256
6
ByLayer
370
18
48
1
60
0
100
AcDbSpline
70
4
71
3
72
113
73
109
40
0
40
0
40
0
40
0
40
0.0124126065990871
40
0.0124126065990871
40
0.0516929905702651
40
0.0516929905702651
40
0.0713331825558541
40
0.0713331825558541
40
0.0811532785486486
40
0.0811532785486486
40
0.0909733745414431
40
0.0909733745414431
40
0.110613566527032
40
0.110613566527032
40
0.130253758512621
40
0.130253758512621
40
0.169534142483798
40
0.169534142483798
40
0.189174334469387
40
0.189174334469387
40
0.208814526454975
40
0.208814526454975
40
0.213724574451372
40
0.213724574451372
40
0.21863462244777
40
0.21863462244777
40
0.228454718440565
40
0.228454718440565
40
0.248094910426154
40
0.248094910426154
40
0.267735102411744
40
0.267735102411744
40
0.287375294397334
40
0.287375294397334
40
0.326655678368513
40
0.326655678368513
40
0.346295870354102
40
0.346295870354102
40
0.351205918350499
40
0.351205918350499
40
0.356115966346896
40
0.365936062339691
40
0.365936062339691
40
0.385576254325281
40
0.385576254325281
40
0.405216446310871
40
0.405216446310871
40
0.444496830282051
40
0.444496830282051
40
0.464137022267642
40
0.464137022267642
40
0.473957118260437
40
0.473957118260437
40
0.483777214253232
40
0.483777214253232
40
0.523057598224414
40
0.523057598224414
40
0.542697790210004
40
0.542697790210004
40
0.562337982195595
40
0.581978174181186
40
0.581978174181186
40
0.601618366166777
40
0.601618366166777
40
0.606528414163174
40
0.611438462159571
40
0.611438462159571
40
0.621258558152365
40
0.621258558152365
40
0.640898750137954
40
0.640898750137954
40
0.660538942123542
40
0.660538942123542
40
0.680179134109131
40
0.680179134109131
40
0.719459518080308
40
0.719459518080308
40
0.729279614073102
40
0.729279614073102
40
0.7341896620695
40
0.7341896620695
40
0.739099710065898
40
0.739099710065898
40
0.758739902051489
40
0.758739902051489
40
0.798020286022671
40
0.798020286022671
40
0.837300669993852
40
0.837300669993852
40
0.856940861979443
40
0.856940861979443
40
0.866760957972239
40
0.866760957972239
40
0.871671005968637
40
0.871671005968637
40
0.876581053965034
40
0.876581053965034
40
0.915861437936216
40
0.915861437936216
40
0.955141821907397
40
0.955141821907397
40
0.974782013892987
40
0.974782013892987
40
0.994422205878577
40
0.994422205878577
40
0.999332253874975
40
0.999332253874975
40
1
40
1
40
1
40
1
41
1
10
42.0194000734073
20
-6.20338438247444
30
0
41
1
10
41.9137142719306
20
-6.26566536099767
30
0
41
1
10
41.8080450063504
20
-6.32603175639204
30
0
41
1
10
41.3678505466507
20
-6.56955693252868
30
0
41
1
10
41.033202950685
20
-6.73546386366249
30
0
41
1
10
40.529340222172
20
-6.95105494268742
30
0
41
1
10
40.3610548370601
20
-7.01735780561143
30
0
41
1
10
40.1078235355307
20
-7.10776828568217
30
0
41
1
10
40.0232780759519
20
-7.13639499952978
30
0
41
1
10
39.8538456134469
20
-7.19060169059861
30
0
41
1
10
39.7688814703422
20
-7.21619898984909
30
0
41
1
10
39.5149328562131
20
-7.28795308155298
30
0
41
1
10
39.3464140140989
20
-7.32924250512713
30
0
41
1
10
39.010366210239
20
-7.39903863313236
30
0
41
1
10
38.842838142306
20
-7.42754517091569
30
0
41
1
10
38.3409852000523
20
-7.49407100027474
30
0
41
1
10
38.0074022760458
20
-7.51287726519251
30
0
41
1
10
37.5054856029898
20
-7.50529277349622
30
0
41
1
10
37.337927482863
20
-7.49680189783157
30
0
41
1
10
37.0018687615656
20
-7.46823248859704
30
0
41
1
10
36.8333648131334
20
-7.44819863918127
30
0
41
1
10
36.6219115495345
20
-7.41592130265315
30
0
41
1
10
36.5795801583013
20
-7.40909892214012
30
0
41
1
10
36.4948306327652
20
-7.39470576331419
30
0
41
1
10
36.4523879163064
20
-7.38713032950315
30
0
41
1
10
36.3250984919263
20
-7.36329163711176
30
0
41
1
10
36.2404136876026
20
-7.34594096187249
30
0
41
1
10
35.9868515135376
20
-7.28943215087699
30
0
41
1
10
35.8184698818253
20
-7.24581934902781
30
0
41
1
10
35.48277428335
20
-7.14621104748156
30
0
41
1
10
35.3154612452785
20
-7.09021145511963
30
0
41
1
10
34.9815344881492
20
-6.96527981588133
30
0
41
1
10
34.814899804863
20
-6.89639810643362
30
0
41
1
10
34.3148800946015
20
-6.67215937701184
30
0
41
1
10
33.9813005873613
20
-6.49927713209323
30
0
41
1
10
33.4774713237568
20
-6.21051045605779
30
0
41
1
10
33.308962728268
20
-6.10942685841914
30
0
41
1
10
33.0974318065647
20
-5.97684988895315
30
0
41
1
10
33.0550521602997
20
-5.9500023620154
30
0
41
1
10
32.9703664341883
20
-5.89577825688482
30
0
41
1
10
32.8434546351447
20
-5.81365410847414
30
0
41
1
10
32.7168794984133
20
-5.72915734866456
30
0
41
1
10
32.4641371341556
20
-5.55696984322722
30
0
41
1
10
32.2961870718546
20
-5.43792231003903
30
0
41
1
10
31.961119939728
20
-5.19109480369596
30
0
41
1
10
31.7940220331317
20
-5.06325629733652
30
0
41
1
10
31.2933951418633
20
-4.66665191841153
30
0
41
1
10
30.960420476063
20
-4.38511498623592
30
0
41
1
10
30.4587900207819
20
-3.94095621209814
30
0
41
1
10
30.2912233191756
20
-3.78925485954042
30
0
41
1
10
30.0389725530772
20
-3.55662634930943
30
0
41
1
10
29.9547402709594
20
-3.47823376446266
30
0
41
1
10
29.785927825441
20
-3.31977577258738
30
0
41
1
10
29.7012410126488
20
-3.23960756089429
30
0
41
1
10
29.2789049861771
20
-2.8366573343381
30
0
41
1
10
28.9435209974453
20
-2.50664170224778
30
0
41
1
10
28.441742498579
20
-2.00250989291962
30
0
41
1
10
28.2746998754487
20
-1.83294517501338
30
0
41
1
10
27.94066068723
20
-1.49110123657317
30
0
41
1
10
27.6066707619719
20
-1.14653959508934
30
0
41
1
10
27.2720590553305
20
-0.797051562843819
30
0
41
1
10
26.9367044373663
20
-0.445380431290715
30
0
41
1
10
26.7686626214685
20
-0.268428462748801
30
0
41
1
10
26.5577943584568
20
-0.0461666646167771
30
0
41
1
10
26.4733645708073
20
0.0428418384144607
30
0
41
1
10
26.3887496476557
20
0.132036685855155
30
0
41
1
10
26.2620493612485
20
0.265557710237033
30
0
41
1
10
26.1777522618291
20
0.354342733281129
30
0
41
1
10
25.9252372039427
20
0.619927866730848
30
0
41
1
10
25.7573893720971
20
0.795953428668611
30
0
41
1
10
25.4221257076395
20
1.14561600946246
30
0
41
1
10
25.2547075554506
20
1.31925460345764
30
0
41
1
10
24.9198656127309
20
1.66388201383964
30
0
41
1
10
24.7524634826101
20
1.8348744761914
30
0
41
1
10
24.2499667596693
20
2.34335831338484
30
0
41
1
10
23.9146199915857
20
2.67640408804195
30
0
41
1
10
23.4931938466275
20
3.08271166458474
30
0
41
1
10
23.4087943864021
20
3.16346815949953
30
0
41
1
10
23.2819723287602
20
3.28379613554935
30
0
41
1
10
23.239661089696
20
3.32377108738569
30
0
41
1
10
23.1549553317213
20
3.40344415356478
30
0
41
1
10
23.1125412843399
20
3.4431602184344
30
0
41
1
10
22.9008689482396
20
3.64044473075308
30
0
41
1
10
22.7323498948909
20
3.79455552117255
30
0
41
1
10
22.2283851232733
20
4.24545537107636
30
0
41
1
10
21.8945284147813
20
4.53078366810811
30
0
41
1
10
21.2270566869194
20
5.06895494489066
30
0
41
1
10
20.8933989141185
20
5.32194476820513
30
0
41
1
10
20.3902568478485
20
5.676888436486
30
0
41
1
10
20.2221041714401
20
5.79112493841893
30
0
41
1
10
19.9689319141711
20
5.9562053535665
30
0
41
1
10
19.8843861302078
20
6.01017553227189
30
0
41
1
10
19.7573036050638
20
6.08946627128071
30
0
41
1
10
19.7148806973136
20
6.11562952430361
30
0
41
1
10
19.6301745294307
20
6.16724577225477
30
0
41
1
10
19.5878654100075
20
6.19271518932902
30
0
41
1
10
19.2074666716796
20
6.41885013040607
30
0
41
1
10
18.8721326731186
20
6.59799203416702
30
0
41
1
10
18.2046911555352
20
6.90632018421496
30
0
41
1
10
17.8724588522004
20
7.03522284964808
30
0
41
1
10
17.3721640168494
20
7.19435865202976
30
0
41
1
10
17.2050991970811
20
7.24170914294572
30
0
41
1
10
16.8699106922708
20
7.3256810702199
30
0
41
1
10
16.7017797005538
20
7.36240626375505
30
0
41
1
10
16.4907661050221
20
7.40155657830178
30
0
41
1
10
16.4485211743806
20
7.40904439827463
30
0
41
1
10
16.400480553151
20
7.41715353357222
30
0
41
1
10
16.3947284190363
20
7.41811786507969
30
0
41
1
10
16.3889756133825
20
7.41907568349825
30
0
0
SPLINE
5
169
100
AcDbEntity
8
1
62
256
6
ByLayer
370
18
48
1
60
0
100
AcDbSpline
70
4
71
3
72
8
73
4
40
0
40
0
40
0
40
0
40
1
40
1
40
1
40
1
41
1
10
13.3438579072864
20
7.84158927951745
30
0
41
1
10
13.3994423169187
20
7.8737634371482
30
0
41
1
10
13.4547824520191
20
7.89279045093824
30
0
41
1
10
13.51
20
7.8987244210422
30
0
0
SPLINE
5
16A
100
AcDbEntity
8
1
62
256
6
ByLayer
370
18
48
1
60
0
100
AcDbSpline
70
4
71
3
72
12
73
8
40
0
40
0
40
0
40
0
40
0.25
40
0.25
40
0.5
40
0.5
40
1
40
1
40
1
40
1
41
1
10
43.7620406616055
20
-7.20827779284173
30
0
41
1
10
43.8658750211181
20
-7.25270112428964
30
0
41
1
10
43.972039041995
20
-7.29285723403325
30
0
41
1
10
44.1886921479613
20
-7.36572732330262
30
0
41
1
10
44.2992125730548
20
-7.39841354655746
30
0
41
1
10
44.6369141950583
20
-7.48656564438764
30
0
41
1
10
44.8703680405428
20
-7.53205900315839
30
0
41
1
10
45.1113024872764
20
-7.56694095803903
30
0
0
SPLINE
5
16B
100
AcDbEntity
8
1
62
256
6
ByLayer
370
18
48
1
60
0
100
AcDbSpline
70
4
71
3
72
24
73
20
40
0
40
0
40
0
40
0
40
0.0312500000000047
40
0.0312500000000047
40
0.0625000000000095
40
0.0625000000000095
40
0.125000000000008
40
0.125000000000008
40
0.250000000000006
40
0.250000000000006
40
0.375000000000004
40
0.375000000000004
40
0.500000000000001
40
0.500000000000001
40
0.624999999999999
40
0.624999999999999
40
0.749999999999997
40
0.749999999999997
40
1
40
1
40
1
40
1
41
1
10
45.1113024872764
20
-7.56694095803903
30
0
41
1
10
45.1224413907284
20
-7.55844871716863
30
0
41
1
10
45.1331603100525
20
-7.54982762538864
30
0
41
1
10
45.1539260814027
20
-7.53235427569024
30
0
41
1
10
45.1639815478495
20
-7.52349204598272
30
0
41
1
10
45.1931023116102
20
-7.49679317507452
30
0
41
1
10
45.2112238476227
20
-7.47877448021851
30
0
41
1
10
45.2629780098677
20
-7.42406104370332
30
0
41
1
10
45.2940571504701
20
-7.38670895269127
30
0
41
1
10
45.3524370154745
20
-7.31024039696493
30
0
41
1
10
45.3796752227342
20
-7.27112371525095
30
0
41
1
10
45.4315875312803
20
-7.19111026350919
30
0
41
1
10
45.4562435684678
20
-7.15021351495136
30
0
41
1
10
45.503648777752
20
-7.06662283038241
30
0
41
1
10
45.5264021638593
20
-7.02390436453445
30
0
41
1
10
45.5702660044976
20
-6.936894632487
30
0
41
1
10
45.5913886273235
20
-6.89257907149468
30
0
41
1
10
45.6527178440538
20
-6.75717532110684
30
0
41
1
10
45.6909107839673
20
-6.66363145437387
30
0
41
1
10
45.7269235263752
20
-6.56674175968263
30
0
0
SPLINE
5
16C
100
AcDbEntity
8
1
62
256
6
ByLayer
370
18
48
1
60
0
100
AcDbSpline
70
4
71
3
72
166
73
162
40
0
40
0
40
0
40
0
40
0.0035163379134986
40
0.007044424729465
40
0.0105842472812322
40
0.0141357921777886
40
0.0176990458109734
40
0.0212739943631032
40
0.0248606238149728
40
0.0284589199543114
40
0.0320688683846574
40
0.0356904545346812
40
0.0393236636679683
40
0.0429684808932501
40
0.0466248911751413
40
0.0502928793453243
40
0.0539724301142699
40
0.0576635280834252
40
0.0613661577579711
40
0.065080303560062
40
0.0688059498426472
40
0.0725430809038112
40
0.0762916810017198
40
0.0800517343701128
40
0.0838232252344061
40
0.0876061378283873
40
0.0914004564115377
40
0.0952061652869716
40
0.0990232514462962
40
0.102851717750587
40
0.10669157300876
40
0.11054282611344
40
0.114405486035962
40
0.118279561831585
40
0.122165062645009
40
0.126061997716174
40
0.129970376386383
40
0.133890208104698
40
0.13782150243468
40
0.141764269061444
40
0.145718517799026
40
0.149684258598112
40
0.153661501554076
40
0.157650256915407
40
0.161650535092448
40
0.165662346666539
40
0.169685702399506
40
0.173720613243526
40
0.177767090351402
40
0.181825145087198
40
0.185894789037304
40
0.189976034021888
40
0.194068892106768
40
0.198173375615721
40
0.202289497143198
40
0.2064172695675
40
0.210556706064393
40
0.214707820121162
40
0.218870625551155
40
0.223045136508777
40
0.227231367504965
40
0.231429333423162
40
0.235639049535759
40
0.239860531521064
40
0.244093795401499
40
0.24833885183686
40
0.252595701825648
40
0.256864344963229
40
0.261144780321724
40
0.265437006452846
40
0.269741021391239
40
0.274056822658352
40
0.278384407266827
40
0.282723771725453
40
0.287074912044641
40
0.291437823742516
40
0.295812501851529
40
0.300198940925712
40
0.304597135048505
40
0.309007077841213
40
0.31342876247209
40
0.317862181666057
40
0.322307327715101
40
0.326764192489307
40
0.331232767448604
40
0.335713043655189
40
0.340205011786677
40
0.34470866214996
40
0.349223984695818
40
0.353750969034281
40
0.358289604450762
40
0.362839879922973
40
0.367401784138635
40
0.371975305514025
40
0.376560432213327
40
0.381157152168856
40
0.38576545310213
40
0.390385322547381
40
0.395016749880605
40
0.399659730408192
40
0.404314260711515
40
0.408980337596362
40
0.413657958122205
40
0.418347119632415
40
0.423047819785424
40
0.427760056586845
40
0.432483828422585
40
0.437219134092943
40
0.441965972847729
40
0.446724344422408
40
0.451494249075289
40
0.45627568762577
40
0.461068661493674
40
0.465873172739663
40
0.470689224106762
40
0.475516819063015
40
0.480355961845283
40
0.485206657504187
40
0.490068911950233
40
0.494942732001127
40
0.499828125430281
40
0.504725101016561
40
0.50963366859524
40
0.514553839110231
40
0.519485624667567
40
0.524429038590158
40
0.529384095473857
40
0.534350811244824
40
0.539329203058562
40
0.544319284679453
40
0.549321064522335
40
0.55433454985487
40
0.559359747064376
40
0.564396661671573
40
0.569445298345351
40
0.574505660918578
40
0.579577752404953
40
0.584661575016938
40
0.589757130184767
40
0.594864418576574
40
0.599983440119641
40
0.605114194022775
40
0.610256678799869
40
0.615410892294644
40
0.620576831706561
40
0.625754493618002
40
0.630943874022651
40
0.636144968355161
40
0.699750128911036
40
0.763350390005987
40
0.826935658350905
40
0.89050097757452
40
0.954056350883216
40
0.958186313531591
40
0.962777052278428
40
0.967828596386644
40
0.973340983905573
40
0.979314263806002
40
0.985748492337989
40
0.992643720536642
40
1
40
1
40
1
40
1
41
1
10
32.4302758980015
20
3.429044625898
30
0
41
1
10
32.4435527553737
20
3.41572921290424
30
0
41
1
10
32.4701508311852
20
3.38905389702623
30
0
41
1
10
32.5101139126026
20
3.34884097065066
30
0
41
1
10
32.5502096477143
20
3.3083976315273
30
0
41
1
10
32.5904379238616
20
3.26771460425266
30
0
41
1
10
32.6307986825724
20
3.22679492462379
30
0
41
1
10
32.6712918488859
20
3.18563834538784
30
0
41
1
10
32.7119173503678
20
3.14424553579676
30
0
41
1
10
32.7526751119745
20
3.10261695106638
30
0
41
1
10
32.7935650574199
20
3.06075313709835
30
0
41
1
10
32.8345871087921
20
3.018654648731
30
0
41
1
10
32.8757411866402
20
2.97632207205396
30
0
41
1
10
32.9170272099349
20
2.93375601870309
30
0
41
1
10
32.9584450960635
20
2.89095712770174
30
0
41
1
10
32.9999947608149
20
2.84792606527
30
0
41
1
10
33.0416761183677
20
2.80466352518334
30
0
41
1
10
33.0834890812769
20
2.76117022898282
30
0
41
1
10
33.1254335604619
20
2.71744692622769
30
0
41
1
10
33.1675094651928
20
2.67349439473634
30
0
41
1
10
33.2097167030784
20
2.62931344083231
30
0
41
1
10
33.2520551800518
20
2.58490489958928
30
0
41
1
10
33.2945248003623
20
2.54026963507647
30
0
41
1
10
33.3371254665439
20
2.49540854061169
30
0
41
1
10
33.3798570794742
20
2.45032253898486
30
0
41
1
10
33.4227195380884
20
2.40501258279815
30
0
41
1
10
33.4657127403922
20
2.35947965437237
30
0
41
1
10
33.5088365895195
20
2.31372475675772
30
0
41
1
10
33.5520910677885
20
2.26774884567106
30
0
41
1
10
33.5954761143378
20
2.22155285491311
30
0
41
1
10
33.6389917332351
20
2.17513766394228
30
0
41
1
10
33.6826379561991
20
2.12850415369093
30
0
41
1
10
33.7264148144605
20
2.0816532323758
30
0
41
1
10
33.7703223403284
20
2.03458583522385
30
0
41
1
10
33.814360566766
20
1.98730292483728
30
0
41
1
10
33.858529527512
20
1.93980549137689
30
0
41
1
10
33.902829257056
20
1.89209455279544
30
0
41
1
10
33.9472597906518
20
1.84417115505781
30
0
41
1
10
33.9918211643216
20
1.79603637236596
30
0
41
1
10
34.0365134148626
20
1.74769130738377
30
0
41
1
10
34.0813365798523
20
1.69913709146195
30
0
41
1
10
34.1262906976548
20
1.65037488486476
30
0
41
1
10
34.1713758074267
20
1.60140587699613
30
0
41
1
10
34.216591949123
20
1.5522312866278
30
0
41
1
10
34.261939163503
20
1.5028523621269
30
0
41
1
10
34.3074174921365
20
1.45327038168523
30
0
41
1
10
34.3530269774098
20
1.40348665354861
30
0
41
1
10
34.3987676625314
20
1.35350251624692
30
0
41
1
10
34.4446395915387
20
1.30331933882539
30
0
41
1
10
34.490642809303
20
1.25293852107575
30
0
41
1
10
34.5367773615368
20
1.20236149376888
30
0
41
1
10
34.5830432947993
20
1.15158971888758
30
0
41
1
10
34.6294406565021
20
1.10062468986007
30
0
41
1
10
34.6759694949162
20
1.04946793179474
30
0
41
1
10
34.7226298591774
20
0.998121001714622
30
0
41
1
10
34.7694217992931
20
0.946585488793573
30
0
41
1
10
34.8163453661476
20
0.894863014592318
30
0
41
1
10
34.86340061151
20
0.842955233296578
30
0
41
1
10
34.9105875880355
20
0.790863831949537
30
0
41
1
10
34.9579063492886
20
0.738590530712003
30
0
41
1
10
35.0053569496876
20
0.686137083019133
30
0
41
1
10
35.0529394447392
20
0.63350527612937
30
0
41
1
10
35.1006538901938
20
0.580696930206983
30
0
41
1
10
35.1485003449356
20
0.527713903233803
30
0
41
1
10
35.1964788371359
20
0.474558099284934
30
0
41
1
10
35.2445893740601
20
0.421231576626781
30
0
41
1
10
35.2928319976546
20
0.36773662082868
30
0
41
1
10
35.3412066972042
20
0.314075579940834
30
0
41
1
10
35.3897134623965
20
0.260250852330842
30
0
41
1
10
35.4383522816431
20
0.206264876358688
30
0
41
1
10
35.4871231434212
20
0.1521201325275
30
0
41
1
10
35.5360260359107
20
0.0978191432680262
30
0
41
1
10
35.5850609470903
20
0.0433644733598442
30
0
41
1
10
35.6342278647099
20
-0.011241269816793
30
0
41
1
10
35.6835267762957
20
-0.0659954359837513
30
0
41
1
10
35.7329576691482
20
-0.120895331677531
30
0
41
1
10
35.7825205303398
20
-0.175938219959818
30
0
41
1
10
35.8322153467143
20
-0.231121320126192
30
0
41
1
10
35.8820421048852
20
-0.28644180741523
30
0
41
1
10
35.9320007912344
20
-0.341896812716215
30
0
41
1
10
35.9820913919107
20
-0.39748342227611
30
0
41
1
10
36.0323138928283
20
-0.453198677406249
30
0
41
1
10
36.0826682796659
20
-0.509039574187312
30
0
41
1
10
36.1331545378648
20
-0.565003063174601
30
0
41
1
10
36.1837726526275
20
-0.62108604910182
30
0
41
1
10
36.234522608917
20
-0.677285390584359
30
0
41
1
10
36.2854043914548
20
-0.73359789982166
30
0
41
1
10
36.3364179847191
20
-0.790020342299073
30
0
41
1
10
36.3875633729446
20
-0.846549436488687
30
0
41
1
10
36.4388405401203
20
-0.903181853549341
30
0
41
1
10
36.4902494699883
20
-0.959914217026409
30
0
41
1
10
36.5417901460427
20
-1.01674310254956
30
0
41
1
10
36.5934625515258
20
-1.07366503753264
30
0
41
1
10
36.6452666694381
20
-1.13067650086432
30
0
41
1
10
36.6972024824924
20
-1.18777392262749
30
0
41
1
10
36.7492699732803
20
-1.24495368370844
30
0
41
1
10
36.8014691236473
20
-1.30221211582142
30
0
41
1
10
36.8537999246302
20
-1.35954550829709
30
0
41
1
10
36.9062623904718
20
-1.41695013738132
30
0
41
1
10
36.9588564941566
20
-1.47442230287854
30
0
41
1
10
37.0115822396477
20
-1.53195828189186
30
0
41
1
10
37.0644396337521
20
-1.58955430797198
30
0
41
1
10
37.117428683764
20
-1.6472065654724
30
0
41
1
10
37.1705493970028
20
-1.70491118949212
30
0
41
1
10
37.2238017809388
20
-1.76266426551285
30
0
41
1
10
37.27718584316
20
-1.82046182911785
30
0
41
1
10
37.3307015913814
20
-1.87829986568769
30
0
41
1
10
37.3843490334435
20
-1.93617431010119
30
0
41
1
10
37.4381281773135
20
-1.9940810464343
30
0
41
1
10
37.4920390310851
20
-2.05201590765816
30
0
41
1
10
37.54608160298
20
-2.10997467533684
30
0
41
1
10
37.6002559013475
20
-2.16795307932387
30
0
41
1
10
37.6545619346658
20
-2.22594679745825
30
0
41
1
10
37.7089997115421
20
-2.28395145525974
30
0
41
1
10
37.763569240713
20
-2.3419626256233
30
0
41
1
10
37.8182705310454
20
-2.39997582851277
30
0
41
1
10
37.8731035915369
20
-2.45798653065367
30
0
41
1
10
37.928068431316
20
-2.51599014522572
30
0
41
1
10
37.9831650596429
20
-2.57398203155381
30
0
41
1
10
38.0383934859099
20
-2.63195749479948
30
0
41
1
10
38.0937537196416
20
-2.68991178564804
30
0
41
1
10
38.1492457704968
20
-2.74784010000843
30
0
41
1
10
38.2048696482635
20
-2.80573757866057
30
0
41
1
10
38.2606253628797
20
-2.8635993070979
30
0
41
1
10
38.3165129243566
20
-2.92142031463254
30
0
41
1
10
38.3725323430706
20
-2.97919557626091
30
0
41
1
10
38.4286836286699
20
-3.03692000418616
30
0
41
1
10
38.4849667935688
20
-3.09458847745614
30
0
41
1
10
38.5413818193219
20
-3.15219570849354
30
0
41
1
10
38.5979286979773
20
-3.20973671922025
30
0
41
1
10
38.6546074577346
20
-3.26720693836771
30
0
41
1
10
38.7114180961832
20
-3.32460162886946
30
0
41
1
10
38.7683606133945
20
-3.38191603002505
30
0
41
1
10
38.8254350084983
20
-3.43914532452882
30
0
41
1
10
38.8826412808617
20
-3.49628464726084
30
0
41
1
10
38.9399794297725
20
-3.55332908258518
30
0
41
1
10
38.9974494545258
20
-3.61027366473849
30
0
41
1
10
39.0550513543975
20
-3.66711337738357
30
0
41
1
10
39.1127851286655
20
-3.72384315339869
30
0
41
1
10
39.1706507765527
20
-3.78045787455895
30
0
41
1
10
39.2286482974384
20
-3.83695237140836
30
0
41
1
10
39.2867776900687
20
-3.89332142247309
30
0
41
1
10
39.3450389555155
20
-3.94955975592302
30
0
41
1
10
39.4034320860972
20
-4.00566204206618
30
0
41
1
10
39.4619571068716
20
-4.06162292016765
30
0
41
1
10
39.5206139202551
20
-4.11743689673028
30
0
41
1
10
39.5794028878889
20
-4.1730987251141
30
0
41
1
10
39.8588188786977
20
-4.43631257217692
30
0
41
1
10
40.3589821804943
20
-4.89131540435264
30
0
41
1
10
41.0795997508301
20
-5.49728525086209
30
0
41
1
10
41.8002194396926
20
-6.0477868180545
30
0
41
1
10
42.5207384488381
20
-6.53670716959542
30
0
41
1
10
43.016801116854
20
-6.82760557091603
30
0
41
1
10
43.2898537235935
20
-6.9733946969292
30
0
41
1
10
43.3418805430072
20
-7.00082455443348
30
0
41
1
10
43.3991268671319
20
-7.03057719834123
30
0
41
1
10
43.4615928331138
20
-7.06252548009164
30
0
41
1
10
43.5292788096994
20
-7.09653438671413
30
0
41
1
10
43.6021850183689
20
-7.13243290222107
30
0
41
1
10
43.6803120287828
20
-7.17013684402411
30
0
41
1
10
43.7341354350407
20
-7.19532832703734
30
0
41
1
10
43.7619177600755
20
-7.20833155403176
30
0
0
SPLINE
5
16D
100
AcDbEntity
8
1
62
256
6
ByLayer
370
18
48
1
60
0
100
AcDbSpline
70
4
71
3
72
9
73
5
40
0
40
0
40
0
40
0
40
0.413787869212865
40
1
40
1
40
1
40
1
41
1
10
31.4355832053596
20
4.38983574612701
30
0
41
1
10
31.5727143038916
20
4.26286549981239
30
0
41
1
10
31.9041622775887
20
3.95007528495077
30
0
41
1
10
32.2358206092973
20
3.62401019382554
30
0
41
1
10
32.4302758980016
20
3.42904462589794
30
0
0
SPLINE
5
16E
100
AcDbEntity
8
1
62
256
6
ByLayer
370
18
48
1
60
0
100
AcDbSpline
70
4
71
3
72
104
73
100
40
0
40
0
40
0
40
0
40
0.0036743506329799
40
0.0074686373674638
40
0.0113828531633339
40
0.0154169907645118
40
0.0195710427464955
40
0.023845001575324
40
0.0282388596794671
40
0.032752609536241
40
0.0373862437745208
40
0.0421397552956166
40
0.0470131374143947
40
0.0520063840228497
40
0.0571194897784926
40
0.0623524503201458
40
0.0677052625138711
40
0.0731779247319822
40
0.0787704371683069
40
0.0844828021930233
40
0.0903150247507042
40
0.0962671128053556
40
0.102339077836501
40
0.108530935390653
40
0.114842705692691
40
0.121274414322008
40
0.127826092958528
40
0.134497779036442
40
0.141289503636056
40
0.148201291101229
40
0.155233164444472
40
0.162385145098475
40
0.169657252581928
40
0.177049504168409
40
0.184561914562149
40
0.192194495584831
40
0.199947255877915
40
0.20782020062538
40
0.215813331302113
40
0.223926645453653
40
0.232160136513306
40
0.240513793663195
40
0.24898760174616
40
0.257581541235947
40
0.266295588273595
40
0.275129714778415
40
0.284083888711636
40
0.293158078109447
40
0.302352252457806
40
0.311666376869739
40
0.321100411846555
40
0.330654313674034
40
0.34032803494459
40
0.350121525217694
40
0.360034731831519
40
0.370067600879457
40
0.380220078365852
40
0.390492111556005
40
0.400883650536242
40
0.411394650000567
40
0.422025071281216
40
0.432774884642383
40
0.443644091749077
40
0.454632770710113
40
0.465741012332795
40
0.476968904204628
40
0.488316531274598
40
0.499783976623953
40
0.525301146693785
40
0.550193397055701
40
0.574461415838108
40
0.598105800384287
40
0.62112673104675
40
0.643524025960562
40
0.665297467097555
40
0.686446865077403
40
0.706972095859256
40
0.726873119926929
40
0.74614994045804
40
0.764801912018745
40
0.782827931054875
40
0.800227047875008
40
0.816998494560137
40
0.833141686205348
40
0.848656214446529
40
0.863541835301247
40
0.877798453051024
40
0.891426112973155
40
0.904425390692628
40
0.916797321234467
40
0.928542748453931
40
0.939662315627807
40
0.950156497017979
40
0.960025625360281
40
0.96926991587221
40
0.977889487284954
40
0.985884380325638
40
0.993254574004633
40
1
40
1
40
1
40
1
41
1
10
20.4160124354536
20
6.73764024244986
30
0
41
1
10
20.4295105127672
20
6.74555715838039
30
0
41
1
10
20.4569472640963
20
6.76164940979029
30
0
41
1
10
20.498763086911
20
6.78589244943402
30
0
41
1
10
20.5419005936119
20
6.81067856460206
30
0
41
1
10
20.5863597642806
20
6.83596350265159
30
0
41
1
10
20.6321406047532
20
6.86172856067304
30
0
41
1
10
20.6792431147768
20
6.8879467079598
30
0
41
1
10
20.7276672970407
20
6.91459206536854
30
0
41
1
10
20.7774131547544
20
6.94163722986687
30
0
41
1
10
20.8284806924354
20
6.9690540013406
30
0
41
1
10
20.8808699158026
20
6.99681315750467
30
0
41
1
10
20.9345808319244
20
7.02488449406965
30
0
41
1
10
20.9896134492987
20
7.0532367903196
30
0
41
1
10
21.0459677779568
20
7.08183779488567
30
0
41
1
10
21.103643829563
20
7.11065420530687
30
0
41
1
10
21.1626416175211
20
7.13965164872874
30
0
41
1
10
21.2229611570815
20
7.16879466169462
30
0
41
1
10
21.2846024654535
20
7.19804666960292
30
0
41
1
10
21.3475655619181
20
7.22736996564922
30
0
41
1
10
21.411850467949
20
7.25672568938865
30
0
41
1
10
21.4774572073235
20
7.28607380455216
30
0
41
1
10
21.5443858062839
20
7.31537307748212
30
0
41
1
10
21.6126362935199
20
7.34458105094828
30
0
41
1
10
21.6822087008599
20
7.37365403347516
30
0
41
1
10
21.7531030612471
20
7.40254702684894
30
0
41
1
10
21.8253194128744
20
7.43121388701044
30
0
41
1
10
21.8988577154343
20
7.45960656250628
30
0
41
1
10
21.9737179782149
20
7.48767938174029
30
0
41
1
10
22.0499002247286
20
7.51538717659685
30
0
41
1
10
22.1274044395299
20
7.54268351459379
30
0
41
1
10
22.2062306087479
20
7.5695211599726
30
0
41
1
10
22.2863787150174
20
7.59585194286296
30
0
41
1
10
22.3678487388436
20
7.62162678880173
30
0
41
1
10
22.4506406581118
20
7.64679570402001
30
0
41
1
10
22.5347544481071
20
7.6713077727774
30
0
41
1
10
22.6201900813939
20
7.69511115127645
30
0
41
1
10
22.7069475277348
20
7.71815306240777
30
0
41
1
10
22.7950267539984
20
7.74037979015282
30
0
41
1
10
22.8844277240711
20
7.76173667398584
30
0
41
1
10
22.9751503987693
20
7.78216810310738
30
0
41
1
10
23.0671947357482
20
7.80161751083477
30
0
41
1
10
23.1605606894275
20
7.82002736799348
30
0
41
1
10
23.2552482108584
20
7.83733917969391
30
0
41
1
10
23.3512572478167
20
7.85349346878283
30
0
41
1
10
23.4485877442932
20
7.86842980968953
30
0
41
1
10
23.5472396570115
20
7.88208667189704
30
0
41
1
10
23.6472129623156
20
7.89440204585577
30
0
41
1
10
23.7485076672577
20
7.90531406784771
30
0
41
1
10
23.8511238127208
20
7.91475980573978
30
0
41
1
10
23.9550614451483
20
7.92267548036114
30
0
41
1
10
24.0603206160546
20
7.9289964000285
30
0
41
1
10
24.166901381887
20
7.93365697452398
30
0
41
1
10
24.2748038043197
20
7.93659070736643
30
0
41
1
10
24.3840279504333
20
7.93773019396309
30
0
41
1
10
24.4945738929431
20
7.93700711804394
30
0
41
1
10
24.6064417103775
20
7.9343522486875
30
0
41
1
10
24.71963148744
20
7.92969543641365
30
0
41
1
10
24.8341433147077
20
7.92296561214962
30
0
41
1
10
24.9499772908689
20
7.91409077515229
30
0
41
1
10
25.0671335153509
20
7.90299802257161
30
0
41
1
10
25.185612190563
20
7.88961341244081
30
0
41
1
10
25.3054137403818
20
7.87386239878643
30
0
41
1
10
25.426537152905
20
7.85568072037808
30
0
41
1
10
25.5489818453451
20
7.83500354381576
30
0
41
1
10
25.6727471200524
20
7.81176596002703
30
0
41
1
10
25.7978326919467
20
7.78590275421962
30
0
41
1
10
25.9754185233107
20
7.74578733639524
30
0
41
1
10
26.2027737961519
20
7.6874091865773
30
0
41
1
10
26.4771269136654
20
7.60552638798995
30
0
41
1
10
26.7445586715203
20
7.51494141885854
30
0
41
1
10
27.0050589365537
20
7.41656739397769
30
0
41
1
10
27.2586389572075
20
7.31132838253043
30
0
41
1
10
27.5053186257658
20
7.20013285540617
30
0
41
1
10
27.7451114715117
20
7.08383907242549
30
0
41
1
10
27.9780293750416
20
6.96326486426744
30
0
41
1
10
28.2040819241715
20
6.83918644430941
30
0
41
1
10
28.4232763290289
20
6.71234270108946
30
0
41
1
10
28.635615986581
20
6.58343060429848
30
0
41
1
10
28.8410932882458
20
6.45314350099417
30
0
41
1
10
29.0396947541031
20
6.32215429223268
30
0
41
1
10
29.2314077707933
20
6.1910899349769
30
0
41
1
10
29.416221692546
20
6.06053807921049
30
0
41
1
10
29.594127960477
20
5.93104749800227
30
0
41
1
10
29.7651198563487
20
5.80313043442047
30
0
41
1
10
29.9291923815972
20
5.67726417378782
30
0
41
1
10
30.0863420092764
20
5.55389341428776
30
0
41
1
10
30.2365684936919
20
5.43342859063429
30
0
41
1
10
30.3798744411547
20
5.31625449053175
30
0
41
1
10
30.5162644872147
20
5.20273380650636
30
0
41
1
10
30.6457451440029
20
5.09319714340958
30
0
41
1
10
30.7683217225617
20
4.98794930430984
30
0
41
1
10
30.8839984375545
20
4.8872700794808
30
0
41
1
10
30.9927785238048
20
4.79141648121225
30
0
41
1
10
31.0946643389419
20
4.70062170435912
30
0
41
1
10
31.1896576037852
20
4.61510421880863
30
0
41
1
10
31.2777591141304
20
4.53504260013801
30
0
41
1
10
31.3589701894758
20
4.46066429433478
30
0
41
1
10
31.4108103614136
20
4.41273818054273
30
0
41
1
10
31.4355832053596
20
4.38983574612698
30
0
0
SPLINE
5
16F
100
AcDbEntity
8
1
62
256
6
ByLayer
370
18
48
1
60
0
100
AcDbSpline
70
4
71
3
72
9
73
5
40
0
40
0
40
0
40
0
40
0.719361102276259
40
1
40
1
40
1
40
1
41
1
10
19.5739374055593
20
6.19712795091115
30
0
41
1
10
19.7758546684746
20
6.33719288782871
30
0
41
1
10
20.056550571214
20
6.52175614192399
30
0
41
1
10
20.3372403245567
20
6.69127924330971
30
0
41
1
10
20.4160124354537
20
6.73764024244986
30
0
0
SPLINE
5
170
100
AcDbEntity
8
1
62
256
6
ByLayer
370
13
48
1
60
0
100
AcDbSpline
70
4
71
3
72
14
73
10
40
0
40
0
40
0
40
0
40
0.144679537403973
40
0.291725747704582
40
0.438771958005191
40
0.5858181683058
40
0.73286437860641
40
0.879910588907019
40
1
40
1
40
1
40
1
41
1
10
34.3139625518856
20
1.44618861577945
30
0
41
1
10
33.6305583679238
20
2.13885161980781
30
0
41
1
10
32.2525708506286
20
3.49453271547466
30
0
41
1
10
30.18
20
5.24968317256051
30
0
41
1
10
28.09625
20
6.5609857169296
30
0
41
1
10
26.0125
20
7.33097376519029
30
0
41
1
10
23.92875
20
7.46858718164699
30
0
41
1
10
21.9723323767499
20
7.01926848505093
30
0
41
1
10
20.710498086833
20
6.39760980037528
30
0
41
1
10
20.1432471302495
20
6.0615716536422
30
0
0
SPLINE
5
171
100
AcDbEntity
8
1
62
256
6
ByLayer
370
18
48
1
60
0
100
AcDbSpline
70
4
71
3
72
68
73
64
40
0
40
0
40
0
40
0
40
0.128269901230552
40
0.218463370307511
40
0.282330042156598
40
0.34879788993368
40
0.402314526994614
40
0.441788941660097
40
0.46722325076786
40
0.478618386177129
40
0.488442276645609
40
0.498266576339085
40
0.508091297029493
40
0.517916451244778
40
0.527742052062566
40
0.537568112135644
40
0.547394643357751
40
0.557221656879077
40
0.567049163120534
40
0.57687717178808
40
0.586705691887
40
0.596534731736263
40
0.606364298982877
40
0.616194400616218
40
0.626025042982449
40
0.635856231798891
40
0.645687972168428
40
0.655520268593949
40
0.665353124992749
40
0.675186544711015
40
0.685020530538233
40
0.694855084721704
40
0.70469020898098
40
0.714525904522394
40
0.724362172053515
40
0.734199011797704
40
0.744036423508583
40
0.753874406484598
40
0.763712959583544
40
0.773552081237098
40
0.783391769465389
40
0.793232021891543
40
0.803072835756265
40
0.812914207932399
40
0.822756134939535
40
0.832598612958581
40
0.842441637846368
40
0.852285205150255
40
0.862129310122756
40
0.87197394773614
40
0.881819112697067
40
0.891664799461245
40
0.901511002248041
40
0.911357715055145
40
0.921204931673237
40
0.931052645700635
40
0.94090085055798
40
0.95074953950291
40
0.960598705644759
40
0.970448341959224
40
0.98029844130311
40
0.990148996429003
40
1
40
1
40
1
40
1
41
1
10
36.3788737575517
20
-7.83707703469156
30
0
41
1
10
36.2100514421493
20
-7.8666385598614
30
0
41
1
10
35.9224946430807
20
-7.90602342510792
30
0
41
1
10
35.5509467712556
20
-7.93232191357902
30
0
41
1
10
35.2607106385479
20
-7.93909505872529
30
0
41
1
10
35.0187268523623
20
-7.93498514635004
30
0
41
1
10
34.8088342256461
20
-7.92362362304553
30
0
41
1
10
34.6529438636099
20
-7.91070531316097
30
0
41
1
10
34.5524966426897
20
-7.90036868683907
30
0
41
1
10
34.4910806601468
20
-7.89334919824316
30
0
41
1
10
34.4502063181326
20
-7.88849265799072
30
0
41
1
10
34.4114016380352
20
-7.88362298212775
30
0
41
1
10
34.3725948975685
20
-7.87851960670835
30
0
41
1
10
34.3337867294373
20
-7.87317538966752
30
0
41
1
10
34.2949769663893
20
-7.86759216254663
30
0
41
1
10
34.2561656543839
20
-7.86177000076057
30
0
41
1
10
34.2173527811897
20
-7.85570950341827
30
0
41
1
10
34.1785383500482
20
-7.84941112956958
30
0
41
1
10
34.1397223600548
20
-7.84287537608625
30
0
41
1
10
34.1009048114161
20
-7.83610272999545
30
0
41
1
10
34.0620857040406
20
-7.82909368125272
30
0
41
1
10
34.023265037917
20
-7.82184871931932
30
0
41
1
10
33.9844428130122
20
-7.81436833407921
30
0
41
1
10
33.9456190292989
20
-7.80665301559321
30
0
41
1
10
33.9067936867484
20
-7.79870325416505
30
0
41
1
10
33.867966785332
20
-7.79051954032337
30
0
41
1
10
33.8291383250213
20
-7.78210236482664
30
0
41
1
10
33.7903083057875
20
-7.77345221866167
30
0
41
1
10
33.7514767276022
20
-7.76456959304403
30
0
41
1
10
33.7126435904365
20
-7.75545497941786
30
0
41
1
10
33.6738088942619
20
-7.7461088694559
30
0
41
1
10
33.6349726390496
20
-7.73653175505927
30
0
41
1
10
33.5961348247709
20
-7.72672412835766
30
0
41
1
10
33.5572954513971
20
-7.71668648170916
30
0
41
1
10
33.5184545188995
20
-7.70641930770017
30
0
41
1
10
33.4796120272491
20
-7.69592309914546
30
0
41
1
10
33.4407679764173
20
-7.68519834908804
30
0
41
1
10
33.4019223663754
20
-7.67424555079913
30
0
41
1
10
33.3630751970943
20
-7.6630651977782
30
0
41
1
10
33.3242264685455
20
-7.65165778375274
30
0
41
1
10
33.2853761806999
20
-7.64002380267843
30
0
41
1
10
33.2465243335288
20
-7.62816374873896
30
0
41
1
10
33.2076709270033
20
-7.61607811634596
30
0
41
1
10
33.1688159610947
20
-7.60376740013911
30
0
41
1
10
33.1299594357738
20
-7.59123209498583
30
0
41
1
10
33.091101351012
20
-7.57847269598159
30
0
41
1
10
33.0522417067803
20
-7.56548969844948
30
0
41
1
10
33.0133805030498
20
-7.5522835979406
30
0
41
1
10
32.9745177397917
20
-7.53885489023293
30
0
41
1
10
32.9356534169769
20
-7.52520407133539
30
0
41
1
10
32.8967875345767
20
-7.51133163747201
30
0
41
1
10
32.857920092562
20
-7.49723808514142
30
0
41
1
10
32.819051090904
20
-7.48292391089387
30
0
41
1
10
32.7801805295734
20
-7.46838961216406
30
0
41
1
10
32.7413084085427
20
-7.45363568416167
30
0
41
1
10
32.702434727777
20
-7.43866263147734
30
0
41
1
10
32.66355948727
20
-7.42347092476479
30
0
41
1
10
32.6246826869079
20
-7.40806116241743
30
0
41
1
10
32.5858043269783
20
-7.39243346713798
30
0
41
1
10
32.5469244062706
20
-7.3765897381347
30
0
41
1
10
32.5080429291658
20
-7.36052524521048
30
0
41
1
10
32.469159879175
20
-7.34426000225281
30
0
41
1
10
32.4432374217369
20
-7.33323469673039
30
0
41
1
10
32.4302758979956
20
-7.32772191849065
30
0
0
SPLINE
5
172
100
AcDbEntity
8
1
62
256
6
ByLayer
370
18
48
1
60
0
100
AcDbSpline
70
4
71
3
72
30
73
26
40
0
40
0
40
0
40
0
40
0.0459877330326857
40
0.0917476352329235
40
0.137279655404553
40
0.182583743597864
40
0.227659851220576
40
0.272507931139924
40
0.317127937783312
40
0.361519827226546
40
0.405683557273118
40
0.449619087525682
40
0.493326379449519
40
0.536805396428828
40
0.580056103815648
40
0.623078468972053
40
0.665872461305595
40
0.708438052298606
40
0.750775215531278
40
0.79288392669892
40
0.834764163623755
40
0.876415906261314
40
0.917839136701813
40
0.959033839166576
40
1
40
1
40
1
40
1
41
1
10
32.4302758979954
20
-7.32772191849077
30
0
41
1
10
32.4150281975678
20
-7.32118391160094
30
0
41
1
10
32.3846083363412
20
-7.30814028818833
30
0
41
1
10
32.3390921988859
20
-7.28825004609936
30
0
41
1
10
32.2938029067733
20
-7.26818948679772
30
0
41
1
10
32.2487404868285
20
-7.24793698926345
30
0
41
1
10
32.2039049318507
20
-7.22750479190398
30
0
41
1
10
32.1592962436881
20
-7.20689607052566
30
0
41
1
10
32.1149144217896
20
-7.18611635328813
30
0
41
1
10
32.0707594662474
20
-7.16517048547621
30
0
41
1
10
32.0268313769876
20
-7.14406343700205
30
0
41
1
10
31.9831301539851
20
-7.12280008806064
30
0
41
1
10
31.9396557972062
20
-7.10138528647798
30
0
41
1
10
31.8964083066237
20
-7.07982383289587
30
0
41
1
10
31.8533876822127
20
-7.05812048484449
30
0
41
1
10
31.8105939239529
20
-7.03627995689268
30
0
41
1
10
31.768027031821
20
-7.01430691776181
30
0
41
1
10
31.7256870058191
20
-6.99220600334061
30
0
41
1
10
31.6835738458686
20
-6.9699817695849
30
0
41
1
10
31.641687552202
20
-6.94763886828807
30
0
41
1
10
31.6000281239123
20
-6.92518139771511
30
0
41
1
10
31.5585955643239
20
-6.90261530768231
30
0
41
1
10
31.5173898611077
20
-6.87993949841066
30
0
41
1
10
31.4764110598855
20
-6.85717876813325
30
0
41
1
10
31.4491672295207
20
-6.841858217924
30
0
41
1
10
31.4355832055507
20
-6.8342192509179
30
0
0
SPLINE
5
173
100
AcDbEntity
8
1
62
256
6
ByLayer
370
18
48
1
60
0
100
AcDbSpline
70
4
71
3
72
88
73
84
40
0
40
0
40
0
40
0
40
0.0068052786440143
40
0.0134211136524689
40
0.0198475154180099
40
0.0260844963378543
40
0.0321320704126032
40
0.0379902528621702
40
0.0436590597633846
40
0.0491385077129269
40
0.054428613518444
40
0.0595293939198756
40
0.064440865342399
40
0.06916304368172
40
0.0736959441218544
40
0.0780395809850909
40
0.0821939676132951
40
0.0861591162793823
40
0.0899350381273971
40
0.0935217431393445
40
0.0969192401266958
40
0.100127536744261
40
0.103146639523985
40
0.105976553926087
40
0.108617284404924
40
0.111068834486867
40
0.113331206857574
40
0.115404403456986
40
0.117288425570961
40
0.118983273908478
40
0.12048894872398
40
0.121805449936588
40
0.122932777231799
40
0.123870930148907
40
0.12461990815962
40
0.149682027759262
40
0.174772767003039
40
0.199892696387654
40
0.225041890766219
40
0.250220021678243
40
0.276097711500164
40
0.305490740914628
40
0.338397300374108
40
0.374814331120269
40
0.403970076407271
40
0.429376777676301
40
0.451035866452978
40
0.468948709382085
40
0.483116308836954
40
0.493539220019732
40
0.500217625458502
40
0.527849249298438
40
0.555512413301123
40
0.583207567100656
40
0.610934450368666
40
0.638692246630783
40
0.666479739451777
40
0.694295470296391
40
0.722137881216
40
0.750005467287704
40
0.768106446437633
40
0.785548579672757
40
0.802331966086904
40
0.818456797613811
40
0.833923337791195
40
0.848731899583941
40
0.862882823522059
40
0.876376458784205
40
0.889213169471216
40
0.901393255733942
40
0.912916904187517
40
0.923784215353134
40
0.933995227748971
40
0.943549936626524
40
0.95244830834321
40
0.960690291215441
40
0.968275823565322
40
0.975204839558092
40
0.981477273325532
40
0.987093061781883
40
0.992052146462456
40
0.99635447465008
40
1
40
1
40
1
40
1
41
1
10
31.4355832055507
20
-6.8342192509179
30
0
41
1
10
31.410591344388
20
-6.82005436807495
30
0
41
1
10
31.361303339209
20
-6.79211892083561
30
0
41
1
10
31.2884121240521
20
-6.74990151202945
30
0
41
1
10
31.2176060366322
20
-6.70827448349175
30
0
41
1
10
31.1488848919215
20
-6.66723488039125
30
0
41
1
10
31.0822487396847
20
-6.62685803295099
30
0
41
1
10
31.0176975694004
20
-6.58719642228681
30
0
41
1
10
30.9552313858491
20
-6.5483056448908
30
0
41
1
10
30.8948501897497
20
-6.51023781599082
30
0
41
1
10
30.8365539826921
20
-6.47304330122037
30
0
41
1
10
30.7803427658684
20
-6.43677031933177
30
0
41
1
10
30.7262165403891
20
-6.40146508636334
30
0
41
1
10
30.6741753071995
20
-6.36717182041613
30
0
41
1
10
30.6242190671013
20
-6.33393278033245
30
0
41
1
10
30.5763478207509
20
-6.30178829424977
30
0
41
1
10
30.530561568665
20
-6.27077678919227
30
0
41
1
10
30.4868603112288
20
-6.24093481887604
30
0
41
1
10
30.4452440487036
20
-6.21229709044019
30
0
41
1
10
30.4057127812381
20
-6.18489648992195
30
0
41
1
10
30.3682665088799
20
-6.15876410652714
30
0
41
1
10
30.3329052315887
20
-6.13392925565748
30
0
41
1
10
30.2996289492509
20
-6.11041950078291
30
0
41
1
10
30.2684376616965
20
-6.088260673858
30
0
41
1
10
30.2393313687131
20
-6.06747689528234
30
0
41
1
10
30.2123100700811
20
-6.04809059000931
30
0
41
1
10
30.1873737655495
20
-6.03012251112125
30
0
41
1
10
30.1645224550338
20
-6.01359173325355
30
0
41
1
10
30.143756138349
20
-5.99851577486214
30
0
41
1
10
30.1250748162476
20
-5.98491049480438
30
0
41
1
10
30.108478486256
20
-5.97279011033967
30
0
41
1
10
30.0939671572459
20
-5.96216709523731
30
0
41
1
10
30.0815408061506
20
-5.95305260122416
30
0
41
1
10
30.0711995073137
20
-5.94545526953826
30
0
41
1
10
29.9729084513431
20
-5.87318543850415
30
0
41
1
10
29.7858574928751
20
-5.73251686361687
30
0
41
1
10
29.5092990198798
20
-5.51569441221224
30
0
41
1
10
29.232457976485
20
-5.29025027522249
30
0
41
1
10
28.955339558406
20
-5.05653695476033
30
0
41
1
10
28.6754732804803
20
-4.81281203834942
30
0
41
1
10
28.3800656126247
20
-4.54762823425568
30
0
41
1
10
28.0563156557367
20
-4.24810653952963
30
0
41
1
10
27.6938802448416
20
-3.90245750200154
30
0
41
1
10
27.3322889200796
20
-3.54710930281217
30
0
41
1
10
26.9982046492563
20
-3.21061086677383
30
0
41
1
10
26.7182698130905
20
-2.9234983846668
30
0
41
1
10
26.479598300526
20
-2.67523390391733
30
0
41
1
10
26.2821910835299
20
-2.46767355167069
30
0
41
1
10
26.1260477611987
20
-2.30219250896073
30
0
41
1
10
26.0111715373538
20
-2.17975319609192
30
0
41
1
10
25.8468081128291
20
-2.00401794009187
30
0
41
1
10
25.6190550014625
20
-1.75885866699997
30
0
41
1
10
25.3141485057924
20
-1.42716663737431
30
0
41
1
10
25.0089366141071
20
-1.09244377245491
30
0
41
1
10
24.7034302084303
20
-0.755295083839798
30
0
41
1
10
24.3976252569768
20
-0.416365078000666
30
0
41
1
10
24.0915218035354
20
-0.0762929674188513
30
0
41
1
10
23.7851185436784
20
0.264275916113462
30
0
41
1
10
23.4784158448495
20
0.604690705235356
30
0
41
1
10
23.2073618579792
20
0.904531325348188
30
0
41
1
10
22.9744849198127
20
1.161015066603
30
0
41
1
10
22.7822924098569
20
1.37180363023629
30
0
41
1
10
22.5973388058988
20
1.57368305073049
30
0
41
1
10
22.4196234816013
20
1.76663339836043
30
0
41
1
10
22.2491467275829
20
1.95066063173257
30
0
41
1
10
22.085908594515
20
2.12579436933655
30
0
41
1
10
21.9299092212928
20
2.2920852810328
30
0
41
1
10
21.7811484782708
20
2.44960025882642
30
0
41
1
10
21.6396268552125
20
2.59842813877736
30
0
41
1
10
21.5053446639642
20
2.73867681601203
30
0
41
1
10
21.3783017334851
20
2.87045911367855
30
0
41
1
10
21.2584979558747
20
2.99389276349902
30
0
41
1
10
21.1459332385281
20
3.10909809529935
30
0
41
1
10
21.0406075126358
20
3.21619651764073
30
0
41
1
10
20.9425207258372
20
3.31530892225382
30
0
41
1
10
20.8516728395725
20
3.40655425905874
30
0
41
1
10
20.7680638260451
20
3.49004810093339
30
0
41
1
10
20.6916936658576
20
3.56590164026457
30
0
41
1
10
20.622562346328
20
3.63421970922963
30
0
41
1
10
20.5606698593832
20
3.69510236188435
30
0
41
1
10
20.5060162026564
20
3.74863558808479
30
0
41
1
10
20.4586013725141
20
3.79491618311556
30
0
41
1
10
20.4294044803151
20
3.82330019804661
30
0
41
1
10
20.4160124355136
20
3.83631939190505
30
0
0
SPLINE
5
174
100
AcDbEntity
8
1
62
256
6
ByLayer
370
18
48
1
60
0
100
AcDbSpline
70
4
71
3
72
45
73
41
40
0
40
0
40
0
40
0
40
0.044155277728177
40
0.0873475956268805
40
0.129576805639618
40
0.170842759375764
40
0.211145310279369
40
0.250484315367251
40
0.2888596365892
40
0.326271141858638
40
0.362718705797882
40
0.398202201051117
40
0.432721472942937
40
0.466276372959807
40
0.498866768682725
40
0.530492542993301
40
0.561153593204694
40
0.590849830139989
40
0.619581177177432
40
0.647347569279564
40
0.674148952021056
40
0.699985280627736
40
0.724856519037449
40
0.748762638991497
40
0.771703619163747
40
0.793679444332976
40
0.814690104602686
40
0.834735594671269
40
0.853815913154478
40
0.871931061960993
40
0.889081045721133
40
0.905265871268025
40
0.920485547169821
40
0.934740083311237
40
0.948029490521964
40
0.960353780249629
40
0.97171296427442
40
0.982107054462675
40
0.991536062556914
40
1
40
1
40
1
40
1
41
1
10
20.4160124355137
20
3.83631939190474
30
0
41
1
10
20.389467212812
20
3.86205838027911
30
0
41
1
10
20.3369556785702
20
3.91297502861744
30
0
41
1
10
20.2590609124846
20
3.987921786133
30
0
41
1
10
20.1829058328942
20
4.06077857169808
30
0
41
1
10
20.1084907297505
20
4.13152729141888
30
0
41
1
10
20.0358155259738
20
4.20020166208326
30
0
41
1
10
19.964880239921
20
4.26682235393005
30
0
41
1
10
19.8956848655955
20
4.3314137064792
30
0
41
1
10
19.8282294036627
20
4.39399933312677
30
0
41
1
10
19.7625138586373
20
4.45460318155165
30
0
41
1
10
19.6985382629161
20
4.51324917250466
30
0
41
1
10
19.636302577882
20
4.56996112488278
30
0
41
1
10
19.5758067974132
20
4.62476280362637
30
0
41
1
10
19.5170509220804
20
4.67767789907478
30
0
41
1
10
19.4600349524654
20
4.72872998070491
30
0
41
1
10
19.4047588892118
20
4.77794244851134
30
0
41
1
10
19.3512227329928
20
4.82533848530906
30
0
41
1
10
19.2994264845
20
4.87094101062033
30
0
41
1
10
19.2493701444309
20
4.9147726359767
30
0
41
1
10
19.2010537134782
20
4.95685562167978
30
0
41
1
10
19.1544771923212
20
4.99721183501021
30
0
41
1
10
19.1096405816176
20
5.03586270988836
30
0
41
1
10
19.0665438819975
20
5.07282920798573
30
0
41
1
10
19.0251870940584
20
5.10813178128876
30
0
41
1
10
18.9855702183607
20
5.14179033611396
30
0
41
1
10
18.9476932554242
20
5.17382419857856
30
0
41
1
10
18.9115562057262
20
5.20425208151497
30
0
41
1
10
18.8771590696981
20
5.23309205287345
30
0
41
1
10
18.844501847725
20
5.26036150546142
30
0
41
1
10
18.8135845401413
20
5.28607712854929
30
0
41
1
10
18.7844071472369
20
5.31025487952411
30
0
41
1
10
18.7569696692241
20
5.33290996183229
30
0
41
1
10
18.7312721063382
20
5.35405678794874
30
0
41
1
10
18.7073144584751
20
5.37370899945569
30
0
41
1
10
18.6850967263749
20
5.39187930156143
30
0
41
1
10
18.6646189076285
20
5.4085799230167
30
0
41
1
10
18.6458810097655
20
5.42382101524757
30
0
41
1
10
18.6288830074188
20
5.43761579788523
30
0
41
1
10
18.6181310795124
20
5.44631719620511
30
0
41
1
10
18.6130450725717
20
5.45043323684769
30
0
0
SPLINE
5
175
100
AcDbEntity
8
1
62
256
6
ByLayer
370
18
48
1
60
0
100
AcDbSpline
70
4
71
3
72
26
73
22
40
0
40
0
40
0
40
0
40
0.124999999999997
40
0.124999999999997
40
0.249999999999993
40
0.249999999999993
40
0.37499999999999
40
0.37499999999999
40
0.406249999999988
40
0.406249999999988
40
0.437499999999986
40
0.437499999999986
40
0.499999999999986
40
0.499999999999986
40
0.624999999999989
40
0.624999999999989
40
0.749999999999993
40
0.749999999999993
40
0.874999999999996
40
0.874999999999996
40
1
40
1
40
1
40
1
41
1
10
18.6130450725716
20
5.4504332368478
30
0
41
1
10
18.4010597015247
20
5.62188287542656
30
0
41
1
10
18.189432174924
20
5.78575670787376
30
0
41
1
10
17.7658976536005
20
6.09785168801227
30
0
41
1
10
17.5539866713155
20
6.24607762101684
30
0
41
1
10
17.1289936120971
20
6.52626561518426
30
0
41
1
10
16.9159200025321
20
6.6582228400178
30
0
41
1
10
16.6482667563256
20
6.81249105131195
30
0
41
1
10
16.5946235284248
20
6.84283751524151
30
0
41
1
10
16.4874460622373
20
6.90231309710634
30
0
41
1
10
16.4339269009443
20
6.93143509836867
30
0
41
1
10
16.2735533899533
20
7.01696414256219
30
0
41
1
10
16.1668827764852
20
7.07153518309352
30
0
41
1
10
15.8474181674535
20
7.22795153383694
30
0
41
1
10
15.6351696707904
20
7.32251507782345
30
0
41
1
10
15.2111953751602
20
7.49210713870292
30
0
41
1
10
14.9994729402967
20
7.56712191710932
30
0
41
1
10
14.575642552854
20
7.69711361357778
30
0
41
1
10
14.3635343169682
20
7.7520940066052
30
0
41
1
10
13.9379967979655
20
7.84136958016867
30
0
41
1
10
13.7245676878538
20
7.87566605291477
30
0
41
1
10
13.51
20
7.89918007815149
30
0
0
SPLINE
5
176
100
AcDbEntity
8
1
62
256
6
ByLayer
370
13
48
1
60
0
100
AcDbSpline
70
4
71
3
72
11
73
7
40
0
40
0
40
0
40
0
40
0.0945209783037058
40
0.320890733727779
40
0.547260489151853
40
1
40
1
40
1
40
1
41
1
10
22.7150724536782
20
1.44523869797624
30
0
41
1
10
22.4250483024521
20
1.73936891788293
30
0
41
1
10
21.4404408178927
20
2.72545574945488
30
0
41
1
10
19.76125
20
4.29045762589058
30
0
41
1
10
16.9829166666667
20
6.41187674739393
30
0
41
1
10
14.8991666666667
20
7.24557141691255
30
0
41
1
10
13.51
20
7.36447291223431
30
0
0
SPLINE
5
177
100
AcDbEntity
8
1
62
256
6
ByLayer
370
18
48
1
60
0
100
AcDbSpline
70
4
71
3
72
8
73
4
40
0
40
0
40
0
40
0
40
1
40
1
40
1
40
1
41
1
10
45.9386310724541
20
-6.30210515741919
30
0
41
1
10
45.8720271143188
20
-6.39895385589512
30
0
41
1
10
45.801377371107
20
-6.48703980240208
30
0
41
1
10
45.7269235263752
20
-6.56674175968266
30
0
0
SPLINE
5
178
100
AcDbEntity
8
1
62
256
6
ByLayer
370
13
48
1
60
0
100
AcDbSpline
70
4
71
3
72
12
73
8
40
0
40
0
40
0
40
0
40
0.311150199525302
40
0.5102697109436
40
0.709389222361898
40
0.908508733780196
40
1
40
1
40
1
40
1
41
1
10
45.9386310724533
20
-6.30210515741888
30
0
41
1
10
44.8532540483022
20
-5.78469327425589
30
0
41
1
10
43.0732936908178
20
-4.57234119630979
30
0
41
1
10
40.5987500000001
20
-2.34223644307502
30
0
41
1
10
38.515
20
-0.267087774283311
30
0
41
1
10
36.8066867654798
20
1.45276874569979
30
0
41
1
10
35.7929568642928
20
2.41847812040916
30
0
41
1
10
35.4738102964392
20
2.71441454546991
30
0
0
SPLINE
5
179
100
AcDbEntity
8
1
62
256
6
ByLayer
370
18
48
1
60
0
100
AcDbSpline
70
4
71
3
72
77
73
73
40
0
40
0
40
0
40
0
40
0.0567054156636492
40
0.0567054156636492
40
0.113410831327298
40
0.113410831327298
40
0.12758718524321
40
0.12758718524321
40
0.141763539159123
40
0.141763539159123
40
0.170116246990947
40
0.170116246990947
40
0.198468954822771
40
0.198468954822771
40
0.226821662654595
40
0.226821662654595
40
0.283527078318243
40
0.283527078318243
40
0.311879786150067
40
0.311879786150067
40
0.326056140065979
40
0.326056140065979
40
0.340232493981891
40
0.340232493981891
40
0.368585201813716
40
0.368585201813716
40
0.396937909645541
40
0.396937909645541
40
0.453643325309189
40
0.453643325309189
40
0.481996033141014
40
0.481996033141014
40
0.510348740972838
40
0.510348740972838
40
0.517436917930793
40
0.517436917930793
40
0.524525094888749
40
0.524525094888749
40
0.538701448804659
40
0.538701448804659
40
0.567054156636478
40
0.567054156636478
40
0.595406864468298
40
0.595406864468298
40
0.623759572300118
40
0.623759572300118
40
0.680464987963758
40
0.680464987963758
40
0.708817695795577
40
0.708817695795577
40
0.715905872753533
40
0.715905872753533
40
0.722994049711488
40
0.737170403627398
40
0.737170403627398
40
0.76552311145922
40
0.76552311145922
40
0.793875819291042
40
0.793875819291042
40
0.850581234954686
40
0.850581234954686
40
0.878933942786508
40
0.878933942786508
40
0.893110296702419
40
0.893110296702419
40
0.90728665061833
40
0.90728665061833
40
0.963992066281971
40
0.963992066281971
40
0.992344774113792
40
0.992344774113792
40
1
40
1
40
1
40
1
41
1
10
45.7269235263752
20
-6.56674175968263
30
0
41
1
10
45.3920591215659
20
-6.39801040870927
30
0
41
1
10
45.0580775774802
20
-6.20936463869575
30
0
41
1
10
44.3894946972086
20
-5.79114008886324
30
0
41
1
10
44.0549080593707
20
-5.56154570301518
30
0
41
1
10
43.6339973160085
20
-5.24754555369239
30
0
41
1
10
43.5496777043359
20
-5.18339030940567
30
0
41
1
10
43.3806882656029
20
-5.05234248051201
30
0
41
1
10
43.2959094059276
20
-4.98537197809216
30
0
41
1
10
43.0424745212258
20
-4.78184735095269
30
0
41
1
10
42.8742963696892
20
-4.64237732981795
30
0
41
1
10
42.5387191586335
20
-4.35703111297798
30
0
41
1
10
42.3713218810693
20
-4.21115379507808
30
0
41
1
10
42.0367613959753
20
-3.91387184219349
30
0
41
1
10
41.8695917842412
20
-3.76248996330776
30
0
41
1
10
41.3678504160897
20
-3.30090524107382
30
0
41
1
10
41.0332027915461
20
-2.98297567276211
30
0
41
1
10
40.5293399918764
20
-2.49015614923036
30
0
41
1
10
40.361054578458
20
-2.32323790309556
30
0
41
1
10
40.1078232279726
20
-2.06885412549161
30
0
41
1
10
40.0232777509751
20
-1.98339156378566
30
0
41
1
10
39.8538452514723
20
-1.81119591752818
30
0
41
1
10
39.7688811168702
20
-1.72438258773548
30
0
41
1
10
39.5149325686401
20
-1.4637397452295
30
0
41
1
10
39.3464137648703
20
-1.28922965268941
30
0
41
1
10
39.0103660272713
20
-0.939260569100071
30
0
41
1
10
38.842837987251
20
-0.763800720388446
30
0
41
1
10
38.3409851122262
20
-0.236720908781308
30
0
41
1
10
38.0074022103535
20
0.115609559232382
30
0
41
1
10
37.5054855319596
20
0.642622615794977
30
0
41
1
10
37.3379274037078
20
0.818050831434846
30
0
41
1
10
37.0018686537063
20
1.16800200653705
30
0
41
1
10
36.8333646847306
20
1.34252175742637
30
0
41
1
10
36.621911388162
20
1.55988085565738
30
0
41
1
10
36.5795799899675
20
1.60331355598785
30
0
41
1
10
36.4948304497795
20
1.69009566378202
30
0
41
1
10
36.4523877178418
20
1.7334701173333
30
0
41
1
10
36.3250983246922
20
1.86327946220385
30
0
41
1
10
36.2404135396518
20
1.94927619574491
30
0
41
1
10
35.9868514191164
20
2.20556315336154
30
0
41
1
10
35.8184698173663
20
2.37415486672649
30
0
41
1
10
35.4827742679726
20
2.70629084585676
30
0
41
1
10
35.3154612490096
20
2.86983404835434
30
0
41
1
10
34.9815345187743
20
3.19121209490044
30
0
41
1
10
34.8148998433368
20
3.3490499910167
30
0
41
1
10
34.3148801401148
20
3.81367679152629
30
0
41
1
10
33.9813006154838
20
4.11153005924317
30
0
41
1
10
33.4774712868551
20
4.54000554569583
30
0
41
1
10
33.308962663331
20
4.67983114529355
30
0
41
1
10
33.0974316980282
20
4.8505724783233
30
0
41
1
10
33.0550520419658
20
4.88454021339382
30
0
41
1
10
32.9703663353999
20
4.95192491849176
30
0
41
1
10
32.8434545642853
20
5.05217179726395
30
0
41
1
10
32.716879451365
20
5.1498962627073
30
0
41
1
10
32.464137129436
20
5.34188070952993
30
0
41
1
10
32.2961870882857
20
5.46525606107173
30
0
41
1
10
31.9611199857687
20
5.70210591082193
30
0
41
1
10
31.794022087612
20
5.81553467821908
30
0
41
1
10
31.2933952042554
20
6.14009688410562
30
0
41
1
10
30.9604205214651
20
6.33574165527855
30
0
41
1
10
30.4587900073957
20
6.59796892470234
30
0
41
1
10
30.2912232804916
20
6.68017082431732
30
0
41
1
10
30.0389724665413
20
6.79561351141089
30
0
41
1
10
29.9547401668082
20
6.8327818558497
30
0
41
1
10
29.7859276824495
20
6.90445082549849
30
0
41
1
10
29.7012408617419
20
6.93899082093884
30
0
41
1
10
29.2789049280105
20
7.10409636285854
30
0
41
1
10
28.9435209830589
20
7.21244789746464
30
0
41
1
10
28.4417425076794
20
7.33943341600229
30
0
41
1
10
28.2746998854392
20
7.37582873624533
30
0
41
1
10
28.0625850249273
20
7.41437229742436
30
0
41
1
10
28.0174915590561
20
7.42212582262246
30
0
41
1
10
27.9723963439317
20
7.42943431482513
30
0
0
SPLINE
5
17A
100
AcDbEntity
8
1
62
256
6
ByLayer
370
18
48
1
60
0
100
AcDbSpline
70
4
71
3
72
21
73
17
40
0
40
0
40
0
40
0
40
0.124999999999991
40
0.124999999999991
40
0.249999999999983
40
0.249999999999983
40
0.374999999999974
40
0.499999999999965
40
0.499999999999965
40
0.56249999999997
40
0.56249999999997
40
0.624999999999974
40
0.624999999999974
40
0.749999999999983
40
0.749999999999983
40
1
40
1
40
1
40
1
41
1
10
43.7651361546351
20
7.20859950992354
30
0
41
1
10
43.8098236418956
20
7.22171676314713
30
0
41
1
10
43.8541603204078
20
7.23159335853839
30
0
41
1
10
43.9423943164957
20
7.24587291956348
30
0
41
1
10
43.9862987735329
20
7.25035229900374
30
0
41
1
10
44.0738360462638
20
7.25426598303591
30
0
41
1
10
44.161102452038
20
7.25313170744667
30
0
41
1
10
44.2481572457503
20
7.24299271118807
30
0
41
1
10
44.3134677721241
20
7.23225838404906
30
0
41
1
10
44.3352409823379
20
7.22815720848234
30
0
41
1
10
44.378807968834
20
7.21893463446139
30
0
41
1
10
44.4006173428404
20
7.21380801946913
30
0
41
1
10
44.4657709764166
20
7.19701411110586
30
0
41
1
10
44.5089432873028
20
7.18391771386592
30
0
41
1
10
44.6379013842398
20
7.13941535350543
30
0
41
1
10
44.7231377028247
20
7.10282624055111
30
0
41
1
10
44.8081264106666
20
7.06025235182196
30
0
0
SPLINE
5
17B
100
AcDbEntity
8
1
62
256
6
ByLayer
370
18
48
1
60
0
100
AcDbSpline
70
4
71
3
72
17
73
13
40
0
40
0
40
0
40
0
40
0.287666323262278
40
0.701118715295278
40
0.727985726651759
40
0.75785026551832
40
0.790712522261598
40
0.826572744407298
40
0.865431250529409
40
0.907288406556415
40
0.952144544491523
40
1
40
1
40
1
40
1
41
1
10
42.0195728334088
20
6.19287078478413
30
0
41
1
10
42.1866411299878
20
6.30897439449387
30
0
41
1
10
42.5938553387583
20
6.57958398286846
30
0
41
1
10
43.0168011169154
20
6.82760557095045
30
0
41
1
10
43.2898537236576
20
6.97339469696286
30
0
41
1
10
43.3418805430781
20
7.0008245544702
30
0
41
1
10
43.3991268672042
20
7.03057719837813
30
0
41
1
10
43.4615928331822
20
7.06252548012586
30
0
41
1
10
43.5292788097583
20
7.096534386743
30
0
41
1
10
43.6021850184131
20
7.1324329022421
30
0
41
1
10
43.6803120288067
20
7.17013684403494
30
0
41
1
10
43.7341354350493
20
7.19532832704098
30
0
41
1
10
43.7619177600757
20
7.20833155403139
30
0
0
SPLINE
5
17C
100
AcDbEntity
8
1
62
256
6
ByLayer
370
18
48
1
60
0
100
AcDbSpline
70
4
71
3
72
70
73
66
40
0
40
0
40
0
40
0
40
0.0079092710710075
40
0.0160767121515677
40
0.0245023080873876
40
0.0331860432593112
40
0.0421279016856134
40
0.0513278671489769
40
0.060785923351207
40
0.0705020540992555
40
0.0804762435263014
40
0.0907084763519773
40
0.101198738186113
40
0.111947015880836
40
0.122953297936107
40
0.134217574964214
40
0.145739840219159
40
0.157520090197246
40
0.169558325315698
40
0.181854550676471
40
0.19440877692308
40
0.207221021198539
40
0.22029130821325
40
0.233619671432055
40
0.247206154390282
40
0.261050812149195
40
0.275153712901812
40
0.289514937227589
40
0.30413455202884
40
0.319012609707263
40
0.334149159798728
40
0.349544248438454
40
0.365197917641648
40
0.381110204590772
40
0.397281140937616
40
0.41371075212909
40
0.430399056766485
40
0.447346066008641
40
0.464551783030344
40
0.48201620254821
40
0.499739310427021
40
0.517721083380617
40
0.535961488782251
40
0.554460484600436
40
0.573218019477255
40
0.592234032967255
40
0.61150845610497
40
0.631041220086281
40
0.650832259227789
40
0.670881498433091
40
0.691188852678761
40
0.711754227867192
40
0.732577521950573
40
0.753658626352493
40
0.774997427715044
40
0.796593810000859
40
0.818447656980898
40
0.840558855140392
40
0.86292729703702
40
0.885552885146773
40
0.908435536234855
40
0.931575186293066
40
0.954971838905453
40
0.978625662206148
40
1
40
1
40
1
40
1
41
1
10
20.4160124355306
20
-6.73764024249533
30
0
41
1
10
20.4295105128439
20
-6.74555715842561
30
0
41
1
10
20.4569472641724
20
-6.76164940983489
30
0
41
1
10
20.4987630869864
20
-6.78589244947776
30
0
41
1
10
20.5419005936865
20
-6.81067856464495
30
0
41
1
10
20.5863597643545
20
-6.8359635026936
30
0
41
1
10
20.6321406048264
20
-6.8617285607142
30
0
41
1
10
20.6792431148492
20
-6.8879467080001
30
0
41
1
10
20.7276672971125
20
-6.91459206540802
30
0
41
1
10
20.7774131548257
20
-6.9416372299055
30
0
41
1
10
20.8284806925059
20
-6.96905400137842
30
0
41
1
10
20.8808699158725
20
-6.99681315754165
30
0
41
1
10
20.9345808319937
20
-7.02488449410583
30
0
41
1
10
20.9896134493676
20
-7.05323679035496
30
0
41
1
10
21.0459677780251
20
-7.08183779492023
30
0
41
1
10
21.1036438296308
20
-7.11065420534064
30
0
41
1
10
21.1626416175884
20
-7.13965164876171
30
0
41
1
10
21.2229611571484
20
-7.16879466172682
30
0
41
1
10
21.2846024655199
20
-7.19804666963432
30
0
41
1
10
21.3475655619841
20
-7.22736996567986
30
0
41
1
10
21.4118504680146
20
-7.25672568941849
30
0
41
1
10
21.4774572073887
20
-7.28607380458124
30
0
41
1
10
21.5443858063489
20
-7.3153730775104
30
0
41
1
10
21.6126362935845
20
-7.34458105097579
30
0
41
1
10
21.6822087009242
20
-7.37365403350188
30
0
41
1
10
21.7531030613111
20
-7.40254702687488
30
0
41
1
10
21.8253194129382
20
-7.4312138870356
30
0
41
1
10
21.8988577154979
20
-7.45960656253064
30
0
41
1
10
21.9737179782783
20
-7.48767938176391
30
0
41
1
10
22.0499002247918
20
-7.51538717661964
30
0
41
1
10
22.1274044395929
20
-7.54268351461582
30
0
41
1
10
22.2062306088108
20
-7.56952115999386
30
0
41
1
10
22.2863787150803
20
-7.59585194288343
30
0
41
1
10
22.3678487389063
20
-7.6216267888214
30
0
41
1
10
22.4506406581745
20
-7.64679570403888
30
0
41
1
10
22.5347544481698
20
-7.67130777279547
30
0
41
1
10
22.6201900814566
20
-7.6951111512937
30
0
41
1
10
22.7069475277975
20
-7.71815306242419
30
0
41
1
10
22.7950267540612
20
-7.74037979016842
30
0
41
1
10
22.884427724134
20
-7.76173667400062
30
0
41
1
10
22.9751503988322
20
-7.78216810312131
30
0
41
1
10
23.0671947358113
20
-7.80161751084785
30
0
41
1
10
23.1605606894907
20
-7.8200273680057
30
0
41
1
10
23.2552482109217
20
-7.83733917970523
30
0
41
1
10
23.3512572478802
20
-7.85349346879326
30
0
41
1
10
23.4485877443568
20
-7.86842980969902
30
0
41
1
10
23.5472396570755
20
-7.8820866719056
30
0
41
1
10
23.6472129623799
20
-7.89440204586339
30
0
41
1
10
23.7485076673222
20
-7.90531406785436
30
0
41
1
10
23.8511238127857
20
-7.91475980574546
30
0
41
1
10
23.9550614452134
20
-7.9226754803658
30
0
41
1
10
24.0603206161201
20
-7.9289964000321
30
0
41
1
10
24.1669013819528
20
-7.93365697452651
30
0
41
1
10
24.274803804386
20
-7.93659070736788
30
0
41
1
10
24.3840279505
20
-7.93773019396343
30
0
41
1
10
24.4945738930102
20
-7.93700711804314
30
0
41
1
10
24.6064417104451
20
-7.93435224868551
30
0
41
1
10
24.7196314875081
20
-7.92969543641047
30
0
41
1
10
24.8341433147763
20
-7.92296561214519
30
0
41
1
10
24.9499772909381
20
-7.91409077514658
30
0
41
1
10
25.0671335154206
20
-7.90299802256459
30
0
41
1
10
25.1856121906333
20
-7.88961341243242
30
0
41
1
10
25.3054137404527
20
-7.87386239877665
30
0
41
1
10
25.4222070385555
20
-7.85633070822828
30
0
41
1
10
25.4990669632075
20
-7.84342831335385
30
0
41
1
10
25.5355517126137
20
-7.8369972013102
30
0
0
SPLINE
5
17D
100
AcDbEntity
8
1
62
256
6
ByLayer
370
18
48
1
60
0
100
AcDbSpline
70
4
71
3
72
9
73
5
40
0
40
0
40
0
40
0
40
0.868932885722713
40
1
40
1
40
1
40
1
41
1
10
18.61304507257
20
-5.47738186079917
30
0
41
1
10
19.1351949293795
20
-5.89636454158452
30
0
41
1
10
19.7362317234766
20
-6.32829897488034
30
0
41
1
10
20.337240324608
20
-6.69127924334089
30
0
41
1
10
20.4160124355306
20
-6.73764024249536
30
0
0
SPLINE
5
17E
100
AcDbEntity
8
1
62
256
6
ByLayer
370
18
48
1
60
0
100
AcDbSpline
70
4
71
3
72
26
73
22
40
0
40
0
40
0
40
0
40
0.125
40
0.125
40
0.249999999999998
40
0.249999999999998
40
0.374999999999997
40
0.374999999999997
40
0.499999999999995
40
0.499999999999995
40
0.562499999999994
40
0.562499999999994
40
0.593749999999994
40
0.593749999999994
40
0.624999999999993
40
0.624999999999993
40
0.749999999999996
40
0.749999999999996
40
0.874999999999998
40
0.874999999999998
40
1
40
1
40
1
40
1
41
1
10
13.51
20
-0.376909939596118
30
0
41
1
10
13.7245676878537
20
-0.615022125133464
30
0
41
1
10
13.9379967979653
20
-0.851269658902652
30
0
41
1
10
14.3635343169678
20
-1.31936520369965
30
0
41
1
10
14.5756425528536
20
-1.55121302609919
30
0
41
1
10
14.9994729402962
20
-2.00979666918297
30
0
41
1
10
15.2111953751597
20
-2.23653126918393
30
0
41
1
10
15.6351696707896
20
-2.68414404928802
30
0
41
1
10
15.8474181674527
20
-2.90502919420064
30
0
41
1
10
16.1668827764844
20
-3.23132998373225
30
0
41
1
10
16.2735533899524
20
-3.33925765324389
30
0
41
1
10
16.4339269009433
20
-3.4997941077373
30
0
41
1
10
16.4874460622363
20
-3.55308029575073
30
0
41
1
10
16.5946235284238
20
-3.65918312508393
30
0
41
1
10
16.6482667563246
20
-3.71198414560806
30
0
41
1
10
16.915920002531
20
-3.9738441143399
30
0
41
1
10
17.128993612096
20
-4.17718956882078
30
0
41
1
10
17.5539866713142
20
-4.57113784470238
30
0
41
1
10
17.7658976535992
20
-4.76175532115474
30
0
41
1
10
18.1894321749224
20
-5.12972729755339
30
0
41
1
10
18.4010597015231
20
-5.30707271294142
30
0
41
1
10
18.6130450725699
20
-5.47738186079917
30
0
0
SPLINE
5
17F
100
AcDbEntity
8
1
62
256
6
ByLayer
370
13
48
1
60
0
100
AcDbSpline
70
4
71
3
72
9
73
5
40
0
40
0
40
0
40
0
40
0.909899453405207
40
1
40
1
40
1
40
1
41
1
10
44.8081264106512
20
7.0602523518173
30
0
41
1
10
44.0995842737675
20
6.84401399926159
30
0
41
1
10
43.3208805013539
20
6.49373863848504
30
0
41
1
10
42.5421767289403
20
6.03133201510122
30
0
41
1
10
42.4720150934104
20
5.98878364860138
30
0
0
SPLINE
5
180
100
AcDbEntity
8
1
62
256
6
ByLayer
370
18
48
1
60
0
100
AcDbSpline
70
4
71
2
72
6
73
3
40
0
40
0
40
0
40
1
40
1
40
1
41
1
10
45.764612363019
20
4.18867901196901
30
0
41
1
10
45.211985574834
20
4.52822432699267
30
0
41
1
10
44.6646747438528
20
4.87023783961044
30
0
0
SPLINE
5
181
100
AcDbEntity
8
1
62
256
6
ByLayer
370
18
48
1
60
0
100
AcDbSpline
70
4
71
3
72
10
73
6
40
0
40
0
40
0
40
0
40
0.33076299930474
40
0.850623819324508
40
1
40
1
40
1
40
1
41
1
10
8.67984096342477
20
-7.27069735863114
30
0
41
1
10
8.75228490053181
20
-7.22158554697708
30
0
41
1
10
8.93986965121897
20
-7.09684138000998
30
0
41
1
10
9.16574909238227
20
-6.95510769564328
30
0
41
1
10
9.317677744566
20
-6.86255157259896
30
0
41
1
10
9.35162668976733
20
-6.84202026734994
30
0
0
SPLINE
5
182
100
AcDbEntity
8
1
62
256
6
ByLayer
370
18
48
1
60
0
100
AcDbSpline
70
4
71
3
72
14
73
10
40
0
40
0
40
0
40
0
40
0.206116716454915
40
0.386330139248965
40
0.551081242562895
40
0.713423791396557
40
0.860293205353188
40
0.987028304154923
40
1
40
1
40
1
40
1
41
1
10
17.798336239355
20
-6.63554112996954
30
0
41
1
10
17.8948181862649
20
-6.60736298725055
30
0
41
1
10
18.089027954393
20
-6.55179886921113
30
0
41
1
10
18.4020030977393
20
-6.46270736605891
30
0
41
1
10
18.7191598950764
20
-6.37902462721044
30
0
41
1
10
19.00706071813
20
-6.30817442243111
30
0
41
1
10
19.2737221455668
20
-6.24224012118128
30
0
41
1
10
19.4534719774768
20
-6.19865767683226
30
0
41
1
10
19.5391531418631
20
-6.1782632188706
30
0
41
1
10
19.547093207323
20
-6.17637655046789
30
0
0
SPLINE
5
183
100
AcDbEntity
8
1
62
256
6
ByLayer
370
18
48
1
60
0
100
AcDbSpline
70
4
71
3
72
19
73
15
40
0
40
0
40
0
40
0
40
0.111732235950652
40
0.207489360988568
40
0.289738331380137
40
0.363036568499873
40
0.485987258374911
40
0.583082097677677
40
0.634186694911609
40
0.690265057608466
40
0.751468242811295
40
0.828188707629582
40
0.933191597632279
40
1
40
1
40
1
40
1
41
1
10
12.1533890689972
20
5.58837150726126
30
0
41
1
10
12.0336656179616
20
5.61995454584232
30
0
41
1
10
11.8037703226938
20
5.68731510905656
30
0
41
1
10
11.466367153456
20
5.80052161192512
30
0
41
1
10
11.1538930749519
20
5.92106848739371
30
0
41
1
10
10.807599759445
20
6.06941894556908
30
0
41
1
10
10.4433029076248
20
6.23907802305865
30
0
41
1
10
10.1329063438988
20
6.39854644225625
30
0
41
1
10
9.9019170116342
20
6.52332817132876
30
0
41
1
10
9.71066959703046
20
6.63033303044415
30
0
41
1
10
9.49149012674303
20
6.75736819760999
30
0
41
1
10
9.21773101671647
20
6.92251149426582
30
0
41
1
10
8.939884549466
20
7.0968277957968
30
0
41
1
10
8.75228490049901
20
7.22158554697958
30
0
41
1
10
8.67984096337898
20
7.27069735864185
30
0
0
SPLINE
5
184
100
AcDbEntity
8
1
62
256
6
ByLayer
370
18
48
1
60
0
100
AcDbSpline
70
4
71
3
72
16
73
12
40
0
40
0
40
0
40
0
40
0.207279940849651
40
0.346605982912292
40
0.402730176422717
40
0.448742312372667
40
0.491779582287717
40
0.557094685007639
40
0.660339839787515
40
0.80796858673492
40
1
40
1
40
1
40
1
41
1
10
37.2290940879711
20
2.33516361032156
30
0
41
1
10
37.0296275796755
20
2.47264891394991
30
0
41
1
10
36.6964740734796
20
2.7039362807939
30
0
41
1
10
36.3096212531976
20
2.97612704598919
30
0
41
1
10
36.0783579237538
20
3.13960244427966
30
0
41
1
10
35.9393072789724
20
3.23809704502008
30
0
41
1
10
35.791256295825
20
3.34311839972224
30
0
41
1
10
35.5881098309608
20
3.48744147722792
30
0
41
1
10
35.2845250134043
20
3.70342994360956
30
0
41
1
10
34.8592373392028
20
4.00617426697187
30
0
41
1
10
34.5331291139442
20
4.23705071064063
30
0
41
1
10
34.3487648280966
20
4.3673108713792
30
0
0
SPLINE
5
185
100
AcDbEntity
8
1
62
256
6
ByLayer
370
18
48
1
60
0
100
AcDbSpline
70
4
71
3
72
16
73
12
40
0
40
0
40
0
40
0
40
0.18313049732432
40
0.320022998369055
40
0.416832570113167
40
0.509768729394359
40
0.634094800140782
40
0.728898226154305
40
0.805191003896184
40
0.903945238549789
40
1
40
1
40
1
40
1
41
1
10
23.4466381022487
20
5.53055762891719
30
0
41
1
10
23.2289960578878
20
5.5487596836916
30
0
41
1
10
22.8387903438964
20
5.58780028709188
30
0
41
1
10
22.3160564508497
20
5.65257797283275
30
0
41
1
10
21.882888739995
20
5.71615026031148
30
0
41
1
10
21.4727522612027
20
5.781621107105
30
0
41
1
10
21.0774597022739
20
5.85130227672133
30
0
41
1
10
20.7006781864066
20
5.9237418877791
30
0
41
1
10
20.3590622105059
20
5.9936372177101
30
0
41
1
10
20.0235976394812
20
6.06598179009458
30
0
41
1
10
19.7703702741751
20
6.12395993060127
30
0
41
1
10
19.6451251166633
20
6.15330898309523
30
0
0
SPLINE
5
186
100
AcDbEntity
8
1
62
256
6
ByLayer
370
18
48
1
60
0
100
AcDbSpline
70
4
71
3
72
10
73
6
40
0
40
0
40
0
40
0
40
0.419578432566385
40
0.787088739185618
40
1
40
1
40
1
40
1
41
1
10
40.2519463587472
20
-6.63555197913743
30
0
41
1
10
40.3713575327936
20
-6.60082900372902
30
0
41
1
10
40.6075002705508
20
-6.53397761673264
30
0
41
1
10
40.9370141600563
20
-6.44110949599255
30
0
41
1
10
41.1401387606087
20
-6.38898442057373
30
0
41
1
10
41.216285616406
20
-6.36983312743109
30
0
0
SPLINE
5
187
100
AcDbEntity
8
1
62
256
6
ByLayer
370
18
48
1
60
0
100
AcDbSpline
70
4
71
3
72
10
73
6
40
0
40
0
40
0
40
0
40
0.510086490093156
40
0.871230170548853
40
1
40
1
40
1
40
1
41
1
10
29.4056701709508
20
-6.63354514245913
30
0
41
1
10
29.5678251364259
20
-6.58715184789475
30
0
41
1
10
29.844130433794
20
-6.50947519500769
30
0
41
1
10
30.161840621158
20
-6.42247598161427
30
0
41
1
10
30.3159054502213
20
-6.38130072575069
30
0
41
1
10
30.3563416646153
20
-6.37055311113193
30
0
0
SPLINE
5
188
100
AcDbEntity
8
1
62
256
6
ByLayer
370
18
48
1
60
0
100
AcDbSpline
70
4
71
3
72
14
73
10
40
0
40
0
40
0
40
0
40
0.212295919833671
40
0.362243404982826
40
0.473385282444304
40
0.556370592088277
40
0.656924100315067
40
0.80451051109277
40
1
40
1
40
1
40
1
41
1
10
38.8711764197141
20
7.42104461837724
30
0
41
1
10
38.6943955576632
20
7.44852049224613
30
0
41
1
10
38.3929301536274
20
7.49612184003081
30
0
41
1
10
37.9991766697608
20
7.55983329720965
30
0
41
1
10
37.7134314948285
20
7.60710470289732
30
0
41
1
10
37.4696979556192
20
7.64803485936756
30
0
41
1
10
37.1948186668534
20
7.69480426253352
30
0
41
1
10
36.8254416541347
20
7.75884155423228
30
0
41
1
10
36.5403969993801
20
7.80865816922656
30
0
41
1
10
36.377997519181
20
7.83725497138877
30
0
0
SPLINE
5
189
100
AcDbEntity
8
1
62
256
6
ByLayer
370
18
48
1
60
0
100
AcDbSpline
70
4
71
3
72
15
73
11
40
0
40
0
40
0
40
0
40
0.177770443498211
40
0.317848094495465
40
0.420276729568365
40
0.486599870305005
40
0.565510492493788
40
0.680156803891
40
0.830617255941333
40
1
40
1
40
1
40
1
41
1
10
13.9176106722043
20
-7.84143410312259
30
0
41
1
10
14.0640911345098
20
-7.81598899753794
30
0
41
1
10
14.3259672174076
20
-7.7707218719074
30
0
41
1
10
14.6721949395218
20
-7.71147584418267
30
0
41
1
10
14.9265470524846
20
-7.66815372366517
30
0
41
1
10
15.1305189940676
20
-7.63342887822577
30
0
41
1
10
15.3446383783667
20
-7.59689456432281
30
0
41
1
10
15.6280322392306
20
-7.54839460249417
30
0
41
1
10
15.9858816917573
20
-7.48694690606411
30
0
41
1
10
16.2493893822769
20
-7.44254887991264
30
0
41
1
10
16.3889477274703
20
-7.41918059407718
30
0
0
SPLINE
5
18A
100
AcDbEntity
8
1
62
256
6
ByLayer
370
18
48
1
60
0
100
AcDbSpline
70
4
71
3
72
13
73
9
40
0
40
0
40
0
40
0
40
0.23707485861676
40
0.406734929883802
40
0.51193625092561
40
0.631083732246646
40
0.799191804137826
40
1
40
1
40
1
40
1
41
1
10
25.5328754462629
20
-7.83746852787289
30
0
41
1
10
25.7256325458141
20
-7.80342632048325
30
0
41
1
10
26.0564303170357
20
-7.74593407130081
30
0
41
1
10
26.4728129215321
20
-7.67566390665178
30
0
41
1
10
26.7936156605237
20
-7.62245138809337
30
0
41
1
10
27.1131183069171
20
-7.56977945567038
30
0
41
1
10
27.5101400175381
20
-7.50457215379652
30
0
41
1
10
27.8100981488689
20
-7.45576707661016
30
0
41
1
10
27.9733139097791
20
-7.42932663457347
30
0
0
SPLINE
5
18B
100
AcDbEntity
8
1
62
256
6
ByLayer
370
18
48
1
60
0
100
AcDbSpline
70
4
71
3
72
13
73
9
40
0
40
0
40
0
40
0
40
0.181967706568773
40
0.335860263265627
40
0.444800521694028
40
0.517098793589629
40
0.712835977023804
40
1
40
1
40
1
40
1
41
1
10
16.3889221025494
20
7.41919005007875
30
0
41
1
10
16.2389985231073
20
7.44431343873816
30
0
41
1
10
15.9622971488976
20
7.49096566673259
30
0
41
1
10
15.5959559633868
20
7.5538951683011
30
0
41
1
10
15.3198628334703
20
7.60112721672758
30
0
41
1
10
15.0093123024719
20
7.65409948551635
30
0
41
1
10
14.5520716598444
20
7.73180442479236
30
0
41
1
10
14.1542181435831
20
7.80042085917859
30
0
41
1
10
13.9176106722044
20
7.84143410312248
30
0
0
SPLINE
5
18C
100
AcDbEntity
8
1
62
256
6
ByLayer
370
18
48
1
60
0
100
AcDbSpline
70
4
71
3
72
13
73
9
40
0
40
0
40
0
40
0
40
0.249982640421235
40
0.415031664620638
40
0.526602904595664
40
0.637747555537526
40
0.78769878251306
40
1
40
1
40
1
40
1
41
1
10
36.3779975191809
20
-7.83725497138906
30
0
41
1
10
36.5857925315671
20
-7.80056939327596
30
0
41
1
10
36.9305099219758
20
-7.74041486235188
30
0
41
1
10
37.3692783668159
20
-7.66492829262964
30
0
41
1
10
37.6896700131869
20
-7.611042077631
30
0
41
1
10
37.9991855462904
20
-7.55982942913209
30
0
41
1
10
38.3929260303819
20
-7.49612363676601
30
0
41
1
10
38.6943955574847
20
-7.44852049227458
30
0
41
1
10
38.8711764194778
20
-7.4210446184143
30
0
0
SPLINE
5
18D
100
AcDbEntity
8
1
62
256
6
ByLayer
370
18
48
1
60
0
100
AcDbSpline
70
4
71
3
72
15
73
11
40
0
40
0
40
0
40
0
40
0.170303490350703
40
0.31633196688008
40
0.421619342256982
40
0.488736923640122
40
0.568331437031136
40
0.680067330524901
40
0.823952332515815
40
1
40
1
40
1
40
1
41
1
10
27.9728728058695
20
7.42939362092352
30
0
41
1
10
27.8343329118705
20
7.45182887612236
30
0
41
1
10
27.5769831624797
20
7.49367061468726
30
0
41
1
10
27.2339443441288
20
7.54993645776349
30
0
41
1
10
26.974821213696
20
7.59258076226672
30
0
41
1
10
26.7697949679579
20
7.62642312933801
30
0
41
1
10
26.5596454647932
20
7.66125763536516
30
0
41
1
10
26.2870738164999
20
7.70690665612236
30
0
41
1
10
25.9361004549695
20
7.7668306710739
30
0
41
1
10
25.6759954969319
20
7.81220243184617
30
0
41
1
10
25.532875446263
20
7.83746852787269
30
0
0
LINE
5
7F
100
AcDbEntity
8
80
62
256
6
ByLayer
370
18
48
1
60
0
100
AcDbLine
10
0
20
0
30
0
11
-5
21
0
31
0
39
0
210
0
220
0
230
1
0
LINE
5
80
100
AcDbEntity
8
SK4
62
256
6
ByLayer
370
18
48
0.05
60
0
100
AcDbLine
10
-48.4
20
0
30
0
11
46.85
21
0
31
0
39
0
210
0
220
0
230
1
0
LINE
5
82
100
AcDbEntity
8
81
62
256
6
ByLayer
370
18
48
1
60
0
100
AcDbLine
10
46.85
20
0
30
0
11
51.85
21
0
31
0
39
0
210
0
220
0
230
1
0
LINE
5
83
100
AcDbEntity
8
4
62
256
6
ByLayer
370
18
48
0.05
60
0
100
AcDbLine
10
0
20
0
30
0
11
46.85
21
0
31
0
39
0
210
0
220
0
230
1
0
LINE
5
85
100
AcDbEntity
8
1
62
256
6
ByLayer
370
18
48
1
60
0
100
AcDbLine
10
0
20
7.9375
30
0
11
0
21
0
31
0
39
0
210
0
220
0
230
1
0
LINE
5
86
100
AcDbEntity
8
1
62
256
6
ByLayer
370
18
48
1
60
0
100
AcDbLine
10
0
20
0
30
0
11
0
21
-7.9375
31
0
39
0
210
0
220
0
230
1
0
LINE
5
87
100
AcDbEntity
8
1
62
256
6
ByLayer
370
18
48
1
60
0
100
AcDbLine
10
46.643872
20
-1.275302
30
0
11
46.600358
21
-1.275175
31
0
39
0
210
0
220
0
230
1
0
LINE
5
88
100
AcDbEntity
8
1
62
256
6
ByLayer
370
18
48
1
60
0
100
AcDbLine
10
46.764706
20
-0.251871
30
0
11
46.706624
21
-0.277086
31
0
39
0
210
0
220
0
230
1
0
LINE
5
89
100
AcDbEntity
8
1
62
256
6
ByLayer
370
18
48
1
60
0
100
AcDbLine
10
46.329671
20
2.395246
30
0
11
46.715431
21
3.066257
31
0
39
0
210
0
220
0
230
1
0
LINE
5
8A
100
AcDbEntity
8
1
62
256
6
ByLayer
370
18
48
1
60
0
100
AcDbLine
10
46.764706
20
4.891038
30
0
11
46.715431
21
3.066257
31
0
39
0
210
0
220
0
230
1
0
LINE
5
8B
100
AcDbEntity
8
1
62
256
6
ByLayer
370
18
48
1
60
0
100
AcDbLine
10
46.600358
20
-1.275175
30
0
11
46.294899
21
-2.334829
31
0
39
0
210
0
220
0
230
1
0
LINE
5
8C
100
AcDbEntity
8
1
62
256
6
ByLayer
370
18
48
1
60
0
100
AcDbLine
10
46.706624
20
-0.277086
30
0
11
46.600358
21
-1.275175
31
0
39
0
210
0
220
0
230
1
0
LINE
5
8D
100
AcDbEntity
8
1
62
256
6
ByLayer
370
18
48
1
60
0
100
AcDbLine
10
45.901052
20
-0.477212
30
0
11
46.706624
21
-0.277086
31
0
39
0
210
0
220
0
230
1
0
LINE
5
8E
100
AcDbEntity
8
1
62
256
6
ByLayer
370
13
48
1
60
0
100
AcDbLine
10
13.285611
20
7.807949
30
0
11
13.285611
21
7.791323
31
0
39
0
210
0
220
0
230
1
0
LINE
5
8F
100
AcDbEntity
8
1
62
256
6
ByLayer
370
18
48
1
60
0
100
AcDbLine
10
46.764706
20
-4.891038
30
0
11
46.715431
21
-3.066257
31
0
39
0
210
0
220
0
230
1
0
LINE
5
90
100
AcDbEntity
8
1
62
256
6
ByLayer
370
13
48
1
60
0
100
AcDbLine
10
13.285611
20
-7.807949
30
0
11
13.285611
21
-7.80313
31
0
39
0
210
0
220
0
230
1
0
LINE
5
91
100
AcDbEntity
8
1
62
256
6
ByLayer
370
18
48
1
60
0
100
AcDbLine
10
46.643872
20
-5.03164
30
0
11
46.6135
21
-3.843803
31
0
39
0
210
0
220
0
230
1
0
LINE
5
92
100
AcDbEntity
8
1
62
256
6
ByLayer
370
13
48
1
60
0
100
AcDbLine
10
45.119727
20
-0.646345
30
0
11
43.378315
21
-0.244516
31
0
39
0
210
0
220
0
230
1
0
LINE
5
93
100
AcDbEntity
8
1
62
256
6
ByLayer
370
18
48
1
60
0
100
AcDbLine
10
46.6135
20
-3.843803
30
0
11
45.868831
21
-4.927061
31
0
39
0
210
0
220
0
230
1
0
LINE
5
94
100
AcDbEntity
8
1
62
256
6
ByLayer
370
18
48
1
60
0
100
AcDbLine
10
46.715431
20
-3.066257
30
0
11
46.6135
21
-3.843803
31
0
39
0
210
0
220
0
230
1
0
LINE
5
95
100
AcDbEntity
8
1
62
256
6
ByLayer
370
18
48
1
60
0
100
AcDbLine
10
45.843411
20
-1.54942
30
0
11
46.715431
21
-3.066257
31
0
39
0
210
0
220
0
230
1
0
LINE
5
96
100
AcDbEntity
8
1
62
256
6
ByLayer
370
13
48
1
60
0
100
AcDbLine
10
12.285611
20
-7.514331
30
0
11
12.285611
21
-6.96057
31
0
39
0
210
0
220
0
230
1
0
LINE
5
97
100
AcDbEntity
8
1
62
256
6
ByLayer
370
13
48
1
60
0
100
AcDbLine
10
13.51
20
-6.906623
30
0
11
13.51
21
-7.281481
31
0
39
0
210
0
220
0
230
1
0
LINE
5
98
100
AcDbEntity
8
1
62
256
6
ByLayer
370
13
48
1
60
0
100
AcDbLine
10
12.285611
20
1.014053
30
0
11
12.285611
21
3.258948
31
0
39
0
210
0
220
0
230
1
0
LINE
5
99
100
AcDbEntity
8
1
62
256
6
ByLayer
370
13
48
1
60
0
100
AcDbLine
10
7.155358
20
-7.54
30
0
11
7.155358
21
-7.201505
31
0
39
0
210
0
220
0
230
1
0
LINE
5
9A
100
AcDbEntity
8
1
62
256
6
ByLayer
370
13
48
1
60
0
100
AcDbLine
10
7.155358
20
2.387149
30
0
11
7.155358
21
-6.634256
31
0
39
0
210
0
220
0
230
1
0
LINE
5
9B
100
AcDbEntity
8
1
62
256
6
ByLayer
370
13
48
1
60
0
100
AcDbLine
10
7.155358
20
7.54
30
0
11
7.155358
21
3.926326
31
0
39
0
210
0
220
0
230
1
0
LINE
5
9C
100
AcDbEntity
8
1
62
256
6
ByLayer
370
13
48
1
60
0
100
AcDbLine
10
13.285611
20
0.682298
30
0
11
13.285611
21
-0.100807
31
0
39
0
210
0
220
0
230
1
0
LINE
5
9D
100
AcDbEntity
8
1
62
256
6
ByLayer
370
13
48
1
60
0
100
AcDbLine
10
6.155358
20
7.807949
30
0
11
6.155358
21
0
31
0
39
0
210
0
220
0
230
1
0
LINE
5
9E
100
AcDbEntity
8
1
62
256
6
ByLayer
370
13
48
1
60
0
100
AcDbLine
10
6.155358
20
0
30
0
11
6.155358
21
-7.807949
31
0
39
0
210
0
220
0
230
1
0
LINE
5
9F
100
AcDbEntity
8
1
62
256
6
ByLayer
370
18
48
1
60
0
100
AcDbLine
10
5.930969
20
7.9375
30
0
11
5.930969
21
0
31
0
39
0
210
0
220
0
230
1
0
LINE
5
A0
100
AcDbEntity
8
1
62
256
6
ByLayer
370
18
48
1
60
0
100
AcDbLine
10
5.930969
20
0
30
0
11
5.930969
21
-7.9375
31
0
39
0
210
0
220
0
230
1
0
LINE
5
A1
100
AcDbEntity
8
1
62
256
6
ByLayer
370
13
48
1
60
0
100
AcDbLine
10
13.51
20
2.2541
30
0
11
13.51
21
2.228208
31
0
39
0
210
0
220
0
230
1
0
LINE
5
A2
100
AcDbEntity
8
1
62
256
6
ByLayer
370
18
48
1
60
0
100
AcDbLine
10
13.51
20
7.897983
30
0
11
13.51
21
7.89918
31
0
39
0
210
0
220
0
230
1
0
LINE
5
A3
100
AcDbEntity
8
1
62
256
6
ByLayer
370
13
48
1
60
0
100
AcDbLine
10
13.51
20
7.897983
30
0
11
13.51
21
7.364473
31
0
39
0
210
0
220
0
230
1
0
LINE
5
A4
100
AcDbEntity
8
SK1
62
256
6
ByLayer
370
18
48
1
60
0
100
AcDbLine
10
0
20
7.9375
30
0
11
0
21
0
31
0
39
0
210
0
220
0
230
1
0
LINE
5
A6
100
AcDbEntity
8
SK1
62
256
6
ByLayer
370
18
48
1
60
0
100
AcDbLine
10
0
20
0
30
0
11
0
21
-7.9375
31
0
39
0
210
0
220
0
230
1
0
LINE
5
A7
100
AcDbEntity
8
SK1
62
256
6
ByLayer
370
18
48
1
60
0
100
AcDbLine
10
-29.28
20
6.2865
30
0
11
-30.931
21
7.9375
31
0
39
0
210
0
220
0
230
1
0
LINE
5
A8
100
AcDbEntity
8
SK1
62
256
6
ByLayer
370
18
48
1
60
0
100
AcDbLine
10
-17.469
20
7.9375
30
0
11
-19.12
21
6.2865
31
0
39
0
210
0
220
0
230
1
0
LINE
5
A9
100
AcDbEntity
8
SK1
62
256
6
ByLayer
370
18
48
1
60
0
100
AcDbLine
10
-29.28
20
6.2865
30
0
11
-19.12
21
6.2865
31
0
39
0
210
0
220
0
230
1
0
LINE
5
AA
100
AcDbEntity
8
SK1
62
256
6
ByLayer
370
18
48
1
60
0
100
AcDbLine
10
-47.6
20
7.9375
30
0
11
-47.6
21
-7.9375
31
0
39
0
210
0
220
0
230
1
0
LINE
5
AB
100
AcDbEntity
8
SK1
62
256
6
ByLayer
370
18
48
1
60
0
100
AcDbLine
10
-48.4
20
-7.1375
30
0
11
-48.4
21
7.1375
31
0
39
0
210
0
220
0
230
1
0
LINE
5
AC
100
AcDbEntity
8
1
62
256
6
ByLayer
370
18
48
1
60
0
100
AcDbLine
10
13.285611
20
-7.807949
30
0
11
13.337826
21
-7.838095
31
0
39
0
210
0
220
0
230
1
0
LINE
5
AD
100
AcDbEntity
8
1
62
256
6
ByLayer
370
18
48
1
60
0
100
AcDbLine
10
13.337826
20
7.838095
30
0
11
13.285611
21
7.807949
31
0
39
0
210
0
220
0
230
1
0
LINE
5
AE
100
AcDbEntity
8
1
62
256
6
ByLayer
370
18
48
1
60
0
100
AcDbLine
10
5.930969
20
7.9375
30
0
11
0
21
7.9375
31
0
39
0
210
0
220
0
230
1
0
LINE
5
AF
100
AcDbEntity
8
1
62
256
6
ByLayer
370
18
48
1
60
0
100
AcDbLine
10
0
20
-7.9375
30
0
11
5.930969
21
-7.9375
31
0
39
0
210
0
220
0
230
1
0
LINE
5
B0
100
AcDbEntity
8
1
62
256
6
ByLayer
370
18
48
1
60
0
100
AcDbLine
10
7.155358
20
-7.54
30
0
11
7.906194
21
-7.54
31
0
39
0
210
0
220
0
230
1
0
LINE
5
B1
100
AcDbEntity
8
1
62
256
6
ByLayer
370
18
48
1
60
0
100
AcDbLine
10
13.01932
20
2.720722
30
0
11
13.019346
21
2.720701
31
0
39
0
210
0
220
0
230
1
0
LINE
5
B2
100
AcDbEntity
8
1
62
256
6
ByLayer
370
18
48
1
60
0
100
AcDbLine
10
7.906194
20
7.54
30
0
11
7.155358
21
7.54
31
0
39
0
210
0
220
0
230
1
0
LINE
5
B3
100
AcDbEntity
8
1
62
256
6
ByLayer
370
18
48
1
60
0
100
AcDbLine
10
6.155358
20
7.807949
30
0
11
5.930969
21
7.9375
31
0
39
0
210
0
220
0
230
1
0
LINE
5
B4
100
AcDbEntity
8
1
62
256
6
ByLayer
370
18
48
1
60
0
100
AcDbLine
10
5.930969
20
-7.9375
30
0
11
6.155358
21
-7.807949
31
0
39
0
210
0
220
0
230
1
0
LINE
5
B5
100
AcDbEntity
8
1
62
256
6
ByLayer
370
18
48
1
60
0
100
AcDbLine
10
23.872758
20
2.714353
30
0
11
23.872325
21
2.714767
31
0
39
0
210
0
220
0
230
1
0
LINE
5
B6
100
AcDbEntity
8
SK1
62
256
6
ByLayer
370
18
48
1
60
0
100
AcDbLine
10
0
20
7.9375
30
0
11
-17.469
21
7.9375
31
0
39
0
210
0
220
0
230
1
0
LINE
5
B7
100
AcDbEntity
8
SK1
62
256
6
ByLayer
370
18
48
1
60
0
100
AcDbLine
10
-30.931
20
7.9375
30
0
11
-47.6
21
7.9375
31
0
39
0
210
0
220
0
230
1
0
LINE
5
B8
100
AcDbEntity
8
SK1
62
256
6
ByLayer
370
18
48
1
60
0
100
AcDbLine
10
-47.6
20
-7.9375
30
0
11
0
21
-7.9375
31
0
39
0
210
0
220
0
230
1
0
LINE
5
B9
100
AcDbEntity
8
SK1
62
256
6
ByLayer
370
18
48
1
60
0
100
AcDbLine
10
-48.4
20
-7.1375
30
0
11
-47.6
21
-7.9375
31
0
39
0
210
0
220
0
230
1
0
LINE
5
BA
100
AcDbEntity
8
SK1
62
256
6
ByLayer
370
18
48
1
60
0
100
AcDbLine
10
-47.6
20
7.9375
30
0
11
-48.4
21
7.1375
31
0
39
0
210
0
220
0
230
1
0
LINE
5
BB
100
AcDbEntity
8
SK2
62
256
6
ByLayer
370
13
48
1
60
0
100
AcDbLine
10
-76.65
20
-9.352499
30
0
11
-76.65
21
9.352499
31
0
39
0
210
0
220
0
230
1
0
LINE
5
BD
100
AcDbEntity
8
SK2
62
256
6
ByLayer
370
13
48
1
60
0
100
AcDbLine
10
-49.9875
20
-7.9375
30
0
11
-78.65
21
-7.9375
31
0
39
0
210
0
220
0
230
1
0
LINE
5
BE
100
AcDbEntity
8
SK2
62
256
6
ByLayer
370
13
48
1
60
0
100
AcDbLine
10
-49.9875
20
7.9375
30
0
11
-78.65
21
7.9375
31
0
39
0
210
0
220
0
230
1
0
LINE
5
BF
100
AcDbEntity
8
1
62
256
6
ByLayer
370
18
48
1
60
1
100
AcDbLine
10
-76.65
20
-7.9375
30
0
11
-77.110784
21
-4.437502
31
0
39
0
210
0
220
0
230
1
0
LINE
5
C0
100
AcDbEntity
8
1
62
256
6
ByLayer
370
18
48
1
60
1
100
AcDbLine
10
-77.110784
20
-4.437502
30
0
11
-76.189216
21
-4.437498
31
0
39
0
210
0
220
0
230
1
0
LINE
5
C1
100
AcDbEntity
8
1
62
256
6
ByLayer
370
18
48
1
60
1
100
AcDbLine
10
-76.189216
20
-4.437498
30
0
11
-76.65
21
-7.9375
31
0
39
0
210
0
220
0
230
1
0
LINE
5
C2
100
AcDbEntity
8
1
62
256
6
ByLayer
370
18
48
1
60
1
100
AcDbLine
10
-76.65
20
7.9375
30
0
11
-76.189216
21
4.437502
31
0
39
0
210
0
220
0
230
1
0
LINE
5
C3
100
AcDbEntity
8
1
62
256
6
ByLayer
370
18
48
1
60
1
100
AcDbLine
10
-76.189216
20
4.437502
30
0
11
-77.110784
21
4.437498
31
0
39
0
210
0
220
0
230
1
0
LINE
5
C4
100
AcDbEntity
8
1
62
256
6
ByLayer
370
18
48
1
60
1
100
AcDbLine
10
-77.110784
20
4.437498
30
0
11
-76.65
21
7.9375
31
0
39
0
210
0
220
0
230
1
0
LINE
5
C5
100
AcDbEntity
8
SK2
62
256
6
ByLayer
370
13
48
1
60
0
100
AcDbLine
10
5.26
20
-9.352499
30
0
11
5.26
21
9.352499
31
0
39
0
210
0
220
0
230
1
0
LINE
5
C6
100
AcDbEntity
8
SK2
62
256
6
ByLayer
370
13
48
1
60
0
100
AcDbLine
10
11.9225
20
-7.54
30
0
11
3.26
21
-7.54
31
0
39
0
210
0
220
0
230
1
0
LINE
5
C7
100
AcDbEntity
8
SK2
62
256
6
ByLayer
370
13
48
1
60
0
100
AcDbLine
10
11.9225
20
7.54
30
0
11
3.26
21
7.54
31
0
39
0
210
0
220
0
230
1
0
LINE
5
C8
100
AcDbEntity
8
1
62
256
6
ByLayer
370
18
48
1
60
1
100
AcDbLine
10
5.26
20
-7.54
30
0
11
4.799216
21
-4.040002
31
0
39
0
210
0
220
0
230
1
0
LINE
5
C9
100
AcDbEntity
8
1
62
256
6
ByLayer
370
18
48
1
60
1
100
AcDbLine
10
4.799216
20
-4.040002
30
0
11
5.720784
21
-4.039998
31
0
39
0
210
0
220
0
230
1
0
LINE
5
CA
100
AcDbEntity
8
1
62
256
6
ByLayer
370
18
48
1
60
1
100
AcDbLine
10
5.720784
20
-4.039998
30
0
11
5.26
21
-7.54
31
0
39
0
210
0
220
0
230
1
0
LINE
5
CB
100
AcDbEntity
8
1
62
256
6
ByLayer
370
18
48
1
60
1
100
AcDbLine
10
5.26
20
7.54
30
0
11
5.720784
21
4.040002
31
0
39
0
210
0
220
0
230
1
0
LINE
5
CC
100
AcDbEntity
8
1
62
256
6
ByLayer
370
18
48
1
60
1
100
AcDbLine
10
5.720784
20
4.040002
30
0
11
4.799216
21
4.039998
31
0
39
0
210
0
220
0
230
1
0
LINE
5
CD
100
AcDbEntity
8
1
62
256
6
ByLayer
370
18
48
1
60
1
100
AcDbLine
10
4.799216
20
4.039998
30
0
11
5.26
21
7.54
31
0
39
0
210
0
220
0
230
1
0
LINE
5
CE
100
AcDbEntity
8
2
62
256
6
ByLayer
370
13
48
1
60
0
100
AcDbLine
10
63.85
20
-9.352499
30
0
11
63.85
21
9.352499
31
0
39
0
210
0
220
0
230
1
0
LINE
5
D0
100
AcDbEntity
8
2
62
256
6
ByLayer
370
13
48
1
60
0
100
AcDbLine
10
48.4375
20
-7.9375
30
0
11
65.85
21
-7.9375
31
0
39
0
210
0
220
0
230
1
0
LINE
5
D1
100
AcDbEntity
8
2
62
256
6
ByLayer
370
13
48
1
60
0
100
AcDbLine
10
48.4375
20
7.9375
30
0
11
65.85
21
7.9375
31
0
39
0
210
0
220
0
230
1
0
LINE
5
D2
100
AcDbEntity
8
1
62
256
6
ByLayer
370
18
48
1
60
1
100
AcDbLine
10
63.85
20
-7.9375
30
0
11
63.389216
21
-4.437502
31
0
39
0
210
0
220
0
230
1
0
LINE
5
D3
100
AcDbEntity
8
1
62
256
6
ByLayer
370
18
48
1
60
1
100
AcDbLine
10
63.389216
20
-4.437502
30
0
11
64.310784
21
-4.437498
31
0
39
0
210
0
220
0
230
1
0
LINE
5
D4
100
AcDbEntity
8
1
62
256
6
ByLayer
370
18
48
1
60
1
100
AcDbLine
10
64.310784
20
-4.437498
30
0
11
63.85
21
-7.9375
31
0
39
0
210
0
220
0
230
1
0
LINE
5
D5
100
AcDbEntity
8
1
62
256
6
ByLayer
370
18
48
1
60
1
100
AcDbLine
10
63.85
20
7.9375
30
0
11
64.310784
21
4.437502
31
0
39
0
210
0
220
0
230
1
0
LINE
5
D6
100
AcDbEntity
8
1
62
256
6
ByLayer
370
18
48
1
60
1
100
AcDbLine
10
64.310784
20
4.437502
30
0
11
63.389216
21
4.437498
31
0
39
0
210
0
220
0
230
1
0
LINE
5
D7
100
AcDbEntity
8
1
62
256
6
ByLayer
370
18
48
1
60
1
100
AcDbLine
10
63.389216
20
4.437498
30
0
11
63.85
21
7.9375
31
0
39
0
210
0
220
0
230
1
0
LINE
5
192
100
AcDbEntity
8
1
62
256
6
ByLayer
370
18
48
1
60
1
100
AcDbLine
10
-76.65
20
-7.9375
30
0
11
-77.110784
21
-4.437502
31
0
39
0
210
0
220
0
230
1
0
LINE
5
193
100
AcDbEntity
8
1
62
256
6
ByLayer
370
18
48
1
60
1
100
AcDbLine
10
-77.110784
20
-4.437502
30
0
11
-76.189216
21
-4.437498
31
0
39
0
210
0
220
0
230
1
0
LINE
5
194
100
AcDbEntity
8
1
62
256
6
ByLayer
370
18
48
1
60
1
100
AcDbLine
10
-76.189216
20
-4.437498
30
0
11
-76.65
21
-7.9375
31
0
39
0
210
0
220
0
230
1
0
LINE
5
196
100
AcDbEntity
8
1
62
256
6
ByLayer
370
18
48
1
60
1
100
AcDbLine
10
-76.65
20
7.9375
30
0
11
-76.189216
21
4.437502
31
0
39
0
210
0
220
0
230
1
0
LINE
5
197
100
AcDbEntity
8
1
62
256
6
ByLayer
370
18
48
1
60
1
100
AcDbLine
10
-76.189216
20
4.437502
30
0
11
-77.110784
21
4.437498
31
0
39
0
210
0
220
0
230
1
0
LINE
5
198
100
AcDbEntity
8
1
62
256
6
ByLayer
370
18
48
1
60
1
100
AcDbLine
10
-77.110784
20
4.437498
30
0
11
-76.65
21
7.9375
31
0
39
0
210
0
220
0
230
1
0
LINE
5
19C
100
AcDbEntity
8
1
62
256
6
ByLayer
370
18
48
1
60
1
100
AcDbLine
10
5.26
20
-7.54
30
0
11
4.799216
21
-4.040002
31
0
39
0
210
0
220
0
230
1
0
LINE
5
19D
100
AcDbEntity
8
1
62
256
6
ByLayer
370
18
48
1
60
1
100
AcDbLine
10
4.799216
20
-4.040002
30
0
11
5.720784
21
-4.039998
31
0
39
0
210
0
220
0
230
1
0
LINE
5
19E
100
AcDbEntity
8
1
62
256
6
ByLayer
370
18
48
1
60
1
100
AcDbLine
10
5.720784
20
-4.039998
30
0
11
5.26
21
-7.54
31
0
39
0
210
0
220
0
230
1
0
LINE
5
1A0
100
AcDbEntity
8
1
62
256
6
ByLayer
370
18
48
1
60
1
100
AcDbLine
10
5.26
20
7.54
30
0
11
5.720784
21
4.040002
31
0
39
0
210
0
220
0
230
1
0
LINE
5
1A1
100
AcDbEntity
8
1
62
256
6
ByLayer
370
18
48
1
60
1
100
AcDbLine
10
5.720784
20
4.040002
30
0
11
4.799216
21
4.039998
31
0
39
0
210
0
220
0
230
1
0
LINE
5
1A2
100
AcDbEntity
8
1
62
256
6
ByLayer
370
18
48
1
60
1
100
AcDbLine
10
4.799216
20
4.039998
30
0
11
5.26
21
7.54
31
0
39
0
210
0
220
0
230
1
0
LINE
5
1A6
100
AcDbEntity
8
1
62
256
6
ByLayer
370
18
48
1
60
1
100
AcDbLine
10
63.85
20
-7.9375
30
0
11
63.389216
21
-4.437502
31
0
39
0
210
0
220
0
230
1
0
LINE
5
1A7
100
AcDbEntity
8
1
62
256
6
ByLayer
370
18
48
1
60
1
100
AcDbLine
10
63.389216
20
-4.437502
30
0
11
64.310784
21
-4.437498
31
0
39
0
210
0
220
0
230
1
0
LINE
5
1A8
100
AcDbEntity
8
1
62
256
6
ByLayer
370
18
48
1
60
1
100
AcDbLine
10
64.310784
20
-4.437498
30
0
11
63.85
21
-7.9375
31
0
39
0
210
0
220
0
230
1
0
LINE
5
1AA
100
AcDbEntity
8
1
62
256
6
ByLayer
370
18
48
1
60
1
100
AcDbLine
10
63.85
20
7.9375
30
0
11
64.310784
21
4.437502
31
0
39
0
210
0
220
0
230
1
0
LINE
5
1AB
100
AcDbEntity
8
1
62
256
6
ByLayer
370
18
48
1
60
1
100
AcDbLine
10
64.310784
20
4.437502
30
0
11
63.389216
21
4.437498
31
0
39
0
210
0
220
0
230
1
0
LINE
5
1AC
100
AcDbEntity
8
1
62
256
6
ByLayer
370
18
48
1
60
1
100
AcDbLine
10
63.389216
20
4.437498
30
0
11
63.85
21
7.9375
31
0
39
0
210
0
220
0
230
1
0
MTEXT
5
18E
100
AcDbEntity
8
SK2
62
256
6
ByLayer
370
18
48
1
60
0
100
AcDbMText
10
-78.214634
20
-7.417655
30
0
210
0
220
0
230
1
1
%%c
40
3.5
41
0
44
1.084337
50
90
71
7
72
5
7
iso_b_vert
0
MTEXT
5
191
100
AcDbEntity
8
SK2
62
256
6
ByLayer
370
18
48
1
60
0
100
AcDbMText
10
-78.214634
20
-0.444999
30
0
210
0
220
0
230
1
1
\W0.6864;15.88
40
3.5
41
0
44
1.084337
50
90
71
7
72
5
7
iso_b_vert
0
MTEXT
5
19A
100
AcDbEntity
8
SK2
62
256
6
ByLayer
370
18
48
1
60
0
100
AcDbMText
10
3.695366
20
-7.417655
30
0
210
0
220
0
230
1
1
%%c
40
3.5
41
0
44
1.084337
50
90
71
7
72
5
7
iso_b_vert
0
MTEXT
5
19B
100
AcDbEntity
8
SK2
62
256
6
ByLayer
370
18
48
1
60
0
100
AcDbMText
10
3.695366
20
-0.444999
30
0
210
0
220
0
230
1
1
\W0.6864;15.08
40
3.5
41
0
44
1.084337
50
90
71
7
72
5
7
iso_b_vert
0
MTEXT
5
1A4
100
AcDbEntity
8
2
62
256
6
ByLayer
370
18
48
1
60
0
100
AcDbMText
10
62.285366
20
-7.417655
30
0
210
0
220
0
230
1
1
%%c
40
3.5
41
0
44
1.084337
50
90
71
7
72
5
7
iso_b_vert
0
MTEXT
5
1A5
100
AcDbEntity
8
2
62
256
6
ByLayer
370
18
48
1
60
0
100
AcDbMText
10
62.285366
20
-0.444999
30
0
210
0
220
0
230
1
1
\W0.6864;15.88
40
3.5
41
0
44
1.084337
50
90
71
7
72
5
7
iso_b_vert
0
MTEXT
5
1AE
100
AcDbEntity
8
SK6
62
256
6
ByLayer
370
18
48
1
60
0
100
AcDbMText
10
-26.759683
20
-62.114886
30
0
210
0
220
0
230
1
1
\W0.7488;2F440-1588-304ASD   1725
40
3
41
0
44
1.084337
50
0
71
7
72
5
7
iso_b_vert
0
HATCH
5
195
100
AcDbEntity
8
SK2
62
256
6
ByLayer
370
13
48
1
60
0
100
AcDbHatch
10
0
20
0
30
0
210
0
220
0
230
1
2
ANSI31
70
0
71
0
91
1
92
5
93
3
72
1
10
-76.65
20
-7.93749999999983
11
-77.1107837415528
21
-4.43750169255301
72
1
10
-77.1107837415528
20
-4.43750169255301
11
-76.1892162584472
21
-4.43749830744665
72
1
10
-76.1892162584472
20
-4.43749830744665
11
-76.65
21
-7.93749999999983
97
0
75
0
76
1
52
0
41
0.0062
77
0
78
1
53
45
43
0
44
0
45
-0.0139193969876572
46
0.0139193969876572
79
0
47
0
98
1
10
0
20
0
0
HATCH
5
199
100
AcDbEntity
8
SK2
62
256
6
ByLayer
370
13
48
1
60
0
100
AcDbHatch
10
0
20
0
30
0
210
0
220
0
230
1
2
ANSI31
70
0
71
0
91
1
92
5
93
3
72
1
10
-76.65
20
7.93750000000017
11
-76.1892162584472
21
4.43750169255335
72
1
10
-76.1892162584472
20
4.43750169255335
11
-77.1107837415528
21
4.43749830744699
72
1
10
-77.1107837415528
20
4.43749830744699
11
-76.65
21
7.93750000000017
97
0
75
0
76
1
52
0
41
0.0062
77
0
78
1
53
45
43
0
44
0
45
-0.0139193969876572
46
0.0139193969876572
79
0
47
0
98
1
10
0
20
0
0
HATCH
5
19F
100
AcDbEntity
8
SK2
62
256
6
ByLayer
370
13
48
1
60
0
100
AcDbHatch
10
0
20
0
30
0
210
0
220
0
230
1
2
ANSI31
70
0
71
0
91
1
92
5
93
3
72
1
10
5.26000000000002
20
-7.54000000000008
11
4.79921625844725
21
-4.04000169255326
72
1
10
4.79921625844725
20
-4.04000169255326
11
5.72078374155279
21
-4.03999830744689
72
1
10
5.72078374155279
20
-4.03999830744689
11
5.26000000000002
21
-7.54000000000008
97
0
75
0
76
1
52
0
41
0.0062
77
0
78
1
53
45
43
0
44
0
45
-0.0139193969876572
46
0.0139193969876572
79
0
47
0
98
1
10
0
20
0
0
HATCH
5
1A3
100
AcDbEntity
8
SK2
62
256
6
ByLayer
370
13
48
1
60
0
100
AcDbHatch
10
0
20
0
30
0
210
0
220
0
230
1
2
ANSI31
70
0
71
0
91
1
92
5
93
3
72
1
10
5.26000000000002
20
7.53999999999994
11
5.72078374155279
21
4.04000169255312
72
1
10
5.72078374155279
20
4.04000169255312
11
4.79921625844725
21
4.03999830744675
72
1
10
4.79921625844725
20
4.03999830744675
11
5.26000000000002
21
7.53999999999994
97
0
75
0
76
1
52
0
41
0.0062
77
0
78
1
53
45
43
0
44
0
45
-0.0139193969876572
46
0.0139193969876572
79
0
47
0
98
1
10
0
20
0
0
HATCH
5
1A9
100
AcDbEntity
8
2
62
256
6
ByLayer
370
13
48
1
60
0
100
AcDbHatch
10
0
20
0
30
0
210
0
220
0
230
1
2
ANSI31
70
0
71
0
91
1
92
5
93
3
72
1
10
63.85
20
-7.9375000000002
11
63.3892162584472
21
-4.43750169255338
72
1
10
63.3892162584472
20
-4.43750169255338
11
64.3107837415528
21
-4.43749830744702
72
1
10
64.3107837415528
20
-4.43749830744702
11
63.85
21
-7.9375000000002
97
0
75
0
76
1
52
0
41
0.0062
77
0
78
1
53
45
43
0
44
0
45
-0.0139193969876572
46
0.0139193969876572
79
0
47
0
98
1
10
0
20
0
0
HATCH
5
1AD
100
AcDbEntity
8
2
62
256
6
ByLayer
370
13
48
1
60
0
100
AcDbHatch
10
0
20
0
30
0
210
0
220
0
230
1
2
ANSI31
70
0
71
0
91
1
92
5
93
3
72
1
10
63.85
20
7.9374999999998
11
64.3107837415528
21
4.43750169255298
72
1
10
64.3107837415528
20
4.43750169255298
11
63.3892162584472
21
4.43749830744662
72
1
10
63.3892162584472
20
4.43749830744662
11
63.85
21
7.9374999999998
97
0
75
0
76
1
52
0
41
0.0062
77
0
78
1
53
45
43
0
44
0
45
-0.0139193969876572
46
0.0139193969876572
79
0
47
0
98
1
10
0
20
0
0
DIMENSION
5
1B1
100
AcDbEntity
8
SK2
62
256
6
ByLayer
370
18
48
1
60
0
100
AcDbDimension
2
_U0
10
13.51
20
-16.731615
30
0
11
30.18
21
-16.731615
31
0
70
32
71
1
72
1
41
1
210
0
220
0
230
1
3
Standard
100
AcDbAlignedDimension
13
46.85
23
-7.9375
33
0
14
13.51
24
-7.9375
34
0
50
0
100
AcDbRotatedDimension
1001
ACAD
1000
DSTYLE
1002
{
1070
   371
1070
    13
1070
   372
1070
    13
1070
   170
1070
     0
1070
   144
1040
1.0
1070
   277
1070
     2
1070
   284
1070
     8
1070
   278
1070
    46
1070
   146
1040
1.0
1070
   345
1005
16
1070
   347
1005
16
1070
   346
1005
16
1070
   344
1005
0
1070
   343
1005
0
1070
   172
1070
     1
1070
    76
1070
     0
1070
    75
1070
     0
1070
   282
1070
     0
1070
   281
1070
     0
1070
    71
1070
     0
1070
    74
1070
     0
1070
   279
1070
     0
1070
   173
1070
     1
1070
   340
1005
18F
1070
   271
1070
     2
1070
   272
1070
     2
1070
    77
1070
     1
1070
    73
1070
     1
1070
   171
1070
     3
1070
   274
1070
     4
1070
   177
1070
     2
1070
   176
1070
     2
1070
   178
1070
     2
1070
    78
1070
     8
1070
    48
1040
-0.1
1070
    41
1040
3.5
1070
   147
1040
1.75
1070
    42
1040
1.5875
1070
    44
1040
2.0
1070
   140
1040
3.5
1002
}
1001
ACAD_DSTYLE_DIM_LINETYPE
1070
   380
1005
16
1001
ACAD_DSTYLE_DIM_EXT1_LINETYPE
1070
   381
1005
16
1001
ACAD_DSTYLE_DIM_EXT2_LINETYPE
1070
   382
1005
16
0
DIMENSION
5
1CA
100
AcDbEntity
8
SK2
62
256
6
ByLayer
370
18
48
1
60
0
100
AcDbDimension
2
_U1
10
7.16
20
-29.731615
30
0
11
27.005
21
-29.731615
31
0
70
32
71
1
72
1
41
1
210
0
220
0
230
1
3
Standard
100
AcDbAlignedDimension
13
46.85
23
-7.9375
33
0
14
7.16
24
-7.9375
34
0
50
0
100
AcDbRotatedDimension
1001
ACAD
1000
DSTYLE
1002
{
1070
   371
1070
    13
1070
   372
1070
    13
1070
   170
1070
     0
1070
   144
1040
1.0
1070
   277
1070
     2
1070
   284
1070
     8
1070
   278
1070
    46
1070
   146
1040
1.0
1070
   345
1005
16
1070
   347
1005
16
1070
   346
1005
16
1070
   344
1005
0
1070
   343
1005
0
1070
   172
1070
     1
1070
    76
1070
     0
1070
    75
1070
     0
1070
   282
1070
     0
1070
   281
1070
     0
1070
    71
1070
     0
1070
    74
1070
     0
1070
   279
1070
     0
1070
   173
1070
     1
1070
   340
1005
18F
1070
   271
1070
     2
1070
   272
1070
     2
1070
    77
1070
     1
1070
    73
1070
     1
1070
   171
1070
     3
1070
   274
1070
     4
1070
   177
1070
     2
1070
   176
1070
     2
1070
   178
1070
     2
1070
    78
1070
     8
1070
    48
1040
-0.1
1070
    41
1040
3.5
1070
   147
1040
1.75
1070
    42
1040
1.5875
1070
    44
1040
2.0
1070
   140
1040
3.5
1002
}
1001
ACAD_DSTYLE_DIM_LINETYPE
1070
   380
1005
16
1001
ACAD_DSTYLE_DIM_EXT1_LINETYPE
1070
   381
1005
16
1001
ACAD_DSTYLE_DIM_EXT2_LINETYPE
1070
   382
1005
16
0
DIMENSION
5
1E2
100
AcDbEntity
8
SK2
62
256
6
ByLayer
370
18
48
1
60
0
100
AcDbDimension
2
_U2
10
30.975
20
18.231615
30
0
11
38.9125
21
18.231615
31
0
70
32
71
1
72
1
41
1
210
0
220
0
230
1
3
Standard
100
AcDbAlignedDimension
13
46.85
23
7.9375
33
0
14
30.975
24
7.9375
34
0
50
0
100
AcDbRotatedDimension
1001
ACAD
1000
DSTYLE
1002
{
1070
   371
1070
    13
1070
   372
1070
    13
1070
   170
1070
     0
1070
   144
1040
1.0
1070
   277
1070
     2
1070
   284
1070
     8
1070
   278
1070
    46
1070
   146
1040
1.0
1070
   345
1005
16
1070
   347
1005
16
1070
   346
1005
16
1070
   344
1005
0
1070
   343
1005
0
1070
   172
1070
     1
1070
    76
1070
     0
1070
    75
1070
     0
1070
   282
1070
     0
1070
   281
1070
     0
1070
    47
1040
1.588
1070
    72
1070
     0
1070
    71
1070
     1
1070
    74
1070
     0
1070
   279
1070
     0
1070
   173
1070
     1
1070
   340
1005
18F
1070
   271
1070
     2
1070
   272
1070
     2
1070
    77
1070
     1
1070
    73
1070
     1
1070
   171
1070
     3
1070
   274
1070
     4
1070
   177
1070
     2
1070
   176
1070
     2
1070
   178
1070
     2
1070
    78
1070
     8
1070
    48
1040
1.588
1070
    41
1040
3.5
1070
   147
1040
1.75
1070
    42
1040
1.5875
1070
    44
1040
2.0
1070
   140
1040
3.5
1002
}
1001
ACAD_DSTYLE_DIM_LINETYPE
1070
   380
1005
16
1001
ACAD_DSTYLE_DIM_EXT1_LINETYPE
1070
   381
1005
16
1001
ACAD_DSTYLE_DIM_EXT2_LINETYPE
1070
   382
1005
16
0
DIMENSION
5
1FC
100
AcDbEntity
8
2
62
256
6
ByLayer
370
18
48
1
60
0
100
AcDbDimension
2
_U3
10
46.85
20
-41.731615
30
0
11
-0.775
21
-41.731615
31
0
70
32
71
1
72
1
41
1
210
0
220
0
230
1
3
Standard
100
AcDbAlignedDimension
13
-48.4
23
-7.9375
33
0
14
46.85
24
-7.9375
34
0
50
0
100
AcDbRotatedDimension
1001
ACAD
1000
DSTYLE
1002
{
1070
   371
1070
    13
1070
   372
1070
    13
1070
   170
1070
     0
1070
   144
1040
1.0
1070
   277
1070
     2
1070
   284
1070
     8
1070
   278
1070
    46
1070
   146
1040
1.0
1070
   345
1005
16
1070
   347
1005
16
1070
   346
1005
16
1070
   344
1005
0
1070
   343
1005
0
1070
   172
1070
     1
1070
    76
1070
     0
1070
    75
1070
     0
1070
   282
1070
     0
1070
   281
1070
     0
1070
    71
1070
     0
1070
    74
1070
     0
1070
   279
1070
     0
1070
   173
1070
     1
1070
   340
1005
18F
1070
   271
1070
     2
1070
   272
1070
     2
1070
    77
1070
     1
1070
    73
1070
     1
1070
   171
1070
     3
1070
   274
1070
     4
1070
   177
1070
     2
1070
   176
1070
     2
1070
   178
1070
     2
1070
    78
1070
     8
1070
    48
1040
-0.1
1070
    41
1040
3.5
1070
   147
1040
1.75
1070
    42
1040
1.5875
1070
    44
1040
2.0
1070
   140
1040
3.5
1002
}
1001
ACAD_DSTYLE_DIM_LINETYPE
1070
   380
1005
16
1001
ACAD_DSTYLE_DIM_EXT1_LINETYPE
1070
   381
1005
16
1001
ACAD_DSTYLE_DIM_EXT2_LINETYPE
1070
   382
1005
16
0
ENDSEC
0
SECTION
2
OBJECTS
0
DICTIONARY
5
284
330
0
100
AcDbDictionary
280
0
281
1
3
ACAD_GROUP
350
285
3
ACAD_MLINESTYLE
350
286
0
DICTIONARY
5
285
330
0
100
AcDbDictionary
280
0
281
1
0
DICTIONARY
5
286
330
0
100
AcDbDictionary
280
0
281
1
3
Standard
350
18
0
MLINESTYLE
5
18
330
286
100
AcDbMlineStyle
2
Standard
70
0
3

62
256
51
90
52
90
71
2
49
-0.5
62
256
6
ByLayer
49
0.5
62
256
6
ByLayer
0
RASTERVARIABLES
5
272
330

100
AcDbRasterVariables
90
0
70
1
71
1
72
1
0
ENDSEC
0
EOF
