0
SECTION
2
HEADER
9
$ACADVER
1
AC1015
9
$DWGCODEPAGE
3
ANSI_1252
9
$HANDSEED
5
295
9
$ANGBASE
50
0
9
$ANGDIR
70
0
9
$ATTMODE
70
1
9
$AUNITS
70
0
9
$AUPREC
70
0
9
$CECOLOR
62
256
9
$CELTSCALE
40
1
9
$CELTYPE
6
ByLayer
9
$CELWEIGHT
370
18
9
$CLAYER
8
0
9
$CMLJUST
70
0
9
$CMLSCALE
40
1
9
$CMLSTYLE
2
Standard
9
$DIMSTYLE
2
Standard
9
$TEXTSIZE
40
0.2
9
$TEXTSTYLE
7
Standard
9
$LUNITS
70
2
9
$LUPREC
70
4
9
$EXTNAMES
290
1
9
$INSUNITS
70
4
9
$LTSCALE
40
1
9
$LWDISPLAY
290
1
9
$PDMODE
70
0
9
$PDSIZE
40
0
9
$PLINEGEN
70
0
0
ENDSEC
0
SECTION
2
CLASSES
0
CLASS
1
RASTERVARIABLES
2
AcDbRasterVariables
3
ISM
90
0
280
0
281
0
0
ENDSEC
0
SECTION
2
TABLES
0
TABLE
2
VPORT
5
28b
100
AcDbSymbolTable
0
VPORT
5
1
100
AcDbSymbolTableRecord
100
AcDbViewportTableRecord
2
*Active
70
0
10
0
20
0
11
1
21
1
12
-1
22
1
13
0
23
0
14
0.5
24
0.5
15
10
25
10
16
0
26
0
36
1
17
0
27
0
37
0
0
ENDTAB
0
TABLE
2
LTYPE
5
28c
100
AcDbSymbolTable
0
LTYPE
5
14
100
AcDbSymbolTableRecord
100
AcDbLinetypeTableRecord
70
0
2
ByBlock
3

72
65
73
0
40
0
0
LTYPE
5
15
100
AcDbSymbolTableRecord
100
AcDbLinetypeTableRecord
70
0
2
ByLayer
3

72
65
73
0
40
0
0
LTYPE
5
16
100
AcDbSymbolTableRecord
100
AcDbLinetypeTableRecord
70
0
2
Continuous
3
Solid line
72
65
73
0
40
0
0
LTYPE
5
6E
100
AcDbSymbolTableRecord
100
AcDbLinetypeTableRecord
70
0
2
CENTER
3
____ _ ____ _ ____ _ ____
72
65
73
4
40
47.5
49
22
74
0
49
-8.5
74
0
49
8.5
74
0
49
-8.5
74
0
0
LTYPE
5
6F
100
AcDbSymbolTableRecord
100
AcDbLinetypeTableRecord
70
0
2
DASHED
3
__ __ __ __ __ __ __ __ __
72
65
73
2
40
25.72
49
12.86
74
0
49
-12.86
74
0
0
ENDTAB
0
TABLE
2
LAYER
5
28d
100
AcDbSymbolTable
0
LAYER
5
10
100
AcDbSymbolTableRecord
100
AcDbLayerTableRecord
2
0
70
0
62
7
6
Continuous
290
1
370
-3
390
0
0
LAYER
5
71
100
AcDbSymbolTableRecord
100
AcDbLayerTableRecord
2
81
70
0
62
-3
6
Continuous
290
1
370
-3
390
0
0
LAYER
5
73
100
AcDbSymbolTableRecord
100
AcDbLayerTableRecord
2
80
70
0
62
-6
6
Continuous
290
1
370
-3
390
0
0
LAYER
5
77
100
AcDbSymbolTableRecord
100
AcDbLayerTableRecord
2
1
70
0
62
4
6
Continuous
290
1
370
-3
390
0
0
LAYER
5
81
100
AcDbSymbolTableRecord
100
AcDbLayerTableRecord
2
4
70
0
62
-2
6
CENTER
290
1
370
-3
390
0
0
LAYER
5
CF
100
AcDbSymbolTableRecord
100
AcDbLayerTableRecord
2
2
70
0
62
7
6
Continuous
290
1
370
-3
390
0
0
LAYER
5
1B8
100
AcDbSymbolTableRecord
100
AcDbLayerTableRecord
2
Defpoints
70
0
62
7
6
Continuous
290
0
370
-3
390
0
0
LAYER
5
277
100
AcDbSymbolTableRecord
100
AcDbLayerTableRecord
2
SK4
70
0
62
2
6
CENTER
290
1
370
-3
390
0
0
LAYER
5
278
100
AcDbSymbolTableRecord
100
AcDbLayerTableRecord
2
SK1
70
0
62
4
6
Continuous
290
1
370
-3
390
0
0
LAYER
5
279
100
AcDbSymbolTableRecord
100
AcDbLayerTableRecord
2
SK2
70
0
62
7
6
Continuous
290
1
370
-3
390
0
0
LAYER
5
27a
100
AcDbSymbolTableRecord
100
AcDbLayerTableRecord
2
SK6
70
0
62
5
6
Continuous
290
1
370
-3
390
0
0
ENDTAB
0
TABLE
2
STYLE
5
28e
100
AcDbSymbolTable
0
STYLE
5
11
100
AcDbSymbolTableRecord
100
AcDbTextStyleTableRecord
2
Standard
3
txt
70
0
71
0
40
0
41
1
42
0
50
0
0
STYLE
5
193
100
AcDbSymbolTableRecord
100
AcDbTextStyleTableRecord
2
iso_b_vert
3
simplex.shx
70
0
71
0
40
0
41
1
42
0
50
0
0
STYLE
5
194
100
AcDbSymbolTableRecord
100
AcDbTextStyleTableRecord
2
DWGDirectTextStyle
3
simplex
70
0
71
0
40
0
41
1
42
0
50
0
0
ENDTAB
0
TABLE
2
DIMSTYLE
5
28f
100
AcDbSymbolTable
100
AcDbDimStyleTable
0
DIMSTYLE
105
27
100
AcDbSymbolTableRecord
100
AcDbDimStyleTableRecord
2
Standard
70
0
3
<>
41
0.18
42
0.0625
44
0.18
140
0.18
147
0.09
73
0
74
0
77
1
271
2
275
0
278
52
280
0
340
11
0
ENDTAB
0
TABLE
2
VIEW
5
290
100
AcDbSymbolTable
0
ENDTAB
0
TABLE
2
UCS
5
291
100
AcDbSymbolTable
0
ENDTAB
0
TABLE
2
APPID
5
292
100
AcDbSymbolTable
0
APPID
5
12
100
AcDbSymbolTableRecord
100
AcDbRegAppTableRecord
2
ACAD
70
0
0
APPID
5
1B4
100
AcDbSymbolTableRecord
100
AcDbRegAppTableRecord
2
ACAD_DSTYLE_DIMBREAK
70
0
0
APPID
5
236
100
AcDbSymbolTableRecord
100
AcDbRegAppTableRecord
2
ACAD_DSTYLE_DIM_LINETYPE
70
0
0
APPID
5
237
100
AcDbSymbolTableRecord
100
AcDbRegAppTableRecord
2
ACAD_DSTYLE_DIM_EXT1_LINETYPE
70
0
0
APPID
5
238
100
AcDbSymbolTableRecord
100
AcDbRegAppTableRecord
2
ACAD_DSTYLE_DIM_EXT2_LINETYPE
70
0
0
APPID
5
273
100
AcDbSymbolTableRecord
100
AcDbRegAppTableRecord
2
ACAD_MLEADERVER
70
0
0
ENDTAB
0
TABLE
2
BLOCK_RECORD
5
293
100
AcDbSymbolTable
0
BLOCK_RECORD
5
1F
100
AcDbSymbolTableRecord
100
AcDbBlockTableRecord
2
*Model_Space
340
0
70
0
0
BLOCK_RECORD
5
1B
100
AcDbSymbolTableRecord
100
AcDbBlockTableRecord
2
*Paper_Space
340
0
70
0
0
BLOCK_RECORD
5
23
100
AcDbSymbolTableRecord
100
AcDbBlockTableRecord
2
*Paper_Space0
340
0
70
0
0
BLOCK_RECORD
5
1B9
100
AcDbSymbolTableRecord
100
AcDbBlockTableRecord
2
*D1
340
0
70
0
0
BLOCK_RECORD
5
1C5
100
AcDbSymbolTableRecord
100
AcDbBlockTableRecord
2
_U0
340
0
70
0
0
BLOCK_RECORD
5
1D1
100
AcDbSymbolTableRecord
100
AcDbBlockTableRecord
2
*D3
340
0
70
0
0
BLOCK_RECORD
5
1DD
100
AcDbSymbolTableRecord
100
AcDbBlockTableRecord
2
_U1
340
0
70
0
0
BLOCK_RECORD
5
1E9
100
AcDbSymbolTableRecord
100
AcDbBlockTableRecord
2
*D5
340
0
70
0
0
BLOCK_RECORD
5
1F6
100
AcDbSymbolTableRecord
100
AcDbBlockTableRecord
2
_U2
340
0
70
0
0
BLOCK_RECORD
5
203
100
AcDbSymbolTableRecord
100
AcDbBlockTableRecord
2
*D7
340
0
70
0
0
BLOCK_RECORD
5
20F
100
AcDbSymbolTableRecord
100
AcDbBlockTableRecord
2
_U3
340
0
70
0
0
ENDTAB
0
ENDSEC
0
SECTION
2
BLOCKS
0
BLOCK
5
20
100
AcDbEntity
8
0
100
AcDbBlockBegin
2
*Model_Space
70
0
10
0
20
0
30
0
3
*Model_Space
0
ENDBLK
5
21
100
AcDbEntity
8
0
100
AcDbBlockEnd
0
BLOCK
5
1C
100
AcDbEntity
8
0
100
AcDbBlockBegin
2
*Paper_Space
70
0
10
0
20
0
30
0
3
*Paper_Space
0
ENDBLK
5
1D
100
AcDbEntity
8
0
100
AcDbBlockEnd
0
BLOCK
5
24
100
AcDbEntity
8
0
100
AcDbBlockBegin
2
*Paper_Space0
70
0
10
0
20
0
30
0
3
*Paper_Space0
0
ENDBLK
5
25
100
AcDbEntity
8
0
100
AcDbBlockEnd
0
BLOCK
5
1BA
100
AcDbEntity
8
0
100
AcDbBlockBegin
2
*D1
70
1
10
0
20
0
30
0
3
*D1
0
LINE
5
1BC
100
AcDbEntity
8
0
62
256
6
ByLayer
370
-2
48
1
60
0
100
AcDbLine
10
46.85
20
-9.525
30
0
11
46.85
21
-18.731615
31
0
39
0
210
0
220
0
230
1
0
LINE
5
1BD
100
AcDbEntity
8
0
62
256
6
ByLayer
370
-2
48
1
60
0
100
AcDbLine
10
13.51
20
-9.525
30
0
11
13.51
21
-18.731615
31
0
39
0
210
0
220
0
230
1
0
LINE
5
1BE
100
AcDbEntity
8
0
62
256
6
ByLayer
370
-2
48
1
60
0
100
AcDbLine
10
43.35
20
-16.731615
30
0
11
17.01
21
-16.731615
31
0
39
0
210
0
220
0
230
1
0
SOLID
5
1BF
100
AcDbEntity
8
0
62
256
6
ByLayer
370
-1
48
1
60
0
100
AcDbTrace
10
43.35
20
-17.314948
30
0
11
43.35
21
-16.148282
31
0
12
46.85
22
-16.731615
32
0
13
46.85
23
-16.731615
33
0
39
0
210
0
220
0
230
1
0
SOLID
5
1C0
100
AcDbEntity
8
0
62
256
6
ByLayer
370
-1
48
1
60
0
100
AcDbTrace
10
17.01
20
-16.148282
30
0
11
17.01
21
-17.314948
31
0
12
13.51
22
-16.731615
32
0
13
13.51
23
-16.731615
33
0
39
0
210
0
220
0
230
1
0
MTEXT
5
1C1
100
AcDbEntity
8
0
62
256
6
ByLayer
370
18
48
1
60
0
100
AcDbMText
10
30.18
20
-9.731615
30
0
210
0
220
0
230
1
1
\A1;33.34
40
3.5
41
0
44
1
50
0
71
5
72
5
7
iso_b_vert
0
POINT
5
1C2
100
AcDbEntity
8
Defpoints
62
0
6
ByLayer
370
-1
48
1
60
0
100
AcDbPoint
10
46.85
20
-7.9375
30
0
39
0
210
0
220
0
230
1
50
360
0
POINT
5
1C3
100
AcDbEntity
8
Defpoints
62
0
6
ByLayer
370
-1
48
1
60
0
100
AcDbPoint
10
13.51
20
-7.9375
30
0
39
0
210
0
220
0
230
1
50
360
0
POINT
5
1C4
100
AcDbEntity
8
Defpoints
62
0
6
ByLayer
370
-1
48
1
60
0
100
AcDbPoint
10
13.51
20
-16.731615
30
0
39
0
210
0
220
0
230
1
50
360
0
ENDBLK
5
1BB
100
AcDbEntity
8
0
100
AcDbBlockEnd
0
BLOCK
5
1CC
100
AcDbEntity
8
0
100
AcDbBlockBegin
2
_U0
70
0
10
0
20
0
30
0
3
_U0
0
MTEXT
5
1C6
100
AcDbEntity
8
SK2
62
256
6
ByLayer
370
18
48
1
60
0
100
AcDbMText
10
24.766301
20
-15.698982
30
0
210
0
220
0
230
1
1
\W0.7607;33.34
40
3.5
41
0
44
1.084337
50
0
71
7
72
5
7
iso_b_vert
0
LINE
5
1C7
100
AcDbEntity
8
SK2
62
256
6
ByLayer
370
13
48
1
60
0
100
AcDbLine
10
46.85
20
-9.525
30
0
11
46.85
21
-18.731615
31
0
39
0
210
0
220
0
230
1
0
LINE
5
1C8
100
AcDbEntity
8
SK2
62
256
6
ByLayer
370
13
48
1
60
0
100
AcDbLine
10
13.51
20
-9.525
30
0
11
13.51
21
-18.731615
31
0
39
0
210
0
220
0
230
1
0
LINE
5
1C9
100
AcDbEntity
8
SK2
62
256
6
ByLayer
370
13
48
1
60
0
100
AcDbLine
10
46.85
20
-16.731615
30
0
11
13.51
21
-16.731615
31
0
39
0
210
0
220
0
230
1
0
SOLID
5
1CA
100
AcDbEntity
8
SK2
62
256
6
ByLayer
370
18
48
1
60
0
100
AcDbTrace
10
46.85
20
-16.731615
30
0
11
43.350002
21
-17.192399
31
0
12
43.349998
22
-16.270831
32
0
13
43.349998
23
-16.270831
33
0
39
0
210
0
220
0
230
1
0
SOLID
5
1CB
100
AcDbEntity
8
SK2
62
256
6
ByLayer
370
18
48
1
60
0
100
AcDbTrace
10
13.51
20
-16.731615
30
0
11
17.009998
21
-16.270831
31
0
12
17.010002
22
-17.192399
32
0
13
17.010002
23
-17.192399
33
0
39
0
210
0
220
0
230
1
0
ENDBLK
5
1CD
100
AcDbEntity
8
0
100
AcDbBlockEnd
0
BLOCK
5
1D2
100
AcDbEntity
8
0
100
AcDbBlockBegin
2
*D3
70
1
10
0
20
0
30
0
3
*D3
0
LINE
5
1D4
100
AcDbEntity
8
0
62
256
6
ByLayer
370
-2
48
1
60
0
100
AcDbLine
10
46.85
20
-9.525
30
0
11
46.85
21
-31.731615
31
0
39
0
210
0
220
0
230
1
0
LINE
5
1D5
100
AcDbEntity
8
0
62
256
6
ByLayer
370
-2
48
1
60
0
100
AcDbLine
10
7.16
20
-9.525
30
0
11
7.16
21
-31.731615
31
0
39
0
210
0
220
0
230
1
0
LINE
5
1D6
100
AcDbEntity
8
0
62
256
6
ByLayer
370
-2
48
1
60
0
100
AcDbLine
10
43.35
20
-29.731615
30
0
11
10.66
21
-29.731615
31
0
39
0
210
0
220
0
230
1
0
SOLID
5
1D7
100
AcDbEntity
8
0
62
256
6
ByLayer
370
-1
48
1
60
0
100
AcDbTrace
10
43.35
20
-30.314948
30
0
11
43.35
21
-29.148282
31
0
12
46.85
22
-29.731615
32
0
13
46.85
23
-29.731615
33
0
39
0
210
0
220
0
230
1
0
SOLID
5
1D8
100
AcDbEntity
8
0
62
256
6
ByLayer
370
-1
48
1
60
0
100
AcDbTrace
10
10.66
20
-29.148282
30
0
11
10.66
21
-30.314948
31
0
12
7.16
22
-29.731615
32
0
13
7.16
23
-29.731615
33
0
39
0
210
0
220
0
230
1
0
MTEXT
5
1D9
100
AcDbEntity
8
0
62
256
6
ByLayer
370
18
48
1
60
0
100
AcDbMText
10
27.005
20
-22.731615
30
0
210
0
220
0
230
1
1
\A1;39.69
40
3.5
41
0
44
1
50
0
71
5
72
5
7
iso_b_vert
0
POINT
5
1DA
100
AcDbEntity
8
Defpoints
62
0
6
ByLayer
370
-1
48
1
60
0
100
AcDbPoint
10
46.85
20
-7.9375
30
0
39
0
210
0
220
0
230
1
50
360
0
POINT
5
1DB
100
AcDbEntity
8
Defpoints
62
0
6
ByLayer
370
-1
48
1
60
0
100
AcDbPoint
10
7.16
20
-7.9375
30
0
39
0
210
0
220
0
230
1
50
360
0
POINT
5
1DC
100
AcDbEntity
8
Defpoints
62
0
6
ByLayer
370
-1
48
1
60
0
100
AcDbPoint
10
7.16
20
-29.731615
30
0
39
0
210
0
220
0
230
1
50
360
0
ENDBLK
5
1D3
100
AcDbEntity
8
0
100
AcDbBlockEnd
0
BLOCK
5
1E4
100
AcDbEntity
8
0
100
AcDbBlockBegin
2
_U1
70
0
10
0
20
0
30
0
3
_U1
0
MTEXT
5
1DE
100
AcDbEntity
8
SK2
62
256
6
ByLayer
370
18
48
1
60
0
100
AcDbMText
10
21.775568
20
-28.698982
30
0
210
0
220
0
230
1
1
\W0.7555;39.69
40
3.5
41
0
44
1.084337
50
0
71
7
72
5
7
iso_b_vert
0
LINE
5
1DF
100
AcDbEntity
8
SK2
62
256
6
ByLayer
370
13
48
1
60
0
100
AcDbLine
10
46.85
20
-9.525
30
0
11
46.85
21
-31.731615
31
0
39
0
210
0
220
0
230
1
0
LINE
5
1E0
100
AcDbEntity
8
SK2
62
256
6
ByLayer
370
13
48
1
60
0
100
AcDbLine
10
7.16
20
-9.525
30
0
11
7.16
21
-31.731615
31
0
39
0
210
0
220
0
230
1
0
LINE
5
1E1
100
AcDbEntity
8
SK2
62
256
6
ByLayer
370
13
48
1
60
0
100
AcDbLine
10
46.85
20
-29.731615
30
0
11
7.16
21
-29.731615
31
0
39
0
210
0
220
0
230
1
0
SOLID
5
1E2
100
AcDbEntity
8
SK2
62
256
6
ByLayer
370
18
48
1
60
0
100
AcDbTrace
10
46.85
20
-29.731615
30
0
11
43.350002
21
-30.192399
31
0
12
43.349998
22
-29.270831
32
0
13
43.349998
23
-29.270831
33
0
39
0
210
0
220
0
230
1
0
SOLID
5
1E3
100
AcDbEntity
8
SK2
62
256
6
ByLayer
370
18
48
1
60
0
100
AcDbTrace
10
7.16
20
-29.731615
30
0
11
10.659998
21
-29.270831
31
0
12
10.660002
22
-30.192399
32
0
13
10.660002
23
-30.192399
33
0
39
0
210
0
220
0
230
1
0
ENDBLK
5
1E5
100
AcDbEntity
8
0
100
AcDbBlockEnd
0
BLOCK
5
1EA
100
AcDbEntity
8
0
100
AcDbBlockBegin
2
*D5
70
1
10
0
20
0
30
0
3
*D5
0
LINE
5
1EC
100
AcDbEntity
8
0
62
256
6
ByLayer
370
-2
48
1
60
0
100
AcDbLine
10
46.85
20
9.525
30
0
11
46.85
21
20.231615
31
0
39
0
210
0
220
0
230
1
0
LINE
5
1ED
100
AcDbEntity
8
0
62
256
6
ByLayer
370
-2
48
1
60
0
100
AcDbLine
10
30.975
20
9.525
30
0
11
30.975
21
20.231615
31
0
39
0
210
0
220
0
230
1
0
LINE
5
1EE
100
AcDbEntity
8
0
62
256
6
ByLayer
370
-2
48
1
60
0
100
AcDbLine
10
50.35
20
18.231615
30
0
11
53.85
21
18.231615
31
0
39
0
210
0
220
0
230
1
0
LINE
5
1EF
100
AcDbEntity
8
0
62
256
6
ByLayer
370
-2
48
1
60
0
100
AcDbLine
10
27.475
20
18.231615
30
0
11
23.975
21
18.231615
31
0
39
0
210
0
220
0
230
1
0
SOLID
5
1F0
100
AcDbEntity
8
0
62
256
6
ByLayer
370
-1
48
1
60
0
100
AcDbTrace
10
50.35
20
18.814948
30
0
11
50.35
21
17.648282
31
0
12
46.85
22
18.231615
32
0
13
46.85
23
18.231615
33
0
39
0
210
0
220
0
230
1
0
SOLID
5
1F1
100
AcDbEntity
8
0
62
256
6
ByLayer
370
-1
48
1
60
0
100
AcDbTrace
10
27.475
20
17.648282
30
0
11
27.475
21
18.814948
31
0
12
30.975
22
18.231615
32
0
13
30.975
23
18.231615
33
0
39
0
210
0
220
0
230
1
0
MTEXT
5
1F2
100
AcDbEntity
8
0
62
256
6
ByLayer
370
18
48
1
60
0
100
AcDbMText
10
38.9125
20
25.231615
30
0
210
0
220
0
230
1
1
\A1;15.88
40
3.5
41
0
44
1
50
0
71
5
72
5
7
iso_b_vert
0
POINT
5
1F3
100
AcDbEntity
8
Defpoints
62
0
6
ByLayer
370
-1
48
1
60
0
100
AcDbPoint
10
46.85
20
7.9375
30
0
39
0
210
0
220
0
230
1
50
360
0
POINT
5
1F4
100
AcDbEntity
8
Defpoints
62
0
6
ByLayer
370
-1
48
1
60
0
100
AcDbPoint
10
30.975
20
7.9375
30
0
39
0
210
0
220
0
230
1
50
360
0
POINT
5
1F5
100
AcDbEntity
8
Defpoints
62
0
6
ByLayer
370
-1
48
1
60
0
100
AcDbPoint
10
30.975
20
18.231615
30
0
39
0
210
0
220
0
230
1
50
360
0
ENDBLK
5
1EB
100
AcDbEntity
8
0
100
AcDbBlockEnd
0
BLOCK
5
1FE
100
AcDbEntity
8
0
100
AcDbBlockBegin
2
_U2
70
0
10
0
20
0
30
0
3
_U2
0
MTEXT
5
1F7
100
AcDbEntity
8
SK2
62
256
6
ByLayer
370
18
48
1
60
0
100
AcDbMText
10
26.425735
20
19.264249
30
0
210
0
220
0
230
1
1
\W0.6864;15.88
40
3.5
41
0
44
1.084337
50
0
71
7
72
5
7
iso_b_vert
0
MTEXT
5
1F8
100
AcDbEntity
8
SK2
62
256
6
ByLayer
370
18
48
1
60
0
100
AcDbMText
10
39.880733
20
19.264249
30
0
210
0
220
0
230
1
1
\W0.7739;\W0.3870;%%p\W0.7739;1.59
40
3.5
41
0
44
1.084337
50
0
71
7
72
5
7
iso_b_vert
0
LINE
5
1F9
100
AcDbEntity
8
SK2
62
256
6
ByLayer
370
13
48
1
60
0
100
AcDbLine
10
46.85
20
9.525
30
0
11
46.85
21
20.231615
31
0
39
0
210
0
220
0
230
1
0
LINE
5
1FA
100
AcDbEntity
8
SK2
62
256
6
ByLayer
370
13
48
1
60
0
100
AcDbLine
10
30.975
20
9.525
30
0
11
30.975
21
20.231615
31
0
39
0
210
0
220
0
230
1
0
LINE
5
1FB
100
AcDbEntity
8
SK2
62
256
6
ByLayer
370
13
48
1
60
0
100
AcDbLine
10
26.240235
20
18.231615
30
0
11
51.584765
21
18.231615
31
0
39
0
210
0
220
0
230
1
0
SOLID
5
1FC
100
AcDbEntity
8
SK2
62
256
6
ByLayer
370
18
48
1
60
0
100
AcDbTrace
10
46.85
20
18.231615
30
0
11
43.350002
21
17.770831
31
0
12
43.349998
22
18.692399
32
0
13
43.349998
23
18.692399
33
0
39
0
210
0
220
0
230
1
0
SOLID
5
1FD
100
AcDbEntity
8
SK2
62
256
6
ByLayer
370
18
48
1
60
0
100
AcDbTrace
10
30.975
20
18.231615
30
0
11
34.474998
21
18.692399
31
0
12
34.475002
22
17.770831
32
0
13
34.475002
23
17.770831
33
0
39
0
210
0
220
0
230
1
0
ENDBLK
5
1FF
100
AcDbEntity
8
0
100
AcDbBlockEnd
0
BLOCK
5
204
100
AcDbEntity
8
0
100
AcDbBlockBegin
2
*D7
70
1
10
0
20
0
30
0
3
*D7
0
LINE
5
206
100
AcDbEntity
8
0
62
256
6
ByLayer
370
-2
48
1
60
0
100
AcDbLine
10
-48.4
20
-9.525
30
0
11
-48.4
21
-43.731615
31
0
39
0
210
0
220
0
230
1
0
LINE
5
207
100
AcDbEntity
8
0
62
256
6
ByLayer
370
-2
48
1
60
0
100
AcDbLine
10
46.85
20
-9.525
30
0
11
46.85
21
-43.731615
31
0
39
0
210
0
220
0
230
1
0
LINE
5
208
100
AcDbEntity
8
0
62
256
6
ByLayer
370
-2
48
1
60
0
100
AcDbLine
10
-44.9
20
-41.731615
30
0
11
43.35
21
-41.731615
31
0
39
0
210
0
220
0
230
1
0
SOLID
5
209
100
AcDbEntity
8
0
62
256
6
ByLayer
370
-1
48
1
60
0
100
AcDbTrace
10
-44.9
20
-41.148282
30
0
11
-44.9
21
-42.314948
31
0
12
-48.4
22
-41.731615
32
0
13
-48.4
23
-41.731615
33
0
39
0
210
0
220
0
230
1
0
SOLID
5
20A
100
AcDbEntity
8
0
62
256
6
ByLayer
370
-1
48
1
60
0
100
AcDbTrace
10
43.35
20
-42.314948
30
0
11
43.35
21
-41.148282
31
0
12
46.85
22
-41.731615
32
0
13
46.85
23
-41.731615
33
0
39
0
210
0
220
0
230
1
0
MTEXT
5
20B
100
AcDbEntity
8
0
62
256
6
ByLayer
370
18
48
1
60
0
100
AcDbMText
10
-0.775
20
-34.731615
30
0
210
0
220
0
230
1
1
\A1;95.25
40
3.5
41
0
44
1
50
0
71
5
72
5
7
iso_b_vert
0
POINT
5
20C
100
AcDbEntity
8
Defpoints
62
0
6
ByLayer
370
-1
48
1
60
0
100
AcDbPoint
10
-48.4
20
-7.9375
30
0
39
0
210
0
220
0
230
1
50
360
0
POINT
5
20D
100
AcDbEntity
8
Defpoints
62
0
6
ByLayer
370
-1
48
1
60
0
100
AcDbPoint
10
46.85
20
-7.9375
30
0
39
0
210
0
220
0
230
1
50
360
0
POINT
5
20E
100
AcDbEntity
8
Defpoints
62
0
6
ByLayer
370
-1
48
1
60
0
100
AcDbPoint
10
46.85
20
-41.731615
30
0
39
0
210
0
220
0
230
1
50
360
0
ENDBLK
5
205
100
AcDbEntity
8
0
100
AcDbBlockEnd
0
BLOCK
5
216
100
AcDbEntity
8
0
100
AcDbBlockBegin
2
_U3
70
0
10
0
20
0
30
0
3
_U3
0
MTEXT
5
210
100
AcDbEntity
8
2
62
256
6
ByLayer
370
18
48
1
60
0
100
AcDbMText
10
-6.004432
20
-40.698982
30
0
210
0
220
0
230
1
1
\W0.7468;95.25
40
3.5
41
0
44
1.084337
50
0
71
7
72
5
7
iso_b_vert
0
LINE
5
211
100
AcDbEntity
8
2
62
256
6
ByLayer
370
13
48
1
60
0
100
AcDbLine
10
-48.4
20
-9.525
30
0
11
-48.4
21
-43.731615
31
0
39
0
210
0
220
0
230
1
0
LINE
5
212
100
AcDbEntity
8
2
62
256
6
ByLayer
370
13
48
1
60
0
100
AcDbLine
10
46.85
20
-9.525
30
0
11
46.85
21
-43.731615
31
0
39
0
210
0
220
0
230
1
0
LINE
5
213
100
AcDbEntity
8
2
62
256
6
ByLayer
370
13
48
1
60
0
100
AcDbLine
10
-48.4
20
-41.731615
30
0
11
46.85
21
-41.731615
31
0
39
0
210
0
220
0
230
1
0
SOLID
5
214
100
AcDbEntity
8
2
62
256
6
ByLayer
370
18
48
1
60
0
100
AcDbTrace
10
-48.4
20
-41.731615
30
0
11
-44.900002
21
-41.270831
31
0
12
-44.899998
22
-42.192399
32
0
13
-44.899998
23
-42.192399
33
0
39
0
210
0
220
0
230
1
0
SOLID
5
215
100
AcDbEntity
8
2
62
256
6
ByLayer
370
18
48
1
60
0
100
AcDbTrace
10
46.85
20
-41.731615
30
0
11
43.350002
21
-42.192399
31
0
12
43.349998
22
-41.270831
32
0
13
43.349998
23
-41.270831
33
0
39
0
210
0
220
0
230
1
0
ENDBLK
5
217
100
AcDbEntity
8
0
100
AcDbBlockEnd
0
ENDSEC
0
SECTION
2
ENTITIES
0
ARC
5
D8
100
AcDbEntity
8
1
62
256
6
ByLayer
370
18
48
1
60
0
100
AcDbCircle
39
0
10
12.285611
20
-9.54
30
0
40
2
210
0
220
0
230
1
100
AcDbArc
50
60
51
73.474687
0
ARC
5
D9
100
AcDbEntity
8
1
62
256
6
ByLayer
370
18
48
1
60
0
100
AcDbCircle
39
0
10
7.155358
20
9.54
30
0
40
2
210
0
220
0
230
1
100
AcDbArc
50
240
51
270
0
ARC
5
DA
100
AcDbEntity
8
1
62
256
6
ByLayer
370
18
48
1
60
0
100
AcDbCircle
39
0
10
7.155358
20
-9.54
30
0
40
2
210
0
220
0
230
1
100
AcDbArc
50
90
51
120
0
ELLIPSE
5
DB
100
AcDbEntity
8
1
62
256
6
ByLayer
370
18
48
1
60
0
100
AcDbEllipse
10
46.003228
20
0.36093
30
0
11
0.225593215971392
21
0.838481451760027
31
0
210
0
220
0
230
1
40
0.506867
41
3.0379553957606
42
-2.86758379664593
0
ELLIPSE
5
DC
100
AcDbEntity
8
1
62
256
6
ByLayer
370
18
48
1
60
0
100
AcDbEllipse
10
45.303933
20
0
30
0
11
0.737938622549534
21
1.20855407808945
31
0
210
0
220
0
230
1
40
0.432574
41
-2.1241421455063
42
-1.69047528470749
0
ELLIPSE
5
DD
100
AcDbEntity
8
1
62
256
6
ByLayer
370
18
48
1
60
0
100
AcDbEllipse
10
45.986718
20
-1.004812
30
0
11
0.334335286106686
21
-0.949218468894626
31
0
210
0
220
0
230
1
40
0.354386
41
-1.55275012736586
42
-1.08929125385898
0
ELLIPSE
5
DE
100
AcDbEntity
8
1
62
256
6
ByLayer
370
18
48
1
60
0
100
AcDbEllipse
10
45.303933
20
0
30
0
11
0.786754884496184
21
-1.21625745667561
31
0
210
0
220
0
230
1
40
0.366664
41
-1.26024448903293
42
-0.654750951327263
0
POINT
5
70
100
AcDbEntity
8
81
62
256
6
ByLayer
370
18
48
1
60
0
100
AcDbPoint
10
46.85
20
0
30
0
39
0
210
0
220
0
230
1
50
360
0
POINT
5
72
100
AcDbEntity
8
80
62
256
6
ByLayer
370
18
48
1
60
0
100
AcDbPoint
10
0
20
0
30
0
39
0
210
0
220
0
230
1
50
360
0
POINT
5
74
100
AcDbEntity
8
81
62
256
6
ByLayer
370
18
48
1
60
0
100
AcDbPoint
10
-48.4
20
0
30
0
39
0
210
0
220
0
230
1
50
360
0
POINT
5
75
100
AcDbEntity
8
81
62
256
6
ByLayer
370
18
48
1
60
0
100
AcDbPoint
10
46.85
20
0
30
0
39
0
210
0
220
0
230
1
50
360
0
POINT
5
76
100
AcDbEntity
8
1
62
256
6
ByLayer
370
18
48
1
60
1
100
AcDbPoint
10
46.85
20
-7.9375
30
0
39
0
210
0
220
0
230
1
50
360
0
POINT
5
78
100
AcDbEntity
8
1
62
256
6
ByLayer
370
18
48
1
60
1
100
AcDbPoint
10
13.51
20
-7.9375
30
0
39
0
210
0
220
0
230
1
50
360
0
POINT
5
79
100
AcDbEntity
8
1
62
256
6
ByLayer
370
18
48
1
60
1
100
AcDbPoint
10
46.85
20
-7.9375
30
0
39
0
210
0
220
0
230
1
50
360
0
POINT
5
7A
100
AcDbEntity
8
1
62
256
6
ByLayer
370
18
48
1
60
1
100
AcDbPoint
10
7.16
20
-7.9375
30
0
39
0
210
0
220
0
230
1
50
360
0
POINT
5
7B
100
AcDbEntity
8
1
62
256
6
ByLayer
370
18
48
1
60
1
100
AcDbPoint
10
46.85
20
7.9375
30
0
39
0
210
0
220
0
230
1
50
360
0
POINT
5
7C
100
AcDbEntity
8
1
62
256
6
ByLayer
370
18
48
1
60
1
100
AcDbPoint
10
30.975
20
7.9375
30
0
39
0
210
0
220
0
230
1
50
360
0
POINT
5
7D
100
AcDbEntity
8
1
62
256
6
ByLayer
370
18
48
1
60
1
100
AcDbPoint
10
-48.4
20
-7.9375
30
0
39
0
210
0
220
0
230
1
50
360
0
POINT
5
7E
100
AcDbEntity
8
1
62
256
6
ByLayer
370
18
48
1
60
1
100
AcDbPoint
10
46.85
20
-7.9375
30
0
39
0
210
0
220
0
230
1
50
360
0
SPLINE
5
DF
100
AcDbEntity
8
1
62
256
6
ByLayer
370
18
48
1
60
0
100
AcDbSpline
70
4
71
3
72
24
73
20
40
0
40
0
40
0
40
0
40
0.082653162546975
40
0.082653162546975
40
0.16530632509395
40
0.16530632509395
40
0.330612650187906
40
0.330612650187906
40
0.413265812734885
40
0.413265812734885
40
0.495918975281863
40
0.495918975281863
40
0.661225300375821
40
0.661225300375821
40
0.826531625469778
40
0.826531625469778
40
0.991837950563735
40
0.991837950563735
40
1
40
1
40
1
40
1
41
1
10
46.6597583257806
20
-1.27534912054344
30
0
41
1
10
46.6533048175936
20
-1.2995773952176
30
0
41
1
10
46.6464688152444
20
-1.32496772429977
30
0
41
1
10
46.6321857052625
20
-1.37760497966104
30
0
41
1
10
46.6247377886807
20
-1.40485436360663
30
0
41
1
10
46.6016349504247
20
-1.48890870005087
30
0
41
1
10
46.5852289871082
20
-1.54799538999319
30
0
41
1
10
46.5595197576204
20
-1.63996819610665
30
0
41
1
10
46.5507469196848
20
-1.67125165213525
30
0
41
1
10
46.5329759638872
20
-1.73445103732414
30
0
41
1
10
46.5239787563348
20
-1.76636418406989
30
0
41
1
10
46.496698044698
20
-1.86291465466243
30
0
41
1
10
46.4781276208165
20
-1.92835692328953
30
0
41
1
10
46.4403911916469
20
-2.06091234609815
30
0
41
1
10
46.4212240350308
20
-2.1280287302956
30
0
41
1
10
46.3824041285864
20
-2.26362381570539
30
0
41
1
10
46.3627327507618
20
-2.33216671743651
30
0
41
1
10
46.3419582673539
20
-2.40440880919098
30
0
41
1
10
46.3409804439253
20
-2.40780880555707
30
0
41
1
10
46.3400022821833
20
-2.41120965124784
30
0
0
SPLINE
5
E0
100
AcDbEntity
8
1
62
256
6
ByLayer
370
18
48
1
60
0
100
AcDbSpline
70
4
71
3
72
8
73
4
40
0
40
0
40
0
40
0
40
1
40
1
40
1
40
1
41
1
10
46.7865671400273
20
-0.242380209979473
30
0
41
1
10
46.7873665492353
20
-0.243955119275114
30
0
41
1
10
46.7881221036612
20
-0.245884232511543
30
0
41
1
10
46.7888343232449
20
-0.248163350266878
30
0
0
SPLINE
5
E1
100
AcDbEntity
8
1
62
256
6
ByLayer
370
18
48
1
60
0
100
AcDbSpline
70
4
71
3
72
8
73
4
40
0
40
0
40
0
40
0
40
1
40
1
40
1
40
1
41
1
10
46.7888343232443
20
-0.248163350267788
30
0
41
1
10
46.7458123159905
20
-0.59058832073859
30
0
41
1
10
46.7027868043086
20
-0.932981976248044
30
0
41
1
10
46.6597583257807
20
-1.27534912054332
30
0
0
SPLINE
5
E2
100
AcDbEntity
8
1
62
256
6
ByLayer
370
18
48
1
60
0
100
AcDbSpline
70
4
71
3
72
8
73
4
40
0
40
0
40
0
40
0
40
1
40
1
40
1
40
1
41
1
10
46.7865671400272
20
-0.242380209979501
30
0
41
1
10
46.7690933150065
20
-0.246671815976555
30
0
41
1
10
46.7518447791363
20
-0.250910496800202
30
0
41
1
10
46.7348889257557
20
-0.255080420333627
30
0
0
SPLINE
5
E3
100
AcDbEntity
8
1
62
256
6
ByLayer
370
18
48
1
60
0
100
AcDbSpline
70
4
71
3
72
28
73
24
40
0
40
0
40
0
40
0
40
0.0156249999999987
40
0.0156249999999987
40
0.0312499999999974
40
0.0312499999999974
40
0.0624999999999945
40
0.0624999999999945
40
0.0937499999999915
40
0.0937499999999915
40
0.124999999999989
40
0.124999999999989
40
0.187499999999985
40
0.187499999999985
40
0.24999999999998
40
0.24999999999998
40
0.374999999999972
40
0.374999999999972
40
0.499999999999964
40
0.499999999999964
40
0.749999999999982
40
0.749999999999982
40
1
40
1
40
1
40
1
41
1
10
46.7348889953175
20
-0.255080400526282
30
0
41
1
10
46.7320102671654
20
-0.255788361137661
30
0
41
1
10
46.7287320438223
20
-0.25658969836627
30
0
41
1
10
46.7212290101253
20
-0.258412538149145
30
0
41
1
10
46.7171892559198
20
-0.259389020187342
30
0
41
1
10
46.7045700436029
20
-0.262427360052612
30
0
41
1
10
46.696106496082
20
-0.26445057881287
30
0
41
1
10
46.6801642545171
20
-0.26825053607422
30
0
41
1
10
46.6724881864876
20
-0.270074197785334
30
0
41
1
10
46.6577091772459
20
-0.273579885854644
30
0
41
1
10
46.6505983537235
20
-0.275263675697602
30
0
41
1
10
46.6297002623905
20
-0.280207410704094
30
0
41
1
10
46.6163388714038
20
-0.283361828148998
30
0
41
1
10
46.590028229569
20
-0.28956853913121
30
0
41
1
10
46.5770951396344
20
-0.292616764404443
30
0
41
1
10
46.5386435644589
20
-0.30167588642027
30
0
41
1
10
46.5134468100001
20
-0.307607489419269
30
0
41
1
10
46.4631666491945
20
-0.319442771649903
30
0
41
1
10
46.4381048267627
20
-0.325341133596396
30
0
41
1
10
46.3627464251006
20
-0.343078822519118
30
0
41
1
10
46.3122674387797
20
-0.354963086222426
30
0
41
1
10
46.2101245046495
20
-0.37902353370086
30
0
41
1
10
46.1584954154607
20
-0.391191314014634
30
0
41
1
10
46.1063400639177
20
-0.403489458546403
30
0
0
SPLINE
5
E4
100
AcDbEntity
8
1
62
256
6
ByLayer
370
18
48
1
60
0
100
AcDbSpline
70
4
71
3
72
8
73
4
40
0
40
0
40
0
40
0
40
1
40
1
40
1
40
1
41
1
10
46.7865671400275
20
5.70063536931406
30
0
41
1
10
46.7873665483652
20
5.7393756367031
30
0
41
1
10
46.7881221028892
20
5.77808505289215
30
0
41
1
10
46.7888343232452
20
5.81676398345246
30
0
0
SPLINE
5
E5
100
AcDbEntity
8
1
62
256
6
ByLayer
370
13
48
1
60
0
100
AcDbSpline
70
4
71
3
72
26
73
22
40
0
40
0
40
0
40
0
40
0.0664751973553134
40
0.170650697781956
40
0.273912391809025
40
0.325886409580648
40
0.413642565088134
40
0.448739554919003
40
0.483107046220011
40
0.499859595228028
40
0.516232756960741
40
0.532151808126735
40
0.548067308051798
40
0.581166103686549
40
0.65054191269327
40
0.68579347466188
40
0.738233895205256
40
0.841824637075672
40
0.89350291011858
40
0.99770526691612
40
1
40
1
40
1
40
1
41
1
10
46.7348889944468
20
5.64405104177251
30
0
41
1
10
46.7061546750493
20
5.71116578312663
30
0
41
1
10
46.6300808311077
20
5.87769044147649
30
0
41
1
10
46.4911712377609
20
6.13774468005613
30
0
41
1
10
46.3425709797747
20
6.36855166575597
30
0
41
1
10
46.1950253019947
20
6.56839348108957
30
0
41
1
10
46.0850617191
20
6.70016338208566
30
0
41
1
10
45.9827026318001
20
6.81016785445607
30
0
41
1
10
45.9239653402561
20
6.86940904704394
30
0
41
1
10
45.8761610023889
20
6.91523249451362
30
0
41
1
10
45.8403749983464
20
6.94841989928571
30
0
41
1
10
45.8035308278305
20
6.98141230827056
30
0
41
1
10
45.753652605196
20
7.02452475448914
30
0
41
1
10
45.6660139695939
20
7.09613947669553
30
0
41
1
10
45.5671810767103
20
7.16820392504428
30
0
41
1
10
45.4537951349566
20
7.24151233079141
30
0
41
1
10
45.3125440737539
20
7.32317414856931
30
0
41
1
10
45.1544012387386
20
7.39551442721941
30
0
41
1
10
44.9557004314292
20
7.46275830433524
30
0
41
1
10
44.8351140190025
20
7.48927164044483
30
0
41
1
10
44.7553480563782
20
7.50054668632038
30
0
41
1
10
44.7536299211143
20
7.50078658526854
30
0
0
SPLINE
5
E6
100
AcDbEntity
8
1
62
256
6
ByLayer
370
18
48
1
60
0
100
AcDbSpline
70
4
71
3
72
41
73
37
40
0
40
0
40
0
40
0
40
0.125000000000024
40
0.125000000000024
40
0.187500000000031
40
0.187500000000031
40
0.218750000000034
40
0.218750000000034
40
0.250000000000038
40
0.250000000000038
40
0.312500000000045
40
0.312500000000045
40
0.343750000000044
40
0.343750000000044
40
0.375000000000042
40
0.375000000000042
40
0.406250000000041
40
0.406250000000041
40
0.43750000000004
40
0.43750000000004
40
0.500000000000038
40
0.500000000000038
40
0.562500000000036
40
0.562500000000036
40
0.625000000000034
40
0.625000000000034
40
0.687500000000033
40
0.687500000000033
40
0.718750000000029
40
0.718750000000029
40
0.750000000000025
40
0.812500000000019
40
0.812500000000019
40
0.875000000000013
40
0.875000000000013
40
1
40
1
40
1
40
1
41
1
10
45.4491699855936
20
7.68582338139618
30
0
41
1
10
45.5386108480201
20
7.67185585512365
30
0
41
1
10
45.6246093460468
20
7.64662621478698
30
0
41
1
10
45.7493830360341
20
7.59364999930347
30
0
41
1
10
45.790259736501
20
7.57344671005708
30
0
41
1
10
45.8505409855069
20
7.5393942778017
30
0
41
1
10
45.8704969853799
20
7.52739449386596
30
0
41
1
10
45.9098809029458
20
7.50225972105409
30
0
41
1
10
45.9293025574584
20
7.48913197019812
30
0
41
1
10
45.9867818017228
20
7.44810467112708
30
0
41
1
10
46.0240505658276
20
7.41857528652497
30
0
41
1
10
46.0784741046509
20
7.37103184597771
30
0
41
1
10
46.0963509035535
20
7.35465522504174
30
0
41
1
10
46.1314788612502
20
7.32096019720348
30
0
41
1
10
46.1487461718084
20
7.30362858258857
30
0
41
1
10
46.1826992423328
20
7.26801480187578
30
0
41
1
10
46.1993839683027
20
7.24973566015774
30
0
41
1
10
46.2321780887487
20
7.21224773282484
30
0
41
1
10
46.2483035679074
20
7.19301785664314
30
0
41
1
10
46.2956963043832
20
7.13411066073988
30
0
41
1
10
46.3259606799493
20
7.09325717819675
30
0
41
1
10
46.3839405922774
20
7.00848356503528
30
0
41
1
10
46.4116556268441
20
6.96456448601975
30
0
41
1
10
46.4645904168464
20
6.87369169726136
30
0
41
1
10
46.4896773336563
20
6.82696141701075
30
0
41
1
10
46.5370935408316
20
6.73116008686924
30
0
41
1
10
46.5594386423693
20
6.68206241054358
30
0
41
1
10
46.5909467214745
20
6.60664271223948
30
0
41
1
10
46.6011203371217
20
6.58118850592953
30
0
41
1
10
46.6207267679392
20
6.52988376467368
30
0
41
1
10
46.6490506865037
20
6.45227316619454
30
0
41
1
10
46.6741712154745
20
6.37273647724945
30
0
41
1
10
46.704861856091
20
6.26499932883519
30
0
41
1
10
46.7188266985615
20
6.21017782810941
30
0
41
1
10
46.7562931062797
20
6.04420332031438
30
0
41
1
10
46.7754422043863
20
5.93149610288879
30
0
41
1
10
46.7888343232451
20
5.81676398345243
30
0
0
SPLINE
5
E7
100
AcDbEntity
8
1
62
256
6
ByLayer
370
18
48
1
60
0
100
AcDbSpline
70
4
71
3
72
8
73
4
40
0
40
0
40
0
40
0
40
1
40
1
40
1
40
1
41
1
10
46.7865671400277
20
5.70063536931391
30
0
41
1
10
46.7690932411958
20
5.68201469196777
30
0
41
1
10
46.7518447010081
20
5.66317509923968
30
0
41
1
10
46.7348889257187
20
5.6440511120978
30
0
0
SPLINE
5
E8
100
AcDbEntity
8
1
62
256
6
ByLayer
370
18
48
1
60
0
100
AcDbSpline
70
4
71
3
72
28
73
24
40
0
40
0
40
0
40
0
40
0.0156250000000164
40
0.0156250000000164
40
0.0312500000000329
40
0.0312500000000329
40
0.0625000000000182
40
0.0625000000000182
40
0.0937500000000036
40
0.0937500000000036
40
0.124999999999989
40
0.124999999999989
40
0.187500000000001
40
0.187500000000001
40
0.250000000000013
40
0.250000000000013
40
0.374999999999999
40
0.374999999999999
40
0.499999999999985
40
0.499999999999985
40
0.749999999999993
40
0.749999999999993
40
1
40
1
40
1
40
1
41
1
10
46.7348889953174
20
5.6440510414306
30
0
41
1
10
46.7320101976061
20
5.64080411815675
30
0
41
1
10
46.7287318750148
20
5.63803647241988
30
0
41
1
10
46.721228635041
20
5.63384126386021
30
0
41
1
10
46.7171887462173
20
5.63252958776232
30
0
41
1
10
46.7045692334883
20
5.63071269242383
30
0
41
1
10
46.6961054982827
20
5.63227143297161
30
0
41
1
10
46.6801629410323
20
5.63731561658162
30
0
41
1
10
46.6724867159811
20
5.64088687722284
30
0
41
1
10
46.6577074337944
20
5.64880690018626
30
0
41
1
10
46.6505964724631
20
5.65318016925977
30
0
41
1
10
46.6296979653586
20
5.66694411922634
30
0
41
1
10
46.6163362939094
20
5.67696633431015
30
0
41
1
10
46.5900250853383
20
5.69762192345618
30
0
41
1
10
46.5770917092803
20
5.70829142682155
30
0
41
1
10
46.5386392758418
20
5.74070082223918
30
0
41
1
10
46.5134419372493
20
5.7628362112294
30
0
41
1
10
46.4631605876034
20
5.80724401421679
30
0
41
1
10
46.4380981594949
20
5.82954252428206
30
0
41
1
10
46.3627379088737
20
5.89622891989279
30
0
41
1
10
46.3122576475223
20
5.94039621754436
30
0
41
1
10
46.210112083032
20
6.02729797171776
30
0
41
1
10
46.1584816568401
20
6.07003945136188
30
0
41
1
10
46.1063249410504
20
6.1120077385531
30
0
0
SPLINE
5
E9
100
AcDbEntity
8
1
62
256
6
ByLayer
370
18
48
1
60
0
100
AcDbSpline
70
4
71
3
72
8
73
4
40
0
40
0
40
0
40
0
40
1
40
1
40
1
40
1
41
1
10
13.51
20
7.89798293204862
30
0
41
1
10
13.4353650765353
20
7.86416327959765
30
0
41
1
10
13.3605918008433
20
7.82861842682607
30
0
41
1
10
13.2856114191291
20
7.79132296494231
30
0
0
SPLINE
5
EA
100
AcDbEntity
8
1
62
256
6
ByLayer
370
18
48
1
60
0
100
AcDbSpline
70
4
71
3
72
14
73
10
40
0
40
0
40
0
40
0
40
0.25
40
0.25
40
0.5
40
0.5
40
0.75
40
0.75
40
1
40
1
40
1
40
1
41
1
10
13.2856114191291
20
7.79132296494231
30
0
41
1
10
13.2083959924348
20
7.75291578512704
30
0
41
1
10
13.129349639723
20
7.71860893643162
30
0
41
1
10
12.9681018266855
20
7.65752699837361
30
0
41
1
10
12.8858985067434
20
7.63075619362161
30
0
41
1
10
12.7187348103287
20
7.5845695778805
30
0
41
1
10
12.6337733289601
20
7.56515482288393
30
0
41
1
10
12.4614313353531
20
7.53390322012126
30
0
41
1
10
12.3740501115706
20
7.52206481966226
30
0
41
1
10
12.285611419129
20
7.51433093943794
30
0
0
SPLINE
5
EB
100
AcDbEntity
8
1
62
256
6
ByLayer
370
18
48
1
60
0
100
AcDbSpline
70
4
71
3
72
8
73
4
40
0
40
0
40
0
40
0
40
1
40
1
40
1
40
1
41
1
10
12.2856114191291
20
7.51433093943797
30
0
41
1
10
12.2067922106631
20
7.50743827401269
30
0
41
1
10
12.1278946394856
20
7.49916759594086
30
0
41
1
10
12.048855440649
20
7.48953513634089
30
0
0
SPLINE
5
EC
100
AcDbEntity
8
1
62
256
6
ByLayer
370
18
48
1
60
0
100
AcDbSpline
70
4
71
3
72
28
73
24
40
0
40
0
40
0
40
0
40
0.223482410944857
40
0.223482410944857
40
0.335223616417307
40
0.335223616417307
40
0.391094219153553
40
0.391094219153553
40
0.446964821889799
40
0.446964821889799
40
0.558706027362291
40
0.558706027362291
40
0.670447232834783
40
0.670447232834783
40
0.726317835571029
40
0.726317835571029
40
0.782188438307275
40
0.782188438307275
40
0.893929643779767
40
0.893929643779767
40
0.949800246516025
40
0.949800246516025
40
1
40
1
40
1
40
1
41
1
10
45.7348781601068
20
-0.461223294265949
30
0
41
1
10
45.6660070044719
20
-0.455092548982151
30
0
41
1
10
45.5987997099017
20
-0.442794651932076
30
0
41
1
10
45.5003078056931
20
-0.41544970229242
30
0
41
1
10
45.4678682198583
20
-0.404832254252312
30
0
41
1
10
45.4198183332415
20
-0.386500405936744
30
0
41
1
10
45.4038966544889
20
-0.379981431147144
30
0
41
1
10
45.3725835718727
20
-0.3662431820959
30
0
41
1
10
45.3571517063238
20
-0.359009402510679
30
0
41
1
10
45.3115393627583
20
-0.336184918544063
30
0
41
1
10
45.2820380543009
20
-0.319478342306667
30
0
41
1
10
45.2249868399683
20
-0.282774062590278
30
0
41
1
10
45.1974346303489
20
-0.262780786074188
30
0
41
1
10
45.1577888327665
20
-0.22988090969281
30
0
41
1
10
45.1448850744568
20
-0.218444697748083
30
0
41
1
10
45.120046260312
20
-0.194848793602773
30
0
41
1
10
45.1080676218898
20
-0.182654022098518
30
0
41
1
10
45.0735298127398
20
-0.144801769390057
30
0
41
1
10
45.0523557306508
20
-0.117888591525826
30
0
41
1
10
45.0238655917997
20
-0.0745128816671468
30
0
41
1
10
45.0149366930982
20
-0.0595618045349227
30
0
41
1
10
44.9994346349951
20
-0.0307307097031071
30
0
41
1
10
44.9926756314431
20
-0.0168398304378741
30
0
41
1
10
44.9865125480375
20
-0.0026951703346754
30
0
0
SPLINE
5
ED
100
AcDbEntity
8
1
62
256
6
ByLayer
370
18
48
1
60
0
100
AcDbSpline
70
4
71
3
72
8
73
4
40
0
40
0
40
0
40
0
40
1
40
1
40
1
40
1
41
1
10
46.7865671400272
20
-5.70063536931437
30
0
41
1
10
46.7873665483648
20
-5.73937563670398
30
0
41
1
10
46.7881221028889
20
-5.77808505289354
30
0
41
1
10
46.7888343232448
20
-5.81676398345439
30
0
0
SPLINE
5
EE
100
AcDbEntity
8
1
62
256
6
ByLayer
370
18
48
1
60
0
100
AcDbSpline
70
4
71
3
72
22
73
18
40
0
40
0
40
0
40
0
40
0.206435626653507
40
0.206435626653507
40
0.412871253307015
40
0.412871253307015
40
0.516089066633768
40
0.516089066633768
40
0.619306879960522
40
0.619306879960522
40
0.825742506614025
40
0.825742506614025
40
0.928960319940779
40
0.928960319940779
40
0.980569226604156
40
0.980569226604156
40
1
40
1
40
1
40
1
41
1
10
12.0488554406489
20
7.48953513634089
30
0
41
1
10
11.8774732836489
20
7.4686448508796
30
0
41
1
10
11.7051514533527
20
7.44143565310389
30
0
41
1
10
11.3561355705565
20
7.37551432356918
30
0
41
1
10
11.1794485231148
20
7.33679735832021
30
0
41
1
10
10.9090469011874
20
7.27137097417099
30
0
41
1
10
10.81802528413
20
7.24834280221168
30
0
41
1
10
10.6343653174595
20
7.2002906437057
30
0
41
1
10
10.5416610125131
20
7.17525049338079
30
0
41
1
10
10.2603324830992
20
7.09765571559183
30
0
41
1
10
10.0685507827731
20
7.04257295316407
30
0
41
1
10
9.77142985410475
20
6.95793792312327
30
0
41
1
10
9.67079841697205
20
6.92940489389221
30
0
41
1
10
9.51693382715865
20
6.88663790233227
30
0
41
1
10
9.46510952978966
20
6.87237553661305
30
0
41
1
10
9.39322398898216
20
6.8528759841476
30
0
41
1
10
9.37350618076752
20
6.84755630031034
30
0
41
1
10
9.35373047640101
20
6.8422536833323
30
0
0
SPLINE
5
EF
100
AcDbEntity
8
1
62
256
6
ByLayer
370
18
48
1
60
0
100
AcDbSpline
70
4
71
1
72
4
73
2
40
0
40
0
40
1
40
1
41
1
10
13.51
20
7.36447291223431
30
0
41
1
10
12.048855440649
20
7.48953513634089
30
0
0
SPLINE
5
F0
100
AcDbEntity
8
1
62
256
6
ByLayer
370
18
48
1
60
0
100
AcDbSpline
70
4
71
3
72
23
73
19
40
0
40
0
40
0
40
0
40
0.124327833884426
40
0.124327833884426
40
0.248655667768852
40
0.248655667768852
40
0.497311335537705
40
0.497311335537705
40
0.559475252479919
40
0.559475252479919
40
0.621639169422133
40
0.621639169422133
40
0.745967003306564
40
0.745967003306564
40
0.870294837190994
40
0.870294837190994
40
0.994622671075425
40
1
40
1
40
1
40
1
41
1
10
7.15535784432169
20
-7.20150469180967
30
0
41
1
10
7.209144012385
20
-7.2553593743003
30
0
41
1
10
7.26410248374725
20
-7.30247955539841
30
0
41
1
10
7.37638308906043
20
-7.38381689346923
30
0
41
1
10
7.43370484277767
20
-7.41803301732892
30
0
41
1
10
7.60924513682428
20
-7.5018535753295
30
0
41
1
10
7.73102700534352
20
-7.53271803583314
30
0
41
1
10
7.8894109528735
20
-7.54039723624209
30
0
41
1
10
7.92139645989909
20
-7.54038100984263
30
0
41
1
10
7.98599443418601
20
-7.53722549223244
30
0
41
1
10
8.01862309741281
20
-7.53408385691563
30
0
41
1
10
8.11736629875401
20
-7.51994313455964
30
0
41
1
10
8.18373375040471
20
-7.50432743026451
30
0
41
1
10
8.31755243730237
20
-7.46115956313611
30
0
41
1
10
8.38500349627657
20
-7.43360650273314
30
0
41
1
10
8.52101756018897
20
-7.3668162088382
30
0
41
1
10
8.59253822097239
20
-7.32587969878969
30
0
41
1
10
8.66482407602493
20
-7.27864737825183
30
0
41
1
10
8.66782223808801
20
-7.27667839458442
30
0
0
SPLINE
5
F1
100
AcDbEntity
8
1
62
256
6
ByLayer
370
18
48
1
60
0
100
AcDbSpline
70
4
71
3
72
12
73
8
40
0
40
0
40
0
40
0
40
0.0956874310127117
40
0.0956874310127117
40
0.547843715506356
40
0.547843715506356
40
1
40
1
40
1
40
1
41
1
10
12.8551934891796
20
-7.62281919615893
30
0
41
1
10
12.8376308856377
20
-7.61760181045545
30
0
41
1
10
12.820004640786
20
-7.61254999974145
30
0
41
1
10
12.7187348103288
20
-7.58456957788067
30
0
41
1
10
12.6337733289603
20
-7.56515482288407
30
0
41
1
10
12.4614313353533
20
-7.53390322012137
30
0
41
1
10
12.3740501115707
20
-7.52206481966235
30
0
41
1
10
12.2856114191291
20
-7.51433093943805
30
0
0
SPLINE
5
F2
100
AcDbEntity
8
1
62
256
6
ByLayer
370
18
48
1
60
0
100
AcDbSpline
70
4
71
3
72
18
73
14
40
0
40
0
40
0
40
0
40
0.250000000000004
40
0.250000000000004
40
0.500000000000009
40
0.500000000000009
40
0.625000000000011
40
0.625000000000011
40
0.687500000000011
40
0.687500000000011
40
0.750000000000011
40
0.750000000000011
40
1
40
1
40
1
40
1
41
1
10
45.6437503688173
20
6.97620771295612
30
0
41
1
10
45.6972795663518
20
6.91892266133775
30
0
41
1
10
45.7473715290554
20
6.85739546332042
30
0
41
1
10
45.8404711606087
20
6.72655484669849
30
0
41
1
10
45.8834197437193
20
6.65716099556133
30
0
41
1
10
45.9420196508133
20
6.54745946739823
30
0
41
1
10
45.9605813449598
20
6.50995774248261
30
0
41
1
10
45.986918578389
20
6.45237000669587
30
0
41
1
10
45.9954565356755
20
6.43292783628948
30
0
41
1
10
46.0119381240524
20
6.39383394121847
30
0
41
1
10
46.0198921987267
20
6.37416303073869
30
0
41
1
10
46.058254181014
20
6.27523674005511
30
0
41
1
10
46.0843908440992
20
6.1942380616444
30
0
41
1
10
46.1063249410505
20
6.1120077385531
30
0
0
SPLINE
5
F3
100
AcDbEntity
8
1
62
256
6
ByLayer
370
18
48
1
60
0
100
AcDbSpline
70
4
71
3
72
26
73
22
40
0
40
0
40
0
40
0
40
0.168797769804585
40
0.168797769804585
40
0.210997212255734
40
0.210997212255734
40
0.253196654706882
40
0.253196654706882
40
0.337595539609193
40
0.337595539609193
40
0.506393309413814
40
0.506393309413814
40
0.590792194316134
40
0.590792194316134
40
0.632991636767301
40
0.632991636767301
40
0.675191079218469
40
0.675191079218469
40
0.843988849023085
40
0.843988849023085
40
1
40
1
40
1
40
1
41
1
10
46.1063249410504
20
6.11200773855313
30
0
41
1
10
46.0665218195417
20
6.01129577568457
30
0
41
1
10
46.0181462677314
20
5.91447628545211
30
0
41
1
10
45.9471051322375
20
5.79825219923444
30
0
41
1
10
45.9323687023073
20
5.77524722238564
30
0
41
1
10
45.9018447648997
20
5.72971453014688
30
0
41
1
10
45.8860667203136
20
5.70720718327215
30
0
41
1
10
45.8376847101584
20
5.64106231424495
30
0
41
1
10
45.8038791736716
20
5.59856429592881
30
0
41
1
10
45.6982631269756
20
5.47539883513642
30
0
41
1
10
45.6222675679948
20
5.39904515582381
30
0
41
1
10
45.5013988320756
20
5.29160149243688
30
0
41
1
10
45.4599594757131
20
5.25697207799519
30
0
41
1
10
45.3962330846726
20
5.20664351808315
30
0
41
1
10
45.3746999472289
20
5.19011497947201
30
0
41
1
10
45.3312976512528
20
5.15769230217234
30
0
41
1
10
45.3094377970973
20
5.14180346175226
30
0
41
1
10
45.1993990342831
20
5.06386194147186
30
0
41
1
10
45.1090180149097
20
5.00628405183781
30
0
41
1
10
44.9316286694924
20
4.90254872095397
30
0
41
1
10
44.8448791295905
20
4.8558654143645
30
0
41
1
10
44.7568862176375
20
4.81170869695376
30
0
0
SPLINE
5
F4
100
AcDbEntity
8
1
62
256
6
ByLayer
370
18
48
1
60
0
100
AcDbSpline
70
4
71
3
72
41
73
37
40
0
40
0
40
0
40
0
40
0.125000000000018
40
0.125000000000018
40
0.187500000000026
40
0.187500000000026
40
0.218750000000025
40
0.218750000000025
40
0.250000000000024
40
0.250000000000024
40
0.312500000000022
40
0.312500000000022
40
0.343750000000021
40
0.343750000000021
40
0.37500000000002
40
0.37500000000002
40
0.406250000000019
40
0.406250000000019
40
0.437500000000018
40
0.437500000000018
40
0.500000000000017
40
0.500000000000017
40
0.562500000000015
40
0.562500000000015
40
0.625000000000013
40
0.625000000000013
40
0.687500000000011
40
0.687500000000011
40
0.71875000000001
40
0.71875000000001
40
0.750000000000009
40
0.812500000000006
40
0.812500000000006
40
0.875000000000003
40
0.875000000000003
40
1
40
1
40
1
40
1
41
1
10
45.4491699855936
20
-7.68582338139655
30
0
41
1
10
45.5386108480201
20
-7.67185585512405
30
0
41
1
10
45.6246093460467
20
-7.64662621478735
30
0
41
1
10
45.7493830360339
20
-7.59364999930389
30
0
41
1
10
45.7902597365008
20
-7.57344671005754
30
0
41
1
10
45.8505409855066
20
-7.53939427780219
30
0
41
1
10
45.8704969853795
20
-7.52739449386647
30
0
41
1
10
45.9098809029455
20
-7.50225972105463
30
0
41
1
10
45.9293025574581
20
-7.48913197019866
30
0
41
1
10
45.9867818017225
20
-7.44810467112765
30
0
41
1
10
46.0240505658272
20
-7.41857528652557
30
0
41
1
10
46.0784741046506
20
-7.37103184597837
30
0
41
1
10
46.0963509035531
20
-7.35465522504242
30
0
41
1
10
46.1314788612499
20
-7.32096019720419
30
0
41
1
10
46.148746171808
20
-7.30362858258928
30
0
41
1
10
46.1826992423323
20
-7.26801480187649
30
0
41
1
10
46.1993839683023
20
-7.24973566015851
30
0
41
1
10
46.2321780887483
20
-7.2122477328256
30
0
41
1
10
46.2483035679071
20
-7.19301785664396
30
0
41
1
10
46.2956963043828
20
-7.13411066074073
30
0
41
1
10
46.3259606799488
20
-7.09325717819763
30
0
41
1
10
46.3839405922769
20
-7.00848356503627
30
0
41
1
10
46.4116556268436
20
-6.96456448602081
30
0
41
1
10
46.4645904168459
20
-6.87369169726247
30
0
41
1
10
46.4896773336558
20
-6.82696141701189
30
0
41
1
10
46.5370935408312
20
-6.73116008687046
30
0
41
1
10
46.5594386423689
20
-6.68206241054483
30
0
41
1
10
46.590946721474
20
-6.60664271224078
30
0
41
1
10
46.6011203371212
20
-6.5811885059309
30
0
41
1
10
46.6207267679388
20
-6.52988376467508
30
0
41
1
10
46.6490506865032
20
-6.45227316619599
30
0
41
1
10
46.6741712154741
20
-6.37273647725095
30
0
41
1
10
46.7048618560906
20
-6.26499932883678
30
0
41
1
10
46.7188266985611
20
-6.21017782811106
30
0
41
1
10
46.7562931062793
20
-6.04420332031617
30
0
41
1
10
46.775442204386
20
-5.93149610289063
30
0
41
1
10
46.7888343232448
20
-5.81676398345439
30
0
0
SPLINE
5
F5
100
AcDbEntity
8
1
62
256
6
ByLayer
370
18
48
1
60
0
100
AcDbSpline
70
4
71
3
72
8
73
4
40
0
40
0
40
0
40
0
40
1
40
1
40
1
40
1
41
1
10
46.7888343232448
20
-5.81676398345437
30
0
41
1
10
46.7458123158321
20
-5.7624387189112
30
0
41
1
10
46.7027868041583
20
-5.70782759080262
30
0
41
1
10
46.6597583257805
20
-5.65297445088797
30
0
0
SPLINE
5
F6
100
AcDbEntity
8
1
62
256
6
ByLayer
370
18
48
1
60
0
100
AcDbSpline
70
4
71
1
72
4
73
2
40
0
40
0
40
1
40
1
41
1
10
8.31994781383597
20
-6.619930997137
30
0
41
1
10
6.95056237635336
20
-6.98842563402008
30
0
0
SPLINE
5
F7
100
AcDbEntity
8
1
62
256
6
ByLayer
370
18
48
1
60
0
100
AcDbSpline
70
4
71
3
72
14
73
10
40
0
40
0
40
0
40
0
40
0.607303698924742
40
0.607303698924742
40
0.759129623655939
40
0.759129623655939
40
0.910955548387136
40
0.910955548387136
40
1
40
1
40
1
40
1
41
1
10
46.1063400639177
20
-0.403489458546431
30
0
41
1
10
46.0665416576784
20
-0.413569589671027
30
0
41
1
10
46.0181600744131
20
-0.425689581455259
30
0
41
1
10
45.9470787146774
20
-0.443359787050127
30
0
41
1
10
45.9323326094942
20
-0.447019747274396
30
0
41
1
10
45.9017855992452
20
-0.454590349350809
30
0
41
1
10
45.8860231133548
20
-0.458491444963869
30
0
41
1
10
45.8604513545428
20
-0.464812318625718
30
0
41
1
10
45.8508643952568
20
-0.467180366344507
30
0
41
1
10
45.8411475734376
20
-0.469578886868447
30
0
0
SPLINE
5
F8
100
AcDbEntity
8
1
62
256
6
ByLayer
370
18
48
1
60
0
100
AcDbSpline
70
4
71
3
72
24
73
20
40
0
40
0
40
0
40
0
40
0.124999999999993
40
0.124999999999993
40
0.156249999999995
40
0.156249999999995
40
0.187499999999996
40
0.187499999999996
40
0.249999999999998
40
0.249999999999998
40
0.374999999999999
40
0.374999999999999
40
0.499999999999999
40
0.499999999999999
40
0.625
40
0.625
40
0.75
40
0.75
40
1
40
1
40
1
40
1
41
1
10
46.6597583257803
20
-5.65297445088905
30
0
41
1
10
46.6469254153602
20
-5.70691109266468
30
0
41
1
10
46.6324656187065
20
-5.75533949348397
30
0
41
1
10
46.6129830426696
20
-5.81110842390754
30
0
41
1
10
46.609014634572
20
-5.82201879815324
30
0
41
1
10
46.6009446044798
20
-5.84338851680988
30
0
41
1
10
46.5968358697378
20
-5.85386479429386
30
0
41
1
10
46.5843935047393
20
-5.88449505719376
30
0
41
1
10
46.5759375697065
20
-5.90387831986246
30
0
41
1
10
46.5501688469444
20
-5.95944641875994
30
0
41
1
10
46.5324592475183
20
-5.99307600604536
30
0
41
1
10
46.4962609640414
20
-6.0553183044006
30
0
41
1
10
46.4777697235298
20
-6.08391455326972
30
0
41
1
10
46.4401745099601
20
-6.13716139062558
30
0
41
1
10
46.4210694192805
20
-6.16180478224402
30
0
41
1
10
46.3823577227477
20
-6.20786208377052
30
0
41
1
10
46.3627505597428
20
-6.22927240592932
30
0
41
1
10
46.3032946011601
20
-6.28941773756492
30
0
41
1
10
46.2631393790207
20
-6.3237964388295
30
0
41
1
10
46.2226352470682
20
-6.35400818838113
30
0
0
SPLINE
5
F9
100
AcDbEntity
8
1
62
256
6
ByLayer
370
18
48
1
60
0
100
AcDbSpline
70
4
71
3
72
8
73
4
40
0
40
0
40
0
40
0
40
1
40
1
40
1
40
1
41
1
10
12.2392310206725
20
-6.81770222414536
30
0
41
1
10
12.1342382478873
20
-6.76935841082249
30
0
41
1
10
12.0280438648493
20
-6.731342336545
30
0
41
1
10
11.9213454799922
20
-6.70303080069161
30
0
0
SPLINE
5
FA
100
AcDbEntity
8
1
62
256
6
ByLayer
370
18
48
1
60
0
100
AcDbSpline
70
4
71
3
72
47
73
43
40
0
40
0
40
0
40
0
40
0.124999999999938
40
0.124999999999938
40
0.187499999999895
40
0.187499999999895
40
0.218749999999885
40
0.218749999999885
40
0.249999999999875
40
0.249999999999875
40
0.312499999999878
40
0.312499999999878
40
0.37499999999988
40
0.37499999999988
40
0.406249999999881
40
0.406249999999881
40
0.437499999999883
40
0.437499999999883
40
0.499999999999885
40
0.499999999999885
40
0.531249999999894
40
0.531249999999894
40
0.562499999999902
40
0.59374999999991
40
0.59374999999991
40
0.624999999999919
40
0.624999999999919
40
0.68749999999994
40
0.68749999999994
40
0.718749999999951
40
0.718749999999951
40
0.749999999999961
40
0.749999999999961
40
0.812499999999982
40
0.812499999999982
40
0.843749999999989
40
0.843749999999989
40
0.874999999999995
40
0.874999999999995
40
0.937499999999998
40
0.937499999999998
40
1
40
1
40
1
40
1
41
1
10
45.7348781601068
20
0.461223294265608
30
0
41
1
10
45.666007004472
20
0.45509254898181
30
0
41
1
10
45.5987997099017
20
0.442794651931735
30
0
41
1
10
45.5003078056932
20
0.415449702292079
30
0
41
1
10
45.4678682198583
20
0.404832254251971
30
0
41
1
10
45.4198183332415
20
0.386500405936431
30
0
41
1
10
45.4038966544889
20
0.379981431146803
30
0
41
1
10
45.3725835718727
20
0.366243182095559
30
0
41
1
10
45.3571517063238
20
0.359009402510338
30
0
41
1
10
45.3115393627583
20
0.336184918543722
30
0
41
1
10
45.2820380543009
20
0.319478342306326
30
0
41
1
10
45.2249868399683
20
0.282774062589937
30
0
41
1
10
45.1974346303489
20
0.262780786073847
30
0
41
1
10
45.1577888327665
20
0.229880909692497
30
0
41
1
10
45.1448850744568
20
0.218444697747742
30
0
41
1
10
45.120046260312
20
0.194848793602432
30
0
41
1
10
45.1080676218897
20
0.182654022098177
30
0
41
1
10
45.0735298127398
20
0.144801769389716
30
0
41
1
10
45.0523557306508
20
0.117888591525514
30
0
41
1
10
45.0238655917997
20
0.0745128816668341
30
0
41
1
10
45.0149366930982
20
0.0595618045345816
30
0
41
1
10
44.9986058470308
20
0.0291893102166796
30
0
41
1
10
44.9837060167394
20
-0.0017926991285719
30
0
41
1
10
44.9717690704512
20
-0.034036471661409
30
0
41
1
10
44.961386349346
20
-0.0669420116732908
30
0
41
1
10
44.9569540437008
20
-0.0838331477775967
30
0
41
1
10
44.9463281583929
20
-0.13451578449525
30
0
41
1
10
44.9427179338169
20
-0.168393372627179
30
0
41
1
10
44.9421716493746
20
-0.219304484212927
30
0
41
1
10
44.9428045080083
20
-0.236301940791321
30
0
41
1
10
44.9456639189025
20
-0.270278329135408
30
0
41
1
10
44.9478673410704
20
-0.287006972301185
30
0
41
1
10
44.9565707405668
20
-0.336479403457417
30
0
41
1
10
44.9651529657177
20
-0.368512853968212
30
0
41
1
10
44.9815517253864
20
-0.415325022037592
30
0
41
1
10
44.9875838675703
20
-0.430640936380598
30
0
41
1
10
45.0005259828839
20
-0.460455327973761
30
0
41
1
10
45.0074536133113
20
-0.475004299294142
30
0
41
1
10
45.0294467614389
20
-0.517691168840969
30
0
41
1
10
45.0457151699986
20
-0.544874330326763
30
0
41
1
10
45.0808604210329
20
-0.597126460479274
30
0
41
1
10
45.0997409317396
20
-0.622192850524215
30
0
41
1
10
45.1197274332529
20
-0.646344747291778
30
0
0
SPLINE
5
FB
100
AcDbEntity
8
1
62
256
6
ByLayer
370
13
48
1
60
0
100
AcDbSpline
70
4
71
1
72
4
73
2
40
0
40
0
40
1
40
1
41
1
10
13.51
20
-6.90662311688007
30
0
41
1
10
11.1296434876421
20
-6.26483332048937
30
0
0
SPLINE
5
FC
100
AcDbEntity
8
1
62
256
6
ByLayer
370
18
48
1
60
0
100
AcDbSpline
70
4
71
3
72
9
73
5
40
0
40
0
40
0
40
0
40
0.5
40
1
40
1
40
1
40
1
41
1
10
45.8073080095286
20
4.10214884239755
30
0
41
1
10
45.7951051727238
20
4.13151616086964
30
0
41
1
10
45.7750490160059
20
4.17549112517074
30
0
41
1
10
45.7635350647834
20
4.19047892609274
30
0
41
1
10
45.7599231963567
20
4.19069360897285
30
0
0
SPLINE
5
FD
100
AcDbEntity
8
1
62
256
6
ByLayer
370
18
48
1
60
0
100
AcDbSpline
70
4
71
1
72
4
73
2
40
0
40
0
40
1
40
1
41
1
10
29.5343127831151
20
-5.53356801319291
30
0
41
1
10
26.0503625057702
20
-6.18606707806933
30
0
0
SPLINE
5
FE
100
AcDbEntity
8
1
62
256
6
ByLayer
370
18
48
1
60
0
100
AcDbSpline
70
4
71
3
72
9
73
5
40
0
40
0
40
0
40
0
40
0.5
40
1
40
1
40
1
40
1
41
1
10
46.1644706474842
20
2.99292807928015
30
0
41
1
10
46.0990991850089
20
3.19932908189819
30
0
41
1
10
45.9742410002484
20
3.59045142396576
30
0
41
1
10
45.8609797606399
20
3.9388501072601
30
0
41
1
10
45.8073080095286
20
4.10214884239767
30
0
0
SPLINE
5
FF
100
AcDbEntity
8
1
62
256
6
ByLayer
370
18
48
1
60
0
100
AcDbSpline
70
4
71
3
72
21
73
17
40
0
40
0
40
0
40
0
40
0.261403765112462
40
0.261403765112462
40
0.522807530224924
40
0.522807530224924
40
0.653509412781159
40
0.653509412781159
40
0.686184883420219
40
0.686184883420219
40
0.71886035405928
40
0.7842112953374
40
0.7842112953374
40
0.914913177893642
40
0.914913177893642
40
1
40
1
40
1
40
1
41
1
10
45.8073080095286
20
4.10214884239758
30
0
41
1
10
45.4992257102345
20
4.32420598148536
30
0
41
1
10
45.192328473748
20
4.53415480167357
30
0
41
1
10
44.5778395246147
20
4.92817107609017
30
0
41
1
10
44.2702523832332
20
5.11224679939556
30
0
41
1
10
43.8062922392676
20
5.36741819667248
30
0
41
1
10
43.6512109836936
20
5.44898119730217
30
0
41
1
10
43.4566200635416
20
5.54636774852455
30
0
41
1
10
43.4176421807058
20
5.56562759367839
30
0
41
1
10
43.3397307529279
20
5.6036249054246
30
0
41
1
10
43.2229559698043
20
5.65982573121801
30
0
41
1
10
43.1064366972756
20
5.71363946107567
30
0
41
1
10
42.8736852781555
20
5.81807456966453
30
0
41
1
10
42.7188870861304
20
5.88344048811493
30
0
41
1
10
42.4638383036901
20
5.98426361686097
30
0
41
1
10
42.3634028385663
20
6.0222030205463
30
0
41
1
10
42.2630661282841
20
6.05832597544082
30
0
0
SPLINE
5
100
100
AcDbEntity
8
1
62
256
6
ByLayer
370
18
48
1
60
0
100
AcDbSpline
70
4
71
1
72
4
73
2
40
0
40
0
40
1
40
1
41
1
10
13.51
20
5.22331442491725
30
0
41
1
10
12.1458416188605
20
5.59040248759842
30
0
0
SPLINE
5
101
100
AcDbEntity
8
1
62
256
6
ByLayer
370
18
48
1
60
0
100
AcDbSpline
70
4
71
3
72
16
73
12
40
0
40
0
40
0
40
0
40
0.125
40
0.125
40
0.25
40
0.25
40
0.5
40
0.5
40
0.75
40
0.75
40
1
40
1
40
1
40
1
41
1
10
46.2226280720352
20
2.81789752663715
30
0
41
1
10
46.2212975505085
20
2.82131686360745
30
0
41
1
10
46.2197664429347
20
2.82542720195153
30
0
41
1
10
46.2163285661304
20
2.83494200017447
30
0
41
1
10
46.2144392370115
20
2.84029890451436
30
0
41
1
10
46.2083828515383
20
2.85777664791166
30
0
41
1
10
46.2038068191055
20
2.87135813201601
30
0
41
1
10
46.1937738132964
20
2.90167819398465
30
0
41
1
10
46.1882918464852
20
2.91849725205503
30
0
41
1
10
46.1767991757783
20
2.95415047115947
30
0
41
1
10
46.1707626753625
20
2.97306169678893
30
0
41
1
10
46.1644706434722
20
2.99292808073091
30
0
0
SPLINE
5
102
100
AcDbEntity
8
1
62
256
6
ByLayer
370
13
48
1
60
0
100
AcDbSpline
70
4
71
3
72
8
73
4
40
0
40
0
40
0
40
0
40
1
40
1
40
1
40
1
41
1
10
46.1644706408459
20
2.99292808902297
30
0
41
1
10
45.7380917410975
20
3.36665485767733
30
0
41
1
10
45.3117128413491
20
3.7237694988313
30
0
41
1
10
44.8853339416007
20
4.05933330316185
30
0
0
SPLINE
5
103
100
AcDbEntity
8
1
62
256
6
ByLayer
370
13
48
1
60
0
100
AcDbSpline
70
4
71
3
72
9
73
5
40
0
40
0
40
0
40
0
40
0.0286659288669143
40
1
40
1
40
1
40
1
41
1
10
17.8004909071484
20
-6.6349269672881
30
0
41
1
10
17.7594939380989
20
-6.64661845589765
30
0
41
1
10
16.3293303023828
20
-7.04295198470447
30
0
41
1
10
14.8991666666666
20
-7.03433211583317
30
0
41
1
10
13.51
20
-6.62695645565836
30
0
0
SPLINE
5
104
100
AcDbEntity
8
1
62
256
6
ByLayer
370
18
48
1
60
0
100
AcDbSpline
70
4
71
5
72
12
73
6
40
0
40
0
40
0
40
0
40
0
40
0
40
1
40
1
40
1
40
1
40
1
40
1
41
1
10
13.51
20
-6.62695645565836
30
0
41
0.9820120696427
10
13.51
20
-6.665451180457
30
0
41
0.973220332988137
10
13.51
20
-6.71530361342242
30
0
41
0.973220332988137
10
13.51
20
-6.77409802529362
30
0
41
0.9820120696427
10
13.51
20
-6.8389451442375
30
0
41
1
10
13.51
20
-6.90662311688007
30
0
0
SPLINE
5
105
100
AcDbEntity
8
1
62
256
6
ByLayer
370
18
48
1
60
0
100
AcDbSpline
70
4
71
3
72
8
73
4
40
0
40
0
40
0
40
0
40
1
40
1
40
1
40
1
41
1
10
45.8841147656956
20
-5.21842135506941
30
0
41
1
10
45.8775819642161
20
-5.12098930291631
30
0
41
1
10
45.8724940023452
20
-5.02387062830761
30
0
41
1
10
45.8688306372105
20
-4.92706094067955
30
0
0
SPLINE
5
106
100
AcDbEntity
8
1
62
256
6
ByLayer
370
18
48
1
60
0
100
AcDbSpline
70
4
71
3
72
27
73
23
40
0
40
0
40
0
40
0
40
0.12500000000001
40
0.12500000000001
40
0.25000000000002
40
0.25000000000002
40
0.37500000000003
40
0.37500000000003
40
0.40625000000003
40
0.40625000000003
40
0.43750000000003
40
0.500000000000031
40
0.500000000000031
40
0.62500000000002
40
0.62500000000002
40
0.75000000000001
40
0.75000000000001
40
0.874999999999999
40
0.874999999999999
40
0.9375
40
0.9375
40
1
40
1
40
1
40
1
41
1
10
44.7559303968101
20
-3.10612586125075
30
0
41
1
10
44.790145192475
20
-3.18985427398832
30
0
41
1
10
44.8269295852685
20
-3.27263382588424
30
0
41
1
10
44.9046866416194
20
-3.43664625300787
30
0
41
1
10
44.9456652372184
20
-3.51787696446317
30
0
41
1
10
45.0312004509552
20
-3.67901711359727
30
0
41
1
10
45.075760108795
20
-3.75892542879046
30
0
41
1
10
45.1334352298292
20
-3.85808130229716
30
0
41
1
10
45.1450786903794
20
-3.87789109154528
30
0
41
1
10
45.1684481513287
20
-3.91725486323574
30
0
41
1
10
45.2036623822893
20
-3.9759797228678
30
0
41
1
10
45.2393343329476
20
-4.03378708722036
30
0
41
1
10
45.3112386375936
20
-4.14827849217059
30
0
41
1
10
45.3599199360819
20
-4.22311255803353
30
0
41
1
10
45.4585716908164
20
-4.37019658388951
30
0
41
1
10
45.5085429923998
20
-4.44244484941109
30
0
41
1
10
45.6096341000115
20
-4.58463921296567
30
0
41
1
10
45.6607543963625
20
-4.65458432815066
30
0
41
1
10
45.738219522856
20
-4.75792911253316
30
0
41
1
10
45.76417227061
20
-4.79211470757673
30
0
41
1
10
45.8163296329895
20
-4.85998103264058
30
0
41
1
10
45.8425573665266
20
-4.89369080180799
30
0
41
1
10
45.8688306372105
20
-4.92706094068004
30
0
0
SPLINE
5
107
100
AcDbEntity
8
1
62
256
6
ByLayer
370
13
48
1
60
0
100
AcDbSpline
70
4
71
1
72
4
73
2
40
0
40
0
40
1
40
1
41
1
10
13.51
20
2.40885874611584
30
0
41
1
10
10.4513931927585
20
5.19382663966886
30
0
0
SPLINE
5
108
100
AcDbEntity
8
1
62
256
6
ByLayer
370
13
48
1
60
0
100
AcDbSpline
70
4
71
3
72
14
73
10
40
0
40
0
40
0
40
0
40
0.25
40
0.25
40
0.5
40
0.5
40
0.75
40
0.75
40
1
40
1
40
1
40
1
41
1
10
30.975
20
-2.5228720903242
30
0
41
1
10
30.975
20
-2.35729723691475
30
0
41
1
10
30.975
20
-2.19502086902821
30
0
41
1
10
30.975
20
-1.87919170954774
30
0
41
1
10
30.975
20
-1.72564053519213
30
0
41
1
10
30.975
20
-1.4292213041569
30
0
41
1
10
30.975
20
-1.28635462577029
30
0
41
1
10
30.975
20
-1.01304810249488
30
0
41
1
10
30.975
20
-0.8826093444778
30
0
41
1
10
30.975
20
-0.759129364479662
30
0
0
SPLINE
5
109
100
AcDbEntity
8
1
62
256
6
ByLayer
370
18
48
1
60
0
100
AcDbSpline
70
4
71
1
72
4
73
2
40
0
40
0
40
1
40
1
41
1
10
30.975
20
-0.759129364479662
30
0
41
1
10
25.3239324442733
20
3.13214272745393
30
0
0
SPLINE
5
10A
100
AcDbEntity
8
1
62
256
6
ByLayer
370
18
48
1
60
0
100
AcDbSpline
70
4
71
3
72
46
73
42
40
0
40
0
40
0
40
0
40
0.071534075008709
40
0.071534075008709
40
0.155940068189736
40
0.155940068189736
40
0.177041566484993
40
0.177041566484993
40
0.19814306478025
40
0.19814306478025
40
0.240346061370763
40
0.240346061370763
40
0.282549057961277
40
0.282549057961277
40
0.32475205455179
40
0.32475205455179
40
0.409158047732818
40
0.409158047732818
40
0.493564040913845
40
0.493564040913845
40
0.514665539209101
40
0.514665539209101
40
0.535767037504357
40
0.577970034094872
40
0.620173030685386
40
0.620173030685386
40
0.662376027275901
40
0.662376027275901
40
0.704579023866416
40
0.704579023866416
40
0.74678202045693
40
0.74678202045693
40
0.831188013637957
40
0.831188013637957
40
0.852289511933213
40
0.852289511933213
40
0.873391010228469
40
0.873391010228469
40
0.915594006818979
40
0.915594006818979
40
1
40
1
40
1
40
1
41
1
10
41.9609340923085
20
-6.1616948127317
30
0
41
1
10
41.7001189977643
20
-6.24624303958186
30
0
41
1
10
41.439740396149
20
-6.31844660782272
30
0
41
1
10
40.8715639718839
20
-6.4483077559052
30
0
41
1
10
40.5636722730659
20
-6.50094082511629
30
0
41
1
10
40.1765736597407
20
-6.54372808465243
30
0
41
1
10
40.0990389882489
20
-6.55114057019969
30
0
41
1
10
39.9436896587679
20
-6.56366136647341
30
0
41
1
10
39.8657824147561
20
-6.56877303924398
30
0
41
1
10
39.6325299183801
20
-6.58058380514953
30
0
41
1
10
39.4775203731329
20
-6.58378476066164
30
0
41
1
10
39.168139098285
20
-6.58104481638219
30
0
41
1
10
39.0137665819412
20
-6.57510503187544
30
0
41
1
10
38.7053878359918
20
-6.55418807184228
30
0
41
1
10
38.5513993670231
20
-6.53919734419216
30
0
41
1
10
38.0898553746254
20
-6.48053462260313
30
0
41
1
10
37.782690893781
20
-6.42327036673797
30
0
41
1
10
37.1670478235557
20
-6.27303783341779
30
0
41
1
10
36.8585323948221
20
-6.18010482161924
30
0
41
1
10
36.4703744576722
20
-6.04145344704969
30
0
41
1
10
36.392610927115
20
-6.01258702661224
30
0
41
1
10
36.2368334168201
20
-5.95259848396381
30
0
41
1
10
36.0036131188859
20
-5.85955623396276
30
0
41
1
10
35.6167406598368
20
-5.68962851506231
30
0
41
1
10
35.3084501143749
20
-5.53860175240189
30
0
41
1
10
35.0004461789925
20
-5.38031941912064
30
0
41
1
10
34.846577453255
20
-5.29756242046088
30
0
41
1
10
34.5389233681922
20
-5.12490668958839
30
0
41
1
10
34.3851521896684
20
-5.03498911540623
30
0
41
1
10
34.0775463907206
20
-4.84799436797414
30
0
41
1
10
33.9237010359495
20
-4.75093832704957
30
0
41
1
10
33.4615692327985
20
-4.44943956032228
30
0
41
1
10
33.1526985817687
20
-4.23468228748536
30
0
41
1
10
32.763932444037
20
-3.949922185541
30
0
41
1
10
32.6860140169104
20
-3.89212904467121
30
0
41
1
10
32.5304373637928
20
-3.77536379521752
30
0
41
1
10
32.4527104161226
20
-3.71634202440509
30
0
41
1
10
32.2196485133061
20
-3.53742008046944
30
0
41
1
10
32.0644413687007
20
-3.4156469197498
30
0
41
1
10
31.5986315869404
20
-3.04362718416326
30
0
41
1
10
31.2878093797705
20
-2.78673159472956
30
0
41
1
10
30.975
20
-2.52285147431192
30
0
0
SPLINE
5
10B
100
AcDbEntity
8
1
62
256
6
ByLayer
370
18
48
1
60
0
100
AcDbSpline
70
4
71
3
72
30
73
26
40
0
40
0
40
0
40
0
40
0.125000000000003
40
0.125000000000003
40
0.250000000000007
40
0.250000000000007
40
0.37500000000001
40
0.37500000000001
40
0.500000000000014
40
0.500000000000014
40
0.562500000000013
40
0.562500000000013
40
0.593750000000013
40
0.593750000000013
40
0.625000000000013
40
0.625000000000013
40
0.750000000000007
40
0.750000000000007
40
0.812500000000005
40
0.812500000000005
40
0.875000000000003
40
0.875000000000003
40
0.937500000000002
40
0.937500000000002
40
1
40
1
40
1
40
1
41
1
10
25.3239324442732
20
3.13214272745395
30
0
41
1
10
25.5845766112794
20
2.93759131901294
30
0
41
1
10
25.838368347564
20
2.73449805965589
30
0
41
1
10
26.3343159102258
20
2.31183179126739
30
0
41
1
10
26.5764722859889
20
2.0922692533083
30
0
41
1
10
27.0517650462111
20
1.63812788698596
30
0
41
1
10
27.2848978688418
20
1.40354513724856
30
0
41
1
10
27.7454981220924
20
0.921591534088066
30
0
41
1
10
27.9729562017356
20
0.674209605981844
30
0
41
1
10
28.3131239317698
20
0.295972643093762
30
0
41
1
10
28.4263471552368
20
0.168706595099792
30
0
41
1
10
28.5963990411623
20
-0.0235870219647722
30
0
41
1
10
28.6531302494311
20
-0.0879286114951867
30
0
41
1
10
28.7662187768349
20
-0.216390981705871
30
0
41
1
10
28.8226424087969
20
-0.280586624683934
30
0
41
1
10
29.1043819343639
20
-0.601168021938406
30
0
41
1
10
29.3284907463061
20
-0.856426730558923
30
0
41
1
10
29.6678021646874
20
-1.2326214121116
30
0
41
1
10
29.7814444058837
20
-1.35689182299805
30
0
41
1
10
30.010866916294
20
-1.6021707964656
30
0
41
1
10
30.1266465774038
20
-1.72317960805591
30
0
41
1
10
30.3615959357368
20
-1.960760918804
30
0
41
1
10
30.4807620426971
20
-2.07733742938984
30
0
41
1
10
30.7238832695242
20
-2.30477384696638
30
0
41
1
10
30.8478380729786
20
-2.41563380334816
30
0
41
1
10
30.9749999999999
20
-2.52290015760033
30
0
0
SPLINE
5
10C
100
AcDbEntity
8
1
62
256
6
ByLayer
370
18
48
1
60
0
100
AcDbSpline
70
4
71
3
72
76
73
72
40
0
40
0
40
0
40
0
40
0.0624999999999897
40
0.0624999999999897
40
0.124999999999979
40
0.124999999999979
40
0.187499999999969
40
0.187499999999969
40
0.218749999999964
40
0.218749999999964
40
0.234374999999964
40
0.234374999999964
40
0.249999999999965
40
0.249999999999965
40
0.281249999999966
40
0.281249999999966
40
0.312499999999967
40
0.312499999999967
40
0.32812499999997
40
0.32812499999997
40
0.343749999999973
40
0.343749999999973
40
0.37499999999998
40
0.37499999999998
40
0.38281249999998
40
0.38281249999998
40
0.39062499999998
40
0.39062499999998
40
0.406249999999981
40
0.406249999999981
40
0.421874999999982
40
0.421874999999982
40
0.429687499999982
40
0.429687499999982
40
0.437499999999983
40
0.437499999999983
40
0.468749999999984
40
0.468749999999984
40
0.476562499999984
40
0.476562499999984
40
0.484374999999984
40
0.499999999999983
40
0.515624999999983
40
0.515624999999983
40
0.531249999999982
40
0.531249999999982
40
0.562499999999981
40
0.562499999999981
40
0.570312499999981
40
0.570312499999981
40
0.578124999999981
40
0.578124999999981
40
0.593749999999982
40
0.593749999999982
40
0.624999999999984
40
0.624999999999984
40
0.656249999999986
40
0.656249999999986
40
0.671874999999987
40
0.671874999999987
40
0.687499999999988
40
0.687499999999988
40
0.74999999999999
40
0.74999999999999
40
0.812499999999992
40
0.812499999999992
40
0.874999999999995
40
0.874999999999995
40
0.937499999999997
40
0.937499999999997
40
1
40
1
40
1
40
1
41
1
10
26.0535935910353
20
4.94741551971029
30
0
41
1
10
25.9151189252404
20
4.96603812400147
30
0
41
1
10
25.7768250629448
20
4.98310454477368
30
0
41
1
10
25.5007121060786
20
5.0146140765066
30
0
41
1
10
25.3628924942234
20
5.02906541684493
30
0
41
1
10
25.0878358230311
20
5.05556087151078
30
0
41
1
10
24.9505979087869
20
5.06761592991552
30
0
41
1
10
24.7452690578801
20
5.0836564092092
30
0
41
1
10
24.6769142788737
20
5.08865804326314
30
0
41
1
10
24.5745292009984
20
5.09554283184107
30
0
41
1
10
24.5404253890543
20
5.09773421355337
30
0
41
1
10
24.4722698614996
20
5.10188387965096
30
0
41
1
10
24.4381598209156
20
5.10384529140146
30
0
41
1
10
24.3363604871894
20
5.10930444689097
30
0
41
1
10
24.2693656524397
20
5.11237560995613
30
0
41
1
10
24.1373820789507
20
5.11704356175952
30
0
41
1
10
24.07239231817
20
5.11864262573545
30
0
41
1
10
23.9767097990141
20
5.11952943308498
30
0
41
1
10
23.9451986020711
20
5.11956903838237
30
0
41
1
10
23.8833533872734
20
5.11905232036909
30
0
41
1
10
23.8529696338986
20
5.11849691520106
30
0
41
1
10
23.763591979108
20
5.11578690922465
30
0
41
1
10
23.7063465104105
20
5.1126129035662
30
0
41
1
10
23.6385233282467
20
5.10615112439206
30
0
41
1
10
23.6251473596907
20
5.10473213104163
30
0
41
1
10
23.5988025006137
20
5.10161200389257
30
0
41
1
10
23.5858544639336
20
5.09991244482742
30
0
41
1
10
23.5480064679383
20
5.09439673342541
30
0
41
1
10
23.5239931058654
20
5.09015299719746
30
0
41
1
10
23.4786593894564
20
5.08033143739894
30
0
41
1
10
23.4573380636953
20
5.07475433234606
30
0
41
1
10
23.4276313421592
20
5.06519206091502
30
0
41
1
10
23.4181090742716
20
5.06180465648049
30
0
41
1
10
23.3998782812271
20
5.05458913593719
30
0
41
1
10
23.3912426329156
20
5.05078841635174
30
0
41
1
10
23.3506891005704
20
5.03086250050802
30
0
41
1
10
23.3264078220293
20
5.01190114056479
30
0
41
1
10
23.3068819439302
20
4.98369681279681
30
0
41
1
10
23.3035197501552
20
4.97782898946596
30
0
41
1
10
23.2979033699738
20
4.96562403390581
30
0
41
1
10
23.2912420240307
20
4.94683307820264
30
0
41
1
10
23.2884762702713
20
4.91314108160751
30
0
41
1
10
23.2943154955925
20
4.88373332178401
30
0
41
1
10
23.3038393378638
20
4.85313045485901
30
0
41
1
10
23.3103769946026
20
4.83744647606201
30
0
41
1
10
23.3343791829462
20
4.78956087258879
30
0
41
1
10
23.3562218490609
20
4.75642593733596
30
0
41
1
10
23.3889292404521
20
4.71367644648694
30
0
41
1
10
23.3957445856189
20
4.7050597309609
30
0
41
1
10
23.409888336963
20
4.68769625551701
30
0
41
1
10
23.4172290673138
20
4.67893539963603
30
0
41
1
10
23.4398649077551
20
4.65258876430821
30
0
41
1
10
23.4557677374324
20
4.63493903950982
30
0
41
1
10
23.5055321870201
20
4.58173089177859
30
0
41
1
10
23.5414313731835
20
4.54591316267786
30
0
41
1
10
23.6172977803554
20
4.47358646730837
30
0
41
1
10
23.6572752731584
20
4.43707784766227
30
0
41
1
10
23.7196467286759
20
4.38180300080776
30
0
41
1
10
23.7408409867381
20
4.36329276192382
30
0
41
1
10
23.7839548390618
20
4.32610287035465
30
0
41
1
10
23.8058987686917
20
4.30740284142257
30
0
41
1
10
23.9169702435232
20
4.21372579134746
30
0
41
1
10
24.0095678222787
20
4.13862250949455
30
0
41
1
10
24.19955299642
20
3.98761772491312
30
0
41
1
10
24.2969743757891
20
3.9117240592602
30
0
41
1
10
24.4952184759538
20
3.75891445333619
30
0
41
1
10
24.5960541651013
20
3.68200111768226
30
0
41
1
10
24.8002695527949
20
3.52701014746668
30
0
41
1
10
24.9036549769453
20
3.44893358639072
30
0
41
1
10
25.1124042934459
20
3.29151144688424
30
0
41
1
10
25.2177710444715
20
3.21216636639963
30
0
41
1
10
25.3239324442733
20
3.13214272745393
30
0
0
SPLINE
5
10D
100
AcDbEntity
8
1
62
256
6
ByLayer
370
18
48
1
60
0
100
AcDbSpline
70
4
71
3
72
9
73
5
40
0
40
0
40
0
40
0
40
0.5
40
1
40
1
40
1
40
1
41
1
10
46.1645722060506
20
-6.09936066975018
30
0
41
1
10
46.1142899261188
20
-5.96452866577974
30
0
41
1
10
46.0172890809983
20
-5.6827909654194
30
0
41
1
10
45.9273232190317
20
-5.37721911747994
30
0
41
1
10
45.8841147656956
20
-5.21842135506944
30
0
0
SPLINE
5
10E
100
AcDbEntity
8
1
62
256
6
ByLayer
370
18
48
1
60
0
100
AcDbSpline
70
4
71
3
72
63
73
59
40
0
40
0
40
0
40
0
40
0.06534132583238
40
0.06534132583238
40
0.13068265166476
40
0.13068265166476
40
0.16335331458095
40
0.16335331458095
40
0.171520980309998
40
0.171520980309998
40
0.179688646039046
40
0.179688646039046
40
0.196023977497142
40
0.196023977497142
40
0.228694640413332
40
0.228694640413332
40
0.261365303329522
40
0.261365303329522
40
0.326706629161902
40
0.326706629161902
40
0.392047954994283
40
0.392047954994283
40
0.408383286452377
40
0.416550952181424
40
0.416550952181424
40
0.424718617910471
40
0.424718617910471
40
0.457389280826661
40
0.490059943742851
40
0.490059943742851
40
0.522730606659041
40
0.522730606659041
40
0.588071932491422
40
0.588071932491422
40
0.653413258323802
40
0.653413258323802
40
0.669748589781897
40
0.669748589781897
40
0.677916255510944
40
0.677916255510944
40
0.686083921239991
40
0.718754584156178
40
0.718754584156178
40
0.784095909988552
40
0.784095909988552
40
0.816766572904738
40
0.816766572904738
40
0.849437235820924
40
0.849437235820924
40
0.914778561653297
40
0.914778561653297
40
0.931113893111389
40
0.931113893111389
40
0.947449224569482
40
0.947449224569482
40
0.980119887485667
40
0.980119887485667
40
1
40
1
40
1
40
1
41
1
10
45.8841147656956
20
-5.21842135506941
30
0
41
1
10
45.5743218370342
20
-5.03841005985404
30
0
41
1
10
45.2658090273164
20
-4.84375926351265
30
0
41
1
10
44.6482786226437
20
-4.42837618706477
30
0
41
1
10
44.3392666320925
20
-4.20764447688779
30
0
41
1
10
43.873341171361
20
-3.8586308151796
30
0
41
1
10
43.717633672731
20
-3.73929903282334
30
0
41
1
10
43.5222996025377
20
-3.58650116927637
30
0
41
1
10
43.4831978184877
20
-3.55575976986316
30
0
41
1
10
43.4049193299001
20
-3.49391535826314
30
0
41
1
10
43.3657190112949
20
-3.46279342974236
30
0
41
1
10
43.2482346881266
20
-3.36907697376267
30
0
41
1
10
43.1700413969144
20
-3.30611236108294
30
0
41
1
10
42.9357967950435
20
-3.11581575608022
30
0
41
1
10
42.7800697209966
20
-2.98709419656919
30
0
41
1
10
42.4693204504197
20
-2.72609593352837
30
0
41
1
10
42.3143006955551
20
-2.5938192945643
30
0
41
1
10
41.8499058189674
20
-2.19211720253821
30
0
41
1
10
41.5412111559539
20
-1.91781117041879
30
0
41
1
10
40.9231496803848
20
-1.35875812785869
30
0
41
1
10
40.6137691765248
20
-1.07401218361915
30
0
41
1
10
40.224829564147
20
-0.713287785831795
30
0
41
1
10
40.1079787827329
20
-0.604716480185004
30
0
41
1
10
39.990821137112
20
-0.495669953496986
30
0
41
1
10
39.9126421150077
20
-0.422872446310294
30
0
41
1
10
39.8734944706437
20
-0.386404079791845
30
0
41
1
10
39.6778180192948
20
-0.204069958299897
30
0
41
1
10
39.3657991174117
20
0.086981140873462
30
0
41
1
10
39.0552448082602
20
0.376013407916247
30
0
41
1
10
38.7451574738618
20
0.66376203774243
30
0
41
1
10
38.590355521139
20
0.807002406824125
30
0
41
1
10
38.126435853319
20
1.234542300203
30
0
41
1
10
37.8177877919986
20
1.51665835928984
30
0
41
1
10
37.1992219979977
20
2.07242053980798
30
0
41
1
10
36.8892722012517
20
2.34603715855951
30
0
41
1
10
36.4992450594983
20
2.68077151065918
30
0
41
1
10
36.4211129629405
20
2.74735575696951
30
0
41
1
10
36.3036932300063
20
2.84665172039678
30
0
41
1
10
36.2645394364385
20
2.87963375264957
30
0
41
1
10
36.1863424864373
20
2.94523889142272
30
0
41
1
10
35.9910219785696
20
3.10844357239625
30
0
41
1
10
35.7964773257905
20
3.26756931426092
30
0
41
1
10
35.3305256626518
20
3.64134739665744
30
0
41
1
10
35.0211259138588
20
3.87970547581247
30
0
41
1
10
34.5572952701989
20
4.21976024323516
30
0
41
1
10
34.4027529186498
20
4.33020144046384
30
0
41
1
10
34.0935956516366
20
4.54500861138231
30
0
41
1
10
33.9389729009942
20
4.64937808220481
30
0
41
1
10
33.4744883701208
20
4.95299972610985
30
0
41
1
10
33.1640228433302
20
5.14279522395884
30
0
41
1
10
32.7731628864072
20
5.36255819476872
30
0
41
1
10
32.6948450681339
20
5.40563515025207
30
0
41
1
10
32.5384785579577
20
5.48967229466669
30
0
41
1
10
32.4603555843237
20
5.53067490677392
30
0
41
1
10
32.2260993351786
20
5.65059919128532
30
0
41
1
10
32.07008544881
20
5.72642742952189
30
0
41
1
10
31.8190308346768
20
5.84169117888496
30
0
41
1
10
31.7240291681061
20
5.88375479800135
30
0
41
1
10
31.6289540056452
20
5.92426534055392
30
0
0
SPLINE
5
10F
100
AcDbEntity
8
1
62
256
6
ByLayer
370
18
48
1
60
0
100
AcDbSpline
70
4
71
3
72
26
73
22
40
0
40
0
40
0
40
0
40
0.135848801671633
40
0.135848801671633
40
0.271697603343267
40
0.271697603343267
40
0.407546405014901
40
0.407546405014901
40
0.543395206686534
40
0.543395206686534
40
0.679244008358168
40
0.679244008358168
40
0.747168409193987
40
0.747168409193987
40
0.781130609611896
40
0.781130609611896
40
0.815092810029806
40
0.815092810029806
40
0.950941611701444
40
0.950941611701444
40
1
40
1
40
1
40
1
41
1
10
26.0503625057701
20
-6.18606707806933
30
0
41
1
10
26.2761126377203
20
-6.24013979485773
30
0
41
1
10
26.4967484487508
20
-6.29131037136005
30
0
41
1
10
26.9289393367792
20
-6.38449316527417
30
0
41
1
10
27.140495454552
20
-6.42649842502047
30
0
41
1
10
27.5562426944206
20
-6.4980619228493
30
0
41
1
10
27.7604332951831
20
-6.52761679989345
30
0
41
1
10
28.1637154598071
20
-6.57123104769329
30
0
41
1
10
28.3628177768516
20
-6.58525892044543
30
0
41
1
10
28.7586556630242
20
-6.59541332955448
30
0
41
1
10
28.955380505408
20
-6.5915464499173
30
0
41
1
10
29.2512022638546
20
-6.57083554538036
30
0
41
1
10
29.3499379215103
20
-6.56144927524457
30
0
41
1
10
29.49861371071
20
-6.54348647370526
30
0
41
1
10
29.5482681908662
20
-6.53685185919488
30
0
41
1
10
29.6478386647983
20
-6.52226498645879
30
0
41
1
10
29.6977003703411
20
-6.51431994053172
30
0
41
1
10
29.9471458594185
20
-6.47138953863649
30
0
41
1
10
30.1475208957567
20
-6.42668412538853
30
0
41
1
10
30.4247736118628
20
-6.35199561714157
30
0
41
1
10
30.498765209766
20
-6.33085691848763
30
0
41
1
10
30.5733190184015
20
-6.30843650133139
30
0
0
SPLINE
5
110
100
AcDbEntity
8
1
62
256
6
ByLayer
370
18
48
1
60
0
100
AcDbSpline
70
4
71
3
72
89
73
85
40
0
40
0
40
0
40
0
40
0.0624999999999713
40
0.0624999999999713
40
0.124999999999943
40
0.124999999999943
40
0.156249999999928
40
0.156249999999928
40
0.187499999999914
40
0.187499999999914
40
0.203124999999907
40
0.203124999999907
40
0.2187499999999
40
0.2187499999999
40
0.249999999999881
40
0.249999999999881
40
0.281249999999862
40
0.281249999999862
40
0.296874999999852
40
0.296874999999852
40
0.304687499999848
40
0.304687499999848
40
0.312499999999843
40
0.312499999999843
40
0.328124999999838
40
0.328124999999838
40
0.335937499999837
40
0.335937499999837
40
0.343749999999836
40
0.343749999999836
40
0.359374999999834
40
0.359374999999834
40
0.374999999999833
40
0.374999999999833
40
0.382812499999833
40
0.382812499999833
40
0.390624999999834
40
0.390624999999834
40
0.406249999999835
40
0.406249999999835
40
0.414062499999835
40
0.414062499999835
40
0.417968749999836
40
0.417968749999836
40
0.421874999999837
40
0.437499999999839
40
0.437499999999839
40
0.445312499999841
40
0.445312499999841
40
0.453124999999842
40
0.453124999999842
40
0.468749999999844
40
0.468749999999844
40
0.484374999999846
40
0.484374999999846
40
0.492187499999847
40
0.492187499999847
40
0.499999999999849
40
0.499999999999849
40
0.531249999999858
40
0.531249999999858
40
0.562499999999867
40
0.562499999999867
40
0.578124999999871
40
0.578124999999871
40
0.593749999999876
40
0.593749999999876
40
0.624999999999885
40
0.624999999999885
40
0.656249999999894
40
0.656249999999894
40
0.687499999999904
40
0.687499999999904
40
0.749999999999926
40
0.749999999999926
40
0.781249999999935
40
0.781249999999935
40
0.812499999999944
40
0.812499999999944
40
0.874999999999963
40
0.874999999999963
40
0.937499999999981
40
0.937499999999981
40
1
40
1
40
1
40
1
41
1
10
25.927663823686
20
-2.78750528243438
30
0
41
1
10
25.7483582600702
20
-2.76894042886352
30
0
41
1
10
25.5690944996392
20
-2.75783577242672
30
0
41
1
10
25.2108647370264
20
-2.75225334483605
30
0
41
1
10
25.0318988859079
20
-2.7577839688195
30
0
41
1
10
24.7637893987929
20
-2.78030793349521
30
0
41
1
10
24.6744756199828
20
-2.79019252571004
30
0
41
1
10
24.4959731003579
20
-2.81517810544904
30
0
41
1
10
24.4067843847663
20
-2.83027480367264
30
0
41
1
10
24.2731012340467
20
-2.85735056046403
30
0
41
1
10
24.2284795673496
20
-2.86713598358301
30
0
41
1
10
24.1397787835019
20
-2.8881857096722
30
0
41
1
10
24.0956820549724
20
-2.89945038639976
30
0
41
1
10
23.96419688909
20
-2.93560090842584
30
0
41
1
10
23.8776081673453
20
-2.9628268556869
30
0
41
1
10
23.7069104049407
20
-3.02460297625663
30
0
41
1
10
23.6227944491308
20
-3.05913088439388
30
0
41
1
10
23.4989235173997
20
-3.11780654214073
30
0
41
1
10
23.4580195127006
20
-3.13852022934344
30
0
41
1
10
23.3973356920707
20
-3.17161559732992
30
0
41
1
10
23.3772502672816
20
-3.18297077933244
30
0
41
1
10
23.337557744621
20
-3.20627535212085
30
0
41
1
10
23.3179262029073
20
-3.21823811353565
30
0
41
1
10
23.259720900529
20
-3.25512322121648
30
0
41
1
10
23.2218324515458
20
-3.28103658343784
30
0
41
1
10
23.1666031067201
20
-3.32222562841122
30
0
41
1
10
23.1484613662223
20
-3.33634299723957
30
0
41
1
10
23.1127650634267
20
-3.36542709878179
30
0
41
1
10
23.0951778055367
20
-3.38042315149687
30
0
41
1
10
23.0436150193964
20
-3.42661889584642
30
0
41
1
10
23.0110902640502
20
-3.4587814629391
30
0
41
1
10
22.950272974112
20
-3.52620577736417
30
0
41
1
10
22.9219770519796
20
-3.56146515933952
30
0
41
1
10
22.8832740734978
20
-3.61707291591679
30
0
41
1
10
22.8709986427876
20
-3.63606340549876
30
0
41
1
10
22.8478263377065
20
-3.67504233566109
30
0
41
1
10
22.8368794189582
20
-3.69514183987476
30
0
41
1
10
22.8068654924958
20
-3.75597767739407
30
0
41
1
10
22.7905124218677
20
-3.79735349285363
30
0
41
1
10
22.7716667645942
20
-3.86064479311102
30
0
41
1
10
22.7663330906383
20
-3.88194667044871
30
0
41
1
10
22.7597881277098
20
-3.91420823315909
30
0
41
1
10
22.7578451118266
20
-3.92504159723495
30
0
41
1
10
22.7544739500782
20
-3.94665299685164
30
0
41
1
10
22.7473314392008
20
-4.00051556259567
30
0
41
1
10
22.7463818869239
20
-4.0535617983067
30
0
41
1
10
22.7505168787323
20
-4.11647226665164
30
0
41
1
10
22.7527762204469
20
-4.13731814659923
30
0
41
1
10
22.7589651013424
20
-4.17876667009554
30
0
41
1
10
22.7628695446931
20
-4.19918858852571
30
0
41
1
10
22.7766881477691
20
-4.25931703682573
30
0
41
1
10
22.7887184961233
20
-4.29803870050296
30
0
41
1
10
22.8173210820362
20
-4.37322827031244
30
0
41
1
10
22.8338955728136
20
-4.4096952091698
30
0
41
1
10
22.8615742812683
20
-4.46296250641009
30
0
41
1
10
22.8712850917008
20
-4.48049651755324
30
0
41
1
10
22.8913885222685
20
-4.51482235280199
30
0
41
1
10
22.9018003226258
20
-4.53165371132741
30
0
41
1
10
22.9554590410405
20
-4.61432211336373
30
0
41
1
10
23.0034143938961
20
-4.67576981883286
30
0
41
1
10
23.1060634698649
20
-4.79211105951339
30
0
41
1
10
23.1607978106492
20
-4.8469709299971
30
0
41
1
10
23.2466369304083
20
-4.92547498249178
30
0
41
1
10
23.2757817682068
20
-4.95091344693228
30
0
41
1
10
23.3347801637599
20
-5.00035715472481
30
0
41
1
10
23.3646667053676
20
-5.02439177484413
30
0
41
1
10
23.4553204072224
20
-5.09468621600598
30
0
41
1
10
23.5170738669394
20
-5.13914829889046
30
0
41
1
10
23.6425822578933
20
-5.22422574061844
30
0
41
1
10
23.7063411285753
20
-5.26483529857384
30
0
41
1
10
23.835445532492
20
-5.34283310007876
30
0
41
1
10
23.9007932236762
20
-5.38021804305799
30
0
41
1
10
24.0987747746175
20
-5.48820351370748
30
0
41
1
10
24.2333215911733
20
-5.55467647026433
30
0
41
1
10
24.4377880046704
20
-5.64790691128542
30
0
41
1
10
24.5063913966169
20
-5.67789306173088
30
0
41
1
10
24.6443585445409
20
-5.7358829145046
30
0
41
1
10
24.7137683545662
20
-5.76390362879388
30
0
41
1
10
24.9225889624521
20
-5.84507277366916
30
0
41
1
10
25.0625523037156
20
-5.89533929312731
30
0
41
1
10
25.3434622146338
20
-5.98920895740449
30
0
41
1
10
25.4844114510433
20
-6.03280590705671
30
0
41
1
10
25.7669565249502
20
-6.11392266708336
30
0
41
1
10
25.9085538315674
20
-6.15143858518906
30
0
41
1
10
26.0503625057702
20
-6.18606707806933
30
0
0
SPLINE
5
111
100
AcDbEntity
8
1
62
256
6
ByLayer
370
13
48
1
60
0
100
AcDbSpline
70
4
71
5
72
12
73
6
40
0
40
0
40
0
40
0
40
0
40
0
40
1
40
1
40
1
40
1
40
1
40
1
41
1
10
13.5100000000738
20
5.22331442489741
30
0
41
0.986727442165217
10
13.5100000000738
20
5.0168536523997
30
0
41
0.9802012637425
10
13.5100000000737
20
4.61463202873672
30
0
41
0.9802012637425
10
13.5100000000737
20
4.03068313605883
30
0
41
0.986727442165218
10
13.5100000000738
20
3.286217665272
30
0
41
1
10
13.5100000000738
20
2.40885874604868
30
0
0
SPLINE
5
112
100
AcDbEntity
8
1
62
256
6
ByLayer
370
13
48
1
60
0
100
AcDbSpline
70
4
71
3
72
11
73
7
40
0
40
0
40
0
40
0
40
0.248315805087238
40
0.51116149903035
40
0.774007192973461
40
1
40
1
40
1
40
1
41
1
10
44.7559304192525
20
-3.10612587974481
30
0
41
1
10
44.1310369461683
20
-2.71784686252843
30
0
41
1
10
42.8446851397509
20
-1.84808726611789
30
0
41
1
10
40.896875
20
-0.374478673806635
30
0
41
1
10
39.0052412916403
20
1.06525558605657
30
0
41
1
10
37.7750659166137
20
1.96012767317853
30
0
41
1
10
37.2063488749207
20
2.35080038220863
30
0
0
SPLINE
5
113
100
AcDbEntity
8
1
62
256
6
ByLayer
370
18
48
1
60
0
100
AcDbSpline
70
4
71
3
72
18
73
14
40
0
40
0
40
0
40
0
40
0.25
40
0.25
40
0.5
40
0.5
40
0.625
40
0.625
40
0.75
40
0.75
40
0.875
40
0.875
40
1
40
1
40
1
40
1
41
1
10
43.3783147181981
20
-0.244515824021903
30
0
41
1
10
43.5003684691
20
-0.480694262477812
30
0
41
1
10
43.6215333679759
20
-0.7171532462865
30
0
41
1
10
43.8612818357099
20
-1.19088595034984
30
0
41
1
10
43.9798839116462
20
-1.42815382927793
30
0
41
1
10
44.1546897705629
20
-1.78503322376614
30
0
41
1
10
44.2124349524213
20
-1.9041582328218
30
0
41
1
10
44.3265384745507
20
-2.14284597504346
30
0
41
1
10
44.3828998957078
20
-2.26240773579985
30
0
41
1
10
44.4937279255907
20
-2.50212931053926
30
0
41
1
10
44.5482011168442
20
-2.62228704690131
30
0
41
1
10
44.6544388165285
20
-2.86345745200558
30
0
41
1
10
44.7062198569402
20
-2.98446490281472
30
0
41
1
10
44.7559304090697
20
-3.10612585482386
30
0
0
SPLINE
5
114
100
AcDbEntity
8
1
62
256
6
ByLayer
370
18
48
1
60
0
100
AcDbSpline
70
4
71
3
72
50
73
46
40
0
40
0
40
0
40
0
40
0.0625000000000011
40
0.0625000000000011
40
0.125000000000002
40
0.125000000000002
40
0.156250000000003
40
0.156250000000003
40
0.187500000000003
40
0.187500000000003
40
0.250000000000005
40
0.250000000000005
40
0.281250000000005
40
0.281250000000005
40
0.312500000000006
40
0.312500000000006
40
0.375000000000007
40
0.375000000000007
40
0.437500000000008
40
0.437500000000008
40
0.468750000000003
40
0.468750000000003
40
0.499999999999999
40
0.499999999999999
40
0.562499999999989
40
0.562499999999989
40
0.593749999999985
40
0.593749999999985
40
0.62499999999998
40
0.62499999999998
40
0.68749999999997
40
0.68749999999997
40
0.718749999999975
40
0.718749999999975
40
0.749999999999979
40
0.749999999999979
40
0.812499999999969
40
0.812499999999969
40
0.874999999999958
40
0.874999999999958
40
0.906249999999963
40
0.906249999999963
40
0.937499999999968
40
0.937499999999968
40
1
40
1
40
1
40
1
41
1
10
43.3783147181981
20
-0.244515824021903
30
0
41
1
10
43.3611445523365
20
-0.211290929815476
30
0
41
1
10
43.3465933360637
20
-0.177242004242856
30
0
41
1
10
43.3225793707156
20
-0.107531045136227
30
0
41
1
10
43.3131160286227
20
-0.0718692226669475
30
0
41
1
10
43.3027632513836
20
-0.0171476634494354
30
0
41
1
10
43.2999469315762
20
0.0013742559307559
30
0
41
1
10
43.2956667197744
20
0.0384060117015963
30
0
41
1
10
43.2941972951846
20
0.0569017632611519
30
0
41
1
10
43.2917181961573
20
0.112328148985853
30
0
41
1
10
43.2926290644168
20
0.149198152382752
30
0
41
1
10
43.2976718247656
20
0.204375657106283
30
0
41
1
10
43.2999676518108
20
0.222746851120462
30
0
41
1
10
43.3057877685123
20
0.259444829525592
30
0
41
1
10
43.3093218480823
20
0.277790721254121
30
0
41
1
10
43.3215693952334
20
0.331912912297014
30
0
41
1
10
43.3319553474818
20
0.367062415190787
30
0
41
1
10
43.3568942089537
20
0.435548066826243
30
0
41
1
10
43.3714472725667
20
0.468884392332313
30
0
41
1
10
43.3964226081291
20
0.517485883817159
30
0
41
1
10
43.4052285003462
20
0.533355185364087
30
0
41
1
10
43.4236234885038
20
0.564175571739099
30
0
41
1
10
43.4332345293109
20
0.57916979403609
30
0
41
1
10
43.4632819889514
20
0.622924402020402
30
0
41
1
10
43.4849247299515
20
0.650462921977407
30
0
41
1
10
43.5198465287518
20
0.689291117420026
30
0
41
1
10
43.5319041941116
20
0.701824372351979
30
0
41
1
10
43.5568529169702
20
0.726014499713642
30
0
41
1
10
43.5696052802828
20
0.7375375794729
30
0
41
1
10
43.6086919306645
20
0.770434798339124
30
0
41
1
10
43.6358498800747
20
0.79014530100082
30
0
41
1
10
43.6783275812945
20
0.816395536029745
30
0
41
1
10
43.6927783999856
20
0.824590920111405
30
0
41
1
10
43.7222971144545
20
0.839848782835503
30
0
41
1
10
43.7374145902872
20
0.846931674593918
30
0
41
1
10
43.7834145883961
20
0.866272706904965
30
0
41
1
10
43.814635077919
20
0.876524497219265
30
0
41
1
10
43.8783627966636
20
0.891884260024341
30
0
41
1
10
43.9108691809254
20
0.896992039326932
30
0
41
1
10
43.960804037957
20
0.900667788132381
30
0
41
1
10
43.9777127420379
20
0.901223751711143
30
0
41
1
10
44.0115501855956
20
0.900960958131691
30
0
41
1
10
44.0284865798127
20
0.900149392340325
30
0
41
1
10
44.0793872243035
20
0.89571025962249
30
0
41
1
10
44.1134426522257
20
0.890086512725702
30
0
41
1
10
44.1477226327576
20
0.881790806375506
30
0
0
SPLINE
5
115
100
AcDbEntity
8
1
62
256
6
ByLayer
370
18
48
1
60
0
100
AcDbSpline
70
4
71
3
72
32
73
28
40
0
40
0
40
0
40
0
40
0.124999999999948
40
0.124999999999948
40
0.156249999999937
40
0.156249999999937
40
0.187499999999926
40
0.187499999999926
40
0.249999999999906
40
0.249999999999906
40
0.374999999999875
40
0.374999999999875
40
0.437499999999865
40
0.437499999999865
40
0.468749999999867
40
0.468749999999867
40
0.499999999999868
40
0.499999999999868
40
0.624999999999897
40
0.624999999999897
40
0.749999999999927
40
0.749999999999927
40
0.874999999999956
40
0.874999999999956
40
0.937499999999978
40
0.937499999999978
40
1
40
1
40
1
40
1
41
1
10
46.1063400639177
20
0.403489458546062
30
0
41
1
10
46.0665416576783
20
0.413569589670686
30
0
41
1
10
46.0181600744131
20
0.425689581454947
30
0
41
1
10
45.9470787146774
20
0.443359787049815
30
0
41
1
10
45.9323326094942
20
0.447019747274055
30
0
41
1
10
45.9017855992452
20
0.454590349350468
30
0
41
1
10
45.8860231133548
20
0.458491444963499
30
0
41
1
10
45.8376677781629
20
0.470444004303317
30
0
41
1
10
45.8038767392353
20
0.47877706493486
30
0
41
1
10
45.6982912307858
20
0.504764702754784
30
0
41
1
10
45.6222985066646
20
0.523404418544516
30
0
41
1
10
45.50140148732
20
0.552984968626106
30
0
41
1
10
45.4599473520556
20
0.563116207959922
30
0
41
1
10
45.3961904935769
20
0.57868280135844
30
0
41
1
10
45.3746469262064
20
0.583940277105654
30
0
41
1
10
45.3312676343303
20
0.594521856006224
30
0
41
1
10
45.3094185016599
20
0.59984923998087
30
0
41
1
10
45.1994294978607
20
0.626656720688857
30
0
41
1
10
45.1090759231619
20
0.648644755782755
30
0
41
1
10
44.9247359653257
20
0.693454380556403
30
0
41
1
10
44.8307445169076
20
0.716277132474204
30
0
41
1
10
44.6398894500744
20
0.76258166100456
30
0
41
1
10
44.5430229831077
20
0.786064091222443
30
0
41
1
10
44.3959888592552
20
0.821685703193026
30
0
41
1
10
44.3466870810116
20
0.833626207496764
30
0
41
1
10
44.2475597204426
20
0.857627403915217
30
0
41
1
10
44.1976974338409
20
0.869696975858062
30
0
41
1
10
44.1477226327576
20
0.881790806375506
30
0
0
SPLINE
5
116
100
AcDbEntity
8
1
62
256
6
ByLayer
370
18
48
1
60
0
100
AcDbSpline
70
4
71
3
72
8
73
4
40
0
40
0
40
0
40
0
40
1
40
1
40
1
40
1
41
1
10
12.2392310537384
20
3.48988695837238
30
0
41
1
10
12.1342382522127
20
3.59120478466306
30
0
41
1
10
12.0280438534813
20
3.69398436595358
30
0
41
1
10
11.9213454659657
20
3.79875477921246
30
0
0
SPLINE
5
117
100
AcDbEntity
8
1
62
256
6
ByLayer
370
13
48
1
60
0
100
AcDbSpline
70
4
71
1
72
4
73
2
40
0
40
0
40
1
40
1
41
1
10
13.51
20
2.25409980962141
30
0
41
1
10
13.0090926717236
20
2.73044774028031
30
0
0
SPLINE
5
118
100
AcDbEntity
8
1
62
256
6
ByLayer
370
13
48
1
60
0
100
AcDbSpline
70
4
71
5
72
12
73
6
40
0
40
0
40
0
40
0
40
0
40
0
40
1
40
1
40
1
40
1
40
1
40
1
41
0.97950242119254
10
30.9750000000034
20
4.39885104773327
30
0
41
0.905485244772699
10
30.9750000000034
20
3.73705862767168
30
0
41
0.874011544901508
10
30.9750000000034
20
2.64340764348784
30
0
41
0.877704609434452
10
30.9750000000034
20
1.34930681918002
30
0
41
0.916970889600079
10
30.9750000000034
20
0.128833485555003
30
0
41
1
10
30.9750000000033
20
-0.759129364481964
30
0
0
SPLINE
5
119
100
AcDbEntity
8
1
62
256
6
ByLayer
370
13
48
1
60
0
100
AcDbSpline
70
4
71
3
72
11
73
7
40
0
40
0
40
0
40
0
40
0.164025127335122
40
0.373018845501341
40
0.582012563667561
40
1
40
1
40
1
40
1
41
1
10
40.4699026095691
20
-4.99713924049465
30
0
41
1
10
39.9507684063795
20
-4.96501329827606
30
0
41
1
10
38.7701758698564
20
-4.80384147485546
30
0
41
1
10
36.9281249999999
20
-4.22988109047603
30
0
41
1
10
34.2822916666667
20
-2.99884273407028
30
0
41
1
10
32.2979166666667
20
-1.6700773675233
30
0
41
1
10
30.975
20
-0.759129364479662
30
0
0
SPLINE
5
11A
100
AcDbEntity
8
1
62
256
6
ByLayer
370
13
48
1
60
0
100
AcDbSpline
70
4
71
3
72
16
73
12
40
0
40
0
40
0
40
0
40
0.0982449824440074
40
0.215965891333431
40
0.333686800222854
40
0.451407709112277
40
0.5691286180017
40
0.686849526891123
40
0.804570435780546
40
0.922291344669969
40
1
40
1
40
1
40
1
41
1
10
40.2540112266292
20
-6.63496356552946
30
0
41
1
10
39.6743408177528
20
-6.80022672655181
30
0
41
1
10
38.400087075543
20
-7.01949280231955
30
0
41
1
10
36.43125
20
-6.84408091990844
30
0
41
1
10
34.3475
20
-6.0806855111291
30
0
41
1
10
32.26375
20
-4.8041156284936
30
0
41
1
10
30.1799999999999
20
-3.1222765068436
30
0
41
1
10
28.09625
20
-1.17677320861591
30
0
41
1
10
26.0125
20
0.868022643619184
30
0
41
1
10
24.1648324828286
20
2.61617344335374
30
0
41
1
10
23.0117482989906
20
3.59710658290436
30
0
41
1
10
22.553247448486
20
3.96273694245173
30
0
0
SPLINE
5
11B
100
AcDbEntity
8
1
62
256
6
ByLayer
370
18
48
1
60
0
100
AcDbSpline
70
4
71
3
72
8
73
4
40
0
40
0
40
0
40
0
40
1
40
1
40
1
40
1
41
1
10
46.2226352470682
20
-6.35400818838113
30
0
41
1
10
46.212300065835
20
-6.3768814359178
30
0
41
1
10
46.20157000937
20
-6.39815204195725
30
0
41
1
10
46.190529737052
20
-6.41816972805813
30
0
0
SPLINE
5
11C
100
AcDbEntity
8
1
62
256
6
ByLayer
370
18
48
1
60
0
100
AcDbSpline
70
4
71
3
72
16
73
12
40
0
40
0
40
0
40
0
40
0.125
40
0.125
40
0.25
40
0.25
40
0.5
40
0.5
40
0.75
40
0.75
40
1
40
1
40
1
40
1
41
1
10
46.2226352470692
20
-6.3540081883807
30
0
41
1
10
46.2213072256464
20
-6.34144748920318
30
0
41
1
10
46.2197790299585
20
-6.32901431540512
30
0
41
1
10
46.2163477674804
20
-6.30438678761777
30
0
41
1
10
46.2144614162014
20
-6.29232110475857
30
0
41
1
10
46.2084153082087
20
-6.25717125512259
30
0
41
1
10
46.2038470230261
20
-6.23494140443105
30
0
41
1
10
46.1938311573514
20
-6.19245014384063
30
0
41
1
10
46.1883580607201
20
-6.17213750350709
30
0
41
1
10
46.1768826118275
20
-6.13407401115896
30
0
41
1
10
46.1708550203089
20
-6.11620531198992
30
0
41
1
10
46.1645722020045
20
-6.09936067203981
30
0
0
SPLINE
5
11D
100
AcDbEntity
8
1
62
256
6
ByLayer
370
13
48
1
60
0
100
AcDbSpline
70
4
71
3
72
13
73
9
40
0
40
0
40
0
40
0
40
0.289298254153321
40
0.46242080951077
40
0.635543364868219
40
0.808665920225669
40
0.981788475583118
40
1
40
1
40
1
40
1
41
1
10
46.1645721993579
20
-6.09936066494427
30
0
41
1
10
45.0038814662386
20
-5.5611635838068
30
0
41
1
10
43.1486073997859
20
-4.30571323065212
30
0
41
1
10
40.59875
20
-2.04072048876424
30
0
41
1
10
38.515
20
-0.0179541490789745
30
0
41
1
10
36.4312500000001
20
2.00646550382473
30
0
41
1
10
34.9690170520019
20
3.30819548572484
30
0
41
1
10
34.2013674373372
20
3.92520349365506
30
0
41
1
10
34.1283011560058
20
3.98330511450794
30
0
0
SPLINE
5
11E
100
AcDbEntity
8
1
62
256
6
ByLayer
370
13
48
1
60
0
100
AcDbSpline
70
4
71
3
72
14
73
10
40
0
40
0
40
0
40
0
40
0.0826976832233004
40
0.213740871334258
40
0.344784059445215
40
0.475827247556172
40
0.606870435667129
40
0.737913623778086
40
1
40
1
40
1
40
1
41
1
10
29.4112462230058
20
-6.63194947909309
30
0
41
1
10
28.9729141486705
20
-6.75754241788471
30
0
41
1
10
27.839998741002
20
-6.98570860619438
30
0
41
1
10
26.0125
20
-6.9316288003408
30
0
41
1
10
23.9287499999999
20
-6.2848658055515
30
0
41
1
10
21.845
20
-5.10783884770126
30
0
41
1
10
19.76125
20
-3.49961584394924
30
0
41
1
10
16.9829166666667
20
-0.961462979077851
30
0
41
1
10
14.8991666666667
20
1.14397417308044
30
0
41
1
10
13.51
20
2.40885874611584
30
0
0
SPLINE
5
11F
100
AcDbEntity
8
1
62
256
6
ByLayer
370
18
48
1
60
0
100
AcDbSpline
70
4
71
5
72
12
73
6
40
0
40
0
40
0
40
0
40
0
40
0
40
1
40
1
40
1
40
1
40
1
40
1
41
1
10
13.51
20
2.40885874611584
30
0
41
0.982046375545599
10
13.51
20
2.35476869192774
30
0
41
0.973271021212804
10
13.51
20
2.31033869203301
30
0
41
0.973271021212804
10
13.51
20
2.27780679275331
30
0
41
0.982046375545599
10
13.51
20
2.25876864619224
30
0
41
1
10
13.51
20
2.25409980962141
30
0
0
SPLINE
5
120
100
AcDbEntity
8
1
62
256
6
ByLayer
370
18
48
1
60
0
100
AcDbSpline
70
4
71
3
72
68
73
64
40
0
40
0
40
0
40
0
40
0.0308355791878191
40
0.0308355791878191
40
0.0469883195346891
40
0.0469883195346891
40
0.0631410598815591
40
0.0631410598815591
40
0.0954465405753005
40
0.0954465405753005
40
0.160057501962785
40
0.160057501962785
40
0.192362982656526
40
0.192362982656526
40
0.224668463350268
40
0.224668463350268
40
0.256973944044009
40
0.256973944044009
40
0.28927942473775
40
0.28927942473775
40
0.30543216508462
40
0.30543216508462
40
0.32158490543149
40
0.35389038612523
40
0.35389038612523
40
0.38619586681897
40
0.38619586681897
40
0.402348607165839
40
0.402348607165839
40
0.418501347512709
40
0.418501347512709
40
0.483112308900182
40
0.483112308900182
40
0.51541778959392
40
0.51541778959392
40
0.531570529940788
40
0.531570529940788
40
0.547723270287657
40
0.547723270287657
40
0.612334231675129
40
0.612334231675129
40
0.628486972021998
40
0.628486972021998
40
0.644639712368867
40
0.644639712368867
40
0.676945193062604
40
0.676945193062604
40
0.741556154450082
40
0.741556154450082
40
0.757708894796951
40
0.757708894796951
40
0.773861635143821
40
0.773861635143821
40
0.80616711583756
40
0.80616711583756
40
0.870778077225039
40
0.870778077225039
40
0.886930817571909
40
0.886930817571909
40
0.903083557918779
40
0.935389038612519
40
0.935389038612519
40
1
40
1
40
1
40
1
41
1
10
31.455152064197
20
6.05345779653885
30
0
41
1
10
31.601154197392
20
6.12932268554346
30
0
41
1
10
31.7470953674305
20
6.20149533479554
30
0
41
1
10
31.9695869770363
20
6.30551926440228
30
0
41
1
10
32.0460913414666
20
6.34020887235408
30
0
41
1
10
32.1991849199515
20
6.40739869453114
30
0
41
1
10
32.2758140053105
20
6.43991448163587
30
0
41
1
10
32.5054331695455
20
6.53392681631951
30
0
41
1
10
32.6582456263929
20
6.591929920117
30
0
41
1
10
33.1164131210097
20
6.75177777768909
30
0
41
1
10
33.421516795757
20
6.83941805899579
30
0
41
1
10
33.8806105841257
20
6.94273690055294
30
0
41
1
10
34.034011410638
20
6.9725099482973
30
0
41
1
10
34.3401465800336
20
7.02267127332172
30
0
41
1
10
34.493026462963
20
7.04313119716426
30
0
41
1
10
34.7986457553752
20
7.07501732989425
30
0
41
1
10
34.9513812847088
20
7.08642154851592
30
0
41
1
10
35.2569825398246
20
7.09960309956205
30
0
41
1
10
35.4098491563142
20
7.10139364314193
30
0
41
1
10
35.6394989736367
20
7.09662679662051
30
0
41
1
10
35.7161252398357
20
7.09379338923054
30
0
41
1
10
35.8691523282227
20
7.0856331837102
30
0
41
1
10
36.0984953557711
20
7.06965334575963
30
0
41
1
10
36.3274446685097
20
7.04242748751778
30
0
41
1
10
36.6327224360634
20
6.99615339772956
30
0
41
1
10
36.7853677521233
20
6.9680312756102
30
0
41
1
10
37.0146144425466
20
6.91843110232372
30
0
41
1
10
37.0910763960514
20
6.90066185996793
30
0
41
1
10
37.2441366131786
20
6.86266588019768
30
0
41
1
10
37.3207757596179
20
6.84242675795031
30
0
41
1
10
37.7035399384284
20
6.73538421355525
30
0
41
1
10
38.0088906996651
20
6.63093923274414
30
0
41
1
10
38.4674300607985
20
6.4481835264138
30
0
41
1
10
38.6203534801074
20
6.38293995277726
30
0
41
1
10
38.8500343107592
20
6.27871639694351
30
0
41
1
10
38.9266892207137
20
6.2428841892424
30
0
41
1
10
39.0798683129363
20
6.16917204613858
30
0
41
1
10
39.1563915068948
20
6.13129676324621
30
0
41
1
10
39.5387659513133
20
5.93684805648468
30
0
41
1
10
39.8438780521196
20
5.76504691852182
30
0
41
1
10
40.225892066284
20
5.53048525220476
30
0
41
1
10
40.3023268987704
20
5.48258308813263
30
0
41
1
10
40.4553036704693
20
5.38481413229596
30
0
41
1
10
40.5318853192892
20
5.3349208655699
30
0
41
1
10
40.7615684817453
20
5.18251017631715
30
0
41
1
10
40.914419911815
20
5.07739202826568
30
0
41
1
10
41.3726795189527
20
4.75193559180278
30
0
41
1
10
41.6778012099272
20
4.52150547128824
30
0
41
1
10
42.0603571444305
20
4.21799018373031
30
0
41
1
10
42.1369410502863
20
4.15649977502241
30
0
41
1
10
42.2901954087262
20
4.03205324132989
30
0
41
1
10
42.3667583463967
20
3.96918478797636
30
0
41
1
10
42.596310536437
20
3.77870741786362
30
0
41
1
10
42.7491636562559
20
3.64923375475274
30
0
41
1
10
43.2075913883379
20
3.25374233034293
30
0
41
1
10
43.5130248029202
20
2.98061807697388
30
0
41
1
10
43.8960836095335
20
2.62868255432503
30
0
41
1
10
43.9726168883643
20
2.55789926267786
30
0
41
1
10
44.1254089399337
20
2.41572961725572
30
0
41
1
10
44.3542613522492
20
2.20150034259061
30
0
41
1
10
44.5822898567263
20
1.98453977074595
30
0
41
1
10
45.0377265504099
20
1.54746976697126
30
0
41
1
10
45.3405259344214
20
1.2518972868246
30
0
41
1
10
45.643743047884
20
0.953364835302125
30
0
0
SPLINE
5
121
100
AcDbEntity
8
1
62
256
6
ByLayer
370
18
48
1
60
0
100
AcDbSpline
70
4
71
3
72
10
73
6
40
0
40
0
40
0
40
0
40
0.5
40
0.5
40
1
40
1
40
1
40
1
41
1
10
45.3941842258663
20
7.21553813450191
30
0
41
1
10
45.4409075386292
20
7.18307926245731
30
0
41
1
10
45.4853228643776
20
7.14694538453227
30
0
41
1
10
45.5687907370254
20
7.06719604395965
30
0
41
1
10
45.6078072958703
20
7.02351471456811
30
0
41
1
10
45.6437503688173
20
6.9762077129561
30
0
0
SPLINE
5
122
100
AcDbEntity
8
1
62
256
6
ByLayer
370
13
48
1
60
0
100
AcDbSpline
70
4
71
3
72
8
73
4
40
0
40
0
40
0
40
0
40
1
40
1
40
1
40
1
41
1
10
16.6168909831571
20
-3.69305449242853
30
0
41
1
10
15.5812606554381
20
-3.08985765715897
30
0
41
1
10
14.545630327719
20
-2.37091337681753
30
0
41
1
10
13.51
20
-1.59671586102166
30
0
0
SPLINE
5
123
100
AcDbEntity
8
1
62
256
6
ByLayer
370
18
48
1
60
0
100
AcDbSpline
70
4
71
3
72
17
73
13
40
0
40
0
40
0
40
0
40
0.0568261622417623
40
0.0568261622417623
40
0.371217441494501
40
0.371217441494501
40
0.449815261307686
40
0.449815261307686
40
0.528413081120871
40
0.685608720747248
40
0.685608720747248
40
1
40
1
40
1
40
1
41
1
10
42.7297759474969
20
5.88044581908164
30
0
41
1
10
42.7851283893446
20
5.91117905264991
30
0
41
1
10
42.8404624457669
20
5.94137682055757
30
0
41
1
10
43.2018554853437
20
6.13513182317041
30
0
41
1
10
43.5075545167766
20
6.28271950090294
30
0
41
1
10
43.890713672835
20
6.44579589343931
30
0
41
1
10
43.9674508050667
20
6.47735960432641
30
0
41
1
10
44.120814637936
20
6.53821466992096
30
0
41
1
10
44.3504998796436
20
6.6260158999699
30
0
41
1
10
44.5792898465324
20
6.70339442590506
30
0
41
1
10
45.036161152847
20
6.84424655833769
30
0
41
1
10
45.3397997663782
20
6.91962960735441
30
0
41
1
10
45.6437503688203
20
6.97620771292742
30
0
0
SPLINE
5
124
100
AcDbEntity
8
1
62
256
6
ByLayer
370
13
48
1
60
0
100
AcDbSpline
70
4
71
3
72
10
73
6
40
0
40
0
40
0
40
0
40
0.0155574682581616
40
0.804436552957211
40
1
40
1
40
1
40
1
41
1
10
26.0535935910353
20
4.94741551971029
30
0
41
1
10
26.0398957273569
20
4.95228982169752
30
0
41
1
10
25.3316145303451
20
5.20292321261505
30
0
41
1
10
24.4511458415367
20
5.42393947193426
30
0
41
1
10
23.5843750164067
20
5.5193277359119
30
0
41
1
10
23.4121875246101
20
5.53344700090517
30
0
0
SPLINE
5
125
100
AcDbEntity
8
1
62
256
6
ByLayer
370
18
48
1
60
0
100
AcDbSpline
70
4
71
3
72
57
73
53
40
0
40
0
40
0
40
0
40
0.0624999999999963
40
0.0624999999999963
40
0.124999999999993
40
0.124999999999993
40
0.156249999999991
40
0.156249999999991
40
0.187499999999989
40
0.187499999999989
40
0.24999999999998
40
0.24999999999998
40
0.281249999999976
40
0.281249999999976
40
0.296874999999974
40
0.296874999999974
40
0.312499999999972
40
0.312499999999972
40
0.374999999999974
40
0.374999999999974
40
0.437499999999976
40
0.437499999999976
40
0.468749999999979
40
0.468749999999979
40
0.484374999999983
40
0.484374999999983
40
0.499999999999987
40
0.562499999999988
40
0.562499999999988
40
0.593749999999986
40
0.593749999999986
40
0.624999999999984
40
0.624999999999984
40
0.656249999999982
40
0.656249999999982
40
0.671874999999984
40
0.671874999999984
40
0.687499999999986
40
0.687499999999986
40
0.749999999999987
40
0.749999999999987
40
0.812499999999989
40
0.812499999999989
40
0.87499999999999
40
0.87499999999999
40
0.906249999999994
40
0.906249999999994
40
0.921874999999996
40
0.921874999999996
40
0.937499999999998
40
0.937499999999998
40
1
40
1
40
1
40
1
41
1
10
30.975
20
4.39864754373906
30
0
41
1
10
30.8835675669499
20
4.46992710954126
30
0
41
1
10
30.7920766908899
20
4.54160083764913
30
0
41
1
10
30.6092543566969
20
4.68399120562128
30
0
41
1
10
30.51791984369
20
4.75474838136938
30
0
41
1
10
30.3811100551981
20
4.85846798219274
30
0
41
1
10
30.3355378572232
20
4.89263036047657
30
0
41
1
10
30.2444519082533
20
4.95966637184895
30
0
41
1
10
30.1989386903654
20
4.99254178923337
30
0
41
1
10
30.0624489235121
20
5.08825178927827
30
0
41
1
10
29.9715667521759
20
5.14820352971628
30
0
41
1
10
29.8347365818778
20
5.22689642297564
30
0
41
1
10
29.7890315119262
20
5.25123812981627
30
0
41
1
10
29.7201357275125
20
5.28439348111877
30
0
41
1
10
29.6970402772453
20
5.2949181773846
30
0
41
1
10
29.6511989043033
20
5.31459831324818
30
0
41
1
10
29.628426664654
20
5.32377107511624
30
0
41
1
10
29.5151597808224
20
5.36643891057767
30
0
41
1
10
29.4264175886308
20
5.39036948371174
30
0
41
1
10
29.2489119765154
20
5.42227684312002
30
0
41
1
10
29.1601550041723
20
5.4302821646429
30
0
41
1
10
29.024930973646
20
5.43227715504335
30
0
41
1
10
28.9795146216249
20
5.43125719663647
30
0
41
1
10
28.9106488954167
20
5.42733309102019
30
0
41
1
10
28.8875411612767
20
5.42562242573504
30
0
41
1
10
28.8412423593429
20
5.42143955445786
30
0
41
1
10
28.7252351832607
20
5.40908008823757
30
0
41
1
10
28.6075007189325
20
5.38762658125378
30
0
41
1
10
28.4629302963085
20
5.35457913363783
30
0
41
1
10
28.4141915819604
20
5.342345181864
30
0
41
1
10
28.3153246297235
20
5.315704288316
30
0
41
1
10
28.2651989000711
20
5.30127786342752
30
0
41
1
10
28.1632250271826
20
5.27068137246531
30
0
41
1
10
28.1113734946662
20
5.25452995903808
30
0
41
1
10
28.0320465167371
20
5.22948166344892
30
0
41
1
10
28.0053325948571
20
5.22099112909248
30
0
41
1
10
27.9515643640285
20
5.20388337401636
30
0
41
1
10
27.9244855351715
20
5.19525844372416
30
0
41
1
10
27.7880428486538
20
5.15197995758277
30
0
41
1
10
27.6754736658453
20
5.11684623403357
30
0
41
1
10
27.4421109978552
20
5.05080497485352
30
0
41
1
10
27.3229722113187
20
5.02037571362118
30
0
41
1
10
27.0795316230298
20
4.96957268300812
30
0
41
1
10
26.9552287822244
20
4.94925759992938
30
0
41
1
10
26.7651099849371
20
4.92933028183143
30
0
41
1
10
26.7011304142072
20
4.92443361128986
30
0
41
1
10
26.604310711544
20
4.91996046024562
30
0
41
1
10
26.5718595249987
20
4.91894759967002
30
0
41
1
10
26.5070156001683
20
4.91791162483284
30
0
41
1
10
26.4745924492113
20
4.91788596785093
30
0
41
1
10
26.3124951219021
20
4.92022326456714
30
0
41
1
10
26.1828831189833
20
4.93002617429926
30
0
41
1
10
26.0535935910353
20
4.94741551971029
30
0
0
SPLINE
5
126
100
AcDbEntity
8
1
62
256
6
ByLayer
370
18
48
1
60
0
100
AcDbSpline
70
4
71
3
72
8
73
4
40
0
40
0
40
0
40
0
40
1
40
1
40
1
40
1
41
1
10
30.9748806489728
20
4.39875481176401
30
0
41
1
10
30.9749204345261
20
4.39927091558135
30
0
41
1
10
30.9749602201097
20
4.39978638327139
30
0
41
1
10
30.9750000057235
20
4.40030121424971
30
0
0
SPLINE
5
127
100
AcDbEntity
8
1
62
256
6
ByLayer
370
18
48
1
60
0
100
AcDbSpline
70
4
71
3
72
22
73
18
40
0
40
0
40
0
40
0
40
0.258347858741633
40
0.258347858741633
40
0.322934823427043
40
0.322934823427043
40
0.387521788112452
40
0.387521788112452
40
0.516695717483278
40
0.516695717483278
40
0.775043576224928
40
0.775043576224928
40
0.839630540910339
40
0.839630540910339
40
0.90421750559575
40
0.90421750559575
40
1
40
1
40
1
40
1
41
1
10
30.9750000000034
20
4.40030113982064
30
0
41
1
10
31.2819201958144
20
4.1608128937828
30
0
41
1
10
31.5879596662555
20
3.91062146981895
30
0
41
1
10
31.9708847215523
20
3.58464851897662
30
0
41
1
10
32.0474907298003
20
3.51879650313069
30
0
41
1
10
32.2007888598376
20
3.38579734282922
30
0
41
1
10
32.2775170893043
20
3.31861792225672
30
0
41
1
10
32.5074159727258
20
3.11560419131166
30
0
41
1
10
32.6604177049694
20
2.97819454135285
30
0
41
1
10
33.1191635534185
20
2.56027458747593
30
0
41
1
10
33.4246670375335
20
2.27407672924357
30
0
41
1
10
33.8077670759005
20
1.90865756389678
30
0
41
1
10
33.8844635232229
20
1.83517378277833
30
0
41
1
10
34.0379388346247
20
1.6875499329129
30
0
41
1
10
34.1146127925324
20
1.61351101258154
30
0
41
1
10
34.304879312977
20
1.42916093912533
30
0
41
1
10
34.4184167975143
20
1.31860539041261
30
0
41
1
10
34.5319008551301
20
1.20765354645289
30
0
0
SPLINE
5
128
100
AcDbEntity
8
1
62
256
6
ByLayer
370
18
48
1
60
0
100
AcDbSpline
70
4
71
5
72
12
73
6
40
0
40
0
40
0
40
0
40
0
40
0
40
1
40
1
40
1
40
1
40
1
40
1
41
1
10
13.5100000001238
20
7.3644729122237
30
0
41
0.931616988572233
10
13.5100000001238
20
6.79841025827187
30
0
41
0.900348130515806
10
13.5100000001237
20
6.19920190746584
30
0
41
0.900348130515806
10
13.5100000001237
20
5.6791166434501
30
0
41
0.931616988572233
10
13.5100000001238
20
5.33348711438387
30
0
41
1
10
13.5100000001237
20
5.22331442488394
30
0
0
SPLINE
5
129
100
AcDbEntity
8
1
62
256
6
ByLayer
370
13
48
1
60
0
100
AcDbSpline
70
4
71
3
72
12
73
8
40
0
40
0
40
0
40
0
40
0.160973420770911
40
0.328778736616729
40
0.496584052462546
40
0.664389368308364
40
1
40
1
40
1
40
1
41
1
10
25.9276638236811
20
-2.78750528243111
30
0
41
1
10
25.2613592157874
20
-2.3369849084676
30
0
41
1
10
23.9004712745603
20
-1.33921457177692
30
0
41
1
10
21.845
20
0.266966199289271
30
0
41
1
10
19.76125
20
1.88410749000374
30
0
41
1
10
16.9829166666667
20
3.81669518251786
30
0
41
1
10
14.8991666666667
20
4.84949676015168
30
0
41
1
10
13.51
20
5.22331442491725
30
0
0
SPLINE
5
12A
100
AcDbEntity
8
1
62
256
6
ByLayer
370
18
48
1
60
0
100
AcDbSpline
70
4
71
3
72
10
73
6
40
0
40
0
40
0
40
0
40
0.485993090483521
40
0.485993090483521
40
1
40
1
40
1
40
1
41
1
10
26.6923493786524
20
-2.88616669187394
30
0
41
1
10
26.5691653731552
20
-2.86441084315334
30
0
41
1
10
26.4454331518348
20
-2.84682168736782
30
0
41
1
10
26.1903562247032
20
-2.81504498994138
30
0
41
1
10
26.0589852632489
20
-2.80110023807074
30
0
41
1
10
25.927663823686
20
-2.78750528243438
30
0
0
SPLINE
5
12B
100
AcDbEntity
8
1
62
256
6
ByLayer
370
13
48
1
60
0
100
AcDbSpline
70
4
71
1
72
4
73
2
40
0
40
0
40
1
40
1
41
1
10
13.51
20
-6.62695645565836
30
0
41
1
10
10.4513845463181
20
-5.7300118920127
30
0
0
SPLINE
5
12C
100
AcDbEntity
8
1
62
256
6
ByLayer
370
13
48
1
60
0
100
AcDbSpline
70
4
71
5
72
12
73
6
40
0
40
0
40
0
40
0
40
0
40
0
40
1
40
1
40
1
40
1
40
1
40
1
41
1
10
13.5100000000965
20
-1.59671586109383
30
0
41
0.984442337078794
10
13.5100000000965
20
-2.81900984689745
30
0
41
0.976814781165423
10
13.5100000000965
20
-3.98030346635549
30
0
41
0.976814781165423
10
13.5100000000965
20
-5.03065698034079
30
0
41
0.984442337078794
10
13.5100000000965
20
-5.92538761993465
30
0
41
1
10
13.5100000000965
20
-6.6269564556867
30
0
0
SPLINE
5
12D
100
AcDbEntity
8
1
62
256
6
ByLayer
370
18
48
1
60
0
100
AcDbSpline
70
4
71
1
72
4
73
2
40
0
40
0
40
1
40
1
41
1
10
13.51
20
-1.59671586102166
30
0
41
1
10
6.916850706248
20
3.3320696987218
30
0
0
SPLINE
5
12E
100
AcDbEntity
8
1
62
256
6
ByLayer
370
18
48
1
60
0
100
AcDbSpline
70
4
71
5
72
12
73
6
40
0
40
0
40
0
40
0
40
0
40
0
40
1
40
1
40
1
40
1
40
1
40
1
41
0.921023861181229
10
13.5100000000618
20
-0.431628861067852
30
0
41
0.918739629152035
10
13.5100000000618
20
-0.580905276124044
30
0
41
0.925336257762025
10
13.5100000000618
20
-0.783763402766177
30
0
41
0.94075870539017
10
13.5100000000618
20
-1.02951271270618
30
0
41
0.96537975217208
10
13.5100000000618
20
-1.3052816538744
30
0
41
1
10
13.5100000000618
20
-1.59671586106785
30
0
0
SPLINE
5
12F
100
AcDbEntity
8
1
62
256
6
ByLayer
370
18
48
1
60
0
100
AcDbSpline
70
4
71
3
72
14
73
10
40
0
40
0
40
0
40
0
40
0.499999999999985
40
0.499999999999985
40
0.624999999999986
40
0.624999999999986
40
0.749999999999988
40
0.749999999999988
40
1
40
1
40
1
40
1
41
1
10
12.1197849875493
20
-6.8905120516425
30
0
41
1
10
12.0640480700625
20
-6.86633045177191
30
0
41
1
10
12.0202783046892
20
-6.83835831390363
30
0
41
1
10
11.9789984353662
20
-6.79839968638893
30
0
41
1
10
11.9714645753061
20
-6.7901977569725
30
0
41
1
10
11.9578786336527
20
-6.77354797679459
30
0
41
1
10
11.9518002948254
20
-6.76507516225976
30
0
41
1
10
11.9355352543407
20
-6.73922212556204
30
0
41
1
10
11.9273116829757
20
-6.72140787874719
30
0
41
1
10
11.9213454800061
20
-6.70303080068652
30
0
0
SPLINE
5
130
100
AcDbEntity
8
1
62
256
6
ByLayer
370
18
48
1
60
0
100
AcDbSpline
70
4
71
3
72
8
73
4
40
0
40
0
40
0
40
0
40
1
40
1
40
1
40
1
41
1
10
11.1296434876422
20
-6.26483332048937
30
0
41
1
10
11.3950507346779
20
-6.42456023057034
30
0
41
1
10
11.6582131038124
20
-6.57103101761254
30
0
41
1
10
11.921345479993
20
-6.70303080068797
30
0
0
SPLINE
5
131
100
AcDbEntity
8
1
62
256
6
ByLayer
370
18
48
1
60
0
100
AcDbSpline
70
4
71
3
72
20
73
16
40
0
40
0
40
0
40
0
40
0.0625000000000005
40
0.0625000000000005
40
0.125000000000001
40
0.125000000000001
40
0.25
40
0.25
40
0.375
40
0.375
40
0.499999999999999
40
0.499999999999999
40
0.75
40
0.75
40
1
40
1
40
1
40
1
41
1
10
10.4513845463182
20
-5.7300118920127
30
0
41
1
10
10.4613190260885
20
-5.74377861475907
30
0
41
1
10
10.4720582720127
20
-5.75716758806385
30
0
41
1
10
10.4945535155429
20
-5.78343173002577
30
0
41
1
10
10.5063192193792
20
-5.79630300177917
30
0
41
1
10
10.5427284243973
20
-5.83431657239174
30
0
41
1
10
10.5684860143084
20
-5.85888557649744
30
0
41
1
10
10.6217125711553
20
-5.90681556673596
30
0
41
1
10
10.6491714964179
20
-5.93014411414876
30
0
41
1
10
10.7052838253098
20
-5.9758041986999
30
0
41
1
10
10.7339433074724
20
-5.99813251222398
30
0
41
1
10
10.8213167573396
20
-6.06384844062569
30
0
41
1
10
10.8814248359584
20
-6.10598814041381
30
0
41
1
10
11.0039030741877
20
-6.18741923124225
30
0
41
1
10
11.0663253454386
20
-6.22672722071778
30
0
41
1
10
11.1296434876421
20
-6.26483332048937
30
0
0
SPLINE
5
132
100
AcDbEntity
8
1
62
256
6
ByLayer
370
18
48
1
60
0
100
AcDbSpline
70
4
71
3
72
35
73
31
40
0
40
0
40
0
40
0
40
0.0625000000000003
40
0.0625000000000003
40
0.125000000000001
40
0.187500000000001
40
0.250000000000001
40
0.250000000000001
40
0.281250000000002
40
0.281250000000002
40
0.312500000000002
40
0.312500000000002
40
0.375000000000002
40
0.375000000000002
40
0.437500000000002
40
0.437500000000002
40
0.500000000000003
40
0.562500000000003
40
0.562500000000003
40
0.625000000000003
40
0.625000000000003
40
0.750000000000003
40
0.750000000000003
40
0.812500000000003
40
0.812500000000003
40
0.843750000000003
40
0.843750000000003
40
0.875000000000002
40
0.875000000000002
40
1
40
1
40
1
40
1
41
1
10
7.15535784432171
20
2.38714927980044
30
0
41
1
10
7.20105157625687
20
2.20188846259785
30
0
41
1
10
7.24882179241371
20
2.01604678401259
30
0
41
1
10
7.34833038957186
20
1.64326138627899
30
0
41
1
10
7.4518067657441
20
1.26937345974275
30
0
41
1
10
7.61847964777709
20
0.705307486038009
30
0
41
1
10
7.73702899511494
20
0.327103661473188
30
0
41
1
10
7.82869337217386
20
0.042623116618131
30
0
41
1
10
7.85970734727223
20
-0.0523418386228798
30
0
41
1
10
7.92265375332568
20
-0.242552778078704
30
0
41
1
10
7.95441425667448
20
-0.337278636159027
30
0
41
1
10
8.05043997165586
20
-0.620084203385431
30
0
41
1
10
8.11548637188156
20
-0.806911278022511
30
0
41
1
10
8.24752546025465
20
-1.17727203146211
30
0
41
1
10
8.31450529270586
20
-1.36081007938509
30
0
41
1
10
8.45042002659034
20
-1.72462911076835
30
0
41
1
10
8.58834843324905
20
-2.08516959412441
30
0
41
1
10
8.73098880376551
20
-2.43891412747701
30
0
41
1
10
8.87635604442826
20
-2.7890954412199
30
0
41
1
10
8.94961814394273
20
-2.96050876202162
30
0
41
1
10
9.1713913074467
20
-3.46358435232818
30
0
41
1
10
9.32194499844212
20
-3.78429890165717
30
0
41
1
10
9.55355787661819
20
-4.24343252942739
30
0
41
1
10
9.63172825144267
20
-4.3928084309558
30
0
41
1
10
9.75069278822468
20
-4.61126396668098
30
0
41
1
10
9.79063289408253
20
-4.6831469514284
30
0
41
1
10
9.87113334591257
20
-4.82501417109413
30
0
41
1
10
9.91174032657776
20
-4.89507460445913
30
0
41
1
10
10.1154814923983
20
-5.23891047678171
30
0
41
1
10
10.281204794824
20
-5.49434013653919
30
0
41
1
10
10.4513845463181
20
-5.7300118920127
30
0
0
SPLINE
5
133
100
AcDbEntity
8
1
62
256
6
ByLayer
370
18
48
1
60
0
100
AcDbSpline
70
4
71
3
72
52
73
48
40
0
40
0
40
0
40
0
40
0.125
40
0.125
40
0.249999999999999
40
0.249999999999999
40
0.312500000000001
40
0.312500000000001
40
0.375000000000002
40
0.375000000000002
40
0.500000000000004
40
0.500000000000004
40
0.562500000000007
40
0.562500000000007
40
0.593750000000008
40
0.593750000000008
40
0.625000000000009
40
0.625000000000009
40
0.687500000000012
40
0.687500000000012
40
0.750000000000014
40
0.750000000000014
40
0.781250000000014
40
0.781250000000014
40
0.812500000000013
40
0.812500000000013
40
0.843750000000013
40
0.843750000000013
40
0.859375000000013
40
0.859375000000013
40
0.875000000000012
40
0.875000000000012
40
0.906250000000012
40
0.906250000000012
40
0.921875000000012
40
0.921875000000012
40
0.929687500000012
40
0.929687500000012
40
0.937500000000011
40
0.937500000000011
40
0.968750000000008
40
0.968750000000008
40
0.976562500000005
40
0.976562500000005
40
0.984375000000002
40
0.984375000000002
40
1
40
1
40
1
40
1
41
1
10
12.0488554406487
20
-7.48953513634098
30
0
41
1
10
11.8774732836487
20
-7.46864485087968
30
0
41
1
10
11.7051514533525
20
-7.44143565310401
30
0
41
1
10
11.3561355705563
20
-7.37551432356929
30
0
41
1
10
11.1794485231146
20
-7.33679735832035
30
0
41
1
10
10.9090469011872
20
-7.27137097417113
30
0
41
1
10
10.8180252841299
20
-7.24834280221182
30
0
41
1
10
10.6343653174596
20
-7.20029064370581
30
0
41
1
10
10.5416610125132
20
-7.1752504933809
30
0
41
1
10
10.2603324830995
20
-7.09765571559188
30
0
41
1
10
10.0685507827735
20
-7.0425729531641
30
0
41
1
10
9.77142985410546
20
-6.95793792312321
30
0
41
1
10
9.67079841697279
20
-6.92940489389213
30
0
41
1
10
9.51693382715951
20
-6.88663790233213
30
0
41
1
10
9.46510952979054
20
-6.87237553661291
30
0
41
1
10
9.36066271463355
20
-6.84404346692091
30
0
41
1
10
9.30804654524121
20
-6.82997502314419
30
0
41
1
10
9.1488948965974
20
-6.78824420104729
30
0
41
1
10
9.04106809778659
20
-6.76104390513609
30
0
41
1
10
8.82108159236566
20
-6.70908640933089
30
0
41
1
10
8.70893707129778
20
-6.68431487118053
30
0
41
1
10
8.53641241807682
20
-6.65029724979345
30
0
41
1
10
8.47806548532645
20
-6.63946885553054
30
0
41
1
10
8.36053230142582
20
-6.6193445071894
30
0
41
1
10
8.30129156110905
20
-6.61003329610793
30
0
41
1
10
8.18167396192797
20
-6.59332052584745
30
0
41
1
10
8.12129465736288
20
-6.5859234981437
30
0
41
1
10
8.02968915746771
20
-6.57664389777602
30
0
41
1
10
7.9989808358871
20
-6.57385403898971
30
0
41
1
10
7.93717715584825
20
-6.56896212141552
30
0
41
1
10
7.9060446260356
20
-6.56685945164293
30
0
41
1
10
7.81279573510204
20
-6.56176916238817
30
0
41
1
10
7.75059935983415
20
-6.55996453398478
30
0
41
1
10
7.65724744299763
20
-6.56027302955536
30
0
41
1
10
7.62612052093669
20
-6.56088113437894
30
0
41
1
10
7.5794134279023
20
-6.56266894926151
30
0
41
1
10
7.56384160452765
20
-6.56341117660702
30
0
41
1
10
7.53269187914668
20
-6.56521313252281
30
0
41
1
10
7.5170808176432
20
-6.566275616555
30
0
41
1
10
7.43945797182974
20
-6.57241880511853
30
0
41
1
10
7.37892344822606
20
-6.57992210905448
30
0
41
1
10
7.30589095087754
20
-6.59353298503962
30
0
41
1
10
7.2914183492812
20
-6.59646961861145
30
0
41
1
10
7.26276875458265
20
-6.60281134038766
30
0
41
1
10
7.24859848222113
20
-6.60621711203387
30
0
41
1
10
7.20707998976246
20
-6.61706564750807
30
0
41
1
10
7.18055350395227
20
-6.62517180294117
30
0
41
1
10
7.15535784432169
20
-6.63425556137227
30
0
0
SPLINE
5
134
100
AcDbEntity
8
1
62
256
6
ByLayer
370
18
48
1
60
0
100
AcDbSpline
70
4
71
3
72
8
73
4
40
0
40
0
40
0
40
0
40
1
40
1
40
1
40
1
41
1
10
12.2856114191291
20
-7.51433093943808
30
0
41
1
10
12.206792210663
20
-7.50743827401277
30
0
41
1
10
12.1278946394856
20
-7.49916759594095
30
0
41
1
10
12.0488554406488
20
-7.48953513634098
30
0
0
SPLINE
5
135
100
AcDbEntity
8
1
62
256
6
ByLayer
370
18
48
1
60
0
100
AcDbSpline
70
4
71
3
72
8
73
4
40
0
40
0
40
0
40
0
40
1
40
1
40
1
40
1
41
1
10
12.2856114191292
20
1.01405313506504
30
0
41
1
10
12.2067922106631
20
1.09689678403893
30
0
41
1
10
12.1278946394858
20
1.17945709239837
30
0
41
1
10
12.0488554406488
20
1.26167651373089
30
0
0
SPLINE
5
136
100
AcDbEntity
8
1
62
256
6
ByLayer
370
18
48
1
60
0
100
AcDbSpline
70
4
71
3
72
14
73
10
40
0
40
0
40
0
40
0
40
0.499999999999982
40
0.499999999999982
40
0.62499999999999
40
0.62499999999999
40
0.749999999999997
40
0.749999999999997
40
1
40
1
40
1
40
1
41
1
10
12.1197849875528
20
3.41787063610315
30
0
41
1
10
12.064048059146
20
3.47095695228987
30
0
41
1
10
12.0202782875176
20
3.53063968901935
30
0
41
1
10
11.9789984153955
20
3.61226826680001
30
0
41
1
10
11.9714645552712
20
3.62886289971752
30
0
41
1
10
11.9578786137597
20
3.66221244037138
30
0
41
1
10
11.9518002752213
20
3.67901846983199
30
0
41
1
10
11.9355352361873
20
3.72978365003064
30
0
41
1
10
11.9273116665646
20
3.76408816880857
30
0
41
1
10
11.9213454659789
20
3.79875477921374
30
0
0
SPLINE
5
137
100
AcDbEntity
8
1
62
256
6
ByLayer
370
18
48
1
60
0
100
AcDbSpline
70
4
71
3
72
8
73
4
40
0
40
0
40
0
40
0
40
1
40
1
40
1
40
1
41
1
10
11.129332314383
20
4.51804378012085
30
0
41
1
10
11.3948448289381
20
4.2881484330324
30
0
41
1
10
11.6581100718647
20
4.04785727004315
30
0
41
1
10
11.9213454659664
20
3.79875477921118
30
0
0
SPLINE
5
138
100
AcDbEntity
8
1
62
256
6
ByLayer
370
18
48
1
60
0
100
AcDbSpline
70
4
71
3
72
20
73
16
40
0
40
0
40
0
40
0
40
0.0625000000000015
40
0.0625000000000015
40
0.125000000000003
40
0.125000000000003
40
0.250000000000006
40
0.250000000000006
40
0.375000000000009
40
0.375000000000009
40
0.500000000000012
40
0.500000000000012
40
0.750000000000006
40
0.750000000000006
40
1
40
1
40
1
40
1
41
1
10
10.4513931927487
20
5.19382663967784
30
0
41
1
10
10.4613354594966
20
5.17848779752416
30
0
41
1
10
10.4720780685754
20
5.16343248571431
30
0
41
1
10
10.4945759417674
20
5.13364852538189
30
0
41
1
10
10.5063407917708
20
5.11892384871112
30
0
41
1
10
10.5427436594639
20
5.07507372783553
30
0
41
1
10
10.5684917872375
20
5.04624192057824
30
0
41
1
10
10.6216964477054
20
4.98908910168481
30
0
41
1
10
10.649142351785
20
4.9608068613515
30
0
41
1
10
10.7052262476111
20
4.90457783786744
30
0
41
1
10
10.7338702846548
20
4.87663426676059
30
0
41
1
10
10.8211949084348
20
4.79310972876388
30
0
41
1
10
10.881267190831
20
4.73780956943833
30
0
41
1
10
11.0036709064694
20
4.62768297804473
30
0
41
1
10
11.0660542364869
20
4.57283353647532
30
0
41
1
10
11.129332314383
20
4.51804378012088
30
0
0
SPLINE
5
139
100
AcDbEntity
8
1
62
256
6
ByLayer
370
18
48
1
60
0
100
AcDbSpline
70
4
71
3
72
33
73
29
40
0
40
0
40
0
40
0
40
0.0214639279170631
40
0.0214639279170631
40
0.0640089745293648
40
0.0640089745293648
40
0.149099067753968
40
0.149099067753968
40
0.234189160978571
40
0.234189160978571
40
0.319279254203175
40
0.404369347427778
40
0.404369347427778
40
0.44691439404008
40
0.468186917346231
40
0.468186917346231
40
0.489459440652382
40
0.489459440652382
40
0.659639627101588
40
0.659639627101588
40
0.829819813550793
40
0.829819813550793
40
0.914909906775395
40
0.914909906775395
40
0.936182430081546
40
0.936182430081546
40
0.957454953387697
40
1
40
1
40
1
40
1
41
1
10
7.9050497880315
20
7.54000007959513
30
0
41
1
10
7.9211856287086
20
7.53999776626739
30
0
41
1
10
7.93740064452655
20
7.53959922857089
30
0
41
1
10
7.98599443416779
20
7.5372254922323
30
0
41
1
10
8.01862309739411
20
7.53408385691543
30
0
41
1
10
8.11736629873377
20
7.5199431345593
30
0
41
1
10
8.18373375038351
20
7.50432743026405
30
0
41
1
10
8.31755243727937
20
7.46115956313534
30
0
41
1
10
8.38500349625281
20
7.4336065027322
30
0
41
1
10
8.5210175601637
20
7.36681620883684
30
0
41
1
10
8.65812885573175
20
7.288337475964
30
0
41
1
10
8.79805201186758
20
7.18672033969642
30
0
41
1
10
8.90429091245429
20
7.10181988878722
30
0
41
1
10
8.95773463472418
20
7.05719621027109
30
0
41
1
10
9.01171242585906
20
7.00929608245161
30
0
41
1
10
9.04782182352844
20
6.97663174727285
30
0
41
1
10
9.0659534263861
20
6.95992017043605
30
0
41
1
10
9.22938005342837
20
6.80653565805616
30
0
41
1
10
9.37571908116558
20
6.64973547644942
30
0
41
1
10
9.6728141753905
20
6.29791677812005
30
0
41
1
10
9.82355126251244
20
6.10288245637486
30
0
41
1
10
10.0548724360834
20
5.78237603055888
30
0
41
1
10
10.1328527046692
20
5.67086943003829
30
0
41
1
10
10.231670524495
20
5.52564131083503
30
0
41
1
10
10.2515076240988
20
5.4962938135985
30
0
41
1
10
10.2912468587337
20
5.43712780470557
30
0
41
1
10
10.350978430707
20
5.3476357019525
30
0
41
1
10
10.4111058044015
20
5.25593177487664
30
0
41
1
10
10.4513931927486
20
5.19382663967781
30
0
0
SPLINE
5
13A
100
AcDbEntity
8
1
62
256
6
ByLayer
370
18
48
1
60
0
100
AcDbSpline
70
4
71
3
72
53
73
49
40
0
40
0
40
0
40
0
40
0.124999999999997
40
0.124999999999997
40
0.249999999999995
40
0.249999999999995
40
0.281249999999995
40
0.281249999999995
40
0.312499999999996
40
0.374999999999997
40
0.374999999999997
40
0.500000000000001
40
0.500000000000001
40
0.562500000000002
40
0.562500000000002
40
0.625000000000003
40
0.625000000000003
40
0.656250000000002
40
0.656250000000002
40
0.687500000000001
40
0.687500000000001
40
0.749999999999996
40
0.749999999999996
40
0.765624999999995
40
0.765624999999995
40
0.781249999999995
40
0.781249999999995
40
0.812499999999997
40
0.812499999999997
40
0.843749999999999
40
0.843749999999999
40
0.875000000000002
40
0.875000000000002
40
0.890625000000003
40
0.890625000000003
40
0.898437500000003
40
0.898437500000003
40
0.906250000000004
40
0.906250000000004
40
0.937500000000003
40
0.937500000000003
40
0.953125000000002
40
0.953125000000002
40
0.968750000000001
40
0.968750000000001
40
0.984375000000001
40
0.984375000000001
40
1
40
1
40
1
40
1
41
1
10
12.0488554406488
20
1.26167651373092
30
0
41
1
10
11.8774438201252
20
1.44001945049448
30
0
41
1
10
11.7050932640467
20
1.6158646932376
30
0
41
1
10
11.3560209185351
20
1.96031816931469
30
0
41
1
10
11.179306210249
20
2.12893235186317
30
0
41
1
10
10.9539336260022
20
2.33367221723569
30
0
41
1
10
10.9086180615652
20
2.37433187153888
30
0
41
1
10
10.8176317838034
20
2.45487897851666
30
0
41
1
10
10.6805807280719
20
2.57457635261474
30
0
41
1
10
10.5416229733776
20
2.69072155876225
30
0
41
1
10
10.2605885548936
20
2.91773656092533
30
0
41
1
10
10.0691289981529
20
3.06209853742425
30
0
41
1
10
9.77277791688317
20
3.26537676238459
30
0
41
1
10
9.67245257795253
20
3.33091106079618
30
0
41
1
10
9.46804770179403
20
3.45690727224223
30
0
41
1
10
9.36397317764946
20
3.51737454499641
30
0
41
1
10
9.20437298674028
20
3.60363539614099
30
0
41
1
10
9.15053688315908
20
3.63167122974826
30
0
41
1
10
9.04200377590615
20
3.68589025874996
30
0
41
1
10
8.98727070077354
20
3.71209545034941
30
0
41
1
10
8.82149687730677
20
3.78774831437343
30
0
41
1
10
8.70890701804694
20
3.83427494663721
30
0
41
1
10
8.56471749612371
20
3.88626631392421
30
0
41
1
10
8.53569399690815
20
3.89635567031749
30
0
41
1
10
8.4775132702263
20
3.9157837197809
30
0
41
1
10
8.44832795597955
20
3.92513296668616
30
0
41
1
10
8.36046507810232
20
3.95201359614174
30
0
41
1
10
8.30148218332874
20
3.96838373076761
30
0
41
1
10
8.18254829955211
20
3.99750737576497
30
0
41
1
10
8.12259952440644
20
4.01026914493471
30
0
41
1
10
8.0015547198964
20
4.03156252796075
30
0
41
1
10
7.9404610154682
20
4.04010280383182
30
0
41
1
10
7.84774703869317
20
4.04898861430445
30
0
41
1
10
7.81666249856744
20
4.0512928195111
30
0
41
1
10
7.76972531525632
20
4.05361670942551
30
0
41
1
10
7.75402773973127
20
4.05420216041668
30
0
41
1
10
7.72252035056334
20
4.05496375323011
30
0
41
1
10
7.70668147062491
20
4.05513947967458
30
0
41
1
10
7.62767448517855
20
4.05490797765165
30
0
41
1
10
7.56493050769984
20
4.05124334666908
30
0
41
1
10
7.47172595153745
20
4.03885234601233
30
0
41
1
10
7.44081088731747
20
4.03356337051693
30
0
41
1
10
7.37934965421056
20
4.02018228806458
30
0
41
1
10
7.34931382066026
20
4.01219742440446
30
0
41
1
10
7.29084884725194
20
3.99329948978365
30
0
41
1
10
7.26241223302986
20
3.98238775235524
30
0
41
1
10
7.20739700894444
20
3.95712249879574
30
0
41
1
10
7.18081954921087
20
3.94276719326228
30
0
41
1
10
7.15535784432171
20
3.92632565304166
30
0
0
SPLINE
5
13B
100
AcDbEntity
8
1
62
256
6
ByLayer
370
18
48
1
60
0
100
AcDbSpline
70
4
71
3
72
10
73
6
40
0
40
0
40
0
40
0
40
0.5
40
0.5
40
1
40
1
40
1
40
1
41
1
10
45.3941842258659
20
1.21420998097779
30
0
41
1
10
45.4409058318045
20
1.1679242476678
30
0
41
1
10
45.4853196647768
20
1.12323106028467
30
0
41
1
10
45.5687850699854
20
1.03650155139553
30
0
41
1
10
45.607800653443
20
0.994498515923766
30
0
41
1
10
45.6437430478839
20
0.95336483530221
30
0
0
SPLINE
5
13C
100
AcDbEntity
8
1
62
256
6
ByLayer
370
18
48
1
60
0
100
AcDbSpline
70
4
71
3
72
18
73
14
40
0
40
0
40
0
40
0
40
0.25
40
0.25
40
0.500000000000001
40
0.500000000000001
40
0.625000000000008
40
0.625000000000008
40
0.687500000000012
40
0.687500000000012
40
0.750000000000016
40
0.750000000000016
40
1
40
1
40
1
40
1
41
1
10
45.643743047884
20
0.953364835302182
30
0
41
1
10
45.6972645621954
20
0.899332029110695
30
0
41
1
10
45.7473553024453
20
0.84800840860089
30
0
41
1
10
45.8404608731166
20
0.749671249955867
30
0
41
1
10
45.8834167258354
20
0.702714323298949
30
0
41
1
10
45.9420304600701
20
0.634770104185293
30
0
41
1
10
45.9605972451386
20
0.612535491351622
30
0
41
1
10
45.9869423585646
20
0.579673759493232
30
0
41
1
10
45.9954807271707
20
0.568791062407968
30
0
41
1
10
46.0119595496048
20
0.547285617289958
30
0
41
1
10
46.0199124712479
20
0.536648049882302
30
0
41
1
10
46.0582696526319
20
0.483956515404088
30
0
41
1
10
46.0844055566209
20
0.443425274320305
30
0
41
1
10
46.1063400639177
20
0.403489458546062
30
0
0
SPLINE
5
13D
100
AcDbEntity
8
1
62
256
6
ByLayer
370
18
48
1
60
0
100
AcDbSpline
70
4
71
3
72
28
73
24
40
0
40
0
40
0
40
0
40
0.0156250000000025
40
0.0156250000000025
40
0.031250000000005
40
0.031250000000005
40
0.06250000000001
40
0.06250000000001
40
0.093750000000015
40
0.093750000000015
40
0.12500000000002
40
0.12500000000002
40
0.187500000000028
40
0.187500000000028
40
0.250000000000037
40
0.250000000000037
40
0.375000000000017
40
0.375000000000017
40
0.499999999999998
40
0.499999999999998
40
0.749999999999999
40
0.749999999999999
40
1
40
1
40
1
40
1
41
1
10
46.7348889953172
20
0.255080400525998
30
0
41
1
10
46.7320102671651
20
0.255788361137348
30
0
41
1
10
46.7287320438221
20
0.256589698365929
30
0
41
1
10
46.7212290101251
20
0.258412538148832
30
0
41
1
10
46.7171892559197
20
0.259389020187058
30
0
41
1
10
46.7045700436028
20
0.262427360052328
30
0
41
1
10
46.6961064960818
20
0.264450578812585
30
0
41
1
10
46.6801642545169
20
0.268250536073907
30
0
41
1
10
46.6724881864875
20
0.270074197785021
30
0
41
1
10
46.6577091772457
20
0.27357988585436
30
0
41
1
10
46.6505983537232
20
0.275263675697289
30
0
41
1
10
46.6297002623902
20
0.280207410703781
30
0
41
1
10
46.6163388714036
20
0.283361828148713
30
0
41
1
10
46.5900282295688
20
0.289568539130897
30
0
41
1
10
46.5770951396341
20
0.29261676440413
30
0
41
1
10
46.5386435644587
20
0.301675886419957
30
0
41
1
10
46.5134468099999
20
0.307607489418956
30
0
41
1
10
46.4631666491943
20
0.319442771649591
30
0
41
1
10
46.4381048267626
20
0.325341133596083
30
0
41
1
10
46.3627464251005
20
0.343078822518805
30
0
41
1
10
46.3122674387796
20
0.354963086222085
30
0
41
1
10
46.2101245046493
20
0.37902353370049
30
0
41
1
10
46.1584954154608
20
0.391191314014321
30
0
41
1
10
46.1063400639178
20
0.403489458546062
30
0
0
SPLINE
5
13E
100
AcDbEntity
8
1
62
256
6
ByLayer
370
13
48
1
60
0
100
AcDbSpline
70
4
71
3
72
9
73
5
40
0
40
0
40
0
40
0
40
0.209238853104277
40
1
40
1
40
1
40
1
41
1
10
18.7802387014843
20
-6.38674143728562
30
0
41
1
10
18.4126591343229
20
-6.55342950904384
30
0
41
1
10
16.6559129004948
20
-7.22922944023244
30
0
41
1
10
14.8991666666666
20
-7.28116910926573
30
0
41
1
10
13.51
20
-6.90662311688007
30
0
0
SPLINE
5
13F
100
AcDbEntity
8
1
62
256
6
ByLayer
370
13
48
1
60
0
100
AcDbSpline
70
4
71
3
72
14
73
10
40
0
40
0
40
0
40
0
40
0.191172668000221
40
0.338076220834896
40
0.484979773669572
40
0.631883326504248
40
0.778786879338923
40
0.925690432173599
40
1
40
1
40
1
40
1
41
1
10
45.394184225866
20
1.21420998097776
30
0
41
1
10
44.4902894839107
20
2.13634049788618
30
0
41
1
10
42.891811408622
20
3.71617318601074
30
0
41
1
10
40.59875
20
5.55902514283915
30
0
41
1
10
38.515
20
6.77512780717953
30
0
41
1
10
36.43125
20
7.40614587462162
30
0
41
1
10
34.3475
20
7.42614980838326
30
0
41
1
10
32.606985892625
20
6.90771035667623
30
0
41
1
10
31.5610551185834
20
6.38405219090845
30
0
41
1
10
31.209707677875
20
6.1858400184214
30
0
0
SPLINE
5
140
100
AcDbEntity
8
1
62
256
6
ByLayer
370
18
48
1
60
0
100
AcDbSpline
70
4
71
3
72
14
73
10
40
0
40
0
40
0
40
0
40
0.25
40
0.25
40
0.5
40
0.5
40
0.75
40
0.75
40
1
40
1
40
1
40
1
41
1
10
44.7536299211012
20
1.8885752773557
30
0
41
1
10
44.8091324464361
20
1.82784585673377
30
0
41
1
10
44.8638162149443
20
1.76828547189351
30
0
41
1
10
44.9720774763962
20
1.65139070712991
30
0
41
1
10
45.0256454136028
20
1.59406309515907
30
0
41
1
10
45.1319970089699
20
1.48164516362343
30
0
41
1
10
45.1847798068271
20
1.42655492548306
30
0
41
1
10
45.2898336119455
20
1.31864054695407
30
0
41
1
10
45.3420976655603
20
1.26582245762086
30
0
41
1
10
45.394184225866
20
1.21420998097773
30
0
0
SPLINE
5
141
100
AcDbEntity
8
1
62
256
6
ByLayer
370
18
48
1
60
0
100
AcDbSpline
70
4
71
3
72
14
73
10
40
0
40
0
40
0
40
0
40
0.25
40
0.25
40
0.5
40
0.5
40
0.75
40
0.75
40
1
40
1
40
1
40
1
41
1
10
13.2856114191291
20
-0.10080681825346
30
0
41
1
10
13.2083959924348
20
-0.0070497982810878
30
0
41
1
10
13.1293496397231
20
0.0863079599329808
30
0
41
1
10
12.9681018266858
20
0.272473808696418
30
0
41
1
10
12.8858985067437
20
0.365281529367422
30
0
41
1
10
12.7187348103291
20
0.550646309010887
30
0
41
1
10
12.6337733289606
20
0.643202705877428
30
0
41
1
10
12.4614313353536
20
0.828429515849621
30
0
41
1
10
12.374050111571
20
0.921098839596795
30
0
41
1
10
12.2856114191294
20
1.01405313506515
30
0
0
SPLINE
5
142
100
AcDbEntity
8
1
62
256
6
ByLayer
370
18
48
1
60
0
100
AcDbSpline
70
4
71
3
72
10
73
6
40
0
40
0
40
0
40
0
40
0.5
40
0.5
40
1
40
1
40
1
40
1
41
1
10
6.95056237635322
20
-6.98842563402008
30
0
41
1
10
6.9864390807852
20
-7.0264534928979
30
0
41
1
10
7.02126016194788
20
-7.06337358400819
30
0
41
1
10
7.08937057403654
20
-7.13452564815839
30
0
41
1
10
7.12265599958505
20
-7.16876119048649
30
0
41
1
10
7.15535784432166
20
-7.20150469180967
30
0
0
SPLINE
5
143
100
AcDbEntity
8
1
62
256
6
ByLayer
370
18
48
1
60
0
100
AcDbSpline
70
4
71
3
72
31
73
27
40
0
40
0
40
0
40
0
40
0.125000000000018
40
0.125000000000018
40
0.187500000000019
40
0.187500000000019
40
0.21875000000002
40
0.21875000000002
40
0.25000000000002
40
0.25000000000002
40
0.375000000000019
40
0.375000000000019
40
0.437500000000019
40
0.468750000000019
40
0.468750000000019
40
0.500000000000019
40
0.500000000000019
40
0.625000000000015
40
0.625000000000015
40
0.687500000000012
40
0.687500000000012
40
0.75000000000001
40
0.75000000000001
40
0.875000000000005
40
0.875000000000005
40
1
40
1
40
1
40
1
41
1
10
7.15535784432169
20
-6.63425556137227
30
0
41
1
10
7.1252217478106
20
-6.64512048909307
30
0
41
1
10
7.09668856055012
20
-6.65725706032518
30
0
41
1
10
7.05682838717524
20
-6.67725164180874
30
0
41
1
10
7.04403423502819
20
-6.68421534769985
30
0
41
1
10
7.02567774383436
20
-6.69509966036782
30
0
41
1
10
7.01969826622963
20
-6.69880092743162
30
0
41
1
10
7.00803703506463
20
-6.70634867222699
30
0
41
1
10
7.00234066157125
20
-6.7102058868534
30
0
41
1
10
6.97488518548423
20
-6.72968700738534
30
0
41
1
10
6.95616784084746
20
-6.7458997337184
30
0
41
1
10
6.93336800621228
20
-6.77075931894575
30
0
41
1
10
6.92328660823887
20
-6.78332522939064
30
0
41
1
10
6.91524384240452
20
-6.79603090619958
30
0
41
1
10
6.91033990664357
20
-6.80452617351301
30
0
41
1
10
6.90811523911088
20
-6.80879302784595
30
0
41
1
10
6.89825786342792
20
-6.8299052913556
30
0
41
1
10
6.89428396713402
20
-6.84628051028574
30
0
41
1
10
6.89305364990531
20
-6.87005222566356
30
0
41
1
10
6.89343373276699
20
-6.87784950101471
30
0
41
1
10
6.89560060886845
20
-6.89318466788959
30
0
41
1
10
6.89737407529481
20
-6.90064498482667
30
0
41
1
10
6.90442723871485
20
-6.9224953356954
30
0
41
1
10
6.91142345827637
20
-6.93635821592991
30
0
41
1
10
6.92871704880878
20
-6.96307492185235
30
0
41
1
10
6.93902177224331
20
-6.97592792387934
30
0
41
1
10
6.95056237635339
20
-6.98842563402008
30
0
0
SPLINE
5
144
100
AcDbEntity
8
1
62
256
6
ByLayer
370
18
48
1
60
0
100
AcDbSpline
70
4
71
3
72
10
73
6
40
0
40
0
40
0
40
0
40
0.5
40
0.5
40
1
40
1
40
1
40
1
41
1
10
6.91685070624797
20
3.33206969872177
30
0
41
1
10
6.95687313601232
20
3.1779327762616
30
0
41
1
10
6.99664101592134
20
3.02210794120762
30
0
41
1
10
7.07605298473715
20
2.70712525509134
30
0
41
1
10
7.11569274003105
20
2.54796760923227
30
0
41
1
10
7.15535784432171
20
2.38714927980044
30
0
0
SPLINE
5
145
100
AcDbEntity
8
1
62
256
6
ByLayer
370
18
48
1
60
0
100
AcDbSpline
70
4
71
3
72
24
73
20
40
0
40
0
40
0
40
0
40
0.124999999999999
40
0.124999999999999
40
0.249999999999999
40
0.249999999999999
40
0.312499999999998
40
0.312499999999998
40
0.374999999999998
40
0.499999999999998
40
0.499999999999998
40
0.562499999999997
40
0.562499999999997
40
0.624999999999997
40
0.749999999999998
40
0.749999999999998
40
0.874999999999999
40
0.874999999999999
40
1
40
1
40
1
40
1
41
1
10
7.15535784432171
20
3.92632565304166
30
0
41
1
10
7.12939993052834
20
3.9095636928534
30
0
41
1
10
7.10462219331583
20
3.89201750290775
30
0
41
1
10
7.05786569800449
20
3.8547817937206
30
0
41
1
10
7.03588421834749
20
3.83509537540195
30
0
41
1
10
7.00550897547924
20
3.8033498719808
30
0
41
1
10
6.99579867190644
20
3.79236381081506
30
0
41
1
10
6.97764958439112
20
3.76990445103169
30
0
41
1
10
6.95221674809684
20
3.73537791563877
30
0
41
1
10
6.93241596441311
20
3.69806757860937
30
0
41
1
10
6.91668476376694
20
3.6585771028864
30
0
41
1
10
6.91214390994449
20
3.64508949355374
30
0
41
1
10
6.90456814194098
20
3.61793978709818
30
0
41
1
10
6.89538013281256
20
3.57675703090996
30
0
41
1
10
6.8922640177278
20
3.53422581347604
30
0
41
1
10
6.89270334507188
20
3.47643157778197
30
0
41
1
10
6.89520386174161
20
3.44752207808472
30
0
41
1
10
6.9036423608558
20
3.38977489524143
30
0
41
1
10
6.90958453032599
20
3.36091621490061
30
0
41
1
10
6.916850706248
20
3.3320696987218
30
0
0
SPLINE
5
146
100
AcDbEntity
8
1
62
256
6
ByLayer
370
18
48
1
60
0
100
AcDbSpline
70
4
71
3
72
10
73
6
40
0
40
0
40
0
40
0
40
0.5
40
0.5
40
1
40
1
40
1
40
1
41
1
10
44.5128159583388
20
2.15279553052269
30
0
41
1
10
44.5532311412135
20
2.10849249398402
30
0
41
1
10
44.5934509443311
20
2.06429345297374
30
0
41
1
10
44.6736804590088
20
1.97618953351312
30
0
41
1
10
44.7136811939602
20
1.93228613626204
30
0
41
1
10
44.7536299211089
20
1.88857527734726
30
0
0
SPLINE
5
147
100
AcDbEntity
8
1
62
256
6
ByLayer
370
13
48
1
60
0
100
AcDbSpline
70
4
71
3
72
26
73
22
40
0
40
0
40
0
40
0
40
0.0664751973550748
40
0.170650697781478
40
0.273912391808311
40
0.325886409579814
40
0.4136425650871
40
0.448739554917888
40
0.483107046218817
40
0.499859595226795
40
0.516232756959471
40
0.532151808125429
40
0.548067308050455
40
0.581166103685129
40
0.650541912691692
40
0.685793474660221
40
0.738233895203477
40
0.841824637073655
40
0.893502910116445
40
0.997705266913746
40
1
40
1
40
1
40
1
41
1
10
46.7348889944467
20
0.255080397264123
30
0
41
1
10
46.7061546750492
20
0.266304550739647
30
0
41
1
10
46.6300808311076
20
0.299482728843714
30
0
41
1
10
46.4911712377609
20
0.373720399341522
30
0
41
1
10
46.3425709797747
20
0.467838041544496
30
0
41
1
10
46.1950253019947
20
0.570385559410539
30
0
41
1
10
46.0850617191
20
0.652138876469678
30
0
41
1
10
45.9827026318001
20
0.732163727591427
30
0
41
1
10
45.923965340256
20
0.779289503978362
30
0
41
1
10
45.8761610023889
20
0.818385343461273
30
0
41
1
10
45.8403749983464
20
0.847998339740315
30
0
41
1
10
45.8035308278305
20
0.878851887176296
30
0
41
1
10
45.753652605196
20
0.921101508767379
30
0
41
1
10
45.6660139695939
20
0.996619382780665
30
0
41
1
10
45.5671810767103
20
1.08448150354445
30
0
41
1
10
45.4537951349565
20
1.18818718821396
30
0
41
1
10
45.3125440737539
20
1.32037649051466
30
0
41
1
10
45.1544012387386
20
1.47429508832675
30
0
41
1
10
44.9557004314291
20
1.67502465394162
30
0
41
1
10
44.8351140190007
20
1.80127690198322
30
0
41
1
10
44.7553480563747
20
1.8867336454158
30
0
41
1
10
44.7536299211089
20
1.88857527734726
30
0
0
SPLINE
5
148
100
AcDbEntity
8
1
62
256
6
ByLayer
370
18
48
1
60
0
100
AcDbSpline
70
4
71
3
72
8
73
4
40
0
40
0
40
0
40
0
40
1
40
1
40
1
40
1
41
1
10
46.7865671400421
20
0.242380209975494
30
0
41
1
10
46.7690933150162
20
0.246671815973798
30
0
41
1
10
46.751844779141
20
0.250910496798667
30
0
41
1
10
46.7348889257555
20
0.255080420333314
30
0
0
SPLINE
5
149
100
AcDbEntity
8
1
62
256
6
ByLayer
370
18
48
1
60
0
100
AcDbSpline
70
4
71
3
72
8
73
4
40
0
40
0
40
0
40
0
40
1
40
1
40
1
40
1
41
1
10
46.7865671400293
20
0.242380209979842
30
0
41
1
10
46.787366549237
20
0.243955119275142
30
0
41
1
10
46.7881221036627
20
0.245884232510946
30
0
41
1
10
46.7888343232461
20
0.248163350265429
30
0
0
SPLINE
5
14A
100
AcDbEntity
8
1
62
256
6
ByLayer
370
18
48
1
60
0
100
AcDbSpline
70
4
71
3
72
8
73
4
40
0
40
0
40
0
40
0
40
1
40
1
40
1
40
1
41
1
10
44.5060114525081
20
2.1604410578683
30
0
41
1
10
44.5082830401866
20
2.15788699927106
30
0
41
1
10
44.5105511592494
20
2.15533855160314
30
0
41
1
10
44.5128159583388
20
2.15279553052269
30
0
0
SPLINE
5
14B
100
AcDbEntity
8
1
62
256
6
ByLayer
370
18
48
1
60
0
100
AcDbSpline
70
4
71
3
72
41
73
37
40
0
40
0
40
0
40
0
40
0.124999999999995
40
0.124999999999995
40
0.187499999999992
40
0.187499999999992
40
0.218749999999991
40
0.218749999999991
40
0.24999999999999
40
0.24999999999999
40
0.312499999999989
40
0.312499999999989
40
0.343749999999988
40
0.343749999999988
40
0.374999999999988
40
0.374999999999988
40
0.406249999999987
40
0.406249999999987
40
0.437499999999987
40
0.437499999999987
40
0.499999999999986
40
0.499999999999986
40
0.562499999999985
40
0.562499999999985
40
0.624999999999984
40
0.624999999999984
40
0.687499999999983
40
0.687499999999983
40
0.718749999999982
40
0.718749999999982
40
0.749999999999982
40
0.812499999999985
40
0.812499999999985
40
0.874999999999989
40
0.874999999999989
40
1
40
1
40
1
40
1
41
1
10
45.4491699855936
20
1.39702062066598
30
0
41
1
10
45.5386108480204
20
1.32400747631192
30
0
41
1
10
45.6246093460472
20
1.25239059338082
30
0
41
1
10
45.7493830360348
20
1.14730880620024
30
0
41
1
10
45.7902597365018
20
1.11267072088299
30
0
41
1
10
45.8505409855077
20
1.06130834790574
30
0
41
1
10
45.8704969853808
20
1.04425909849067
30
0
41
1
10
45.9098809029468
20
1.01053858183815
30
0
41
1
10
45.9293025574594
20
0.993872840713664
30
0
41
1
10
45.986781801724
20
0.944454423797538
30
0
41
1
10
46.0240505658287
20
0.912264584063564
30
0
41
1
10
46.0784741046522
20
0.865205049914749
30
0
41
1
10
46.0963509035549
20
0.849736778385392
30
0
41
1
10
46.1314788612516
20
0.819336366194136
30
0
41
1
10
46.1487461718098
20
0.804388074618686
30
0
41
1
10
46.1826992423342
20
0.774987186075862
30
0
41
1
10
46.1993839683042
20
0.760529888329216
30
0
41
1
10
46.2321780887502
20
0.732092967029473
30
0
41
1
10
46.248303567909
20
0.718101296195385
30
0
41
1
10
46.2956963043848
20
0.676945957652947
30
0
41
1
10
46.3259606799509
20
0.650607653557756
30
0
41
1
10
46.383940592279
20
0.600093039753347
30
0
41
1
10
46.4116556268458
20
0.575914538946876
30
0
41
1
10
46.4645904168481
20
0.529725346796852
30
0
41
1
10
46.489677333658
20
0.507830732986264
30
0
41
1
10
46.5370935408333
20
0.466464006243598
30
0
41
1
10
46.559438642371
20
0.446975982716793
30
0
41
1
10
46.5909467214761
20
0.419524318170488
30
0
41
1
10
46.6011203371233
20
0.410665722010407
30
0
41
1
10
46.6207267679408
20
0.39360224702051
30
0
41
1
10
46.6490506865051
20
0.368965712027375
30
0
41
1
10
46.674171215476
20
0.347151591165556
30
0
41
1
10
46.7048618560923
20
0.32054420406962
30
0
41
1
10
46.7188266985628
20
0.308465945011818
30
0
41
1
10
46.7562931062807
20
0.276116384149276
30
0
41
1
10
46.7754422043872
20
0.259642866650978
30
0
41
1
10
46.7888343232458
20
0.248163350265514
30
0
0
SPLINE
5
14C
100
AcDbEntity
8
1
62
256
6
ByLayer
370
18
48
1
60
0
100
AcDbSpline
70
4
71
3
72
8
73
4
40
0
40
0
40
0
40
0
40
1
40
1
40
1
40
1
41
1
10
46.7888343232456
20
0.24816335026631
30
0
41
1
10
46.745812315993
20
0.590588320738107
30
0
41
1
10
46.7027868043124
20
0.932981976248641
30
0
41
1
10
46.6597583257857
20
1.27534912054503
30
0
0
SPLINE
5
14D
100
AcDbEntity
8
1
62
256
6
ByLayer
370
18
48
1
60
0
100
AcDbSpline
70
4
71
3
72
24
73
20
40
0
40
0
40
0
40
0
40
0.0625000000000001
40
0.0625000000000001
40
0.125
40
0.125
40
0.250000000000001
40
0.250000000000001
40
0.3125
40
0.3125
40
0.375
40
0.375
40
0.5
40
0.5
40
0.624999999999999
40
0.624999999999999
40
0.749999999999999
40
0.749999999999999
40
1
40
1
40
1
40
1
41
1
10
46.6597583257857
20
1.27534912054514
30
0
41
1
10
46.6533048175991
20
1.29957739521805
30
0
41
1
10
46.6464688152502
20
1.32496772429911
30
0
41
1
10
46.632185705269
20
1.37760497965866
30
0
41
1
10
46.6247377886874
20
1.40485436360359
30
0
41
1
10
46.601634950432
20
1.48890870004607
30
0
41
1
10
46.5852289871157
20
1.54799538998779
30
0
41
1
10
46.5595197576282
20
1.63996819610088
30
0
41
1
10
46.5507469196926
20
1.67125165212946
30
0
41
1
10
46.5329759638952
20
1.73445103731788
30
0
41
1
10
46.5239787563426
20
1.76636418406338
30
0
41
1
10
46.496698044706
20
1.86291465465556
30
0
41
1
10
46.4781276208248
20
1.92835692328271
30
0
41
1
10
46.4403911916552
20
2.06091234609156
30
0
41
1
10
46.4212240350391
20
2.12802873028926
30
0
41
1
10
46.3824041285945
20
2.26362381569987
30
0
41
1
10
46.36273275077
20
2.33216671743139
30
0
41
1
10
46.3033417490869
20
2.53869556865388
30
0
41
1
10
46.2631889411227
20
2.67778433564021
30
0
41
1
10
46.2226280720333
20
2.81789752664031
30
0
0
SPLINE
5
14E
100
AcDbEntity
8
1
62
256
6
ByLayer
370
18
48
1
60
0
100
AcDbSpline
70
4
71
3
72
8
73
4
40
0
40
0
40
0
40
0
40
1
40
1
40
1
40
1
41
1
10
46.2226280720323
20
2.81789752663903
30
0
41
1
10
46.2122805821927
20
2.82226768759631
30
0
41
1
10
46.201539290788
20
2.83022892213506
30
0
41
1
10
46.1904854797997
20
2.84087584880157
30
0
0
SPLINE
5
14F
100
AcDbEntity
8
1
62
256
6
ByLayer
370
18
48
1
60
0
100
AcDbSpline
70
4
71
3
72
8
73
4
40
0
40
0
40
0
40
0
40
1
40
1
40
1
40
1
41
1
10
46.1904854797989
20
2.84087584880228
30
0
41
1
10
46.1333333435629
20
2.89592420764666
30
0
41
1
10
46.0703427080044
20
2.9590640701411
30
0
41
1
10
46.0017469139586
20
3.03031020824014
30
0
0
SPLINE
5
150
100
AcDbEntity
8
1
62
256
6
ByLayer
370
18
48
1
60
0
100
AcDbSpline
70
4
71
3
72
8
73
4
40
0
40
0
40
0
40
0
40
1
40
1
40
1
40
1
41
1
10
13.51
20
-0.376624822577099
30
0
41
1
10
13.4353650765353
20
-0.283811191519504
30
0
41
1
10
13.3605918008433
20
-0.191849987304948
30
0
41
1
10
13.2856114191291
20
-0.100806818253432
30
0
0
SPLINE
5
151
100
AcDbEntity
8
1
62
256
6
ByLayer
370
18
48
1
60
0
100
AcDbSpline
70
4
71
3
72
180
73
176
40
0
40
0
40
0
40
0
40
0.0032996181907699
40
0.0066102611730374
40
0.0099319165916257
40
0.0132645718808386
40
0.0166082142712214
40
0.0199628307966999
40
0.0233284083021063
40
0.0267049334511051
40
0.0300923927345177
40
0.0334907724790802
40
0.0369000588566127
40
0.0403202378936336
40
0.0437512954814192
40
0.0471932173865088
40
0.050645989261698
40
0.0541095966574883
40
0.0575840250340349
40
0.0610692597735927
40
0.0645652861934684
40
0.0680720895594973
40
0.0715896551000455
40
0.0751179680205623
40
0.0786570135186872
40
0.0822067767999149
40
0.0857672430938483
40
0.0893383976710386
40
0.0929202283248231
40
0.0965127377399508
40
0.100115934182419
40
0.103729825996785
40
0.107354421601455
40
0.110989729493597
40
0.114635758254298
40
0.118292516554024
40
0.121960013158351
40
0.125638256933974
40
0.129327256855032
40
0.133027022009722
40
0.136737561607224
40
0.140458884984935
40
0.144191001616034
40
0.147933921117369
40
0.151687653257674
40
0.155452207966136
40
0.159227595341303
40
0.163013825660348
40
0.166810909388701
40
0.170618857190034
40
0.174437679936642
40
0.178267388720188
40
0.182107994862852
40
0.185959509928862
40
0.18982194573645
40
0.193695314370198
40
0.197579628193817
40
0.201474899863344
40
0.205381142340779
40
0.20929836890816
40
0.213226593182083
40
0.217165829128688
40
0.221116091079097
40
0.225077393745331
40
0.229049752162309
40
0.233033176332848
40
0.2370276671939
40
0.241033224365777
40
0.245049846977783
40
0.249077533670896
40
0.253116282600885
40
0.257166091441961
40
0.261226957390882
40
0.265298877171604
40
0.269381847040436
40
0.273475862791719
40
0.277580919764072
40
0.281697012847173
40
0.285824136489113
40
0.289962284704329
40
0.294111451082129
40
0.298271628795817
40
0.302442810612441
40
0.306624988903149
40
0.310818155654213
40
0.315022302478692
40
0.319237420628753
40
0.323463501008702
40
0.32770053418867
40
0.331948510419048
40
0.336207419645612
40
0.340477251525399
40
0.344757995443334
40
0.349049640529623
40
0.353352175677918
40
0.357665589564292
40
0.361989870667014
40
0.366325007288609
40
0.370670989459855
40
0.375027812776416
40
0.379395474030367
40
0.383773970224358
40
0.388163298599094
40
0.392563456661682
40
0.396974442214868
40
0.401396253387183
40
0.405828888664015
40
0.410272346919605
40
0.414726627449996
40
0.419191730006959
40
0.423667654832879
40
0.428154402696659
40
0.43265197493061
40
0.437160373468393
40
0.441679600883973
40
0.446209660431652
40
0.450750556087164
40
0.455302292589848
40
0.459864875485933
40
0.464438311172932
40
0.46902260694517
40
0.473617771040447
40
0.478223812687867
40
0.482840742156849
40
0.4874685708073
40
0.49210731114101
40
0.49675697685426
40
0.501417582891643
40
0.50608914535133
40
0.510771677149375
40
0.515465186181989
40
0.520169679268913
40
0.524885162403801
40
0.529611640767117
40
0.53434911874
40
0.539097599919086
40
0.543857087132336
40
0.54862758245585
40
0.553409087231717
40
0.558201602086893
40
0.563005126953135
40
0.567819661088019
40
0.57264520309703
40
0.577481750956782
40
0.582329302039345
40
0.58718785313773
40
0.592057400492542
40
0.596937939819805
40
0.656622972937814
40
0.716303408559567
40
0.775969775467802
40
0.835617422763423
40
0.895255737132969
40
0.897872275731466
40
0.900692971103697
40
0.903717831117452
40
0.906946865236579
40
0.910380084785594
40
0.914017503252266
40
0.917859136633346
40
0.92190500280309
40
0.926155117546076
40
0.9306094962637
40
0.935268154787503
40
0.940131109162418
40
0.945198375393525
40
0.950469969156758
40
0.955945905474986
40
0.961626198361812
40
0.967510860436664
40
0.973599902515928
40
0.979893333186301
40
0.986391158368047
40
0.993093380877513
40
1
40
1
40
1
40
1
41
1
10
32.4302758979899
20
7.32772191848798
30
0
41
1
10
32.4435527553606
20
7.33336834408874
30
0
41
1
10
32.4701508311691
20
7.3446800613109
30
0
41
1
10
32.5101139125819
20
7.36138907432917
30
0
41
1
10
32.5502096476893
20
7.37794140278393
30
0
41
1
10
32.5904379238321
20
7.39431350803085
30
0
41
1
10
32.6307986825387
20
7.41050797209462
30
0
41
1
10
32.6712918488479
20
7.42652031642561
30
0
41
1
10
32.7119173503257
20
7.44234793688108
30
0
41
1
10
32.7526751119282
20
7.45798769760344
30
0
41
1
10
32.7935650573696
20
7.47343657877553
30
0
41
1
10
32.8345871087378
20
7.48869150205979
30
0
41
1
10
32.875741186582
20
7.5037493774569
30
0
41
1
10
32.9170272098728
20
7.51860709054492
30
0
41
1
10
32.9584450959976
20
7.5332615057707
30
0
41
1
10
32.9999947607452
20
7.54770946541873
30
0
41
1
10
33.0416761182943
20
7.56194778974344
30
0
41
1
10
33.0834890812
20
7.57597327678769
30
0
41
1
10
33.1254335603815
20
7.58978270228516
30
0
41
1
10
33.1675094651089
20
7.60337281954023
30
0
41
1
10
33.209716702991
20
7.61674035931142
30
0
41
1
10
33.252055179961
20
7.62988202970089
30
0
41
1
10
33.2945248002683
20
7.64279451601433
30
0
41
1
10
33.3371254664467
20
7.65547448073031
30
0
41
1
10
33.3798570793739
20
7.66791856305852
30
0
41
1
10
33.4227195379849
20
7.68012338003604
30
0
41
1
10
33.4657127402857
20
7.69208552185793
30
0
41
1
10
33.50883658941
20
7.70380157151351
30
0
41
1
10
33.552091067676
20
7.71526805616236
30
0
41
1
10
33.5954761142225
20
7.7264820760879
30
0
41
1
10
33.6389917331169
20
7.73744082070803
30
0
41
1
10
33.6826379560784
20
7.7481414532194
30
0
41
1
10
33.7264148143371
20
7.7585811307527
30
0
41
1
10
33.7703223402024
20
7.7687569973196
30
0
41
1
10
33.8143605666375
20
7.77866618567487
30
0
41
1
10
33.8585295273811
20
7.78830581678116
30
0
41
1
10
33.9028292569226
20
7.79767299991923
30
0
41
1
10
33.9472597905161
20
7.80676483262414
30
0
41
1
10
33.9918211641837
20
7.81557840066856
30
0
41
1
10
34.0365134147224
20
7.82411077803295
30
0
41
1
10
34.08133657971
20
7.83235902687963
30
0
41
1
10
34.1262906975104
20
7.8403201975253
30
0
41
1
10
34.1713758072803
20
7.84799132841434
30
0
41
1
10
34.2165919489746
20
7.85536944609143
30
0
41
1
10
34.2619391633527
20
7.86245156517472
30
0
41
1
10
34.3074174919844
20
7.86923468832839
30
0
41
1
10
34.353026977256
20
7.87571580623569
30
0
41
1
10
34.3987676623758
20
7.88189189757139
30
0
41
1
10
34.4446395913815
20
7.88775992897479
30
0
41
1
10
34.4906428091442
20
7.89331685502208
30
0
41
1
10
34.5367773613766
20
7.89855961819913
30
0
41
1
10
34.5830432946375
20
7.90348514887401
30
0
41
1
10
34.629440656339
20
7.90809036526946
30
0
41
1
10
34.6759694947518
20
7.91237217343541
30
0
41
1
10
34.7226298590117
20
7.91632746722138
30
0
41
1
10
34.7694217991262
20
7.9199531282492
30
0
41
1
10
34.8163453659796
20
7.92324602588354
30
0
41
1
10
34.8634006113409
20
7.92620301721209
30
0
41
1
10
34.9105875878655
20
7.92882094698709
30
0
41
1
10
34.9579063491175
20
7.93109664771367
30
0
41
1
10
35.0053569495158
20
7.93302693918662
30
0
41
1
10
35.0529394445664
20
7.93460863009446
30
0
41
1
10
35.1006538900202
20
7.93583851187526
30
0
41
1
10
35.1485003447614
20
7.9367133816061
30
0
41
1
10
35.196478836961
20
7.93722995584235
30
0
41
1
10
35.2445893738848
20
7.93738521716415
30
0
41
1
10
35.2928319974788
20
7.93717680431831
30
0
41
1
10
35.3412066970279
20
7.936602249712
30
0
41
1
10
35.3897134622197
20
7.93565911521864
30
0
41
1
10
35.4383522814661
20
7.93434495586183
30
0
41
1
10
35.4871231432439
20
7.93265732966682
30
0
41
1
10
35.5360260357333
20
7.93059379508736
30
0
41
1
10
35.5850609469128
20
7.92815191177556
30
0
41
1
10
35.6342278645322
20
7.92532924045273
30
0
41
1
10
35.6835267761182
20
7.92212334302204
30
0
41
1
10
35.7329576689707
20
7.91853178261658
30
0
41
1
10
35.7825205301623
20
7.91455212366469
30
0
41
1
10
35.832215346537
20
7.91018193195112
30
0
41
1
10
35.8820421047083
20
7.90541877467922
30
0
41
1
10
35.9320007910578
20
7.90026022053331
30
0
41
1
10
35.9820913917345
20
7.89470383974106
30
0
41
1
10
36.0323138926526
20
7.88874720413594
30
0
41
1
10
36.0826682794907
20
7.88238788722015
30
0
41
1
10
36.1331545376901
20
7.87562346422729
30
0
41
1
10
36.1837726524535
20
7.86845151218546
30
0
41
1
10
36.2345226087438
20
7.86086960998045
30
0
41
1
10
36.2854043912821
20
7.85287533841884
30
0
41
1
10
36.3364179845474
20
7.84446628029184
30
0
41
1
10
36.3875633727737
20
7.83564002043843
30
0
41
1
10
36.4388405399505
20
7.82639414580962
30
0
41
1
10
36.4902494698194
20
7.81672624553141
30
0
41
1
10
36.541790145875
20
7.80663391097147
30
0
41
1
10
36.5934625513592
20
7.79611473579448
30
0
41
1
10
36.6452666692727
20
7.78516631605845
30
0
41
1
10
36.6972024823283
20
7.7737862501601
30
0
41
1
10
36.7492699731175
20
7.7619721393456
30
0
41
1
10
36.8014691234858
20
7.74972158610257
30
0
41
1
10
36.8537999244702
20
7.73703219864765
30
0
41
1
10
36.9062623903134
20
7.72390156126832
30
0
41
1
10
36.9588564939998
20
7.71032705981153
30
0
41
1
10
37.0115822394925
20
7.69630608694396
30
0
41
1
10
37.0644396335988
20
7.6818360302091
30
0
41
1
10
37.1174286836123
20
7.66691427769032
30
0
41
1
10
37.170549396853
20
7.65153821682205
30
0
41
1
10
37.223801780791
20
7.63570523476932
30
0
41
1
10
37.2771858430141
20
7.61941271838603
30
0
41
1
10
37.3307015912376
20
7.60265805428659
30
0
41
1
10
37.3843490333018
20
7.58543862888718
30
0
41
1
10
37.4381281771739
20
7.56775182845541
30
0
41
1
10
37.4920390309478
20
7.54959503915816
30
0
41
1
10
37.5460816028449
20
7.53096564710947
30
0
41
1
10
37.6002559012148
20
7.51186103841945
30
0
41
1
10
37.6545619345355
20
7.49227859924238
30
0
41
1
10
37.7089997114142
20
7.4722157158256
30
0
41
1
10
37.7635692405877
20
7.45166977455824
30
0
41
1
10
37.8182705309228
20
7.43063816202039
30
0
41
1
10
37.8731035914169
20
7.40911826503199
30
0
41
1
10
37.9280684311987
20
7.38710747070235
30
0
41
1
10
37.9831650595284
20
7.3646031664791
30
0
41
1
10
38.0383934857983
20
7.34160274019979
30
0
41
1
10
38.0937537195329
20
7.31810358013399
30
0
41
1
10
38.1492457703911
20
7.29410307506188
30
0
41
1
10
38.2048696481608
20
7.26959861421685
30
0
41
1
10
38.2606253627801
20
7.24458758773804
30
0
41
1
10
38.3165129242602
20
7.21906738521474
30
0
41
1
10
38.3725323429774
20
7.19303540137608
30
0
41
1
10
38.4286836285801
20
7.16648901502231
30
0
41
1
10
38.4849667934824
20
7.13942566846333
30
0
41
1
10
38.5413818192388
20
7.11184258029533
30
0
41
1
10
38.5979286978978
20
7.08373805940343
30
0
41
1
10
38.6546074576586
20
7.05511171243521
30
0
41
1
10
38.7114180961108
20
7.02596292703831
30
0
41
1
10
38.7683606133258
20
6.9962911897284
30
0
41
1
10
38.8254350084334
20
6.96609599801715
30
0
41
1
10
38.8826412808006
20
6.93537688418556
30
0
41
1
10
38.9399794297153
20
6.90413340916601
30
0
41
1
10
38.9974494544725
20
6.87236516446171
30
0
41
1
10
39.0550513543482
20
6.84007177190867
30
0
41
1
10
39.1127851286203
20
6.80725288400689
30
0
41
1
10
39.1706507765117
20
6.77390818414256
30
0
41
1
10
39.2286482974015
20
6.74003738667781
30
0
41
1
10
39.2867776900361
20
6.70564023768469
30
0
41
1
10
39.3450389554871
20
6.67071651323093
30
0
41
1
10
39.4034320860733
20
6.63526602684499
30
0
41
1
10
39.4619571068519
20
6.59928860260865
30
0
41
1
10
39.520613920241
20
6.56278417696797
30
0
41
1
10
39.579402887875
20
6.52575241852875
30
0
41
1
10
39.8588188787652
20
6.3476393486508
30
0
41
1
10
40.358982176334
20
6.00401582841181
30
0
41
1
10
41.0795997655027
20
5.44839360387039
30
0
41
1
10
41.800219385155
20
4.83808460674678
30
0
41
1
10
42.5207386522146
20
4.17890961748819
30
0
41
1
10
43.0117301956412
20
3.70093093730344
30
0
41
1
10
43.2737300233112
20
3.43912861206795
30
0
41
1
10
43.3077974714392
20
3.4050076124845
30
0
41
1
10
43.3443293777307
20
3.36832940011726
30
0
41
1
10
43.3833257560905
20
3.32907642908995
30
0
41
1
10
43.4247867126239
20
3.28723059922737
30
0
41
1
10
43.4687123422499
20
3.24277293733007
30
0
41
1
10
43.5151027571226
20
3.19568378305047
30
0
41
1
10
43.5639580552319
20
3.14594284043332
30
0
41
1
10
43.6152783483123
20
3.09352970651108
30
0
41
1
10
43.6690637364855
20
3.03842366224754
30
0
41
1
10
43.725314317766
20
2.98060375422134
30
0
41
1
10
43.7840301921984
20
2.92004889973305
30
0
41
1
10
43.8452114613869
20
2.85673799849061
30
0
41
1
10
43.908858228178
20
2.79065004673177
30
0
41
1
10
43.9749705963266
20
2.72176426938915
30
0
41
1
10
44.0435486700098
20
2.65006020420699
30
0
41
1
10
44.1145925539568
20
2.575517999775
30
0
41
1
10
44.1881023511019
20
2.49811789573673
30
0
41
1
10
44.264078169939
20
2.41784293987746
30
0
41
1
10
44.3425200938011
20
2.33466903492305
30
0
41
1
10
44.4234282991946
20
2.24860462078428
30
0
41
1
10
44.478188704758
20
2.19010437772425
30
0
41
1
10
44.5059801417112
20
2.16041493696835
30
0
0
SPLINE
5
152
100
AcDbEntity
8
1
62
256
6
ByLayer
370
18
48
1
60
0
100
AcDbSpline
70
4
71
3
72
12
73
8
40
0
40
0
40
0
40
0
40
0.499999999999987
40
0.499999999999987
40
0.749999999999993
40
0.749999999999993
40
1
40
1
40
1
40
1
41
1
10
44.5065412625373
20
2.15984539722135
30
0
41
1
10
44.6524008703671
20
2.02159241025902
30
0
41
1
10
44.8042686853877
20
1.88914016427614
30
0
41
1
10
45.0402300094435
20
1.69854691011821
30
0
41
1
10
45.1202477546714
20
1.63636661308308
30
0
41
1
10
45.2829200162442
20
1.51465018019374
30
0
41
1
10
45.3656137608494
20
1.45508409325347
30
0
41
1
10
45.4491699855922
20
1.39702062066706
30
0
0
SPLINE
5
153
100
AcDbEntity
8
1
62
256
6
ByLayer
370
18
48
1
60
0
100
AcDbSpline
70
4
71
3
72
28
73
24
40
0
40
0
40
0
40
0
40
0.0312500000000041
40
0.0312500000000041
40
0.0625000000000082
40
0.0625000000000082
40
0.0937500000000123
40
0.0937500000000123
40
0.125000000000016
40
0.125000000000016
40
0.187500000000015
40
0.187500000000015
40
0.250000000000014
40
0.250000000000014
40
0.375000000000012
40
0.375000000000012
40
0.50000000000001
40
0.50000000000001
40
0.625000000000007
40
0.625000000000007
40
0.750000000000005
40
0.750000000000005
40
1
40
1
40
1
40
1
41
1
10
45.4491699855922
20
1.39702062066712
30
0
41
1
10
45.4634445694826
20
1.41014418457229
30
0
41
1
10
45.4762220160463
20
1.42433244842033
30
0
41
1
10
45.5000178156635
20
1.45393235838765
30
0
41
1
10
45.5110152252082
20
1.4693592826826
30
0
41
1
10
45.5318078424249
20
1.50102642513991
30
0
41
1
10
45.5415963691254
20
1.51727152659652
30
0
41
1
10
45.5602972611426
20
1.55033428255308
30
0
41
1
10
45.5692083107218
20
1.56716089712992
30
0
41
1
10
45.5947431820048
20
1.61785831356289
30
0
41
1
10
45.6102836354221
20
1.65209551398951
30
0
41
1
10
45.6395667146085
20
1.72099625432225
30
0
41
1
10
45.6532910591195
20
1.75566682178314
30
0
41
1
10
45.6925840397153
20
1.8600009496333
30
0
41
1
10
45.716313079297
20
1.9299713012058
30
0
41
1
10
45.7609573896826
20
2.06991324996574
30
0
41
1
10
45.7818295504961
20
2.13990154000237
30
0
41
1
10
45.8215836453377
20
2.27955150686407
30
0
41
1
10
45.8404630622894
20
2.34925966812196
30
0
41
1
10
45.8765658585597
20
2.48780457042648
30
0
41
1
10
45.8937957000057
20
2.55667957525006
30
0
41
1
10
45.943409468842
20
2.76199152437536
30
0
41
1
10
45.973745304192
20
2.89710953573942
30
0
41
1
10
46.0017469139586
20
3.03031020824017
30
0
0
SPLINE
5
154
100
AcDbEntity
8
1
62
256
6
ByLayer
370
18
48
1
60
0
100
AcDbSpline
70
4
71
3
72
37
73
33
40
0
40
0
40
0
40
0
40
0.141703265168488
40
0.141703265168488
40
0.283406530336977
40
0.283406530336977
40
0.354258162921221
40
0.354258162921221
40
0.389683979213345
40
0.389683979213345
40
0.425109795505468
40
0.425109795505468
40
0.495961428089715
40
0.495961428089715
40
0.566813060673961
40
0.566813060673961
40
0.637664693258208
40
0.637664693258208
40
0.708516325842455
40
0.708516325842455
40
0.779367958426702
40
0.779367958426702
40
0.850219591010948
40
0.850219591010948
40
0.867932499157011
40
0.867932499157011
40
0.885645407303074
40
0.9210712235952
40
0.9210712235952
40
0.99192285617945
40
0.99192285617945
40
1
40
1
40
1
40
1
41
1
10
46.0017469139586
20
3.03031020824014
30
0
41
1
10
45.6634900436692
20
3.3553228395559
30
0
41
1
10
45.3263748235257
20
3.66912057224329
30
0
41
1
10
44.6522596825578
20
4.27133612506378
30
0
41
1
10
44.3152758445613
20
4.55975952552103
30
0
41
1
10
43.8073635550912
20
4.96947050386058
30
0
41
1
10
43.637642808035
20
5.10219936780416
30
0
41
1
10
43.3820018298632
20
5.29488228599942
30
0
41
1
10
43.2964980356868
20
5.35812426716996
30
0
41
1
10
43.1260985250007
20
5.48170590171708
30
0
41
1
10
43.0410983666272
20
5.54212752787174
30
0
41
1
10
42.7865369469635
20
5.71939356576004
30
0
41
1
10
42.6174058022684
20
5.83224039312552
30
0
41
1
10
42.2796260339829
20
6.04781687151947
30
0
41
1
10
42.1109828276553
20
6.15054916249042
30
0
41
1
10
41.7736953050211
20
6.34635206437324
30
0
41
1
10
41.605042503306
20
6.43948285767007
30
0
41
1
10
41.2675167595976
20
6.6156468751974
30
0
41
1
10
41.0986480818599
20
6.69866585380942
30
0
41
1
10
40.7604115062012
20
6.85379312835343
30
0
41
1
10
40.5910417029221
20
6.92590087382183
30
0
41
1
10
40.2514093875673
20
7.05829701688799
30
0
41
1
10
40.081155700668
20
7.11853028642412
30
0
41
1
10
39.8674586846419
20
7.1860096826797
30
0
41
1
10
39.8246406047273
20
7.19912764260479
30
0
41
1
10
39.7391103638801
20
7.22452367368223
30
0
41
1
10
39.6109759155963
20
7.26135968805929
30
0
41
1
10
39.4832788800782
20
7.29445340271232
30
0
41
1
10
39.2283553288665
20
7.35571794529577
30
0
41
1
10
39.0590316704219
20
7.39000320209985
30
0
41
1
10
38.8707990610052
20
7.42100702345735
30
0
41
1
10
38.8515409864733
20
7.42409572720337
30
0
41
1
10
38.8322871722332
20
7.42710044868642
30
0
0
SPLINE
5
155
100
AcDbEntity
8
1
62
256
6
ByLayer
370
18
48
1
60
0
100
AcDbSpline
70
4
71
3
72
29
73
25
40
0
40
0
40
0
40
0
40
0.0798829168601955
40
0.163529924418354
40
0.163529924418354
40
0.330823939534668
40
0.330823939534668
40
0.414470947092826
40
0.414470947092826
40
0.498117954650984
40
0.498117954650984
40
0.519029706540524
40
0.519029706540524
40
0.539941458430064
40
0.539941458430064
40
0.581764962209148
40
0.581764962209148
40
0.665411969767318
40
0.665411969767318
40
0.749058977325489
40
0.749058977325489
40
0.832705984883659
40
0.832705984883659
40
1
40
1
40
1
40
1
41
1
10
19.5745798816213
20
-6.20056331875099
30
0
41
1
10
19.411667523827
20
-6.29796910910446
30
0
41
1
10
19.0794764239318
20
-6.48698116540331
30
0
41
1
10
18.7495362501864
20
-6.65344739113135
30
0
41
1
10
18.2444756382473
20
-6.88989986544439
30
0
41
1
10
17.9094150395113
20
-7.02178827534172
30
0
41
1
10
17.4049651825542
20
-7.18464304974037
30
0
41
1
10
17.2365278893529
20
-7.23311263915247
30
0
41
1
10
16.8986012757321
20
-7.31909836801975
30
0
41
1
10
16.7291042434738
20
-7.35671456501663
30
0
41
1
10
16.5163749249823
20
-7.39690565767822
30
0
41
1
10
16.4737865738157
20
-7.40459718114178
30
0
41
1
10
16.3885202929084
20
-7.4192722982182
30
0
41
1
10
16.3458177990229
20
-7.42625944215621
30
0
41
1
10
16.2178499166206
20
-7.44609287733357
30
0
41
1
10
16.1326715922154
20
-7.45782248770499
30
0
41
1
10
15.8775041550886
20
-7.48841609399872
30
0
41
1
10
15.7078854825939
20
-7.50269201396205
30
0
41
1
10
15.3693975895585
20
-7.51819780090801
30
0
41
1
10
15.2005370010847
20
-7.51938708311783
30
0
41
1
10
14.8631907208881
20
-7.50787811869475
30
0
41
1
10
14.6946798277585
20
-7.49527163188179
30
0
41
1
10
14.1886999281365
20
-7.43738568741401
30
0
41
1
10
13.8507468262798
20
-7.37201767700162
30
0
41
1
10
13.51
20
-7.28148112066404
30
0
0
SPLINE
5
156
100
AcDbEntity
8
1
62
256
6
ByLayer
370
18
48
1
60
0
100
AcDbSpline
70
4
71
3
72
10
73
6
40
0
40
0
40
0
40
0
40
0.5
40
0.5
40
1
40
1
40
1
40
1
41
1
10
12.2392310212458
20
-6.81770222440932
30
0
41
1
10
12.4491695856367
20
-6.91436821860191
30
0
41
1
10
12.6592156165564
20
-7.00135980899327
30
0
41
1
10
13.0818632378343
20
-7.15632599878117
30
0
41
1
10
13.2944618967466
20
-7.22421266801058
30
0
41
1
10
13.51
20
-7.28148112066407
30
0
0
SPLINE
5
157
100
AcDbEntity
8
1
62
256
6
ByLayer
370
13
48
1
60
0
100
AcDbSpline
70
4
71
3
72
8
73
4
40
0
40
0
40
0
40
0
40
1
40
1
40
1
40
1
41
1
10
12.1197849875336
20
-6.89051205165205
30
0
41
1
10
12.15943234517
20
-6.86627649351274
30
0
41
1
10
12.1992456096284
20
-6.84200136359394
30
0
41
1
10
12.2392310312562
20
-6.81770221771365
30
0
0
SPLINE
5
158
100
AcDbEntity
8
1
62
256
6
ByLayer
370
18
48
1
60
0
100
AcDbSpline
70
4
71
3
72
8
73
4
40
0
40
0
40
0
40
0
40
1
40
1
40
1
40
1
41
1
10
12.1197849875337
20
-6.89051205165211
30
0
41
1
10
12.1750360643478
20
-6.91448286834199
30
0
41
1
10
12.2302945465817
20
-6.93784259380934
30
0
41
1
10
12.2856114191291
20
-6.96056953057686
30
0
0
SPLINE
5
159
100
AcDbEntity
8
1
62
256
6
ByLayer
370
18
48
1
60
0
100
AcDbSpline
70
4
71
3
72
28
73
24
40
0
40
0
40
0
40
0
40
0.0312499999999979
40
0.0312499999999979
40
0.0624999999999959
40
0.0624999999999959
40
0.124999999999996
40
0.124999999999996
40
0.187499999999996
40
0.187499999999996
40
0.249999999999996
40
0.249999999999996
40
0.312499999999997
40
0.312499999999997
40
0.374999999999997
40
0.374999999999997
40
0.499999999999998
40
0.499999999999998
40
0.624999999999998
40
0.624999999999998
40
0.749999999999999
40
0.749999999999999
40
1
40
1
40
1
40
1
41
1
10
12.2856114191291
20
-6.96056953057686
30
0
41
1
10
12.3073532098217
20
-6.96950214515766
30
0
41
1
10
12.3276984531489
20
-6.9789449586134
30
0
41
1
10
12.3664202291415
20
-6.99845968098401
30
0
41
1
10
12.3847885403723
20
-7.00853538085744
30
0
41
1
10
12.4376471583954
20
-7.03936608855324
30
0
41
1
10
12.4699277282045
20
-7.06070725246312
30
0
41
1
10
12.5306926735641
20
-7.10392833722528
30
0
41
1
10
12.5591465663027
20
-7.12582257440687
30
0
41
1
10
12.6133049219003
20
-7.16962516799566
30
0
41
1
10
12.6389987713022
20
-7.19153857568219
30
0
41
1
10
12.6882785335851
20
-7.23505090234818
30
0
41
1
10
12.711860194925
20
-7.25665204907412
30
0
41
1
10
12.7573356119326
20
-7.29931675362812
30
0
41
1
10
12.7792532658708
20
-7.32040739165132
30
0
41
1
10
12.8426391318551
20
-7.38235760874045
30
0
41
1
10
12.8818277405078
20
-7.42193569354751
30
0
41
1
10
12.9558670465975
20
-7.49703670172099
30
0
41
1
10
12.9906991138355
20
-7.53256631048481
30
0
41
1
10
13.0570422620731
20
-7.59921689030577
30
0
41
1
10
13.0885456755231
20
-7.63034067449033
30
0
41
1
10
13.1790727719339
20
-7.71672169946891
30
0
41
1
10
13.2341649688984
20
-7.76498485511078
30
0
41
1
10
13.2856114191294
20
-7.80312986566702
30
0
0
SPLINE
5
15A
100
AcDbEntity
8
1
62
256
6
ByLayer
370
18
48
1
60
0
100
AcDbSpline
70
4
71
3
72
8
73
4
40
0
40
0
40
0
40
0
40
1
40
1
40
1
40
1
41
1
10
13.2856114191291
20
-7.80312986566719
30
0
41
1
10
13.3608296442562
20
-7.85890047721793
30
0
41
1
10
13.4355263199131
20
-7.89072108501372
30
0
41
1
10
13.51
20
-7.89872442104232
30
0
0
SPLINE
5
15B
100
AcDbEntity
8
1
62
256
6
ByLayer
370
18
48
1
60
0
100
AcDbSpline
70
4
71
3
72
8
73
4
40
0
40
0
40
0
40
0
40
1
40
1
40
1
40
1
41
1
10
13.5099999999999
20
-7.89872442104232
30
0
41
1
10
13.5099999999999
20
-7.89887757619385
30
0
41
1
10
13.51
20
-7.89902946199237
30
0
41
1
10
13.51
20
-7.8991800781516
30
0
0
SPLINE
5
15C
100
AcDbEntity
8
1
62
256
6
ByLayer
370
18
48
1
60
0
100
AcDbSpline
70
4
71
3
72
8
73
4
40
0
40
0
40
0
40
0
40
1
40
1
40
1
40
1
41
1
10
13.51
20
-7.8991800781516
30
0
41
1
10
13.6470818527124
20
-7.88415756392115
30
0
41
1
10
13.7836989826273
20
-7.86473407733263
30
0
41
1
10
13.9199760939629
20
-7.84102464992924
30
0
0
SPLINE
5
15D
100
AcDbEntity
8
1
62
256
6
ByLayer
370
18
48
1
60
0
100
AcDbSpline
70
4
71
3
72
15
73
11
40
0
40
0
40
0
40
0
40
0.0037127409294088
40
0.176991170704717
40
0.339948813540926
40
0.492589223078818
40
0.634914359790898
40
0.766924896157673
40
0.888620485601413
40
1
40
1
40
1
40
1
41
1
10
30.7681400958886
20
6.42887810693694
30
0
41
1
10
30.768966287343
20
6.42941515339996
30
0
41
1
10
30.808351885121
20
6.45501069393859
30
0
41
1
10
30.8839984357032
20
6.50360815892429
30
0
41
1
10
30.9927785222603
20
6.5719407533195
30
0
41
1
10
31.0946643377142
20
6.6345663167489
30
0
41
1
10
31.1896576028841
20
6.69175416156028
30
0
41
1
10
31.2777591135658
20
6.74372749716244
30
0
41
1
10
31.3589701892578
20
6.7907975468965
30
0
41
1
10
31.4108103614299
20
6.8201788285819
30
0
41
1
10
31.4355832054947
20
6.83421925088604
30
0
0
SPLINE
5
15E
100
AcDbEntity
8
1
62
256
6
ByLayer
370
18
48
1
60
0
100
AcDbSpline
70
4
71
3
72
9
73
5
40
0
40
0
40
0
40
0
40
0.413787869138097
40
1
40
1
40
1
40
1
41
1
10
31.4355832054946
20
6.83421925088601
30
0
41
1
10
31.5727143039817
20
6.91149280266518
30
0
41
1
10
31.9041622776299
20
7.08923844447884
30
0
41
1
10
32.2358206092895
20
7.24464619600914
30
0
41
1
10
32.4302758979899
20
7.32772191848801
30
0
0
SPLINE
5
15F
100
AcDbEntity
8
1
62
256
6
ByLayer
370
18
48
1
60
0
100
AcDbSpline
70
4
71
3
72
12
73
8
40
0
40
0
40
0
40
0
40
0.5
40
0.5
40
0.75
40
0.75
40
1
40
1
40
1
40
1
41
1
10
44.5065412625373
20
7.51458810738927
30
0
41
1
10
44.6524008703694
20
7.55763754758274
30
0
41
1
10
44.8042686853905
20
7.59245869447474
30
0
41
1
10
45.040230009444
20
7.63462817303036
30
0
41
1
10
45.1202477546706
20
7.64699872105734
30
0
41
1
10
45.2829200162398
20
7.66865705630286
30
0
41
1
10
45.3656137608471
20
7.67794828535114
30
0
41
1
10
45.4491699855922
20
7.68582338139635
30
0
0
SPLINE
5
160
100
AcDbEntity
8
1
62
256
6
ByLayer
370
18
48
1
60
0
100
AcDbSpline
70
4
71
3
72
10
73
6
40
0
40
0
40
0
40
0
40
0.5
40
0.5
40
1
40
1
40
1
40
1
41
1
10
12.2392310543117
20
3.48988695781921
30
0
41
1
10
12.4491693785312
20
3.28729692919998
30
0
41
1
10
12.6592152905201
20
3.08003649420445
30
0
41
1
10
13.0818628987532
20
2.65870766114753
30
0
41
1
10
13.2944616642858
20
2.44459285856328
30
0
41
1
10
13.51
20
2.22820764195086
30
0
0
SPLINE
5
161
100
AcDbEntity
8
1
62
256
6
ByLayer
370
13
48
1
60
0
100
AcDbSpline
70
4
71
3
72
8
73
4
40
0
40
0
40
0
40
0
40
1
40
1
40
1
40
1
41
1
10
12.1197849875337
20
3.41787063609147
30
0
41
1
10
12.159432356099
20
3.44219220133203
30
0
41
1
10
12.1992456315777
20
3.46619566585582
30
0
41
1
10
12.2392310643225
20
3.48988696464349
30
0
0
SPLINE
5
162
100
AcDbEntity
8
1
62
256
6
ByLayer
370
18
48
1
60
0
100
AcDbSpline
70
4
71
3
72
8
73
4
40
0
40
0
40
0
40
0
40
1
40
1
40
1
40
1
41
1
10
12.1197849875337
20
3.41787063609141
30
0
41
1
10
12.1750360643465
20
3.36524706645477
30
0
41
1
10
12.2302945465832
20
3.31225894819633
30
0
41
1
10
12.2856114191292
20
3.25894833532149
30
0
0
SPLINE
5
163
100
AcDbEntity
8
1
62
256
6
ByLayer
370
18
48
1
60
0
100
AcDbSpline
70
4
71
3
72
28
73
24
40
0
40
0
40
0
40
0
40
0.0312499999999984
40
0.0312499999999984
40
0.0624999999999967
40
0.0624999999999967
40
0.124999999999997
40
0.124999999999997
40
0.187499999999997
40
0.187499999999997
40
0.249999999999997
40
0.249999999999997
40
0.312499999999997
40
0.312499999999997
40
0.374999999999997
40
0.374999999999997
40
0.499999999999998
40
0.499999999999998
40
0.624999999999998
40
0.624999999999998
40
0.749999999999998
40
0.749999999999998
40
1
40
1
40
1
40
1
41
1
10
12.285611419129
20
3.25894833532874
30
0
41
1
10
12.3073532098217
20
3.23799508664581
30
0
41
1
10
12.3276984531443
20
3.21647118820994
30
0
41
1
10
12.3664202291373
20
3.17257605471457
30
0
41
1
10
12.3847885403684
20
3.15020183498586
30
0
41
1
10
12.437647158392
20
3.08205801303348
30
0
41
1
10
12.4699277282013
20
3.03528024883681
30
0
41
1
10
12.5306926735613
20
2.93976993594265
30
0
41
1
10
12.5591465663001
20
2.89102644489242
30
0
41
1
10
12.613304921898
20
2.7919447182062
30
0
41
1
10
12.6389987713001
20
2.74160270439373
30
0
41
1
10
12.6882785335832
20
2.63954120214342
30
0
41
1
10
12.7118601949232
20
2.58782029746905
30
0
41
1
10
12.757335611931
20
2.4831394980699
30
0
41
1
10
12.7792532658693
20
2.43010971985316
30
0
41
1
10
12.8426391318539
20
2.270019265668
30
0
41
1
10
12.8818277405067
20
2.16185699279453
30
0
41
1
10
12.9558670465966
20
1.94297740769147
30
0
41
1
10
12.9906991138348
20
1.83225694459321
30
0
41
1
10
13.0570422620726
20
1.60843668293148
30
0
41
1
10
13.0885456755225
20
1.49533560758721
30
0
41
1
10
13.1790727719336
20
1.15262601782337
30
0
41
1
10
13.2341649688983
20
0.919624673368503
30
0
41
1
10
13.2856114191294
20
0.682298152626458
30
0
0
SPLINE
5
164
100
AcDbEntity
8
1
62
256
6
ByLayer
370
18
48
1
60
0
100
AcDbSpline
70
4
71
3
72
8
73
4
40
0
40
0
40
0
40
0
40
1
40
1
40
1
40
1
41
1
10
13.2856114191291
20
0.68229815262643
30
0
41
1
10
13.3608296442583
20
0.335310564831104
30
0
41
1
10
13.4355263199111
20
-0.0152021411134342
30
0
41
1
10
13.51
20
-0.369157802919489
30
0
0
SPLINE
5
165
100
AcDbEntity
8
1
62
256
6
ByLayer
370
18
48
1
60
0
100
AcDbSpline
70
4
71
3
72
8
73
4
40
0
40
0
40
0
40
0
40
1
40
1
40
1
40
1
41
1
10
13.51
20
-0.369157802950042
30
0
41
1
10
13.51
20
-0.371741587583841
30
0
41
1
10
13.51
20
-0.374325633108725
30
0
41
1
10
13.51
20
-0.376909939596118
30
0
0
SPLINE
5
166
100
AcDbEntity
8
1
62
256
6
ByLayer
370
13
48
1
60
0
100
AcDbSpline
70
4
71
3
72
15
73
11
40
0
40
0
40
0
40
0
40
0.0163094782014718
40
0.139270793426288
40
0.262232108651104
40
0.38519342387592
40
0.508154739100736
40
0.631116054325552
40
0.754077369550368
40
1
40
1
40
1
40
1
41
1
10
30.4563867248832
20
-6.35227530125198
30
0
41
1
10
30.3642578165888
20
-6.39492696856655
30
0
41
1
10
29.5775455749611
20
-6.74558618349215
30
0
41
1
10
28.09625
20
-7.18261302729354
30
0
41
1
10
26.0125
20
-7.19120868037012
30
0
41
1
10
23.9287499999999
20
-6.59279963194766
30
0
41
1
10
21.845
20
-5.43813288681102
30
0
41
1
10
19.76125
20
-3.82439490087299
30
0
41
1
10
16.9829166666667
20
-1.2423599395116
30
0
41
1
10
14.8991666666667
20
0.933043738662974
30
0
41
1
10
13.51
20
2.25409980962141
30
0
0
SPLINE
5
167
100
AcDbEntity
8
1
62
256
6
ByLayer
370
18
48
1
60
0
100
AcDbSpline
70
4
71
3
72
75
73
71
40
0
40
0
40
0
40
0
40
0.0292118849074683
40
0.0292118849074683
40
0.0586297065769416
40
0.0586297065769416
40
0.0659841619943097
40
0.0659841619943097
40
0.0733386174116778
40
0.0880475282464138
40
0.0880475282464138
40
0.117465349915885
40
0.117465349915885
40
0.146883171585356
40
0.146883171585356
40
0.176300993254827
40
0.176300993254827
40
0.235136636593769
40
0.235136636593769
40
0.249845547428504
40
0.249845547428504
40
0.257200002845872
40
0.257200002845872
40
0.264554458263239
40
0.293972279932709
40
0.293972279932709
40
0.323390101602179
40
0.323390101602179
40
0.352807923271649
40
0.352807923271649
40
0.411643566610587
40
0.411643566610587
40
0.441061388280057
40
0.441061388280057
40
0.455770299114792
40
0.455770299114792
40
0.470479209949527
40
0.470479209949527
40
0.529314853288469
40
0.529314853288469
40
0.588150496627411
40
0.588150496627411
40
0.617568318296883
40
0.617568318296883
40
0.632277229131618
40
0.632277229131618
40
0.646986139966353
40
0.646986139966353
40
0.676403961635824
40
0.705821783305294
40
0.705821783305294
40
0.764657426644235
40
0.764657426644235
40
0.794075248313705
40
0.794075248313705
40
0.823493069983176
40
0.823493069983176
40
0.830847525400544
40
0.830847525400544
40
0.838201980817911
40
0.838201980817911
40
0.852910891652647
40
0.852910891652647
40
0.882328713322117
40
0.882328713322117
40
0.911746534991587
40
0.911746534991587
40
0.941164356661058
40
0.941164356661058
40
1
40
1
40
1
40
1
41
1
10
30.7680755197505
20
-6.43499376946602
30
0
41
1
10
30.6007977799945
20
-6.52548785705298
30
0
41
1
10
30.4332366505018
20
-6.61076359406954
30
0
41
1
10
30.0958571158139
20
-6.77139278737769
30
0
41
1
10
29.9260292311234
20
-6.84668921764356
30
0
41
1
10
29.7127996742968
20
-6.93397864376897
30
0
41
1
10
29.670132517363
20
-6.95108330627423
30
0
41
1
10
29.584930376581
20
-6.98451395772614
30
0
41
1
10
29.4572469035334
20
-7.03352415482263
30
0
41
1
10
29.329892392378
20
-7.07913657105703
30
0
41
1
10
29.0755429482273
20
-7.16584493394995
30
0
41
1
10
28.9064558697379
20
-7.21763229460055
30
0
41
1
10
28.5688278184365
20
-7.30915057882888
30
0
41
1
10
28.4002863044244
20
-7.34888565264498
30
0
41
1
10
28.063346425515
20
-7.41613451232354
30
0
41
1
10
27.8949467079761
20
-7.44364755848585
30
0
41
1
10
27.3894070983573
20
-7.50726266481706
30
0
41
1
10
27.0519882754727
20
-7.52446417023287
30
0
41
1
10
26.6273498240803
20
-7.51124128462047
30
0
41
1
10
26.5422718363117
20
-7.50688570178676
30
0
41
1
10
26.4143691750162
20
-7.49783007944941
30
0
41
1
10
26.3717169653139
20
-7.49439265925906
30
0
41
1
10
26.286551892828
20
-7.48671094969106
30
0
41
1
10
26.0738536803908
20
-7.46547826273158
30
0
41
1
10
25.8620573917139
20
-7.43434329696944
30
0
41
1
10
25.523725370088
20
-7.37285183659515
30
0
41
1
10
25.3548334185843
20
-7.33626744371327
30
0
41
1
10
25.0171117862379
20
-7.25225279718998
30
0
41
1
10
24.8482882443915
20
-7.2048275922526
30
0
41
1
10
24.3415987223183
20
-7.04557794383379
30
0
41
1
10
24.003557208779
20
-6.91681682367269
30
0
41
1
10
23.4939824352304
20
-6.68611992327376
30
0
41
1
10
23.3237030428718
20
-6.60287890776056
30
0
41
1
10
23.0672348388661
20
-6.46853289136146
30
0
41
1
10
22.9818873788611
20
-6.42234181813868
30
0
41
1
10
22.8116342724403
20
-6.32735714348144
30
0
41
1
10
22.7266903666445
20
-6.27854348721616
30
0
41
1
10
22.3027019575835
20
-6.02806699588507
30
0
41
1
10
21.9658290191107
20
-5.80722041935871
30
0
41
1
10
21.2926058112607
20
-5.32831133057937
30
0
41
1
10
20.9562156891226
20
-5.07044792572927
30
0
41
1
10
20.4490810787399
20
-4.65983549512674
30
0
41
1
10
20.2796167854929
20
-4.51899026959828
30
0
41
1
10
20.0244877113129
20
-4.30208708335255
30
0
41
1
10
19.9392912190184
20
-4.22883521803428
30
0
41
1
10
19.7685500895773
20
-4.08037386112338
30
0
41
1
10
19.6829394151092
20
-4.00510404972411
30
0
41
1
10
19.4269611779408
20
-3.77755794122047
30
0
41
1
10
19.0870708427541
20
-3.46877920451345
30
0
41
1
10
18.7495362255766
20
-3.14922702593191
30
0
41
1
10
18.2444756501178
20
-2.66190439842805
30
0
41
1
10
17.9094150512062
20
-2.32622388330995
30
0
41
1
10
17.4049651573851
20
-1.81227341209188
30
0
41
1
10
17.23652784575
20
-1.63920007558897
30
0
41
1
10
16.898601183298
20
-1.29027383731096
30
0
41
1
10
16.7291041207392
20
-1.11446426200487
30
0
41
1
10
16.5163747567639
20
-0.89317859735317
30
0
41
1
10
16.4737863961148
20
-0.848843001140267
30
0
41
1
10
16.3885200954521
20
-0.76001451332391
30
0
41
1
10
16.3458175965319
20
-0.715495977501945
30
0
41
1
10
16.2178497367455
20
-0.581997871653527
30
0
41
1
10
16.1326714265101
20
-0.493020861333378
30
0
41
1
10
15.877504029202
20
-0.226198635399612
30
0
41
1
10
15.7078853796672
20
-0.0484587246521073
30
0
41
1
10
15.369397525565
20
0.306430461783776
30
0
41
1
10
15.2005369530477
20
0.483583937802479
30
0
41
1
10
14.863190698001
20
0.836856908513397
30
0
41
1
10
14.6946798141187
20
1.01296145889947
30
0
41
1
10
14.1886999336069
20
1.53883342383426
30
0
41
1
10
13.8507468330188
20
1.88612160164198
30
0
41
1
10
13.51
20
2.22820764195086
30
0
0
SPLINE
5
168
100
AcDbEntity
8
1
62
256
6
ByLayer
370
13
48
1
60
0
100
AcDbSpline
70
4
71
3
72
17
73
13
40
0
40
0
40
0
40
0
40
0.0411208238958117
40
0.160586916399197
40
0.280053008902583
40
0.399519101405969
40
0.518985193909354
40
0.63845128641274
40
0.757917378916126
40
0.877383471419511
40
0.996849563922897
40
1
40
1
40
1
40
1
41
1
10
41.3159871255925
20
-6.34915893753904
30
0
41
1
10
41.0769080837284
20
-6.46003023154469
30
0
41
1
10
40.1432457085309
20
-6.85147105980283
30
0
41
1
10
38.515
20
-7.23529842620249
30
0
41
1
10
36.43125
20
-7.11586975786045
30
0
41
1
10
34.3475
20
-6.39575425658421
30
0
41
1
10
32.26375
20
-5.13587545630136
30
0
41
1
10
30.18
20
-3.44272427907626
30
0
41
1
10
28.09625
20
-1.45886743698293
30
0
41
1
10
26.0125
20
0.64809342006663
30
0
41
1
10
24.6050165009499
20
2.03429436571233
30
0
41
1
10
23.8921163352331
20
2.69641451827107
30
0
41
1
10
23.8737995028497
20
2.71339976163239
30
0
0
SPLINE
5
169
100
AcDbEntity
8
1
62
256
6
ByLayer
370
18
48
1
60
0
100
AcDbSpline
70
4
71
3
72
113
73
109
40
0
40
0
40
0
40
0
40
0.0030306131238459
40
0.0030306131238459
40
0.0228384770738908
40
0.0228384770738908
40
0.0426463410239358
40
0.0426463410239358
40
0.0624542049739807
40
0.0624542049739807
40
0.0822620689240256
40
0.0822620689240256
40
0.0872140349115371
40
0.0872140349115371
40
0.0921660008990485
40
0.102069932874071
40
0.102069932874071
40
0.121877796824117
40
0.121877796824117
40
0.141685660774163
40
0.141685660774163
40
0.161493524724209
40
0.161493524724209
40
0.201109252624299
40
0.201109252624299
40
0.211013184599322
40
0.215965150586833
40
0.215965150586833
40
0.220917116574344
40
0.220917116574344
40
0.240724980524389
40
0.240724980524389
40
0.260532844474434
40
0.260532844474434
40
0.280340708424479
40
0.280340708424479
40
0.300148572374524
40
0.300148572374524
40
0.319956436324569
40
0.319956436324569
40
0.339764300274614
40
0.339764300274614
40
0.349668232249636
40
0.349668232249636
40
0.359572164224659
40
0.359572164224659
40
0.39918789212475
40
0.39918789212475
40
0.438803620024842
40
0.438803620024842
40
0.458611483974887
40
0.458611483974887
40
0.478419347924933
40
0.478419347924933
40
0.483371313912444
40
0.483371313912444
40
0.488323279899955
40
0.498227211874977
40
0.498227211874977
40
0.518035075825021
40
0.518035075825021
40
0.537842939775065
40
0.537842939775065
40
0.557650803725109
40
0.557650803725109
40
0.597266531625198
40
0.597266531625198
40
0.60717046360022
40
0.60717046360022
40
0.612122429587732
40
0.612122429587732
40
0.617074395575243
40
0.636882259525291
40
0.636882259525291
40
0.656690123475339
40
0.656690123475339
40
0.676497987425387
40
0.676497987425387
40
0.716113715325483
40
0.716113715325483
40
0.73592157927553
40
0.73592157927553
40
0.745825511250554
40
0.745825511250554
40
0.755729443225578
40
0.755729443225578
40
0.795345171125675
40
0.795345171125675
40
0.834960899025773
40
0.834960899025773
40
0.854768762975821
40
0.854768762975821
40
0.864672694950846
40
0.864672694950846
40
0.874576626925871
40
0.874576626925871
40
0.89438449087592
40
0.914192354825969
40
0.914192354825969
40
0.953808082726067
40
0.953808082726067
40
0.973615946676117
40
0.973615946676117
40
0.993423810626166
40
0.993423810626166
40
0.998375776613679
40
0.998375776613679
40
1
40
1
40
1
40
1
41
1
10
42.0197476531805
20
-6.20317363618793
30
0
41
1
10
41.993944213566
20
-6.21837958531074
30
0
41
1
10
41.9681416464518
20
-6.23347164230728
30
0
41
1
10
41.7736953050289
20
-6.34635206436911
30
0
41
1
10
41.6050425033141
20
-6.43948285766592
30
0
41
1
10
41.2675167596064
20
-6.61564687519328
30
0
41
1
10
41.098648081869
20
-6.69866585380532
30
0
41
1
10
40.7604115062109
20
-6.85379312834945
30
0
41
1
10
40.5910417029322
20
-6.92590087381794
30
0
41
1
10
40.251409387578
20
-7.05829701688435
30
0
41
1
10
40.0811557006791
20
-7.11853028642059
30
0
41
1
10
39.8674586846535
20
-7.18600968267643
30
0
41
1
10
39.824640604739
20
-7.19912764260155
30
0
41
1
10
39.739110363892
20
-7.2245236736791
30
0
41
1
10
39.6109759156083
20
-7.2613596880563
30
0
41
1
10
39.4832788800904
20
-7.29445340270954
30
0
41
1
10
39.2283553288792
20
-7.35571794529335
30
0
41
1
10
39.0590316704348
20
-7.39000320209772
30
0
41
1
10
38.7210918646954
20
-7.44566531823861
30
0
41
1
10
38.5524783752325
20
-7.46702835997917
30
0
41
1
10
38.2154624289655
20
-7.496922729934
30
0
41
1
10
38.04705430055
20
-7.50548968346422
30
0
41
1
10
37.541353082287
20
-7.5127445584051
30
0
41
1
10
37.203559731155
20
-7.4930358592465
30
0
41
1
10
36.7782725395426
20
-7.43939616547525
30
0
41
1
10
36.6504607467536
20
-7.42112892011644
30
0
41
1
10
36.5222659268002
20
-7.39947512472324
30
0
41
1
10
36.4367118344071
20
-7.38427072433501
30
0
41
1
10
36.3938860398829
20
-7.37628307963334
30
0
41
1
10
36.1801269225255
20
-7.33450880619236
30
0
41
1
10
36.0098254017353
20
-7.29513467795638
30
0
41
1
10
35.6704178261477
20
-7.20399276020885
30
0
41
1
10
35.5013120330815
20
-7.15222394514294
30
0
41
1
10
35.163965319842
20
-7.03573422723142
30
0
41
1
10
34.9957470485739
20
-6.97088327767366
30
0
41
1
10
34.6595119974703
20
-6.82874621351985
30
0
41
1
10
34.4914816832484
20
-6.75151649926266
30
0
41
1
10
34.1549267504016
20
-6.58580820352989
30
0
41
1
10
33.9864048378076
20
-6.49732886371964
30
0
41
1
10
33.6483680043325
20
-6.31006255146022
30
0
41
1
10
33.4788477547807
20
-6.21133963761667
30
0
41
1
10
33.2235379665627
20
-6.05589698908437
30
0
41
1
10
33.1382636751597
20
-6.00283051865145
30
0
41
1
10
32.9673456134158
20
-5.89412422909982
30
0
41
1
10
32.882047076601
20
-5.83870384412151
30
0
41
1
10
32.4562919226547
20
-5.55622252312435
30
0
41
1
10
32.1180799293502
20
-5.31306048819758
30
0
41
1
10
31.444260940845
20
-4.79052794420633
30
0
41
1
10
31.1085192262282
20
-4.51138703995085
30
0
41
1
10
30.6031602861483
20
-4.06992880200454
30
0
41
1
10
30.434421719156
20
-3.91897697630191
30
0
41
1
10
30.0958571961829
20
-3.61004880171768
30
0
41
1
10
29.926029346373
20
-3.45208812399702
30
0
41
1
10
29.7127998426375
20
-3.25041778676427
30
0
41
1
10
29.6701326681097
20
-3.20989676044405
30
0
41
1
10
29.5849305084182
20
-3.12865943229585
30
0
41
1
10
29.457247008435
20
-3.00643627431094
30
0
41
1
10
29.3298924746375
20
-2.88314313965753
30
0
41
1
10
29.0755429908838
20
-2.63521014162544
30
0
41
1
10
28.9064558935881
20
-2.46812687855308
30
0
41
1
10
28.5688278191116
20
-2.13076758821751
30
0
41
1
10
28.4002863007224
20
-1.96049300338873
30
0
41
1
10
28.0633464261462
20
-1.61710641063459
30
0
41
1
10
27.8949467172581
20
-1.44399555442723
30
0
41
1
10
27.3894071512
20
-0.920815849319951
30
0
41
1
10
27.0519883802116
20
-0.566845235060129
30
0
41
1
10
26.6273500261093
20
-0.119500461120907
30
0
41
1
10
26.5422720594405
20
-0.0297998569222671
30
0
41
1
10
26.4143694323503
20
0.105030195492787
30
0
41
1
10
26.3717172045304
20
0.149988926300921
30
0
41
1
10
26.2865521132165
20
0.239731562706765
30
0
41
1
10
26.0738538556312
20
0.46379654862173
30
0
41
1
10
25.8620575312949
20
0.686292733238133
30
0
41
1
10
25.5237254652881
20
1.03991485420553
30
0
41
1
10
25.3548334979622
20
1.21554284453379
30
0
41
1
10
25.0171118468095
20
1.56415378619718
30
0
41
1
10
24.8482883019639
20
1.73714414445649
30
0
41
1
10
24.3415987906466
20
2.25165892380815
30
0
41
1
10
24.0035573107698
20
2.58877979196257
30
0
41
1
10
23.4939826236561
20
3.08257077216891
30
0
41
1
10
23.3237032661322
20
3.2451629780976
30
0
41
1
10
23.0672351233566
20
3.48563330653249
30
0
41
1
10
22.9818876080261
20
3.56492247879333
30
0
41
1
10
22.8116344643062
20
3.72152309409964
30
0
41
1
10
22.7266905412274
20
3.79887050439837
30
0
41
1
10
22.3027020524024
20
4.18078081491376
30
0
41
1
10
21.9658290707519
20
4.47087155338212
30
0
41
1
10
21.2926058258181
20
5.01807960659193
30
0
41
1
10
20.9562157102396
20
5.27532414672865
30
0
41
1
10
20.4490811476725
20
5.63626094905399
30
0
41
1
10
20.2796168766122
20
5.75242109263476
30
0
41
1
10
20.0244878444286
20
5.92032545362446
30
0
41
1
10
19.9392913675903
20
5.97522974048053
30
0
41
1
10
19.7685502719383
20
6.08280527225406
30
0
41
1
10
19.6829395897853
20
6.13551240322036
30
0
41
1
10
19.4269612989415
20
6.28925589990689
30
0
41
1
10
19.0870706372044
20
6.48315017437341
30
0
41
1
10
18.7495362502369
20
6.65344739110611
30
0
41
1
10
18.2444756382984
20
6.88989986542256
30
0
41
1
10
17.9094150395631
20
7.02178827532225
30
0
41
1
10
17.4049651826079
20
7.18464304972426
30
0
41
1
10
17.2365278894076
20
7.23311263913743
30
0
41
1
10
16.8986012757883
20
7.31909836800676
30
0
41
1
10
16.7291042435308
20
7.35671456500464
30
0
41
1
10
16.5163749250401
20
7.39690565766756
30
0
41
1
10
16.4737865738737
20
7.40459718113141
30
0
41
1
10
16.417169948087
20
7.41434142707584
30
0
41
1
10
16.4031790016313
20
7.41671041647348
30
0
41
1
10
16.3891846832426
20
7.41904080509204
30
0
0
SPLINE
5
16A
100
AcDbEntity
8
1
62
256
6
ByLayer
370
18
48
1
60
0
100
AcDbSpline
70
4
71
3
72
8
73
4
40
0
40
0
40
0
40
0
40
1
40
1
40
1
40
1
41
1
10
13.3438579072864
20
7.84158927951745
30
0
41
1
10
13.3994423169187
20
7.8737634371482
30
0
41
1
10
13.4547824520191
20
7.89279045093824
30
0
41
1
10
13.51
20
7.8987244210422
30
0
0
SPLINE
5
16B
100
AcDbEntity
8
1
62
256
6
ByLayer
370
18
48
1
60
0
100
AcDbSpline
70
4
71
3
72
12
73
8
40
0
40
0
40
0
40
0
40
0.5
40
0.5
40
0.75
40
0.75
40
1
40
1
40
1
40
1
41
1
10
44.5065412625373
20
-7.51458810738964
30
0
41
1
10
44.6524008703694
20
-7.55763754758308
30
0
41
1
10
44.8042686853905
20
-7.59245869447508
30
0
41
1
10
45.040230009444
20
-7.63462817303071
30
0
41
1
10
45.1202477546705
20
-7.64699872105768
30
0
41
1
10
45.2829200162397
20
-7.66865705630326
30
0
41
1
10
45.365613760847
20
-7.67794828535148
30
0
41
1
10
45.4491699855921
20
-7.68582338139672
30
0
0
SPLINE
5
16C
100
AcDbEntity
8
1
62
256
6
ByLayer
370
18
48
1
60
0
100
AcDbSpline
70
4
71
3
72
28
73
24
40
0
40
0
40
0
40
0
40
0.0312500000000035
40
0.0312500000000035
40
0.062500000000007
40
0.062500000000007
40
0.0937500000000105
40
0.0937500000000105
40
0.125000000000014
40
0.125000000000014
40
0.187500000000013
40
0.187500000000013
40
0.250000000000012
40
0.250000000000012
40
0.37500000000001
40
0.37500000000001
40
0.500000000000008
40
0.500000000000008
40
0.625000000000006
40
0.625000000000006
40
0.750000000000004
40
0.750000000000004
40
1
40
1
40
1
40
1
41
1
10
45.4491699855922
20
-7.68582338139674
30
0
41
1
10
45.4634445697178
20
-7.67790792954489
30
0
41
1
10
45.4762220164686
20
-7.66979725425671
30
0
41
1
10
45.5000178164172
20
-7.65329304571205
30
0
41
1
10
45.5110152261051
20
-7.64489752531637
30
0
41
1
10
45.5318078435832
20
-7.62786902938044
30
0
41
1
10
45.5415963704016
20
-7.61923543846356
30
0
41
1
10
45.560297262639
20
-7.60175612724845
30
0
41
1
10
45.5692083123144
20
-7.5929065580535
30
0
41
1
10
45.5947431838672
20
-7.56627836468408
30
0
41
1
10
45.6102836374439
20
-7.54833595371028
30
0
41
1
10
45.6395667169282
20
-7.51201620007478
30
0
41
1
10
45.6532910615774
20
-7.4936396298838
30
0
41
1
10
45.6925840425672
20
-7.43781695769871
30
0
41
1
10
45.7163130823852
20
-7.39967602580501
30
0
41
1
10
45.7609573932134
20
-7.32142830870086
30
0
41
1
10
45.7818295542326
20
-7.28132357819936
30
0
41
1
10
45.8215836494599
20
-7.19909170225972
30
0
41
1
10
45.8404630665894
20
-7.15693822381886
30
0
41
1
10
45.8765658631795
20
-7.07079940781523
30
0
41
1
10
45.8937957047717
20
-7.02679434433932
30
0
41
1
10
45.9434094740038
20
-6.89193252754387
30
0
41
1
10
45.973745309561
20
-6.79823057609622
30
0
41
1
10
46.0017469194667
20
-6.70063887015175
30
0
0
SPLINE
5
16D
100
AcDbEntity
8
1
62
256
6
ByLayer
370
18
48
1
60
0
100
AcDbSpline
70
4
71
3
72
180
73
176
40
0
40
0
40
0
40
0
40
0.003299618191152
40
0.006610261173795
40
0.0099319165927533
40
0.0132645718823329
40
0.0166082142730742
40
0.0199628307989083
40
0.0233284083046651
40
0.0267049334540072
40
0.0300923927377593
40
0.033490772482655
40
0.0369000588605178
40
0.0403202378978612
40
0.0437512954859641
40
0.047193217391366
40
0.0506459892668653
40
0.0541095966629563
40
0.0575840250397999
40
0.0610692597796478
40
0.0645652861998119
40
0.0680720895661206
40
0.0715896551069439
40
0.0751179680277313
40
0.0786570135261214
40
0.0822067768076084
40
0.0857672431017969
40
0.0893383976792351
40
0.0929202283332663
40
0.0965127377486322
40
0.100115934191334
40
0.103729826005927
40
0.107354421610819
40
0.110989729503178
40
0.114635758264092
40
0.118292516564025
40
0.121960013168554
40
0.125638256944374
40
0.129327256865623
40
0.133027022020501
40
0.136737561618182
40
0.14045888499607
40
0.144191001627339
40
0.147933921128841
40
0.151687653269305
40
0.15545220797792
40
0.159227595353238
40
0.163013825672428
40
0.16681090940092
40
0.170618857202388
40
0.174437679949124
40
0.178267388732795
40
0.182107994875575
40
0.1859595099417
40
0.189821945749396
40
0.193695314383245
40
0.197579628206963
40
0.201474899876583
40
0.205381142354106
40
0.209298368921568
40
0.213226593195567
40
0.217165829142244
40
0.22111609109272
40
0.225077393759015
40
0.22904975217605
40
0.233033176346639
40
0.237027667207738
40
0.241033224379656
40
0.245049846991697
40
0.249077533684839
40
0.253116282614853
40
0.257166091455948
40
0.261226957404883
40
0.265298877185617
40
0.269381847054449
40
0.273475862805732
40
0.277580919778079
40
0.281697012861168
40
0.285824136503089
40
0.289962284718282
40
0.294111451096055
40
0.29827162880971
40
0.302442810626295
40
0.30662498891696
40
0.310818155667976
40
0.315022302492399
40
0.319237420642402
40
0.323463501022285
40
0.327700534202184
40
0.331948510432487
40
0.336207419658969
40
0.34047725153867
40
0.344757995456514
40
0.349049640542706
40
0.3533521756909
40
0.357665589577168
40
0.361989870679777
40
0.366325007301255
40
0.370670989472377
40
0.37502781278881
40
0.379395474042627
40
0.38377397023648
40
0.388163298611073
40
0.392563456673512
40
0.396974442226543
40
0.401396253398699
40
0.405828888675366
40
0.410272346930786
40
0.414726627461002
40
0.419191730017784
40
0.42366765484352
40
0.428154402707107
40
0.432651974940863
40
0.437160373478444
40
0.441679600893819
40
0.446209660441286
40
0.45075055609658
40
0.455302292599042
40
0.459864875494899
40
0.464438311181667
40
0.469022606953666
40
0.4736177710487
40
0.478223812695873
40
0.4828407421646
40
0.487468570814793
40
0.49210731114824
40
0.496756976861219
40
0.501417582898328
40
0.506089145357735
40
0.510771677155495
40
0.51546518618782
40
0.520169679274448
40
0.524885162409036
40
0.529611640772046
40
0.534349118744617
40
0.539097599923387
40
0.543857087136315
40
0.548627582459503
40
0.553409087235038
40
0.558201602089875
40
0.563005126955775
40
0.567819661090312
40
0.57264520309897
40
0.577481750958364
40
0.582329302040561
40
0.587187853138577
40
0.592057400493016
40
0.596937939819901
40
0.656622972937918
40
0.716303408559681
40
0.775969775467922
40
0.835617422763553
40
0.895255737133111
40
0.897872275730999
40
0.900692971102679
40
0.903717831115943
40
0.906946865234632
40
0.910380084783266
40
0.914017503249618
40
0.917859136630434
40
0.921905002799969
40
0.926155117542805
40
0.930609496260337
40
0.935268154784104
40
0.940131109159043
40
0.945198375390229
40
0.950469969153598
40
0.955945905472019
40
0.961626198359098
40
0.967510860434258
40
0.973599902513889
40
0.979893333184684
40
0.986391158366912
40
0.993093380876917
40
1
40
1
40
1
40
1
41
1
10
32.4302758980015
20
3.429044625898
30
0
41
1
10
32.4435527553737
20
3.41572921290424
30
0
41
1
10
32.4701508311852
20
3.38905389702623
30
0
41
1
10
32.5101139126026
20
3.34884097065066
30
0
41
1
10
32.5502096477143
20
3.3083976315273
30
0
41
1
10
32.5904379238616
20
3.26771460425266
30
0
41
1
10
32.6307986825724
20
3.22679492462379
30
0
41
1
10
32.6712918488859
20
3.18563834538784
30
0
41
1
10
32.7119173503678
20
3.14424553579676
30
0
41
1
10
32.7526751119745
20
3.10261695106638
30
0
41
1
10
32.79356505742
20
3.06075313709835
30
0
41
1
10
32.8345871087921
20
3.018654648731
30
0
41
1
10
32.8757411866402
20
2.97632207205396
30
0
41
1
10
32.9170272099349
20
2.93375601870309
30
0
41
1
10
32.9584450960635
20
2.89095712770174
30
0
41
1
10
32.9999947608148
20
2.84792606527
30
0
41
1
10
33.0416761183677
20
2.80466352518334
30
0
41
1
10
33.0834890812769
20
2.76117022898282
30
0
41
1
10
33.1254335604619
20
2.71744692622769
30
0
41
1
10
33.1675094651928
20
2.67349439473634
30
0
41
1
10
33.2097167030785
20
2.62931344083231
30
0
41
1
10
33.2520551800517
20
2.58490489958928
30
0
41
1
10
33.2945248003624
20
2.5402696350765
30
0
41
1
10
33.3371254665439
20
2.49540854061169
30
0
41
1
10
33.3798570794743
20
2.45032253898486
30
0
41
1
10
33.4227195380884
20
2.40501258279815
30
0
41
1
10
33.4657127403922
20
2.35947965437237
30
0
41
1
10
33.5088365895195
20
2.31372475675772
30
0
41
1
10
33.5520910677885
20
2.26774884567106
30
0
41
1
10
33.5954761143378
20
2.22155285491311
30
0
41
1
10
33.638991733235
20
2.17513766394228
30
0
41
1
10
33.6826379561991
20
2.12850415369093
30
0
41
1
10
33.7264148144605
20
2.0816532323758
30
0
41
1
10
33.7703223403284
20
2.03458583522385
30
0
41
1
10
33.814360566766
20
1.98730292483728
30
0
41
1
10
33.858529527512
20
1.93980549137689
30
0
41
1
10
33.902829257056
20
1.89209455279544
30
0
41
1
10
33.9472597906518
20
1.84417115505778
30
0
41
1
10
33.9918211643216
20
1.79603637236596
30
0
41
1
10
34.0365134148626
20
1.74769130738377
30
0
41
1
10
34.0813365798523
20
1.69913709146195
30
0
41
1
10
34.1262906976549
20
1.65037488486476
30
0
41
1
10
34.1713758074267
20
1.60140587699613
30
0
41
1
10
34.216591949123
20
1.5522312866278
30
0
41
1
10
34.261939163503
20
1.5028523621269
30
0
41
1
10
34.3074174921365
20
1.45327038168523
30
0
41
1
10
34.3530269774098
20
1.40348665354861
30
0
41
1
10
34.3987676625314
20
1.35350251624692
30
0
41
1
10
34.4446395915387
20
1.30331933882539
30
0
41
1
10
34.490642809303
20
1.25293852107575
30
0
41
1
10
34.5367773615368
20
1.20236149376888
30
0
41
1
10
34.5830432947993
20
1.15158971888758
30
0
41
1
10
34.6294406565021
20
1.10062468986007
30
0
41
1
10
34.6759694949162
20
1.04946793179474
30
0
41
1
10
34.7226298591775
20
0.998121001714622
30
0
41
1
10
34.7694217992931
20
0.946585488793573
30
0
41
1
10
34.8163453661476
20
0.894863014592318
30
0
41
1
10
34.86340061151
20
0.842955233296578
30
0
41
1
10
34.9105875880355
20
0.790863831949537
30
0
41
1
10
34.9579063492886
20
0.738590530712003
30
0
41
1
10
35.0053569496877
20
0.686137083019133
30
0
41
1
10
35.0529394447392
20
0.63350527612937
30
0
41
1
10
35.1006538901938
20
0.580696930206983
30
0
41
1
10
35.1485003449356
20
0.527713903233803
30
0
41
1
10
35.1964788371359
20
0.474558099284934
30
0
41
1
10
35.2445893740601
20
0.421231576626781
30
0
41
1
10
35.2928319976547
20
0.36773662082868
30
0
41
1
10
35.3412066972042
20
0.314075579940834
30
0
41
1
10
35.3897134623965
20
0.260250852330842
30
0
41
1
10
35.4383522816431
20
0.206264876358688
30
0
41
1
10
35.4871231434212
20
0.1521201325275
30
0
41
1
10
35.5360260359107
20
0.0978191432680262
30
0
41
1
10
35.5850609470903
20
0.0433644733598442
30
0
41
1
10
35.6342278647099
20
-0.011241269816793
30
0
41
1
10
35.6835267762957
20
-0.0659954359837513
30
0
41
1
10
35.7329576691482
20
-0.120895331677531
30
0
41
1
10
35.7825205303398
20
-0.175938219959818
30
0
41
1
10
35.8322153467143
20
-0.231121320126192
30
0
41
1
10
35.8820421048852
20
-0.28644180741523
30
0
41
1
10
35.9320007912344
20
-0.341896812716215
30
0
41
1
10
35.9820913919107
20
-0.39748342227611
30
0
41
1
10
36.0323138928283
20
-0.453198677406249
30
0
41
1
10
36.0826682796659
20
-0.509039574187312
30
0
41
1
10
36.1331545378647
20
-0.565003063174601
30
0
41
1
10
36.1837726526276
20
-0.62108604910182
30
0
41
1
10
36.2345226089171
20
-0.677285390584359
30
0
41
1
10
36.2854043914547
20
-0.73359789982166
30
0
41
1
10
36.3364179847191
20
-0.790020342299073
30
0
41
1
10
36.3875633729446
20
-0.846549436488687
30
0
41
1
10
36.4388405401203
20
-0.903181853549341
30
0
41
1
10
36.4902494699883
20
-0.959914217026409
30
0
41
1
10
36.5417901460427
20
-1.01674310254956
30
0
41
1
10
36.5934625515258
20
-1.07366503753264
30
0
41
1
10
36.6452666694381
20
-1.13067650086432
30
0
41
1
10
36.6972024824924
20
-1.18777392262749
30
0
41
1
10
36.7492699732803
20
-1.24495368370847
30
0
41
1
10
36.8014691236472
20
-1.30221211582142
30
0
41
1
10
36.8537999246302
20
-1.35954550829709
30
0
41
1
10
36.9062623904718
20
-1.41695013738132
30
0
41
1
10
36.9588564941566
20
-1.47442230287854
30
0
41
1
10
37.0115822396477
20
-1.53195828189186
30
0
41
1
10
37.0644396337522
20
-1.58955430797198
30
0
41
1
10
37.117428683764
20
-1.6472065654724
30
0
41
1
10
37.1705493970028
20
-1.70491118949212
30
0
41
1
10
37.2238017809389
20
-1.76266426551285
30
0
41
1
10
37.2771858431599
20
-1.82046182911785
30
0
41
1
10
37.3307015913814
20
-1.87829986568769
30
0
41
1
10
37.3843490334435
20
-1.93617431010119
30
0
41
1
10
37.4381281773135
20
-1.9940810464343
30
0
41
1
10
37.4920390310851
20
-2.05201590765816
30
0
41
1
10
37.54608160298
20
-2.10997467533684
30
0
41
1
10
37.6002559013475
20
-2.16795307932387
30
0
41
1
10
37.6545619346658
20
-2.22594679745825
30
0
41
1
10
37.708999711542
20
-2.28395145525974
30
0
41
1
10
37.763569240713
20
-2.3419626256233
30
0
41
1
10
37.8182705310454
20
-2.39997582851277
30
0
41
1
10
37.8731035915369
20
-2.45798653065367
30
0
41
1
10
37.928068431316
20
-2.51599014522572
30
0
41
1
10
37.9831650596428
20
-2.57398203155381
30
0
41
1
10
38.0383934859099
20
-2.63195749479948
30
0
41
1
10
38.0937537196416
20
-2.68991178564804
30
0
41
1
10
38.1492457704969
20
-2.74784010000843
30
0
41
1
10
38.2048696482635
20
-2.80573757866057
30
0
41
1
10
38.2606253628797
20
-2.8635993070979
30
0
41
1
10
38.3165129243566
20
-2.92142031463254
30
0
41
1
10
38.3725323430706
20
-2.97919557626091
30
0
41
1
10
38.4286836286698
20
-3.03692000418616
30
0
41
1
10
38.4849667935689
20
-3.09458847745614
30
0
41
1
10
38.5413818193219
20
-3.15219570849354
30
0
41
1
10
38.5979286979772
20
-3.20973671922025
30
0
41
1
10
38.6546074577346
20
-3.26720693836771
30
0
41
1
10
38.7114180961832
20
-3.32460162886946
30
0
41
1
10
38.7683606133945
20
-3.38191603002505
30
0
41
1
10
38.8254350084983
20
-3.43914532452882
30
0
41
1
10
38.8826412808617
20
-3.49628464726084
30
0
41
1
10
38.9399794297726
20
-3.55332908258518
30
0
41
1
10
38.9974494545258
20
-3.61027366473849
30
0
41
1
10
39.0550513543975
20
-3.66711337738357
30
0
41
1
10
39.1127851286655
20
-3.72384315339869
30
0
41
1
10
39.1706507765527
20
-3.78045787455895
30
0
41
1
10
39.2286482974384
20
-3.83695237140836
30
0
41
1
10
39.2867776900687
20
-3.89332142247306
30
0
41
1
10
39.3450389555155
20
-3.9495597559231
30
0
41
1
10
39.4034320860972
20
-4.00566204206589
30
0
41
1
10
39.4619571068714
20
-4.0616229201687
30
0
41
1
10
39.520613920256
20
-4.11743689672633
30
0
41
1
10
39.5794028878855
20
-4.17309872512894
30
0
41
1
10
39.8588188787722
20
-4.4363125718576
30
0
41
1
10
40.3589821763393
20
-4.89131542214739
30
0
41
1
10
41.0795997655073
20
-5.49728518800373
30
0
41
1
10
41.800219385159
20
-6.04778705160493
30
0
41
1
10
42.5207386522178
20
-6.53670629858235
30
0
41
1
10
43.0117301956424
20
-6.82463411047473
30
0
41
1
10
43.2737300233069
20
-6.96479212420647
30
0
41
1
10
43.3077974714283
20
-6.98286551050856
30
0
41
1
10
43.3443293777138
20
-7.00207019735404
30
0
41
1
10
43.3833257560683
20
-7.02236849758901
30
0
41
1
10
43.4247867125971
20
-7.04371968982821
30
0
41
1
10
43.468712342219
20
-7.06608029414932
30
0
41
1
10
43.5151027570886
20
-7.0894039321509
30
0
41
1
10
43.5639580551953
20
-7.11364127389479
30
0
41
1
10
43.6152783482738
20
-7.13874085023403
30
0
41
1
10
43.6690637364459
20
-7.16464841249535
30
0
41
1
10
43.7253143177259
20
-7.19130688762783
30
0
41
1
10
43.7840301921585
20
-7.21865635649311
30
0
41
1
10
43.845211461348
20
-7.2466340233687
30
0
41
1
10
43.9088582281405
20
-7.27517417474027
30
0
41
1
10
43.9749705962915
20
-7.30420818265335
30
0
41
1
10
44.0435486699777
20
-7.33366432272837
30
0
41
1
10
44.1145925539283
20
-7.3634683170053
30
0
41
1
10
44.1881023510778
20
-7.39354101727605
30
0
41
1
10
44.2640781699199
20
-7.42380731515988
30
0
41
1
10
44.3425200937877
20
-7.45416101662809
30
0
41
1
10
44.4234282991876
20
-7.48460213420728
30
0
41
1
10
44.4781887047556
20
-7.50437051481819
30
0
41
1
10
44.5059801417112
20
-7.51440315971485
30
0
0
SPLINE
5
16E
100
AcDbEntity
8
1
62
256
6
ByLayer
370
18
48
1
60
0
100
AcDbSpline
70
4
71
3
72
9
73
5
40
0
40
0
40
0
40
0
40
0.413787869212865
40
1
40
1
40
1
40
1
41
1
10
31.4355832053596
20
4.38983574612701
30
0
41
1
10
31.5727143038916
20
4.26286549981239
30
0
41
1
10
31.9041622775887
20
3.95007528495077
30
0
41
1
10
32.2358206092973
20
3.62401019382554
30
0
41
1
10
32.4302758980016
20
3.42904462589794
30
0
0
SPLINE
5
16F
100
AcDbEntity
8
1
62
256
6
ByLayer
370
18
48
1
60
0
100
AcDbSpline
70
4
71
3
72
104
73
100
40
0
40
0
40
0
40
0
40
0.0036743506329799
40
0.0074686373674638
40
0.0113828531633339
40
0.0154169907645118
40
0.0195710427464955
40
0.023845001575324
40
0.0282388596794671
40
0.032752609536241
40
0.0373862437745208
40
0.0421397552956166
40
0.0470131374143947
40
0.0520063840228497
40
0.0571194897784926
40
0.0623524503201458
40
0.0677052625138711
40
0.0731779247319822
40
0.0787704371683069
40
0.0844828021930233
40
0.0903150247507042
40
0.0962671128053556
40
0.102339077836501
40
0.108530935390653
40
0.114842705692691
40
0.121274414322008
40
0.127826092958528
40
0.134497779036442
40
0.141289503636056
40
0.148201291101229
40
0.155233164444472
40
0.162385145098475
40
0.169657252581928
40
0.177049504168409
40
0.184561914562149
40
0.192194495584831
40
0.199947255877915
40
0.20782020062538
40
0.215813331302113
40
0.223926645453653
40
0.232160136513306
40
0.240513793663195
40
0.24898760174616
40
0.257581541235947
40
0.266295588273595
40
0.275129714778415
40
0.284083888711636
40
0.293158078109447
40
0.302352252457806
40
0.311666376869739
40
0.321100411846555
40
0.330654313674034
40
0.34032803494459
40
0.350121525217694
40
0.360034731831519
40
0.370067600879457
40
0.380220078365852
40
0.390492111556005
40
0.400883650536242
40
0.411394650000567
40
0.422025071281216
40
0.432774884642383
40
0.443644091749077
40
0.454632770710113
40
0.465741012332795
40
0.476968904204628
40
0.488316531274598
40
0.499783976623953
40
0.525301146693785
40
0.550193397055701
40
0.574461415838108
40
0.598105800384287
40
0.62112673104675
40
0.643524025960562
40
0.665297467097555
40
0.686446865077403
40
0.706972095859256
40
0.726873119926929
40
0.74614994045804
40
0.764801912018745
40
0.782827931054875
40
0.800227047875008
40
0.816998494560137
40
0.833141686205348
40
0.848656214446529
40
0.863541835301247
40
0.877798453051024
40
0.891426112973155
40
0.904425390692628
40
0.916797321234467
40
0.928542748453931
40
0.939662315627807
40
0.950156497017979
40
0.960025625360281
40
0.96926991587221
40
0.977889487284954
40
0.985884380325638
40
0.993254574004633
40
1
40
1
40
1
40
1
41
1
10
20.4160124354536
20
6.73764024244986
30
0
41
1
10
20.4295105127672
20
6.74555715838039
30
0
41
1
10
20.4569472640962
20
6.76164940979029
30
0
41
1
10
20.498763086911
20
6.78589244943402
30
0
41
1
10
20.541900593612
20
6.81067856460206
30
0
41
1
10
20.5863597642806
20
6.83596350265159
30
0
41
1
10
20.6321406047532
20
6.86172856067304
30
0
41
1
10
20.6792431147767
20
6.8879467079598
30
0
41
1
10
20.7276672970407
20
6.91459206536854
30
0
41
1
10
20.7774131547544
20
6.94163722986687
30
0
41
1
10
20.8284806924354
20
6.9690540013406
30
0
41
1
10
20.8808699158026
20
6.99681315750467
30
0
41
1
10
20.9345808319244
20
7.02488449406965
30
0
41
1
10
20.9896134492988
20
7.0532367903196
30
0
41
1
10
21.0459677779568
20
7.08183779488567
30
0
41
1
10
21.103643829563
20
7.11065420530687
30
0
41
1
10
21.1626416175211
20
7.13965164872874
30
0
41
1
10
21.2229611570816
20
7.16879466169462
30
0
41
1
10
21.2846024654535
20
7.19804666960292
30
0
41
1
10
21.3475655619181
20
7.22736996564922
30
0
41
1
10
21.411850467949
20
7.25672568938865
30
0
41
1
10
21.4774572073235
20
7.28607380455216
30
0
41
1
10
21.5443858062839
20
7.31537307748212
30
0
41
1
10
21.6126362935199
20
7.34458105094828
30
0
41
1
10
21.6822087008599
20
7.37365403347516
30
0
41
1
10
21.7531030612471
20
7.40254702684894
30
0
41
1
10
21.8253194128744
20
7.43121388701044
30
0
41
1
10
21.8988577154343
20
7.45960656250628
30
0
41
1
10
21.973717978215
20
7.48767938174029
30
0
41
1
10
22.0499002247286
20
7.51538717659685
30
0
41
1
10
22.1274044395299
20
7.54268351459379
30
0
41
1
10
22.2062306087478
20
7.5695211599726
30
0
41
1
10
22.2863787150174
20
7.59585194286296
30
0
41
1
10
22.3678487388436
20
7.62162678880173
30
0
41
1
10
22.4506406581118
20
7.64679570402001
30
0
41
1
10
22.5347544481071
20
7.6713077727774
30
0
41
1
10
22.6201900813939
20
7.69511115127645
30
0
41
1
10
22.7069475277348
20
7.71815306240777
30
0
41
1
10
22.7950267539984
20
7.74037979015282
30
0
41
1
10
22.8844277240711
20
7.76173667398584
30
0
41
1
10
22.9751503987693
20
7.78216810310738
30
0
41
1
10
23.0671947357482
20
7.80161751083477
30
0
41
1
10
23.1605606894275
20
7.82002736799348
30
0
41
1
10
23.2552482108584
20
7.83733917969391
30
0
41
1
10
23.3512572478167
20
7.85349346878283
30
0
41
1
10
23.4485877442932
20
7.86842980968953
30
0
41
1
10
23.5472396570115
20
7.88208667189704
30
0
41
1
10
23.6472129623156
20
7.89440204585577
30
0
41
1
10
23.7485076672577
20
7.90531406784771
30
0
41
1
10
23.8511238127209
20
7.91475980573978
30
0
41
1
10
23.9550614451483
20
7.92267548036114
30
0
41
1
10
24.0603206160546
20
7.9289964000285
30
0
41
1
10
24.166901381887
20
7.93365697452398
30
0
41
1
10
24.2748038043197
20
7.93659070736643
30
0
41
1
10
24.3840279504333
20
7.93773019396309
30
0
41
1
10
24.4945738929431
20
7.93700711804394
30
0
41
1
10
24.6064417103775
20
7.9343522486875
30
0
41
1
10
24.71963148744
20
7.92969543641365
30
0
41
1
10
24.8341433147077
20
7.92296561214962
30
0
41
1
10
24.9499772908689
20
7.91409077515229
30
0
41
1
10
25.0671335153509
20
7.90299802257161
30
0
41
1
10
25.185612190563
20
7.88961341244081
30
0
41
1
10
25.3054137403818
20
7.87386239878643
30
0
41
1
10
25.426537152905
20
7.85568072037808
30
0
41
1
10
25.5489818453452
20
7.83500354381576
30
0
41
1
10
25.6727471200524
20
7.81176596002703
30
0
41
1
10
25.7978326919467
20
7.78590275421962
30
0
41
1
10
25.9754185233107
20
7.74578733639524
30
0
41
1
10
26.2027737961519
20
7.6874091865773
30
0
41
1
10
26.4771269136654
20
7.60552638798995
30
0
41
1
10
26.7445586715203
20
7.51494141885854
30
0
41
1
10
27.0050589365538
20
7.41656739397769
30
0
41
1
10
27.2586389572075
20
7.31132838253043
30
0
41
1
10
27.5053186257659
20
7.20013285540617
30
0
41
1
10
27.7451114715117
20
7.08383907242549
30
0
41
1
10
27.9780293750416
20
6.96326486426744
30
0
41
1
10
28.2040819241714
20
6.83918644430941
30
0
41
1
10
28.4232763290289
20
6.71234270108946
30
0
41
1
10
28.635615986581
20
6.58343060429848
30
0
41
1
10
28.8410932882458
20
6.45314350099417
30
0
41
1
10
29.0396947541031
20
6.32215429223268
30
0
41
1
10
29.2314077707933
20
6.1910899349769
30
0
41
1
10
29.416221692546
20
6.06053807921049
30
0
41
1
10
29.594127960477
20
5.93104749800227
30
0
41
1
10
29.7651198563487
20
5.80313043442047
30
0
41
1
10
29.9291923815973
20
5.67726417378782
30
0
41
1
10
30.0863420092763
20
5.55389341428776
30
0
41
1
10
30.2365684936919
20
5.43342859063429
30
0
41
1
10
30.3798744411547
20
5.31625449053175
30
0
41
1
10
30.5162644872146
20
5.20273380650636
30
0
41
1
10
30.6457451440029
20
5.09319714340958
30
0
41
1
10
30.7683217225617
20
4.98794930430984
30
0
41
1
10
30.8839984375545
20
4.8872700794808
30
0
41
1
10
30.9927785238048
20
4.79141648121225
30
0
41
1
10
31.0946643389419
20
4.70062170435912
30
0
41
1
10
31.1896576037852
20
4.61510421880863
30
0
41
1
10
31.2777591141303
20
4.53504260013801
30
0
41
1
10
31.3589701894758
20
4.46066429433478
30
0
41
1
10
31.4108103614136
20
4.41273818054273
30
0
41
1
10
31.4355832053596
20
4.38983574612698
30
0
0
SPLINE
5
170
100
AcDbEntity
8
1
62
256
6
ByLayer
370
18
48
1
60
0
100
AcDbSpline
70
4
71
3
72
9
73
5
40
0
40
0
40
0
40
0
40
0.719361102276258
40
1
40
1
40
1
40
1
41
1
10
19.5739374055593
20
6.19712795091112
30
0
41
1
10
19.7758546684746
20
6.33719288782871
30
0
41
1
10
20.056550571214
20
6.52175614192399
30
0
41
1
10
20.3372403245567
20
6.69127924330971
30
0
41
1
10
20.4160124354537
20
6.73764024244986
30
0
0
SPLINE
5
171
100
AcDbEntity
8
1
62
256
6
ByLayer
370
13
48
1
60
0
100
AcDbSpline
70
4
71
3
72
14
73
10
40
0
40
0
40
0
40
0
40
0.144644137452156
40
0.291692300244096
40
0.438740463036037
40
0.585788625827977
40
0.732836788619918
40
0.879884951411858
40
1
40
1
40
1
40
1
41
1
10
34.3134336933786
20
1.44672463525109
30
0
41
1
10
33.6302057955857
20
2.13919848172858
30
0
41
1
10
32.2523945644595
20
3.49468200289229
30
0
41
1
10
30.18
20
5.24968317256051
30
0
41
1
10
28.09625
20
6.5609857169296
30
0
41
1
10
26.0125
20
7.33097376519029
30
0
41
1
10
23.92875
20
7.46858718164699
30
0
41
1
10
21.9722188097121
20
7.01924240279075
30
0
41
1
10
20.7102709527572
20
6.39749789720071
30
0
41
1
10
20.1429064291359
20
6.06136981629243
30
0
0
SPLINE
5
172
100
AcDbEntity
8
1
62
256
6
ByLayer
370
18
48
1
60
0
100
AcDbSpline
70
4
71
3
72
94
73
90
40
0
40
0
40
0
40
0
40
0.0100852747502925
40
0.0202042467482107
40
0.03035687823018
40
0.040543130789188
40
0.0507629653954257
40
0.0610163424181222
40
0.071303221648543
40
0.0816235623241994
40
0.0919773231543331
40
0.10236446234664
40
0.112784937635326
40
0.123238706310484
40
0.133725725248824
40
0.144245950945818
40
0.154799339549276
40
0.165385846894326
40
0.176005428539977
40
0.186658039807133
40
0.197343635818176
40
0.208062171538158
40
0.218813601817628
40
0.229597881437084
40
0.240414965153134
40
0.251264807746416
40
0.26214736407125
40
0.273062589107108
40
0.284010445544365
40
0.294990941588935
40
0.306004102505831
40
0.317049953800161
40
0.328128521202775
40
0.339239830685233
40
0.350383908475619
40
0.361560781075187
40
0.372770475275883
40
0.384013018178758
40
0.395288437213239
40
0.406596760157374
40
0.417938015158998
40
0.429312230757846
40
0.440719435908664
40
0.452159660005324
40
0.463632932905936
40
0.475139284959035
40
0.486678747030815
40
0.498251350533417
40
0.509857127454414
40
0.521496110387283
40
0.533168332563176
40
0.544873827883723
40
0.55661263095514
40
0.56838477712347
40
0.580190302511101
40
0.592029244054533
40
0.603901639543419
40
0.615807527660893
40
0.627746948025292
40
0.639719941233114
40
0.651726548903465
40
0.663766813723814
40
0.675840779497194
40
0.687948491190866
40
0.700089994759027
40
0.712265320775246
40
0.724474472103327
40
0.736717447582751
40
0.748994244552238
40
0.761304858857942
40
0.773649284862976
40
0.786027515458565
40
0.798439542076614
40
0.810885354703908
40
0.823364941897844
40
0.83587829080386
40
0.848425387174445
40
0.861006215389911
40
0.873620758480863
40
0.886268998152444
40
0.898950914810394
40
0.911666487588927
40
0.924415694380543
40
0.937198511867683
40
0.950014915556406
40
0.962864879812035
40
0.975748377896856
40
0.988665382009893
40
1
40
1
40
1
40
1
41
1
10
32.4302758979955
20
-7.32772191849065
30
0
41
1
10
32.4435527553681
20
-7.33336834409221
30
0
41
1
10
32.4701508311804
20
-7.34468006131596
30
0
41
1
10
32.5101139125989
20
-7.3613890743365
30
0
41
1
10
32.5502096477118
20
-7.37794140279345
30
0
41
1
10
32.5904379238601
20
-7.39431350804244
30
0
41
1
10
32.6307986825722
20
-7.41050797210823
30
0
41
1
10
32.6712918488867
20
-7.42652031644113
30
0
41
1
10
32.7119173503697
20
-7.44234793689836
30
0
41
1
10
32.7526751119774
20
-7.45798769762246
30
0
41
1
10
32.7935650574239
20
-7.47343657879617
30
0
41
1
10
32.8345871087971
20
-7.48869150208196
30
0
41
1
10
32.8757411866462
20
-7.50374937748052
30
0
41
1
10
32.9170272099419
20
-7.51860709056987
30
0
41
1
10
32.9584450960714
20
-7.53326150579687
30
0
41
1
10
32.9999947608238
20
-7.5477094654461
30
0
41
1
10
33.0416761183776
20
-7.56194778977189
30
0
41
1
10
33.0834890812877
20
-7.57597327681714
30
0
41
1
10
33.1254335604736
20
-7.58978270231552
30
0
41
1
10
33.1675094652054
20
-7.6033728195714
30
0
41
1
10
33.2097167030919
20
-7.61674035934334
30
0
41
1
10
33.2520551800661
20
-7.62988202973347
30
0
41
1
10
33.2945248003775
20
-7.6427945160475
30
0
41
1
10
33.33712546656
20
-7.65547448076393
30
0
41
1
10
33.3798570794912
20
-7.6679185630926
30
0
41
1
10
33.4227195381062
20
-7.68012338007043
30
0
41
1
10
33.4657127404107
20
-7.69208552189258
30
0
41
1
10
33.5088365895388
20
-7.70380157154835
30
0
41
1
10
33.5520910678084
20
-7.71526805619729
30
0
41
1
10
33.5954761143585
20
-7.72648207612286
30
0
41
1
10
33.6389917332565
20
-7.73744082074299
30
0
41
1
10
33.6826379562212
20
-7.74814145325425
30
0
41
1
10
33.7264148144833
20
-7.75858113078735
30
0
41
1
10
33.7703223403519
20
-7.76875699735402
30
0
41
1
10
33.8143605667902
20
-7.778666185709
30
0
41
1
10
33.8585295275369
20
-7.78830581681493
30
0
41
1
10
33.9028292570815
20
-7.79767299995254
30
0
41
1
10
33.9472597906779
20
-7.80676483265697
30
0
41
1
10
33.9918211643483
20
-7.81557840070082
30
0
41
1
10
34.0365134148899
20
-7.82411077806461
30
0
41
1
10
34.0813365798801
20
-7.83235902691061
30
0
41
1
10
34.1262906976832
20
-7.84032019755557
30
0
41
1
10
34.1713758074556
20
-7.84799132844384
30
0
41
1
10
34.2165919491524
20
-7.85536944612011
30
0
41
1
10
34.261939163533
20
-7.86245156520249
30
0
41
1
10
34.3074174921669
20
-7.86923468835525
30
0
41
1
10
34.3530269774407
20
-7.87571580626155
30
0
41
1
10
34.3987676625628
20
-7.88189189759626
30
0
41
1
10
34.4446395915704
20
-7.88775992899858
30
0
41
1
10
34.4906428093352
20
-7.89331685504476
30
0
41
1
10
34.5367773615695
20
-7.89855961822065
30
0
41
1
10
34.5830432948323
20
-7.90348514889433
30
0
41
1
10
34.6294406565355
20
-7.90809036528853
30
0
41
1
10
34.67596949495
20
-7.91237217345321
30
0
41
1
10
34.7226298592116
20
-7.91632746723786
30
0
41
1
10
34.7694217993275
20
-7.91995312826435
30
0
41
1
10
34.8163453661824
20
-7.9232460258973
30
0
41
1
10
34.863400611545
20
-7.92620301722442
30
0
41
1
10
34.9105875880709
20
-7.928820946998
30
0
41
1
10
34.9579063493241
20
-7.93109664772311
30
0
41
1
10
35.0053569497235
20
-7.93302693919458
30
0
41
1
10
35.0529394447753
20
-7.93460863010091
30
0
41
1
10
35.1006538902301
20
-7.93583851188015
30
0
41
1
10
35.1485003449721
20
-7.93671338160942
30
0
41
1
10
35.1964788371726
20
-7.93722995584412
30
0
41
1
10
35.244589374097
20
-7.93738521716429
30
0
41
1
10
35.2928319976917
20
-7.93717680431686
30
0
41
1
10
35.3412066972413
20
-7.93660224970893
30
0
41
1
10
35.3897134624337
20
-7.93565911521392
30
0
41
1
10
35.4383522816805
20
-7.93434495585549
30
0
41
1
10
35.4871231434587
20
-7.93265732965887
30
0
41
1
10
35.5360260359483
20
-7.93059379507775
30
0
41
1
10
35.585060947128
20
-7.9281519117643
30
0
41
1
10
35.6342278647475
20
-7.92532924043982
30
0
41
1
10
35.6835267763334
20
-7.92212334300748
30
0
41
1
10
35.7329576691859
20
-7.91853178260041
30
0
41
1
10
35.7825205303775
20
-7.91455212364687
30
0
41
1
10
35.832215346752
20
-7.91018193193167
30
0
41
1
10
35.8820421049229
20
-7.90541877465816
30
0
41
1
10
35.932000791272
20
-7.90026022051063
30
0
41
1
10
35.9820913919483
20
-7.89470383971678
30
0
41
1
10
36.0323138928658
20
-7.8887472041101
30
0
41
1
10
36.0826682797033
20
-7.88238788719275
30
0
41
1
10
36.133154537902
20
-7.87562346419836
30
0
41
1
10
36.1837726526647
20
-7.86845151215505
30
0
41
1
10
36.2345226089541
20
-7.86086960994848
30
0
41
1
10
36.2854043914915
20
-7.85287533838545
30
0
41
1
10
36.334290787272
20
-7.84481692654839
30
0
41
1
10
36.366216504407
20
-7.83932286385843
30
0
41
1
10
36.3811377660752
20
-7.83670459608234
30
0
0
SPLINE
5
173
100
AcDbEntity
8
1
62
256
6
ByLayer
370
18
48
1
60
0
100
AcDbSpline
70
4
71
3
72
9
73
5
40
0
40
0
40
0
40
0
40
0.413787869102635
40
1
40
1
40
1
40
1
41
1
10
31.4355832055507
20
-6.8342192509179
30
0
41
1
10
31.5727143040191
20
-6.9114928026855
30
0
41
1
10
31.9041622776504
20
-7.08923844448887
30
0
41
1
10
32.2358206092932
20
-7.24464619601116
30
0
41
1
10
32.4302758979956
20
-7.32772191849068
30
0
0
SPLINE
5
174
100
AcDbEntity
8
1
62
256
6
ByLayer
370
18
48
1
60
0
100
AcDbSpline
70
4
71
3
72
104
73
100
40
0
40
0
40
0
40
0
40
0.0036743506330347
40
0.0074686373675706
40
0.0113828531634886
40
0.0154169907647184
40
0.0195710427467484
40
0.0238450015756233
40
0.0282388596798095
40
0.0327526095366268
40
0.0373862437749494
40
0.0421397552960824
40
0.0470131374148986
40
0.0520063840233898
40
0.0571194897790669
40
0.0623524503207538
40
0.0677052625145097
40
0.0731779247326513
40
0.0787704371690035
40
0.0844828021937472
40
0.0903150247514521
40
0.0962671128061275
40
0.102339077837295
40
0.108530935391467
40
0.114842705693523
40
0.121274414322858
40
0.127826092959394
40
0.134497779037321
40
0.141289503636946
40
0.148201291102131
40
0.155233164445382
40
0.162385145099393
40
0.169657252582852
40
0.177049504169336
40
0.18456191456308
40
0.192194495585762
40
0.199947255878846
40
0.207820200626309
40
0.215813331303039
40
0.223926645454573
40
0.232160136514219
40
0.240513793664101
40
0.248987601747054
40
0.257581541236831
40
0.266295588274465
40
0.275129714779269
40
0.284083888712473
40
0.293158078110265
40
0.302352252458605
40
0.311666376870516
40
0.321100411847309
40
0.330654313674762
40
0.340328034945291
40
0.350121525218367
40
0.360034731832162
40
0.370067600880069
40
0.38022007836643
40
0.390492111556549
40
0.400883650536748
40
0.411394650001035
40
0.422025071281645
40
0.432774884642768
40
0.44364409174942
40
0.454632770710413
40
0.465741012333047
40
0.476968904204833
40
0.488316531274753
40
0.499783976624058
40
0.525301146694474
40
0.550193397056935
40
0.574461415839846
40
0.598105800386495
40
0.621126731049387
40
0.643524025963588
40
0.665297467100932
40
0.68644686508109
40
0.706972095863217
40
0.726873119931121
40
0.746149940462428
40
0.764801912023287
40
0.78282793105953
40
0.800227047879739
40
0.816998494564902
40
0.833141686210105
40
0.848656214451238
40
0.863541835305873
40
0.877798453055526
40
0.891426112977491
40
0.904425390696761
40
0.916797321238361
40
0.928542748457545
40
0.939662315631105
40
0.950156497020922
40
0.960025625362831
40
0.969269915874328
40
0.9778894872866
40
0.985884380326776
40
0.993254574005222
40
1
40
1
40
1
40
1
41
1
10
20.4160124355136
20
3.83631939190502
30
0
41
1
10
20.4295105128274
20
3.82319674078357
30
0
41
1
10
20.4569472641573
20
3.79652309629077
30
0
41
1
10
20.4987630869731
20
3.75571006829779
30
0
41
1
10
20.541900593675
20
3.71348326902754
30
0
41
1
10
20.5863597643448
20
3.66982003493138
30
0
41
1
10
20.6321406048185
20
3.62471272974361
30
0
41
1
10
20.6792431148431
20
3.57814938970546
30
0
41
1
10
20.7276672971081
20
3.53011917802724
30
0
41
1
10
20.7774131548229
20
3.4806108853754
30
0
41
1
10
20.828480692505
20
3.42961337797641
30
0
41
1
10
20.8808699158732
20
3.37711550193552
30
0
41
1
10
20.934580831996
20
3.32310614021264
30
0
41
1
10
20.9896134493715
20
3.26757422779897
30
0
41
1
10
21.0459677780306
20
3.21050877932979
30
0
41
1
10
21.1036438296378
20
3.15189891402255
30
0
41
1
10
21.162641617597
20
3.0917338821458
30
0
41
1
10
21.2229611571585
20
3.03000309184981
30
0
41
1
10
21.2846024655314
20
2.96669613668504
30
0
41
1
10
21.3475655619971
20
2.90180282371028
30
0
41
1
10
21.4118504680291
20
2.83531320224768
30
0
41
1
10
21.4774572074045
20
2.7672175931541
30
0
41
1
10
21.5443858063661
20
2.69750661908725
30
0
41
1
10
21.612636293603
20
2.62617123392962
30
0
41
1
10
21.6822087009441
20
2.55320275843567
30
0
41
1
10
21.7531030613323
20
2.47859289495418
30
0
41
1
10
21.8253194129607
20
2.40233382999514
30
0
41
1
10
21.8988577155216
20
2.32441807083811
30
0
41
1
10
21.9737179783032
20
2.24484006983118
30
0
41
1
10
22.0499002248179
20
2.16359555272439
30
0
41
1
10
22.1274044396202
20
2.08068091295391
30
0
41
1
10
22.2062306088392
20
1.99609339553459
30
0
41
1
10
22.2863787151098
20
1.90983109749973
30
0
41
1
10
22.3678487389369
20
1.82189302626134
30
0
41
1
10
22.4506406582062
20
1.73227914312014
30
0
41
1
10
22.5347544482024
20
1.64099041184039
30
0
41
1
10
22.6201900814903
20
1.548028846817
30
0
41
1
10
22.7069475278322
20
1.45339756233756
30
0
41
1
10
22.7950267540968
20
1.35710082252666
30
0
41
1
10
22.8844277241705
20
1.25914409208735
30
0
41
1
10
22.9751503988697
20
1.15953408780274
30
0
41
1
10
23.0671947358497
20
1.058278830826
30
0
41
1
10
23.16056068953
20
0.955387699685048
30
0
41
1
10
23.2552482109618
20
0.850871484272204
30
0
41
1
10
23.3512572479211
20
0.744742439792532
30
0
41
1
10
23.4485877443985
20
0.637014344299132
30
0
41
1
10
23.5472396571179
20
0.527702529961999
30
0
41
1
10
23.647212962423
20
0.41682395898826
30
0
41
1
10
23.748507667366
20
0.304397295711993
30
0
41
1
10
23.8511238128302
20
0.190442910224164
30
0
41
1
10
23.9550614452586
20
0.0749829786502403
30
0
41
1
10
24.0603206161659
20
-0.0419584588870237
30
0
41
1
10
24.1669013819993
20
-0.160355436549622
30
0
41
1
10
24.2748038044329
20
-0.280180001688592
30
0
41
1
10
24.3840279505475
20
-0.40140215259791
30
0
41
1
10
24.4945738930582
20
-0.523989775586642
30
0
41
1
10
24.6064417104937
20
-0.647908581297912
30
0
41
1
10
24.7196314875571
20
-0.773122040075521
30
0
41
1
10
24.8341433148257
20
-0.899591317256693
30
0
41
1
10
24.949977290988
20
-1.02727520501867
30
0
41
1
10
25.0671335154709
20
-1.15613006358967
30
0
41
1
10
25.185612190684
20
-1.28610980339101
30
0
41
1
10
25.3054137405037
20
-1.41716618068469
30
0
41
1
10
25.4265371530278
20
-1.54925230858106
30
0
41
1
10
25.5489818454689
20
-1.68231925626282
30
0
41
1
10
25.6727471201771
20
-1.81631560770609
30
0
41
1
10
25.7978326920725
20
-1.95118788195921
30
0
41
1
10
25.9754185234403
20
-2.14182047204969
30
0
41
1
10
26.2027737962881
20
-2.38400704683357
30
0
41
1
10
26.4771269138109
20
-2.67276787563722
30
0
41
1
10
26.7445586716745
20
-2.95054504273227
30
0
41
1
10
27.0050589367162
20
-3.21726170537718
30
0
41
1
10
27.2586389573776
20
-3.47288747143045
30
0
41
1
10
27.5053186259432
20
-3.71743467069527
30
0
41
1
10
27.7451114716957
20
-3.95095705364025
30
0
41
1
10
27.9780293752319
20
-4.17354701312959
30
0
41
1
10
28.2040819243674
20
-4.38533178083719
30
0
41
1
10
28.42327632923
20
-4.58647183476893
30
0
41
1
10
28.6356159867869
20
-4.77714857186382
30
0
41
1
10
28.8410932884558
20
-4.9575909419826
30
0
41
1
10
29.0396947543167
20
-5.12806013130745
30
0
41
1
10
29.2314077710101
20
-5.28882669849335
30
0
41
1
10
29.4162216927654
20
-5.44017529581086
30
0
41
1
10
29.5941279606984
20
-5.58240100701789
30
0
41
1
10
29.7651198565717
20
-5.71580745427244
30
0
41
1
10
29.9291923818212
20
-5.84070426755866
30
0
41
1
10
30.086342009501
20
-5.95740583158775
30
0
41
1
10
30.2365684939164
20
-6.06622747976658
30
0
41
1
10
30.3798744413787
20
-6.16749547399388
30
0
41
1
10
30.5162644874377
20
-6.26154701163168
30
0
41
1
10
30.6457451442244
20
-6.34870809854448
30
0
41
1
10
30.7683217227811
20
-6.42929419534858
30
0
41
1
10
30.8839984377714
20
-6.50360816023763
30
0
41
1
10
30.9927785240187
20
-6.57194075441143
30
0
41
1
10
31.0946643391522
20
-6.6345663176229
30
0
41
1
10
31.1896576039914
20
-6.69175416221941
30
0
41
1
10
31.277759114332
20
-6.74372749760948
30
0
41
1
10
31.3589701896724
20
-6.7907975471332
30
0
41
1
10
31.4108103616067
20
-6.82017882868269
30
0
41
1
10
31.4355832055508
20
-6.8342192509179
30
0
0
SPLINE
5
175
100
AcDbEntity
8
1
62
256
6
ByLayer
370
18
48
1
60
0
100
AcDbSpline
70
4
71
3
72
9
73
5
40
0
40
0
40
0
40
0
40
0.868932885730831
40
1
40
1
40
1
40
1
41
1
10
18.6130450725717
20
5.45043323684769
30
0
41
1
10
19.1351949293806
20
5.02850990318098
30
0
41
1
10
19.7362317234714
20
4.49178216079767
30
0
41
1
10
20.3372403245966
20
3.91287979910092
30
0
41
1
10
20.4160124355136
20
3.83631939190497
30
0
0
SPLINE
5
176
100
AcDbEntity
8
1
62
256
6
ByLayer
370
18
48
1
60
0
100
AcDbSpline
70
4
71
3
72
26
73
22
40
0
40
0
40
0
40
0
40
0.125000000000003
40
0.125000000000003
40
0.250000000000007
40
0.250000000000007
40
0.37500000000001
40
0.37500000000001
40
0.500000000000014
40
0.500000000000014
40
0.562500000000014
40
0.562500000000014
40
0.593750000000012
40
0.593750000000012
40
0.62500000000001
40
0.62500000000001
40
0.750000000000007
40
0.750000000000007
40
0.875000000000003
40
0.875000000000003
40
1
40
1
40
1
40
1
41
1
10
13.51
20
7.89918007815149
30
0
41
1
10
13.7245676878538
20
7.87566605291477
30
0
41
1
10
13.9379967979655
20
7.84136958016867
30
0
41
1
10
14.3635343169682
20
7.7520940066052
30
0
41
1
10
14.575642552854
20
7.69711361357778
30
0
41
1
10
14.9994729402967
20
7.56712191710932
30
0
41
1
10
15.2111953751602
20
7.49210713870292
30
0
41
1
10
15.6351696707904
20
7.32251507782345
30
0
41
1
10
15.8474181674535
20
7.22795153383694
30
0
41
1
10
16.1668827764852
20
7.07153518309352
30
0
41
1
10
16.2735533899532
20
7.01696414256219
30
0
41
1
10
16.4339269009443
20
6.93143509836867
30
0
41
1
10
16.4874460622373
20
6.90231309710634
30
0
41
1
10
16.5946235284249
20
6.84283751524151
30
0
41
1
10
16.6482667563256
20
6.81249105131195
30
0
41
1
10
16.9159200025321
20
6.6582228400178
30
0
41
1
10
17.1289936120971
20
6.52626561518426
30
0
41
1
10
17.5539866713154
20
6.24607762101684
30
0
41
1
10
17.7658976536005
20
6.09785168801227
30
0
41
1
10
18.189432174924
20
5.78575670787376
30
0
41
1
10
18.4010597015247
20
5.62188287542656
30
0
41
1
10
18.6130450725716
20
5.4504332368478
30
0
0
SPLINE
5
177
100
AcDbEntity
8
1
62
256
6
ByLayer
370
13
48
1
60
0
100
AcDbSpline
70
4
71
3
72
11
73
7
40
0
40
0
40
0
40
0
40
0.0945200805062724
40
0.320890060379705
40
0.547260040253136
40
1
40
1
40
1
40
1
41
1
10
22.7150633267056
20
1.44524795416439
30
0
41
1
10
22.4250422178037
20
1.73937501167276
30
0
41
1
10
21.4404377755686
20
2.72545858489389
30
0
41
1
10
19.76125
20
4.29045762589058
30
0
41
1
10
16.9829166666667
20
6.41187674739393
30
0
41
1
10
14.8991666666667
20
7.24557141691255
30
0
41
1
10
13.51
20
7.36447291223431
30
0
0
SPLINE
5
178
100
AcDbEntity
8
1
62
256
6
ByLayer
370
18
48
1
60
0
100
AcDbSpline
70
4
71
3
72
8
73
4
40
0
40
0
40
0
40
0
40
1
40
1
40
1
40
1
41
1
10
46.1905297370513
20
-6.41816972805779
30
0
41
1
10
46.1333660401941
20
-6.52181620644598
30
0
41
1
10
46.0703606004489
20
-6.61592538311166
30
0
41
1
10
46.0017469194667
20
-6.70063887015172
30
0
0
SPLINE
5
179
100
AcDbEntity
8
1
62
256
6
ByLayer
370
13
48
1
60
0
100
AcDbSpline
70
4
71
3
72
12
73
8
40
0
40
0
40
0
40
0
40
0.327343561249669
40
0.521783801749835
40
0.716224042250001
40
0.910664282750167
40
1
40
1
40
1
40
1
41
1
10
46.1905297370513
20
-6.41816972805779
30
0
41
1
10
45.0211864913676
20
-5.89820221905543
30
0
41
1
10
43.1572599123505
20
-4.6480131153169
30
0
41
1
10
40.5987500000001
20
-2.34223644307502
30
0
41
1
10
38.515
20
-0.267087774283311
30
0
41
1
10
36.8067064894584
20
1.45274888844381
30
0
41
1
10
35.7929963122501
20
2.41844054108637
30
0
41
1
10
35.4738694683751
20
2.71435967675905
30
0
0
SPLINE
5
17A
100
AcDbEntity
8
1
62
256
6
ByLayer
370
18
48
1
60
0
100
AcDbSpline
70
4
71
3
72
81
73
77
40
0
40
0
40
0
40
0
40
0.0563110631557614
40
0.0563110631557614
40
0.112622126311523
40
0.112622126311523
40
0.140777657889404
40
0.140777657889404
40
0.154855423678344
40
0.154855423678344
40
0.168933189467284
40
0.168933189467284
40
0.197088721045165
40
0.197088721045165
40
0.225244252623046
40
0.225244252623046
40
0.253399784200927
40
0.253399784200927
40
0.281555315778807
40
0.281555315778807
40
0.309710847356688
40
0.309710847356688
40
0.337866378934569
40
0.337866378934569
40
0.344905261829039
40
0.344905261829039
40
0.351944144723509
40
0.366021910512448
40
0.366021910512448
40
0.394177442090327
40
0.394177442090327
40
0.422332973668205
40
0.422332973668205
40
0.450488505246084
40
0.450488505246084
40
0.506799568401842
40
0.506799568401842
40
0.520877334190782
40
0.527916217085251
40
0.527916217085251
40
0.53495509997972
40
0.53495509997972
40
0.563110631557599
40
0.563110631557599
40
0.591266163135478
40
0.591266163135478
40
0.619421694713358
40
0.619421694713358
40
0.647577226291237
40
0.647577226291237
40
0.675732757869116
40
0.675732757869116
40
0.703888289446995
40
0.703888289446995
40
0.717966055235934
40
0.717966055235934
40
0.732043821024874
40
0.732043821024874
40
0.788354884180633
40
0.788354884180633
40
0.844665947336393
40
0.844665947336393
40
0.872821478914273
40
0.872821478914273
40
0.900977010492153
40
0.900977010492153
40
0.908015893386623
40
0.908015893386623
40
0.915054776281094
40
0.929132542070035
40
0.929132542070035
40
0.957288073647918
40
0.957288073647918
40
0.9854436052258
40
0.9854436052258
40
1
40
1
40
1
40
1
41
1
10
46.0017469194666
20
-6.70063887015175
30
0
41
1
10
45.6634900374877
20
-6.54147584139875
30
0
41
1
10
45.326374793418
20
-6.36207481520702
30
0
41
1
10
44.6522595952109
20
-5.96208598037552
30
0
41
1
10
44.3152757238962
20
-5.74147712369165
30
0
41
1
10
43.8073633792911
20
-5.37811045741225
30
0
41
1
10
43.6376426129047
20
-5.2515655391573
30
0
41
1
10
43.3820016037557
20
-5.05338046636101
30
0
41
1
10
43.2964978097618
20
-4.98584567636448
30
0
41
1
10
43.1260983214867
20
-4.84900150507744
30
0
41
1
10
43.0410981732123
20
-4.77961439514701
30
0
41
1
10
42.7865367806112
20
-4.56879520971793
30
0
41
1
10
42.6174056496839
20
-4.42471593567905
30
0
41
1
10
42.2796258999308
20
-4.13053414931147
30
0
41
1
10
42.1109826983082
20
-3.98042702232647
30
0
41
1
10
41.7736951755468
20
-3.67497621588947
30
0
41
1
10
41.6050423690563
20
-3.51967463257483
30
0
41
1
10
41.2675166059426
20
-3.2038430551184
30
0
41
1
10
41.0986479135608
20
-3.04330057908348
30
0
41
1
10
40.7604112988988
20
-2.71685787368398
30
0
41
1
10
40.5910414712647
20
-2.55095947235969
30
0
41
1
10
40.2514090981975
20
-2.21375145707535
30
0
41
1
10
40.0811553779487
20
-2.04240210770794
30
0
41
1
10
39.8674583147205
20
-1.82496228283759
30
0
41
1
10
39.8246402248916
20
-1.78127857293509
30
0
41
1
10
39.7391100073594
20
-1.69380655861062
30
0
41
1
10
39.6109755929397
20
-1.56244422431226
30
0
41
1
10
39.4832785880832
20
-1.43066244288329
30
0
41
1
10
39.2283550941201
20
-1.16664775320058
30
0
41
1
10
39.0590314684501
20
-0.990038361011869
30
0
41
1
10
38.7210917174632
20
-0.636141641751237
30
0
41
1
10
38.5524782499623
20
-0.458851765342075
30
0
41
1
10
38.2154623355571
20
-0.10407048051141
30
0
41
1
10
38.0470542170185
20
0.0734154882215137
30
0
41
1
10
37.5413530091782
20
0.605414443203955
30
0
41
1
10
37.2035596390002
20
0.959446000418637
30
0
41
1
10
36.7782723926964
20
1.39906087035911
30
0
41
1
10
36.6504605812378
20
1.53072865326121
30
0
41
1
10
36.5222657392602
20
1.66202863765315
30
0
41
1
10
36.4367116314449
20
1.74947469738726
30
0
41
1
10
36.3938858465202
20
1.79315722534
30
0
41
1
10
36.1801267799964
20
2.01071794459065
30
0
41
1
10
36.0098252937649
20
2.18254134763046
30
0
41
1
10
35.6704177761764
20
2.52126952219686
30
0
41
1
10
35.5013120065435
20
2.6881740577679
30
0
41
1
10
35.1639653289318
20
3.0164389335813
30
0
41
1
10
34.9957470697271
20
3.17775827955771
30
0
41
1
10
34.6595120315007
20
3.49441331078961
30
0
41
1
10
34.4914817181518
20
3.64976287513383
30
0
41
1
10
34.1549267753147
20
3.95433831160915
30
0
41
1
10
33.9864048517738
20
4.10356664903955
30
0
41
1
10
33.6483679834713
20
4.39584458701455
30
0
41
1
10
33.4788477100892
20
4.53892050371303
30
0
41
1
10
33.2235378760013
20
4.74878679896153
30
0
41
1
10
33.1382635288783
20
4.8179434494775
30
0
41
1
10
32.96734550783
20
4.95456720061773
30
0
41
1
10
32.8820469894692
20
5.02175821572746
30
0
41
1
10
32.4562919185855
20
5.35195507733965
30
0
41
1
10
32.1180799622643
20
5.59778238481658
30
0
41
1
10
31.4442609992749
20
6.04709380605081
30
0
41
1
10
31.1085192738814
20
6.25066682114615
30
0
41
1
10
30.6031602846637
20
6.52428524960169
30
0
41
1
10
30.4344216956413
20
6.61019938425457
30
0
41
1
10
30.0958571158116
20
6.77139278737855
30
0
41
1
10
29.926029231121
20
6.84668921764435
30
0
41
1
10
29.7127996742943
20
6.93397864376973
30
0
41
1
10
29.6701325173606
20
6.95108330627497
30
0
41
1
10
29.5849303765786
20
6.98451395772685
30
0
41
1
10
29.4572469035309
20
7.03352415482331
30
0
41
1
10
29.3298923923756
20
7.07913657105769
30
0
41
1
10
29.0755429482249
20
7.16584493395055
30
0
41
1
10
28.9064558697354
20
7.21763229460109
30
0
41
1
10
28.568827818434
20
7.30915057882928
30
0
41
1
10
28.4002863044218
20
7.34888565264532
30
0
41
1
10
28.1447174963307
20
7.39989389473629
30
0
41
1
10
28.0576373972012
20
7.41564420473449
30
0
41
1
10
27.9705506813979
20
7.42973384098465
30
0
0
SPLINE
5
17B
100
AcDbEntity
8
1
62
256
6
ByLayer
370
18
48
1
60
0
100
AcDbSpline
70
4
71
3
72
8
73
4
40
0
40
0
40
0
40
0
40
1
40
1
40
1
40
1
41
1
10
44.5060114525084
20
7.51457256957008
30
0
41
1
10
44.5082830401855
20
7.51463961755348
30
0
41
1
10
44.5105511592468
20
7.51470104769518
30
0
41
1
10
44.5128159583348
20
7.51475691987815
30
0
0
SPLINE
5
17C
100
AcDbEntity
8
1
62
256
6
ByLayer
370
18
48
1
60
0
100
AcDbSpline
70
4
71
3
72
31
73
27
40
0
40
0
40
0
40
0
40
0.201541708093039
40
0.491223908147935
40
0.503933265646519
40
0.517634277318669
40
0.532326981380738
40
0.548011423801631
40
0.564687659588121
40
0.582355754254572
40
0.601015785502287
40
0.620667840152163
40
0.641311994874935
40
0.662948324480061
40
0.685576905866327
40
0.70919781696909
40
0.733811135530081
40
0.759416937692286
40
0.786015296426539
40
0.813606279801358
40
0.842189949113306
40
0.871766356900994
40
0.902335544872729
40
0.93389754178512
40
0.966452361318054
40
1
40
1
40
1
40
1
41
1
10
42.0195963995985
20
6.19288697980321
30
0
41
1
10
42.186656882279
20
6.3089845411709
30
0
41
1
10
42.5938632905261
20
6.5795881310423
30
0
41
1
10
43.0117301957041
20
6.82463411050975
30
0
41
1
10
43.273730023375
20
6.96479212424236
30
0
41
1
10
43.3077974715097
20
6.98286551055119
30
0
41
1
10
43.3443293778068
20
7.00207019740236
30
0
41
1
10
43.3833257561713
20
7.02236849764199
30
0
41
1
10
43.4247867127085
20
7.04371968988485
30
0
41
1
10
43.468712342337
20
7.06608029420869
30
0
41
1
10
43.5151027572118
20
7.08940393221198
30
0
41
1
10
43.5639580553218
20
7.11364127395669
30
0
41
1
10
43.6152783484021
20
7.13874085029585
30
0
41
1
10
43.6690637365743
20
7.1646484125562
30
0
41
1
10
43.7253143178526
20
7.19130688768692
30
0
41
1
10
43.7840301922821
20
7.21865635654964
30
0
41
1
10
43.8452114614665
20
7.2466340234219
30
0
41
1
10
43.9088582282526
20
7.2751741747895
30
0
41
1
10
43.9749705963953
20
7.30420818269795
30
0
41
1
10
44.0435486700717
20
7.33366432276776
30
0
41
1
10
44.1145925540108
20
7.36346831703892
30
0
41
1
10
44.1881023511471
20
7.39354101730348
30
0
41
1
10
44.2640781699744
20
7.42380731518071
30
0
41
1
10
44.3425200938257
20
7.45416101664202
30
0
41
1
10
44.4234282992074
20
7.48460213421401
30
0
41
1
10
44.4781887047628
20
7.50437051482029
30
0
41
1
10
44.5059801417117
20
7.51440315971456
30
0
0
SPLINE
5
17D
100
AcDbEntity
8
1
62
256
6
ByLayer
370
18
48
1
60
0
100
AcDbSpline
70
4
71
3
72
70
73
66
40
0
40
0
40
0
40
0
40
0.0079092710708985
40
0.0160767121513461
40
0.0245023080870499
40
0.0331860432588539
40
0.0421279016850329
40
0.0513278671482696
40
0.0607859233503694
40
0.0705020540982839
40
0.0804762435251924
40
0.0907084763507273
40
0.101198738184718
40
0.111947015879294
40
0.122953297934412
40
0.134217574962365
40
0.145739840217151
40
0.157520090195076
40
0.169558325313361
40
0.181854550673965
40
0.194408776920401
40
0.207221021195683
40
0.220291308210214
40
0.233619671428836
40
0.247206154386875
40
0.261050812145597
40
0.27515371289802
40
0.289514937223599
40
0.304134552024649
40
0.319012609702867
40
0.334149159794124
40
0.349544248433637
40
0.365197917636616
40
0.38111020458552
40
0.397281140932141
40
0.413710752123389
40
0.430399056760554
40
0.447346066002476
40
0.464551783023943
40
0.482016202541567
40
0.499739310420134
40
0.517721083373483
40
0.535961488774866
40
0.554460484592795
40
0.573218019469356
40
0.592234032959094
40
0.611508456096543
40
0.631041220077585
40
0.65083225921882
40
0.670881498423846
40
0.691188852669236
40
0.711754227857384
40
0.732577521940478
40
0.753658626342107
40
0.774997427704364
40
0.796593809989881
40
0.818447656969619
40
0.840558855128808
40
0.862927297025128
40
0.88555288513457
40
0.908435536222336
40
0.931575186280228
40
0.954971838892293
40
0.978625662192662
40
1
40
1
40
1
40
1
41
1
10
20.4160124355306
20
-6.73764024249533
30
0
41
1
10
20.4295105128439
20
-6.74555715842561
30
0
41
1
10
20.4569472641725
20
-6.76164940983489
30
0
41
1
10
20.4987630869864
20
-6.78589244947776
30
0
41
1
10
20.5419005936865
20
-6.81067856464495
30
0
41
1
10
20.5863597643545
20
-6.8359635026936
30
0
41
1
10
20.6321406048264
20
-6.8617285607142
30
0
41
1
10
20.6792431148492
20
-6.8879467080001
30
0
41
1
10
20.7276672971125
20
-6.91459206540802
30
0
41
1
10
20.7774131548256
20
-6.9416372299055
30
0
41
1
10
20.8284806925059
20
-6.96905400137842
30
0
41
1
10
20.8808699158725
20
-6.99681315754165
30
0
41
1
10
20.9345808319937
20
-7.02488449410583
30
0
41
1
10
20.9896134493675
20
-7.05323679035496
30
0
41
1
10
21.045967778025
20
-7.08183779492023
30
0
41
1
10
21.1036438296308
20
-7.11065420534064
30
0
41
1
10
21.1626416175884
20
-7.13965164876171
30
0
41
1
10
21.2229611571484
20
-7.16879466172682
30
0
41
1
10
21.2846024655199
20
-7.19804666963432
30
0
41
1
10
21.347565561984
20
-7.22736996567986
30
0
41
1
10
21.4118504680146
20
-7.25672568941849
30
0
41
1
10
21.4774572073887
20
-7.28607380458124
30
0
41
1
10
21.5443858063489
20
-7.3153730775104
30
0
41
1
10
21.6126362935845
20
-7.34458105097579
30
0
41
1
10
21.6822087009242
20
-7.37365403350188
30
0
41
1
10
21.7531030613111
20
-7.40254702687488
30
0
41
1
10
21.8253194129382
20
-7.4312138870356
30
0
41
1
10
21.8988577154979
20
-7.45960656253064
30
0
41
1
10
21.9737179782783
20
-7.48767938176391
30
0
41
1
10
22.0499002247918
20
-7.51538717661964
30
0
41
1
10
22.1274044395929
20
-7.54268351461582
30
0
41
1
10
22.2062306088108
20
-7.56952115999386
30
0
41
1
10
22.2863787150803
20
-7.59585194288343
30
0
41
1
10
22.3678487389063
20
-7.6216267888214
30
0
41
1
10
22.4506406581745
20
-7.64679570403888
30
0
41
1
10
22.5347544481698
20
-7.67130777279547
30
0
41
1
10
22.6201900814565
20
-7.6951111512937
30
0
41
1
10
22.7069475277975
20
-7.71815306242419
30
0
41
1
10
22.7950267540612
20
-7.74037979016842
30
0
41
1
10
22.884427724134
20
-7.76173667400062
30
0
41
1
10
22.9751503988322
20
-7.78216810312131
30
0
41
1
10
23.0671947358113
20
-7.80161751084785
30
0
41
1
10
23.1605606894907
20
-7.8200273680057
30
0
41
1
10
23.2552482109217
20
-7.83733917970523
30
0
41
1
10
23.3512572478803
20
-7.85349346879326
30
0
41
1
10
23.4485877443569
20
-7.86842980969902
30
0
41
1
10
23.5472396570755
20
-7.8820866719056
30
0
41
1
10
23.6472129623799
20
-7.89440204586339
30
0
41
1
10
23.7485076673222
20
-7.90531406785436
30
0
41
1
10
23.8511238127857
20
-7.91475980574546
30
0
41
1
10
23.9550614452134
20
-7.9226754803658
30
0
41
1
10
24.0603206161201
20
-7.9289964000321
30
0
41
1
10
24.1669013819528
20
-7.93365697452651
30
0
41
1
10
24.274803804386
20
-7.93659070736788
30
0
41
1
10
24.3840279505
20
-7.93773019396343
30
0
41
1
10
24.4945738930102
20
-7.93700711804314
30
0
41
1
10
24.6064417104451
20
-7.93435224868551
30
0
41
1
10
24.7196314875081
20
-7.92969543641047
30
0
41
1
10
24.8341433147763
20
-7.92296561214519
30
0
41
1
10
24.9499772909381
20
-7.91409077514658
30
0
41
1
10
25.0671335154206
20
-7.90299802256459
30
0
41
1
10
25.1856121906333
20
-7.88961341243242
30
0
41
1
10
25.3054137404527
20
-7.87386239877665
30
0
41
1
10
25.422207038579
20
-7.85633070822479
30
0
41
1
10
25.4990669632545
20
-7.84342831334598
30
0
41
1
10
25.5355517126843
20
-7.83699720129775
30
0
0
SPLINE
5
17E
100
AcDbEntity
8
1
62
256
6
ByLayer
370
18
48
1
60
0
100
AcDbSpline
70
4
71
3
72
9
73
5
40
0
40
0
40
0
40
0
40
0.868932885722713
40
1
40
1
40
1
40
1
41
1
10
18.61304507257
20
-5.47738186079917
30
0
41
1
10
19.1351949293795
20
-5.89636454158452
30
0
41
1
10
19.7362317234766
20
-6.32829897488034
30
0
41
1
10
20.3372403246079
20
-6.69127924334089
30
0
41
1
10
20.4160124355307
20
-6.73764024249536
30
0
0
SPLINE
5
17F
100
AcDbEntity
8
1
62
256
6
ByLayer
370
18
48
1
60
0
100
AcDbSpline
70
4
71
3
72
26
73
22
40
0
40
0
40
0
40
0
40
0.125
40
0.125
40
0.249999999999998
40
0.249999999999998
40
0.374999999999997
40
0.374999999999997
40
0.499999999999995
40
0.499999999999995
40
0.562499999999994
40
0.562499999999994
40
0.593749999999994
40
0.593749999999994
40
0.624999999999993
40
0.624999999999993
40
0.749999999999996
40
0.749999999999996
40
0.874999999999998
40
0.874999999999998
40
1
40
1
40
1
40
1
41
1
10
13.51
20
-0.376909939596118
30
0
41
1
10
13.7245676878537
20
-0.615022125133464
30
0
41
1
10
13.9379967979654
20
-0.851269658902652
30
0
41
1
10
14.3635343169678
20
-1.31936520369965
30
0
41
1
10
14.5756425528536
20
-1.55121302609919
30
0
41
1
10
14.9994729402962
20
-2.00979666918297
30
0
41
1
10
15.2111953751597
20
-2.23653126918393
30
0
41
1
10
15.6351696707897
20
-2.68414404928802
30
0
41
1
10
15.8474181674527
20
-2.90502919420064
30
0
41
1
10
16.1668827764843
20
-3.23132998373225
30
0
41
1
10
16.2735533899524
20
-3.33925765324389
30
0
41
1
10
16.4339269009433
20
-3.4997941077373
30
0
41
1
10
16.4874460622364
20
-3.55308029575073
30
0
41
1
10
16.5946235284238
20
-3.65918312508393
30
0
41
1
10
16.6482667563246
20
-3.71198414560806
30
0
41
1
10
16.915920002531
20
-3.9738441143399
30
0
41
1
10
17.128993612096
20
-4.17718956882078
30
0
41
1
10
17.5539866713142
20
-4.57113784470238
30
0
41
1
10
17.7658976535992
20
-4.76175532115474
30
0
41
1
10
18.1894321749224
20
-5.12972729755339
30
0
41
1
10
18.4010597015231
20
-5.30707271294142
30
0
41
1
10
18.6130450725699
20
-5.47738186079917
30
0
0
SPLINE
5
180
100
AcDbEntity
8
1
62
256
6
ByLayer
370
13
48
1
60
0
100
AcDbSpline
70
4
71
3
72
9
73
5
40
0
40
0
40
0
40
0
40
0.930598090571117
40
1
40
1
40
1
40
1
41
1
10
45.3941842258663
20
7.21553813450191
30
0
41
1
10
44.4902894839109
20
7.01270342244953
30
0
41
1
10
43.5189843081172
20
6.61088026265196
30
0
41
1
10
42.5476791323236
20
6.03459802963374
30
0
41
1
10
42.4802686984854
20
5.99378482611627
30
0
0
SPLINE
5
181
100
AcDbEntity
8
1
62
256
6
ByLayer
370
18
48
1
60
0
100
AcDbSpline
70
4
71
3
72
14
73
10
40
0
40
0
40
0
40
0
40
0.25
40
0.25
40
0.5
40
0.5
40
0.75
40
0.75
40
1
40
1
40
1
40
1
41
1
10
44.7536299211054
20
7.50078658526979
30
0
41
1
10
44.8091324464399
20
7.49099304459634
30
0
41
1
10
44.8638162149487
20
7.47705392832472
30
0
41
1
10
44.9720774763998
20
7.44218422354854
30
0
41
1
10
45.0256454136061
20
7.4212200378135
30
0
41
1
10
45.1319970089723
20
7.37291761986228
30
0
41
1
10
45.1847798068291
20
7.34557749807479
30
0
41
1
10
45.2898336119468
20
7.28500430007844
30
0
41
1
10
45.3420976655611
20
7.25174435392915
30
0
41
1
10
45.3941842258664
20
7.21553813450194
30
0
0
SPLINE
5
182
100
AcDbEntity
8
1
62
256
6
ByLayer
370
18
48
1
60
0
100
AcDbSpline
70
4
71
3
72
10
73
6
40
0
40
0
40
0
40
0
40
0.5
40
0.5
40
1
40
1
40
1
40
1
41
1
10
44.5128159583348
20
7.51475691987815
30
0
41
1
10
44.5532311412111
20
7.51738175305678
30
0
41
1
10
44.5934509443303
20
7.51732748784212
30
0
41
1
10
44.6736804590111
20
7.51260025724915
30
0
41
1
10
44.713681193964
20
7.50783562460256
30
0
41
1
10
44.7536299211143
20
7.50078658526851
30
0
0
SPLINE
5
183
100
AcDbEntity
8
1
62
256
6
ByLayer
370
18
48
1
60
0
100
AcDbSpline
70
4
71
1
72
4
73
2
40
0
40
0
40
1
40
1
41
1
10
45.1666018210812
20
1.44573686453015
30
0
41
1
10
45.1666442630664
20
1.44569214395898
30
0
0
SPLINE
5
184
100
AcDbEntity
8
1
62
256
6
ByLayer
370
18
48
1
60
0
100
AcDbSpline
70
4
71
3
72
10
73
6
40
0
40
0
40
0
40
0
40
0.330762999304775
40
0.850623819324598
40
1
40
1
40
1
40
1
41
1
10
8.67984096342477
20
-7.27069735863114
30
0
41
1
10
8.75228490053178
20
-7.22158554697708
30
0
41
1
10
8.93986965121897
20
-7.09684138000998
30
0
41
1
10
9.16574909238224
20
-6.95510769564333
30
0
41
1
10
9.31767774456597
20
-6.86255157259899
30
0
41
1
10
9.35162668976724
20
-6.84202026734997
30
0
0
SPLINE
5
185
100
AcDbEntity
8
1
62
256
6
ByLayer
370
18
48
1
60
0
100
AcDbSpline
70
4
71
2
72
6
73
3
40
0
40
0
40
0
40
1
40
1
40
1
41
1
10
45.7646123630189
20
4.18867901196901
30
0
41
1
10
45.2119855748341
20
4.52822432699267
30
0
41
1
10
44.6646747438528
20
4.87023783961044
30
0
0
SPLINE
5
186
100
AcDbEntity
8
1
62
256
6
ByLayer
370
18
48
1
60
0
100
AcDbSpline
70
4
71
3
72
13
73
9
40
0
40
0
40
0
40
0
40
0.240021781970448
40
0.441543027662057
40
0.656560497873228
40
0.846538759009745
40
0.994305578928409
40
1
40
1
40
1
40
1
41
1
10
17.7983415524377
20
-6.63553961628585
30
0
41
1
10
17.9114277499315
20
-6.60229882368307
30
0
41
1
10
18.1357267927932
20
-6.53833474796781
30
0
41
1
10
18.5183213556945
20
-6.43023959027926
30
0
41
1
10
18.9017959239215
20
-6.3337635146531
30
0
41
1
10
19.2328103319181
20
-6.25231036029288
30
0
41
1
10
19.449596045949
20
-6.19955928539244
30
0
41
1
10
19.5434442587034
20
-6.17722277301925
30
0
41
1
10
19.546922691546
20
-6.17639558312175
30
0
0
SPLINE
5
187
100
AcDbEntity
8
1
62
256
6
ByLayer
370
18
48
1
60
0
100
AcDbSpline
70
4
71
3
72
19
73
15
40
0
40
0
40
0
40
0
40
0.111732235950652
40
0.207489360988568
40
0.289738331380137
40
0.363036568499873
40
0.485987258374911
40
0.583082097677677
40
0.634186694911609
40
0.690265057608466
40
0.751468242811295
40
0.828188707629582
40
0.933191597632279
40
1
40
1
40
1
40
1
41
1
10
12.1533890689972
20
5.58837150726126
30
0
41
1
10
12.0336656179616
20
5.61995454584232
30
0
41
1
10
11.8037703226938
20
5.68731510905656
30
0
41
1
10
11.466367153456
20
5.80052161192512
30
0
41
1
10
11.1538930749519
20
5.92106848739371
30
0
41
1
10
10.807599759445
20
6.06941894556908
30
0
41
1
10
10.4433029076248
20
6.23907802305865
30
0
41
1
10
10.1329063438988
20
6.39854644225625
30
0
41
1
10
9.9019170116342
20
6.52332817132876
30
0
41
1
10
9.71066959703046
20
6.63033303044415
30
0
41
1
10
9.49149012674303
20
6.75736819760999
30
0
41
1
10
9.21773101671647
20
6.92251149426582
30
0
41
1
10
8.939884549466
20
7.0968277957968
30
0
41
1
10
8.75228490049901
20
7.22158554697958
30
0
41
1
10
8.67984096337898
20
7.27069735864185
30
0
0
SPLINE
5
188
100
AcDbEntity
8
1
62
256
6
ByLayer
370
18
48
1
60
0
100
AcDbSpline
70
4
71
3
72
16
73
12
40
0
40
0
40
0
40
0
40
0.207279940849651
40
0.346605982912292
40
0.402730176422717
40
0.448742312372667
40
0.491779582287717
40
0.557094685007639
40
0.660339839787515
40
0.80796858673492
40
1
40
1
40
1
40
1
41
1
10
37.2290940879711
20
2.33516361032156
30
0
41
1
10
37.0296275796755
20
2.47264891394991
30
0
41
1
10
36.6964740734796
20
2.7039362807939
30
0
41
1
10
36.3096212531976
20
2.97612704598919
30
0
41
1
10
36.0783579237538
20
3.13960244427966
30
0
41
1
10
35.9393072789724
20
3.23809704502008
30
0
41
1
10
35.791256295825
20
3.34311839972224
30
0
41
1
10
35.5881098309608
20
3.48744147722792
30
0
41
1
10
35.2845250134043
20
3.70342994360956
30
0
41
1
10
34.8592373392028
20
4.00617426697187
30
0
41
1
10
34.5331291139442
20
4.23705071064063
30
0
41
1
10
34.3487648280966
20
4.3673108713792
30
0
0
SPLINE
5
189
100
AcDbEntity
8
1
62
256
6
ByLayer
370
18
48
1
60
0
100
AcDbSpline
70
4
71
3
72
19
73
15
40
0
40
0
40
0
40
0
40
0.154741226591519
40
0.278157103679406
40
0.371672232829278
40
0.448830633142128
40
0.528538172859956
40
0.608928203368693
40
0.679910043262703
40
0.741129127313397
40
0.817825788134589
40
0.893656765427893
40
0.988993752155039
40
1
40
1
40
1
40
1
41
1
10
23.4466411213629
20
5.53055737005576
30
0
41
1
10
23.263697726293
20
5.54594337589194
30
0
41
1
10
22.9277702106013
20
5.57870116950539
30
0
41
1
10
22.467102838118
20
5.63298092674773
30
0
41
1
10
22.0848879789567
20
5.68591285087172
30
0
41
1
10
21.7538121646533
20
5.7364629506479
30
0
41
1
10
21.4466664421751
20
5.78656653615582
30
0
41
1
10
21.1539332344369
20
5.8379424619194
30
0
41
1
10
20.8837642120114
20
5.88835555922344
30
0
41
1
10
20.6184417595549
20
5.94041221292116
30
0
41
1
10
20.3470302524638
20
5.99630137191235
30
0
41
1
10
20.0330631262857
20
6.0641654752211
30
0
41
1
10
19.7977019771769
20
6.11763962845245
30
0
41
1
10
19.6601145595206
20
6.14972431988303
30
0
41
1
10
19.6458739281295
20
6.15305406580339
30
0
0
SPLINE
5
18A
100
AcDbEntity
8
1
62
256
6
ByLayer
370
18
48
1
60
0
100
AcDbSpline
70
4
71
3
72
10
73
6
40
0
40
0
40
0
40
0
40
0.492246555746878
40
0.916461095330168
40
1
40
1
40
1
40
1
41
1
10
40.2519160584136
20
-6.63556060952425
30
0
41
1
10
40.3970872176714
20
-6.59337938335369
30
0
41
1
10
40.6801182201338
20
-6.51407606940592
30
0
41
1
10
41.0122477242578
20
-6.42101715989955
30
0
41
1
10
41.1897600848421
20
-6.37634097877242
30
0
41
1
10
41.2191771815999
20
-6.36900591182444
30
0
0
SPLINE
5
18B
100
AcDbEntity
8
1
62
256
6
ByLayer
370
18
48
1
60
0
100
AcDbSpline
70
4
71
3
72
10
73
6
40
0
40
0
40
0
40
0
40
0.530284778303946
40
0.902381311848222
40
1
40
1
40
1
40
1
41
1
10
29.4056595253869
20
-6.63354818498186
30
0
41
1
10
29.575099778101
20
-6.58506426417026
30
0
41
1
10
29.8625711086302
20
-6.50433421924646
30
0
41
1
10
30.1821366762672
20
-6.41692069777474
30
0
41
1
10
30.3302868818057
20
-6.37744839893952
30
0
41
1
10
30.3610337795166
20
-6.36929287695392
30
0
0
SPLINE
5
18C
100
AcDbEntity
8
1
62
256
6
ByLayer
370
18
48
1
60
0
100
AcDbSpline
70
4
71
3
72
14
73
10
40
0
40
0
40
0
40
0
40
0.168553867978796
40
0.313611791550946
40
0.419886770214532
40
0.489835283815744
40
0.605611892412045
40
0.775651394986988
40
1
40
1
40
1
40
1
41
1
10
38.8336041857282
20
7.42696286326085
30
0
41
1
10
38.695638426342
20
7.44842777193298
30
0
41
1
10
38.4389395260523
20
7.48886814442994
30
0
41
1
10
38.095253243168
20
7.54419988886104
30
0
41
1
10
37.8322786142709
20
7.587391898459
30
0
41
1
10
37.5932664645451
20
7.62721394431637
30
0
41
1
10
37.3020331411786
20
7.67643016999784
30
0
41
1
10
36.884456982825
20
7.74852177446726
30
0
41
1
10
36.5616663024453
20
7.80488322731412
30
0
41
1
10
36.3780560875445
20
7.83724471230036
30
0
0
SPLINE
5
18D
100
AcDbEntity
8
1
62
256
6
ByLayer
370
18
48
1
60
0
100
AcDbSpline
70
4
71
3
72
14
73
10
40
0
40
0
40
0
40
0
40
0.182079034882011
40
0.324746094910055
40
0.428038845698876
40
0.495160430400449
40
0.611266278154237
40
0.784564821100034
40
1
40
1
40
1
40
1
41
1
10
13.9176223651912
20
-7.84143207180344
30
0
41
1
10
14.0679112396736
20
-7.81532676943866
30
0
41
1
10
14.3359299086582
20
-7.76900382770049
30
0
41
1
10
14.689152688665
20
-7.70858258888174
30
0
41
1
10
14.9474476666071
20
-7.66459821874327
30
0
41
1
10
15.1838960207529
20
-7.62433613485615
30
0
41
1
10
15.478184458419
20
-7.57409398526676
30
0
41
1
10
15.8947261543974
20
-7.50248584826039
30
0
41
1
10
16.2155542029652
20
-7.44831403586181
30
0
41
1
10
16.3933576635349
20
-7.41845209907271
30
0
0
SPLINE
5
18E
100
AcDbEntity
8
1
62
256
6
ByLayer
370
18
48
1
60
0
100
AcDbSpline
70
4
71
3
72
14
73
10
40
0
40
0
40
0
40
0
40
0.19679446964316
40
0.343067412076447
40
0.457286650231403
40
0.543008551215063
40
0.647984384455972
40
0.805740404209114
40
1
40
1
40
1
40
1
41
1
10
25.5330590181438
20
-7.83743621984579
30
0
41
1
10
25.6928079522868
20
-7.80922692475619
30
0
41
1
10
25.971458856145
20
-7.7606810730353
30
0
41
1
10
26.3430224240438
20
-7.69745709310851
30
0
41
1
10
26.6248799693058
20
-7.65040720833707
30
0
41
1
10
26.87151329311
20
-7.60960222266715
30
0
41
1
10
27.1539711259098
20
-7.56302210001999
30
0
41
1
10
27.5263270772543
20
-7.50191999193504
30
0
41
1
10
27.8129358274248
20
-7.45529768805642
30
0
41
1
10
27.9712423469957
20
-7.4296613010452
30
0
0
SPLINE
5
18F
100
AcDbEntity
8
1
62
256
6
ByLayer
370
18
48
1
60
0
100
AcDbSpline
70
4
71
3
72
14
73
10
40
0
40
0
40
0
40
0
40
0.171346506165567
40
0.320458283082416
40
0.430437539920455
40
0.503690963271586
40
0.620182874217631
40
0.785612182188195
40
1
40
1
40
1
40
1
41
1
10
16.389019374364
20
7.41916962570699
30
0
41
1
10
16.2478404012953
20
7.44281094777418
30
0
41
1
10
15.9838106930474
20
7.48730183639114
30
0
41
1
10
15.6292504511707
20
7.54818493751543
30
0
41
1
10
15.3554208660574
20
7.59504964759651
30
0
41
1
10
15.1083725313117
20
7.63721341561725
30
0
41
1
10
14.8158068230095
20
7.68699376529634
30
0
41
1
10
14.4070843081244
20
7.75673868412954
30
0
41
1
10
14.0942231354947
20
7.81077003065852
30
0
41
1
10
13.9176223651912
20
7.84143207180333
30
0
0
SPLINE
5
190
100
AcDbEntity
8
1
62
256
6
ByLayer
370
18
48
1
60
0
100
AcDbSpline
70
4
71
3
72
14
73
10
40
0
40
0
40
0
40
0
40
0.183769803238792
40
0.328348440693869
40
0.433749915913861
40
0.503075794128544
40
0.617621808341275
40
0.783132478901946
40
1
40
1
40
1
40
1
41
1
10
36.3780560875444
20
-7.83724471230065
30
0
41
1
10
36.5308914794236
20
-7.81035396664422
30
0
41
1
10
36.8040216345824
20
-7.76261374062645
30
0
41
1
10
37.1648661896563
20
-7.7000056740288
30
0
41
1
10
37.4306850652943
20
-7.65466108619864
30
0
41
1
10
37.6714815216148
20
-7.61405436292907
30
0
41
1
10
37.9625557169681
20
-7.56572465071633
30
0
41
1
10
38.3751213518925
20
-7.4989128178986
30
0
41
1
10
38.6919629600544
20
-7.44888214893828
30
0
41
1
10
38.8713754525319
20
-7.42101365649035
30
0
0
SPLINE
5
191
100
AcDbEntity
8
1
62
256
6
ByLayer
370
18
48
1
60
0
100
AcDbSpline
70
4
71
3
72
13
73
9
40
0
40
0
40
0
40
0
40
0.252833695490426
40
0.427490338027921
40
0.542728474716819
40
0.656943935022381
40
0.803212039416561
40
1
40
1
40
1
40
1
41
1
10
27.9713551801889
20
7.4296524923474
30
0
41
1
10
27.7651912666269
20
7.46305161262524
30
0
41
1
10
27.4172713139541
20
7.51972284636574
30
0
41
1
10
26.97522006969
20
7.59245841819626
30
0
41
1
10
26.6489678806383
20
7.64639110811973
30
0
41
1
10
26.3430030883407
20
7.6974586253458
30
0
41
1
10
25.9714672106034
20
7.76068041099478
30
0
41
1
10
25.6928079522869
20
7.80922692475596
30
0
41
1
10
25.5330590181438
20
7.83743621984559
30
0
0
LINE
5
7F
100
AcDbEntity
8
81
62
256
6
ByLayer
370
18
48
1
60
0
100
AcDbLine
10
46.85
20
0
30
0
11
51.85
21
0
31
0
39
0
210
0
220
0
230
1
0
LINE
5
80
100
AcDbEntity
8
4
62
256
6
ByLayer
370
18
48
0.05
60
0
100
AcDbLine
10
0
20
0
30
0
11
46.85
21
0
31
0
39
0
210
0
220
0
230
1
0
LINE
5
82
100
AcDbEntity
8
80
62
256
6
ByLayer
370
18
48
1
60
0
100
AcDbLine
10
0
20
0
30
0
11
-5
21
0
31
0
39
0
210
0
220
0
230
1
0
LINE
5
83
100
AcDbEntity
8
SK4
62
256
6
ByLayer
370
18
48
0.05
60
0
100
AcDbLine
10
-48.4
20
0
30
0
11
46.85
21
0
31
0
39
0
210
0
220
0
230
1
0
LINE
5
85
100
AcDbEntity
8
1
62
256
6
ByLayer
370
18
48
1
60
0
100
AcDbLine
10
0
20
7.9375
30
0
11
0
21
0
31
0
39
0
210
0
220
0
230
1
0
LINE
5
86
100
AcDbEntity
8
1
62
256
6
ByLayer
370
18
48
1
60
0
100
AcDbLine
10
0
20
0
30
0
11
0
21
-7.9375
31
0
39
0
210
0
220
0
230
1
0
LINE
5
87
100
AcDbEntity
8
1
62
256
6
ByLayer
370
18
48
1
60
0
100
AcDbLine
10
46.659758
20
-1.275349
30
0
11
46.600358
21
-1.275175
31
0
39
0
210
0
220
0
230
1
0
LINE
5
88
100
AcDbEntity
8
1
62
256
6
ByLayer
370
18
48
1
60
0
100
AcDbLine
10
46.786567
20
-0.24238
30
0
11
46.706624
21
-0.277086
31
0
39
0
210
0
220
0
230
1
0
LINE
5
89
100
AcDbEntity
8
1
62
256
6
ByLayer
370
18
48
1
60
0
100
AcDbLine
10
46.786567
20
5.700635
30
0
11
46.715431
21
3.066257
31
0
39
0
210
0
220
0
230
1
0
LINE
5
8A
100
AcDbEntity
8
1
62
256
6
ByLayer
370
18
48
1
60
0
100
AcDbLine
10
46.339536
20
2.412405
30
0
11
46.715431
21
3.066257
31
0
39
0
210
0
220
0
230
1
0
LINE
5
8B
100
AcDbEntity
8
1
62
256
6
ByLayer
370
18
48
1
60
0
100
AcDbLine
10
46.600358
20
-1.275175
30
0
11
46.294899
21
-2.334829
31
0
39
0
210
0
220
0
230
1
0
LINE
5
8C
100
AcDbEntity
8
1
62
256
6
ByLayer
370
18
48
1
60
0
100
AcDbLine
10
46.706624
20
-0.277086
30
0
11
46.600358
21
-1.275175
31
0
39
0
210
0
220
0
230
1
0
LINE
5
8D
100
AcDbEntity
8
1
62
256
6
ByLayer
370
18
48
1
60
0
100
AcDbLine
10
45.901052
20
-0.477212
30
0
11
46.706624
21
-0.277086
31
0
39
0
210
0
220
0
230
1
0
LINE
5
8E
100
AcDbEntity
8
1
62
256
6
ByLayer
370
13
48
1
60
0
100
AcDbLine
10
13.285611
20
7.807949
30
0
11
13.285611
21
7.791323
31
0
39
0
210
0
220
0
230
1
0
LINE
5
8F
100
AcDbEntity
8
1
62
256
6
ByLayer
370
18
48
1
60
0
100
AcDbLine
10
46.786567
20
-5.700635
30
0
11
46.715431
21
-3.066257
31
0
39
0
210
0
220
0
230
1
0
LINE
5
90
100
AcDbEntity
8
1
62
256
6
ByLayer
370
13
48
1
60
0
100
AcDbLine
10
13.285611
20
-7.807949
30
0
11
13.285611
21
-7.80313
31
0
39
0
210
0
220
0
230
1
0
LINE
5
91
100
AcDbEntity
8
1
62
256
6
ByLayer
370
18
48
1
60
0
100
AcDbLine
10
46.659758
20
-5.652974
30
0
11
46.6135
21
-3.843803
31
0
39
0
210
0
220
0
230
1
0
LINE
5
92
100
AcDbEntity
8
1
62
256
6
ByLayer
370
13
48
1
60
0
100
AcDbLine
10
45.119727
20
-0.646345
30
0
11
43.378315
21
-0.244516
31
0
39
0
210
0
220
0
230
1
0
LINE
5
93
100
AcDbEntity
8
1
62
256
6
ByLayer
370
18
48
1
60
0
100
AcDbLine
10
46.6135
20
-3.843803
30
0
11
45.868831
21
-4.927061
31
0
39
0
210
0
220
0
230
1
0
LINE
5
94
100
AcDbEntity
8
1
62
256
6
ByLayer
370
18
48
1
60
0
100
AcDbLine
10
46.715431
20
-3.066257
30
0
11
46.6135
21
-3.843803
31
0
39
0
210
0
220
0
230
1
0
LINE
5
95
100
AcDbEntity
8
1
62
256
6
ByLayer
370
18
48
1
60
0
100
AcDbLine
10
45.843411
20
-1.54942
30
0
11
46.715431
21
-3.066257
31
0
39
0
210
0
220
0
230
1
0
LINE
5
96
100
AcDbEntity
8
1
62
256
6
ByLayer
370
13
48
1
60
0
100
AcDbLine
10
12.285611
20
-7.514331
30
0
11
12.285611
21
-6.96057
31
0
39
0
210
0
220
0
230
1
0
LINE
5
97
100
AcDbEntity
8
1
62
256
6
ByLayer
370
13
48
1
60
0
100
AcDbLine
10
13.51
20
-6.906623
30
0
11
13.51
21
-7.281481
31
0
39
0
210
0
220
0
230
1
0
LINE
5
98
100
AcDbEntity
8
1
62
256
6
ByLayer
370
13
48
1
60
0
100
AcDbLine
10
12.285611
20
1.014053
30
0
11
12.285611
21
3.258948
31
0
39
0
210
0
220
0
230
1
0
LINE
5
99
100
AcDbEntity
8
1
62
256
6
ByLayer
370
13
48
1
60
0
100
AcDbLine
10
7.155358
20
-7.54
30
0
11
7.155358
21
-7.201505
31
0
39
0
210
0
220
0
230
1
0
LINE
5
9A
100
AcDbEntity
8
1
62
256
6
ByLayer
370
13
48
1
60
0
100
AcDbLine
10
7.155358
20
2.387149
30
0
11
7.155358
21
-6.634256
31
0
39
0
210
0
220
0
230
1
0
LINE
5
9B
100
AcDbEntity
8
1
62
256
6
ByLayer
370
13
48
1
60
0
100
AcDbLine
10
7.155358
20
7.54
30
0
11
7.155358
21
3.926326
31
0
39
0
210
0
220
0
230
1
0
LINE
5
9C
100
AcDbEntity
8
1
62
256
6
ByLayer
370
13
48
1
60
0
100
AcDbLine
10
13.285611
20
0.682298
30
0
11
13.285611
21
-0.100807
31
0
39
0
210
0
220
0
230
1
0
LINE
5
9D
100
AcDbEntity
8
1
62
256
6
ByLayer
370
13
48
1
60
0
100
AcDbLine
10
6.155358
20
7.807949
30
0
11
6.155358
21
0
31
0
39
0
210
0
220
0
230
1
0
LINE
5
9E
100
AcDbEntity
8
1
62
256
6
ByLayer
370
13
48
1
60
0
100
AcDbLine
10
6.155358
20
0
30
0
11
6.155358
21
-7.807949
31
0
39
0
210
0
220
0
230
1
0
LINE
5
9F
100
AcDbEntity
8
1
62
256
6
ByLayer
370
18
48
1
60
0
100
AcDbLine
10
5.930969
20
7.9375
30
0
11
5.930969
21
0
31
0
39
0
210
0
220
0
230
1
0
LINE
5
A0
100
AcDbEntity
8
1
62
256
6
ByLayer
370
18
48
1
60
0
100
AcDbLine
10
5.930969
20
0
30
0
11
5.930969
21
-7.9375
31
0
39
0
210
0
220
0
230
1
0
LINE
5
A1
100
AcDbEntity
8
1
62
256
6
ByLayer
370
13
48
1
60
0
100
AcDbLine
10
13.51
20
2.2541
30
0
11
13.51
21
2.228208
31
0
39
0
210
0
220
0
230
1
0
LINE
5
A2
100
AcDbEntity
8
1
62
256
6
ByLayer
370
18
48
1
60
0
100
AcDbLine
10
13.51
20
7.897983
30
0
11
13.51
21
7.89918
31
0
39
0
210
0
220
0
230
1
0
LINE
5
A3
100
AcDbEntity
8
1
62
256
6
ByLayer
370
13
48
1
60
0
100
AcDbLine
10
13.51
20
7.897983
30
0
11
13.51
21
7.364473
31
0
39
0
210
0
220
0
230
1
0
LINE
5
A4
100
AcDbEntity
8
SK1
62
256
6
ByLayer
370
18
48
1
60
0
100
AcDbLine
10
-48.4
20
-7.1375
30
0
11
-48.4
21
7.1375
31
0
39
0
210
0
220
0
230
1
0
LINE
5
A6
100
AcDbEntity
8
SK1
62
256
6
ByLayer
370
18
48
1
60
0
100
AcDbLine
10
0
20
7.9375
30
0
11
0
21
0
31
0
39
0
210
0
220
0
230
1
0
LINE
5
A7
100
AcDbEntity
8
SK1
62
256
6
ByLayer
370
18
48
1
60
0
100
AcDbLine
10
0
20
0
30
0
11
0
21
-7.9375
31
0
39
0
210
0
220
0
230
1
0
LINE
5
A8
100
AcDbEntity
8
SK1
62
256
6
ByLayer
370
18
48
1
60
0
100
AcDbLine
10
-47.6
20
7.9375
30
0
11
-47.6
21
-7.9375
31
0
39
0
210
0
220
0
230
1
0
LINE
5
A9
100
AcDbEntity
8
SK1
62
256
6
ByLayer
370
18
48
1
60
0
100
AcDbLine
10
-29.28
20
6.2865
30
0
11
-30.931
21
7.9375
31
0
39
0
210
0
220
0
230
1
0
LINE
5
AA
100
AcDbEntity
8
SK1
62
256
6
ByLayer
370
18
48
1
60
0
100
AcDbLine
10
-19.12
20
6.2865
30
0
11
-17.469
21
7.9375
31
0
39
0
210
0
220
0
230
1
0
LINE
5
AB
100
AcDbEntity
8
SK1
62
256
6
ByLayer
370
18
48
1
60
0
100
AcDbLine
10
-29.28
20
6.2865
30
0
11
-19.12
21
6.2865
31
0
39
0
210
0
220
0
230
1
0
LINE
5
AC
100
AcDbEntity
8
1
62
256
6
ByLayer
370
18
48
1
60
0
100
AcDbLine
10
13.285611
20
-7.807949
30
0
11
13.337826
21
-7.838095
31
0
39
0
210
0
220
0
230
1
0
LINE
5
AD
100
AcDbEntity
8
1
62
256
6
ByLayer
370
18
48
1
60
0
100
AcDbLine
10
13.337826
20
7.838095
30
0
11
13.285611
21
7.807949
31
0
39
0
210
0
220
0
230
1
0
LINE
5
AE
100
AcDbEntity
8
1
62
256
6
ByLayer
370
18
48
1
60
0
100
AcDbLine
10
5.930969
20
7.9375
30
0
11
0
21
7.9375
31
0
39
0
210
0
220
0
230
1
0
LINE
5
AF
100
AcDbEntity
8
1
62
256
6
ByLayer
370
18
48
1
60
0
100
AcDbLine
10
0
20
-7.9375
30
0
11
5.930969
21
-7.9375
31
0
39
0
210
0
220
0
230
1
0
LINE
5
B0
100
AcDbEntity
8
1
62
256
6
ByLayer
370
18
48
1
60
0
100
AcDbLine
10
7.155358
20
-7.54
30
0
11
7.906194
21
-7.54
31
0
39
0
210
0
220
0
230
1
0
LINE
5
B1
100
AcDbEntity
8
1
62
256
6
ByLayer
370
18
48
1
60
0
100
AcDbLine
10
13.01932
20
2.720722
30
0
11
13.019346
21
2.720701
31
0
39
0
210
0
220
0
230
1
0
LINE
5
B2
100
AcDbEntity
8
1
62
256
6
ByLayer
370
18
48
1
60
0
100
AcDbLine
10
7.906194
20
7.54
30
0
11
7.155358
21
7.54
31
0
39
0
210
0
220
0
230
1
0
LINE
5
B3
100
AcDbEntity
8
1
62
256
6
ByLayer
370
18
48
1
60
0
100
AcDbLine
10
6.155358
20
7.807949
30
0
11
5.930969
21
7.9375
31
0
39
0
210
0
220
0
230
1
0
LINE
5
B4
100
AcDbEntity
8
1
62
256
6
ByLayer
370
18
48
1
60
0
100
AcDbLine
10
5.930969
20
-7.9375
30
0
11
6.155358
21
-7.807949
31
0
39
0
210
0
220
0
230
1
0
LINE
5
B5
100
AcDbEntity
8
1
62
256
6
ByLayer
370
18
48
1
60
0
100
AcDbLine
10
23.872601
20
2.714503
30
0
11
23.872325
21
2.714767
31
0
39
0
210
0
220
0
230
1
0
LINE
5
B6
100
AcDbEntity
8
SK1
62
256
6
ByLayer
370
18
48
1
60
0
100
AcDbLine
10
-48.4
20
-7.1375
30
0
11
-47.6
21
-7.9375
31
0
39
0
210
0
220
0
230
1
0
LINE
5
B7
100
AcDbEntity
8
SK1
62
256
6
ByLayer
370
18
48
1
60
0
100
AcDbLine
10
-47.6
20
7.9375
30
0
11
-48.4
21
7.1375
31
0
39
0
210
0
220
0
230
1
0
LINE
5
B8
100
AcDbEntity
8
SK1
62
256
6
ByLayer
370
18
48
1
60
0
100
AcDbLine
10
0
20
7.9375
30
0
11
-17.469
21
7.9375
31
0
39
0
210
0
220
0
230
1
0
LINE
5
B9
100
AcDbEntity
8
SK1
62
256
6
ByLayer
370
18
48
1
60
0
100
AcDbLine
10
-30.931
20
7.9375
30
0
11
-47.6
21
7.9375
31
0
39
0
210
0
220
0
230
1
0
LINE
5
BA
100
AcDbEntity
8
SK1
62
256
6
ByLayer
370
18
48
1
60
0
100
AcDbLine
10
-47.6
20
-7.9375
30
0
11
0
21
-7.9375
31
0
39
0
210
0
220
0
230
1
0
LINE
5
BB
100
AcDbEntity
8
SK2
62
256
6
ByLayer
370
13
48
1
60
0
100
AcDbLine
10
-76.65
20
-9.352499
30
0
11
-76.65
21
9.352499
31
0
39
0
210
0
220
0
230
1
0
LINE
5
BD
100
AcDbEntity
8
SK2
62
256
6
ByLayer
370
13
48
1
60
0
100
AcDbLine
10
-49.9875
20
-7.9375
30
0
11
-78.65
21
-7.9375
31
0
39
0
210
0
220
0
230
1
0
LINE
5
BE
100
AcDbEntity
8
SK2
62
256
6
ByLayer
370
13
48
1
60
0
100
AcDbLine
10
-49.9875
20
7.9375
30
0
11
-78.65
21
7.9375
31
0
39
0
210
0
220
0
230
1
0
LINE
5
BF
100
AcDbEntity
8
1
62
256
6
ByLayer
370
18
48
1
60
1
100
AcDbLine
10
-76.65
20
-7.9375
30
0
11
-77.110784
21
-4.437502
31
0
39
0
210
0
220
0
230
1
0
LINE
5
C0
100
AcDbEntity
8
1
62
256
6
ByLayer
370
18
48
1
60
1
100
AcDbLine
10
-77.110784
20
-4.437502
30
0
11
-76.189216
21
-4.437498
31
0
39
0
210
0
220
0
230
1
0
LINE
5
C1
100
AcDbEntity
8
1
62
256
6
ByLayer
370
18
48
1
60
1
100
AcDbLine
10
-76.189216
20
-4.437498
30
0
11
-76.65
21
-7.9375
31
0
39
0
210
0
220
0
230
1
0
LINE
5
C2
100
AcDbEntity
8
1
62
256
6
ByLayer
370
18
48
1
60
1
100
AcDbLine
10
-76.65
20
7.9375
30
0
11
-76.189216
21
4.437502
31
0
39
0
210
0
220
0
230
1
0
LINE
5
C3
100
AcDbEntity
8
1
62
256
6
ByLayer
370
18
48
1
60
1
100
AcDbLine
10
-76.189216
20
4.437502
30
0
11
-77.110784
21
4.437498
31
0
39
0
210
0
220
0
230
1
0
LINE
5
C4
100
AcDbEntity
8
1
62
256
6
ByLayer
370
18
48
1
60
1
100
AcDbLine
10
-77.110784
20
4.437498
30
0
11
-76.65
21
7.9375
31
0
39
0
210
0
220
0
230
1
0
LINE
5
C5
100
AcDbEntity
8
SK2
62
256
6
ByLayer
370
13
48
1
60
0
100
AcDbLine
10
5.26
20
-9.352499
30
0
11
5.26
21
9.352499
31
0
39
0
210
0
220
0
230
1
0
LINE
5
C6
100
AcDbEntity
8
SK2
62
256
6
ByLayer
370
13
48
1
60
0
100
AcDbLine
10
11.9225
20
-7.54
30
0
11
3.26
21
-7.54
31
0
39
0
210
0
220
0
230
1
0
LINE
5
C7
100
AcDbEntity
8
SK2
62
256
6
ByLayer
370
13
48
1
60
0
100
AcDbLine
10
11.9225
20
7.54
30
0
11
3.26
21
7.54
31
0
39
0
210
0
220
0
230
1
0
LINE
5
C8
100
AcDbEntity
8
1
62
256
6
ByLayer
370
18
48
1
60
1
100
AcDbLine
10
5.26
20
-7.54
30
0
11
4.799216
21
-4.040002
31
0
39
0
210
0
220
0
230
1
0
LINE
5
C9
100
AcDbEntity
8
1
62
256
6
ByLayer
370
18
48
1
60
1
100
AcDbLine
10
4.799216
20
-4.040002
30
0
11
5.720784
21
-4.039998
31
0
39
0
210
0
220
0
230
1
0
LINE
5
CA
100
AcDbEntity
8
1
62
256
6
ByLayer
370
18
48
1
60
1
100
AcDbLine
10
5.720784
20
-4.039998
30
0
11
5.26
21
-7.54
31
0
39
0
210
0
220
0
230
1
0
LINE
5
CB
100
AcDbEntity
8
1
62
256
6
ByLayer
370
18
48
1
60
1
100
AcDbLine
10
5.26
20
7.54
30
0
11
5.720784
21
4.040002
31
0
39
0
210
0
220
0
230
1
0
LINE
5
CC
100
AcDbEntity
8
1
62
256
6
ByLayer
370
18
48
1
60
1
100
AcDbLine
10
5.720784
20
4.040002
30
0
11
4.799216
21
4.039998
31
0
39
0
210
0
220
0
230
1
0
LINE
5
CD
100
AcDbEntity
8
1
62
256
6
ByLayer
370
18
48
1
60
1
100
AcDbLine
10
4.799216
20
4.039998
30
0
11
5.26
21
7.54
31
0
39
0
210
0
220
0
230
1
0
LINE
5
CE
100
AcDbEntity
8
2
62
256
6
ByLayer
370
13
48
1
60
0
100
AcDbLine
10
63.85
20
-9.352499
30
0
11
63.85
21
9.352499
31
0
39
0
210
0
220
0
230
1
0
LINE
5
D0
100
AcDbEntity
8
2
62
256
6
ByLayer
370
13
48
1
60
0
100
AcDbLine
10
48.4375
20
-7.9375
30
0
11
65.85
21
-7.9375
31
0
39
0
210
0
220
0
230
1
0
LINE
5
D1
100
AcDbEntity
8
2
62
256
6
ByLayer
370
13
48
1
60
0
100
AcDbLine
10
48.4375
20
7.9375
30
0
11
65.85
21
7.9375
31
0
39
0
210
0
220
0
230
1
0
LINE
5
D2
100
AcDbEntity
8
1
62
256
6
ByLayer
370
18
48
1
60
1
100
AcDbLine
10
63.85
20
-7.9375
30
0
11
63.389216
21
-4.437502
31
0
39
0
210
0
220
0
230
1
0
LINE
5
D3
100
AcDbEntity
8
1
62
256
6
ByLayer
370
18
48
1
60
1
100
AcDbLine
10
63.389216
20
-4.437502
30
0
11
64.310784
21
-4.437498
31
0
39
0
210
0
220
0
230
1
0
LINE
5
D4
100
AcDbEntity
8
1
62
256
6
ByLayer
370
18
48
1
60
1
100
AcDbLine
10
64.310784
20
-4.437498
30
0
11
63.85
21
-7.9375
31
0
39
0
210
0
220
0
230
1
0
LINE
5
D5
100
AcDbEntity
8
1
62
256
6
ByLayer
370
18
48
1
60
1
100
AcDbLine
10
63.85
20
7.9375
30
0
11
64.310784
21
4.437502
31
0
39
0
210
0
220
0
230
1
0
LINE
5
D6
100
AcDbEntity
8
1
62
256
6
ByLayer
370
18
48
1
60
1
100
AcDbLine
10
64.310784
20
4.437502
30
0
11
63.389216
21
4.437498
31
0
39
0
210
0
220
0
230
1
0
LINE
5
D7
100
AcDbEntity
8
1
62
256
6
ByLayer
370
18
48
1
60
1
100
AcDbLine
10
63.389216
20
4.437498
30
0
11
63.85
21
7.9375
31
0
39
0
210
0
220
0
230
1
0
LINE
5
196
100
AcDbEntity
8
1
62
256
6
ByLayer
370
18
48
1
60
1
100
AcDbLine
10
-76.65
20
-7.9375
30
0
11
-77.110784
21
-4.437502
31
0
39
0
210
0
220
0
230
1
0
LINE
5
197
100
AcDbEntity
8
1
62
256
6
ByLayer
370
18
48
1
60
1
100
AcDbLine
10
-77.110784
20
-4.437502
30
0
11
-76.189216
21
-4.437498
31
0
39
0
210
0
220
0
230
1
0
LINE
5
198
100
AcDbEntity
8
1
62
256
6
ByLayer
370
18
48
1
60
1
100
AcDbLine
10
-76.189216
20
-4.437498
30
0
11
-76.65
21
-7.9375
31
0
39
0
210
0
220
0
230
1
0
LINE
5
19A
100
AcDbEntity
8
1
62
256
6
ByLayer
370
18
48
1
60
1
100
AcDbLine
10
-76.65
20
7.9375
30
0
11
-76.189216
21
4.437502
31
0
39
0
210
0
220
0
230
1
0
LINE
5
19B
100
AcDbEntity
8
1
62
256
6
ByLayer
370
18
48
1
60
1
100
AcDbLine
10
-76.189216
20
4.437502
30
0
11
-77.110784
21
4.437498
31
0
39
0
210
0
220
0
230
1
0
LINE
5
19C
100
AcDbEntity
8
1
62
256
6
ByLayer
370
18
48
1
60
1
100
AcDbLine
10
-77.110784
20
4.437498
30
0
11
-76.65
21
7.9375
31
0
39
0
210
0
220
0
230
1
0
LINE
5
1A0
100
AcDbEntity
8
1
62
256
6
ByLayer
370
18
48
1
60
1
100
AcDbLine
10
5.26
20
-7.54
30
0
11
4.799216
21
-4.040002
31
0
39
0
210
0
220
0
230
1
0
LINE
5
1A1
100
AcDbEntity
8
1
62
256
6
ByLayer
370
18
48
1
60
1
100
AcDbLine
10
4.799216
20
-4.040002
30
0
11
5.720784
21
-4.039998
31
0
39
0
210
0
220
0
230
1
0
LINE
5
1A2
100
AcDbEntity
8
1
62
256
6
ByLayer
370
18
48
1
60
1
100
AcDbLine
10
5.720784
20
-4.039998
30
0
11
5.26
21
-7.54
31
0
39
0
210
0
220
0
230
1
0
LINE
5
1A4
100
AcDbEntity
8
1
62
256
6
ByLayer
370
18
48
1
60
1
100
AcDbLine
10
5.26
20
7.54
30
0
11
5.720784
21
4.040002
31
0
39
0
210
0
220
0
230
1
0
LINE
5
1A5
100
AcDbEntity
8
1
62
256
6
ByLayer
370
18
48
1
60
1
100
AcDbLine
10
5.720784
20
4.040002
30
0
11
4.799216
21
4.039998
31
0
39
0
210
0
220
0
230
1
0
LINE
5
1A6
100
AcDbEntity
8
1
62
256
6
ByLayer
370
18
48
1
60
1
100
AcDbLine
10
4.799216
20
4.039998
30
0
11
5.26
21
7.54
31
0
39
0
210
0
220
0
230
1
0
LINE
5
1AA
100
AcDbEntity
8
1
62
256
6
ByLayer
370
18
48
1
60
1
100
AcDbLine
10
63.85
20
-7.9375
30
0
11
63.389216
21
-4.437502
31
0
39
0
210
0
220
0
230
1
0
LINE
5
1AB
100
AcDbEntity
8
1
62
256
6
ByLayer
370
18
48
1
60
1
100
AcDbLine
10
63.389216
20
-4.437502
30
0
11
64.310784
21
-4.437498
31
0
39
0
210
0
220
0
230
1
0
LINE
5
1AC
100
AcDbEntity
8
1
62
256
6
ByLayer
370
18
48
1
60
1
100
AcDbLine
10
64.310784
20
-4.437498
30
0
11
63.85
21
-7.9375
31
0
39
0
210
0
220
0
230
1
0
LINE
5
1AE
100
AcDbEntity
8
1
62
256
6
ByLayer
370
18
48
1
60
1
100
AcDbLine
10
63.85
20
7.9375
30
0
11
64.310784
21
4.437502
31
0
39
0
210
0
220
0
230
1
0
LINE
5
1AF
100
AcDbEntity
8
1
62
256
6
ByLayer
370
18
48
1
60
1
100
AcDbLine
10
64.310784
20
4.437502
30
0
11
63.389216
21
4.437498
31
0
39
0
210
0
220
0
230
1
0
LINE
5
1B0
100
AcDbEntity
8
1
62
256
6
ByLayer
370
18
48
1
60
1
100
AcDbLine
10
63.389216
20
4.437498
30
0
11
63.85
21
7.9375
31
0
39
0
210
0
220
0
230
1
0
MTEXT
5
192
100
AcDbEntity
8
SK2
62
256
6
ByLayer
370
18
48
1
60
0
100
AcDbMText
10
-78.214634
20
-7.417655
30
0
210
0
220
0
230
1
1
%%c
40
3.5
41
0
44
1.084337
50
90
71
7
72
5
7
iso_b_vert
0
MTEXT
5
195
100
AcDbEntity
8
SK2
62
256
6
ByLayer
370
18
48
1
60
0
100
AcDbMText
10
-78.214634
20
-0.444999
30
0
210
0
220
0
230
1
1
\W0.6864;15.88
40
3.5
41
0
44
1.084337
50
90
71
7
72
5
7
iso_b_vert
0
MTEXT
5
19E
100
AcDbEntity
8
SK2
62
256
6
ByLayer
370
18
48
1
60
0
100
AcDbMText
10
3.695366
20
-7.417655
30
0
210
0
220
0
230
1
1
%%c
40
3.5
41
0
44
1.084337
50
90
71
7
72
5
7
iso_b_vert
0
MTEXT
5
19F
100
AcDbEntity
8
SK2
62
256
6
ByLayer
370
18
48
1
60
0
100
AcDbMText
10
3.695366
20
-0.444999
30
0
210
0
220
0
230
1
1
\W0.6864;15.08
40
3.5
41
0
44
1.084337
50
90
71
7
72
5
7
iso_b_vert
0
MTEXT
5
1A8
100
AcDbEntity
8
2
62
256
6
ByLayer
370
18
48
1
60
0
100
AcDbMText
10
62.285366
20
-7.417655
30
0
210
0
220
0
230
1
1
%%c
40
3.5
41
0
44
1.084337
50
90
71
7
72
5
7
iso_b_vert
0
MTEXT
5
1A9
100
AcDbEntity
8
2
62
256
6
ByLayer
370
18
48
1
60
0
100
AcDbMText
10
62.285366
20
-0.444999
30
0
210
0
220
0
230
1
1
\W0.6864;15.88
40
3.5
41
0
44
1.084337
50
90
71
7
72
5
7
iso_b_vert
0
MTEXT
5
1B2
100
AcDbEntity
8
SK6
62
256
6
ByLayer
370
18
48
1
60
0
100
AcDbMText
10
-26.613304
20
-62.114886
30
0
210
0
220
0
230
1
1
\W0.7448;2F440-1588-228ASD   1725
40
3
41
0
44
1.084337
50
0
71
7
72
5
7
iso_b_vert
0
HATCH
5
199
100
AcDbEntity
8
SK2
62
256
6
ByLayer
370
13
48
1
60
0
100
AcDbHatch
10
0
20
0
30
0
210
0
220
0
230
1
2
ANSI31
70
0
71
0
91
1
92
5
93
3
72
1
10
-76.65
20
-7.93749999999983
11
-77.1107837415528
21
-4.43750169255301
72
1
10
-77.1107837415528
20
-4.43750169255301
11
-76.1892162584472
21
-4.43749830744665
72
1
10
-76.1892162584472
20
-4.43749830744665
11
-76.65
21
-7.93749999999983
97
0
75
0
76
1
52
0
41
0.0062
77
0
78
1
53
45
43
0
44
0
45
-0.0139193969876572
46
0.0139193969876572
79
0
47
0
98
1
10
0
20
0
0
HATCH
5
19D
100
AcDbEntity
8
SK2
62
256
6
ByLayer
370
13
48
1
60
0
100
AcDbHatch
10
0
20
0
30
0
210
0
220
0
230
1
2
ANSI31
70
0
71
0
91
1
92
5
93
3
72
1
10
-76.65
20
7.93750000000017
11
-76.1892162584472
21
4.43750169255335
72
1
10
-76.1892162584472
20
4.43750169255335
11
-77.1107837415528
21
4.43749830744699
72
1
10
-77.1107837415528
20
4.43749830744699
11
-76.65
21
7.93750000000017
97
0
75
0
76
1
52
0
41
0.0062
77
0
78
1
53
45
43
0
44
0
45
-0.0139193969876572
46
0.0139193969876572
79
0
47
0
98
1
10
0
20
0
0
HATCH
5
1A3
100
AcDbEntity
8
SK2
62
256
6
ByLayer
370
13
48
1
60
0
100
AcDbHatch
10
0
20
0
30
0
210
0
220
0
230
1
2
ANSI31
70
0
71
0
91
1
92
5
93
3
72
1
10
5.26000000000002
20
-7.54000000000008
11
4.79921625844725
21
-4.04000169255326
72
1
10
4.79921625844725
20
-4.04000169255326
11
5.72078374155279
21
-4.03999830744689
72
1
10
5.72078374155279
20
-4.03999830744689
11
5.26000000000002
21
-7.54000000000008
97
0
75
0
76
1
52
0
41
0.0062
77
0
78
1
53
45
43
0
44
0
45
-0.0139193969876572
46
0.0139193969876572
79
0
47
0
98
1
10
0
20
0
0
HATCH
5
1A7
100
AcDbEntity
8
SK2
62
256
6
ByLayer
370
13
48
1
60
0
100
AcDbHatch
10
0
20
0
30
0
210
0
220
0
230
1
2
ANSI31
70
0
71
0
91
1
92
5
93
3
72
1
10
5.26000000000002
20
7.53999999999994
11
5.72078374155279
21
4.04000169255312
72
1
10
5.72078374155279
20
4.04000169255312
11
4.79921625844725
21
4.03999830744675
72
1
10
4.79921625844725
20
4.03999830744675
11
5.26000000000002
21
7.53999999999994
97
0
75
0
76
1
52
0
41
0.0062
77
0
78
1
53
45
43
0
44
0
45
-0.0139193969876572
46
0.0139193969876572
79
0
47
0
98
1
10
0
20
0
0
HATCH
5
1AD
100
AcDbEntity
8
2
62
256
6
ByLayer
370
13
48
1
60
0
100
AcDbHatch
10
0
20
0
30
0
210
0
220
0
230
1
2
ANSI31
70
0
71
0
91
1
92
5
93
3
72
1
10
63.85
20
-7.9375000000002
11
63.3892162584472
21
-4.43750169255338
72
1
10
63.3892162584472
20
-4.43750169255338
11
64.3107837415528
21
-4.43749830744702
72
1
10
64.3107837415528
20
-4.43749830744702
11
63.85
21
-7.9375000000002
97
0
75
0
76
1
52
0
41
0.0062
77
0
78
1
53
45
43
0
44
0
45
-0.0139193969876572
46
0.0139193969876572
79
0
47
0
98
1
10
0
20
0
0
HATCH
5
1B1
100
AcDbEntity
8
2
62
256
6
ByLayer
370
13
48
1
60
0
100
AcDbHatch
10
0
20
0
30
0
210
0
220
0
230
1
2
ANSI31
70
0
71
0
91
1
92
5
93
3
72
1
10
63.85
20
7.9374999999998
11
64.3107837415528
21
4.43750169255298
72
1
10
64.3107837415528
20
4.43750169255298
11
63.3892162584472
21
4.43749830744662
72
1
10
63.3892162584472
20
4.43749830744662
11
63.85
21
7.9374999999998
97
0
75
0
76
1
52
0
41
0.0062
77
0
78
1
53
45
43
0
44
0
45
-0.0139193969876572
46
0.0139193969876572
79
0
47
0
98
1
10
0
20
0
0
DIMENSION
5
1B5
100
AcDbEntity
8
SK2
62
256
6
ByLayer
370
18
48
1
60
0
100
AcDbDimension
2
_U0
10
13.51
20
-16.731615
30
0
11
30.18
21
-16.731615
31
0
70
32
71
1
72
1
41
1
210
0
220
0
230
1
3
Standard
100
AcDbAlignedDimension
13
46.85
23
-7.9375
33
0
14
13.51
24
-7.9375
34
0
50
0
100
AcDbRotatedDimension
1001
ACAD
1000
DSTYLE
1002
{
1070
   371
1070
    13
1070
   372
1070
    13
1070
   170
1070
     0
1070
   144
1040
1.0
1070
   277
1070
     2
1070
   284
1070
     8
1070
   278
1070
    46
1070
   146
1040
1.0
1070
   345
1005
16
1070
   347
1005
16
1070
   346
1005
16
1070
   344
1005
0
1070
   343
1005
0
1070
   172
1070
     1
1070
    76
1070
     0
1070
    75
1070
     0
1070
   282
1070
     0
1070
   281
1070
     0
1070
    71
1070
     0
1070
    74
1070
     0
1070
   279
1070
     0
1070
   173
1070
     1
1070
   340
1005
193
1070
   271
1070
     2
1070
   272
1070
     2
1070
    77
1070
     1
1070
    73
1070
     1
1070
   171
1070
     3
1070
   274
1070
     4
1070
   177
1070
     2
1070
   176
1070
     2
1070
   178
1070
     2
1070
    78
1070
     8
1070
    48
1040
-0.1
1070
    41
1040
3.5
1070
   147
1040
1.75
1070
    42
1040
1.5875
1070
    44
1040
2.0
1070
   140
1040
3.5
1002
}
1001
ACAD_DSTYLE_DIM_LINETYPE
1070
   380
1005
16
1001
ACAD_DSTYLE_DIM_EXT1_LINETYPE
1070
   381
1005
16
1001
ACAD_DSTYLE_DIM_EXT2_LINETYPE
1070
   382
1005
16
0
DIMENSION
5
1CE
100
AcDbEntity
8
SK2
62
256
6
ByLayer
370
18
48
1
60
0
100
AcDbDimension
2
_U1
10
7.16
20
-29.731615
30
0
11
27.005
21
-29.731615
31
0
70
32
71
1
72
1
41
1
210
0
220
0
230
1
3
Standard
100
AcDbAlignedDimension
13
46.85
23
-7.9375
33
0
14
7.16
24
-7.9375
34
0
50
0
100
AcDbRotatedDimension
1001
ACAD
1000
DSTYLE
1002
{
1070
   371
1070
    13
1070
   372
1070
    13
1070
   170
1070
     0
1070
   144
1040
1.0
1070
   277
1070
     2
1070
   284
1070
     8
1070
   278
1070
    46
1070
   146
1040
1.0
1070
   345
1005
16
1070
   347
1005
16
1070
   346
1005
16
1070
   344
1005
0
1070
   343
1005
0
1070
   172
1070
     1
1070
    76
1070
     0
1070
    75
1070
     0
1070
   282
1070
     0
1070
   281
1070
     0
1070
    71
1070
     0
1070
    74
1070
     0
1070
   279
1070
     0
1070
   173
1070
     1
1070
   340
1005
193
1070
   271
1070
     2
1070
   272
1070
     2
1070
    77
1070
     1
1070
    73
1070
     1
1070
   171
1070
     3
1070
   274
1070
     4
1070
   177
1070
     2
1070
   176
1070
     2
1070
   178
1070
     2
1070
    78
1070
     8
1070
    48
1040
-0.1
1070
    41
1040
3.5
1070
   147
1040
1.75
1070
    42
1040
1.5875
1070
    44
1040
2.0
1070
   140
1040
3.5
1002
}
1001
ACAD_DSTYLE_DIM_LINETYPE
1070
   380
1005
16
1001
ACAD_DSTYLE_DIM_EXT1_LINETYPE
1070
   381
1005
16
1001
ACAD_DSTYLE_DIM_EXT2_LINETYPE
1070
   382
1005
16
0
DIMENSION
5
1E6
100
AcDbEntity
8
SK2
62
256
6
ByLayer
370
18
48
1
60
0
100
AcDbDimension
2
_U2
10
30.975
20
18.231615
30
0
11
38.9125
21
18.231615
31
0
70
32
71
1
72
1
41
1
210
0
220
0
230
1
3
Standard
100
AcDbAlignedDimension
13
46.85
23
7.9375
33
0
14
30.975
24
7.9375
34
0
50
0
100
AcDbRotatedDimension
1001
ACAD
1000
DSTYLE
1002
{
1070
   371
1070
    13
1070
   372
1070
    13
1070
   170
1070
     0
1070
   144
1040
1.0
1070
   277
1070
     2
1070
   284
1070
     8
1070
   278
1070
    46
1070
   146
1040
1.0
1070
   345
1005
16
1070
   347
1005
16
1070
   346
1005
16
1070
   344
1005
0
1070
   343
1005
0
1070
   172
1070
     1
1070
    76
1070
     0
1070
    75
1070
     0
1070
   282
1070
     0
1070
   281
1070
     0
1070
    47
1040
1.588
1070
    72
1070
     0
1070
    71
1070
     1
1070
    74
1070
     0
1070
   279
1070
     0
1070
   173
1070
     1
1070
   340
1005
193
1070
   271
1070
     2
1070
   272
1070
     2
1070
    77
1070
     1
1070
    73
1070
     1
1070
   171
1070
     3
1070
   274
1070
     4
1070
   177
1070
     2
1070
   176
1070
     2
1070
   178
1070
     2
1070
    78
1070
     8
1070
    48
1040
1.588
1070
    41
1040
3.5
1070
   147
1040
1.75
1070
    42
1040
1.5875
1070
    44
1040
2.0
1070
   140
1040
3.5
1002
}
1001
ACAD_DSTYLE_DIM_LINETYPE
1070
   380
1005
16
1001
ACAD_DSTYLE_DIM_EXT1_LINETYPE
1070
   381
1005
16
1001
ACAD_DSTYLE_DIM_EXT2_LINETYPE
1070
   382
1005
16
0
DIMENSION
5
200
100
AcDbEntity
8
2
62
256
6
ByLayer
370
18
48
1
60
0
100
AcDbDimension
2
_U3
10
46.85
20
-41.731615
30
0
11
-0.775
21
-41.731615
31
0
70
32
71
1
72
1
41
1
210
0
220
0
230
1
3
Standard
100
AcDbAlignedDimension
13
-48.4
23
-7.9375
33
0
14
46.85
24
-7.9375
34
0
50
0
100
AcDbRotatedDimension
1001
ACAD
1000
DSTYLE
1002
{
1070
   371
1070
    13
1070
   372
1070
    13
1070
   170
1070
     0
1070
   144
1040
1.0
1070
   277
1070
     2
1070
   284
1070
     8
1070
   278
1070
    46
1070
   146
1040
1.0
1070
   345
1005
16
1070
   347
1005
16
1070
   346
1005
16
1070
   344
1005
0
1070
   343
1005
0
1070
   172
1070
     1
1070
    76
1070
     0
1070
    75
1070
     0
1070
   282
1070
     0
1070
   281
1070
     0
1070
    71
1070
     0
1070
    74
1070
     0
1070
   279
1070
     0
1070
   173
1070
     1
1070
   340
1005
193
1070
   271
1070
     2
1070
   272
1070
     2
1070
    77
1070
     1
1070
    73
1070
     1
1070
   171
1070
     3
1070
   274
1070
     4
1070
   177
1070
     2
1070
   176
1070
     2
1070
   178
1070
     2
1070
    78
1070
     8
1070
    48
1040
-0.1
1070
    41
1040
3.5
1070
   147
1040
1.75
1070
    42
1040
1.5875
1070
    44
1040
2.0
1070
   140
1040
3.5
1002
}
1001
ACAD_DSTYLE_DIM_LINETYPE
1070
   380
1005
16
1001
ACAD_DSTYLE_DIM_EXT1_LINETYPE
1070
   381
1005
16
1001
ACAD_DSTYLE_DIM_EXT2_LINETYPE
1070
   382
1005
16
0
ENDSEC
0
SECTION
2
OBJECTS
0
DICTIONARY
5
288
330
0
100
AcDbDictionary
280
0
281
1
3
ACAD_GROUP
350
289
3
ACAD_MLINESTYLE
350
28a
0
DICTIONARY
5
289
330
0
100
AcDbDictionary
280
0
281
1
0
DICTIONARY
5
28a
330
0
100
AcDbDictionary
280
0
281
1
3
Standard
350
18
0
MLINESTYLE
5
18
330
28a
100
AcDbMlineStyle
2
Standard
70
0
3

62
256
51
90
52
90
71
2
49
-0.5
62
256
6
ByLayer
49
0.5
62
256
6
ByLayer
0
RASTERVARIABLES
5
276
330

100
AcDbRasterVariables
90
0
70
1
71
1
72
1
0
ENDSEC
0
EOF
