0
SECTION
2
HEADER
9
$ACADVER
1
AC1015
9
$DWGCODEPAGE
3
ANSI_1252
9
$HANDSEED
5
280
9
$ANGBASE
50
0
9
$ANGDIR
70
0
9
$ATTMODE
70
1
9
$AUNITS
70
0
9
$AUPREC
70
0
9
$CECOLOR
62
256
9
$CELTSCALE
40
1
9
$CELTYPE
6
ByLayer
9
$CELWEIGHT
370
18
9
$CLAYER
8
0
9
$CMLJUST
70
0
9
$CMLSCALE
40
1
9
$CMLSTYLE
2
Standard
9
$DIMSTYLE
2
Standard
9
$TEXTSIZE
40
0.2
9
$TEXTSTYLE
7
Standard
9
$LUNITS
70
2
9
$LUPREC
70
4
9
$EXTNAMES
290
1
9
$INSUNITS
70
4
9
$LTSCALE
40
1
9
$LWDISPLAY
290
1
9
$PDMODE
70
0
9
$PDSIZE
40
0
9
$PLINEGEN
70
0
0
ENDSEC
0
SECTION
2
CLASSES
0
CLASS
1
RASTERVARIABLES
2
AcDbRasterVariables
3
ISM
90
0
280
0
281
0
0
ENDSEC
0
SECTION
2
TABLES
0
TABLE
2
VPORT
5
276
100
AcDbSymbolTable
0
VPORT
5
1
100
AcDbSymbolTableRecord
100
AcDbViewportTableRecord
2
*Active
70
0
10
0
20
0
11
1
21
1
12
-1
22
1
13
0
23
0
14
0.5
24
0.5
15
10
25
10
16
0
26
0
36
1
17
0
27
0
37
0
0
ENDTAB
0
TABLE
2
LTYPE
5
277
100
AcDbSymbolTable
0
LTYPE
5
14
100
AcDbSymbolTableRecord
100
AcDbLinetypeTableRecord
70
0
2
ByBlock
3

72
65
73
0
40
0
0
LTYPE
5
15
100
AcDbSymbolTableRecord
100
AcDbLinetypeTableRecord
70
0
2
ByLayer
3

72
65
73
0
40
0
0
LTYPE
5
16
100
AcDbSymbolTableRecord
100
AcDbLinetypeTableRecord
70
0
2
Continuous
3
Solid line
72
65
73
0
40
0
0
LTYPE
5
6E
100
AcDbSymbolTableRecord
100
AcDbLinetypeTableRecord
70
0
2
CENTER
3
____ _ ____ _ ____ _ ____
72
65
73
4
40
47.5
49
22
74
0
49
-8.5
74
0
49
8.5
74
0
49
-8.5
74
0
0
LTYPE
5
6F
100
AcDbSymbolTableRecord
100
AcDbLinetypeTableRecord
70
0
2
DASHED
3
__ __ __ __ __ __ __ __ __
72
65
73
2
40
25.72
49
12.86
74
0
49
-12.86
74
0
0
ENDTAB
0
TABLE
2
LAYER
5
278
100
AcDbSymbolTable
0
LAYER
5
10
100
AcDbSymbolTableRecord
100
AcDbLayerTableRecord
2
0
70
0
62
7
6
Continuous
290
1
370
-3
390
0
0
LAYER
5
71
100
AcDbSymbolTableRecord
100
AcDbLayerTableRecord
2
81
70
0
62
-3
6
Continuous
290
1
370
-3
390
0
0
LAYER
5
73
100
AcDbSymbolTableRecord
100
AcDbLayerTableRecord
2
80
70
0
62
-6
6
Continuous
290
1
370
-3
390
0
0
LAYER
5
77
100
AcDbSymbolTableRecord
100
AcDbLayerTableRecord
2
1
70
0
62
4
6
Continuous
290
1
370
-3
390
0
0
LAYER
5
84
100
AcDbSymbolTableRecord
100
AcDbLayerTableRecord
2
4
70
0
62
-2
6
CENTER
290
1
370
-3
390
0
0
LAYER
5
C3
100
AcDbSymbolTableRecord
100
AcDbLayerTableRecord
2
2
70
0
62
7
6
Continuous
290
1
370
-3
390
0
0
LAYER
5
1A3
100
AcDbSymbolTableRecord
100
AcDbLayerTableRecord
2
Defpoints
70
0
62
7
6
Continuous
290
0
370
-3
390
0
0
LAYER
5
262
100
AcDbSymbolTableRecord
100
AcDbLayerTableRecord
2
SK4
70
0
62
2
6
CENTER
290
1
370
-3
390
0
0
LAYER
5
263
100
AcDbSymbolTableRecord
100
AcDbLayerTableRecord
2
SK1
70
0
62
4
6
Continuous
290
1
370
-3
390
0
0
LAYER
5
264
100
AcDbSymbolTableRecord
100
AcDbLayerTableRecord
2
SK2
70
0
62
7
6
Continuous
290
1
370
-3
390
0
0
LAYER
5
265
100
AcDbSymbolTableRecord
100
AcDbLayerTableRecord
2
SK6
70
0
62
5
6
Continuous
290
1
370
-3
390
0
0
ENDTAB
0
TABLE
2
STYLE
5
279
100
AcDbSymbolTable
0
STYLE
5
11
100
AcDbSymbolTableRecord
100
AcDbTextStyleTableRecord
2
Standard
3
txt
70
0
71
0
40
0
41
1
42
0
50
0
0
STYLE
5
17E
100
AcDbSymbolTableRecord
100
AcDbTextStyleTableRecord
2
iso_b_vert
3
simplex.shx
70
0
71
0
40
0
41
1
42
0
50
0
0
STYLE
5
17F
100
AcDbSymbolTableRecord
100
AcDbTextStyleTableRecord
2
DWGDirectTextStyle
3
simplex
70
0
71
0
40
0
41
1
42
0
50
0
0
ENDTAB
0
TABLE
2
DIMSTYLE
5
27a
100
AcDbSymbolTable
100
AcDbDimStyleTable
0
DIMSTYLE
105
27
100
AcDbSymbolTableRecord
100
AcDbDimStyleTableRecord
2
Standard
70
0
3
<>
41
0.18
42
0.0625
44
0.18
140
0.18
147
0.09
73
0
74
0
77
1
271
2
275
0
278
52
280
0
340
11
0
ENDTAB
0
TABLE
2
VIEW
5
27b
100
AcDbSymbolTable
0
ENDTAB
0
TABLE
2
UCS
5
27c
100
AcDbSymbolTable
0
ENDTAB
0
TABLE
2
APPID
5
27d
100
AcDbSymbolTable
0
APPID
5
12
100
AcDbSymbolTableRecord
100
AcDbRegAppTableRecord
2
ACAD
70
0
0
APPID
5
19F
100
AcDbSymbolTableRecord
100
AcDbRegAppTableRecord
2
ACAD_DSTYLE_DIMBREAK
70
0
0
APPID
5
221
100
AcDbSymbolTableRecord
100
AcDbRegAppTableRecord
2
ACAD_DSTYLE_DIM_LINETYPE
70
0
0
APPID
5
222
100
AcDbSymbolTableRecord
100
AcDbRegAppTableRecord
2
ACAD_DSTYLE_DIM_EXT1_LINETYPE
70
0
0
APPID
5
223
100
AcDbSymbolTableRecord
100
AcDbRegAppTableRecord
2
ACAD_DSTYLE_DIM_EXT2_LINETYPE
70
0
0
APPID
5
25E
100
AcDbSymbolTableRecord
100
AcDbRegAppTableRecord
2
ACAD_MLEADERVER
70
0
0
ENDTAB
0
TABLE
2
BLOCK_RECORD
5
27e
100
AcDbSymbolTable
0
BLOCK_RECORD
5
1F
100
AcDbSymbolTableRecord
100
AcDbBlockTableRecord
2
*Model_Space
340
0
70
0
0
BLOCK_RECORD
5
1B
100
AcDbSymbolTableRecord
100
AcDbBlockTableRecord
2
*Paper_Space
340
0
70
0
0
BLOCK_RECORD
5
23
100
AcDbSymbolTableRecord
100
AcDbBlockTableRecord
2
*Paper_Space0
340
0
70
0
0
BLOCK_RECORD
5
1A4
100
AcDbSymbolTableRecord
100
AcDbBlockTableRecord
2
*D1
340
0
70
0
0
BLOCK_RECORD
5
1B0
100
AcDbSymbolTableRecord
100
AcDbBlockTableRecord
2
_U0
340
0
70
0
0
BLOCK_RECORD
5
1BC
100
AcDbSymbolTableRecord
100
AcDbBlockTableRecord
2
*D3
340
0
70
0
0
BLOCK_RECORD
5
1C8
100
AcDbSymbolTableRecord
100
AcDbBlockTableRecord
2
_U1
340
0
70
0
0
BLOCK_RECORD
5
1D4
100
AcDbSymbolTableRecord
100
AcDbBlockTableRecord
2
*D5
340
0
70
0
0
BLOCK_RECORD
5
1E1
100
AcDbSymbolTableRecord
100
AcDbBlockTableRecord
2
_U2
340
0
70
0
0
BLOCK_RECORD
5
1EE
100
AcDbSymbolTableRecord
100
AcDbBlockTableRecord
2
*D7
340
0
70
0
0
BLOCK_RECORD
5
1FA
100
AcDbSymbolTableRecord
100
AcDbBlockTableRecord
2
_U3
340
0
70
0
0
ENDTAB
0
ENDSEC
0
SECTION
2
BLOCKS
0
BLOCK
5
20
100
AcDbEntity
8
0
100
AcDbBlockBegin
2
*Model_Space
70
0
10
0
20
0
30
0
3
*Model_Space
0
ENDBLK
5
21
100
AcDbEntity
8
0
100
AcDbBlockEnd
0
BLOCK
5
1C
100
AcDbEntity
8
0
100
AcDbBlockBegin
2
*Paper_Space
70
0
10
0
20
0
30
0
3
*Paper_Space
0
ENDBLK
5
1D
100
AcDbEntity
8
0
100
AcDbBlockEnd
0
BLOCK
5
24
100
AcDbEntity
8
0
100
AcDbBlockBegin
2
*Paper_Space0
70
0
10
0
20
0
30
0
3
*Paper_Space0
0
ENDBLK
5
25
100
AcDbEntity
8
0
100
AcDbBlockEnd
0
BLOCK
5
1A5
100
AcDbEntity
8
0
100
AcDbBlockBegin
2
*D1
70
1
10
0
20
0
30
0
3
*D1
0
LINE
5
1A7
100
AcDbEntity
8
0
62
256
6
ByLayer
370
-2
48
1
60
0
100
AcDbLine
10
36.5
20
-6.35
30
0
11
36.5
21
-15.986973
31
0
39
0
210
0
220
0
230
1
0
LINE
5
1A8
100
AcDbEntity
8
0
62
256
6
ByLayer
370
-2
48
1
60
0
100
AcDbLine
10
16.66
20
-6.35
30
0
11
16.66
21
-15.986973
31
0
39
0
210
0
220
0
230
1
0
LINE
5
1A9
100
AcDbEntity
8
0
62
256
6
ByLayer
370
-2
48
1
60
0
100
AcDbLine
10
33
20
-13.986973
30
0
11
20.16
21
-13.986973
31
0
39
0
210
0
220
0
230
1
0
SOLID
5
1AA
100
AcDbEntity
8
0
62
256
6
ByLayer
370
-1
48
1
60
0
100
AcDbTrace
10
33
20
-14.570307
30
0
11
33
21
-13.40364
31
0
12
36.5
22
-13.986973
32
0
13
36.5
23
-13.986973
33
0
39
0
210
0
220
0
230
1
0
SOLID
5
1AB
100
AcDbEntity
8
0
62
256
6
ByLayer
370
-1
48
1
60
0
100
AcDbTrace
10
20.16
20
-13.40364
30
0
11
20.16
21
-14.570307
31
0
12
16.66
22
-13.986973
32
0
13
16.66
23
-13.986973
33
0
39
0
210
0
220
0
230
1
0
MTEXT
5
1AC
100
AcDbEntity
8
0
62
256
6
ByLayer
370
18
48
1
60
0
100
AcDbMText
10
26.58
20
-6.986973
30
0
210
0
220
0
230
1
1
\A1;19.84
40
3.5
41
0
44
1
50
0
71
5
72
5
7
iso_b_vert
0
POINT
5
1AD
100
AcDbEntity
8
Defpoints
62
0
6
ByLayer
370
-1
48
1
60
0
100
AcDbPoint
10
36.5
20
-4.7625
30
0
39
0
210
0
220
0
230
1
50
360
0
POINT
5
1AE
100
AcDbEntity
8
Defpoints
62
0
6
ByLayer
370
-1
48
1
60
0
100
AcDbPoint
10
16.66
20
-4.7625
30
0
39
0
210
0
220
0
230
1
50
360
0
POINT
5
1AF
100
AcDbEntity
8
Defpoints
62
0
6
ByLayer
370
-1
48
1
60
0
100
AcDbPoint
10
16.66
20
-13.986973
30
0
39
0
210
0
220
0
230
1
50
360
0
ENDBLK
5
1A6
100
AcDbEntity
8
0
100
AcDbBlockEnd
0
BLOCK
5
1B7
100
AcDbEntity
8
0
100
AcDbBlockBegin
2
_U0
70
0
10
0
20
0
30
0
3
_U0
0
MTEXT
5
1B1
100
AcDbEntity
8
SK2
62
256
6
ByLayer
370
18
48
1
60
0
100
AcDbMText
10
21.603734
20
-12.95434
30
0
210
0
220
0
230
1
1
\W0.7010;19.84
40
3.5
41
0
44
1.084337
50
0
71
7
72
5
7
iso_b_vert
0
LINE
5
1B2
100
AcDbEntity
8
SK2
62
256
6
ByLayer
370
13
48
1
60
0
100
AcDbLine
10
36.5
20
-6.35
30
0
11
36.5
21
-15.986973
31
0
39
0
210
0
220
0
230
1
0
LINE
5
1B3
100
AcDbEntity
8
SK2
62
256
6
ByLayer
370
13
48
1
60
0
100
AcDbLine
10
16.66
20
-6.35
30
0
11
16.66
21
-15.986973
31
0
39
0
210
0
220
0
230
1
0
LINE
5
1B4
100
AcDbEntity
8
SK2
62
256
6
ByLayer
370
13
48
1
60
0
100
AcDbLine
10
36.5
20
-13.986973
30
0
11
16.66
21
-13.986973
31
0
39
0
210
0
220
0
230
1
0
SOLID
5
1B5
100
AcDbEntity
8
SK2
62
256
6
ByLayer
370
18
48
1
60
0
100
AcDbTrace
10
36.5
20
-13.986973
30
0
11
33.000002
21
-14.447757
31
0
12
32.999998
22
-13.52619
32
0
13
32.999998
23
-13.52619
33
0
39
0
210
0
220
0
230
1
0
SOLID
5
1B6
100
AcDbEntity
8
SK2
62
256
6
ByLayer
370
18
48
1
60
0
100
AcDbTrace
10
16.66
20
-13.986973
30
0
11
20.159998
21
-13.52619
31
0
12
20.160002
22
-14.447757
32
0
13
20.160002
23
-14.447757
33
0
39
0
210
0
220
0
230
1
0
ENDBLK
5
1B8
100
AcDbEntity
8
0
100
AcDbBlockEnd
0
BLOCK
5
1BD
100
AcDbEntity
8
0
100
AcDbBlockBegin
2
*D3
70
1
10
0
20
0
30
0
3
*D3
0
LINE
5
1BF
100
AcDbEntity
8
0
62
256
6
ByLayer
370
-2
48
1
60
0
100
AcDbLine
10
36.5
20
-6.35
30
0
11
36.5
21
-28.986973
31
0
39
0
210
0
220
0
230
1
0
LINE
5
1C0
100
AcDbEntity
8
0
62
256
6
ByLayer
370
-2
48
1
60
0
100
AcDbLine
10
7.13
20
-6.35
30
0
11
7.13
21
-28.986973
31
0
39
0
210
0
220
0
230
1
0
LINE
5
1C1
100
AcDbEntity
8
0
62
256
6
ByLayer
370
-2
48
1
60
0
100
AcDbLine
10
33
20
-26.986973
30
0
11
10.63
21
-26.986973
31
0
39
0
210
0
220
0
230
1
0
SOLID
5
1C2
100
AcDbEntity
8
0
62
256
6
ByLayer
370
-1
48
1
60
0
100
AcDbTrace
10
33
20
-27.570307
30
0
11
33
21
-26.40364
31
0
12
36.5
22
-26.986973
32
0
13
36.5
23
-26.986973
33
0
39
0
210
0
220
0
230
1
0
SOLID
5
1C3
100
AcDbEntity
8
0
62
256
6
ByLayer
370
-1
48
1
60
0
100
AcDbTrace
10
10.63
20
-26.40364
30
0
11
10.63
21
-27.570307
31
0
12
7.13
22
-26.986973
32
0
13
7.13
23
-26.986973
33
0
39
0
210
0
220
0
230
1
0
MTEXT
5
1C4
100
AcDbEntity
8
0
62
256
6
ByLayer
370
18
48
1
60
0
100
AcDbMText
10
21.815
20
-19.986973
30
0
210
0
220
0
230
1
1
\A1;29.37
40
3.5
41
0
44
1
50
0
71
5
72
5
7
iso_b_vert
0
POINT
5
1C5
100
AcDbEntity
8
Defpoints
62
0
6
ByLayer
370
-1
48
1
60
0
100
AcDbPoint
10
36.5
20
-4.7625
30
0
39
0
210
0
220
0
230
1
50
360
0
POINT
5
1C6
100
AcDbEntity
8
Defpoints
62
0
6
ByLayer
370
-1
48
1
60
0
100
AcDbPoint
10
7.13
20
-4.7625
30
0
39
0
210
0
220
0
230
1
50
360
0
POINT
5
1C7
100
AcDbEntity
8
Defpoints
62
0
6
ByLayer
370
-1
48
1
60
0
100
AcDbPoint
10
7.13
20
-26.986973
30
0
39
0
210
0
220
0
230
1
50
360
0
ENDBLK
5
1BE
100
AcDbEntity
8
0
100
AcDbBlockEnd
0
BLOCK
5
1CF
100
AcDbEntity
8
0
100
AcDbBlockBegin
2
_U1
70
0
10
0
20
0
30
0
3
_U1
0
MTEXT
5
1C9
100
AcDbEntity
8
SK2
62
256
6
ByLayer
370
18
48
1
60
0
100
AcDbMText
10
16.585568
20
-25.95434
30
0
210
0
220
0
230
1
1
\W0.7468;29.37
40
3.5
41
0
44
1.084337
50
0
71
7
72
5
7
iso_b_vert
0
LINE
5
1CA
100
AcDbEntity
8
SK2
62
256
6
ByLayer
370
13
48
1
60
0
100
AcDbLine
10
36.5
20
-6.35
30
0
11
36.5
21
-28.986973
31
0
39
0
210
0
220
0
230
1
0
LINE
5
1CB
100
AcDbEntity
8
SK2
62
256
6
ByLayer
370
13
48
1
60
0
100
AcDbLine
10
7.13
20
-6.35
30
0
11
7.13
21
-28.986973
31
0
39
0
210
0
220
0
230
1
0
LINE
5
1CC
100
AcDbEntity
8
SK2
62
256
6
ByLayer
370
13
48
1
60
0
100
AcDbLine
10
36.5
20
-26.986973
30
0
11
7.13
21
-26.986973
31
0
39
0
210
0
220
0
230
1
0
SOLID
5
1CD
100
AcDbEntity
8
SK2
62
256
6
ByLayer
370
18
48
1
60
0
100
AcDbTrace
10
36.5
20
-26.986973
30
0
11
33.000002
21
-27.447757
31
0
12
32.999998
22
-26.52619
32
0
13
32.999998
23
-26.52619
33
0
39
0
210
0
220
0
230
1
0
SOLID
5
1CE
100
AcDbEntity
8
SK2
62
256
6
ByLayer
370
18
48
1
60
0
100
AcDbTrace
10
7.13
20
-26.986973
30
0
11
10.629998
21
-26.52619
31
0
12
10.630002
22
-27.447757
32
0
13
10.630002
23
-27.447757
33
0
39
0
210
0
220
0
230
1
0
ENDBLK
5
1D0
100
AcDbEntity
8
0
100
AcDbBlockEnd
0
BLOCK
5
1D5
100
AcDbEntity
8
0
100
AcDbBlockBegin
2
*D5
70
1
10
0
20
0
30
0
3
*D5
0
LINE
5
1D7
100
AcDbEntity
8
0
62
256
6
ByLayer
370
-2
48
1
60
0
100
AcDbLine
10
36.5
20
6.35
30
0
11
36.5
21
17.244545
31
0
39
0
210
0
220
0
230
1
0
LINE
5
1D8
100
AcDbEntity
8
0
62
256
6
ByLayer
370
-2
48
1
60
0
100
AcDbLine
10
26.975
20
6.35
30
0
11
26.975
21
17.244545
31
0
39
0
210
0
220
0
230
1
0
LINE
5
1D9
100
AcDbEntity
8
0
62
256
6
ByLayer
370
-2
48
1
60
0
100
AcDbLine
10
40
20
15.244545
30
0
11
43.5
21
15.244545
31
0
39
0
210
0
220
0
230
1
0
LINE
5
1DA
100
AcDbEntity
8
0
62
256
6
ByLayer
370
-2
48
1
60
0
100
AcDbLine
10
23.475
20
15.244545
30
0
11
19.975
21
15.244545
31
0
39
0
210
0
220
0
230
1
0
SOLID
5
1DB
100
AcDbEntity
8
0
62
256
6
ByLayer
370
-1
48
1
60
0
100
AcDbTrace
10
40
20
15.827879
30
0
11
40
21
14.661212
31
0
12
36.5
22
15.244545
32
0
13
36.5
23
15.244545
33
0
39
0
210
0
220
0
230
1
0
SOLID
5
1DC
100
AcDbEntity
8
0
62
256
6
ByLayer
370
-1
48
1
60
0
100
AcDbTrace
10
23.475
20
14.661212
30
0
11
23.475
21
15.827879
31
0
12
26.975
22
15.244545
32
0
13
26.975
23
15.244545
33
0
39
0
210
0
220
0
230
1
0
MTEXT
5
1DD
100
AcDbEntity
8
0
62
256
6
ByLayer
370
18
48
1
60
0
100
AcDbMText
10
31.7375
20
22.244545
30
0
210
0
220
0
230
1
1
\A1;9.53
40
3.5
41
0
44
1
50
0
71
5
72
5
7
iso_b_vert
0
POINT
5
1DE
100
AcDbEntity
8
Defpoints
62
0
6
ByLayer
370
-1
48
1
60
0
100
AcDbPoint
10
36.5
20
4.7625
30
0
39
0
210
0
220
0
230
1
50
360
0
POINT
5
1DF
100
AcDbEntity
8
Defpoints
62
0
6
ByLayer
370
-1
48
1
60
0
100
AcDbPoint
10
26.975
20
4.7625
30
0
39
0
210
0
220
0
230
1
50
360
0
POINT
5
1E0
100
AcDbEntity
8
Defpoints
62
0
6
ByLayer
370
-1
48
1
60
0
100
AcDbPoint
10
26.975
20
15.244545
30
0
39
0
210
0
220
0
230
1
50
360
0
ENDBLK
5
1D6
100
AcDbEntity
8
0
100
AcDbBlockEnd
0
BLOCK
5
1E9
100
AcDbEntity
8
0
100
AcDbBlockBegin
2
_U2
70
0
10
0
20
0
30
0
3
_U2
0
MTEXT
5
1E2
100
AcDbEntity
8
SK2
62
256
6
ByLayer
370
18
48
1
60
0
100
AcDbMText
10
19.683602
20
16.277179
30
0
210
0
220
0
230
1
1
\W0.7346;9.52
40
3.5
41
0
44
1.084337
50
0
71
7
72
5
7
iso_b_vert
0
MTEXT
5
1E3
100
AcDbEntity
8
SK2
62
256
6
ByLayer
370
18
48
1
60
0
100
AcDbMText
10
31.398
20
16.277179
30
0
210
0
220
0
230
1
1
\W0.8221;\W0.4110;%%p\W0.8221;0.95
40
3.5
41
0
44
1.084337
50
0
71
7
72
5
7
iso_b_vert
0
LINE
5
1E4
100
AcDbEntity
8
SK2
62
256
6
ByLayer
370
13
48
1
60
0
100
AcDbLine
10
36.5
20
6.35
30
0
11
36.5
21
17.244545
31
0
39
0
210
0
220
0
230
1
0
LINE
5
1E5
100
AcDbEntity
8
SK2
62
256
6
ByLayer
370
13
48
1
60
0
100
AcDbLine
10
26.975
20
6.35
30
0
11
26.975
21
17.244545
31
0
39
0
210
0
220
0
230
1
0
LINE
5
1E6
100
AcDbEntity
8
SK2
62
256
6
ByLayer
370
13
48
1
60
0
100
AcDbLine
10
19.498102
20
15.244545
30
0
11
43.976898
21
15.244545
31
0
39
0
210
0
220
0
230
1
0
SOLID
5
1E7
100
AcDbEntity
8
SK2
62
256
6
ByLayer
370
18
48
1
60
0
100
AcDbTrace
10
36.5
20
15.244545
30
0
11
33.000002
21
14.783762
31
0
12
32.999998
22
15.705329
32
0
13
32.999998
23
15.705329
33
0
39
0
210
0
220
0
230
1
0
SOLID
5
1E8
100
AcDbEntity
8
SK2
62
256
6
ByLayer
370
18
48
1
60
0
100
AcDbTrace
10
26.975
20
15.244545
30
0
11
30.474998
21
15.705329
31
0
12
30.475002
22
14.783762
32
0
13
30.475002
23
14.783762
33
0
39
0
210
0
220
0
230
1
0
ENDBLK
5
1EA
100
AcDbEntity
8
0
100
AcDbBlockEnd
0
BLOCK
5
1EF
100
AcDbEntity
8
0
100
AcDbBlockBegin
2
*D7
70
1
10
0
20
0
30
0
3
*D7
0
LINE
5
1F1
100
AcDbEntity
8
0
62
256
6
ByLayer
370
-2
48
1
60
0
100
AcDbLine
10
-39.7
20
-6.35
30
0
11
-39.7
21
-40.986973
31
0
39
0
210
0
220
0
230
1
0
LINE
5
1F2
100
AcDbEntity
8
0
62
256
6
ByLayer
370
-2
48
1
60
0
100
AcDbLine
10
36.5
20
-6.35
30
0
11
36.5
21
-40.986973
31
0
39
0
210
0
220
0
230
1
0
LINE
5
1F3
100
AcDbEntity
8
0
62
256
6
ByLayer
370
-2
48
1
60
0
100
AcDbLine
10
-36.2
20
-38.986973
30
0
11
33
21
-38.986973
31
0
39
0
210
0
220
0
230
1
0
SOLID
5
1F4
100
AcDbEntity
8
0
62
256
6
ByLayer
370
-1
48
1
60
0
100
AcDbTrace
10
-36.2
20
-38.40364
30
0
11
-36.2
21
-39.570307
31
0
12
-39.7
22
-38.986973
32
0
13
-39.7
23
-38.986973
33
0
39
0
210
0
220
0
230
1
0
SOLID
5
1F5
100
AcDbEntity
8
0
62
256
6
ByLayer
370
-1
48
1
60
0
100
AcDbTrace
10
33
20
-39.570307
30
0
11
33
21
-38.40364
31
0
12
36.5
22
-38.986973
32
0
13
36.5
23
-38.986973
33
0
39
0
210
0
220
0
230
1
0
MTEXT
5
1F6
100
AcDbEntity
8
0
62
256
6
ByLayer
370
18
48
1
60
0
100
AcDbMText
10
-1.6
20
-31.986973
30
0
210
0
220
0
230
1
1
\A1;76.2
40
3.5
41
0
44
1
50
0
71
5
72
5
7
iso_b_vert
0
POINT
5
1F7
100
AcDbEntity
8
Defpoints
62
0
6
ByLayer
370
-1
48
1
60
0
100
AcDbPoint
10
-39.7
20
-4.7625
30
0
39
0
210
0
220
0
230
1
50
360
0
POINT
5
1F8
100
AcDbEntity
8
Defpoints
62
0
6
ByLayer
370
-1
48
1
60
0
100
AcDbPoint
10
36.5
20
-4.7625
30
0
39
0
210
0
220
0
230
1
50
360
0
POINT
5
1F9
100
AcDbEntity
8
Defpoints
62
0
6
ByLayer
370
-1
48
1
60
0
100
AcDbPoint
10
36.5
20
-38.986973
30
0
39
0
210
0
220
0
230
1
50
360
0
ENDBLK
5
1F0
100
AcDbEntity
8
0
100
AcDbBlockEnd
0
BLOCK
5
201
100
AcDbEntity
8
0
100
AcDbBlockBegin
2
_U3
70
0
10
0
20
0
30
0
3
_U3
0
MTEXT
5
1FB
100
AcDbEntity
8
2
62
256
6
ByLayer
370
18
48
1
60
0
100
AcDbMText
10
-5.521699
20
-37.95434
30
0
210
0
220
0
230
1
1
\W0.7346;76.2
40
3.5
41
0
44
1.084337
50
0
71
7
72
5
7
iso_b_vert
0
LINE
5
1FC
100
AcDbEntity
8
2
62
256
6
ByLayer
370
13
48
1
60
0
100
AcDbLine
10
-39.7
20
-6.35
30
0
11
-39.7
21
-40.986973
31
0
39
0
210
0
220
0
230
1
0
LINE
5
1FD
100
AcDbEntity
8
2
62
256
6
ByLayer
370
13
48
1
60
0
100
AcDbLine
10
36.5
20
-6.35
30
0
11
36.5
21
-40.986973
31
0
39
0
210
0
220
0
230
1
0
LINE
5
1FE
100
AcDbEntity
8
2
62
256
6
ByLayer
370
13
48
1
60
0
100
AcDbLine
10
-39.7
20
-38.986973
30
0
11
36.5
21
-38.986973
31
0
39
0
210
0
220
0
230
1
0
SOLID
5
1FF
100
AcDbEntity
8
2
62
256
6
ByLayer
370
18
48
1
60
0
100
AcDbTrace
10
-39.7
20
-38.986973
30
0
11
-36.200002
21
-38.52619
31
0
12
-36.199998
22
-39.447757
32
0
13
-36.199998
23
-39.447757
33
0
39
0
210
0
220
0
230
1
0
SOLID
5
200
100
AcDbEntity
8
2
62
256
6
ByLayer
370
18
48
1
60
0
100
AcDbTrace
10
36.5
20
-38.986973
30
0
11
33.000002
21
-39.447757
31
0
12
32.999998
22
-38.52619
32
0
13
32.999998
23
-38.52619
33
0
39
0
210
0
220
0
230
1
0
ENDBLK
5
202
100
AcDbEntity
8
0
100
AcDbBlockEnd
0
ENDSEC
0
SECTION
2
ENTITIES
0
ARC
5
CC
100
AcDbEntity
8
1
62
256
6
ByLayer
370
18
48
1
60
0
100
AcDbCircle
39
0
10
15.705435
20
-6.52
30
0
40
2
210
0
220
0
230
1
100
AcDbArc
50
66.717718
51
78.674442
0
ARC
5
CD
100
AcDbEntity
8
1
62
256
6
ByLayer
370
18
48
1
60
0
100
AcDbCircle
39
0
10
7.124002
20
6.52
30
0
40
2
210
0
220
0
230
1
100
AcDbArc
50
241.491942
51
270
0
ARC
5
CE
100
AcDbEntity
8
1
62
256
6
ByLayer
370
18
48
1
60
0
100
AcDbCircle
39
0
10
7.124002
20
-6.52
30
0
40
2
210
0
220
0
230
1
100
AcDbArc
50
90
51
118.508058
0
ELLIPSE
5
CF
100
AcDbEntity
8
1
62
256
6
ByLayer
370
18
48
1
60
0
100
AcDbEllipse
10
36.031895
20
0.204289
30
0
11
0.14347728532817
21
0.533274203171188
31
0
210
0
220
0
230
1
40
0.506867
41
2.94655898506345
42
-2.86758379659917
0
ELLIPSE
5
D0
100
AcDbEntity
8
1
62
256
6
ByLayer
370
18
48
1
60
0
100
AcDbEllipse
10
35.599749
20
0
30
0
11
0.442763173527664
21
0.725132446842212
31
0
210
0
220
0
230
1
40
0.432574
41
-2.12414227102107
42
-1.73104789910344
0
ELLIPSE
5
D1
100
AcDbEntity
8
1
62
256
6
ByLayer
370
18
48
1
60
0
100
AcDbEllipse
10
36.020652
20
-0.637458
30
0
11
0.212637241948159
21
-0.603702946116311
31
0
210
0
220
0
230
1
40
0.354386
41
-1.63693450259764
42
-1.08929125386908
0
ELLIPSE
5
D2
100
AcDbEntity
8
1
62
256
6
ByLayer
370
18
48
1
60
0
100
AcDbEllipse
10
35.599749
20
0
30
0
11
0.472052930698618
21
-0.729754474009122
31
0
210
0
220
0
230
1
40
0.366664
41
-1.25552752144024
42
-0.690738592952187
0
POINT
5
70
100
AcDbEntity
8
81
62
256
6
ByLayer
370
18
48
1
60
0
100
AcDbPoint
10
36.5
20
0
30
0
39
0
210
0
220
0
230
1
50
360
0
POINT
5
72
100
AcDbEntity
8
80
62
256
6
ByLayer
370
18
48
1
60
0
100
AcDbPoint
10
0
20
0
30
0
39
0
210
0
220
0
230
1
50
360
0
POINT
5
74
100
AcDbEntity
8
81
62
256
6
ByLayer
370
18
48
1
60
0
100
AcDbPoint
10
-39.7
20
0
30
0
39
0
210
0
220
0
230
1
50
360
0
POINT
5
75
100
AcDbEntity
8
81
62
256
6
ByLayer
370
18
48
1
60
0
100
AcDbPoint
10
36.5
20
0
30
0
39
0
210
0
220
0
230
1
50
360
0
POINT
5
76
100
AcDbEntity
8
1
62
256
6
ByLayer
370
18
48
1
60
1
100
AcDbPoint
10
36.5
20
-4.7625
30
0
39
0
210
0
220
0
230
1
50
360
0
POINT
5
78
100
AcDbEntity
8
1
62
256
6
ByLayer
370
18
48
1
60
1
100
AcDbPoint
10
16.66
20
-4.7625
30
0
39
0
210
0
220
0
230
1
50
360
0
POINT
5
79
100
AcDbEntity
8
1
62
256
6
ByLayer
370
18
48
1
60
1
100
AcDbPoint
10
36.5
20
-4.7625
30
0
39
0
210
0
220
0
230
1
50
360
0
POINT
5
7A
100
AcDbEntity
8
1
62
256
6
ByLayer
370
18
48
1
60
1
100
AcDbPoint
10
7.13
20
-4.7625
30
0
39
0
210
0
220
0
230
1
50
360
0
POINT
5
7B
100
AcDbEntity
8
1
62
256
6
ByLayer
370
18
48
1
60
1
100
AcDbPoint
10
36.5
20
4.7625
30
0
39
0
210
0
220
0
230
1
50
360
0
POINT
5
7C
100
AcDbEntity
8
1
62
256
6
ByLayer
370
18
48
1
60
1
100
AcDbPoint
10
26.975
20
4.7625
30
0
39
0
210
0
220
0
230
1
50
360
0
POINT
5
7D
100
AcDbEntity
8
1
62
256
6
ByLayer
370
18
48
1
60
1
100
AcDbPoint
10
-39.7
20
-4.7625
30
0
39
0
210
0
220
0
230
1
50
360
0
POINT
5
7E
100
AcDbEntity
8
1
62
256
6
ByLayer
370
18
48
1
60
1
100
AcDbPoint
10
36.5
20
-4.7625
30
0
39
0
210
0
220
0
230
1
50
360
0
SPLINE
5
D3
100
AcDbEntity
8
1
62
256
6
ByLayer
370
18
48
1
60
0
100
AcDbSpline
70
4
71
3
72
16
73
12
40
0
40
0
40
0
40
0
40
0.254057136779777
40
0.254057136779777
40
0.508114273559555
40
0.508114273559555
40
0.762171410339332
40
0.762171410339332
40
0.889199978729214
40
0.889199978729214
40
1
40
1
40
1
40
1
41
1
10
36.3709931035934
20
-0.764938345051064
30
0
41
1
10
36.3583842932656
20
-0.811953668745673
30
0
41
1
10
36.3446103090282
20
-0.862457224456222
30
0
41
1
10
36.3155115678706
20
-0.968106951779816
30
0
41
1
10
36.3001762578236
20
-1.02328471674957
30
0
41
1
10
36.2683506786027
20
-1.13709789826385
30
0
41
1
10
36.2518566170488
20
-1.19574466822226
30
0
41
1
10
36.22643371111
20
-1.28575599833266
30
0
41
1
10
36.2178310711456
20
-1.31615126521484
30
0
41
1
10
36.2016139992152
20
-1.37334689596352
30
0
41
1
10
36.1940117686003
20
-1.40011753373344
30
0
41
1
10
36.1863672787688
20
-1.42699989322591
30
0
0
SPLINE
5
D4
100
AcDbEntity
8
1
62
256
6
ByLayer
370
18
48
1
60
0
100
AcDbSpline
70
4
71
3
72
8
73
4
40
0
40
0
40
0
40
0
40
1
40
1
40
1
40
1
41
1
10
36.4354110882335
20
-0.208121103795634
30
0
41
1
10
36.4368245305062
20
-0.21165674673486
30
0
41
1
10
36.4380737856187
20
-0.216512268792115
30
0
41
1
10
36.4391709840985
20
-0.222590154242368
30
0
0
SPLINE
5
D5
100
AcDbEntity
8
1
62
256
6
ByLayer
370
18
48
1
60
0
100
AcDbSpline
70
4
71
3
72
8
73
4
40
0
40
0
40
0
40
0
40
1
40
1
40
1
40
1
41
1
10
36.4391709840979
20
-0.222590154243221
30
0
41
1
10
36.4164457516774
20
-0.403379609714506
30
0
41
1
10
36.3937197708543
20
-0.584162191102706
30
0
41
1
10
36.3709931035934
20
-0.764938345051121
30
0
0
SPLINE
5
D6
100
AcDbEntity
8
1
62
256
6
ByLayer
370
18
48
1
60
0
100
AcDbSpline
70
4
71
3
72
8
73
4
40
0
40
0
40
0
40
0
40
1
40
1
40
1
40
1
41
1
10
36.435411088245
20
-0.208121103791456
30
0
41
1
10
36.4267182295379
20
-0.210269949377505
30
0
41
1
10
36.4181297189007
20
-0.21239416482527
30
0
41
1
10
36.4096604624038
20
-0.214490231719765
30
0
0
SPLINE
5
D7
100
AcDbEntity
8
1
62
256
6
ByLayer
370
18
48
1
60
0
100
AcDbSpline
70
4
71
3
72
32
73
28
40
0
40
0
40
0
40
0
40
0.0161389097101191
40
0.0161389097101191
40
0.0322778194202382
40
0.0322778194202382
40
0.0484167291303572
40
0.0484167291303572
40
0.0645556388404763
40
0.0645556388404763
40
0.0968334582607815
40
0.0968334582607815
40
0.129111277681087
40
0.129111277681087
40
0.161389097101392
40
0.161389097101392
40
0.193666916521697
40
0.193666916521697
40
0.258222555362246
40
0.258222555362246
40
0.387333833043404
40
0.387333833043404
40
0.516445110724561
40
0.516445110724561
40
0.77466766608682
40
0.77466766608682
40
1
40
1
40
1
40
1
41
1
10
36.4096604114057
20
-0.214490246931092
30
0
41
1
10
36.4078433160107
20
-0.214939962143859
30
0
41
1
10
36.4058723889662
20
-0.215425800446383
30
0
41
1
10
36.4015560260063
20
-0.216485434152361
30
0
41
1
10
36.3991860157729
20
-0.21706521446734
30
0
41
1
10
36.3941014781226
20
-0.218304642939387
30
0
41
1
10
36.3914222340358
20
-0.218955722149388
30
0
41
1
10
36.3857891479326
20
-0.220320758762028
30
0
41
1
10
36.3828017315906
20
-0.221042798883843
30
0
41
1
10
36.3737488698164
20
-0.223225898127822
30
0
41
1
10
36.3675024277028
20
-0.224725852087715
30
0
41
1
10
36.3553328577117
20
-0.227640449426815
30
0
41
1
10
36.3493749686625
20
-0.229063578813907
30
0
41
1
10
36.3376102995807
20
-0.231869148449874
30
0
41
1
10
36.3318620760118
20
-0.233237575811501
30
0
41
1
10
36.3206806608936
20
-0.23589649631009
30
0
41
1
10
36.3152169879995
20
-0.237194230742517
30
0
41
1
10
36.299075971125
20
-0.241024998234565
30
0
41
1
10
36.288642652401
20
-0.243497088081511
30
0
41
1
10
36.2578344387955
20
-0.250790549138401
30
0
41
1
10
36.2379203577034
20
-0.255496563791439
30
0
41
1
10
36.1986559873827
20
-0.264769931570953
30
0
41
1
10
36.1793066553276
20
-0.269336715705492
30
0
41
1
10
36.1215710266956
20
-0.282959874633036
30
0
41
1
10
36.083472126006
20
-0.291945227021785
30
0
41
1
10
36.0119024147618
20
-0.308826964020568
30
0
41
1
10
35.9784928052377
20
-0.316708224390169
30
0
41
1
10
35.9449298575156
20
-0.32462737827862
30
0
0
SPLINE
5
D8
100
AcDbEntity
8
1
62
256
6
ByLayer
370
18
48
1
60
0
100
AcDbSpline
70
4
71
3
72
8
73
4
40
0
40
0
40
0
40
0
40
1
40
1
40
1
40
1
41
1
10
36.4354110882351
20
2.48211582796702
30
0
41
1
10
36.4267181622073
20
2.47020780621247
30
0
41
1
10
36.418129650363
20
2.45822068291903
30
0
41
1
10
36.4096604624625
20
2.44614316496077
30
0
0
SPLINE
5
D9
100
AcDbEntity
8
1
62
256
6
ByLayer
370
18
48
1
60
0
100
AcDbSpline
70
4
71
3
72
8
73
4
40
0
40
0
40
0
40
0
40
1
40
1
40
1
40
1
41
1
10
36.4354110882351
20
2.48211582796708
30
0
41
1
10
36.436824529944
20
2.55418283594702
30
0
41
1
10
36.4380737851938
20
2.62610465053646
30
0
41
1
10
36.4391709841004
20
2.69789199864098
30
0
0
SPLINE
5
DA
100
AcDbEntity
8
1
62
256
6
ByLayer
370
18
48
1
60
0
100
AcDbSpline
70
4
71
3
72
32
73
28
40
0
40
0
40
0
40
0
40
0.124999999999995
40
0.124999999999995
40
0.187499999999993
40
0.187499999999993
40
0.24999999999999
40
0.24999999999999
40
0.312499999999988
40
0.312499999999988
40
0.374999999999986
40
0.374999999999986
40
0.499999999999981
40
0.499999999999981
40
0.562499999999982
40
0.562499999999982
40
0.624999999999983
40
0.624999999999983
40
0.687499999999985
40
0.687499999999985
40
0.718749999999989
40
0.718749999999989
40
0.749999999999992
40
0.749999999999992
40
0.874999999999996
40
0.874999999999996
40
1
40
1
40
1
40
1
41
1
10
35.2776875832368
20
4.45154397927183
30
0
41
1
10
35.3520496142907
20
4.42771459783987
30
0
41
1
10
35.4243436933896
20
4.39597044212982
30
0
41
1
10
35.5298162921474
20
4.33683120968695
30
0
41
1
10
35.5645123718521
20
4.31516497071647
30
0
41
1
10
35.6327579868514
20
4.26803080025866
30
0
41
1
10
35.6660756191905
20
4.2427248548006
30
0
41
1
10
35.7311639311415
20
4.1886822428097
30
0
41
1
10
35.7629403490088
20
4.15993292083419
30
0
41
1
10
35.8249785348124
20
4.09896965766069
30
0
41
1
10
35.8550344379363
20
4.06695828049575
30
0
41
1
10
35.9421011569469
20
3.96690732699702
30
0
41
1
10
35.9961643758645
20
3.89474356889781
30
0
41
1
10
36.0715279578268
20
3.7786011176762
30
0
41
1
10
36.0956906088758
20
3.73856180207068
30
0
41
1
10
36.1420930588131
20
3.65581075101153
30
0
41
1
10
36.1643515746514
20
3.61304031267699
30
0
41
1
10
36.2064866999884
20
3.52572073560012
30
0
41
1
10
36.2264245887188
20
3.48107157163724
30
0
41
1
10
36.25465885328
20
3.41263567879983
30
0
41
1
10
36.2637912442327
20
3.38957972786429
30
0
41
1
10
36.2814983998522
20
3.34297994708243
30
0
41
1
10
36.2900812126845
20
3.31941110187734
30
0
41
1
10
36.3314164155562
20
3.20087993930201
30
0
41
1
10
36.3595795681602
20
3.10358263734869
30
0
41
1
10
36.4064849795665
20
2.90428005793373
30
0
41
1
10
36.4252237755056
20
2.80226703270657
30
0
41
1
10
36.4391709840999
20
2.6978919986411
30
0
0
SPLINE
5
DB
100
AcDbEntity
8
1
62
256
6
ByLayer
370
13
48
1
60
0
100
AcDbSpline
70
4
71
3
72
8
73
4
40
0
40
0
40
0
40
0
40
1
40
1
40
1
40
1
41
1
10
34.1976552444612
20
4.09249473612587
30
0
41
1
10
34.1967768945203
20
4.09234429407445
30
0
41
1
10
34.1958979146107
20
4.09219277470189
30
0
41
1
10
34.1950182945178
20
4.09204017246526
30
0
0
SPLINE
5
DC
100
AcDbEntity
8
1
62
256
6
ByLayer
370
18
48
1
60
0
100
AcDbSpline
70
4
71
3
72
36
73
32
40
0
40
0
40
0
40
0
40
0.0078125000000032
40
0.0078125000000032
40
0.0156250000000064
40
0.0156250000000064
40
0.0234375000000097
40
0.0234375000000097
40
0.0312500000000129
40
0.0312500000000129
40
0.0468750000000193
40
0.0468750000000193
40
0.0625000000000258
40
0.0625000000000258
40
0.0781250000000322
40
0.0781250000000322
40
0.0937500000000387
40
0.0937500000000387
40
0.125000000000051
40
0.125000000000051
40
0.187500000000047
40
0.187500000000047
40
0.250000000000043
40
0.250000000000043
40
0.375000000000036
40
0.375000000000036
40
0.500000000000028
40
0.500000000000028
40
0.750000000000014
40
0.750000000000014
40
1
40
1
40
1
40
1
41
1
10
36.4096604114058
20
2.4461432051813
30
0
41
1
10
36.4078432075443
20
2.44355177494731
30
0
41
1
10
36.4058721537596
20
2.44111218400073
30
0
41
1
10
36.4015554882492
20
2.43660266807456
30
0
41
1
10
36.3991852896709
20
2.43451559324188
30
0
41
1
10
36.3941003831694
20
2.43087989384102
30
0
41
1
10
36.3914209381397
20
2.42935039801498
30
0
41
1
10
36.3857874175406
20
2.42686947594234
30
0
41
1
10
36.3827997663327
20
2.4259134115261
30
0
41
1
10
36.3737463156916
20
2.42395524436114
30
0
41
1
10
36.3674994752767
20
2.42382070815537
30
0
41
1
10
36.3553292723069
20
2.42502250589897
30
0
41
1
10
36.3493710687871
20
2.4263316104398
30
0
41
1
10
36.3376057723746
20
2.42979315379154
30
0
41
1
10
36.3318573266894
20
2.43193761889745
30
0
41
1
10
36.3206753986356
20
2.43666942717505
30
0
41
1
10
36.3152114670989
20
2.43927101825957
30
0
41
1
10
36.2990696701527
20
2.44753961919767
30
0
41
1
10
36.2886358258752
20
2.45365936830856
30
0
41
1
10
36.2578260238144
20
2.47293093754777
30
0
41
1
10
36.2379108752195
20
2.48698963288874
30
0
41
1
10
36.1986443759328
20
2.51574458426663
30
0
41
1
10
36.1792939624786
20
2.53050557666353
30
0
41
1
10
36.1215550560501
20
2.57521206854923
30
0
41
1
10
36.0834538977524
20
2.60554718455828
30
0
41
1
10
36.0070115815888
20
2.66589198491988
30
0
41
1
10
35.968713217438
20
2.6959596961637
30
0
41
1
10
35.8531594984668
20
2.78526975370352
30
0
41
1
10
35.7752946710232
20
2.84361616961542
30
0
41
1
10
35.617586165218
20
2.95713692019345
30
0
41
1
10
35.5377426321265
20
3.01235427086567
30
0
41
1
10
35.4571005767252
20
3.06632613052599
30
0
0
SPLINE
5
DD
100
AcDbEntity
8
1
62
256
6
ByLayer
370
13
48
1
60
0
100
AcDbSpline
70
4
71
3
72
25
73
21
40
0
40
0
40
0
40
0
40
0.0852076904288801
40
0.129617687620488
40
0.195745506128114
40
0.326613448930972
40
0.457611380846989
40
0.523983721000841
40
0.568587371213312
40
0.612909581998742
40
0.656364337369148
40
0.677542579415544
40
0.69823193745661
40
0.718336413341969
40
0.738427880633293
40
0.75909458604253
40
0.82367394658906
40
0.868018559229599
40
0.978974441980019
40
1
40
1
40
1
40
1
41
1
10
36.4096604122303
20
2.44614320481776
30
0
41
1
10
36.3798007207452
20
2.51098340620493
30
0
41
1
10
36.3338432776963
20
2.60446732612653
30
0
41
1
10
36.26080113632
20
2.74032821090228
30
0
41
1
10
36.1653668209427
20
2.90479409952371
30
0
41
1
10
36.0236459114465
20
3.1183165163703
30
0
41
1
10
35.8695437974312
20
3.3118988018814
30
0
41
1
10
35.7522233544876
20
3.44026141372765
30
0
41
1
10
35.6759734914731
20
3.5173400314925
30
0
41
1
10
35.6093782863342
20
3.58038360173259
30
0
41
1
10
35.5526926314377
20
3.63054435597854
30
0
41
1
10
35.5065154058506
20
3.66927408504787
30
0
41
1
10
35.4720461240037
20
3.69716060202779
30
0
41
1
10
35.4366606619507
20
3.72473965518893
30
0
41
1
10
35.4010262678858
20
3.75144837312908
30
0
41
1
10
35.3413277415046
20
3.79446062356305
30
0
41
1
10
35.2701577059547
20
3.84159190127184
30
0
41
1
10
35.1518143724228
20
3.91196944604519
30
0
41
1
10
35.0557495025089
20
3.96007553860525
30
0
41
1
10
34.9823553744367
20
3.99092034450047
30
0
41
1
10
34.9706346953672
20
3.99569756152005
30
0
0
SPLINE
5
DE
100
AcDbEntity
8
1
62
256
6
ByLayer
370
18
48
1
60
0
100
AcDbSpline
70
4
71
3
72
13
73
9
40
0
40
0
40
0
40
0
40
0.25
40
0.25
40
0.5
40
0.5
40
0.75
40
1
40
1
40
1
40
1
41
1
10
16.66
20
4.71717673232416
30
0
41
1
10
16.59374614774
20
4.6925799495873
30
0
41
1
10
16.5260815385332
20
4.66993243240719
30
0
41
1
10
16.3882452231499
20
4.62824206688128
30
0
41
1
10
16.3180724934076
20
4.60920040592609
30
0
41
1
10
16.1754778012179
20
4.57469144245584
30
0
41
1
10
16.0306321564825
20
4.54375745510288
30
0
41
1
10
15.881750551733
20
4.52038662166021
30
0
41
1
10
15.8064155646676
20
4.51081506936288
30
0
0
SPLINE
5
DF
100
AcDbEntity
8
1
62
256
6
ByLayer
370
18
48
1
60
0
100
AcDbSpline
70
4
71
3
72
26
73
22
40
0
40
0
40
0
40
0
40
0.223033961538982
40
0.223033961538982
40
0.334550942308473
40
0.334550942308473
40
0.446067923077964
40
0.446067923077964
40
0.557584903847456
40
0.557584903847456
40
0.669101884616947
40
0.669101884616947
40
0.724860375001692
40
0.724860375001692
40
0.780618865386438
40
0.780618865386438
40
0.892135846155929
40
0.892135846155929
40
0.947894336540675
40
0.947894336540675
40
1
40
1
40
1
40
1
41
1
10
35.8387536563566
20
-0.304780771434082
30
0
41
1
10
35.79787788795
20
-0.298120536467707
30
0
41
1
10
35.7578849934088
20
-0.288121062998272
30
0
41
1
10
35.6991982323373
20
-0.267923594750243
30
0
41
1
10
35.6798340676439
20
-0.260292547403736
30
0
41
1
10
35.6423313580685
20
-0.243480692539123
30
0
41
1
10
35.6240940623795
20
-0.234270463518584
30
0
41
1
10
35.588686408443
20
-0.214131053955015
30
0
41
1
10
35.5715154193035
20
-0.203203119770961
30
0
41
1
10
35.5383443508151
20
-0.179405907020794
30
0
41
1
10
35.5223426730799
20
-0.166539641327148
30
0
41
1
10
35.4993686689879
20
-0.145488306250286
30
0
41
1
10
35.4918928051222
20
-0.138181505491872
30
0
41
1
10
35.4775515534185
20
-0.123165734267701
30
0
41
1
10
35.4706563756642
20
-0.115430460420441
30
0
41
1
10
35.4508451165661
20
-0.0914974171728034
30
0
41
1
10
35.4387957893156
20
-0.0745789190846153
30
0
41
1
10
35.4227615208327
20
-0.0474813173379687
30
0
41
1
10
35.4177770441341
20
-0.0381799030328978
30
0
41
1
10
35.4090382901454
20
-0.019987837735016
30
0
41
1
10
35.4052000987039
20
-0.0110701319212865
30
0
41
1
10
35.4017526682361
20
-0.0020203017770086
30
0
0
SPLINE
5
E0
100
AcDbEntity
8
1
62
256
6
ByLayer
370
18
48
1
60
0
100
AcDbSpline
70
4
71
3
72
8
73
4
40
0
40
0
40
0
40
0
40
1
40
1
40
1
40
1
41
1
10
36.4354110882326
20
-2.48211582794312
30
0
41
1
10
36.4368245299418
20
-2.55418283593579
30
0
41
1
10
36.4380737851918
20
-2.62610465053788
30
0
41
1
10
36.4391709840985
20
-2.69789199865502
30
0
0
SPLINE
5
E1
100
AcDbEntity
8
1
62
256
6
ByLayer
370
18
48
1
60
0
100
AcDbSpline
70
4
71
1
72
4
73
2
40
0
40
0
40
1
40
1
41
1
10
16.66
20
4.40086521230995
30
0
41
1
10
15.8064155646676
20
4.51081506936288
30
0
0
SPLINE
5
E2
100
AcDbEntity
8
1
62
256
6
ByLayer
370
18
48
1
60
0
100
AcDbSpline
70
4
71
3
72
8
73
4
40
0
40
0
40
0
40
0
40
1
40
1
40
1
40
1
41
1
10
15.8064155646675
20
4.51081506936288
30
0
41
1
10
15.7729520269425
20
4.5065621040313
30
0
41
1
10
15.7392817837493
20
4.50273258706358
30
0
41
1
10
15.7054353086355
20
4.49936183982348
30
0
0
SPLINE
5
E3
100
AcDbEntity
8
1
62
256
6
ByLayer
370
18
48
1
60
0
100
AcDbSpline
70
4
71
3
72
22
73
18
40
0
40
0
40
0
40
0
40
0.249999999999988
40
0.249999999999988
40
0.312499999999989
40
0.312499999999989
40
0.374999999999989
40
0.374999999999989
40
0.499999999999989
40
0.499999999999989
40
0.749999999999989
40
0.749999999999989
40
0.874999999999992
40
0.874999999999992
40
0.937499999999996
40
0.937499999999996
40
1
40
1
40
1
40
1
41
1
10
35.0106666100862
20
3.94848080888673
30
0
41
1
10
35.0749109675606
20
3.89822461579794
30
0
41
1
10
35.132869925554
20
3.83790890968206
30
0
41
1
10
35.1973165057872
20
3.75302198509951
30
0
41
1
10
35.209828119623
20
3.73553450806608
30
0
41
1
10
35.2339017978195
20
3.69984335295271
30
0
41
1
10
35.2454467188264
20
3.68166796116799
30
0
41
1
10
35.2786628474838
20
3.62630110438931
30
0
41
1
10
35.2989095542919
20
3.58826406845739
30
0
41
1
10
35.3543155650525
20
3.47184449599126
30
0
41
1
10
35.3840026521539
20
3.39102243441519
30
0
41
1
10
35.4183213286796
20
3.26859693009939
30
0
41
1
10
35.4280667608938
20
3.2276001416154
30
0
41
1
10
35.4404994739218
20
3.16646424650293
30
0
41
1
10
35.4442812063372
20
3.14614062748714
30
0
41
1
10
35.4511654320376
20
3.10592164109534
30
0
41
1
10
35.4542724354394
20
3.08600147959123
30
0
41
1
10
35.4571005767273
20
3.0663261305269
30
0
0
SPLINE
5
E4
100
AcDbEntity
8
1
62
256
6
ByLayer
370
18
48
1
60
0
100
AcDbSpline
70
4
71
3
72
8
73
4
40
0
40
0
40
0
40
0
40
1
40
1
40
1
40
1
41
1
10
35.4571005767267
20
3.06632613052767
30
0
41
1
10
35.379023931606
20
3.01173132864329
30
0
41
1
10
35.2981165251197
20
2.9628441740652
30
0
41
1
10
35.2152297321158
20
2.91794804475046
30
0
0
SPLINE
5
E5
100
AcDbEntity
8
1
62
256
6
ByLayer
370
18
48
1
60
0
100
AcDbSpline
70
4
71
3
72
12
73
8
40
0
40
0
40
0
40
0
40
0.499999999999982
40
0.499999999999982
40
0.749999999999991
40
0.749999999999991
40
1
40
1
40
1
40
1
41
1
10
15.8352764711522
20
-4.1944077440038
30
0
41
1
10
15.8144619910438
20
-4.1812645715199
30
0
41
1
10
15.7963662103315
20
-4.16782502415339
30
0
41
1
10
15.7737855540549
20
-4.14672502182216
30
0
41
1
10
15.7670166554145
20
-4.13953549882748
30
0
41
1
10
15.7550389834889
20
-4.12477327289696
30
0
41
1
10
15.749823470876
20
-4.11718824481267
30
0
41
1
10
15.7454103586724
20
-4.10940853661808
30
0
0
SPLINE
5
E6
100
AcDbEntity
8
1
62
256
6
ByLayer
370
18
48
1
60
0
100
AcDbSpline
70
4
71
3
72
9
73
5
40
0
40
0
40
0
40
0
40
0.24910863481916
40
1
40
1
40
1
40
1
41
1
10
16.1023689055264
20
-4.5597805048024
30
0
41
1
10
16.0782342091342
20
-4.55486416830266
30
0
41
1
10
15.9808871323708
20
-4.53594868198377
30
0
41
1
10
15.8817505517328
20
-4.52038662166032
30
0
41
1
10
15.8064155646675
20
-4.51081506936302
30
0
0
SPLINE
5
E7
100
AcDbEntity
8
1
62
256
6
ByLayer
370
18
48
1
60
0
100
AcDbSpline
70
4
71
1
72
4
73
2
40
0
40
0
40
1
40
1
41
1
10
13.4401552615352
20
-4.0389401443698
30
0
41
1
10
12.7296905847114
20
-4.24900046049282
30
0
0
SPLINE
5
E8
100
AcDbEntity
8
1
62
256
6
ByLayer
370
18
48
1
60
0
100
AcDbSpline
70
4
71
3
72
8
73
4
40
0
40
0
40
0
40
0
40
1
40
1
40
1
40
1
41
1
10
15.8064155646675
20
-4.51081506936302
30
0
41
1
10
15.7729520269425
20
-4.50656210403142
30
0
41
1
10
15.7392817837492
20
-4.50273258706369
30
0
41
1
10
15.7054353086354
20
-4.49936183982362
30
0
0
SPLINE
5
E9
100
AcDbEntity
8
1
62
256
6
ByLayer
370
18
48
1
60
0
100
AcDbSpline
70
4
71
3
72
8
73
4
40
0
40
0
40
0
40
0
40
1
40
1
40
1
40
1
41
1
10
15.8931480433519
20
-4.16011880850743
30
0
41
1
10
15.8442620104066
20
-4.13951958257982
30
0
41
1
10
15.7949499573634
20
-4.12267554473127
30
0
41
1
10
15.7454103586615
20
-4.1094085366212
30
0
0
SPLINE
5
EA
100
AcDbEntity
8
1
62
256
6
ByLayer
370
18
48
1
60
0
100
AcDbSpline
70
4
71
3
72
8
73
4
40
0
40
0
40
0
40
0
40
1
40
1
40
1
40
1
41
1
10
15.7054353086354
20
-4.09047934444888
30
0
41
1
10
15.7187920026543
20
-4.09672460685854
30
0
41
1
10
15.7321171607513
20
-4.10303498883675
30
0
41
1
10
15.7454103586623
20
-4.10940853661862
30
0
0
SPLINE
5
EB
100
AcDbEntity
8
1
62
256
6
ByLayer
370
18
48
1
60
0
100
AcDbSpline
70
4
71
3
72
32
73
28
40
0
40
0
40
0
40
0
40
0.125
40
0.125
40
0.1875
40
0.1875
40
0.249999999999999
40
0.249999999999999
40
0.312499999999999
40
0.312499999999999
40
0.374999999999999
40
0.374999999999999
40
0.499999999999999
40
0.499999999999999
40
0.562499999999999
40
0.562499999999999
40
0.624999999999999
40
0.624999999999999
40
0.687499999999999
40
0.687499999999999
40
0.718749999999999
40
0.718749999999999
40
0.75
40
0.75
40
0.875
40
0.875
40
1
40
1
40
1
40
1
41
1
10
35.2776875832368
20
-4.45154397927209
30
0
41
1
10
35.3520496142902
20
-4.42771459784026
30
0
41
1
10
35.4243436933888
20
-4.3959704421305
30
0
41
1
10
35.5298162921461
20
-4.336831209688
30
0
41
1
10
35.5645123718505
20
-4.31516497071775
30
0
41
1
10
35.6327579868496
20
-4.26803080026028
30
0
41
1
10
35.6660756191885
20
-4.24272485480248
30
0
41
1
10
35.7311639311391
20
-4.18868224281195
30
0
41
1
10
35.7629403490064
20
-4.15993292083675
30
0
41
1
10
35.8249785348097
20
-4.09896965766373
30
0
41
1
10
35.8550344379334
20
-4.06695828049905
30
0
41
1
10
35.9421011569438
20
-3.9669073270012
30
0
41
1
10
35.9961643758612
20
-3.89474356890261
30
0
41
1
10
36.0715279578233
20
-3.778601117682
30
0
41
1
10
36.0956906088723
20
-3.73856180207682
30
0
41
1
10
36.1420930588096
20
-3.65581075101841
30
0
41
1
10
36.1643515746479
20
-3.61304031268421
30
0
41
1
10
36.2064866999849
20
-3.52572073560802
30
0
41
1
10
36.2264245887152
20
-3.48107157164554
30
0
41
1
10
36.2546588532765
20
-3.4126356788087
30
0
41
1
10
36.2637912442293
20
-3.38957972787335
30
0
41
1
10
36.2814983998488
20
-3.34297994709186
30
0
41
1
10
36.2900812126811
20
-3.31941110188694
30
0
41
1
10
36.331416415553
20
-3.2008799393125
30
0
41
1
10
36.3595795681572
20
-3.10358263735989
30
0
41
1
10
36.406484979564
20
-2.90428005794635
30
0
41
1
10
36.4252237755034
20
-2.8022670327199
30
0
41
1
10
36.439170984098
20
-2.69789199865514
30
0
0
SPLINE
5
EC
100
AcDbEntity
8
1
62
256
6
ByLayer
370
18
48
1
60
0
100
AcDbSpline
70
4
71
3
72
8
73
4
40
0
40
0
40
0
40
0
40
1
40
1
40
1
40
1
41
1
10
36.4391709840978
20
-2.69789199865491
30
0
41
1
10
36.4164457502185
20
-2.66878048862182
30
0
41
1
10
36.3937197718742
20
-2.63960704835205
30
0
41
1
10
36.3709931035933
20
-2.61037621403381
30
0
0
SPLINE
5
ED
100
AcDbEntity
8
1
62
256
6
ByLayer
370
18
48
1
60
0
100
AcDbSpline
70
4
71
3
72
22
73
18
40
0
40
0
40
0
40
0
40
0.125000000000004
40
0.125000000000004
40
0.250000000000007
40
0.250000000000007
40
0.375000000000011
40
0.375000000000011
40
0.437500000000013
40
0.437500000000013
40
0.500000000000015
40
0.500000000000015
40
0.625000000000013
40
0.625000000000013
40
0.750000000000011
40
0.750000000000011
40
1
40
1
40
1
40
1
41
1
10
36.3709931035932
20
-2.61037621403415
30
0
41
1
10
36.3584070873433
20
-2.65957355115822
30
0
41
1
10
36.3446610831521
20
-2.70346753719153
30
0
41
1
10
36.3156248045209
20
-2.78419525714858
30
0
41
1
10
36.300324041181
20
-2.82098103685118
30
0
41
1
10
36.2685722888266
20
-2.88929387729107
30
0
41
1
10
36.2521175281567
20
-2.9208036943902
30
0
41
1
10
36.2267563391403
20
-2.96496387913365
30
0
41
1
10
36.2181755189113
20
-2.97918231653617
30
0
41
1
10
36.2008853240922
20
-3.00656155561336
30
0
41
1
10
36.1921763216928
20
-3.01972443938382
30
0
41
1
10
36.1658794825138
20
-3.05781325354539
30
0
41
1
10
36.1481227634853
20
-3.08134717493431
30
0
41
1
10
36.1122444300621
20
-3.12540737399664
30
0
41
1
10
36.094122378483
20
-3.1459300481861
30
0
41
1
10
36.0392976719323
20
-3.20371846540064
30
0
41
1
10
36.0021409958594
20
-3.23724194738739
30
0
41
1
10
35.9645307539363
20
-3.26702692073687
30
0
0
SPLINE
5
EE
100
AcDbEntity
8
1
62
256
6
ByLayer
370
13
48
1
60
0
100
AcDbSpline
70
4
71
1
72
4
73
2
40
0
40
0
40
1
40
1
41
1
10
16.66
20
-4.18386901100024
30
0
41
1
10
15.2425665816893
20
-3.84986506287123
30
0
0
SPLINE
5
EF
100
AcDbEntity
8
1
62
256
6
ByLayer
370
18
48
1
60
0
100
AcDbSpline
70
4
71
3
72
41
73
37
40
0
40
0
40
0
40
0
40
0.125000000000031
40
0.125000000000031
40
0.187500000000047
40
0.187500000000047
40
0.250000000000063
40
0.250000000000063
40
0.312500000000078
40
0.312500000000078
40
0.375000000000094
40
0.375000000000094
40
0.406250000000102
40
0.406250000000102
40
0.43750000000011
40
0.43750000000011
40
0.500000000000099
40
0.500000000000099
40
0.531250000000094
40
0.531250000000094
40
0.562500000000088
40
0.562500000000088
40
0.625000000000078
40
0.625000000000078
40
0.656250000000072
40
0.656250000000072
40
0.687500000000067
40
0.718750000000062
40
0.718750000000062
40
0.750000000000056
40
0.750000000000056
40
0.812500000000038
40
0.812500000000038
40
0.875000000000019
40
0.875000000000019
40
1
40
1
40
1
40
1
41
1
10
35.8387536563567
20
0.304780771433826
30
0
41
1
10
35.7978778879501
20
0.298120536467451
30
0
41
1
10
35.7578849934088
20
0.288121062997988
30
0
41
1
10
35.6991982323374
20
0.267923594749988
30
0
41
1
10
35.6798340676439
20
0.260292547403481
30
0
41
1
10
35.6423313580686
20
0.243480692538867
30
0
41
1
10
35.6240940623796
20
0.234270463518328
30
0
41
1
10
35.588686408443
20
0.214131053954759
30
0
41
1
10
35.5715154193035
20
0.203203119770706
30
0
41
1
10
35.5383443508151
20
0.179405907020566
30
0
41
1
10
35.5223426730799
20
0.166539641326892
30
0
41
1
10
35.4993686689879
20
0.14548830625003
30
0
41
1
10
35.4918928051222
20
0.138181505491616
30
0
41
1
10
35.4775515534184
20
0.123165734267445
30
0
41
1
10
35.4706563756642
20
0.115430460420214
30
0
41
1
10
35.4508451165661
20
0.0914974171725476
30
0
41
1
10
35.4387957893156
20
0.0745789190843595
30
0
41
1
10
35.4227615208327
20
0.0474813173377129
30
0
41
1
10
35.4177770441342
20
0.038179903032642
30
0
41
1
10
35.4087423516456
20
0.0193717622028942
30
0
41
1
10
35.4046638352204
20
0.0098191568123127
30
0
41
1
10
35.3937725111425
20
-0.0192931364340438
30
0
41
1
10
35.3882979380702
20
-0.0393052805862908
30
0
41
1
10
35.3829745887451
20
-0.0702980915049238
30
0
41
1
10
35.3816946767828
20
-0.0807733763061833
30
0
41
1
10
35.380155768314
20
-0.101500905088358
30
0
41
1
10
35.3796111055514
20
-0.122141742323123
30
0
41
1
10
35.3809503834719
20
-0.142611852638907
30
0
41
1
10
35.3831910950771
20
-0.162997352408496
30
0
41
1
10
35.3847735838606
20
-0.173198761223631
30
0
41
1
10
35.3907316872456
20
-0.203238004483126
30
0
41
1
10
35.3962793983381
20
-0.222495113188074
30
0
41
1
10
35.4099124895475
20
-0.259739066060177
30
0
41
1
10
35.4180090763935
20
-0.27773731506673
30
0
41
1
10
35.4454808982084
20
-0.329999403673554
30
0
41
1
10
35.4674126004046
20
-0.361554310775546
30
0
41
1
10
35.4917327872883
20
-0.390830602401593
30
0
0
SPLINE
5
F0
100
AcDbEntity
8
1
62
256
6
ByLayer
370
18
48
1
60
0
100
AcDbSpline
70
4
71
3
72
9
73
5
40
0
40
0
40
0
40
0
40
0.583591892137317
40
1
40
1
40
1
40
1
41
1
10
35.8813162974492
20
2.4554067977576
30
0
41
1
10
35.8732534102003
20
2.47483173358233
30
0
41
1
10
35.862132427393
20
2.49897068589877
30
0
41
1
10
35.8555431051468
20
2.50773018696231
30
0
41
1
10
35.853589828675
20
2.50869469241852
30
0
0
SPLINE
5
F1
100
AcDbEntity
8
1
62
256
6
ByLayer
370
18
48
1
60
0
100
AcDbSpline
70
4
71
1
72
4
73
2
40
0
40
0
40
1
40
1
41
1
10
26.116673133953
20
-3.3192229146517
30
0
41
1
10
24.0239979278723
20
-3.71141082563153
30
0
0
SPLINE
5
F2
100
AcDbEntity
8
1
62
256
6
ByLayer
370
18
48
1
60
0
100
AcDbSpline
70
4
71
3
72
8
73
4
40
0
40
0
40
0
40
0
40
1
40
1
40
1
40
1
41
1
10
35.9641400209991
20
2.20103283461927
30
0
41
1
10
35.9353581119473
20
2.29015055439137
30
0
41
1
10
35.9077426622946
20
2.37496966829278
30
0
41
1
10
35.8813162974492
20
2.45540679775769
30
0
0
SPLINE
5
F3
100
AcDbEntity
8
1
62
256
6
ByLayer
370
18
48
1
60
0
100
AcDbSpline
70
4
71
3
72
18
73
14
40
0
40
0
40
0
40
0
40
0.273541657612678
40
0.273541657612678
40
0.547083315225356
40
0.547083315225356
40
0.683854144031695
40
0.683854144031695
40
0.75223955843487
40
0.75223955843487
40
0.820624972838045
40
0.820624972838045
40
1
40
1
40
1
40
1
41
1
10
35.8813162974491
20
2.45540679775763
30
0
41
1
10
35.6961526908472
20
2.58842300393081
30
0
41
1
10
35.5116337082646
20
2.71421875857521
30
0
41
1
10
35.1427394099028
20
2.95063530919495
30
0
41
1
10
34.9583671423693
20
3.06125538563614
30
0
41
1
10
34.6808757709641
20
3.21477618392314
30
0
41
1
10
34.5882209324063
20
3.26387668649872
30
0
41
1
10
34.4488485360125
20
3.33424497617571
30
0
41
1
10
34.4022821703747
20
3.35717431373206
30
0
41
1
10
34.309241524914
20
3.4017868766343
30
0
41
1
10
34.2627739546661
20
3.42346828279483
30
0
41
1
10
34.0945645758167
20
3.49972864553342
30
0
41
1
10
33.9730768272571
20
3.55056256167956
30
0
41
1
10
33.8515629744328
20
3.59694798133415
30
0
0
SPLINE
5
F4
100
AcDbEntity
8
1
62
256
6
ByLayer
370
13
48
1
60
0
100
AcDbSpline
70
4
71
3
72
8
73
4
40
0
40
0
40
0
40
0
40
1
40
1
40
1
40
1
41
1
10
35.8789620823298
20
1.97730679228795
30
0
41
1
10
35.7194046214514
20
2.11363182728664
30
0
41
1
10
35.559847160573
20
2.24576970316954
30
0
41
1
10
35.4002896996946
20
2.37299763160922
30
0
0
SPLINE
5
F5
100
AcDbEntity
8
1
62
256
6
ByLayer
370
13
48
1
60
0
100
AcDbSpline
70
4
71
3
72
8
73
4
40
0
40
0
40
0
40
0
40
1
40
1
40
1
40
1
41
1
10
19.0755837039403
20
-3.97890158809943
30
0
41
1
10
18.2703891359602
20
-4.20928426177249
30
0
41
1
10
17.4651945679801
20
-4.23004044691052
30
0
41
1
10
16.66
20
-4.02002833083969
30
0
0
SPLINE
5
F6
100
AcDbEntity
8
1
62
256
6
ByLayer
370
18
48
1
60
0
100
AcDbSpline
70
4
71
5
72
12
73
6
40
0
40
0
40
0
40
0
40
0
40
0
40
1
40
1
40
1
40
1
40
1
40
1
41
1
10
16.66
20
-4.02002833083969
30
0
41
0.982012201424732
10
16.66
20
-4.04183699240374
30
0
41
0.973220527698089
10
16.66
20
-4.07066080499003
30
0
41
0.973220527698089
10
16.66
20
-4.10510507102448
30
0
41
0.982012201424732
10
16.66
20
-4.14347714455223
30
0
41
1
10
16.66
20
-4.18386901100024
30
0
0
SPLINE
5
F7
100
AcDbEntity
8
1
62
256
6
ByLayer
370
18
48
1
60
0
100
AcDbSpline
70
4
71
1
72
4
73
2
40
0
40
0
40
1
40
1
41
1
10
16.66
20
3.0869412263479
30
0
41
1
10
15.6618858714583
20
3.38204973238322
30
0
0
SPLINE
5
F8
100
AcDbEntity
8
1
62
256
6
ByLayer
370
18
48
1
60
0
100
AcDbSpline
70
4
71
3
72
36
73
32
40
0
40
0
40
0
40
0
40
0.0078124999999855
40
0.0078124999999855
40
0.0156249999999711
40
0.0156249999999711
40
0.0234374999999566
40
0.0234374999999566
40
0.0312499999999421
40
0.0312499999999421
40
0.0468749999999457
40
0.0468749999999457
40
0.0624999999999492
40
0.0624999999999492
40
0.0781249999999527
40
0.0781249999999527
40
0.0937499999999563
40
0.0937499999999563
40
0.124999999999963
40
0.124999999999963
40
0.187499999999977
40
0.187499999999977
40
0.249999999999992
40
0.249999999999992
40
0.374999999999993
40
0.374999999999993
40
0.499999999999994
40
0.499999999999994
40
0.749999999999997
40
0.749999999999997
40
1
40
1
40
1
40
1
41
1
10
36.4096604114056
20
0.214490246930836
30
0
41
1
10
36.4078433160107
20
0.214939962143603
30
0
41
1
10
36.4058723889661
20
0.215425800446098
30
0
41
1
10
36.4015560260063
20
0.216485434152077
30
0
41
1
10
36.3991860157728
20
0.217065214467056
30
0
41
1
10
36.3941014781225
20
0.218304642939131
30
0
41
1
10
36.3914222340358
20
0.218955722149104
30
0
41
1
10
36.3857891479325
20
0.220320758761773
30
0
41
1
10
36.3828017315905
20
0.221042798883587
30
0
41
1
10
36.3737488698163
20
0.223225898127566
30
0
41
1
10
36.3675024277027
20
0.224725852087431
30
0
41
1
10
36.3553328577116
20
0.227640449426559
30
0
41
1
10
36.3493749686623
20
0.229063578813623
30
0
41
1
10
36.3376102995806
20
0.231869148449619
30
0
41
1
10
36.3318620760118
20
0.233237575811245
30
0
41
1
10
36.3206806608936
20
0.235896496309834
30
0
41
1
10
36.3152169879993
20
0.237194230742261
30
0
41
1
10
36.2990759711248
20
0.241024998234281
30
0
41
1
10
36.2886426524008
20
0.243497088081256
30
0
41
1
10
36.2578344387953
20
0.250790549138145
30
0
41
1
10
36.2379203577034
20
0.255496563791155
30
0
41
1
10
36.1986559873827
20
0.264769931570697
30
0
41
1
10
36.1793066553275
20
0.269336715705236
30
0
41
1
10
36.1215710266955
20
0.28295987463278
30
0
41
1
10
36.0834721260059
20
0.291945227021529
30
0
41
1
10
36.0070344179653
20
0.309975218501108
30
0
41
1
10
35.9687384085688
20
0.319009281195605
30
0
41
1
10
35.8531918830339
20
0.346274199637463
30
0
41
1
10
35.7753320995897
20
0.36465598530026
30
0
41
1
10
35.6176349470536
20
0.401910837736437
30
0
41
1
10
35.5377975776829
20
0.420783679199559
30
0
41
1
10
35.4571620957739
20
0.439854609618607
30
0
0
SPLINE
5
F9
100
AcDbEntity
8
1
62
256
6
ByLayer
370
13
48
1
60
0
100
AcDbSpline
70
4
71
1
72
4
73
2
40
0
40
0
40
1
40
1
41
1
10
16.66
20
1.29714878475502
30
0
41
1
10
14.8351043052271
20
2.98686701615921
30
0
0
SPLINE
5
FA
100
AcDbEntity
8
1
62
256
6
ByLayer
370
18
48
1
60
0
100
AcDbSpline
70
4
71
3
72
8
73
4
40
0
40
0
40
0
40
0
40
1
40
1
40
1
40
1
41
1
10
35.9276886548308
20
-3.13701342703368
30
0
41
1
10
35.9225239574034
20
-3.06015671860842
30
0
41
1
10
35.9188555182491
20
-2.98361829083396
30
0
41
1
10
35.9166615330341
20
-2.90739350554372
30
0
0
SPLINE
5
FB
100
AcDbEntity
8
1
62
256
6
ByLayer
370
18
48
1
60
0
100
AcDbSpline
70
4
71
3
72
20
73
16
40
0
40
0
40
0
40
0
40
0.125000000000021
40
0.125000000000021
40
0.250000000000041
40
0.250000000000041
40
0.375000000000062
40
0.375000000000062
40
0.437500000000063
40
0.437500000000063
40
0.500000000000065
40
0.500000000000065
40
0.750000000000032
40
0.750000000000032
40
1
40
1
40
1
40
1
41
1
10
35.31053509744
20
-1.9083647249484
30
0
41
1
10
35.3298729838664
20
-1.95408993994619
30
0
41
1
10
35.3504047784278
20
-1.99927305111274
30
0
41
1
10
35.3934435434974
20
-2.08874232367535
30
0
41
1
10
35.4159527645132
20
-2.13302749184609
30
0
41
1
10
35.4626720340995
20
-2.2208255125434
30
0
41
1
10
35.4868832825469
20
-2.2643378202263
30
0
41
1
10
35.5243312561889
20
-2.32909266884809
30
0
41
1
10
35.5370029706442
20
-2.35059177114911
30
0
41
1
10
35.5627056522131
20
-2.3934268454866
30
0
41
1
10
35.5756921963667
20
-2.41468789301004
30
0
41
1
10
35.6409850670208
20
-2.51983479269418
30
0
41
1
10
35.6946285511401
20
-2.6007434913742
30
0
41
1
10
35.8040899375316
20
-2.75760958289172
30
0
41
1
10
35.8599151286761
20
-2.83355037844478
30
0
41
1
10
35.916661533034
20
-2.90739350554341
30
0
0
SPLINE
5
FC
100
AcDbEntity
8
1
62
256
6
ByLayer
370
13
48
1
60
0
100
AcDbSpline
70
4
71
3
72
10
73
6
40
0
40
0
40
0
40
0
40
0.5
40
0.5
40
1
40
1
40
1
40
1
41
1
10
26.975
20
-1.51391419553198
30
0
41
1
10
26.975
20
-1.31519993075025
30
0
41
1
10
26.975
20
-1.12445382351322
30
0
41
1
10
26.975
20
-0.768714075523576
30
0
41
1
10
26.975
20
-0.603746780051893
30
0
41
1
10
26.975
20
-0.455563376002374
30
0
0
SPLINE
5
FD
100
AcDbEntity
8
1
62
256
6
ByLayer
370
18
48
1
60
0
100
AcDbSpline
70
4
71
1
72
4
73
2
40
0
40
0
40
1
40
1
41
1
10
26.975
20
-0.455563376002374
30
0
41
1
10
23.5880973217566
20
1.87804165549949
30
0
0
SPLINE
5
FE
100
AcDbEntity
8
1
62
256
6
ByLayer
370
18
48
1
60
0
100
AcDbSpline
70
4
71
3
72
45
73
41
40
0
40
0
40
0
40
0
40
0.0271345279691938
40
0.0271345279691938
40
0.0482837773611656
40
0.0482837773611656
40
0.0694330267531374
40
0.0694330267531374
40
0.154030024321035
40
0.154030024321035
40
0.238627021888932
40
0.238627021888932
40
0.32322401945683
40
0.32322401945683
40
0.344373268848805
40
0.344373268848805
40
0.36552251824078
40
0.36552251824078
40
0.407821017024727
40
0.407821017024727
40
0.492418014592625
40
0.492418014592625
40
0.534716513376572
40
0.534716513376572
40
0.577015012160519
40
0.577015012160519
40
0.661612009728413
40
0.661612009728413
40
0.682761259120385
40
0.682761259120385
40
0.703910508512358
40
0.746209007296307
40
0.746209007296307
40
0.830806004864205
40
0.830806004864205
40
0.915403002432102
40
0.915403002432102
40
0.957701501216051
40
0.957701501216051
40
1
40
1
40
1
40
1
41
1
10
33.5603274610063
20
-3.69950152868421
30
0
41
1
10
33.5007686833317
20
-3.7186984920009
30
0
41
1
10
33.4411411208287
20
-3.73682217797008
30
0
41
1
10
33.3348518929963
20
-3.76715082043847
30
0
41
1
10
33.2882934299235
20
-3.77976085567161
30
0
41
1
10
33.1953241416686
20
-3.80359315314891
30
0
41
1
10
33.14888518629
20
-3.81482352543804
30
0
41
1
10
32.9168434066004
20
-3.86757665347986
30
0
41
1
10
32.7315980838985
20
-3.8989325638552
30
0
41
1
10
32.3613415954792
20
-3.94013666626162
30
0
41
1
10
32.1763424495848
20
-3.95003860279894
30
0
41
1
10
31.8057966916866
20
-3.9482339516025
30
0
41
1
10
31.6202551054475
20
-3.93652273813282
30
0
41
1
10
31.3872650831701
20
-3.90774228706354
30
0
41
1
10
31.3406128476984
20
-3.9012773530695
30
0
41
1
10
31.2471771207826
20
-3.88690717055417
30
0
41
1
10
31.2003900304889
20
-3.87899950265364
30
0
41
1
10
31.0603314566348
20
-3.85318770966984
30
0
41
1
10
30.9671873289683
20
-3.83316691923133
30
0
41
1
10
30.688141627812
20
-3.76466732958008
30
0
41
1
10
30.5025445506213
20
-3.70786059989086
30
0
41
1
10
30.2231289480644
20
-3.60711743600828
30
0
41
1
10
30.1297534846043
20
-3.57089553479642
30
0
41
1
10
29.9433504400798
20
-3.49370943287198
30
0
41
1
10
29.8502321725398
20
-3.45271695532981
30
0
41
1
10
29.5708518038765
20
-3.32274519886573
30
0
41
1
10
29.3845350898189
20
-3.22682992746763
30
0
41
1
10
29.1508784910478
20
-3.09546104415125
30
0
41
1
10
29.1040717654017
20
-3.06858216997548
30
0
41
1
10
29.0106853101171
20
-3.01382890758751
30
0
41
1
10
28.8708859529066
20
-2.93017613119264
30
0
41
1
10
28.7318073915201
20
-2.84210446628273
30
0
41
1
10
28.4542966495332
20
-2.66043044803681
30
0
41
1
10
28.2701514079085
20
-2.53194935995597
30
0
41
1
10
27.90192761066
20
-2.26191664731314
30
0
41
1
10
27.7178510334829
20
-2.12036255888228
30
0
41
1
10
27.4405272547442
20
-1.89926874093993
30
0
41
1
10
27.3478841286173
20
-1.82410851304033
30
0
41
1
10
27.1619767910499
20
-1.67101628587113
30
0
41
1
10
27.0687180992341
20
-1.59306853023207
30
0
41
1
10
26.975
20
-1.51390193472284
30
0
0
SPLINE
5
FF
100
AcDbEntity
8
1
62
256
6
ByLayer
370
18
48
1
60
0
100
AcDbSpline
70
4
71
3
72
28
73
24
40
0
40
0
40
0
40
0
40
0.125000000000006
40
0.125000000000006
40
0.250000000000013
40
0.250000000000013
40
0.375000000000019
40
0.375000000000019
40
0.500000000000025
40
0.500000000000025
40
0.562500000000028
40
0.562500000000028
40
0.59375000000003
40
0.59375000000003
40
0.625000000000032
40
0.625000000000032
40
0.750000000000021
40
0.750000000000021
40
0.875000000000011
40
0.875000000000011
40
0.937500000000005
40
0.937500000000005
40
1
40
1
40
1
40
1
41
1
10
23.5880973217566
20
1.87804165549952
30
0
41
1
10
23.7441940066694
20
1.7612381603291
30
0
41
1
10
23.8961860453324
20
1.63932088114217
30
0
41
1
10
24.1931890351069
20
1.38562702981866
30
0
41
1
10
24.3382150021741
20
1.25385734004931
30
0
41
1
10
24.6228957724106
20
0.981354060562012
30
0
41
1
10
24.7625471313534
20
0.840617834250224
30
0
41
1
10
25.0384903594953
20
0.551525617422385
30
0
41
1
10
25.174774159263
20
0.403161672847489
30
0
41
1
10
25.3786279693282
20
0.176364498896419
30
0
41
1
10
25.4464915551865
20
0.100063754303392
30
0
41
1
10
25.5484343551855
20
-0.0152073690706516
30
0
41
1
10
25.5824597775046
20
-0.0537897157419138
30
0
41
1
10
25.6502959997478
20
-0.13082249144307
30
0
41
1
10
25.6841438137293
20
-0.169314662504263
30
0
41
1
10
25.8531646911346
20
-0.361525029388616
30
0
41
1
10
25.9876432580925
20
-0.514527104803335
30
0
41
1
10
26.2591054066992
20
-0.81518346626271
30
0
41
1
10
26.3960659775395
20
-0.962857766382314
30
0
41
1
10
26.6073817538426
20
-1.17660390018222
30
0
41
1
10
26.6788126068707
20
-1.24654681684703
30
0
41
1
10
26.8245196218161
20
-1.3830254182933
30
0
41
1
10
26.8987952400203
20
-1.44956148358085
30
0
41
1
10
26.975
20
-1.51393088750919
30
0
0
SPLINE
5
100
100
AcDbEntity
8
1
62
256
6
ByLayer
370
18
48
1
60
0
100
AcDbSpline
70
4
71
3
72
66
73
62
40
0
40
0
40
0
40
0
40
0.0624999999999654
40
0.0624999999999654
40
0.124999999999931
40
0.124999999999931
40
0.187499999999896
40
0.187499999999896
40
0.218749999999884
40
0.218749999999884
40
0.234374999999878
40
0.234374999999878
40
0.249999999999872
40
0.249999999999872
40
0.281249999999869
40
0.281249999999869
40
0.312499999999867
40
0.312499999999867
40
0.343749999999865
40
0.343749999999865
40
0.374999999999862
40
0.374999999999862
40
0.382812499999864
40
0.382812499999864
40
0.390624999999865
40
0.390624999999865
40
0.406249999999864
40
0.421874999999863
40
0.421874999999863
40
0.429687499999864
40
0.429687499999864
40
0.437499999999865
40
0.437499999999865
40
0.46874999999987
40
0.46874999999987
40
0.484374999999872
40
0.484374999999872
40
0.499999999999874
40
0.515624999999877
40
0.515624999999877
40
0.531249999999879
40
0.531249999999879
40
0.562499999999885
40
0.562499999999885
40
0.578124999999887
40
0.578124999999887
40
0.59374999999989
40
0.59374999999989
40
0.624999999999898
40
0.624999999999898
40
0.656249999999906
40
0.656249999999906
40
0.687499999999914
40
0.687499999999914
40
0.74999999999993
40
0.74999999999993
40
0.812499999999945
40
0.812499999999945
40
0.874999999999961
40
0.874999999999961
40
1
40
1
40
1
40
1
41
1
10
24.0230314031014
20
2.96802594682254
30
0
41
1
10
23.9400991275541
20
2.97919582860604
30
0
41
1
10
23.8572726209691
20
2.98942749033199
30
0
41
1
10
23.6918993586293
20
3.0082813815464
30
0
41
1
10
23.6093522554713
20
3.01690905429493
30
0
41
1
10
23.444601853914
20
3.03266718810372
30
0
41
1
10
23.3623981057365
20
3.03980411704018
30
0
41
1
10
23.2394033802378
20
3.04923454103206
30
0
41
1
10
23.1984570380102
20
3.05216265226841
30
0
41
1
10
23.1371237625701
20
3.05617147322002
30
0
41
1
10
23.1166937269465
20
3.05744350203469
30
0
41
1
10
23.0758641040921
20
3.05984357732868
30
0
41
1
10
23.0554404456341
20
3.06097264845991
30
0
41
1
10
22.9946528635632
20
3.06409241380658
30
0
41
1
10
22.9546470530134
20
3.06582673774861
30
0
41
1
10
22.8758181499828
20
3.06841257238648
30
0
41
1
10
22.8369936080514
20
3.06926581688612
30
0
41
1
10
22.7607548154259
20
3.06977556627646
30
0
41
1
10
22.7237525102446
20
3.06943016501242
30
0
41
1
10
22.6525716942826
20
3.06711469440327
30
0
41
1
10
22.6183599856494
20
3.06515208440035
30
0
41
1
10
22.5777964502863
20
3.06122958585067
30
0
41
1
10
22.5697949760172
20
3.06037048990538
30
0
41
1
10
22.5540320807517
20
3.05848607956813
30
0
41
1
10
22.5462652160381
20
3.05745943724028
30
0
41
1
10
22.5235598909055
20
3.05413309724955
30
0
41
1
10
22.4947335451801
20
3.04902810437824
30
0
41
1
10
22.469109995493
20
3.04234428324747
30
0
41
1
10
22.4512475144485
20
3.03662253104767
30
0
41
1
10
22.4455197539935
20
3.03459675191013
30
0
41
1
10
22.4345495750123
20
3.03028379272879
30
0
41
1
10
22.4293279423836
20
3.02800303204322
30
0
41
1
10
22.4048412410356
20
3.01606503121445
30
0
41
1
10
22.3901532929241
20
3.00471031933665
30
0
41
1
10
22.3759783017448
20
2.98443265718515
30
0
41
1
10
22.3725676460745
20
2.97707006696703
30
0
41
1
10
22.3685322533715
20
2.96164206922612
30
0
41
1
10
22.3671928199277
20
2.94545488536218
30
0
41
1
10
22.3707197243978
20
2.9277997789427
30
0
41
1
10
22.3764667607787
20
2.90943150446
30
0
41
1
10
22.3804171510509
20
2.90000307301531
30
0
41
1
10
22.3949016318143
20
2.8712483294286
30
0
41
1
10
22.4080708590996
20
2.85136202952788
30
0
41
1
10
22.4317044921895
20
2.82058953793322
30
0
41
1
10
22.4402563737155
20
2.81015192034826
30
0
41
1
10
22.4584217065093
20
2.78907901779868
30
0
41
1
10
22.4679896861184
20
2.77849340976704
30
0
41
1
10
22.497919961736
20
2.74658648963393
30
0
41
1
10
22.5194974792777
20
2.72511484378691
30
0
41
1
10
22.565072190361
20
2.68176805811754
30
0
41
1
10
22.5890756275699
20
2.65989314850344
30
0
41
1
10
22.6389860299133
20
2.61574334048129
30
0
41
1
10
22.6649191509949
20
2.59344901335621
30
0
41
1
10
22.7448948376012
20
2.52609580440321
30
0
41
1
10
22.8004326108374
20
2.48110053839633
30
0
41
1
10
22.9143564632684
20
2.39063221405561
30
0
41
1
10
22.9727635672289
20
2.34516354573543
30
0
41
1
10
23.0915969851842
20
2.25361088785257
30
0
41
1
10
23.1520310589668
20
2.20752848432079
30
0
41
1
10
23.3355925795036
20
2.06822870796222
30
0
41
1
10
23.4609368597497
20
1.97395542886829
30
0
41
1
10
23.5880973217566
20
1.87804165549949
30
0
0
SPLINE
5
101
100
AcDbEntity
8
1
62
256
6
ByLayer
370
18
48
1
60
0
100
AcDbSpline
70
4
71
3
72
22
73
18
40
0
40
0
40
0
40
0
40
0.250000000000036
40
0.250000000000036
40
0.312500000000039
40
0.312500000000039
40
0.375000000000041
40
0.375000000000041
40
0.500000000000033
40
0.500000000000033
40
0.750000000000016
40
0.750000000000016
40
0.875000000000008
40
0.875000000000008
40
0.937500000000004
40
0.937500000000004
40
1
40
1
40
1
40
1
41
1
10
35.0106487215253
20
1.30348217746422
30
0
41
1
10
35.074892958304
20
1.22706415754726
30
0
41
1
10
35.1328647569684
20
1.15379916136951
30
0
41
1
10
35.197333374451
20
1.06362031893769
30
0
41
1
10
35.2098511225473
20
1.04561573449666
30
0
41
1
10
35.2339225816656
20
1.00988603699983
30
0
41
1
10
35.2454669504791
20
0.992176622966355
30
0
41
1
10
35.2786827620305
20
0.939375072638654
30
0
41
1
10
35.2989310350445
20
0.90461255313005
30
0
41
1
10
35.3543448053317
20
0.800614728569457
30
0
41
1
10
35.3840411996266
20
0.731755358906668
30
0
41
1
10
35.4183726683031
20
0.62546453350339
30
0
41
1
10
35.4281221695618
20
0.58952572344657
30
0
41
1
10
35.4405601165353
20
0.534297421332667
30
0
41
1
10
35.4443418568225
20
0.515669183724697
30
0
41
1
10
35.4512263761205
20
0.478070620582656
30
0
41
1
10
35.454333632098
20
0.459078363956422
30
0
41
1
10
35.4571620957761
20
0.439854609622756
30
0
0
SPLINE
5
102
100
AcDbEntity
8
1
62
256
6
ByLayer
370
13
48
1
60
0
100
AcDbSpline
70
4
71
3
72
9
73
5
40
0
40
0
40
0
40
0
40
0.515023090643777
40
1
40
1
40
1
40
1
41
1
10
35.3105351199777
20
-1.90836474340418
30
0
41
1
10
34.5163984133185
20
-1.41755998171055
30
0
41
1
10
32.9744545255861
20
-0.273479287640583
30
0
41
1
10
31.4325106378537
20
0.919111871049523
30
0
41
1
10
30.6847034567805
20
1.43052824722267
30
0
0
SPLINE
5
103
100
AcDbEntity
8
1
62
256
6
ByLayer
370
18
48
1
60
0
100
AcDbSpline
70
4
71
3
72
18
73
14
40
0
40
0
40
0
40
0
40
0.249999999999995
40
0.249999999999995
40
0.49999999999999
40
0.49999999999999
40
0.624999999999993
40
0.624999999999993
40
0.749999999999995
40
0.749999999999995
40
0.874999999999998
40
0.874999999999998
40
1
40
1
40
1
40
1
41
1
10
34.4473117591019
20
-0.149831686080148
30
0
41
1
10
34.5232772466835
20
-0.295132923778908
30
0
41
1
10
34.5988193320087
20
-0.440701299418294
30
0
41
1
10
34.748462760925
20
-0.732237183492032
30
0
41
1
10
34.8225738687347
20
-0.878199493491195
30
0
41
1
10
34.9319858699316
20
-1.09762290022709
30
0
41
1
10
34.9681598200871
20
-1.17084519499741
30
0
41
1
10
35.0397173724726
20
-1.31750596365217
30
0
41
1
10
35.0751026565101
20
-1.39094397752191
30
0
41
1
10
35.1447905775642
20
-1.53811613518897
30
0
41
1
10
35.1790967060082
20
-1.61184932399715
30
0
41
1
10
35.2461643850929
20
-1.75973818068943
30
0
41
1
10
35.2789343505509
20
-1.83389154691918
30
0
41
1
10
35.3105351096735
20
-1.9083647191251
30
0
0
SPLINE
5
104
100
AcDbEntity
8
1
62
256
6
ByLayer
370
18
48
1
60
0
100
AcDbSpline
70
4
71
3
72
44
73
40
40
0
40
0
40
0
40
0
40
0.124999999999993
40
0.124999999999993
40
0.156249999999991
40
0.156249999999991
40
0.18749999999999
40
0.18749999999999
40
0.249999999999988
40
0.249999999999988
40
0.281249999999989
40
0.281249999999989
40
0.31249999999999
40
0.31249999999999
40
0.374999999999991
40
0.374999999999991
40
0.437499999999993
40
0.437499999999993
40
0.468749999999993
40
0.468749999999993
40
0.499999999999994
40
0.499999999999994
40
0.562499999999976
40
0.562499999999976
40
0.593749999999967
40
0.593749999999967
40
0.624999999999959
40
0.624999999999959
40
0.687499999999966
40
0.687499999999966
40
0.749999999999972
40
0.749999999999972
40
0.812499999999979
40
0.812499999999979
40
0.874999999999986
40
0.874999999999986
40
0.937499999999993
40
0.937499999999993
40
1
40
1
40
1
40
1
41
1
10
34.4473117591018
20
-0.149831686080148
30
0
41
1
10
34.4252187733911
20
-0.107573836227345
30
0
41
1
10
34.4096636619424
20
-0.063216297032227
30
0
41
1
10
34.3981844507665
20
-0.0051910563257707
30
0
41
1
10
34.3962861608928
20
0.006589610917672
30
0
41
1
10
34.3933354186285
20
0.0301809331534457
30
0
41
1
10
34.3922823714909
20
0.0419646019365416
30
0
41
1
10
34.3903357604187
20
0.0772776247664524
30
0
41
1
10
34.3906494720801
20
0.100769118984914
30
0
41
1
10
34.3934186644357
20
0.135920588601039
30
0
41
1
10
34.3947261525404
20
0.147623421326614
30
0
41
1
10
34.3981064803366
20
0.170998350760328
30
0
41
1
10
34.4001884726526
20
0.182702988831721
30
0
41
1
10
34.4074732096917
20
0.217256738867377
30
0
41
1
10
34.4137208327692
20
0.239692028855188
30
0
41
1
10
34.4288031515257
20
0.283391711559972
30
0
41
1
10
34.4376380723049
20
0.304656214298575
30
0
41
1
10
34.4528247294354
20
0.335648386187017
30
0
41
1
10
34.4582092013658
20
0.345816607590251
30
0
41
1
10
34.4694507055374
20
0.365535390603355
30
0
41
1
10
34.4753269978875
20
0.375126858514051
30
0
41
1
10
34.493702415421
20
0.403112357956047
30
0
41
1
10
34.5069430734628
20
0.420721332015972
30
0
41
1
10
34.5283016283334
20
0.445552074803487
30
0
41
1
10
34.5356719790645
20
0.45356425581565
30
0
41
1
10
34.5509322638397
20
0.469045111975873
30
0
41
1
10
34.5587844600303
20
0.476472028111516
30
0
41
1
10
34.5827823981819
20
0.497616594941178
30
0
41
1
10
34.5994544139161
20
0.510294842963674
30
0
41
1
10
34.6342198223785
20
0.532846388890391
30
0
41
1
10
34.6523122703828
20
0.542720384373411
30
0
41
1
10
34.690126659834
20
0.559512797114536
30
0
41
1
10
34.7094100046656
20
0.566232531992881
30
0
41
1
10
34.7487740642441
20
0.576380409083072
30
0
41
1
10
34.768868112324
20
0.579814683433312
30
0
41
1
10
34.8100831626013
20
0.583294864866446
30
0
41
1
10
34.831304681762
20
0.583307854442069
30
0
41
1
10
34.8737030739845
20
0.579823410541138
30
0
41
1
10
34.8950224633832
20
0.576353563145346
30
0
41
1
10
34.9165430049347
20
0.571140194393593
30
0
0
SPLINE
5
105
100
AcDbEntity
8
1
62
256
6
ByLayer
370
18
48
1
60
0
100
AcDbSpline
70
4
71
3
72
10
73
6
40
0
40
0
40
0
40
0
40
0.5
40
0.5
40
1
40
1
40
1
40
1
41
1
10
35.4571620957758
20
0.439854609623239
30
0
41
1
10
35.3723978392644
20
0.460510111202666
30
0
41
1
10
35.2842767387068
20
0.481936100200244
30
0
41
1
10
35.103507924106
20
0.525827059658127
30
0
41
1
10
35.0108401188375
20
0.548296641603571
30
0
41
1
10
34.9165430049347
20
0.571140194393564
30
0
0
SPLINE
5
106
100
AcDbEntity
8
1
62
256
6
ByLayer
370
18
48
1
60
0
100
AcDbSpline
70
4
71
3
72
24
73
20
40
0
40
0
40
0
40
0
40
0.135508225090037
40
0.135508225090037
40
0.271016450180074
40
0.271016450180074
40
0.406524675270111
40
0.406524675270111
40
0.542032900360149
40
0.542032900360149
40
0.677541125450186
40
0.677541125450186
40
0.745295237995204
40
0.745295237995204
40
0.813049350540223
40
0.813049350540223
40
0.948557575630267
40
0.948557575630267
40
1
40
1
40
1
40
1
41
1
10
24.0239979278723
20
-3.71141082563153
30
0
41
1
10
24.1591768921562
20
-3.7439888764639
30
0
41
1
10
24.2912951177267
20
-3.77479473013639
30
0
41
1
10
24.5501134773193
20
-3.83084114246384
30
0
41
1
10
24.6768135767228
20
-3.8560830647246
30
0
41
1
10
24.9258295556365
20
-3.89905938836196
30
0
41
1
10
25.0481450308036
20
-3.9167917426274
30
0
41
1
10
25.2897546689139
20
-3.94293266498943
30
0
41
1
10
25.4090555845845
20
-3.95131862540129
30
0
41
1
10
25.6463104541631
20
-3.95726120313986
30
0
41
1
10
25.7642539986261
20
-3.95483640363855
30
0
41
1
10
25.9416384276651
20
-3.94226801976117
30
0
41
1
10
26.0008481294515
20
-3.93659160097462
30
0
41
1
10
26.1197277358141
20
-3.92214841502607
30
0
41
1
10
26.17947778934
20
-3.91336489172147
30
0
41
1
10
26.358955255591
20
-3.88241770358721
30
0
41
1
10
26.479092022518
20
-3.8556338651272
30
0
41
1
10
26.6475256872334
20
-3.81037683292388
30
0
41
1
10
26.6941543904844
20
-3.79705552031461
30
0
41
1
10
26.7411577174399
20
-3.78288887651971
30
0
0
SPLINE
5
107
100
AcDbEntity
8
1
62
256
6
ByLayer
370
18
48
1
60
0
100
AcDbSpline
70
4
71
3
72
76
73
72
40
0
40
0
40
0
40
0
40
0.0624999999999806
40
0.0624999999999806
40
0.124999999999961
40
0.124999999999961
40
0.187499999999942
40
0.187499999999942
40
0.203124999999939
40
0.203124999999939
40
0.218749999999936
40
0.218749999999936
40
0.249999999999934
40
0.249999999999934
40
0.281249999999932
40
0.281249999999932
40
0.296874999999931
40
0.296874999999931
40
0.31249999999993
40
0.31249999999993
40
0.328124999999929
40
0.328124999999929
40
0.343749999999928
40
0.343749999999928
40
0.359374999999927
40
0.359374999999927
40
0.374999999999925
40
0.374999999999925
40
0.382812499999925
40
0.382812499999925
40
0.390624999999924
40
0.406249999999925
40
0.406249999999925
40
0.414062499999925
40
0.414062499999925
40
0.421874999999926
40
0.437499999999928
40
0.437499999999928
40
0.445312499999929
40
0.445312499999929
40
0.45312499999993
40
0.45312499999993
40
0.468749999999932
40
0.468749999999932
40
0.476562499999933
40
0.476562499999933
40
0.484374999999934
40
0.484374999999934
40
0.499999999999936
40
0.499999999999936
40
0.531249999999938
40
0.531249999999938
40
0.546874999999939
40
0.546874999999939
40
0.56249999999994
40
0.56249999999994
40
0.593749999999945
40
0.593749999999945
40
0.624999999999949
40
0.624999999999949
40
0.687499999999959
40
0.687499999999959
40
0.749999999999968
40
0.749999999999968
40
0.781249999999973
40
0.781249999999973
40
0.812499999999978
40
0.812499999999978
40
0.874999999999987
40
0.874999999999987
40
1
40
1
40
1
40
1
41
1
10
23.9492967882397
20
-1.67442655666238
30
0
41
1
10
23.8419939752333
20
-1.66312945358905
30
0
41
1
10
23.7347185807174
20
-1.65626678897053
30
0
41
1
10
23.5203476724326
20
-1.65259782647598
30
0
41
1
10
23.4132522794798
20
-1.65581042920334
30
0
41
1
10
23.1993339360072
20
-1.67390294686055
30
0
41
1
10
23.0925112887362
20
-1.68872252081573
30
0
41
1
10
22.9591856340937
20
-1.71630317566539
30
0
41
1
10
22.9324811316715
20
-1.72229084553075
30
0
41
1
10
22.879402710712
20
-1.73518305773544
30
0
41
1
10
22.8530232369806
20
-1.74208670505735
30
0
41
1
10
22.7743907309887
20
-1.76425139453764
30
0
41
1
10
22.7226399226566
20
-1.78095453815064
30
0
41
1
10
22.6206844006664
20
-1.81883799459783
30
0
41
1
10
22.5704760684131
20
-1.84000710946177
30
0
41
1
10
22.4965873429464
20
-1.87593159104804
30
0
41
1
10
22.4721870075094
20
-1.88861136155461
30
0
41
1
10
22.4239749991961
20
-1.91557233672609
30
0
41
1
10
22.400355923868
20
-1.92974571492235
30
0
41
1
10
22.3542187067208
20
-1.95965902287591
30
0
41
1
10
22.3316997819837
20
-1.97539783888877
30
0
41
1
10
22.2879421063063
20
-2.00869700010614
30
0
41
1
10
22.2666675063414
20
-2.02628683269495
30
0
41
1
10
22.2258075099577
20
-2.06353111466294
30
0
41
1
10
22.2064495504846
20
-2.08297567023348
30
0
41
1
10
22.1702017575167
20
-2.12374463819702
30
0
41
1
10
22.1533096817595
20
-2.14506741361342
30
0
41
1
10
22.1301721733582
20
-2.17871577836925
30
0
41
1
10
22.1228079293659
20
-2.19024445818906
30
0
41
1
10
22.1089845213102
20
-2.213762504849
30
0
41
1
10
22.0897489720568
20
-2.24947725694241
30
0
41
1
10
22.0751357658322
20
-2.28652373884992
30
0
41
1
10
22.0638332146613
20
-2.3244992485929
30
0
41
1
10
22.0606060878839
20
-2.3373802848385
30
0
41
1
10
22.0553744602521
20
-2.36308761913836
30
0
41
1
10
22.0493504274259
20
-2.40150826958671
30
0
41
1
10
22.0485290142167
20
-2.43950403546225
30
0
41
1
10
22.0508917604943
20
-2.47721176013187
30
0
41
1
10
22.0522203977383
20
-2.48978043262795
30
0
41
1
10
22.0558344975524
20
-2.51443895261934
30
0
41
1
10
22.058117696911
20
-2.52656249251217
30
0
41
1
10
22.0662486688476
20
-2.56237231641194
30
0
41
1
10
22.0733734199106
20
-2.58549947478886
30
0
41
1
10
22.0861597627861
20
-2.6192474462369
30
0
41
1
10
22.0907727856235
20
-2.63033924578707
30
0
41
1
10
22.1006389453252
20
-2.65223171040984
30
0
41
1
10
22.1059062246463
20
-2.66305777235723
30
0
41
1
10
22.1224457301778
20
-2.6948641760404
30
0
41
1
10
22.1344630648391
20
-2.71522359314812
30
0
41
1
10
22.1728593075463
20
-2.77426103987182
30
0
41
1
10
22.2015503591542
20
-2.81092339127417
30
0
41
1
10
22.2477361968979
20
-2.86305348931592
30
0
41
1
10
22.2636666864658
20
-2.87994489683396
30
0
41
1
10
22.2964396015098
20
-2.91288343335296
30
0
41
1
10
22.313253602443
20
-2.92889826169326
30
0
41
1
10
22.3644449105581
20
-2.97546081243974
30
0
41
1
10
22.3996984611592
20
-3.00467751071474
30
0
41
1
10
22.4718354792074
20
-3.06033396334982
30
0
41
1
10
22.5087240356648
20
-3.08676674576949
30
0
41
1
10
22.6212674166717
20
-3.16269929542594
30
0
41
1
10
22.6987699916118
20
-3.20887650953841
30
0
41
1
10
22.8569551302885
20
-3.29482318405385
30
0
41
1
10
22.9376639051696
20
-3.33455352370115
30
0
41
1
10
23.0604125174506
20
-3.39031376490701
30
0
41
1
10
23.101604853023
20
-3.40825065614101
30
0
41
1
10
23.1842059192719
20
-3.44284570595508
30
0
41
1
10
23.2256498078536
20
-3.4595197747721
30
0
41
1
10
23.3503300174585
20
-3.50783740294054
30
0
41
1
10
23.4339110671295
20
-3.53778535281637
30
0
41
1
10
23.685568110011
20
-3.62174237284395
30
0
41
1
10
23.8545284514661
20
-3.66993733697552
30
0
41
1
10
24.0239979278723
20
-3.71141082563153
30
0
0
SPLINE
5
108
100
AcDbEntity
8
1
62
256
6
ByLayer
370
13
48
1
60
0
100
AcDbSpline
70
4
71
5
72
12
73
6
40
0
40
0
40
0
40
0
40
0
40
0
40
1
40
1
40
1
40
1
40
1
40
1
41
1
10
16.6600000000576
20
3.08694122633088
30
0
41
0.986738382654206
10
16.6600000000575
20
2.93853245431662
30
0
41
0.98021749304045
10
16.6600000000575
20
2.6740273378243
30
0
41
0.98021749304045
10
16.6600000000575
20
2.30268893508475
30
0
41
0.986738382654206
10
16.6600000000575
20
1.83799425308561
30
0
41
1
10
16.6600000000575
20
1.29714878470176
30
0
0
SPLINE
5
109
100
AcDbEntity
8
1
62
256
6
ByLayer
370
18
48
1
60
0
100
AcDbSpline
70
4
71
3
72
8
73
4
40
0
40
0
40
0
40
0
40
1
40
1
40
1
40
1
41
1
10
34.9706332720094
20
1.3598035399437
30
0
41
1
10
34.9850577967864
20
1.34068792537823
30
0
41
1
10
34.9983740398772
20
1.32197425285591
30
0
41
1
10
35.0106487215255
20
1.30348217746391
30
0
0
SPLINE
5
10A
100
AcDbEntity
8
1
62
256
6
ByLayer
370
18
48
1
60
0
100
AcDbSpline
70
4
71
3
72
62
73
58
40
0
40
0
40
0
40
0
40
0.027095366931162
40
0.027095366931162
40
0.0595255213667914
40
0.0595255213667914
40
0.0919556758024209
40
0.0919556758024209
40
0.156815984673677
40
0.156815984673677
40
0.189246139109305
40
0.189246139109305
40
0.221676293544934
40
0.221676293544934
40
0.286536602416193
40
0.286536602416193
40
0.318966756851823
40
0.318966756851823
40
0.335181834069637
40
0.335181834069637
40
0.351396911287451
40
0.351396911287451
40
0.416257220158705
40
0.416257220158705
40
0.432472297376518
40
0.432472297376518
40
0.448687374594332
40
0.448687374594332
40
0.481117529029959
40
0.481117529029959
40
0.545977837901212
40
0.545977837901212
40
0.578407992336839
40
0.578407992336839
40
0.610838146772466
40
0.610838146772466
40
0.643268301208093
40
0.643268301208093
40
0.675698455643719
40
0.675698455643719
40
0.708128610079346
40
0.708128610079346
40
0.740558764514973
40
0.740558764514973
40
0.7729889189506
40
0.7729889189506
40
0.789203996168413
40
0.789203996168413
40
0.805419073386227
40
0.805419073386227
40
0.870279382257485
40
0.870279382257485
40
0.902709536693113
40
0.902709536693113
40
0.935139691128741
40
0.935139691128741
40
1
40
1
40
1
40
1
41
1
10
27.2681866506449
20
3.62861642848176
30
0
41
1
10
27.3382693927638
20
3.6639608672796
30
0
41
1
10
27.4083418514665
20
3.69791594489766
30
0
41
1
10
27.5623314845835
20
3.76950558861517
30
0
41
1
10
27.6462570981078
20
3.80653872827162
30
0
41
1
10
27.8142743415533
20
3.87665332566729
30
0
41
1
10
27.8981845737008
20
3.90965813506767
30
0
41
1
10
28.149609533053
20
4.0024581778118
30
0
41
1
10
28.3168925127191
20
4.05609258142235
30
0
41
1
10
28.5679655325376
20
4.12387054684447
30
0
41
1
10
28.6516814514614
20
4.14434558688876
30
0
41
1
10
28.8192794277309
20
4.1809354448053
30
0
41
1
10
28.9031903056798
20
4.1970500416522
30
0
41
1
10
29.154311412306
20
4.2384407570805
30
0
41
1
10
29.3212185700396
20
4.25699769401601
30
0
41
1
10
29.5717462441859
20
4.26906719532519
30
0
41
1
10
29.6552902622824
20
4.27046066550795
30
0
41
1
10
29.7808160800312
20
4.26842376690993
30
0
41
1
10
29.8227148584361
20
4.26705581529157
30
0
41
1
10
29.9064035183466
20
4.2629364622567
30
0
41
1
10
29.9482132638581
20
4.26018544225718
30
0
41
1
10
30.1571546825816
20
4.24297854642066
30
0
41
1
10
30.3239761755673
20
4.21810922951928
30
0
41
1
10
30.5330626007348
20
4.17386699411935
30
0
41
1
10
30.5749069507033
20
4.16436467163251
30
0
41
1
10
30.6586704109424
20
4.14407503731346
30
0
41
1
10
30.7006112595573
20
4.13328095544006
30
0
41
1
10
30.8264071660537
20
4.09906094437514
30
0
41
1
10
30.9101778337707
20
4.07381124177914
30
0
41
1
10
31.1614258964819
20
3.99146043300135
30
0
41
1
10
31.3288501371579
20
3.92789818380581
30
0
41
1
10
31.5803733128375
20
3.82143364040709
30
0
41
1
10
31.6643202083649
20
3.78404808375578
30
0
41
1
10
31.8319427087228
20
3.70584033085336
30
0
41
1
10
31.9156643016355
20
3.66500053656398
30
0
41
1
10
32.0829922217484
20
3.57985297739805
30
0
41
1
10
32.1665976020286
20
3.53554620823661
30
0
41
1
10
32.3337720939341
20
3.44332177354616
30
0
41
1
10
32.4173396649372
20
3.39540590282243
30
0
41
1
10
32.5845699426378
20
3.2956307860338
30
0
41
1
10
32.6680947643241
20
3.24385054855645
30
0
41
1
10
32.8348372473828
20
3.13622357105973
30
0
41
1
10
32.9180977432223
20
3.08033958889391
30
0
41
1
10
33.0847013756301
20
2.96374791375121
30
0
41
1
10
33.168048902706
20
2.90305941799525
30
0
41
1
10
33.2933917741543
20
2.80845226267232
30
0
41
1
10
33.3352581641674
20
2.77629909954646
30
0
41
1
10
33.4188957815712
20
2.71103910451276
30
0
41
1
10
33.4606833402925
20
2.67792117966232
30
0
41
1
10
33.6695574137127
20
2.51006508811466
30
0
41
1
10
33.8365034791645
20
2.36855649646603
30
0
41
1
10
34.087880119425
20
2.1489355314344
30
0
41
1
10
34.1718707050104
20
2.07445274616199
30
0
41
1
10
34.3396118851383
20
1.92402075636844
30
0
41
1
10
34.4234383125831
20
1.84800305387199
30
0
41
1
10
34.6749428868998
20
1.61790631681944
30
0
41
1
10
34.8426545838489
20
1.46180955588991
30
0
41
1
10
35.0106487215252
20
1.30348217746442
30
0
0
SPLINE
5
10B
100
AcDbEntity
8
1
62
256
6
ByLayer
370
18
48
1
60
0
100
AcDbSpline
70
4
71
3
72
8
73
4
40
0
40
0
40
0
40
0
40
1
40
1
40
1
40
1
41
1
10
35.9645307539363
20
-3.26702692073687
30
0
41
1
10
35.9389384905643
20
-3.3665019524245
30
0
41
1
10
35.910519130604
20
-3.46341948799426
30
0
41
1
10
35.8789500621455
20
-3.55787418180137
30
0
0
SPLINE
5
10C
100
AcDbEntity
8
1
62
256
6
ByLayer
370
18
48
1
60
0
100
AcDbSpline
70
4
71
3
72
8
73
4
40
0
40
0
40
0
40
0
40
1
40
1
40
1
40
1
41
1
10
35.9645307539363
20
-3.2670269207369
30
0
41
1
10
35.9520221426873
20
-3.22446419876863
30
0
41
1
10
35.939740926029
20
-3.18112812566264
30
0
41
1
10
35.9276886548308
20
-3.13701342703368
30
0
0
SPLINE
5
10D
100
AcDbEntity
8
1
62
256
6
ByLayer
370
18
48
1
60
0
100
AcDbSpline
70
4
71
3
72
62
73
58
40
0
40
0
40
0
40
0
40
0.0327048562975435
40
0.0327048562975435
40
0.0490572844463166
40
0.0490572844463166
40
0.0654097125950896
40
0.0654097125950896
40
0.130819425190184
40
0.130819425190184
40
0.16352428148773
40
0.16352428148773
40
0.179876709636502
40
0.179876709636502
40
0.196229137785274
40
0.196229137785274
40
0.261638850380356
40
0.261638850380356
40
0.327048562975437
40
0.327048562975437
40
0.392458275570519
40
0.392458275570519
40
0.408810703719291
40
0.408810703719291
40
0.425163131868062
40
0.425163131868062
40
0.457867988165606
40
0.457867988165606
40
0.523277700760695
40
0.523277700760695
40
0.539630128909468
40
0.539630128909468
40
0.555982557058241
40
0.555982557058241
40
0.588687413355787
40
0.588687413355787
40
0.654097125950879
40
0.654097125950879
40
0.670449554099654
40
0.670449554099654
40
0.686801982248428
40
0.719506838545974
40
0.75221169484352
40
0.75221169484352
40
0.784916551141066
40
0.784916551141066
40
0.850326263736158
40
0.850326263736158
40
0.883031120033702
40
0.883031120033702
40
0.899383548182473
40
0.899383548182473
40
0.915735976331244
40
0.915735976331244
40
0.981145688926326
40
0.981145688926326
40
1
40
1
40
1
40
1
41
1
10
35.9276886548307
20
-3.13701342703365
30
0
41
1
10
35.8341213299407
20
-3.083249633946
30
0
41
1
10
35.7405641467179
20
-3.02718620530817
30
0
41
1
10
35.6001262490398
20
-2.93973194619252
30
0
41
1
10
35.5532964807372
20
-2.91002047495874
30
0
41
1
10
35.4595816018459
20
-2.84949029131099
30
0
41
1
10
35.4127062929965
20
-2.81867712293365
30
0
41
1
10
35.1787139592433
20
-2.6622685201657
30
0
41
1
10
34.9923004782654
20
-2.52936390565796
30
0
41
1
10
34.7127040935638
20
-2.31930481694491
30
0
41
1
10
34.6195081458756
20
-2.24749935104083
30
0
41
1
10
34.4795623931335
20
-2.13721863420164
30
0
41
1
10
34.4328451508496
20
-2.09999445097424
30
0
41
1
10
34.339610976044
20
-2.02493069419077
30
0
41
1
10
34.293085779634
20
-1.98708552708294
30
0
41
1
10
34.0608501113374
20
-1.79636602487713
30
0
41
1
10
33.8763480119359
20
-1.63894973016215
30
0
41
1
10
33.50781525434
20
-1.31680187005668
30
0
41
1
10
33.3237503164797
20
-1.15212675081204
30
0
41
1
10
32.9541529017507
20
-0.817674148666043
30
0
41
1
10
32.7685614751858
20
-0.647967238052416
30
0
41
1
10
32.5350662522897
20
-0.433155038588637
30
0
41
1
10
32.4882927940693
20
-0.390058055339438
30
0
41
1
10
32.394582361862
20
-0.303607676310065
30
0
41
1
10
32.3476028054212
20
-0.260214876019006
30
0
41
1
10
32.2067920261707
20
-0.130039778494762
30
0
41
1
10
32.113071580959
20
-0.0432444872700728
30
0
41
1
10
31.832174134822
20
0.216965623699963
30
0
41
1
10
31.6452713708028
20
0.390216995593931
30
0
41
1
10
31.4113121047178
20
0.605640091191731
30
0
41
1
10
31.3645029154265
20
0.648666704768033
30
0
41
1
10
31.2708268602767
20
0.7345782981414
30
0
41
1
10
31.223997184103
20
0.777429028902645
30
0
41
1
10
31.0837203734673
20
0.905423336326464
30
0
41
1
10
30.9903973336129
20
0.990091485667961
30
0
41
1
10
30.7107134168251
20
1.24177357826946
30
0
41
1
10
30.5245845118955
20
1.40642886319702
30
0
41
1
10
30.2910057745909
20
1.60712776307145
30
0
41
1
10
30.2442238869305
20
1.64703309190889
30
0
41
1
10
30.1507554319023
20
1.72613693606814
30
0
41
1
10
30.0106396484336
20
1.84378167403119
30
0
41
1
10
29.7773600438587
20
2.03466604504897
30
0
41
1
10
29.5906400710763
20
2.18153346995553
30
0
41
1
10
29.4037102414817
20
2.32531464094856
30
0
41
1
10
29.3100988482663
20
2.39568811258758
30
0
41
1
10
29.0289967216642
20
2.60173679077536
30
0
41
1
10
28.8424321832777
20
2.73151683743762
30
0
41
1
10
28.5627308294468
20
2.91414505780014
30
0
41
1
10
28.4695151451165
20
2.97301379178529
30
0
41
1
10
28.3295602400101
20
3.05819867339744
30
0
41
1
10
28.2828866617936
20
3.08607370529492
30
0
41
1
10
28.1894685423195
20
3.14076330501447
30
0
41
1
10
28.142699005228
20
3.16759183083468
30
0
41
1
10
27.9089038586336
20
3.29886005123947
30
0
41
1
10
27.7225597041553
20
3.39440856466737
30
0
41
1
10
27.4822629011138
20
3.50476023272074
30
0
41
1
10
27.4284805417667
20
3.52862902797906
30
0
41
1
10
27.3746621232954
20
3.55166104103498
30
0
0
SPLINE
5
10E
100
AcDbEntity
8
1
62
256
6
ByLayer
370
13
48
1
60
0
100
AcDbSpline
70
4
71
3
72
14
73
10
40
0
40
0
40
0
40
0
40
0.151001877597209
40
0.324025037397579
40
0.49704819719795
40
0.67007135699832
40
0.785420130198567
40
0.900768903398814
40
1
40
1
40
1
40
1
41
1
10
32.5432710849511
20
-3.98058924615003
30
0
41
1
10
32.0021807233007
20
-4.1348395402355
30
0
41
1
10
30.8410903616503
20
-4.26212732803907
30
0
41
1
10
29.06
20
-3.74147038069333
30
0
41
1
10
27.1999999999999
20
-2.50716473128926
30
0
41
1
10
25.5466666666667
20
-0.997775268714207
30
0
41
1
10
24.1
20
0.421062592325512
30
0
41
1
10
22.9177550398626
20
1.54663158806599
30
0
41
1
10
22.1488434130585
20
2.20214250061267
30
0
41
1
10
21.7932651195877
20
2.4797054733709
30
0
0
SPLINE
5
10F
100
AcDbEntity
8
1
62
256
6
ByLayer
370
18
48
1
60
0
100
AcDbSpline
70
4
71
3
72
8
73
4
40
0
40
0
40
0
40
0
40
1
40
1
40
1
40
1
41
1
10
15.8931480404082
20
1.94954939527898
30
0
41
1
10
15.8442620036519
20
1.99784739225205
30
0
41
1
10
15.7949499520262
20
2.04653808721486
30
0
41
1
10
15.7454103599272
20
2.09577678665323
30
0
0
SPLINE
5
110
100
AcDbEntity
8
1
62
256
6
ByLayer
370
13
48
1
60
0
100
AcDbSpline
70
4
71
1
72
4
73
2
40
0
40
0
40
1
40
1
41
1
10
16.66
20
1.19785146795849
30
0
41
1
10
16.1366977924263
20
1.70316013318154
30
0
0
SPLINE
5
111
100
AcDbEntity
8
1
62
256
6
ByLayer
370
18
48
1
60
0
100
AcDbSpline
70
4
71
3
72
8
73
4
40
0
40
0
40
0
40
0
40
1
40
1
40
1
40
1
41
1
10
34.1947938906366
20
2.22156383415691
30
0
41
1
10
34.1957475982659
20
2.22058741453989
30
0
41
1
10
34.1967013822214
20
2.21961047344118
30
0
41
1
10
34.1976552444639
20
2.21863300691854
30
0
0
SPLINE
5
112
100
AcDbEntity
8
1
62
256
6
ByLayer
370
13
48
1
60
0
100
AcDbSpline
70
4
71
3
72
13
73
9
40
0
40
0
40
0
40
0
40
0.105609331444388
40
0.266423948782035
40
0.507645874788506
40
0.748867800794977
40
0.990089726801447
40
1
40
1
40
1
40
1
41
1
10
34.8343262917207
20
1.51983632122389
30
0
41
1
10
34.5628841944804
20
1.78364829030929
30
0
41
1
10
33.8781087639069
20
2.42618519611037
30
0
41
0.999999999999999
10
32.5733333333334
20
3.48049401908299
30
0
41
1
10
30.92
20
4.36348937024235
30
0
41
1
10
29.06
20
4.53892630855572
30
0
41
1
10
27.7945281472342
20
4.09135623171488
30
0
41
1
10
27.1490562944685
20
3.73187457955137
30
0
41
1
10
27.1235844417027
20
3.71748742735602
30
0
0
SPLINE
5
113
100
AcDbEntity
8
1
62
256
6
ByLayer
370
13
48
1
60
0
100
AcDbSpline
70
4
71
5
72
12
73
6
40
0
40
0
40
0
40
0
40
0
40
0
40
1
40
1
40
1
40
1
40
1
40
1
41
0.979258241289874
10
26.975000000002
20
2.63810112933333
30
0
41
0.905396739571899
10
26.975000000002
20
2.24055194436944
30
0
41
0.874011218143849
10
26.975000000002
20
1.58445754912883
30
0
41
0.877748765445641
10
26.975000000002
20
0.808496244462086
30
0
41
0.917020185917508
10
26.975000000002
20
0.0768195862740887
30
0
41
1
10
26.975000000002
20
-0.455563376003767
30
0
0
SPLINE
5
114
100
AcDbEntity
8
1
62
256
6
ByLayer
370
13
48
1
60
0
100
AcDbSpline
70
4
71
3
72
10
73
6
40
0
40
0
40
0
40
0
40
0.373407762922584
40
0.58227184194839
40
1
40
1
40
1
40
1
41
1
10
32.675477581178
20
-3.00330376270884
30
0
41
1
10
31.965943387452
20
-2.95709126814381
30
0
41
1
10
30.859534193726
20
-2.6842781825809
30
0
41
1
10
28.959375
20
-1.7987186159211
30
0
41
1
10
27.76875
20
-1.00246394260361
30
0
41
1
10
26.975
20
-0.455563376002374
30
0
0
SPLINE
5
115
100
AcDbEntity
8
1
62
256
6
ByLayer
370
13
48
1
60
0
100
AcDbSpline
70
4
71
3
72
14
73
10
40
0
40
0
40
0
40
0
40
0.0746020492004801
40
0.206801756457554
40
0.339001463714629
40
0.471201170971703
40
0.603400878228777
40
0.735600585485852
40
1
40
1
40
1
40
1
41
1
10
26.0397484557868
20
-3.97812534727055
30
0
41
1
10
25.8064989705245
20
-4.04517539882312
30
0
41
1
10
25.159916151929
20
-4.18250381269164
30
0
41
1
10
24.1
20
-4.17439747629899
30
0
41
1
10
22.86
20
-3.81855035156118
30
0
41
1
10
21.62
20
-3.1455979808612
30
0
41
1
10
20.38
20
-2.21168739240181
30
0
41
1
10
18.7266666666667
20
-0.720532536685653
30
0
41
1
10
17.4866666666667
20
0.531716688026534
30
0
41
1
10
16.66
20
1.29714878475502
30
0
0
SPLINE
5
116
100
AcDbEntity
8
1
62
256
6
ByLayer
370
18
48
1
60
0
100
AcDbSpline
70
4
71
5
72
12
73
6
40
0
40
0
40
0
40
0
40
0
40
0
40
1
40
1
40
1
40
1
40
1
40
1
41
1
10
16.66
20
1.29714878475502
30
0
41
0.982046625131475
10
16.66
20
1.26378264134935
30
0
41
0.973271389990443
10
16.66
20
1.23596340433085
30
0
41
0.973271389990443
10
16.66
20
1.21509011502679
30
0
41
0.982046625131475
10
16.66
20
1.20218657004222
30
0
41
1
10
16.66
20
1.19785146795849
30
0
0
SPLINE
5
117
100
AcDbEntity
8
1
62
256
6
ByLayer
370
18
48
1
60
0
100
AcDbSpline
70
4
71
3
72
20
73
16
40
0
40
0
40
0
40
0
40
0.124999999999999
40
0.124999999999999
40
0.249999999999999
40
0.249999999999999
40
0.374999999999998
40
0.374999999999998
40
0.499999999999997
40
0.499999999999997
40
0.624999999999997
40
0.624999999999997
40
0.749999999999996
40
0.749999999999996
40
1
40
1
40
1
40
1
41
1
10
35.8789500621455
20
-3.55787418180137
30
0
41
1
10
35.8769903611399
20
-3.563738468585
30
0
41
1
10
35.8747630092391
20
-3.56983075653844
30
0
41
1
10
35.8697353514551
20
-3.58248621193079
30
0
41
1
10
35.8668978803824
20
-3.58912847766564
30
0
41
1
10
35.8607859449863
20
-3.60248408522108
30
0
41
1
10
35.8575282033706
20
-3.60917295667409
30
0
41
1
10
35.8506245443343
20
-3.62256552619843
30
0
41
1
10
35.8469611474395
20
-3.62929343191598
30
0
41
1
10
35.8395303360628
20
-3.64228597767334
30
0
41
1
10
35.8357317082541
20
-3.64861417089736
30
0
41
1
10
35.8279834146005
20
-3.66097473042905
30
0
41
1
10
35.8240809525892
20
-3.66692998512835
30
0
41
1
10
35.8124485430702
20
-3.68401161984093
30
0
41
1
10
35.8047216330546
20
-3.69447687673943
30
0
41
1
10
35.7970099903305
20
-3.70425112603724
30
0
0
SPLINE
5
118
100
AcDbEntity
8
1
62
256
6
ByLayer
370
13
48
1
60
0
100
AcDbSpline
70
4
71
3
72
12
73
8
40
0
40
0
40
0
40
0
40
0.267959056835274
40
0.446699323850434
40
0.714809724373173
40
0.982920124895913
40
1
40
1
40
1
40
1
41
1
10
35.8789500621455
20
-3.55787418180137
30
0
41
1
10
35.2593000414303
20
-3.24452242438681
30
0
41
1
10
34.2263166873819
20
-2.53379990299595
30
0
41
0.999999999999999
10
32.5733333333334
20
-1.07000514691444
30
0
41
1
10
30.92
20
0.567703433124961
30
0
41
1
10
29.6405031265334
20
1.76291776761005
30
0
41
1
10
28.9810062530667
20
2.29864649266636
30
0
41
1
10
28.9415093796001
20
2.33043226970506
30
0
0
SPLINE
5
119
100
AcDbEntity
8
1
62
256
6
ByLayer
370
18
48
1
60
0
100
AcDbSpline
70
4
71
3
72
8
73
4
40
0
40
0
40
0
40
0
40
1
40
1
40
1
40
1
41
1
10
34.9706346953664
20
3.99569756152039
30
0
41
1
10
34.9850652114036
20
3.98097126629145
30
0
41
1
10
34.9983869992546
20
3.96515579114902
30
0
41
1
10
35.0106666100866
20
3.94848080888647
30
0
0
SPLINE
5
11A
100
AcDbEntity
8
1
62
256
6
ByLayer
370
18
48
1
60
0
100
AcDbSpline
70
4
71
3
72
10
73
6
40
0
40
0
40
0
40
0
40
0.5
40
0.5
40
1
40
1
40
1
40
1
41
1
10
34.8343262917208
20
4.07997618092728
30
0
41
1
10
34.8594083277325
20
4.07068829607101
30
0
41
1
10
34.8835885946065
20
4.05943626767231
30
0
41
1
10
34.9293976277999
20
4.03189767205018
30
0
41
1
10
34.9510639606749
20
4.01566943336815
30
0
41
1
10
34.9706346953689
20
3.99569756152346
30
0
0
SPLINE
5
11B
100
AcDbEntity
8
1
62
256
6
ByLayer
370
18
48
1
60
0
100
AcDbSpline
70
4
71
3
72
8
73
4
40
0
40
0
40
0
40
0
40
1
40
1
40
1
40
1
41
1
10
18.3606304581588
20
-2.21559495627113
30
0
41
1
10
17.7937536387725
20
-1.8852613850664
30
0
41
1
10
17.2268768193863
20
-1.49741960783498
30
0
41
1
10
16.66
20
-1.07982741742086
30
0
0
SPLINE
5
11C
100
AcDbEntity
8
1
62
256
6
ByLayer
370
18
48
1
60
0
100
AcDbSpline
70
4
71
3
72
14
73
10
40
0
40
0
40
0
40
0
40
0.0001253479297891
40
0.0001253479297891
40
0.250094010947342
40
0.250094010947342
40
0.500062673964895
40
0.500062673964895
40
1
40
1
40
1
40
1
41
1
10
34.0039809583606
20
3.52009231545989
30
0
41
1
10
34.0040229769835
20
3.52011410538503
30
0
41
1
10
34.0040649956468
20
3.52013589477579
30
0
41
1
10
34.0879006532614
20
3.56360898995049
30
0
41
1
10
34.1718912768604
20
3.6049699325346
30
0
41
1
10
34.3396302048086
20
3.68363888544096
30
0
41
1
10
34.423455864813
20
3.72098665991945
30
0
41
1
10
34.6749590987231
20
3.82756516376912
30
0
41
1
10
34.8426711971035
20
3.89137545303632
30
0
41
1
10
35.0106666100861
20
3.94848080888696
30
0
0
SPLINE
5
11D
100
AcDbEntity
8
1
62
256
6
ByLayer
370
18
48
1
60
0
100
AcDbSpline
70
4
71
5
72
12
73
6
40
0
40
0
40
0
40
0
40
0
40
0
40
1
40
1
40
1
40
1
40
1
40
1
41
1
10
16.6600000000699
20
4.40086521230097
30
0
41
0.931595193923144
10
16.6600000000698
20
4.0651946939855
30
0
41
0.900317301818724
10
16.6600000000698
20
3.70397168615477
30
0
41
0.900317301818724
10
16.6600000000698
20
3.38480042221919
30
0
41
0.931595193923144
10
16.6600000000698
20
3.16620377498242
30
0
41
1
10
16.6600000000699
20
3.08694122632724
30
0
0
SPLINE
5
11E
100
AcDbEntity
8
1
62
256
6
ByLayer
370
18
48
1
60
0
100
AcDbSpline
70
4
71
3
72
12
73
8
40
0
40
0
40
0
40
0
40
0.149437842892332
40
0.319550274313865
40
0.489662705735399
40
0.659775137156933
40
1
40
1
40
1
40
1
41
1
10
23.949296788236
20
-1.67442655665985
30
0
41
1
10
23.586197858824
20
-1.42890172786554
30
0
41
1
10
22.8097655960787
20
-0.864165417270868
30
0
41
1
10
21.62
20
0.0628200547193956
30
0
41
1
10
20.38
20
1.03026647595487
30
0
41
1
10
18.7266666666667
20
2.19918647738118
30
0
41
1
10
17.4866666666667
20
2.84252392174002
30
0
41
1
10
16.66
20
3.0869412263479
30
0
0
SPLINE
5
11F
100
AcDbEntity
8
1
62
256
6
ByLayer
370
18
48
1
60
0
100
AcDbSpline
70
4
71
3
72
14
73
10
40
0
40
0
40
0
40
0
40
0.248402172662624
40
0.248402172662624
40
0.37366847721884
40
0.37366847721884
40
0.498934781775055
40
0.498934781775055
40
1
40
1
40
1
40
1
41
1
10
24.4229021725727
20
-1.73724794208565
30
0
41
1
10
24.3841274951718
20
-1.73015674665373
30
0
41
1
10
24.3450456718492
20
-1.72372489661274
30
0
41
1
10
24.2858362456666
20
-1.7148122658601
30
0
41
1
10
24.2659231375902
20
-1.7119546818964
30
0
41
1
10
24.2261785103472
20
-1.70648498817957
30
0
41
1
10
24.2063200899523
20
-1.70386872240889
30
0
41
1
10
24.1071099497491
20
-1.69126944843302
30
0
41
1
10
24.0280082575292
20
-1.68271084810257
30
0
41
1
10
23.9492967882398
20
-1.67442655666241
30
0
0
SPLINE
5
120
100
AcDbEntity
8
1
62
256
6
ByLayer
370
18
48
1
60
0
100
AcDbSpline
70
4
71
3
72
9
73
5
40
0
40
0
40
0
40
0
40
0.739621982932209
40
1
40
1
40
1
40
1
41
1
10
24.023031403099
20
2.96802594682339
30
0
41
1
10
23.6353542687326
20
3.10608927277298
30
0
41
1
10
23.1111984927924
20
3.24380118501978
30
0
41
1
10
22.5870427168521
20
3.307420822474
30
0
41
1
10
22.4505640752781
20
3.31893849759666
30
0
0
SPLINE
5
121
100
AcDbEntity
8
1
62
256
6
ByLayer
370
18
48
1
60
0
100
AcDbSpline
70
4
71
3
72
51
73
47
40
0
40
0
40
0
40
0
40
0.0624999999999896
40
0.0624999999999896
40
0.124999999999979
40
0.124999999999979
40
0.187499999999969
40
0.187499999999969
40
0.249999999999959
40
0.249999999999959
40
0.281249999999953
40
0.281249999999953
40
0.296874999999954
40
0.296874999999954
40
0.312499999999955
40
0.312499999999955
40
0.374999999999952
40
0.374999999999952
40
0.437499999999949
40
0.437499999999949
40
0.468749999999948
40
0.468749999999948
40
0.484374999999947
40
0.484374999999947
40
0.499999999999946
40
0.562499999999941
40
0.562499999999941
40
0.624999999999937
40
0.624999999999937
40
0.656249999999939
40
0.656249999999939
40
0.687499999999941
40
0.687499999999941
40
0.749999999999945
40
0.749999999999945
40
0.781249999999952
40
0.781249999999952
40
0.812499999999959
40
0.812499999999959
40
0.874999999999973
40
0.874999999999973
40
0.906249999999979
40
0.906249999999979
40
0.937499999999986
40
0.937499999999986
40
1
40
1
40
1
40
1
41
1
10
26.975
20
2.63797683056686
30
0
41
1
10
26.9201399267269
20
2.68115311742142
30
0
41
1
10
26.8652742784898
20
2.7245005896477
30
0
41
1
10
26.7556675849761
20
2.81057106983857
30
0
41
1
10
26.7009251750403
20
2.85331809746017
30
0
41
1
10
26.5916100848602
20
2.93686232631668
30
0
41
1
10
26.5370419101914
20
2.97769944636926
30
0
41
1
10
26.4280094459409
20
3.05476076849337
30
0
41
1
10
26.3735659150686
20
3.09094393749194
30
0
41
1
10
26.2915896038113
20
3.13829507383139
30
0
41
1
10
26.2642056513338
20
3.15291406315618
30
0
41
1
10
26.2229200388143
20
3.17278536520075
30
0
41
1
10
26.2090760870441
20
3.17908736370436
30
0
41
1
10
26.1815874791384
20
3.19086277143378
30
0
41
1
10
26.1679352249636
20
3.19634317251439
30
0
41
1
10
26.1000377873546
20
3.22181121775304
30
0
41
1
10
26.0468580576905
20
3.23602915515548
30
0
41
1
10
25.9404444679342
20
3.25502757533002
30
0
41
1
10
25.8872200437322
20
3.25981413346389
30
0
41
1
10
25.8061229099882
20
3.2610232748743
30
0
41
1
10
25.7788844747998
20
3.26042059283012
30
0
41
1
10
25.7375821732566
20
3.25807689055401
30
0
41
1
10
25.7237231668834
20
3.25705351453934
30
0
41
1
10
25.6959566844267
20
3.25454683414458
30
0
41
1
10
25.6263865413544
20
3.24713124177995
30
0
41
1
10
25.5557995874006
20
3.23419727042895
30
0
41
1
10
25.4402576523667
20
3.20746297270162
30
0
41
1
10
25.3811982832995
20
3.19101615788665
30
0
41
1
10
25.2895172594524
20
3.16289457592851
30
0
41
1
10
25.2584338693475
20
3.1529823998419
30
0
41
1
10
25.1950056615792
20
3.13249452363075
30
0
41
1
10
25.1627259247745
20
3.12194043798124
30
0
41
1
10
25.064555352715
20
3.09018353968784
30
0
41
1
10
24.9970920224143
20
3.06881410775867
30
0
41
1
10
24.8921599220717
20
3.03891575895182
30
0
41
1
10
24.8565194168644
20
3.0293014231732
30
0
41
1
10
24.7847032020106
20
3.0113749668115
30
0
41
1
10
24.7484402030601
20
3.00303647606935
30
0
41
1
10
24.6385915677321
20
2.98037305700819
30
0
41
1
10
24.5639391615681
20
2.96842281303978
30
0
41
1
10
24.4499857973888
20
2.95675797234478
30
0
41
1
10
24.4116740560618
20
2.95390757905108
30
0
41
1
10
24.334442432202
20
2.95046470769762
30
0
41
1
10
24.2954250794576
20
2.94987631099255
30
0
41
1
10
24.1785057614524
20
2.95166340681615
30
0
41
1
10
24.1006486800146
20
2.95757521158313
30
0
41
1
10
24.0230314031014
20
2.96802594682254
30
0
0
SPLINE
5
122
100
AcDbEntity
8
1
62
256
6
ByLayer
370
18
48
1
60
0
100
AcDbSpline
70
4
71
3
72
8
73
4
40
0
40
0
40
0
40
0
40
1
40
1
40
1
40
1
41
1
10
26.9749270675108
20
2.63804239486191
30
0
41
1
10
26.9749513795277
20
2.63834990605747
30
0
41
1
10
26.9749756915739
20
2.6386570449549
30
0
41
1
10
26.9750000036496
20
2.63896381121137
30
0
0
SPLINE
5
123
100
AcDbEntity
8
1
62
256
6
ByLayer
370
18
48
1
60
0
100
AcDbSpline
70
4
71
3
72
20
73
16
40
0
40
0
40
0
40
0
40
0.234810674778193
40
0.234810674778193
40
0.352216012167294
40
0.352216012167294
40
0.469621349556395
40
0.469621349556395
40
0.704432024334598
40
0.704432024334598
40
0.821837361723694
40
0.821837361723694
40
0.93924269911279
40
0.93924269911279
40
1
40
1
40
1
40
1
41
1
10
26.9750000000021
20
2.63896376494242
30
0
41
1
10
27.1429818901024
20
2.50666423721853
30
0
41
1
10
27.3106486712155
20
2.36896904756188
30
0
41
1
10
27.5623403515828
20
2.15537531012364
30
0
41
1
10
27.6462684314074
20
2.08299505984343
30
0
41
1
10
27.8142916033601
20
1.93598490542371
30
0
41
1
10
27.8981937265195
20
1.8615234972753
30
0
41
1
10
28.1496133445223
20
1.6355569797727
30
0
41
1
10
28.3168958537596
20
1.48142975155741
30
0
41
1
10
28.5679723463949
20
1.24558033151735
30
0
41
1
10
28.651690115393
20
1.16618554478052
30
0
41
1
10
28.8192931084218
20
1.00591521077547
30
0
41
1
10
28.9032025812476
20
0.92501445830365
30
0
41
1
10
29.0302255871835
20
0.801697678046196
30
0
41
1
10
29.0735093979237
20
0.759524758661541
30
0
41
1
10
29.1167701526172
20
0.717239806781379
30
0
0
SPLINE
5
124
100
AcDbEntity
8
1
62
256
6
ByLayer
370
18
48
1
60
0
100
AcDbSpline
70
4
71
3
72
21
73
17
40
0
40
0
40
0
40
0
40
0.247908267151409
40
0.247908267151409
40
0.495816534302819
40
0.495816534302819
40
0.55779360109067
40
0.55779360109067
40
0.588782134484595
40
0.588782134484595
40
0.61977066787852
40
0.743724801454216
40
0.743724801454216
40
0.991633068605606
40
0.991633068605606
40
1
40
1
40
1
40
1
41
1
10
12.7296905846994
20
-4.24900046049638
30
0
41
1
10
12.7961210533538
20
-4.32918169067096
30
0
41
1
10
12.8656671215427
20
-4.39077745993413
30
0
41
1
10
13.0114862203205
20
-4.47933002525048
30
0
41
1
10
13.0877493646596
20
-4.50627428954715
30
0
41
1
10
13.1876856207252
20
-4.51838007883896
30
0
41
1
10
13.2079040706441
20
-4.51971700818706
30
0
41
1
10
13.2385893707841
20
-4.52008100343957
30
0
41
1
10
13.2488783876877
20
-4.51992795177179
30
0
41
1
10
13.2694934343628
20
-4.5190774764622
30
0
41
1
10
13.3211755280062
20
-4.51559049527057
30
0
41
1
10
13.3735856492624
20
-4.50539008613123
30
0
41
1
10
13.5008408580144
20
-4.46844233425799
30
0
41
1
10
13.5876126039194
20
-4.42724824648036
30
0
41
1
10
13.6796987593404
20
-4.36786745917047
30
0
41
1
10
13.6827079239344
20
-4.36591020754912
30
0
41
1
10
13.6857198403775
20
-4.36393436825239
30
0
0
SPLINE
5
125
100
AcDbEntity
8
1
62
256
6
ByLayer
370
18
48
1
60
0
100
AcDbSpline
70
4
71
3
72
67
73
63
40
0
40
0
40
0
40
0
40
0.124999999999985
40
0.124999999999985
40
0.187499999999979
40
0.187499999999979
40
0.249999999999974
40
0.249999999999974
40
0.374999999999963
40
0.374999999999963
40
0.437499999999957
40
0.437499999999957
40
0.499999999999951
40
0.499999999999951
40
0.531249999999948
40
0.531249999999948
40
0.562499999999945
40
0.562499999999945
40
0.62499999999994
40
0.62499999999994
40
0.656249999999939
40
0.656249999999939
40
0.687499999999939
40
0.687499999999939
40
0.718749999999938
40
0.718749999999938
40
0.749999999999938
40
0.749999999999938
40
0.765624999999938
40
0.765624999999938
40
0.781249999999938
40
0.781249999999938
40
0.812499999999942
40
0.812499999999942
40
0.820312499999942
40
0.820312499999942
40
0.828124999999942
40
0.828124999999942
40
0.843749999999947
40
0.843749999999947
40
0.859374999999951
40
0.859374999999951
40
0.874999999999956
40
0.874999999999956
40
0.88281249999996
40
0.88281249999996
40
0.890624999999965
40
0.906249999999973
40
0.906249999999973
40
0.914062499999976
40
0.914062499999976
40
0.921874999999979
40
0.921874999999979
40
0.937499999999984
40
0.937499999999984
40
0.945312499999986
40
0.945312499999986
40
0.953124999999988
40
0.953124999999988
40
0.968749999999992
40
0.968749999999992
40
1
40
1
40
1
40
1
41
1
10
15.7054353086354
20
-4.49936183982371
30
0
41
1
10
15.5902021015899
20
-4.48788584377658
30
0
41
1
10
15.4740585871602
20
-4.47173828649426
30
0
41
1
10
15.2968987789926
20
-4.44129328663922
30
0
41
1
10
15.2373532023416
20
-4.43011137815074
30
0
41
1
10
15.1169849314609
20
-4.40586210587753
30
0
41
1
10
15.0561291721368
20
-4.39278679478446
30
0
41
1
10
14.871382873002
20
-4.35111979860724
30
0
41
1
10
14.7457067906438
20
-4.32013773250637
30
0
41
1
10
14.5513148131213
20
-4.27090554649502
30
0
41
1
10
14.4855312800711
20
-4.25404234349949
30
0
41
1
10
14.3514982518765
20
-4.21988474570944
30
0
41
1
10
14.2832524568136
20
-4.20258821136721
30
0
41
1
10
14.1785715281312
20
-4.17676427667195
30
0
41
1
10
14.1432978088218
20
-4.16817979199925
30
0
41
1
10
14.0722009855192
20
-4.15122270271789
30
0
41
1
10
14.0363417291953
20
-4.14284090956801
30
0
41
1
10
13.9277128185196
20
-4.11815313633531
30
0
41
1
10
13.8539086769495
20
-4.10228824444891
30
0
41
1
10
13.740434900711
20
-4.08027047035941
30
0
41
1
10
13.7021458378905
20
-4.07323106466035
30
0
41
1
10
13.6244545117172
20
-4.05996728935153
30
0
41
1
10
13.5849791899695
20
-4.05373344981967
30
0
41
1
10
13.5054609444439
20
-4.04248442212946
30
0
41
1
10
13.4653440941529
20
-4.03745713775788
30
0
41
1
10
13.3842320803746
20
-4.02895635768445
30
0
41
1
10
13.3432409759117
20
-4.02547572353274
30
0
41
1
10
13.2809249848746
20
-4.02177413811171
30
0
41
1
10
13.2600677853402
20
-4.02079976789841
30
0
41
1
10
13.2184535115295
20
-4.01945034165806
30
0
41
1
10
13.1976566634643
20
-4.01907255289538
30
0
41
1
10
13.1353011005098
20
-4.01895191441176
30
0
41
1
10
13.0937764379773
20
-4.02019828425702
30
0
41
1
10
13.0419511174631
20
-4.02406561115208
30
0
41
1
10
13.0315863116199
20
-4.02495764523738
30
0
41
1
10
13.0110823372158
20
-4.02697775229561
30
0
41
1
10
13.0009172668017
20
-4.02810751088856
30
0
41
1
10
12.9707028604186
20
-4.03188012485566
30
0
41
1
10
12.9509322203011
20
-4.03490399589742
30
0
41
1
10
12.9122829763912
20
-4.04214306753562
30
0
41
1
10
12.8932848643457
20
-4.04639773974475
30
0
41
1
10
12.8575047718311
20
-4.0560346030598
30
0
41
1
10
12.8406173267582
20
-4.06142935385193
30
0
41
1
10
12.8169813363753
20
-4.07045314541134
30
0
41
1
10
12.8093609397097
20
-4.07362756199612
30
0
41
1
10
12.7948348252425
20
-4.08025035074039
30
0
41
1
10
12.7743205213944
20
-4.09049767916503
30
0
41
1
10
12.7575291232573
20
-4.10162009623062
30
0
41
1
10
12.7431498580613
20
-4.11325479175204
30
0
41
1
10
12.7387417840592
20
-4.11723745984861
30
0
41
1
10
12.7308218325646
20
-4.12526407239892
30
0
41
1
10
12.7273141434566
20
-4.1292978363573
30
0
41
1
10
12.718038825819
20
-4.14144239852322
30
0
41
1
10
12.713514221461
20
-4.14959583884604
30
0
41
1
10
12.7088900529181
20
-4.16185389638764
30
0
41
1
10
12.7077143864656
20
-4.1659419167313
30
0
41
1
10
12.7060546017346
20
-4.17400913604112
30
0
41
1
10
12.7055642913988
20
-4.17800322600698
30
0
41
1
10
12.7050071206262
20
-4.18986958741431
30
0
41
1
10
12.705849497007
20
-4.19762605836195
30
0
41
1
10
12.7113968009009
20
-4.22044824866794
30
0
41
1
10
12.7191476558754
20
-4.23511746383255
30
0
41
1
10
12.7296905846993
20
-4.2490004604964
30
0
0
SPLINE
5
126
100
AcDbEntity
8
1
62
256
6
ByLayer
370
18
48
1
60
0
100
AcDbSpline
70
4
71
3
72
8
73
4
40
0
40
0
40
0
40
0
40
1
40
1
40
1
40
1
41
1
10
15.2425665816893
20
-3.84986506287123
30
0
41
1
10
15.3975706458524
20
-3.93804748856104
30
0
41
1
10
15.5514465181403
20
-4.01847796420995
30
0
41
1
10
15.7054353086354
20
-4.09047934444888
30
0
0
SPLINE
5
127
100
AcDbEntity
8
1
62
256
6
ByLayer
370
18
48
1
60
0
100
AcDbSpline
70
4
71
3
72
18
73
14
40
0
40
0
40
0
40
0
40
0.0624999999999971
40
0.0624999999999971
40
0.124999999999994
40
0.124999999999994
40
0.249999999999988
40
0.249999999999988
40
0.499999999999992
40
0.499999999999992
40
0.749999999999996
40
0.749999999999996
40
1
40
1
40
1
40
1
41
1
10
14.8350988543443
20
-3.54405473829482
30
0
41
1
10
14.8410626294467
20
-3.55197233092241
30
0
41
1
10
14.8475122982322
20
-3.55966960040823
30
0
41
1
10
14.8610241764487
20
-3.57476345013689
30
0
41
1
10
14.8680923070928
20
-3.58215776158022
30
0
41
1
10
14.889966041537
20
-3.60398813467876
30
0
41
1
10
14.9054427417765
20
-3.61808759247981
30
0
41
1
10
14.9534101485314
20
-3.6593116598809
30
0
41
1
10
14.9873520728824
20
-3.68533041860832
30
0
41
1
10
15.0573438666169
20
-3.73541947853124
30
0
41
1
10
15.0934555824648
20
-3.75946935525621
30
0
41
1
10
15.1670342420927
20
-3.80586849491399
30
0
41
1
10
15.2045326501299
20
-3.82822729997846
30
0
41
1
10
15.2425665816893
20
-3.84986506287123
30
0
0
SPLINE
5
128
100
AcDbEntity
8
1
62
256
6
ByLayer
370
18
48
1
60
0
100
AcDbSpline
70
4
71
3
72
8
73
4
40
0
40
0
40
0
40
0
40
1
40
1
40
1
40
1
41
1
10
15.2423779882528
20
2.56672909962032
30
0
41
1
10
15.3974457117372
20
2.42814269805237
30
0
41
1
10
15.5513839569484
20
2.2837902690886
30
0
41
1
10
15.7054353086354
20
2.13456051170968
30
0
0
SPLINE
5
129
100
AcDbEntity
8
1
62
256
6
ByLayer
370
18
48
1
60
0
100
AcDbSpline
70
4
71
3
72
18
73
14
40
0
40
0
40
0
40
0
40
0.0625000000000032
40
0.0625000000000032
40
0.125000000000006
40
0.125000000000006
40
0.249999999999998
40
0.249999999999998
40
0.499999999999999
40
0.499999999999999
40
0.749999999999999
40
0.749999999999999
40
1
40
1
40
1
40
1
41
1
10
14.8351043052197
20
2.98686701616609
30
0
41
1
10
14.8410728184126
20
2.9773017702116
30
0
41
1
10
14.8475245228336
20
2.96791564941864
30
0
41
1
10
14.8610379814298
20
2.94935084644877
30
0
41
1
10
14.8681055825146
20
2.94017466974145
30
0
41
1
10
14.8899754366074
20
2.91285337102934
30
0
41
1
10
14.9054463783318
20
2.89489598259246
30
0
41
1
10
14.9533938103702
20
2.84152729440066
30
0
41
1
10
14.9873177125423
20
2.80666930457744
30
0
41
1
10
15.057270002005
20
2.73744154947696
30
0
41
1
10
15.0933600119248
20
2.70309023703882
30
0
41
1
10
15.1668935027614
20
2.634726214674
30
0
41
1
10
15.2043683186142
20
2.600699094828
30
0
41
1
10
15.2423779882527
20
2.56672909962029
30
0
0
SPLINE
5
12A
100
AcDbEntity
8
1
62
256
6
ByLayer
370
18
48
1
60
0
100
AcDbSpline
70
4
71
3
72
30
73
26
40
0
40
0
40
0
40
0
40
0.0169521571349159
40
0.0169521571349159
40
0.03879766475414
40
0.126179695231038
40
0.126179695231038
40
0.300943756184832
40
0.300943756184832
40
0.388325786661729
40
0.388325786661729
40
0.410171294280953
40
0.410171294280953
40
0.432016801900177
40
0.475707817138625
40
0.475707817138625
40
0.650471878092416
40
0.650471878092416
40
0.737853908569312
40
0.737853908569312
40
0.78154492380776
40
0.78154492380776
40
0.825235939046207
40
0.825235939046207
40
1
40
1
40
1
40
1
41
1
10
13.2352430303664
20
4.51999992894463
30
0
41
1
10
13.2431997382022
20
4.51999877993518
30
0
41
1
10
13.2511872525188
20
4.51983269937844
30
0
41
1
10
13.2694934343602
20
4.51907747646223
30
0
41
1
10
13.3211755280036
20
4.51559049527086
30
0
41
1
10
13.3735856492598
20
4.50539008613171
30
0
41
1
10
13.5008408580117
20
4.46844233425887
30
0
41
1
10
13.5876126039168
20
4.42724824648147
30
0
41
1
10
13.7212321621997
20
4.34108508183908
30
0
41
1
10
13.7663678289114
20
4.30828743949201
30
0
41
1
10
13.8236831875317
20
4.26213936773172
30
0
41
1
10
13.8352020534807
20
4.2526425090318
30
0
41
1
10
13.8582649988671
20
4.23318887724193
30
0
41
1
10
13.8929005785747
20
4.2033173462849
30
0
41
1
10
13.9276731641522
20
4.17139707653951
30
0
41
1
10
14.0439442128182
20
4.0605349966871
30
0
41
1
10
14.1381189533449
20
3.95763089519704
30
0
41
1
10
14.2822099919093
20
3.78292688605518
30
0
41
1
10
14.3307120363369
20
3.72128870478312
30
0
41
1
10
14.4043258785687
20
3.62374610204003
30
0
41
1
10
14.4290074842125
20
3.59038367957956
30
0
41
1
10
14.4786866601816
20
3.5219578455752
30
0
41
1
10
14.5037051576249
20
3.48686445506618
30
0
41
1
10
14.6294309328686
20
3.30745737441993
30
0
41
1
10
14.7311790595746
20
3.15256614572436
30
0
41
1
10
14.8351043052197
20
2.98686701616609
30
0
0
SPLINE
5
12B
100
AcDbEntity
8
1
62
256
6
ByLayer
370
18
48
1
60
0
100
AcDbSpline
70
4
71
3
72
22
73
18
40
0
40
0
40
0
40
0
40
0.226333912747422
40
0.226333912747422
40
0.339500869121132
40
0.339500869121132
40
0.452667825494843
40
0.452667825494843
40
0.679001738242265
40
0.679001738242265
40
0.792168694615972
40
0.792168694615972
40
0.905335650989679
40
0.905335650989679
40
0.961919129176529
40
0.961919129176529
40
1
40
1
40
1
40
1
41
1
10
15.7054353086354
20
4.49936183982359
30
0
41
1
10
15.5902021015901
20
4.4878858437765
30
0
41
1
10
15.4740585871607
20
4.4717382864942
30
0
41
1
10
15.2968987789934
20
4.44129328663931
30
0
41
1
10
15.2373532023426
20
4.43011137815085
30
0
41
1
10
15.1169849314622
20
4.40586210587773
30
0
41
1
10
15.0561291721383
20
4.39278679478471
30
0
41
1
10
14.8713828730041
20
4.35111979860764
30
0
41
1
10
14.7457067906463
20
4.32013773250685
30
0
41
1
10
14.5513148131243
20
4.27090554649564
30
0
41
1
10
14.4855312800744
20
4.25404234350015
30
0
41
1
10
14.3514982518802
20
4.21988474571017
30
0
41
1
10
14.2832524568176
20
4.20258821136798
30
0
41
1
10
14.1785715281355
20
4.17676427667274
30
0
41
1
10
14.1432978088262
20
4.16817979200005
30
0
41
1
10
14.0838251967644
20
4.15399515834579
30
0
41
1
10
14.0597602043823
20
4.14833289132548
30
0
41
1
10
14.0355423684682
20
4.14273145067378
30
0
0
SPLINE
5
12C
100
AcDbEntity
8
1
62
256
6
ByLayer
370
18
48
1
60
0
100
AcDbSpline
70
4
71
3
72
61
73
57
40
0
40
0
40
0
40
0
40
0.125000000000002
40
0.125000000000002
40
0.187500000000003
40
0.187500000000003
40
0.250000000000004
40
0.250000000000004
40
0.375000000000006
40
0.375000000000006
40
0.500000000000009
40
0.500000000000009
40
0.56250000000001
40
0.56250000000001
40
0.625000000000011
40
0.625000000000011
40
0.687500000000012
40
0.687500000000012
40
0.703125000000012
40
0.703125000000012
40
0.718750000000012
40
0.718750000000012
40
0.750000000000012
40
0.750000000000012
40
0.781250000000012
40
0.781250000000012
40
0.796875000000013
40
0.796875000000013
40
0.812500000000013
40
0.812500000000013
40
0.828125000000013
40
0.828125000000013
40
0.83593750000001
40
0.83593750000001
40
0.843750000000008
40
0.843750000000008
40
0.875000000000008
40
0.875000000000008
40
0.890625000000006
40
0.890625000000006
40
0.906250000000003
40
0.906250000000003
40
0.914062500000004
40
0.914062500000004
40
0.921875000000004
40
0.937500000000003
40
0.937500000000003
40
0.945312500000002
40
0.945312500000002
40
0.953125000000002
40
0.953125000000002
40
0.968750000000002
40
0.968750000000002
40
0.984375000000001
40
0.984375000000001
40
1
40
1
40
1
40
1
41
1
10
15.7054353086354
20
0.666331829641962
30
0
41
1
10
15.5923146510733
20
0.783069677690236
30
0
41
1
10
15.478317478501
20
0.897900487652834
30
0
41
1
10
15.3045141605203
20
1.06591909086293
30
0
41
1
10
15.2461103221846
20
1.12121994865967
30
0
41
1
10
15.1280876977129
20
1.23016566234293
30
0
41
1
10
15.0684459897286
20
1.28383126741895
30
0
41
1
10
14.8873899381913
20
1.44181095050234
30
0
41
1
10
14.7642760902268
20
1.54278861925491
30
0
41
1
10
14.5105695850995
20
1.7335211358315
30
0
41
1
10
14.3800071468876
20
1.82330602155187
30
0
41
1
10
14.1755217867291
20
1.94667180743542
30
0
41
1
10
14.1063135899638
20
1.98564897661049
30
0
41
1
10
13.9653366029761
20
2.05856184631426
30
0
41
1
10
13.8935678894987
20
2.09251426591206
30
0
41
1
10
13.7466780504069
20
2.15422831726028
30
0
41
1
10
13.6715795452598
20
2.18202827786914
30
0
41
1
10
13.5747132713575
20
2.21149924232961
30
0
41
1
10
13.5551536093385
20
2.21713331623042
30
0
41
1
10
13.5159158344999
20
2.22774309606669
30
0
41
1
10
13.4962303079973
20
2.23272148813294
30
0
41
1
10
13.4369572034759
20
2.24660391196107
30
0
41
1
10
13.3971549694247
20
2.25446428109601
30
0
41
1
10
13.3168565094318
20
2.26685059292308
30
0
41
1
10
13.276362299894
20
2.27138637671374
30
0
41
1
10
13.2149525321704
20
2.27499923144683
30
0
41
1
10
13.194336341573
20
2.27566798540815
30
0
41
1
10
13.1529873592798
20
2.27574378416511
30
0
41
1
10
13.1323874792711
20
2.27515228886276
30
0
41
1
10
13.0913582888898
20
2.27252925223158
30
0
41
1
10
13.0709288255101
20
2.27049905698431
30
0
41
1
10
13.0404353230062
20
2.26617833820689
30
0
41
1
10
13.0302960224071
20
2.26452478136531
30
0
41
1
10
13.0100730090338
20
2.26074620582287
30
0
41
1
10
12.999988236716
20
2.25861903365399
30
0
41
1
10
12.9502953385331
20
2.246821097506
30
0
41
1
10
12.9123856156019
20
2.23368684048899
30
0
41
1
10
12.8594001536155
20
2.20609590504685
30
0
41
1
10
12.8422814986739
20
2.19544523094766
30
0
41
1
10
12.810981114744
20
2.17190819328565
30
0
41
1
10
12.7966366851026
20
2.15896393364426
30
0
41
1
10
12.7771938194826
20
2.13765395572395
30
0
41
1
10
12.7710301848869
20
2.13019199498427
30
0
41
1
10
12.7596146793714
20
2.11487554515003
30
0
41
1
10
12.7438241396867
20
2.09129886430034
30
0
41
1
10
12.731828503313
20
2.06598749102773
30
0
41
1
10
12.7221760455081
20
2.03957918259243
30
0
41
1
10
12.7193576720008
20
2.0306013186933
30
0
41
1
10
12.7145468495922
20
2.01261228880941
30
0
41
1
10
12.7125387078041
20
2.00356082972368
30
0
41
1
10
12.7075956407588
20
1.97624621247331
30
0
41
1
10
12.7057373428933
20
1.95782328980681
30
0
41
1
10
12.7044563849138
20
1.92059243479596
30
0
41
1
10
12.7050464610459
20
1.90171994097662
30
0
41
1
10
12.7082917447129
20
1.86415018024067
30
0
41
1
10
12.7109383832094
20
1.84540363260919
30
0
41
1
10
12.7144458889088
20
1.82668159353443
30
0
0
SPLINE
5
12D
100
AcDbEntity
8
1
62
256
6
ByLayer
370
18
48
1
60
0
100
AcDbSpline
70
4
71
5
72
12
73
6
40
0
40
0
40
0
40
0
40
0
40
0
40
1
40
1
40
1
40
1
40
1
40
1
41
0.921150940618434
10
16.6600000000351
20
-0.465245417446594
30
0
41
0.923476460177599
10
16.6600000000351
20
-0.552876571442545
30
0
41
0.93236591846565
10
16.660000000035
20
-0.662755191534078
30
0
41
0.947860720300407
10
16.6600000000351
20
-0.790585756463205
30
0
41
0.970235875723426
10
16.660000000035
20
-0.931414120883086
30
0
41
1
10
16.660000000035
20
-1.07982741744667
30
0
0
SPLINE
5
12E
100
AcDbEntity
8
1
62
256
6
ByLayer
370
18
48
1
60
0
100
AcDbSpline
70
4
71
3
72
39
73
35
40
0
40
0
40
0
40
0
40
0.0625
40
0.0625
40
0.125
40
0.1875
40
0.1875
40
0.218750000000001
40
0.218750000000001
40
0.250000000000001
40
0.250000000000001
40
0.312500000000002
40
0.312500000000002
40
0.375000000000003
40
0.437500000000004
40
0.437500000000004
40
0.468750000000004
40
0.468750000000004
40
0.484375000000004
40
0.484375000000004
40
0.500000000000004
40
0.500000000000004
40
0.625000000000003
40
0.625000000000003
40
0.750000000000002
40
0.750000000000002
40
0.765625000000002
40
0.765625000000002
40
0.781250000000003
40
0.812500000000002
40
0.812500000000002
40
0.875000000000002
40
0.875000000000002
40
1
40
1
40
1
40
1
41
1
10
12.7144458889089
20
1.82668159353443
30
0
41
1
10
12.7401073103265
20
1.70709463431854
30
0
41
1
10
12.7674237094646
20
1.58648990235545
30
0
41
1
10
12.8253147700157
20
1.34337551571861
30
0
41
1
10
12.8864630898037
20
1.0983554046436
30
0
41
1
10
12.9540212436404
20
0.849654244741146
30
0
41
1
10
13.007071547097
20
0.661757954953032
30
0
41
1
10
13.0251521563044
20
0.598897073344887
30
0
41
1
10
13.0621075298003
20
0.472714990835811
30
0
41
1
10
13.0809935477011
20
0.409356649634333
30
0
41
1
10
13.1387768838447
20
0.218813647962264
30
0
41
1
10
13.1783546936226
20
0.0926153588491161
30
0
41
1
10
13.2594809501337
20
-0.15821177146222
30
0
41
1
10
13.3425779303515
20
-0.407469232077716
30
0
41
1
10
13.4294344073019
20
-0.653693475903765
30
0
41
1
10
13.4959575359129
20
-0.837236679665608
30
0
41
1
10
13.5183624567738
20
-0.898229968194812
30
0
41
1
10
13.5523160174595
20
-0.989437163653747
30
0
41
1
10
13.5636912337356
20
-1.01979254191014
30
0
41
1
10
13.5865604616434
20
-1.08040762854225
30
0
41
1
10
13.5980658023188
20
-1.11069634254608
30
0
41
1
10
13.7019186581023
20
-1.38218592874409
30
0
41
1
10
13.7958888576111
20
-1.61435174648093
30
0
41
1
10
13.989079132388
20
-2.06067206592718
30
0
41
1
10
14.0882778561639
20
-2.27482943038623
30
0
41
1
10
14.2040183695093
20
-2.50513706628763
30
0
41
1
10
14.2169482812835
20
-2.53060148496618
30
0
41
1
10
14.2428446252404
20
-2.5810671364203
30
0
41
1
10
14.2817578620265
20
-2.6561000367013
30
0
41
1
10
14.320894254764
20
-2.72915063601667
30
0
41
1
10
14.3995115163655
20
-2.87263611535218
30
0
41
1
10
14.4523810320184
20
-2.96480908299864
30
0
41
1
10
14.6127737542645
20
-3.23095902667123
30
0
41
1
10
14.7220363121538
20
-3.39462398851401
30
0
41
1
10
14.8350988543443
20
-3.54405473829482
30
0
0
SPLINE
5
12F
100
AcDbEntity
8
1
62
256
6
ByLayer
370
13
48
1
60
0
100
AcDbSpline
70
4
71
1
72
4
73
2
40
0
40
0
40
1
40
1
41
1
10
16.66
20
-4.02002833083969
30
0
41
1
10
14.8350988543517
20
-3.54405473829675
30
0
0
SPLINE
5
130
100
AcDbEntity
8
1
62
256
6
ByLayer
370
13
48
1
60
0
100
AcDbSpline
70
4
71
5
72
12
73
6
40
0
40
0
40
0
40
0
40
0
40
0
40
1
40
1
40
1
40
1
40
1
40
1
41
1
10
16.6600000000777
20
-1.0798274174781
30
0
41
0.984456017842711
10
16.6600000000777
20
-1.80715083004385
30
0
41
0.976835036377382
10
16.6600000000777
20
-2.49250426534611
30
0
41
0.976835036377382
10
16.6600000000777
20
-3.1064177371112
30
0
41
0.984456017842711
10
16.6600000000777
20
-3.62279777346109
30
0
41
1
10
16.6600000000777
20
-4.02002833085996
30
0
0
SPLINE
5
131
100
AcDbEntity
8
1
62
256
6
ByLayer
370
18
48
1
60
0
100
AcDbSpline
70
4
71
1
72
4
73
2
40
0
40
0
40
1
40
1
41
1
10
16.66
20
-1.07982741742086
30
0
41
1
10
12.7144458889202
20
1.8266815935261
30
0
0
SPLINE
5
132
100
AcDbEntity
8
1
62
256
6
ByLayer
370
18
48
1
60
0
100
AcDbSpline
70
4
71
3
72
8
73
4
40
0
40
0
40
0
40
0
40
1
40
1
40
1
40
1
41
1
10
36.4391709840961
20
0.222590154244841
30
0
41
1
10
36.4164457516744
20
0.403379609715131
30
0
41
1
10
36.3937197708501
20
0.584162191102337
30
0
41
1
10
36.3709931035881
20
0.764938345049728
30
0
0
SPLINE
5
133
100
AcDbEntity
8
1
62
256
6
ByLayer
370
18
48
1
60
0
100
AcDbSpline
70
4
71
3
72
22
73
18
40
0
40
0
40
0
40
0
40
0.125000000000004
40
0.125000000000004
40
0.250000000000008
40
0.250000000000008
40
0.375000000000012
40
0.375000000000012
40
0.437500000000014
40
0.437500000000014
40
0.500000000000015
40
0.500000000000015
40
0.625000000000013
40
0.625000000000013
40
0.750000000000011
40
0.750000000000011
40
1
40
1
40
1
40
1
41
1
10
36.3709931035881
20
0.764938345049671
30
0
41
1
10
36.3583842932597
20
0.811953668745872
30
0
41
1
10
36.3446103090221
20
0.862457224457387
30
0
41
1
10
36.3155115678641
20
0.968106951782033
30
0
41
1
10
36.300176257817
20
1.02328471675187
30
0
41
1
10
36.2683506785962
20
1.13709789826581
30
0
41
1
10
36.2518566170423
20
1.19574466822368
30
0
41
1
10
36.2264337111038
20
1.28575599833306
30
0
41
1
10
36.2178310711396
20
1.31615126521487
30
0
41
1
10
36.2005074059425
20
1.37724971517395
30
0
41
1
10
36.1917838086318
20
1.40796222902966
30
0
41
1
10
36.1654491148269
20
1.50053308197747
30
0
41
1
10
36.1476750494492
20
1.56282226588201
30
0
41
1
10
36.1117756255961
20
1.68832935582472
30
0
41
1
10
36.0936498342721
20
1.75154840619481
30
0
41
1
10
36.0388317761992
20
1.94237060461421
30
0
41
1
10
36.0017032331171
20
2.07112714704903
30
0
41
1
10
35.964140020999
20
2.20103283461896
30
0
0
SPLINE
5
134
100
AcDbEntity
8
1
62
256
6
ByLayer
370
18
48
1
60
0
100
AcDbSpline
70
4
71
3
72
8
73
4
40
0
40
0
40
0
40
0
40
1
40
1
40
1
40
1
41
1
10
35.964140020999
20
2.20103283461901
30
0
41
1
10
35.9387493274499
20
2.1286628695924
30
0
41
1
10
35.9104873106277
20
2.05398251429776
30
0
41
1
10
35.8789620823297
20
1.97730679228795
30
0
0
SPLINE
5
135
100
AcDbEntity
8
1
62
256
6
ByLayer
370
18
48
1
60
0
100
AcDbSpline
70
4
71
3
72
20
73
16
40
0
40
0
40
0
40
0
40
0.125000000000014
40
0.125000000000014
40
0.250000000000028
40
0.250000000000028
40
0.375000000000043
40
0.375000000000043
40
0.500000000000057
40
0.500000000000057
40
0.625000000000071
40
0.625000000000071
40
0.750000000000085
40
0.750000000000085
40
1
40
1
40
1
40
1
41
1
10
35.8789620823298
20
1.97730679228795
30
0
41
1
10
35.8770046347877
20
1.97254422189914
30
0
41
1
10
35.8747789800331
20
1.96838717653625
30
0
41
1
10
35.8697532222809
20
1.96133891742713
30
0
41
1
10
35.8669158445411
20
1.95842600046836
30
0
41
1
10
35.8608031213289
20
1.95411233994486
30
0
41
1
10
35.8575441863903
20
1.95269742847702
30
0
41
1
10
35.8506364085432
20
1.95125233051667
30
0
41
1
10
35.8469704849706
20
1.95123751918385
30
0
41
1
10
35.8395340351577
20
1.95246355109899
30
0
41
1
10
35.8357320489475
20
1.95369228633632
30
0
41
1
10
35.827976034538
20
1.95722012981722
30
0
41
1
10
35.8240709395721
20
1.95950021635681
30
0
41
1
10
35.8124288796396
20
1.96751902804291
30
0
41
1
10
35.8046951996432
20
1.9744505893122
30
0
41
1
10
35.7969765172595
20
1.98256326388309
30
0
0
SPLINE
5
136
100
AcDbEntity
8
1
62
256
6
ByLayer
370
18
48
1
60
0
100
AcDbSpline
70
4
71
3
72
8
73
4
40
0
40
0
40
0
40
0
40
1
40
1
40
1
40
1
41
1
10
35.7969765172589
20
1.98256326388318
30
0
41
1
10
35.7534594758978
20
2.02830156217769
30
0
41
1
10
35.7081806819363
20
2.07738988710543
30
0
41
1
10
35.661269051831
20
2.12965472134601
30
0
0
SPLINE
5
137
100
AcDbEntity
8
1
62
256
6
ByLayer
370
13
48
1
60
0
100
AcDbSpline
70
4
71
3
72
9
73
5
40
0
40
0
40
0
40
0
40
0.161894468683502
40
1
40
1
40
1
40
1
41
1
10
19.6190545669165
20
-3.84944964214634
30
0
41
1
10
19.4593697112777
20
-3.92040995392961
30
0
41
1
10
18.4730181889722
20
-4.3095322433519
30
0
41
1
10
17.4866666666667
20
-4.37866470784672
30
0
41
1
10
16.66
20
-4.18386901100024
30
0
0
SPLINE
5
138
100
AcDbEntity
8
1
62
256
6
ByLayer
370
18
48
1
60
0
100
AcDbSpline
70
4
71
3
72
16
73
12
40
0
40
0
40
0
40
0
40
0.25
40
0.25
40
0.499999999999999
40
0.499999999999999
40
0.624999999999999
40
0.624999999999999
40
0.749999999999999
40
0.749999999999999
40
1
40
1
40
1
40
1
41
1
10
34.1976552444632
20
2.21863300691933
30
0
41
1
10
34.2522181287278
20
2.16271990922752
30
0
41
1
10
34.3058696403923
20
2.10522665827384
30
0
41
1
10
34.4126570735718
20
1.98874113914942
30
0
41
1
10
34.4657525237218
20
1.92968361933353
30
0
41
1
10
34.5455361031108
20
1.84058261305361
30
0
41
1
10
34.5722003790524
20
1.81074049129296
30
0
41
1
10
34.625136509411
20
1.75153530595404
30
0
41
1
10
34.6514651653251
20
1.72210847163663
30
0
41
1
10
34.7301709189481
20
1.63439912063839
30
0
41
1
10
34.7822726563314
20
1.57668894213839
30
0
41
1
10
34.8343262917208
20
1.51983632122378
30
0
0
SPLINE
5
139
100
AcDbEntity
8
1
62
256
6
ByLayer
370
18
48
1
60
0
100
AcDbSpline
70
4
71
3
72
10
73
6
40
0
40
0
40
0
40
0
40
0.5
40
0.5
40
1
40
1
40
1
40
1
41
1
10
34.8343262917206
20
1.51983632122389
30
0
41
1
10
34.8594080551142
20
1.4924371888722
30
0
41
1
10
34.8835880601405
20
1.46539929110307
30
0
41
1
10
34.9293966094339
20
1.41205097953474
30
0
41
1
10
34.9510627187093
20
1.38573875510693
30
0
41
1
10
34.9706332719941
20
1.35980353996555
30
0
0
SPLINE
5
13A
100
AcDbEntity
8
1
62
256
6
ByLayer
370
13
48
1
60
0
100
AcDbSpline
70
4
71
3
72
25
73
21
40
0
40
0
40
0
40
0
40
0.0852076179064361
40
0.129617577299556
40
0.195745339524101
40
0.326613170941896
40
0.457610991362214
40
0.523983275024865
40
0.568586887274026
40
0.612909060335685
40
0.656363778720635
40
0.677542002741685
40
0.698231343173509
40
0.718335801947432
40
0.738427252138393
40
0.759093939957668
40
0.823673245539048
40
0.86801782043675
40
0.978973608749772
40
1
40
1
40
1
40
1
41
1
10
36.4096604122303
20
0.214490249896073
30
0
41
1
10
36.3798007207452
20
0.227429179594765
30
0
41
1
10
36.3338432776963
20
0.249434402797931
30
0
41
1
10
36.2608011363199
20
0.288620268555491
30
0
41
1
10
36.1653668209427
20
0.344139833808129
30
0
41
1
10
36.0236459114465
20
0.436758698235394
30
0
41
1
10
35.8695437974312
20
0.550251749936564
30
0
41
1
10
35.7522233544876
20
0.6429536872065
30
0
41
1
10
35.6759734914731
20
0.705305753281664
30
0
41
1
10
35.6093782863342
20
0.761178947631095
30
0
41
1
10
35.5526926314376
20
0.809897867700471
30
0
41
1
10
35.5065154058506
20
0.850291435484337
30
0
41
1
10
35.4720461240037
20
0.880782472261359
30
0
41
1
10
35.4366606619507
20
0.912431279322874
30
0
41
1
10
35.4010262678858
20
0.944655253017373
30
0
41
1
10
35.3413277415046
20
0.999214275606732
30
0
41
1
10
35.2701577059546
20
1.06563043357212
30
0
41
1
10
35.1518143724228
20
1.17871642345977
30
0
41
1
10
35.0557490388035
20
1.27350250319398
30
0
41
1
10
34.9823544278236
20
1.34787673465152
30
0
41
1
10
34.9706332719881
20
1.35980353996533
30
0
0
SPLINE
5
13B
100
AcDbEntity
8
1
62
256
6
ByLayer
370
18
48
1
60
0
100
AcDbSpline
70
4
71
3
72
8
73
4
40
0
40
0
40
0
40
0
40
1
40
1
40
1
40
1
41
1
10
36.4354110882211
20
0.208121103797055
30
0
41
1
10
36.4267182295222
20
0.210269949381086
30
0
41
1
10
36.4181297188929
20
0.212394164826918
30
0
41
1
10
36.4096604624038
20
0.214490231719509
30
0
0
SPLINE
5
13C
100
AcDbEntity
8
1
62
256
6
ByLayer
370
18
48
1
60
0
100
AcDbSpline
70
4
71
3
72
8
73
4
40
0
40
0
40
0
40
0
40
1
40
1
40
1
40
1
41
1
10
36.4354110882307
20
0.208121103793559
30
0
41
1
10
36.4368245305038
20
0.21165674673324
30
0
41
1
10
36.4380737856166
20
0.216512268791746
30
0
41
1
10
36.4391709840967
20
0.22259015424396
30
0
0
SPLINE
5
13D
100
AcDbEntity
8
1
62
256
6
ByLayer
370
18
48
1
60
0
100
AcDbSpline
70
4
71
3
72
32
73
28
40
0
40
0
40
0
40
0
40
0.125000000000018
40
0.125000000000018
40
0.187500000000021
40
0.187500000000021
40
0.250000000000024
40
0.250000000000024
40
0.312500000000028
40
0.312500000000028
40
0.375000000000031
40
0.375000000000031
40
0.500000000000029
40
0.500000000000029
40
0.562500000000028
40
0.562500000000028
40
0.625000000000027
40
0.625000000000027
40
0.687500000000026
40
0.687500000000026
40
0.718750000000025
40
0.718750000000025
40
0.750000000000025
40
0.750000000000025
40
0.875000000000012
40
0.875000000000012
40
1
40
1
40
1
40
1
41
1
10
35.2776875832369
20
1.33974793868197
30
0
41
1
10
35.3520496142899
20
1.2692938979979
30
0
41
1
10
35.4243436933881
20
1.20047423898046
30
0
41
1
10
35.5298162921447
20
1.0996675046955
30
0
41
1
10
35.564512371849
20
1.06643468124969
30
0
41
1
10
35.6327579868478
20
1.00095079280595
30
0
41
1
10
35.6660756191866
20
0.968934801882597
30
0
41
1
10
35.7311639311369
20
0.90637646612501
30
0
41
1
10
35.762940349004
20
0.875850926933481
30
0
41
1
10
35.8249785348071
20
0.816335330689384
30
0
41
1
10
35.8550344379308
20
0.787523844016079
30
0
41
1
10
35.9421011569409
20
0.703988563630446
30
0
41
1
10
35.9961643758581
20
0.652009097557283
30
0
41
1
10
36.0715279578201
20
0.579426399701788
30
0
41
1
10
36.095690608869
20
0.556139181357878
30
0
41
1
10
36.1420930588062
20
0.511403745113768
30
0
41
1
10
36.1643515746445
20
0.48994067483244
30
0
41
1
10
36.2064866999815
20
0.449293662553089
30
0
41
1
10
36.2264245887119
20
0.430048548372355
30
0
41
1
10
36.2546588532732
20
0.402771742618711
30
0
41
1
10
36.263791244226
20
0.393945003168653
30
0
41
1
10
36.2814983998457
20
0.376822780447782
30
0
41
1
10
36.2900812126779
20
0.368519918652567
30
0
41
1
10
36.3314164155499
20
0.328510016507721
30
0
41
1
10
36.3595795681543
20
0.30116095151655
30
0
41
1
10
36.4064849795616
20
0.255267283664495
30
0
41
1
10
36.4252237755013
20
0.236747192290693
30
0
41
1
10
36.4391709840963
20
0.222590154244102
30
0
0
SPLINE
5
13E
100
AcDbEntity
8
1
62
256
6
ByLayer
370
13
48
1
60
0
100
AcDbSpline
70
4
71
3
72
8
73
4
40
0
40
0
40
0
40
0
40
1
40
1
40
1
40
1
41
1
10
34.1976552444632
20
2.21863300691936
30
0
41
1
10
34.1967768945217
20
2.21969516935775
30
0
41
1
10
34.1958979146114
20
2.22075841467884
30
0
41
1
10
34.1950182945179
20
2.22182275649129
30
0
0
SPLINE
5
13F
100
AcDbEntity
8
1
62
256
6
ByLayer
370
18
48
1
60
0
100
AcDbSpline
70
4
71
3
72
66
73
62
40
0
40
0
40
0
40
0
40
0.007983388572135
40
0.01633503391769
40
0.0250549485656177
40
0.034143135102675
40
0.0435995847859227
40
0.0534242761153508
40
0.0636171733761808
40
0.0741782251620784
40
0.0851073628925152
40
0.0964044993397976
40
0.108069527183561
40
0.120102317613057
40
0.132502719000498
40
0.145270555671582
40
0.158405626802574
40
0.171907705476803
40
0.185776537937161
40
0.200011843075082
40
0.214613312200806
40
0.229580609144163
40
0.244913370740039
40
0.26061120775765
40
0.27667371194208
40
0.293100695929231
40
0.309892308860029
40
0.3270487570753
40
0.34457028349274
40
0.36245716920082
40
0.380709735265904
40
0.399328344798474
40
0.418313405328756
40
0.437665371546969
40
0.457384748468008
40
0.477472095085514
40
0.497928028585545
40
0.518753229195307
40
0.539948445747888
40
0.561514502049654
40
0.583452304142476
40
0.605762848558917
40
0.630533549265553
40
0.654863429654567
40
0.678750997774706
40
0.702194857304332
40
0.725193717591589
40
0.747746399418088
40
0.769851838442295
40
0.791509086622328
40
0.812717311893388
40
0.83347579635194
40
0.853783933177314
40
0.873641222500943
40
0.893047266414891
40
0.912001763293215
40
0.930504501583542
40
0.948555353210334
40
0.966154396534027
40
0.983302342975844
40
1
40
1
40
1
40
1
41
1
10
30.5278772975428
20
4.63751089122462
30
0
41
1
10
30.5376384792044
20
4.63500893541848
30
0
41
1
10
30.5576111051236
20
4.62988961389422
30
0
41
1
10
30.5882441372543
20
4.62174830950218
30
0
41
1
10
30.6202270688981
20
4.61301577223037
30
0
41
1
10
30.6535598154762
20
4.60363893184734
30
0
41
1
10
30.688242395075
20
4.59359100119244
30
0
41
1
10
30.7242747434974
20
4.58283616513364
30
0
41
1
10
30.7616567606847
20
4.57133967371857
30
0
41
1
10
30.8003882909445
20
4.55906499394791
30
0
41
1
10
30.8404691217572
20
4.54597464227612
30
0
41
1
10
30.8818989770689
20
4.5320299737441
30
0
41
1
10
30.924677511904
20
4.51719126737004
30
0
41
1
10
30.9688043063618
20
4.50141772869989
30
0
41
1
10
31.0142788595456
20
4.48466751659066
30
0
41
1
10
31.0611005832704
20
4.46689776404057
30
0
41
1
10
31.1092687955929
20
4.44806460154743
30
0
41
1
10
31.1587827141507
20
4.42812318066757
30
0
41
1
10
31.2096414493157
20
4.4070276982049
30
0
41
1
10
31.2618439971672
20
4.38473142177284
30
0
41
1
10
31.3153892322513
20
4.36118671316603
30
0
41
1
10
31.3702759002674
20
4.33634506353997
30
0
41
1
10
31.4265026101334
20
4.31015708611238
30
0
41
1
10
31.4840678344078
20
4.2825726732234
30
0
41
1
10
31.5429701937891
20
4.25354036455647
30
0
41
1
10
31.6032089073499
20
4.22300934990471
30
0
41
1
10
31.6647839794667
20
4.19093103301628
30
0
41
1
10
31.727695950816
20
4.15725580554951
30
0
41
1
10
31.7919455423472
20
4.12193397358396
30
0
41
1
10
31.8575336360812
20
4.08491563568597
30
0
41
1
10
31.9244612848197
20
4.04615079302425
30
0
41
1
10
31.9927297215661
20
4.0055893930174
30
0
41
1
10
32.0623403692824
20
3.96318139288235
30
0
41
1
10
32.1332948508078
20
3.91887681921207
30
0
41
1
10
32.2055949989991
20
3.87262583014086
30
0
41
1
10
32.2792428670263
20
3.82437877842975
30
0
41
1
10
32.3542407390373
20
3.77408627537738
30
0
41
1
10
32.4305911403811
20
3.72169925771078
30
0
41
1
10
32.5082968504998
20
3.66716904869981
30
0
41
1
10
32.5873609065627
20
3.6104474471887
30
0
41
1
10
32.6677866435375
20
3.55148671543404
30
0
41
1
10
32.7521270495209
20
3.4883308764752
30
0
41
1
10
32.8393891925171
20
3.42155127617008
30
0
41
1
10
32.9285767854738
20
3.35180291693103
30
0
41
1
10
33.0161421181801
20
3.28191589892359
30
0
41
1
10
33.1020806910515
20
3.21200328541923
30
0
41
1
10
33.1863884514477
20
3.14217289456173
30
0
41
1
10
33.2690617184296
20
3.07252741175856
30
0
41
1
10
33.3500971808332
20
3.00316458405158
30
0
41
1
10
33.4294918761067
20
2.93417738936603
30
0
41
1
10
33.5072431745456
20
2.86565420708337
30
0
41
1
10
33.5833487625051
20
2.79767898689656
30
0
41
1
10
33.6578066263041
20
2.73033140289664
30
0
41
1
10
33.7306150362346
20
2.66368704632475
30
0
41
1
10
33.8017725313485
20
2.59781746252753
30
0
41
1
10
33.8712779029917
20
2.53279073387199
30
0
41
1
10
33.9391301843056
20
2.46867007980143
30
0
41
1
10
34.0053287784364
20
2.40551942727245
30
0
41
1
10
34.0698741902773
20
2.3433828332397
30
0
41
1
10
34.132767406906
20
2.28235852081497
30
0
41
1
10
34.1741462127489
20
2.2418071975753
30
0
41
1
10
34.1945603592636
20
2.2218012878561
30
0
0
SPLINE
5
140
100
AcDbEntity
8
1
62
256
6
ByLayer
370
18
48
1
60
0
100
AcDbSpline
70
4
71
3
72
14
73
10
40
0
40
0
40
0
40
0
40
0.25
40
0.25
40
0.5
40
0.5
40
0.75
40
0.75
40
1
40
1
40
1
40
1
41
1
10
34.1948893171574
20
2.22197882162382
30
0
41
1
10
34.2775037876665
20
2.14347196010397
30
0
41
1
10
34.3621910948129
20
2.06618467338168
30
0
41
1
10
34.5353894161938
20
1.91406209782386
30
0
41
1
10
34.6239170450382
20
1.83924253900037
30
0
41
1
10
34.8046058878418
20
1.69212180113445
30
0
41
1
10
34.8967962119764
20
1.61984995243324
30
0
41
1
10
35.0846559744392
20
1.47786696986046
30
0
41
1
10
35.1803411327555
20
1.40817180909113
30
0
41
1
10
35.2776875832368
20
1.33974793868202
30
0
0
SPLINE
5
141
100
AcDbEntity
8
1
62
256
6
ByLayer
370
18
48
1
60
0
100
AcDbSpline
70
4
71
3
72
18
73
14
40
0
40
0
40
0
40
0
40
0.125
40
0.125
40
0.25
40
0.25
40
0.375
40
0.375
40
0.5
40
0.5
40
0.75
40
0.75
40
1
40
1
40
1
40
1
41
1
10
35.2776875832368
20
1.33974793868202
30
0
41
1
10
35.3005812577605
20
1.37100339701806
30
0
41
1
10
35.3216385530062
20
1.40326902648511
30
0
41
1
10
35.3615157009258
20
1.46879210033902
30
0
41
1
10
35.3803448225064
20
1.5021251110802
30
0
41
1
10
35.4162469328199
20
1.5689325416331
30
0
41
1
10
35.4333223881648
20
1.6024200877558
30
0
41
1
10
35.466195224831
20
1.66934232435955
30
0
41
1
10
35.4819883860763
20
1.70277896770852
30
0
41
1
10
35.5278609485921
20
1.80281625732945
30
0
41
1
10
35.5564570489024
20
1.86913388279663
30
0
41
1
10
35.6108540633566
20
2.0004469541914
30
0
41
1
10
35.6366365356371
20
2.06545112790059
30
0
41
1
10
35.661269051831
20
2.12965472134599
30
0
0
SPLINE
5
142
100
AcDbEntity
8
1
62
256
6
ByLayer
370
18
48
1
60
0
100
AcDbSpline
70
4
71
3
72
32
73
28
40
0
40
0
40
0
40
0
40
0.0746881852452463
40
0.0746881852452463
40
0.149376370490492
40
0.149376370490492
40
0.29875274098099
40
0.29875274098099
40
0.317424787292303
40
0.317424787292303
40
0.336096833603616
40
0.336096833603616
40
0.373440926226242
40
0.373440926226242
40
0.448129111471498
40
0.448129111471498
40
0.597505481962012
40
0.597505481962012
40
0.746881852452526
40
0.746881852452526
40
0.821570037697783
40
0.821570037697783
40
0.858914130320414
40
0.858914130320414
40
0.896258222943044
40
0.896258222943044
40
1
40
1
40
1
40
1
41
1
10
35.661269051831
20
2.12965472134601
30
0
41
1
10
35.5627649694987
20
2.22095475387269
30
0
41
1
10
35.4643765969351
20
2.31053878411967
30
0
41
1
10
35.2676828700473
20
2.48591148802797
30
0
41
1
10
35.1693848302559
20
2.5716780975373
30
0
41
1
10
34.874201857243
20
2.82279798778899
30
0
41
1
10
34.6769966503801
20
2.98201681903637
30
0
41
1
10
34.4532415346874
20
3.15105165439704
30
0
41
1
10
34.4283536135805
20
3.16969323176949
30
0
41
1
10
34.3785205673133
20
3.20669325049778
30
0
41
1
10
34.3535637173476
20
3.2250600260117
30
0
41
1
10
34.2788182067092
20
3.2795735810453
30
0
41
1
10
34.2290899377283
20
3.31518217623264
30
0
41
1
10
34.0801493805494
20
3.41983062959866
30
0
41
1
10
33.9811751920159
20
3.48670159836232
30
0
41
1
10
33.684830022539
20
3.67871296995099
30
0
41
1
10
33.4880697439054
20
3.79526576191674
30
0
41
1
10
33.0946033288749
20
4.00415134269392
30
0
41
1
10
32.8979094195495
20
4.0964745480307
30
0
41
1
10
32.6015261603339
20
4.21468119338084
30
0
41
1
10
32.5025014526819
20
4.25071918713485
30
0
41
1
10
32.3534000991062
20
4.29966020684805
30
0
41
1
10
32.3036055444603
20
4.31512098222709
30
0
41
1
10
32.2037910654519
20
4.34432210510354
30
0
41
1
10
32.1539060006368
20
4.35802146517909
30
0
41
1
10
31.965939752155
20
4.40628826757836
30
0
41
1
10
31.8284218573973
20
4.43476121515007
30
0
41
1
10
31.6912135863184
20
4.45646822280742
30
0
0
SPLINE
5
143
100
AcDbEntity
8
1
62
256
6
ByLayer
370
18
48
1
60
0
100
AcDbSpline
70
4
71
3
72
25
73
21
40
0
40
0
40
0
40
0
40
0.0166738607649295
40
0.0166738607649295
40
0.0594271711664557
40
0.144933791969504
40
0.144933791969504
40
0.315947033575601
40
0.315947033575601
40
0.486960275181699
40
0.486960275181699
40
0.529713585583224
40
0.529713585583224
40
0.572466895984749
40
0.572466895984749
40
0.6579735167878
40
0.6579735167878
40
0.8289867583939
40
0.8289867583939
40
1
40
1
40
1
40
1
41
1
10
20.1364361871252
20
-3.72121828727427
30
0
41
1
10
20.11698132448
20
-3.73274892324912
30
0
41
1
10
20.097541233025
20
-3.74415365118179
30
0
41
1
10
20.0283185092919
20
-3.78434521888235
30
0
41
1
10
19.8791994150078
20
-3.86860877653277
30
0
41
1
10
19.7307474603609
20
-3.94551672918331
30
0
41
1
10
19.4342889511912
20
-4.08972540068589
30
0
41
1
10
19.2372268580311
20
-4.17307043304822
30
0
41
1
10
18.842224191397
20
-4.31494799894506
30
0
41
1
10
18.6443591537749
20
-4.37348111298388
30
0
41
1
10
18.3956500680112
20
-4.42914407469672
30
0
41
1
10
18.3458372955943
20
-4.43939686064778
30
0
41
1
10
18.24603763908
20
-4.45807408790407
30
0
41
1
10
18.1959887475494
20
-4.46650626480192
30
0
41
1
10
18.0462547572487
20
-4.48884569974618
30
0
41
1
10
17.9468404960876
20
-4.49983402514641
30
0
41
1
10
17.6494665324322
20
-4.52063314019881
30
0
41
1
10
17.4523437313674
20
-4.51819391606207
30
0
41
1
10
17.0572621532388
20
-4.48430243476025
30
0
41
1
10
16.8593097283373
20
-4.45287437121453
30
0
41
1
10
16.66
20
-4.40806737501563
30
0
0
SPLINE
5
144
100
AcDbEntity
8
1
62
256
6
ByLayer
370
18
48
1
60
0
100
AcDbSpline
70
4
71
3
72
10
73
6
40
0
40
0
40
0
40
0
40
0.5
40
0.5
40
1
40
1
40
1
40
1
41
1
10
15.8931480437024
20
-4.16011880865105
30
0
41
1
10
16.0197624350198
20
-4.21347062091249
30
0
41
1
10
16.1464534972594
20
-4.26084500383698
30
0
41
1
10
16.4015329798855
20
-4.34351423058254
30
0
41
1
10
16.5299154454253
20
-4.37882300649952
30
0
41
1
10
16.66
20
-4.40806737501566
30
0
0
SPLINE
5
145
100
AcDbEntity
8
1
62
256
6
ByLayer
370
13
48
1
60
0
100
AcDbSpline
70
4
71
3
72
8
73
4
40
0
40
0
40
0
40
0
40
1
40
1
40
1
40
1
41
1
10
15.8352764711351
20
-4.19440774401397
30
0
41
1
10
15.854502004093
20
-4.18300419838567
30
0
41
1
10
15.8737924771131
20
-4.17157331915919
30
0
41
1
10
15.8931480506248
20
-4.16011880420237
30
0
0
SPLINE
5
146
100
AcDbEntity
8
1
62
256
6
ByLayer
370
18
48
1
60
0
100
AcDbSpline
70
4
71
3
72
28
73
24
40
0
40
0
40
0
40
0
40
0.0625000000000001
40
0.0625000000000001
40
0.125
40
0.125
40
0.25
40
0.25
40
0.3125
40
0.3125
40
0.375
40
0.375
40
0.5
40
0.5
40
0.625
40
0.625
40
0.75
40
0.75
40
0.875
40
0.875
40
0.9375
40
0.9375
40
1
40
1
40
1
40
1
41
1
10
15.8352764711351
20
-4.19440774401397
30
0
41
1
10
15.8646317320591
20
-4.21294393879779
30
0
41
1
10
15.89198034649
20
-4.23175376416367
30
0
41
1
10
15.9439180110041
20
-4.26923414520562
30
0
41
1
10
15.9684933676661
20
-4.28791180608084
30
0
41
1
10
16.0391202468207
20
-4.34314842496784
30
0
41
1
10
16.0821260376916
20
-4.37888289380408
30
0
41
1
10
16.1428076408921
20
-4.42949184619684
30
0
41
1
10
16.1623176161915
20
-4.44582162625596
30
0
41
1
10
16.2000350721794
20
-4.47718477224984
30
0
41
1
10
16.2182639350415
20
-4.49223733515774
30
0
41
1
10
16.2713642799528
20
-4.53540499603156
30
0
41
1
10
16.3046643280335
20
-4.56152606116194
30
0
41
1
10
16.3681459312932
20
-4.60807535203247
30
0
41
1
10
16.3983189054283
20
-4.62850722164012
30
0
41
1
10
16.4562130924922
20
-4.66340282652851
30
0
41
1
10
16.4839303014019
20
-4.67786838574634
30
0
41
1
10
16.537371495844
20
-4.70056936022874
30
0
41
1
10
16.5630933940196
20
-4.70880592744555
30
0
41
1
10
16.6004314723301
20
-4.71627086234091
30
0
41
1
10
16.6126680572807
20
-4.71794151881969
30
0
41
1
10
16.6366638920023
20
-4.71961323360119
30
0
41
1
10
16.6484358117582
20
-4.71961734520295
30
0
41
1
10
16.6600000000002
20
-4.71878259470054
30
0
0
SPLINE
5
147
100
AcDbEntity
8
1
62
256
6
ByLayer
370
18
48
1
60
0
100
AcDbSpline
70
4
71
3
72
8
73
4
40
0
40
0
40
0
40
0
40
1
40
1
40
1
40
1
41
1
10
16.66
20
-4.71878259470066
30
0
41
1
10
16.66
20
-4.71887384571576
30
0
41
1
10
16.66
20
-4.71895982470522
30
0
41
1
10
16.66
20
-4.71904052949227
30
0
0
SPLINE
5
148
100
AcDbEntity
8
1
62
256
6
ByLayer
370
18
48
1
60
0
100
AcDbSpline
70
4
71
3
72
8
73
4
40
0
40
0
40
0
40
0
40
1
40
1
40
1
40
1
41
1
10
16.66
20
-4.71904052949225
30
0
41
1
10
16.6876809058035
20
-4.71483633008089
30
0
41
1
10
16.7153292642061
20
-4.71034590388928
30
0
41
1
10
16.7429479316386
20
-4.70557045282791
30
0
0
SPLINE
5
149
100
AcDbEntity
8
1
62
256
6
ByLayer
370
18
48
1
60
0
100
AcDbSpline
70
4
71
3
72
37
73
33
40
0
40
0
40
0
40
0
40
0.0648099205134246
40
0.181569556035552
40
0.298341509878819
40
0.415182379966806
40
0.437675549691442
40
0.46017221036663
40
0.482671831030422
40
0.505173878204298
40
0.527677818043583
40
0.550183118488598
40
0.572689251417221
40
0.595195694799461
40
0.617701934854799
40
0.640207468212854
40
0.662711804078035
40
0.685214466398708
40
0.70771499604145
40
0.730212952970876
40
0.752707918435453
40
0.775199497159948
40
0.797687480306054
40
0.820172288505367
40
0.842654476857783
40
0.865134584218304
40
0.887613134560982
40
0.910090638341748
40
0.932567593859582
40
0.955044488615856
40
0.977521800671234
40
1
40
1
40
1
40
1
41
1
10
26.8530625277649
20
3.85950755274857
30
0
41
1
10
26.9137482396313
20
3.89897992485237
30
0
41
1
10
27.0837722097214
20
4.00628194974357
30
0
41
1
10
27.3631727491359
20
4.16712437961286
30
0
41
1
10
27.691337159072
20
4.33165614244555
30
0
41
1
10
27.9312834059962
20
4.43342363478558
30
0
41
1
10
28.0828742280447
20
4.49057486353254
30
0
41
1
10
28.1460838433467
20
4.51345181865966
30
0
41
1
10
28.2092940253308
20
4.53536685032782
30
0
41
1
10
28.2725030230936
20
4.55631519388913
30
0
41
1
10
28.3357096047417
20
4.57629110655688
30
0
41
1
10
28.3989123997252
20
4.59528909803876
30
0
41
1
10
28.4621100752367
20
4.61330360113041
30
0
41
1
10
28.5253012890871
20
4.63032906038802
30
0
41
1
10
28.5884847024808
20
4.64635990876488
30
0
41
1
10
28.651658976741
20
4.66139057426355
30
0
41
1
10
28.7148227743294
20
4.67541547857135
30
0
41
1
10
28.7779747587388
20
4.68842903774694
30
0
41
1
10
28.8411135945983
20
4.70042566271917
30
0
41
1
10
28.9042379480511
20
4.71139975848754
30
0
41
1
10
28.9673464858328
20
4.72134572870371
30
0
41
1
10
29.0304380295879
20
4.73025798126682
30
0
41
1
10
29.0935121038291
20
4.73813104478296
30
0
41
1
10
29.1565691450463
20
4.74496532365339
30
0
41
1
10
29.2196103494038
20
4.75076133692627
30
0
41
1
10
29.2826370502318
20
4.75551946372306
30
0
41
1
10
29.3456505862832
20
4.75924069249095
30
0
41
1
10
29.4086522753721
20
4.76192371389641
30
0
41
1
10
29.4716435086819
20
4.76357578622572
30
0
41
1
10
29.5346253992088
20
4.76417218644852
30
0
41
1
10
29.5976000929968
20
4.76380754600936
30
0
41
1
10
29.6395761640978
20
4.76268990591916
30
0
41
1
10
29.6605646138827
20
4.7621310748448
30
0
0
SPLINE
5
14A
100
AcDbEntity
8
1
62
256
6
ByLayer
370
18
48
1
60
0
100
AcDbSpline
70
4
71
3
72
9
73
5
40
0
40
0
40
0
40
0
40
0.707311478535139
40
1
40
1
40
1
40
1
41
1
10
29.6605646138828
20
4.7621310748448
30
0
41
1
10
29.8649193436483
20
4.75559597058955
30
0
41
1
10
30.1538400875713
20
4.72339865857518
30
0
41
1
10
30.4431722454701
20
4.65904895702352
30
0
41
1
10
30.5278772975438
20
4.63751089122434
30
0
0
SPLINE
5
14B
100
AcDbEntity
8
1
62
256
6
ByLayer
370
18
48
1
60
0
100
AcDbSpline
70
4
71
3
72
12
73
8
40
0
40
0
40
0
40
0
40
0.499999999999981
40
0.499999999999981
40
0.749999999999991
40
0.749999999999991
40
1
40
1
40
1
40
1
41
1
10
15.8352764711498
20
1.91292504883555
30
0
41
1
10
15.8144619915387
20
1.94109449584906
30
0
41
1
10
15.7963662111964
20
1.97042938300641
30
0
41
1
10
15.7737855552421
20
2.0161640806553
30
0
41
1
10
15.7670166566714
20
2.03169678929896
30
0
41
1
10
15.7550389848084
20
2.06332345093668
30
0
41
1
10
15.7498234721942
20
2.07944305325705
30
0
41
1
10
15.7454103599377
20
2.09577678665386
30
0
0
SPLINE
5
14C
100
AcDbEntity
8
1
62
256
6
ByLayer
370
18
48
1
60
0
100
AcDbSpline
70
4
71
3
72
8
73
4
40
0
40
0
40
0
40
0
40
1
40
1
40
1
40
1
41
1
10
15.7054353086354
20
2.13456051170968
30
0
41
1
10
15.7187920030688
20
2.12162186334442
30
0
41
1
10
15.7321171615878
20
2.10869449400184
30
0
41
1
10
15.7454103599279
20
2.09577678665227
30
0
0
SPLINE
5
14D
100
AcDbEntity
8
1
62
256
6
ByLayer
370
18
48
1
60
0
100
AcDbSpline
70
4
71
3
72
8
73
4
40
0
40
0
40
0
40
0
40
1
40
1
40
1
40
1
41
1
10
15.8064155646673
20
0.561229311884546
30
0
41
1
10
15.772951740583
20
0.596380660925831
30
0
41
1
10
15.7392815435904
20
0.631403314211326
30
0
41
1
10
15.705435308635
20
0.666331829642388
30
0
0
SPLINE
5
14E
100
AcDbEntity
8
1
62
256
6
ByLayer
370
18
48
1
60
0
100
AcDbSpline
70
4
71
3
72
13
73
9
40
0
40
0
40
0
40
0
40
0.25
40
0.25
40
0.5
40
0.5
40
0.75
40
1
40
1
40
1
40
1
41
1
10
16.66
20
-0.407700605850096
30
0
41
1
10
16.59374614774
20
-0.324659677552518
30
0
41
1
10
16.5260815385332
20
-0.24233302877559
30
0
41
1
10
16.3882452231497
20
-0.0789122131359079
30
0
41
1
10
16.3180724934074
20
0.0021813759530005
30
0
41
1
10
16.1754778012175
20
0.163352166530359
30
0
41
1
10
16.030632156482
20
0.323505237282092
30
0
41
1
10
15.8817505517327
20
0.48213612861062
30
0
41
1
10
15.8064155646673
20
0.561229311884546
30
0
0
SPLINE
5
14F
100
AcDbEntity
8
1
62
256
6
ByLayer
370
13
48
1
60
0
100
AcDbSpline
70
4
71
3
72
13
73
9
40
0
40
0
40
0
40
0
40
0.209425883682733
40
0.428273797301497
40
0.574172406380673
40
0.720071015459849
40
0.865969624539025
40
1
40
1
40
1
40
1
41
1
10
28.9799216689287
20
0.866271331267455
30
0
41
1
10
28.3866144459524
20
1.46886154192416
30
0
41
1
10
27.1733072229762
20
2.65010680232956
30
0
41
1
10
25.5466666666667
20
3.80774536222549
30
0
41
1
10
24.1
20
4.37350325346841
30
0
41
1
10
22.86
20
4.48804031276185
30
0
41
1
10
21.6536229152091
20
4.24485930830846
30
0
41
1
10
20.8605791637515
20
3.86418103682365
30
0
41
1
10
20.4808687456273
20
3.63974703351747
30
0
0
SPLINE
5
150
100
AcDbEntity
8
1
62
256
6
ByLayer
370
18
48
1
60
0
100
AcDbSpline
70
4
71
3
72
14
73
10
40
0
40
0
40
0
40
0
40
0.25
40
0.25
40
0.5
40
0.5
40
0.75
40
0.75
40
1
40
1
40
1
40
1
41
1
10
34.1948893171574
20
4.09201778966607
30
0
41
1
10
34.2775037876664
20
4.13686105081837
30
0
41
1
10
34.3621910948129
20
4.17723542412577
30
0
41
1
10
34.5353894161937
20
4.2503583693871
30
0
41
1
10
34.6239170450383
20
4.28308930905627
30
0
41
1
10
34.8046058878418
20
4.34187969292447
30
0
41
1
10
34.8967962119765
20
4.36791365029057
30
0
41
1
10
35.0846559744392
20
4.41404999913544
30
0
41
1
10
35.1803411327555
20
4.43413903725184
30
0
41
1
10
35.2776875832368
20
4.4515439792718
30
0
0
SPLINE
5
151
100
AcDbEntity
8
1
62
256
6
ByLayer
370
18
48
1
60
0
100
AcDbSpline
70
4
71
3
72
10
73
6
40
0
40
0
40
0
40
0
40
0.5
40
0.5
40
1
40
1
40
1
40
1
41
1
10
15.8931480407587
20
1.94954939493502
30
0
41
1
10
16.0197622882104
20
1.82445816344753
30
0
41
1
10
16.1464532803577
20
1.69676258876839
30
0
41
1
10
16.4015327644793
20
1.43764044427229
30
0
41
1
10
16.5299153014295
20
1.30621420731953
30
0
41
1
10
16.66
20
1.1737590852164
30
0
0
SPLINE
5
152
100
AcDbEntity
8
1
62
256
6
ByLayer
370
13
48
1
60
0
100
AcDbSpline
70
4
71
3
72
8
73
4
40
0
40
0
40
0
40
0
40
1
40
1
40
1
40
1
41
1
10
15.8352764711352
20
1.91292504882614
30
0
41
1
10
15.8545020031185
20
1.92526153959312
30
0
41
1
10
15.8737924751575
20
1.93746853314028
30
0
41
1
10
15.8931480476815
20
1.94954939981599
30
0
0
SPLINE
5
153
100
AcDbEntity
8
1
62
256
6
ByLayer
370
18
48
1
60
0
100
AcDbSpline
70
4
71
3
72
28
73
24
40
0
40
0
40
0
40
0
40
0.0624999999999993
40
0.0624999999999993
40
0.124999999999999
40
0.124999999999999
40
0.249999999999997
40
0.249999999999997
40
0.312499999999996
40
0.312499999999996
40
0.374999999999995
40
0.374999999999995
40
0.499999999999996
40
0.499999999999996
40
0.624999999999997
40
0.624999999999997
40
0.749999999999998
40
0.749999999999998
40
0.874999999999999
40
0.874999999999999
40
0.937499999999999
40
0.937499999999999
40
1
40
1
40
1
40
1
41
1
10
15.8352764711351
20
1.91292504882611
30
0
41
1
10
15.8646317320591
20
1.87319686524455
30
0
41
1
10
15.89198034649
20
1.83238665888581
30
0
41
1
10
15.9439180110041
20
1.74903498786506
30
0
41
1
10
15.9684933676661
20
1.70648861072024
30
0
41
1
10
16.0391202468207
20
1.57660321829024
30
0
41
1
10
16.0821260376917
20
1.48703693793422
30
0
41
1
10
16.1428076408921
20
1.34896566994817
30
0
41
1
10
16.1623176161915
20
1.30244943952562
30
0
41
1
10
16.2000350721794
20
1.2088221797095
30
0
41
1
10
16.2182639350415
20
1.1616601268216
30
0
41
1
10
16.2713642799529
20
1.01919647230829
30
0
41
1
10
16.3046643280335
20
0.922920935716803
30
0
41
1
10
16.3681459312932
20
0.728009382810427
30
0
41
1
10
16.3983189054283
20
0.62937162933801
30
0
41
1
10
16.4562130924922
20
0.429872545444624
30
0
41
1
10
16.4839303014019
20
0.329010434918587
30
0
41
1
10
16.537371495844
20
0.125138880783027
30
0
41
1
10
16.5630933940196
20
0.0221290800497513
30
0
41
1
10
16.6004314723301
20
-0.133972854203933
30
0
41
1
10
16.6126680572808
20
-0.186269710824803
30
0
41
1
10
16.6366638920023
20
-0.290966151672052
30
0
41
1
10
16.6484358117583
20
-0.343418122720152
30
0
41
1
10
16.6600000000002
20
-0.395970146930779
30
0
0
SPLINE
5
154
100
AcDbEntity
8
1
62
256
6
ByLayer
370
18
48
1
60
0
100
AcDbSpline
70
4
71
3
72
8
73
4
40
0
40
0
40
0
40
0
40
1
40
1
40
1
40
1
41
1
10
16.66
20
-0.395970146930807
30
0
41
1
10
16.66
20
-0.400053475282448
30
0
41
1
10
16.66
20
-0.404137628988053
30
0
41
1
10
16.66
20
-0.408222608555377
30
0
0
SPLINE
5
155
100
AcDbEntity
8
1
62
256
6
ByLayer
370
18
48
1
60
0
100
AcDbSpline
70
4
71
3
72
66
73
62
40
0
40
0
40
0
40
0
40
0.0079833885727002
40
0.0163350339187458
40
0.0250549485670861
40
0.0341431351044796
40
0.0435995847879925
40
0.0534242761176047
40
0.0636171733785439
40
0.0741782251644713
40
0.0851073628948598
40
0.0964044993420261
40
0.108069527185592
40
0.120102317614814
40
0.132502719001902
40
0.145270555672559
40
0.158405626803047
40
0.171907705476693
40
0.185776537936399
40
0.200011843073589
40
0.2146133121985
40
0.229580609140976
40
0.244913370735895
40
0.260611207752465
40
0.276673711935786
40
0.293100695921748
40
0.309892308851285
40
0.327048757065216
40
0.344570283481238
40
0.362457169187827
40
0.380709735251349
40
0.39932834478227
40
0.418313405310827
40
0.43766537152725
40
0.457384748446418
40
0.477472095061974
40
0.497928028559975
40
0.518753229167636
40
0.539948445718037
40
0.561514502017541
40
0.583452304108023
40
0.60576284852205
40
0.630533549232969
40
0.654863429626014
40
0.678750997749921
40
0.702194857283061
40
0.725193717573563
40
0.74774639940305
40
0.769851838429984
40
0.791509086612482
40
0.812717311885743
40
0.83347579634624
40
0.853783933173292
40
0.87364122249834
40
0.893047266413443
40
0.912001763292662
40
0.930504501583627
40
0.948555353210785
40
0.966154396534588
40
0.983302342976256
40
1
40
1
40
1
40
1
41
1
10
30.527877297576
20
-0.845149646227412
30
0
41
1
10
30.5376384792382
20
-0.855807996725076
30
0
41
1
10
30.5576111051585
20
-0.87761634481086
30
0
41
1
10
30.5882441372907
20
-0.911013132341282
30
0
41
1
10
30.6202270689358
20
-0.945837296777427
30
0
41
1
10
30.6535598155147
20
-0.982076654365812
30
0
41
1
10
30.6882423951142
20
-1.01972308497372
30
0
41
1
10
30.724274743537
20
-1.05876619003399
30
0
41
1
10
30.7616567607244
20
-1.09919502383826
30
0
41
1
10
30.8003882909839
20
-1.1409975205207
30
0
41
1
10
30.840469121796
20
-1.18416057323069
30
0
41
1
10
30.881898977107
20
-1.22866992524078
30
0
41
1
10
30.924677511941
20
-1.27451011126459
30
0
41
1
10
30.9688043063974
20
-1.32166438155579
30
0
41
1
10
31.0142788595794
20
-1.37011462783354
30
0
41
1
10
31.0611005833023
20
-1.41984130566595
30
0
41
1
10
31.1092687956225
20
-1.47082335481707
30
0
41
1
10
31.1587827141777
20
-1.52303811715888
30
0
41
1
10
31.2096414493398
20
-1.57646125216402
30
0
41
1
10
31.2618439971882
20
-1.63106665034721
30
0
41
1
10
31.3153892322688
20
-1.68682634310969
30
0
41
1
10
31.3702759002812
20
-1.74371041500746
30
0
41
1
10
31.4265026101432
20
-1.80168689511231
30
0
41
1
10
31.4840678344132
20
-1.86072172479035
30
0
41
1
10
31.54297019379
20
-1.92077874191438
30
0
41
1
10
31.6032089073458
20
-1.98182096434576
30
0
41
1
10
31.6647839794575
20
-2.04381136709904
30
0
41
1
10
31.7276959508014
20
-2.10671112276677
30
0
41
1
10
31.7919455423266
20
-2.17047944141814
30
0
41
1
10
31.8575336360546
20
-2.23507338341301
30
0
41
1
10
31.9244612847868
20
-2.30044780202346
30
0
41
1
10
31.9927297215266
20
-2.36655525555145
30
0
41
1
10
32.0623403692359
20
-2.43334592574072
30
0
41
1
10
32.1332948507541
20
-2.50076753230849
30
0
41
1
10
32.2055949989379
20
-2.56876524639915
30
0
41
1
10
32.2792428669572
20
-2.63728160221592
30
0
41
1
10
32.3542407389601
20
-2.70625640691009
30
0
41
1
10
32.4305911402956
20
-2.77562664917792
30
0
41
1
10
32.5082968504055
20
-2.84532640461902
30
0
41
1
10
32.5873609064595
20
-2.91528674536323
30
0
41
1
10
32.667786643425
20
-2.98543562517421
30
0
41
1
10
32.752127049407
20
-3.05788794946744
30
0
41
1
10
32.8393891924096
20
-3.13159659178601
30
0
41
1
10
32.9285767853804
20
-3.20556537334761
30
0
41
1
10
33.0161421180996
20
-3.27684368896541
30
0
41
1
10
33.1020806909832
20
-3.34547537573167
30
0
41
1
10
33.1863884513904
20
-3.41150637276056
30
0
41
1
10
33.2690617183826
20
-3.47498443201653
30
0
41
1
10
33.3500971807954
20
-3.53595899582487
30
0
41
1
10
33.4294918760773
20
-3.59448103470831
30
0
41
1
10
33.5072431745236
20
-3.65060289777816
30
0
41
1
10
33.5833487624895
20
-3.70437816918155
30
0
41
1
10
33.6578066262938
20
-3.75586150667346
30
0
41
1
10
33.730615036229
20
-3.80510856111008
30
0
41
1
10
33.8017725313465
20
-3.85217561710189
30
0
41
1
10
33.8712779029923
20
-3.89712025312295
30
0
41
1
10
33.939130184308
20
-3.93999834257457
30
0
41
1
10
34.0053287784395
20
-3.98087433801527
30
0
41
1
10
34.0698741902802
20
-4.01978445454236
30
0
41
1
10
34.1327674069079
20
-4.05687383671454
30
0
41
1
10
34.1741462127496
20
-4.08055041206981
30
0
41
1
10
34.1945603592636
20
-4.09223120054159
30
0
0
SPLINE
5
156
100
AcDbEntity
8
1
62
256
6
ByLayer
370
18
48
1
60
0
100
AcDbSpline
70
4
71
3
72
14
73
10
40
0
40
0
40
0
40
0
40
0.25
40
0.25
40
0.5
40
0.5
40
0.75
40
0.75
40
1
40
1
40
1
40
1
41
1
10
34.1948893171574
20
-4.09201778966636
30
0
41
1
10
34.2775037876664
20
-4.13686105081865
30
0
41
1
10
34.3621910948128
20
-4.17723542412605
30
0
41
1
10
34.5353894161937
20
-4.25035836938736
30
0
41
1
10
34.6239170450383
20
-4.28308930905655
30
0
41
1
10
34.8046058878418
20
-4.34187969292475
30
0
41
1
10
34.8967962119765
20
-4.36791365029083
30
0
41
1
10
35.0846559744392
20
-4.41404999913573
30
0
41
1
10
35.1803411327555
20
-4.43413903725212
30
0
41
1
10
35.2776875832368
20
-4.45154397927209
30
0
0
SPLINE
5
157
100
AcDbEntity
8
1
62
256
6
ByLayer
370
18
48
1
60
0
100
AcDbSpline
70
4
71
3
72
18
73
14
40
0
40
0
40
0
40
0
40
0.125
40
0.125
40
0.25
40
0.25
40
0.375
40
0.375
40
0.5
40
0.5
40
0.75
40
0.75
40
1
40
1
40
1
40
1
41
1
10
35.2776875832368
20
-4.45154397927209
30
0
41
1
10
35.300581258025
20
-4.43062753887506
30
0
41
1
10
35.3216385534936
20
-4.40907083989413
30
0
41
1
10
35.3615157018202
20
-4.36480968978114
30
0
41
1
10
35.3803448235842
20
-4.34206069210856
30
0
41
1
10
35.4162469342306
20
-4.2957212703277
30
0
41
1
10
35.4333223897293
20
-4.27212652692259
30
0
41
1
10
35.4661952266859
20
-4.2240853453927
30
0
41
1
10
35.4819883880679
20
-4.19963890325582
30
0
41
1
10
35.5278609509746
20
-4.12501775327885
30
0
41
1
10
35.5564570515201
20
-4.07356197040801
30
0
41
1
10
35.6108540664071
20
-3.96719500906829
30
0
41
1
10
35.6366365388846
20
-3.9122840687387
30
0
41
1
10
35.6612690552573
20
-3.85561280433649
30
0
0
SPLINE
5
158
100
AcDbEntity
8
1
62
256
6
ByLayer
370
18
48
1
60
0
100
AcDbSpline
70
4
71
3
72
58
73
54
40
0
40
0
40
0
40
0
40
0.0214835890132098
40
0.046111875088465
40
0.0724090042019015
40
0.100365087222668
40
0.12996642796905
40
0.161196643227543
40
0.194051439252443
40
0.22854850404165
40
0.264710555812315
40
0.302562953135957
40
0.342103630156123
40
0.383298555053225
40
0.426108097758465
40
0.458909724093784
40
0.491704316464174
40
0.524510014077755
40
0.557343249018801
40
0.590203807813316
40
0.623072709772422
40
0.655930589652013
40
0.690351528706868
40
0.724734921241433
40
0.759102106023238
40
0.793472916595904
40
0.827864012066743
40
0.834484681245764
40
0.841106377955763
40
0.847728945912703
40
0.854352228091815
40
0.860976067360555
40
0.867600307111777
40
0.874224791897317
40
0.880849368062183
40
0.88747388437954
40
0.894098192686691
40
0.900722148522214
40
0.907345611764442
40
0.913968447271441
40
0.920590525522616
40
0.927211723262091
40
0.933831924144032
40
0.9404510666987
40
0.94706927473535
40
0.953686711642815
40
0.960303536028387
40
0.966919902119281
40
0.973535960163762
40
0.980151856831812
40
0.986767735615225
40
0.993383737227004
40
1
40
1
40
1
40
1
41
1
10
20.1205892261344
20
3.70960489860553
30
0
41
1
10
20.1889201210846
20
3.7571627026405
30
0
41
1
10
20.3355776682915
20
3.85623472050642
30
0
41
1
10
20.5658367323299
20
4.00130065144089
30
0
41
1
10
20.8166593341149
20
4.14625549579597
30
0
41
1
10
21.0833030722014
20
4.28497515959918
30
0
41
1
10
21.3656696090431
20
4.4138968778104
30
0
41
1
10
21.6636730291327
20
4.52896958264785
30
0
41
1
10
21.9772736634266
20
4.62597195955635
30
0
41
1
10
22.306533638044
20
4.70106017540965
30
0
41
1
10
22.6516412391678
20
4.75009126366615
30
0
41
1
10
23.0127320408625
20
4.76867584225207
30
0
41
1
10
23.3898022090809
20
4.75240405055817
30
0
41
1
10
23.782678436977
20
4.69683238558375
30
0
41
1
10
24.1542393674136
20
4.60611423227809
30
0
41
1
10
24.4990335082519
20
4.49031720984573
30
0
41
1
10
24.8119898205811
20
4.36121059449459
30
0
41
1
10
25.1250095874295
20
4.20886228068491
30
0
41
1
10
25.438209260434
20
4.03404172972185
30
0
41
1
10
25.7515880008249
20
3.83772234511863
30
0
41
1
10
26.0650567068576
20
3.62106414652254
30
0
41
1
10
26.3835061498078
20
3.38143229186582
30
0
41
1
10
26.7068510772421
20
3.11889516340938
30
0
41
1
10
27.035069086119
20
2.83398687279546
30
0
41
1
10
27.3631727491819
20
2.5326485466303
30
0
41
1
10
27.691337159127
20
2.2165683619238
30
0
41
1
10
27.9312834060578
20
1.97610434625352
30
0
41
1
10
28.0828742281103
20
1.82118731774929
30
0
41
1
10
28.146083843414
20
1.75618175365651
30
0
41
1
10
28.2092940253998
20
1.69078576892033
30
0
41
1
10
28.2725030231643
20
1.6250137790756
30
0
41
1
10
28.3357096048142
20
1.55888143536365
30
0
41
1
10
28.3989123997993
20
1.49240407213028
30
0
41
1
10
28.4621100753125
20
1.42559712290736
30
0
41
1
10
28.5253012891646
20
1.35847600890048
30
0
41
1
10
28.5884847025599
20
1.29105616886477
30
0
41
1
10
28.6516589768218
20
1.22335305108913
30
0
41
1
10
28.7148227744119
20
1.15538211554642
30
0
41
1
10
28.777974758823
20
1.08715883327605
30
0
41
1
10
28.8411135946842
20
1.01869868667154
30
0
41
1
10
28.9042379481387
20
0.950017168919572
30
0
41
1
10
28.9673464859221
20
0.881129785927669
30
0
41
1
10
29.0304380296787
20
0.812051884568518
30
0
41
1
10
29.0935121039218
20
0.742798059431038
30
0
41
1
10
29.1565691451406
20
0.673382983015188
30
0
41
1
10
29.2196103494997
20
0.603820504947009
30
0
41
1
10
29.2826370503294
20
0.534124332480076
30
0
41
1
10
29.3456505863825
20
0.464308205083824
30
0
41
1
10
29.4086522754731
20
0.394385803373268
30
0
41
1
10
29.4716435087846
20
0.324371096673104
30
0
41
1
10
29.5346253993131
20
0.254277045640947
30
0
41
1
10
29.5976000931029
20
0.184120446014305
30
0
41
1
10
29.6395761642049
20
0.137310628863361
30
0
41
1
10
29.6605646139905
20
0.113905258352275
30
0
0
SPLINE
5
159
100
AcDbEntity
8
1
62
256
6
ByLayer
370
18
48
1
60
0
100
AcDbSpline
70
4
71
3
72
9
73
5
40
0
40
0
40
0
40
0
40
0.707311478471722
40
1
40
1
40
1
40
1
41
1
10
29.6605646139906
20
0.113905258352162
30
0
41
1
10
29.8649193437202
20
-0.11306237525551
30
0
41
1
10
30.1538400876183
20
-0.434516124053459
30
0
41
1
10
30.4431722454922
20
-0.752538183202859
30
0
41
1
10
30.5278772975769
20
-0.845149646228464
30
0
0
SPLINE
5
15A
100
AcDbEntity
8
1
62
256
6
ByLayer
370
13
48
1
60
0
100
AcDbSpline
70
4
71
3
72
14
73
10
40
0
40
0
40
0
40
0
40
0.132983826622442
40
0.256843279962093
40
0.380702733301744
40
0.504562186641395
40
0.628421639981047
40
0.752281093320698
40
1
40
1
40
1
40
1
41
1
10
26.6713472695511
20
-3.80793378233699
30
0
41
1
10
26.2275648463674
20
-4.01360665110536
30
0
41
1
10
25.3704490898504
20
-4.29311041163746
30
0
41
1
10
24.1
20
-4.32712593770455
30
0
41
1
10
22.86
20
-4.00127305450948
30
0
41
1
10
21.62
20
-3.34314762866063
30
0
41
1
10
20.38
20
-2.40765404539545
30
0
41
1
10
18.7266666666667
20
-0.892711951532249
30
0
41
1
10
17.4866666666667
20
0.399609412274174
30
0
41
1
10
16.66
20
1.19785146795849
30
0
0
SPLINE
5
15B
100
AcDbEntity
8
1
62
256
6
ByLayer
370
18
48
1
60
0
100
AcDbSpline
70
4
71
3
72
65
73
61
40
0
40
0
40
0
40
0
40
0.0089486353023704
40
0.0089486353023704
40
0.038097204852299
40
0.038097204852299
40
0.0526714896272633
40
0.0599586320147455
40
0.0599586320147455
40
0.0672457744022276
40
0.0672457744022276
40
0.125542913502087
40
0.125542913502087
40
0.154691483052016
40
0.154691483052016
40
0.183840052601945
40
0.183840052601945
40
0.242137191701803
40
0.242137191701803
40
0.256711476476769
40
0.256711476476769
40
0.263998618864251
40
0.263998618864251
40
0.271285761251734
40
0.300434330801666
40
0.300434330801666
40
0.358731469901528
40
0.358731469901528
40
0.417028609001389
40
0.417028609001389
40
0.446177178551321
40
0.446177178551321
40
0.460751463326286
40
0.460751463326286
40
0.475325748101252
40
0.475325748101252
40
0.533622887201116
40
0.533622887201116
40
0.59192002630098
40
0.59192002630098
40
0.650217165400844
40
0.650217165400844
40
0.664791450175809
40
0.664791450175809
40
0.679365734950775
40
0.708514304500705
40
0.708514304500705
40
0.766811443600564
40
0.766811443600564
40
0.825108582700423
40
0.825108582700423
40
0.839682867475388
40
0.839682867475388
40
0.854257152250352
40
0.854257152250352
40
0.883405721800282
40
0.883405721800282
40
0.941702860900141
40
0.941702860900141
40
1
40
1
40
1
40
1
41
1
10
26.8528332160342
20
-3.86021780335034
30
0
41
1
10
26.8225537987507
20
-3.87661223932665
30
0
41
1
10
26.792259156858
20
-3.89272743506669
30
0
41
1
10
26.6632055053161
20
-3.96014232757767
30
0
41
1
10
26.5642686172414
20
-4.00874697569606
30
0
41
1
10
26.4153873530955
20
-4.07709875890296
30
0
41
1
10
26.340827798725
20
-4.11013447524559
30
0
41
1
10
26.2660554324301
20
-4.14143021188895
30
0
41
1
10
26.2161559488025
20
-4.16190331985263
30
0
41
1
10
26.1911672652475
20
-4.17194958286245
30
0
41
1
10
25.9666055290061
20
-4.26036206577209
30
0
41
1
10
25.768561262846
20
-4.32511730648329
30
0
41
1
10
25.472478629327
20
-4.40111248668109
30
0
41
1
10
25.3739496901205
20
-4.42290831979639
30
0
41
1
10
25.1770021532372
20
-4.45921453453505
30
0
41
1
10
25.078583473533
20
-4.47372931953149
30
0
41
1
10
24.7830831002971
20
-4.50641434399628
30
0
41
1
10
24.5857582612521
20
-4.51373933016461
30
0
41
1
10
24.3373046996784
20
-4.50479520076752
30
0
41
1
10
24.2875240120579
20
-4.50210023740453
30
0
41
1
10
24.2126916602461
20
-4.49669465606632
30
0
41
1
10
24.1877182962833
20
-4.49466498795059
30
0
41
1
10
24.1378526236327
20
-4.49016450027329
30
0
41
1
10
24.013304360473
20
-4.47780327939367
30
0
41
1
10
23.8892765657939
20
-4.45996478098411
30
0
41
1
10
23.5922562382245
20
-4.4069249405369
30
0
41
1
10
23.3951049451146
20
-4.35798034501923
30
0
41
1
10
23.0007992188291
20
-4.23307663700317
30
0
41
1
10
22.8036613301252
20
-4.15702184732729
30
0
41
1
10
22.5065477288745
20
-4.02187769434022
30
0
41
1
10
22.4072689869889
20
-3.97335427378059
30
0
41
1
10
22.2577756895747
20
-3.89540358060981
30
0
41
1
10
22.2077813050242
20
-3.86852049511546
30
0
41
1
10
22.1080620094606
20
-3.81331926273646
30
0
41
1
10
22.058304220372
20
-3.78498635615469
30
0
41
1
10
21.8099285830566
20
-3.63977047950363
30
0
41
1
10
21.6125287735002
20
-3.51226901052374
30
0
41
1
10
21.2181635394281
20
-3.23694693363979
30
0
41
1
10
21.0212252527026
20
-3.0891285981786
30
0
41
1
10
20.6260147053543
20
-2.77407163209696
30
0
41
1
10
20.4277533737675
20
-2.60681153825425
30
0
41
1
10
20.1778365009916
20
-2.38540647439024
30
0
41
1
10
20.1279188897336
20
-2.3406654563625
30
0
41
1
10
20.0283180161256
20
-2.25044013360832
30
0
41
1
10
19.8791989917122
20
-2.11392504732871
30
0
41
1
10
19.7307470882032
20
-1.97409578333546
30
0
41
1
10
19.4342886577448
20
-1.69054997112448
30
0
41
1
10
19.2372265857194
20
-1.49635950197035
30
0
41
1
10
18.8422239030124
20
-1.10004127067927
30
0
41
1
10
18.6443588284378
20
-0.897835440890532
30
0
41
1
10
18.3956496553632
20
-0.640264527421493
30
0
41
1
10
18.3458368634059
20
-0.588510151449924
30
0
41
1
10
18.2460371634336
20
-0.48452987305734
30
0
41
1
10
18.1959882643144
20
-0.4322388378813
30
0
41
1
10
18.0462543554081
20
-0.275438786006646
30
0
41
1
10
17.9468401434179
20
-0.170853919210089
30
0
41
1
10
17.6494663121291
20
0.142676820065219
30
0
41
1
10
17.4523435788699
20
0.351361171186369
30
0
41
1
10
17.0572621023629
20
0.765427344366628
30
0
41
1
10
16.8593097112113
20
0.970817304503356
30
0
41
1
10
16.66
20
1.17375908521643
30
0
0
SPLINE
5
15C
100
AcDbEntity
8
1
62
256
6
ByLayer
370
13
48
1
60
0
100
AcDbSpline
70
4
71
3
72
15
73
11
40
0
40
0
40
0
40
0
40
0.0354664034644708
40
0.213712107948512
40
0.391957812432552
40
0.570203516916593
40
0.748449221400634
40
0.867279691056661
40
0.986110160712688
40
1
40
1
40
1
40
1
41
1
10
33.1500931286668
20
-3.82308954479109
30
0
41
1
10
33.0267287524446
20
-3.87952382842812
30
0
41
1
10
32.2833643762223
20
-4.19099941964288
30
0
41
1
10
30.92
20
-4.43097745055834
30
0
41
1
10
29.06
20
-3.93284482958353
30
0
41
1
10
27.2
20
-2.70878136990018
30
0
41
1
10
25.5466666666667
20
-1.17520965030357
30
0
41
1
10
24.1
20
0.285634379065186
30
0
41
1
10
23.2250196845806
20
1.15199029893799
30
0
41
1
10
22.7633727024945
20
1.58302380088679
30
0
41
1
10
22.7150590537417
20
1.62782383030731
30
0
0
SPLINE
5
15D
100
AcDbEntity
8
1
62
256
6
ByLayer
370
18
48
1
60
0
100
AcDbSpline
70
4
71
3
72
93
73
89
40
0
40
0
40
0
40
0
40
0.0206030224868594
40
0.0206030224868594
40
0.0591855028746753
40
0.0591855028746753
40
0.0784767430685833
40
0.0784767430685833
40
0.0881223631655379
40
0.0881223631655379
40
0.0977679832624925
40
0.0977679832624925
40
0.136350463650312
40
0.136350463650312
40
0.174932944038132
40
0.174932944038132
40
0.213515424425952
40
0.213515424425952
40
0.223161044522906
40
0.223161044522906
40
0.23280666461986
40
0.252097904813769
40
0.252097904813769
40
0.290680385201586
40
0.290680385201586
40
0.329262865589403
40
0.329262865589403
40
0.348554105783312
40
0.348554105783312
40
0.353376915831789
40
0.353376915831789
40
0.358199725880265
40
0.367845345977218
40
0.367845345977218
40
0.406427826365029
40
0.406427826365029
40
0.44501030675284
40
0.44501030675284
40
0.464301546946746
40
0.464301546946746
40
0.473947167043698
40
0.478769977092174
40
0.478769977092174
40
0.48359278714065
40
0.48359278714065
40
0.522175267528459
40
0.522175267528459
40
0.541466507722363
40
0.541466507722363
40
0.560757747916268
40
0.560757747916268
40
0.599340228304078
40
0.599340228304078
40
0.60898584840103
40
0.60898584840103
40
0.613808658449506
40
0.613808658449506
40
0.618631468497983
40
0.637922708691889
40
0.637922708691889
40
0.6765051890797
40
0.6765051890797
40
0.715087669467512
40
0.715087669467512
40
0.734378909661418
40
0.734378909661418
40
0.744024529758371
40
0.744024529758371
40
0.753670149855325
40
0.753670149855325
40
0.792252630243138
40
0.792252630243138
40
0.830835110630951
40
0.830835110630951
40
0.869417591018764
40
0.869417591018764
40
0.879063211115718
40
0.879063211115718
40
0.888708831212672
40
0.908000071406579
40
0.908000071406579
40
0.946582551794393
40
0.946582551794393
40
0.985165032182206
40
0.985165032182206
40
0.99481065227916
40
0.99481065227916
40
1
40
1
40
1
40
1
41
1
10
33.6066441345132
20
-3.72213145547687
30
0
41
1
10
33.5014550967242
20
-3.7847105392749
30
0
41
1
10
33.3963919568196
20
-3.84393616190098
30
0
41
1
10
33.0946033288749
20
-4.00415134269417
30
0
41
1
10
32.8979094195496
20
-4.09647454803095
30
0
41
1
10
32.601526160334
20
-4.2146811933811
30
0
41
1
10
32.502501452682
20
-4.2507191871351
30
0
41
1
10
32.3534000991062
20
-4.29966020684827
30
0
41
1
10
32.3036055444604
20
-4.31512098222731
30
0
41
1
10
32.2037910654519
20
-4.3443221051038
30
0
41
1
10
32.1539060006369
20
-4.35802146517932
30
0
41
1
10
31.9051415776235
20
-4.42190029101394
30
0
41
1
10
31.7075719363912
20
-4.45845293762855
30
0
41
1
10
31.3130127371016
20
-4.50396287651259
30
0
41
1
10
31.1160363739881
20
-4.51294478076935
30
0
41
1
10
30.7209134633093
20
-4.50280405232769
30
0
41
1
10
30.5228044341095
20
-4.48368504266313
30
0
41
1
10
30.2734010939135
20
-4.44074329548968
30
0
41
1
10
30.2233588375415
20
-4.43117822269292
30
0
41
1
10
30.1235616502694
20
-4.41022360719444
30
0
41
1
10
29.9742099074165
20
-4.37605435433923
30
0
41
1
10
29.8256958786421
20
-4.3338831790048
30
0
41
1
10
29.5293065988
20
-4.23935734170962
30
0
41
1
10
29.3325531095169
20
-4.16278878989939
30
0
41
1
10
28.9384935143416
20
-3.98450724617621
30
0
41
1
10
28.7411903399406
20
-3.88286161334969
30
0
41
1
10
28.4435710794774
20
-3.71174046608715
30
0
41
1
10
28.3440863042506
20
-3.65157765989338
30
0
41
1
10
28.2192281703504
20
-3.57239401158188
30
0
41
1
10
28.1942291013211
20
-3.55635627814607
30
0
41
1
10
28.1443205169691
20
-3.52397446877131
30
0
41
1
10
28.0695382502699
20
-3.47490841804699
30
0
41
1
10
27.9949815062527
20
-3.4243722475928
30
0
41
1
10
27.7468873511224
20
-3.25268709440783
30
0
41
1
10
27.5498263258851
20
-3.10485402243606
30
0
41
1
10
27.1561131655943
20
-2.79059299655498
30
0
41
1
10
26.9594267358885
20
-2.62424791243552
30
0
41
1
10
26.6632059043953
20
-2.3623292924984
30
0
41
1
10
26.5642690448143
20
-2.27295174480602
30
0
41
1
10
26.4153878363111
20
-2.13592095484671
30
0
41
1
10
26.3408283129915
20
-2.06666330391397
30
0
41
1
10
26.2660559827335
20
-1.9963099712277
30
0
41
1
10
26.2161565242568
20
-1.94916579373213
30
0
41
1
10
26.1911678404286
20
-1.92545994515109
30
0
41
1
10
25.9666059784099
20
-1.71158373828871
30
0
41
1
10
25.7685616376636
20
-1.51700698989106
30
0
41
1
10
25.4724789440226
20
-1.2196880349388
30
0
41
1
10
25.3739499934487
20
-1.11966871640982
30
0
41
1
10
25.1770024509134
20
-0.917972346504428
30
0
41
1
10
25.0785837768909
20
-0.816296311958354
30
0
41
1
10
24.7830834451316
20
-0.509194086950004
30
0
41
1
10
24.5857586659384
20
-0.301695617899895
30
0
41
1
10
24.3373052213604
20
-0.0402148520961134
30
0
41
1
10
24.2875245592775
20
0.0121868265698026
30
0
41
1
10
24.2126922491058
20
0.0909228851814134
30
0
41
1
10
24.1877188730495
20
0.117192988070656
30
0
41
1
10
24.1378531732609
20
0.169627292926947
30
0
41
1
10
24.0133048450414
20
0.300539508986702
30
0
41
1
10
23.8892769990577
20
0.430543594655774
30
0
41
1
10
23.5922565746935
20
0.740530696374947
30
0
41
1
10
23.3951052522133
20
0.944505804284375
30
0
41
1
10
23.0007995366364
20
1.34539476968385
30
0
41
1
10
22.8036616879141
20
1.54230025173933
30
0
41
1
10
22.5065481981396
20
1.8307422059969
30
0
41
1
10
22.4072695019766
20
1.92573950262749
30
0
41
1
10
22.257776286423
20
2.06630794403063
30
0
41
1
10
22.2077819161648
20
2.11290416807088
30
0
41
1
10
22.1080625663869
20
2.20496108662533
30
0
41
1
10
22.0583047523635
20
2.25045386545691
30
0
41
1
10
21.809929000954
20
2.47521217459106
30
0
41
1
10
21.6125291337576
20
2.64636431556056
30
0
41
1
10
21.2181638509811
20
2.97061063009312
30
0
41
1
10
21.0212255729701
20
3.12374312852694
30
0
41
1
10
20.626015109826
20
3.4104131271146
30
0
41
1
10
20.4277538535113
20
3.54394553467287
30
0
41
1
10
20.177837120435
20
3.69675989012231
30
0
41
1
10
20.127919433802
20
3.72651569290281
30
0
41
1
10
20.0283185092919
20
3.78434521888221
30
0
41
1
10
19.8791994150077
20
3.86860877653265
30
0
41
1
10
19.7307474603608
20
3.9455167291832
30
0
41
1
10
19.4342889511911
20
4.08972540068575
30
0
41
1
10
19.237226858031
20
4.17307043304808
30
0
41
1
10
18.8422241913969
20
4.31494799894492
30
0
41
1
10
18.6443591537748
20
4.37348111298374
30
0
41
1
10
18.3956500680112
20
4.42914407469658
30
0
41
1
10
18.3458372955943
20
4.43939686064763
30
0
41
1
10
18.2690913384793
20
4.45375965238563
30
0
41
1
10
18.242202064083
20
4.45852146740705
30
0
41
1
10
18.2153142777031
20
4.46300857658593
30
0
0
SPLINE
5
15E
100
AcDbEntity
8
1
62
256
6
ByLayer
370
18
48
1
60
0
100
AcDbSpline
70
4
71
3
72
12
73
8
40
0
40
0
40
0
40
0
40
0.387350716102087
40
0.387350716102087
40
0.693675358051044
40
0.693675358051044
40
1
40
1
40
1
40
1
41
1
10
16.5397331946121
20
4.70047051344582
30
0
41
1
10
16.5561774574899
20
4.70618640672734
30
0
41
1
10
16.5722473159439
20
4.71063605460495
30
0
41
1
10
16.6004314723301
20
4.71627086234076
30
0
41
1
10
16.6126680572807
20
4.71794151881954
30
0
41
1
10
16.6366638920023
20
4.71961323360105
30
0
41
1
10
16.6484358117583
20
4.71961734520281
30
0
41
1
10
16.6600000000002
20
4.7187825947004
30
0
0
SPLINE
5
15F
100
AcDbEntity
8
1
62
256
6
ByLayer
370
18
48
1
60
0
100
AcDbSpline
70
4
71
3
72
8
73
4
40
0
40
0
40
0
40
0
40
1
40
1
40
1
40
1
41
1
10
35.7970099903299
20
-3.70425112603155
30
0
41
1
10
35.7534827523197
20
-3.75942046431513
30
0
41
1
10
35.7081927677327
20
-3.80978053198695
30
0
41
1
10
35.6612690552573
20
-3.85561280433652
30
0
0
SPLINE
5
160
100
AcDbEntity
8
1
62
256
6
ByLayer
370
13
48
1
60
0
100
AcDbSpline
70
4
71
3
72
11
73
7
40
0
40
0
40
0
40
0
40
0.290263911936902
40
0.492810466407847
40
0.796630298114264
40
1
40
1
40
1
40
1
41
1
10
35.7970099903298
20
-3.70425112603158
30
0
41
1
10
35.2046733268866
20
-3.4027622924385
30
0
41
1
10
34.19900333011
20
-2.70904092113076
30
0
41
1
10
32.5733333333334
20
-1.24885260830442
30
0
41
1
10
31.1249868836377
20
0.226199858821076
30
0
41
1
10
30.0899737672754
20
1.24301832894147
30
0
41
1
10
29.6749606509131
20
1.6279826665363
30
0
0
SPLINE
5
161
100
AcDbEntity
8
1
62
256
6
ByLayer
370
18
48
1
60
0
100
AcDbSpline
70
4
71
3
72
69
73
65
40
0
40
0
40
0
40
0
40
0.028286142428091
40
0.028286142428091
40
0.0565722848561821
40
0.0565722848561821
40
0.113144569712364
40
0.113144569712364
40
0.120216105319386
40
0.120216105319386
40
0.127287640926409
40
0.127287640926409
40
0.141430712140453
40
0.141430712140453
40
0.169716854568543
40
0.169716854568543
40
0.226289139424719
40
0.226289139424719
40
0.282861424280896
40
0.282861424280896
40
0.311147566708983
40
0.311147566708983
40
0.325290637923026
40
0.325290637923026
40
0.339433709137069
40
0.339433709137069
40
0.396005993993236
40
0.396005993993236
40
0.452578278849403
40
0.452578278849403
40
0.50915056370557
40
0.50915056370557
40
0.523293634919611
40
0.523293634919611
40
0.537436706133653
40
0.565722848561735
40
0.565722848561735
40
0.6222951334179
40
0.6222951334179
40
0.678867418274065
40
0.678867418274065
40
0.707153560702149
40
0.707153560702149
40
0.714225096309171
40
0.714225096309171
40
0.721296631916193
40
0.735439703130238
40
0.735439703130238
40
0.792011987986418
40
0.792011987986418
40
0.848584272842598
40
0.848584272842598
40
0.876870415270689
40
0.876870415270689
40
0.891013486484734
40
0.898085022091756
40
0.898085022091756
40
0.905156557698779
40
0.905156557698779
40
0.961728842554959
40
0.961728842554959
40
0.990014984983048
40
0.990014984983048
40
1
40
1
40
1
40
1
41
1
10
35.6612690552573
20
-3.85561280433649
30
0
41
1
10
35.5627649570924
20
-3.80294999806316
30
0
41
1
10
35.4643765664403
20
-3.7473217512059
30
0
41
1
10
35.2676827994217
20
-3.62982797155195
30
0
41
1
10
35.1693847375597
20
-3.56791347467197
30
0
41
1
10
34.8742016925965
20
-3.37280235751862
30
0
41
1
10
34.6769964303796
20
-3.23036944160944
30
0
41
1
10
34.4532412430784
20
-3.05749840031044
30
0
41
1
10
34.4283533138814
20
-3.03811480726924
30
0
41
1
10
34.3785202511565
20
-2.99900020188852
30
0
41
1
10
34.3535634021955
20
-2.9792596613517
30
0
41
1
10
34.2788179107632
20
-2.91969745360751
30
0
41
1
10
34.2290896530292
20
-2.87948526376064
30
0
41
1
10
34.0801491250164
20
-2.75741820541143
30
0
41
1
10
33.9811749498621
20
-2.6741441798788
30
0
41
1
10
33.6848298021546
20
-2.41910181966489
30
0
41
1
10
33.4880695131833
20
-2.24208358154499
30
0
41
1
10
33.0946030244941
20
-1.87509541053507
30
0
41
1
10
32.8979090519445
20
-1.68510678196844
30
0
41
1
10
32.6015256571917
20
-1.39082298166937
30
0
41
1
10
32.5025008976264
20
-1.2911937627442
30
0
41
1
10
32.3533994560547
20
-1.13965427800448
30
0
41
1
10
32.3036048703846
20
-1.08879177563048
30
0
41
1
10
32.2037903258837
20
-0.986401620354769
30
0
41
1
10
32.1539053273219
20
-0.93501220750278
30
0
41
1
10
31.9051410214323
20
-0.67785996342306
30
0
41
1
10
31.7075714411754
20
-0.470830301412093
30
0
41
1
10
31.3130123045872
20
-0.0563571673632737
30
0
41
1
10
31.1160359432231
20
0.151099088341738
30
0
41
1
10
30.7209129691808
20
0.564743925982754
30
0
41
1
10
30.522803874729
20
0.770968513892228
30
0
41
1
10
30.2734004038421
20
1.02695588657281
30
0
41
1
10
30.2233581315766
20
1.0781342336347
30
0
41
1
10
30.1235610013688
20
1.17975699553406
30
0
41
1
10
29.9742093366421
20
1.3311809274816
30
0
41
1
10
29.8256953645663
20
1.47947535075636
30
0
41
1
10
29.5293061717529
20
1.77163279484932
30
0
41
1
10
29.3325527054175
20
1.96049628563568
30
0
41
1
10
28.9384930950351
20
2.32504514299063
30
0
41
1
10
28.7411898830523
20
2.50076733629388
30
0
41
1
10
28.4435705209501
20
2.75325749335855
30
0
41
1
10
28.3440857042044
20
2.83556420367108
30
0
41
1
10
28.2192275081488
20
2.93592617740305
30
0
41
1
10
28.19422845209
20
2.95587377484756
30
0
41
1
10
28.1443198960715
20
2.99539740439974
30
0
41
1
10
28.0695376702981
20
3.05416884696288
30
0
41
1
10
27.9949809625275
20
3.11138615355307
30
0
41
1
10
27.7468869179343
20
3.29859171920131
30
0
41
1
10
27.5498259479451
20
3.43697553511581
30
0
41
1
10
27.1561128349343
20
3.6903537579509
30
0
41
1
10
26.9594263975489
20
3.80540281133139
30
0
41
1
10
26.6632055053162
20
3.96014232757744
30
0
41
1
10
26.5642686172415
20
4.00874697569583
30
0
41
1
10
26.4153873530956
20
4.07709875890274
30
0
41
1
10
26.3408277987251
20
4.11013447524539
30
0
41
1
10
26.2660554324301
20
4.14143021188872
30
0
41
1
10
26.2161559488026
20
4.16190331985243
30
0
41
1
10
26.1911672652475
20
4.17194958286223
30
0
41
1
10
25.9666055290062
20
4.26036206577186
30
0
41
1
10
25.768561262846
20
4.32511730648309
30
0
41
1
10
25.472478629327
20
4.40111248668089
30
0
41
1
10
25.3739496901205
20
4.42290831979619
30
0
41
1
10
25.2407146579552
20
4.44746947839232
30
0
41
1
10
25.2059602587934
20
4.45342416129449
30
0
41
1
10
25.1712067184876
20
4.45892629163558
30
0
0
SPLINE
5
162
100
AcDbEntity
8
1
62
256
6
ByLayer
370
18
48
1
60
0
100
AcDbSpline
70
4
71
3
72
8
73
4
40
0
40
0
40
0
40
0
40
1
40
1
40
1
40
1
41
1
10
34.1947938906367
20
4.09124899250332
30
0
41
1
10
34.1957475982652
20
4.09166568722182
30
0
41
1
10
34.1967013822198
20
4.09208093985117
30
0
41
1
10
34.1976552444615
20
4.09249473612599
30
0
0
SPLINE
5
163
100
AcDbEntity
8
1
62
256
6
ByLayer
370
18
48
1
60
0
100
AcDbSpline
70
4
71
3
72
16
73
12
40
0
40
0
40
0
40
0
40
0.0876646765382383
40
0.211566973127775
40
0.332653661722954
40
0.450922860287079
40
0.566373248809916
40
0.679004028146466
40
0.788815687237488
40
0.895812665093871
40
1
40
1
40
1
40
1
41
1
10
33.6068457168248
20
3.72055788801336
30
0
41
1
10
33.6240162801975
20
3.73247948462438
30
0
41
1
10
33.6654557760454
20
3.76103533335794
30
0
41
1
10
33.7306150362341
20
3.805108561113
30
0
41
1
10
33.8017725313464
20
3.85217561710132
30
0
41
1
10
33.8712779029885
20
3.89712025311997
30
0
41
1
10
33.9391301843019
20
3.93999834257033
30
0
41
1
10
34.0053287784328
20
3.98087433801069
30
0
41
1
10
34.0698741902744
20
4.01978445453844
30
0
41
1
10
34.1327674069045
20
4.05687383671216
30
0
41
1
10
34.1741462127485
20
4.0805504120687
30
0
41
1
10
34.1945603592638
20
4.09223120054125
30
0
0
SPLINE
5
164
100
AcDbEntity
8
1
62
256
6
ByLayer
370
18
48
1
60
0
100
AcDbSpline
70
4
71
3
72
31
73
27
40
0
40
0
40
0
40
0
40
0.0059475663979408
40
0.0150559423355699
40
0.0273241928506872
40
0.0427508164206613
40
0.0613335367367881
40
0.0830691190365255
40
0.107954900450693
40
0.135990331991326
40
0.167176546855643
40
0.20151680582191
40
0.239017066526011
40
0.279686671074219
40
0.32353923360761
40
0.370587484496797
40
0.420823782890268
40
0.474229237245672
40
0.53077768328217
40
0.590437823590886
40
0.653201455683632
40
0.719102369543212
40
0.788183964551007
40
0.860494684046979
40
0.936030581555451
40
1
40
1
40
1
40
1
41
1
10
18.7097251066666
20
-2.54687812579161
30
0
41
1
10
18.7196267089691
20
-2.55614941500551
30
0
41
1
10
18.7446920791257
20
-2.57961918170358
30
0
41
1
10
18.7901658669003
20
-2.62193881242058
30
0
41
1
10
18.8514138733288
20
-2.67849771018686
30
0
41
1
10
18.9284271742952
20
-2.74883584045981
30
0
41
1
10
19.0212000540156
20
-2.83238609901389
30
0
41
1
10
19.1297259609074
20
-2.92841729835152
30
0
41
1
10
19.2540006597646
20
-3.03604810891093
30
0
41
1
10
19.3940220832537
20
-3.15423852386147
30
0
41
1
10
19.5497968978385
20
-3.28176523302704
30
0
41
1
10
19.7213399147288
20
-3.41720426577825
30
0
41
1
10
19.9086769189728
20
-3.55890980905215
30
0
41
1
10
20.1118474596553
20
-3.70499240578889
30
0
41
1
10
20.3308972035699
20
-3.85328597243
30
0
41
1
10
20.5658367323002
20
-4.00130065142295
30
0
41
1
10
20.8166593340745
20
-4.14625549577372
30
0
41
1
10
21.08330307215
20
-4.28497515957397
30
0
41
1
10
21.3656696089804
20
-4.41389687778383
30
0
41
1
10
21.6636730290585
20
-4.52896958262184
30
0
41
1
10
21.9772736633403
20
-4.62597195953299
30
0
41
1
10
22.3065336379454
20
-4.70106017539121
30
0
41
1
10
22.6516412390566
20
-4.75009126365515
30
0
41
1
10
23.0127320407383
20
-4.76867584225133
30
0
41
1
10
23.3652903665225
20
-4.75346181548343
30
0
41
1
10
23.5975142533731
20
-4.72279348220923
30
0
41
1
10
23.7040108887225
20
-4.70437182985393
30
0
0
SPLINE
5
165
100
AcDbEntity
8
1
62
256
6
ByLayer
370
18
48
1
60
0
100
AcDbSpline
70
4
71
3
72
9
73
5
40
0
40
0
40
0
40
0
40
0.338279561897929
40
1
40
1
40
1
40
1
41
1
10
17.3725574526858
20
-1.18856663584361
30
0
41
1
10
17.5233143534095
20
-1.35077498926807
30
0
41
1
10
17.9689526719394
20
-1.82376647141362
30
0
41
1
10
18.4148289188173
20
-2.26996220326436
30
0
41
1
10
18.7097251066667
20
-2.54687812579169
30
0
0
SPLINE
5
166
100
AcDbEntity
8
1
62
256
6
ByLayer
370
18
48
1
60
0
100
AcDbSpline
70
4
71
3
72
8
73
4
40
0
40
0
40
0
40
0
40
1
40
1
40
1
40
1
41
1
10
16.66
20
-0.408222608555377
30
0
41
1
10
16.8993368884006
20
-0.673250436664631
30
0
41
1
10
17.1362405925406
20
-0.933877177227259
30
0
41
1
10
17.3725574526865
20
-1.18856663584407
30
0
0
SPLINE
5
167
100
AcDbEntity
8
1
62
256
6
ByLayer
370
13
48
1
60
0
100
AcDbSpline
70
4
71
3
72
9
73
5
40
0
40
0
40
0
40
0
40
0.828788729879723
40
1
40
1
40
1
40
1
41
1
10
34.8343262917208
20
4.07997618092728
30
0
41
1
10
34.5628841944805
20
3.9704468250128
30
0
41
1
10
34.235367557907
20
3.8090238102782
30
0
41
1
10
33.9078509213335
20
3.61448649790105
30
0
41
1
10
33.8517763820002
20
3.58024335818624
30
0
0
SPLINE
5
168
100
AcDbEntity
8
1
62
256
6
ByLayer
370
18
48
1
60
0
100
AcDbSpline
70
4
71
3
72
16
73
12
40
0
40
0
40
0
40
0
40
0.250000000000021
40
0.250000000000021
40
0.500000000000042
40
0.500000000000042
40
0.625000000000039
40
0.625000000000039
40
0.750000000000035
40
0.750000000000035
40
1
40
1
40
1
40
1
41
1
10
34.1976552444612
20
4.09249473612587
30
0
41
1
10
34.252218128726
20
4.11616473507058
30
0
41
1
10
34.3058696403906
20
4.13109867302052
30
0
41
1
10
34.4126570735706
20
4.14886853899839
30
0
41
1
10
34.4657525237207
20
4.15137468898968
30
0
41
1
10
34.54553610311
20
4.14751361694033
30
0
41
1
10
34.5722003790517
20
4.14494139910778
30
0
41
1
10
34.6251365094105
20
4.13753174718329
30
0
41
1
10
34.6514651653247
20
4.13269533176123
30
0
41
1
10
34.7301709189479
20
4.11508862203974
30
0
41
1
10
34.7822726563314
20
4.09923266817
30
0
41
1
10
34.834326291721
20
4.07997618092736
30
0
0
SPLINE
5
169
100
AcDbEntity
8
1
62
256
6
ByLayer
370
18
48
1
60
0
100
AcDbSpline
70
4
71
3
72
8
73
4
40
0
40
0
40
0
40
0
40
1
40
1
40
1
40
1
41
1
10
29.6605646134638
20
-4.76213107485844
30
0
41
1
10
29.8435396867311
20
-4.75627967529832
30
0
41
1
10
30.0265165468364
20
-4.73740985354652
30
0
41
1
10
30.2096413420682
20
-4.70563138043346
30
0
0
SPLINE
5
16A
100
AcDbEntity
8
1
62
256
6
ByLayer
370
18
48
1
60
0
100
AcDbSpline
70
4
71
3
72
70
73
66
40
0
40
0
40
0
40
0
40
0.0027122759313546
40
0.0068659796767786
40
0.0124606848643263
40
0.0194957067528053
40
0.0279700072743908
40
0.0378821112763943
40
0.0492308044073487
40
0.0620158363116057
40
0.0762377237624719
40
0.0918979537766211
40
0.108999243221986
40
0.127545852390638
40
0.147543989755873
40
0.168999460764059
40
0.191908780948391
40
0.216263335175864
40
0.242051191717696
40
0.269258077978505
40
0.29788025336765
40
0.327933127172039
40
0.359436490864281
40
0.392412436119548
40
0.426859163221728
40
0.462747024605576
40
0.500041495668391
40
0.528617351118163
40
0.557187078775269
40
0.585766481008281
40
0.614369872987436
40
0.642997068740203
40
0.671631532823611
40
0.700256394780978
40
0.730242949984757
40
0.760196795714738
40
0.790136521705772
40
0.82007940638393
40
0.850039962695545
40
0.855807703706507
40
0.861576339873593
40
0.867345735046542
40
0.873115752429785
40
0.878886255133864
40
0.884657106727032
40
0.890428171787215
40
0.896199316454504
40
0.901970408984325
40
0.907741320301495
40
0.913511924555287
40
0.919282099675638
40
0.925051727930693
40
0.930820696485748
40
0.936588897963741
40
0.942356231007456
40
0.948122642066179
40
0.953888238999054
40
0.959653164145845
40
0.965417555680769
40
0.97118154796224
40
0.976945271882329
40
0.982708855215801
40
0.988472422968682
40
0.994236097726183
40
1
40
1
40
1
40
1
41
1
10
18.7097251068014
20
3.88833592604115
30
0
41
1
10
18.7196267091097
20
3.88194774747791
30
0
41
1
10
18.7446920792773
20
3.86577641930299
30
0
41
1
10
18.7901658670675
20
3.83598916676775
30
0
41
1
10
18.8514138735098
20
3.79522121903207
30
0
41
1
10
18.9284271744881
20
3.74284763653682
30
0
41
1
10
19.0212000542184
20
3.6781632442428
30
0
41
1
10
19.1297259611184
20
3.60031523690955
30
0
41
1
10
19.2540006599818
20
3.50834963398816
30
0
41
1
10
19.3940220834753
20
3.40122221765552
30
0
41
1
10
19.5497968980626
20
3.27781300733551
30
0
41
1
10
19.7213399149535
20
3.13694935311452
30
0
41
1
10
19.9086769191964
20
2.9774289645523
30
0
41
1
10
20.1118474598758
20
2.79804607394317
30
0
41
1
10
20.3308972037855
20
2.59762726174691
30
0
41
1
10
20.5658367325092
20
2.37511432468608
30
0
41
1
10
20.8166593342748
20
2.12972305205693
30
0
41
1
10
21.0833030723397
20
1.86091992216686
30
0
41
1
10
21.3656696091574
20
1.56846821282855
30
0
41
1
10
21.6636730292211
20
1.25241020934908
30
0
41
1
10
21.9772736634866
20
0.91315823814395
30
0
41
1
10
22.3065336380737
20
0.551616653073438
30
0
41
1
10
22.6516412391649
20
0.169085320539665
30
0
41
1
10
23.0127320408249
20
-0.232458620184957
30
0
41
1
10
23.3898022090063
20
-0.650128632107965
30
0
41
1
10
23.7826784368633
20
-1.08002795273796
30
0
41
1
10
24.1542393672659
20
-1.47776644742444
30
0
41
1
10
24.4990335080763
20
-1.8364453320352
30
0
41
1
10
24.8119898203841
20
-2.15222791198534
30
0
41
1
10
25.125009587211
20
-2.45667138402453
30
0
41
1
10
25.4382092601939
20
-2.74827572420423
30
0
41
1
10
25.7515880005633
20
-3.02551207583375
30
0
41
1
10
26.0650567065745
20
-3.28682624455121
30
0
41
1
10
26.383506149503
20
-3.53455742583691
30
0
41
1
10
26.7068510769153
20
-3.76589532499153
30
0
41
1
10
27.0350690857699
20
-3.97824503607768
30
0
41
1
10
27.3631727488103
20
-4.16712437943718
30
0
41
1
10
27.6913371587326
20
-4.33165614228801
30
0
41
1
10
27.9312834056467
20
-4.43342363464353
30
0
41
1
10
28.0828742276888
20
-4.49057486340095
30
0
41
1
10
28.1460838429882
20
-4.51345181853262
30
0
41
1
10
28.2092940249697
20
-4.53536685020541
30
0
41
1
10
28.27250302273
20
-4.55631519377144
30
0
41
1
10
28.3357096043755
20
-4.57629110644405
30
0
41
1
10
28.3989123993564
20
-4.5952890979309
30
0
41
1
10
28.4621100748654
20
-4.61330360102761
30
0
41
1
10
28.5253012887133
20
-4.63032906029042
30
0
41
1
10
28.5884847021044
20
-4.64635990867257
30
0
41
1
10
28.651658976362
20
-4.66139057417666
30
0
41
1
10
28.714822773948
20
-4.67541547848998
30
0
41
1
10
28.7779747583548
20
-4.68842903767123
30
0
41
1
10
28.8411135942119
20
-4.7004256626492
30
0
41
1
10
28.9042379476622
20
-4.71139975842345
30
0
41
1
10
28.9673464854414
20
-4.72134572864562
30
0
41
1
10
29.0304380291939
20
-4.73025798121483
30
0
41
1
10
29.0935121034328
20
-4.73813104473717
30
0
41
1
10
29.1565691446474
20
-4.74496532361388
30
0
41
1
10
29.2196103490024
20
-4.75076133689314
30
0
41
1
10
29.2826370498279
20
-4.75551946369637
30
0
41
1
10
29.3456505858769
20
-4.75924069247077
30
0
41
1
10
29.4086522749632
20
-4.76192371388285
30
0
41
1
10
29.4716435082705
20
-4.76357578621884
30
0
41
1
10
29.5346253987948
20
-4.76417218644838
30
0
41
1
10
29.5976000925803
20
-4.76380754601607
30
0
41
1
10
29.6395761636796
20
-4.7626899059305
30
0
41
1
10
29.6605646134637
20
-4.76213107485844
30
0
0
SPLINE
5
16B
100
AcDbEntity
8
1
62
256
6
ByLayer
370
18
48
1
60
0
100
AcDbSpline
70
4
71
3
72
9
73
5
40
0
40
0
40
0
40
0
40
0.338279561883204
40
1
40
1
40
1
40
1
41
1
10
17.3725574526467
20
4.54657197837952
30
0
41
1
10
17.5233143533834
20
4.49661689785842
30
0
41
1
10
17.9689526719713
20
4.32389464211408
30
0
41
1
10
18.4148289189073
20
4.07825231476116
30
0
41
1
10
18.7097251068015
20
3.88833592604109
30
0
0
SPLINE
5
16C
100
AcDbEntity
8
1
62
256
6
ByLayer
370
18
48
1
60
0
100
AcDbSpline
70
4
71
3
72
8
73
4
40
0
40
0
40
0
40
0
40
1
40
1
40
1
40
1
41
1
10
16.66
20
4.71904052949213
30
0
41
1
10
16.8993368883874
20
4.68268984023285
30
0
41
1
10
17.1362405925145
20
4.62494135948009
30
0
41
1
10
17.3725574526474
20
4.54657197837881
30
0
0
SPLINE
5
16D
100
AcDbEntity
8
1
62
256
6
ByLayer
370
13
48
1
60
0
100
AcDbSpline
70
4
71
3
72
11
73
7
40
0
40
0
40
0
40
0
40
0.0743828208018052
40
0.305787115601354
40
0.537191410400903
40
1
40
1
40
1
40
1
41
1
10
22.0185868018316
20
0.867371714856262
30
0
41
1
10
21.8857245345544
20
1.0021207232308
30
0
41
1
10
21.3395289339439
20
1.55082845464821
30
0
41
1
10
20.38
20
2.45899852249894
30
0
41
1
10
18.7266666666667
20
3.75746122369159
30
0
41
1
10
17.4866666666667
20
4.29438262187352
30
0
41
1
10
16.66
20
4.40086521230995
30
0
0
SPLINE
5
16E
100
AcDbEntity
8
1
62
256
6
ByLayer
370
18
48
1
60
0
100
AcDbSpline
70
4
71
1
72
4
73
2
40
0
40
0
40
1
40
1
41
1
10
35.8589561361286
20
2.50582975529727
30
0
41
1
10
35.2198872808713
20
2.90027118148194
30
0
0
SPLINE
5
16F
100
AcDbEntity
8
1
62
256
6
ByLayer
370
18
48
1
60
0
100
AcDbSpline
70
4
71
1
72
4
73
2
40
0
40
0
40
1
40
1
41
1
10
15.6890400867486
20
0.688501090978264
30
0
41
1
10
15.6358484761767
20
0.741875826778312
30
0
0
SPLINE
5
170
100
AcDbEntity
8
1
62
256
6
ByLayer
370
18
48
1
60
0
100
AcDbSpline
70
4
71
3
72
9
73
5
40
0
40
0
40
0
40
0
40
0.329908841067627
40
1
40
1
40
1
40
1
41
1
10
13.6954505476235
20
-4.35943479927008
30
0
41
1
10
13.7309043293644
20
-4.33489403631521
30
0
41
1
10
13.8390881315796
20
-4.26137529358971
30
0
41
1
10
13.9512368020286
20
-4.19063855113174
30
0
41
1
10
14.0266272050074
20
-4.14435696002647
30
0
0
SPLINE
5
171
100
AcDbEntity
8
1
62
256
6
ByLayer
370
18
48
1
60
0
100
AcDbSpline
70
4
71
3
72
9
73
5
40
0
40
0
40
0
40
0
40
0.65619012396105
40
1
40
1
40
1
40
1
41
1
10
19.0696334800382
20
-3.98060025299364
30
0
41
1
10
19.3003236635605
20
-3.91449837243911
30
0
41
1
10
19.650682956471
20
-3.81984054385023
30
0
41
1
10
20.0009531949125
20
-3.73374371693305
30
0
41
1
10
20.1208232957055
20
-3.70537469834812
30
0
0
SPLINE
5
172
100
AcDbEntity
8
1
62
256
6
ByLayer
370
18
48
1
60
0
100
AcDbSpline
70
4
71
3
72
14
73
10
40
0
40
0
40
0
40
0
40
0.200075653636191
40
0.354600672813526
40
0.461153205386128
40
0.556159198622473
40
0.697038730157942
40
0.886519166862312
40
1
40
1
40
1
40
1
41
1
10
15.6774962277737
20
3.37743427930107
30
0
41
1
10
15.5360777116634
20
3.41972355066247
30
0
41
1
10
15.2893355125454
20
3.50358569191263
30
0
41
1
10
14.9792418053894
20
3.63361465067712
30
0
41
1
10
14.7425532108941
20
3.74513721227015
30
0
41
1
10
14.5118476949884
20
3.86305759535568
30
0
41
1
10
14.2328173903257
20
4.01814683138724
30
0
41
1
10
13.9486275097098
20
4.1898284009481
30
0
41
1
10
13.7643591504967
20
4.3131338817625
30
0
41
1
10
13.6964112949741
20
4.36018179971703
30
0
0
SPLINE
5
173
100
AcDbEntity
8
1
62
256
6
ByLayer
370
18
48
1
60
0
100
AcDbSpline
70
4
71
3
72
14
73
10
40
0
40
0
40
0
40
0
40
0.221141306629094
40
0.387261358215078
40
0.498366903058769
40
0.576524352415967
40
0.686182312003124
40
0.827338506458254
40
1
40
1
40
1
40
1
41
1
10
30.7269984535675
20
1.40153232845569
30
0
41
1
10
30.5994550561742
20
1.48937510503759
30
0
41
1
10
30.3760916497871
20
1.644393977253
30
0
41
1
10
30.088631920112
20
1.8470002156688
30
0
41
1
10
29.8836225626167
20
1.99233100186956
30
0
41
1
10
29.7111699507919
20
2.11491390236466
30
0
41
1
10
29.5213728946082
20
2.25000457496222
30
0
41
1
10
29.2770337627355
20
2.42389572904435
30
0
41
1
10
29.0959734913095
20
2.55204908849484
30
0
41
1
10
28.996354703368
20
2.62240997278227
30
0
0
SPLINE
5
174
100
AcDbEntity
8
1
62
256
6
ByLayer
370
18
48
1
60
0
100
AcDbSpline
70
4
71
3
72
14
73
10
40
0
40
0
40
0
40
0
40
0.240778514961501
40
0.416022507796679
40
0.555276717228851
40
0.701949695931364
40
0.843898636828292
40
0.979800127210285
40
1
40
1
40
1
40
1
41
1
10
22.4578290721865
20
3.3183206241859
30
0
41
1
10
22.2829123012484
20
3.33303203942265
30
0
41
1
10
21.9749354587283
20
3.36531673484069
30
0
41
1
10
21.5510787819321
20
3.4238094191214
30
0
41
1
10
21.190022171925
20
3.48297545048518
30
0
41
1
10
20.8642033146262
20
3.54325673794642
30
0
41
1
10
20.5423414558056
20
3.60941615272375
30
0
41
1
10
20.3180575705402
20
3.65938092415104
30
0
41
1
10
20.1998846683088
20
3.68681842020985
30
0
41
1
10
20.184582143083
20
3.6903896818036
30
0
0
SPLINE
5
175
100
AcDbEntity
8
1
62
256
6
ByLayer
370
18
48
1
60
0
100
AcDbSpline
70
4
71
2
72
6
73
3
40
0
40
0
40
0
40
1
40
1
40
1
41
1
10
32.5414238930482
20
-3.98111546203316
30
0
41
1
10
32.8871292906274
20
-3.88037806203286
30
0
41
1
10
33.2337934272553
20
-3.79456796664962
30
0
0
SPLINE
5
176
100
AcDbEntity
8
1
62
256
6
ByLayer
370
18
48
1
60
0
100
AcDbSpline
70
4
71
1
72
4
73
2
40
0
40
0
40
1
40
1
41
1
10
26.0338730715879
20
-3.97981058516049
30
0
41
1
10
26.5626729391305
20
-3.83381602736281
30
0
0
SPLINE
5
177
100
AcDbEntity
8
1
62
256
6
ByLayer
370
18
48
1
60
0
100
AcDbSpline
70
4
71
3
72
11
73
7
40
0
40
0
40
0
40
0
40
0.313662403930345
40
0.501844208823289
40
0.689570413987259
40
1
40
1
40
1
40
1
41
1
10
31.7200970374685
20
4.45191780263423
30
0
41
1
10
31.5620948546575
20
4.47694735678249
30
0
41
1
10
31.3093135757896
20
4.5178655423189
30
0
41
1
10
30.9619985302707
20
4.57633318557998
30
0
41
1
10
30.6163486044848
20
4.63530861295362
30
0
41
1
10
30.3654281206862
20
4.67856764707298
30
0
41
1
10
30.2090570989603
20
4.70573272306848
30
0
0
SPLINE
5
178
100
AcDbEntity
8
1
62
256
6
ByLayer
370
18
48
1
60
0
100
AcDbSpline
70
4
71
2
72
6
73
3
40
0
40
0
40
0
40
1
40
1
40
1
41
1
10
16.7416380438016
20
-4.70579407370096
30
0
41
1
10
17.4897994212416
20
-4.5777393469144
30
0
41
1
10
18.237414277206
20
-4.4594139417091
30
0
0
SPLINE
5
179
100
AcDbEntity
8
1
62
256
6
ByLayer
370
18
48
1
60
0
100
AcDbSpline
70
4
71
2
72
6
73
3
40
0
40
0
40
0
40
1
40
1
40
1
41
1
10
23.7029345142123
20
-4.70455425496297
30
0
41
1
10
24.4544724435866
20
-4.57276640788623
30
0
41
1
10
25.2037561513224
20
-4.4537837120188
30
0
0
SPLINE
5
17A
100
AcDbEntity
8
1
62
256
6
ByLayer
370
18
48
1
60
0
100
AcDbSpline
70
4
71
2
72
6
73
3
40
0
40
0
40
0
40
1
40
1
40
1
41
1
10
25.2037561513227
20
4.45378371201855
30
0
41
1
10
24.4536419100548
20
4.57253556987939
30
0
41
1
10
23.7029345142123
20
4.70455425496277
30
0
0
SPLINE
5
17B
100
AcDbEntity
8
1
62
256
6
ByLayer
370
18
48
1
60
0
100
AcDbSpline
70
4
71
2
72
6
73
3
40
0
40
0
40
0
40
1
40
1
40
1
41
1
10
18.2374142772064
20
4.4594139417089
30
0
41
1
10
17.4898733102274
20
4.57875900630825
30
0
41
1
10
16.7416380438016
20
4.70579407370082
30
0
0
SPLINE
5
17C
100
AcDbEntity
8
1
62
256
6
ByLayer
370
18
48
1
60
0
100
AcDbSpline
70
4
71
3
72
11
73
7
40
0
40
0
40
0
40
0
40
0.310429586012741
40
0.49815579117672
40
0.686337596069655
40
1
40
1
40
1
40
1
41
1
10
30.2090570989603
20
-4.70573272306873
30
0
41
1
10
30.3654281206862
20
-4.67856764707324
30
0
41
1
10
30.6163486044849
20
-4.63530861295385
30
0
41
1
10
30.9619985302708
20
-4.57633318558021
30
0
41
1
10
31.3093135757898
20
-4.5178655423191
30
0
41
1
10
31.5620948546578
20
-4.47694735678269
30
0
41
1
10
31.7200970374688
20
-4.45191780263443
30
0
0
LINE
5
7F
100
AcDbEntity
8
80
62
256
6
ByLayer
370
18
48
1
60
0
100
AcDbLine
10
0
20
0
30
0
11
-5
21
0
31
0
39
0
210
0
220
0
230
1
0
LINE
5
80
100
AcDbEntity
8
SK4
62
256
6
ByLayer
370
18
48
0.05
60
0
100
AcDbLine
10
-39.7
20
0
30
0
11
36.5
21
0
31
0
39
0
210
0
220
0
230
1
0
LINE
5
82
100
AcDbEntity
8
81
62
256
6
ByLayer
370
18
48
1
60
0
100
AcDbLine
10
36.5
20
0
30
0
11
41.5
21
0
31
0
39
0
210
0
220
0
230
1
0
LINE
5
83
100
AcDbEntity
8
4
62
256
6
ByLayer
370
18
48
0.05
60
0
100
AcDbLine
10
0
20
0
30
0
11
36.5
21
0
31
0
39
0
210
0
220
0
230
1
0
LINE
5
85
100
AcDbEntity
8
1
62
256
6
ByLayer
370
18
48
1
60
0
100
AcDbLine
10
0
20
4.7625
30
0
11
0
21
0
31
0
39
0
210
0
220
0
230
1
0
LINE
5
86
100
AcDbEntity
8
1
62
256
6
ByLayer
370
18
48
1
60
0
100
AcDbLine
10
0
20
0
30
0
11
0
21
-4.7625
31
0
39
0
210
0
220
0
230
1
0
LINE
5
87
100
AcDbEntity
8
1
62
256
6
ByLayer
370
18
48
1
60
0
100
AcDbLine
10
36.370993
20
-0.764938
30
0
11
36.354254
21
-0.764889
31
0
39
0
210
0
220
0
230
1
0
LINE
5
88
100
AcDbEntity
8
1
62
256
6
ByLayer
370
18
48
1
60
0
100
AcDbLine
10
36.435411
20
-0.208121
30
0
11
36.412473
21
-0.218079
31
0
39
0
210
0
220
0
230
1
0
LINE
5
89
100
AcDbEntity
8
1
62
256
6
ByLayer
370
18
48
1
60
0
100
AcDbLine
10
36.185567
20
1.42923
30
0
11
36.417892
21
1.833349
31
0
39
0
210
0
220
0
230
1
0
LINE
5
8A
100
AcDbEntity
8
1
62
256
6
ByLayer
370
18
48
1
60
0
100
AcDbLine
10
36.435411
20
2.482116
30
0
11
36.417892
21
1.833349
31
0
39
0
210
0
220
0
230
1
0
LINE
5
8B
100
AcDbEntity
8
1
62
256
6
ByLayer
370
18
48
1
60
0
100
AcDbLine
10
36.354254
20
-0.764889
30
0
11
36.170368
21
-1.402799
31
0
39
0
210
0
220
0
230
1
0
LINE
5
8C
100
AcDbEntity
8
1
62
256
6
ByLayer
370
18
48
1
60
0
100
AcDbLine
10
36.412473
20
-0.218079
30
0
11
36.354254
21
-0.764889
31
0
39
0
210
0
220
0
230
1
0
LINE
5
8D
100
AcDbEntity
8
1
62
256
6
ByLayer
370
18
48
1
60
0
100
AcDbLine
10
35.966911
20
-0.328769
30
0
11
36.412473
21
-0.218079
31
0
39
0
210
0
220
0
230
1
0
LINE
5
8E
100
AcDbEntity
8
1
62
256
6
ByLayer
370
18
48
1
60
0
100
AcDbLine
10
36.435411
20
-2.482116
30
0
11
36.417892
21
-1.833349
31
0
39
0
210
0
220
0
230
1
0
LINE
5
8F
100
AcDbEntity
8
1
62
256
6
ByLayer
370
18
48
1
60
0
100
AcDbLine
10
36.370993
20
-2.610376
30
0
11
36.362023
21
-2.259535
31
0
39
0
210
0
220
0
230
1
0
LINE
5
90
100
AcDbEntity
8
1
62
256
6
ByLayer
370
13
48
1
60
0
100
AcDbLine
10
35.491733
20
-0.390831
30
0
11
34.447312
21
-0.149832
31
0
39
0
210
0
220
0
230
1
0
LINE
5
91
100
AcDbEntity
8
1
62
256
6
ByLayer
370
18
48
1
60
0
100
AcDbLine
10
36.362023
20
-2.259535
30
0
11
35.916662
21
-2.907394
31
0
39
0
210
0
220
0
230
1
0
LINE
5
92
100
AcDbEntity
8
1
62
256
6
ByLayer
370
18
48
1
60
0
100
AcDbLine
10
36.417892
20
-1.833349
30
0
11
36.362023
21
-2.259535
31
0
39
0
210
0
220
0
230
1
0
LINE
5
93
100
AcDbEntity
8
1
62
256
6
ByLayer
370
18
48
1
60
0
100
AcDbLine
10
35.929509
20
-0.983829
30
0
11
36.417892
21
-1.833349
31
0
39
0
210
0
220
0
230
1
0
LINE
5
94
100
AcDbEntity
8
1
62
256
6
ByLayer
370
13
48
1
60
0
100
AcDbLine
10
15.705435
20
-4.499362
30
0
11
15.705435
21
-4.090479
31
0
39
0
210
0
220
0
230
1
0
LINE
5
95
100
AcDbEntity
8
1
62
256
6
ByLayer
370
13
48
1
60
0
100
AcDbLine
10
16.66
20
-4.183869
30
0
11
16.66
21
-4.408067
31
0
39
0
210
0
220
0
230
1
0
LINE
5
96
100
AcDbEntity
8
1
62
256
6
ByLayer
370
13
48
1
60
0
100
AcDbLine
10
15.705435
20
0.666332
30
0
11
15.705435
21
2.134561
31
0
39
0
210
0
220
0
230
1
0
LINE
5
97
100
AcDbEntity
8
1
62
256
6
ByLayer
370
13
48
1
60
0
100
AcDbLine
10
7.124002
20
-4.52
30
0
11
7.124002
21
0
31
0
39
0
210
0
220
0
230
1
0
LINE
5
98
100
AcDbEntity
8
1
62
256
6
ByLayer
370
13
48
1
60
0
100
AcDbLine
10
7.124002
20
0
30
0
11
7.124002
21
4.52
31
0
39
0
210
0
220
0
230
1
0
LINE
5
99
100
AcDbEntity
8
1
62
256
6
ByLayer
370
18
48
1
60
0
100
AcDbLine
10
6.169437
20
4.7625
30
0
11
6.169437
21
0
31
0
39
0
210
0
220
0
230
1
0
LINE
5
9A
100
AcDbEntity
8
1
62
256
6
ByLayer
370
18
48
1
60
0
100
AcDbLine
10
6.169437
20
0
30
0
11
6.169437
21
-4.7625
31
0
39
0
210
0
220
0
230
1
0
LINE
5
9B
100
AcDbEntity
8
1
62
256
6
ByLayer
370
13
48
1
60
0
100
AcDbLine
10
16.66
20
1.197851
30
0
11
16.66
21
1.173759
31
0
39
0
210
0
220
0
230
1
0
LINE
5
9C
100
AcDbEntity
8
1
62
256
6
ByLayer
370
18
48
1
60
0
100
AcDbLine
10
16.66
20
4.717177
30
0
11
16.66
21
4.719041
31
0
39
0
210
0
220
0
230
1
0
LINE
5
9D
100
AcDbEntity
8
1
62
256
6
ByLayer
370
13
48
1
60
0
100
AcDbLine
10
16.66
20
4.717177
30
0
11
16.66
21
4.400865
31
0
39
0
210
0
220
0
230
1
0
LINE
5
9E
100
AcDbEntity
8
SK1
62
256
6
ByLayer
370
18
48
1
60
0
100
AcDbLine
10
0
20
4.7625
30
0
11
0
21
0
31
0
39
0
210
0
220
0
230
1
0
LINE
5
A0
100
AcDbEntity
8
SK1
62
256
6
ByLayer
370
18
48
1
60
0
100
AcDbLine
10
0
20
0
30
0
11
0
21
-4.7625
31
0
39
0
210
0
220
0
230
1
0
LINE
5
A1
100
AcDbEntity
8
SK1
62
256
6
ByLayer
370
18
48
1
60
0
100
AcDbLine
10
-23.455
20
3.4925
30
0
11
-24.725
21
4.7625
31
0
39
0
210
0
220
0
230
1
0
LINE
5
A2
100
AcDbEntity
8
SK1
62
256
6
ByLayer
370
18
48
1
60
0
100
AcDbLine
10
-16.345
20
3.4925
30
0
11
-15.075
21
4.7625
31
0
39
0
210
0
220
0
230
1
0
LINE
5
A3
100
AcDbEntity
8
SK1
62
256
6
ByLayer
370
18
48
1
60
0
100
AcDbLine
10
-23.455
20
3.4925
30
0
11
-16.345
21
3.4925
31
0
39
0
210
0
220
0
230
1
0
LINE
5
A4
100
AcDbEntity
8
SK1
62
256
6
ByLayer
370
18
48
1
60
0
100
AcDbLine
10
-39.1
20
4.7625
30
0
11
-39.1
21
-4.7625
31
0
39
0
210
0
220
0
230
1
0
LINE
5
A5
100
AcDbEntity
8
SK1
62
256
6
ByLayer
370
18
48
1
60
0
100
AcDbLine
10
-39.7
20
-4.1625
30
0
11
-39.7
21
4.1625
31
0
39
0
210
0
220
0
230
1
0
LINE
5
A6
100
AcDbEntity
8
1
62
256
6
ByLayer
370
18
48
1
60
0
100
AcDbLine
10
6.169437
20
4.7625
30
0
11
0
21
4.7625
31
0
39
0
210
0
220
0
230
1
0
LINE
5
A7
100
AcDbEntity
8
1
62
256
6
ByLayer
370
18
48
1
60
0
100
AcDbLine
10
0
20
-4.7625
30
0
11
6.169437
21
-4.7625
31
0
39
0
210
0
220
0
230
1
0
LINE
5
A8
100
AcDbEntity
8
1
62
256
6
ByLayer
370
18
48
1
60
0
100
AcDbLine
10
13.23536
20
4.52
30
0
11
7.124002
21
4.52
31
0
39
0
210
0
220
0
230
1
0
LINE
5
A9
100
AcDbEntity
8
1
62
256
6
ByLayer
370
18
48
1
60
0
100
AcDbLine
10
7.124002
20
-4.52
30
0
11
13.23536
21
-4.52
31
0
39
0
210
0
220
0
230
1
0
LINE
5
AA
100
AcDbEntity
8
SK1
62
256
6
ByLayer
370
18
48
1
60
0
100
AcDbLine
10
0
20
4.7625
30
0
11
-15.075
21
4.7625
31
0
39
0
210
0
220
0
230
1
0
LINE
5
AB
100
AcDbEntity
8
SK1
62
256
6
ByLayer
370
18
48
1
60
0
100
AcDbLine
10
-24.725
20
4.7625
30
0
11
-39.1
21
4.7625
31
0
39
0
210
0
220
0
230
1
0
LINE
5
AC
100
AcDbEntity
8
SK1
62
256
6
ByLayer
370
18
48
1
60
0
100
AcDbLine
10
-39.1
20
-4.7625
30
0
11
0
21
-4.7625
31
0
39
0
210
0
220
0
230
1
0
LINE
5
AD
100
AcDbEntity
8
SK1
62
256
6
ByLayer
370
18
48
1
60
0
100
AcDbLine
10
-39.7
20
-4.1625
30
0
11
-39.1
21
-4.7625
31
0
39
0
210
0
220
0
230
1
0
LINE
5
AE
100
AcDbEntity
8
SK1
62
256
6
ByLayer
370
18
48
1
60
0
100
AcDbLine
10
-39.1
20
4.7625
30
0
11
-39.7
21
4.1625
31
0
39
0
210
0
220
0
230
1
0
LINE
5
AF
100
AcDbEntity
8
SK2
62
256
6
ByLayer
370
13
48
1
60
0
100
AcDbLine
10
-67.95
20
-8.482199
30
0
11
-67.95
21
8.482199
31
0
39
0
210
0
220
0
230
1
0
LINE
5
B1
100
AcDbEntity
8
SK2
62
256
6
ByLayer
370
13
48
1
60
0
100
AcDbLine
10
-41.2875
20
-4.7625
30
0
11
-69.95
21
-4.7625
31
0
39
0
210
0
220
0
230
1
0
LINE
5
B2
100
AcDbEntity
8
SK2
62
256
6
ByLayer
370
13
48
1
60
0
100
AcDbLine
10
-41.2875
20
4.7625
30
0
11
-69.95
21
4.7625
31
0
39
0
210
0
220
0
230
1
0
LINE
5
B3
100
AcDbEntity
8
1
62
256
6
ByLayer
370
18
48
1
60
1
100
AcDbLine
10
-67.95
20
-4.7625
30
0
11
-68.410784
21
-1.262502
31
0
39
0
210
0
220
0
230
1
0
LINE
5
B4
100
AcDbEntity
8
1
62
256
6
ByLayer
370
18
48
1
60
1
100
AcDbLine
10
-68.410784
20
-1.262502
30
0
11
-67.489216
21
-1.262498
31
0
39
0
210
0
220
0
230
1
0
LINE
5
B5
100
AcDbEntity
8
1
62
256
6
ByLayer
370
18
48
1
60
1
100
AcDbLine
10
-67.489216
20
-1.262498
30
0
11
-67.95
21
-4.7625
31
0
39
0
210
0
220
0
230
1
0
LINE
5
B6
100
AcDbEntity
8
1
62
256
6
ByLayer
370
18
48
1
60
1
100
AcDbLine
10
-67.95
20
4.7625
30
0
11
-67.489216
21
1.262502
31
0
39
0
210
0
220
0
230
1
0
LINE
5
B7
100
AcDbEntity
8
1
62
256
6
ByLayer
370
18
48
1
60
1
100
AcDbLine
10
-67.489216
20
1.262502
30
0
11
-68.410784
21
1.262498
31
0
39
0
210
0
220
0
230
1
0
LINE
5
B8
100
AcDbEntity
8
1
62
256
6
ByLayer
370
18
48
1
60
1
100
AcDbLine
10
-68.410784
20
1.262498
30
0
11
-67.95
21
4.7625
31
0
39
0
210
0
220
0
230
1
0
LINE
5
B9
100
AcDbEntity
8
SK2
62
256
6
ByLayer
370
13
48
1
60
0
100
AcDbLine
10
8.41
20
-8.666466
30
0
11
8.41
21
8.666466
31
0
39
0
210
0
220
0
230
1
0
LINE
5
BA
100
AcDbEntity
8
SK2
62
256
6
ByLayer
370
13
48
1
60
0
100
AcDbLine
10
15.0725
20
-4.52
30
0
11
6.41
21
-4.52
31
0
39
0
210
0
220
0
230
1
0
LINE
5
BB
100
AcDbEntity
8
SK2
62
256
6
ByLayer
370
13
48
1
60
0
100
AcDbLine
10
15.0725
20
4.52
30
0
11
6.41
21
4.52
31
0
39
0
210
0
220
0
230
1
0
LINE
5
BC
100
AcDbEntity
8
1
62
256
6
ByLayer
370
18
48
1
60
1
100
AcDbLine
10
8.41
20
-4.52
30
0
11
7.949216
21
-1.020002
31
0
39
0
210
0
220
0
230
1
0
LINE
5
BD
100
AcDbEntity
8
1
62
256
6
ByLayer
370
18
48
1
60
1
100
AcDbLine
10
7.949216
20
-1.020002
30
0
11
8.870784
21
-1.019998
31
0
39
0
210
0
220
0
230
1
0
LINE
5
BE
100
AcDbEntity
8
1
62
256
6
ByLayer
370
18
48
1
60
1
100
AcDbLine
10
8.870784
20
-1.019998
30
0
11
8.41
21
-4.52
31
0
39
0
210
0
220
0
230
1
0
LINE
5
BF
100
AcDbEntity
8
1
62
256
6
ByLayer
370
18
48
1
60
1
100
AcDbLine
10
8.41
20
4.52
30
0
11
8.870784
21
1.020002
31
0
39
0
210
0
220
0
230
1
0
LINE
5
C0
100
AcDbEntity
8
1
62
256
6
ByLayer
370
18
48
1
60
1
100
AcDbLine
10
8.870784
20
1.020002
30
0
11
7.949216
21
1.019998
31
0
39
0
210
0
220
0
230
1
0
LINE
5
C1
100
AcDbEntity
8
1
62
256
6
ByLayer
370
18
48
1
60
1
100
AcDbLine
10
7.949216
20
1.019998
30
0
11
8.41
21
4.52
31
0
39
0
210
0
220
0
230
1
0
LINE
5
C2
100
AcDbEntity
8
2
62
256
6
ByLayer
370
13
48
1
60
0
100
AcDbLine
10
53.5
20
-8.482199
30
0
11
53.5
21
8.482199
31
0
39
0
210
0
220
0
230
1
0
LINE
5
C4
100
AcDbEntity
8
2
62
256
6
ByLayer
370
13
48
1
60
0
100
AcDbLine
10
38.0875
20
-4.7625
30
0
11
55.5
21
-4.7625
31
0
39
0
210
0
220
0
230
1
0
LINE
5
C5
100
AcDbEntity
8
2
62
256
6
ByLayer
370
13
48
1
60
0
100
AcDbLine
10
38.0875
20
4.7625
30
0
11
55.5
21
4.7625
31
0
39
0
210
0
220
0
230
1
0
LINE
5
C6
100
AcDbEntity
8
1
62
256
6
ByLayer
370
18
48
1
60
1
100
AcDbLine
10
53.5
20
-4.7625
30
0
11
53.039216
21
-1.262502
31
0
39
0
210
0
220
0
230
1
0
LINE
5
C7
100
AcDbEntity
8
1
62
256
6
ByLayer
370
18
48
1
60
1
100
AcDbLine
10
53.039216
20
-1.262502
30
0
11
53.960784
21
-1.262498
31
0
39
0
210
0
220
0
230
1
0
LINE
5
C8
100
AcDbEntity
8
1
62
256
6
ByLayer
370
18
48
1
60
1
100
AcDbLine
10
53.960784
20
-1.262498
30
0
11
53.5
21
-4.7625
31
0
39
0
210
0
220
0
230
1
0
LINE
5
C9
100
AcDbEntity
8
1
62
256
6
ByLayer
370
18
48
1
60
1
100
AcDbLine
10
53.5
20
4.7625
30
0
11
53.960784
21
1.262502
31
0
39
0
210
0
220
0
230
1
0
LINE
5
CA
100
AcDbEntity
8
1
62
256
6
ByLayer
370
18
48
1
60
1
100
AcDbLine
10
53.960784
20
1.262502
30
0
11
53.039216
21
1.262498
31
0
39
0
210
0
220
0
230
1
0
LINE
5
CB
100
AcDbEntity
8
1
62
256
6
ByLayer
370
18
48
1
60
1
100
AcDbLine
10
53.039216
20
1.262498
30
0
11
53.5
21
4.7625
31
0
39
0
210
0
220
0
230
1
0
LINE
5
181
100
AcDbEntity
8
1
62
256
6
ByLayer
370
18
48
1
60
1
100
AcDbLine
10
-67.95
20
-4.7625
30
0
11
-68.410784
21
-1.262502
31
0
39
0
210
0
220
0
230
1
0
LINE
5
182
100
AcDbEntity
8
1
62
256
6
ByLayer
370
18
48
1
60
1
100
AcDbLine
10
-68.410784
20
-1.262502
30
0
11
-67.489216
21
-1.262498
31
0
39
0
210
0
220
0
230
1
0
LINE
5
183
100
AcDbEntity
8
1
62
256
6
ByLayer
370
18
48
1
60
1
100
AcDbLine
10
-67.489216
20
-1.262498
30
0
11
-67.95
21
-4.7625
31
0
39
0
210
0
220
0
230
1
0
LINE
5
185
100
AcDbEntity
8
1
62
256
6
ByLayer
370
18
48
1
60
1
100
AcDbLine
10
-67.95
20
4.7625
30
0
11
-67.489216
21
1.262502
31
0
39
0
210
0
220
0
230
1
0
LINE
5
186
100
AcDbEntity
8
1
62
256
6
ByLayer
370
18
48
1
60
1
100
AcDbLine
10
-67.489216
20
1.262502
30
0
11
-68.410784
21
1.262498
31
0
39
0
210
0
220
0
230
1
0
LINE
5
187
100
AcDbEntity
8
1
62
256
6
ByLayer
370
18
48
1
60
1
100
AcDbLine
10
-68.410784
20
1.262498
30
0
11
-67.95
21
4.7625
31
0
39
0
210
0
220
0
230
1
0
LINE
5
18B
100
AcDbEntity
8
1
62
256
6
ByLayer
370
18
48
1
60
1
100
AcDbLine
10
8.41
20
-4.52
30
0
11
7.949216
21
-1.020002
31
0
39
0
210
0
220
0
230
1
0
LINE
5
18C
100
AcDbEntity
8
1
62
256
6
ByLayer
370
18
48
1
60
1
100
AcDbLine
10
7.949216
20
-1.020002
30
0
11
8.870784
21
-1.019998
31
0
39
0
210
0
220
0
230
1
0
LINE
5
18D
100
AcDbEntity
8
1
62
256
6
ByLayer
370
18
48
1
60
1
100
AcDbLine
10
8.870784
20
-1.019998
30
0
11
8.41
21
-4.52
31
0
39
0
210
0
220
0
230
1
0
LINE
5
18F
100
AcDbEntity
8
1
62
256
6
ByLayer
370
18
48
1
60
1
100
AcDbLine
10
8.41
20
4.52
30
0
11
8.870784
21
1.020002
31
0
39
0
210
0
220
0
230
1
0
LINE
5
190
100
AcDbEntity
8
1
62
256
6
ByLayer
370
18
48
1
60
1
100
AcDbLine
10
8.870784
20
1.020002
30
0
11
7.949216
21
1.019998
31
0
39
0
210
0
220
0
230
1
0
LINE
5
191
100
AcDbEntity
8
1
62
256
6
ByLayer
370
18
48
1
60
1
100
AcDbLine
10
7.949216
20
1.019998
30
0
11
8.41
21
4.52
31
0
39
0
210
0
220
0
230
1
0
LINE
5
195
100
AcDbEntity
8
1
62
256
6
ByLayer
370
18
48
1
60
1
100
AcDbLine
10
53.5
20
-4.7625
30
0
11
53.039216
21
-1.262502
31
0
39
0
210
0
220
0
230
1
0
LINE
5
196
100
AcDbEntity
8
1
62
256
6
ByLayer
370
18
48
1
60
1
100
AcDbLine
10
53.039216
20
-1.262502
30
0
11
53.960784
21
-1.262498
31
0
39
0
210
0
220
0
230
1
0
LINE
5
197
100
AcDbEntity
8
1
62
256
6
ByLayer
370
18
48
1
60
1
100
AcDbLine
10
53.960784
20
-1.262498
30
0
11
53.5
21
-4.7625
31
0
39
0
210
0
220
0
230
1
0
LINE
5
199
100
AcDbEntity
8
1
62
256
6
ByLayer
370
18
48
1
60
1
100
AcDbLine
10
53.5
20
4.7625
30
0
11
53.960784
21
1.262502
31
0
39
0
210
0
220
0
230
1
0
LINE
5
19A
100
AcDbEntity
8
1
62
256
6
ByLayer
370
18
48
1
60
1
100
AcDbLine
10
53.960784
20
1.262502
30
0
11
53.039216
21
1.262498
31
0
39
0
210
0
220
0
230
1
0
LINE
5
19B
100
AcDbEntity
8
1
62
256
6
ByLayer
370
18
48
1
60
1
100
AcDbLine
10
53.039216
20
1.262498
30
0
11
53.5
21
4.7625
31
0
39
0
210
0
220
0
230
1
0
MTEXT
5
17D
100
AcDbEntity
8
SK2
62
256
6
ByLayer
370
18
48
1
60
0
100
AcDbMText
10
-69.514634
20
-6.547355
30
0
210
0
220
0
230
1
1
%%c
40
3.5
41
0
44
1.084337
50
90
71
7
72
5
7
iso_b_vert
0
MTEXT
5
180
100
AcDbEntity
8
SK2
62
256
6
ByLayer
370
18
48
1
60
0
100
AcDbMText
10
-69.514634
20
0.425301
30
0
210
0
220
0
230
1
1
\W0.7346;9.52
40
3.5
41
0
44
1.084337
50
90
71
7
72
5
7
iso_b_vert
0
MTEXT
5
189
100
AcDbEntity
8
SK2
62
256
6
ByLayer
370
18
48
1
60
0
100
AcDbMText
10
6.845366
20
-6.731622
30
0
210
0
220
0
230
1
1
%%c
40
3.5
41
0
44
1.084337
50
90
71
7
72
5
7
iso_b_vert
0
MTEXT
5
18A
100
AcDbEntity
8
SK2
62
256
6
ByLayer
370
18
48
1
60
0
100
AcDbMText
10
6.845366
20
0.241034
30
0
210
0
220
0
230
1
1
\W0.7528;9.04
40
3.5
41
0
44
1.084337
50
90
71
7
72
5
7
iso_b_vert
0
MTEXT
5
193
100
AcDbEntity
8
2
62
256
6
ByLayer
370
18
48
1
60
0
100
AcDbMText
10
51.935366
20
-6.547355
30
0
210
0
220
0
230
1
1
%%c
40
3.5
41
0
44
1.084337
50
90
71
7
72
5
7
iso_b_vert
0
MTEXT
5
194
100
AcDbEntity
8
2
62
256
6
ByLayer
370
18
48
1
60
0
100
AcDbMText
10
51.935366
20
0.425301
30
0
210
0
220
0
230
1
1
\W0.7346;9.52
40
3.5
41
0
44
1.084337
50
90
71
7
72
5
7
iso_b_vert
0
MTEXT
5
19D
100
AcDbEntity
8
SK6
62
256
6
ByLayer
370
18
48
1
60
0
100
AcDbMText
10
-27.811607
20
-62.2361
30
0
210
0
220
0
230
1
1
\W0.7556;2F440-0953-228ASD   1725
40
3
41
0
44
1.084337
50
0
71
7
72
5
7
iso_b_vert
0
HATCH
5
184
100
AcDbEntity
8
SK2
62
256
6
ByLayer
370
13
48
1
60
0
100
AcDbHatch
10
0
20
0
30
0
210
0
220
0
230
1
2
ANSI31
70
0
71
0
91
1
92
5
93
3
72
1
10
-67.95
20
-4.76249999999985
11
-68.4107837415527
21
-1.26250169255303
72
1
10
-68.4107837415527
20
-1.26250169255303
11
-67.4892162584472
21
-1.26249830744666
72
1
10
-67.4892162584472
20
-1.26249830744666
11
-67.95
21
-4.76249999999985
97
0
75
0
76
1
52
0
41
0.0062
77
0
78
1
53
45
43
0
44
0
45
-0.0139193969876572
46
0.0139193969876572
79
0
47
0
98
1
10
0
20
0
0
HATCH
5
188
100
AcDbEntity
8
SK2
62
256
6
ByLayer
370
13
48
1
60
0
100
AcDbHatch
10
0
20
0
30
0
210
0
220
0
230
1
2
ANSI31
70
0
71
0
91
1
92
5
93
3
72
1
10
-67.95
20
4.76250000000016
11
-67.4892162584472
21
1.26250169255334
72
1
10
-67.4892162584472
20
1.26250169255334
11
-68.4107837415527
21
1.26249830744698
72
1
10
-68.4107837415527
20
1.26249830744698
11
-67.95
21
4.76250000000016
97
0
75
0
76
1
52
0
41
0.0062
77
0
78
1
53
45
43
0
44
0
45
-0.0139193969876572
46
0.0139193969876572
79
0
47
0
98
1
10
0
20
0
0
HATCH
5
18E
100
AcDbEntity
8
SK2
62
256
6
ByLayer
370
13
48
1
60
0
100
AcDbHatch
10
0
20
0
30
0
210
0
220
0
230
1
2
ANSI31
70
0
71
0
91
1
92
5
93
3
72
1
10
8.41000000000003
20
-4.52000000000007
11
7.94921625844725
21
-1.02000169255325
72
1
10
7.94921625844725
20
-1.02000169255325
11
8.8707837415528
21
-1.01999830744688
72
1
10
8.8707837415528
20
-1.01999830744688
11
8.41000000000003
21
-4.52000000000007
97
0
75
0
76
1
52
0
41
0.0062
77
0
78
1
53
45
43
0
44
0
45
-0.0139193969876572
46
0.0139193969876572
79
0
47
0
98
1
10
0
20
0
0
HATCH
5
192
100
AcDbEntity
8
SK2
62
256
6
ByLayer
370
13
48
1
60
0
100
AcDbHatch
10
0
20
0
30
0
210
0
220
0
230
1
2
ANSI31
70
0
71
0
91
1
92
5
93
3
72
1
10
8.41000000000003
20
4.51999999999993
11
8.8707837415528
21
1.02000169255311
72
1
10
8.8707837415528
20
1.02000169255311
11
7.94921625844725
21
1.01999830744674
72
1
10
7.94921625844725
20
1.01999830744674
11
8.41000000000003
21
4.51999999999993
97
0
75
0
76
1
52
0
41
0.0062
77
0
78
1
53
45
43
0
44
0
45
-0.0139193969876572
46
0.0139193969876572
79
0
47
0
98
1
10
0
20
0
0
HATCH
5
198
100
AcDbEntity
8
2
62
256
6
ByLayer
370
13
48
1
60
0
100
AcDbHatch
10
0
20
0
30
0
210
0
220
0
230
1
2
ANSI31
70
0
71
0
91
1
92
5
93
3
72
1
10
53.5000000000001
20
-4.76250000000013
11
53.0392162584473
21
-1.26250169255332
72
1
10
53.0392162584473
20
-1.26250169255332
11
53.9607837415528
21
-1.26249830744695
72
1
10
53.9607837415528
20
-1.26249830744695
11
53.5000000000001
21
-4.76250000000013
97
0
75
0
76
1
52
0
41
0.0062
77
0
78
1
53
45
43
0
44
0
45
-0.0139193969876572
46
0.0139193969876572
79
0
47
0
98
1
10
0
20
0
0
HATCH
5
19C
100
AcDbEntity
8
2
62
256
6
ByLayer
370
13
48
1
60
0
100
AcDbHatch
10
0
20
0
30
0
210
0
220
0
230
1
2
ANSI31
70
0
71
0
91
1
92
5
93
3
72
1
10
53.5000000000001
20
4.76249999999987
11
53.9607837415528
21
1.26250169255306
72
1
10
53.9607837415528
20
1.26250169255306
11
53.0392162584473
21
1.26249830744669
72
1
10
53.0392162584473
20
1.26249830744669
11
53.5000000000001
21
4.76249999999987
97
0
75
0
76
1
52
0
41
0.0062
77
0
78
1
53
45
43
0
44
0
45
-0.0139193969876572
46
0.0139193969876572
79
0
47
0
98
1
10
0
20
0
0
DIMENSION
5
1A0
100
AcDbEntity
8
SK2
62
256
6
ByLayer
370
18
48
1
60
0
100
AcDbDimension
2
_U0
10
16.66
20
-13.986973
30
0
11
26.58
21
-13.986973
31
0
70
32
71
1
72
1
41
1
210
0
220
0
230
1
3
Standard
100
AcDbAlignedDimension
13
36.5
23
-4.7625
33
0
14
16.66
24
-4.7625
34
0
50
0
100
AcDbRotatedDimension
1001
ACAD
1000
DSTYLE
1002
{
1070
   371
1070
    13
1070
   372
1070
    13
1070
   170
1070
     0
1070
   144
1040
1.0
1070
   277
1070
     2
1070
   284
1070
     8
1070
   278
1070
    46
1070
   146
1040
1.0
1070
   345
1005
16
1070
   347
1005
16
1070
   346
1005
16
1070
   344
1005
0
1070
   343
1005
0
1070
   172
1070
     1
1070
    76
1070
     0
1070
    75
1070
     0
1070
   282
1070
     0
1070
   281
1070
     0
1070
    71
1070
     0
1070
    74
1070
     0
1070
   279
1070
     0
1070
   173
1070
     1
1070
   340
1005
17E
1070
   271
1070
     2
1070
   272
1070
     2
1070
    77
1070
     1
1070
    73
1070
     1
1070
   171
1070
     3
1070
   274
1070
     4
1070
   177
1070
     2
1070
   176
1070
     2
1070
   178
1070
     2
1070
    78
1070
     8
1070
    48
1040
-0.1
1070
    41
1040
3.5
1070
   147
1040
1.75
1070
    42
1040
1.5875
1070
    44
1040
2.0
1070
   140
1040
3.5
1002
}
1001
ACAD_DSTYLE_DIM_LINETYPE
1070
   380
1005
16
1001
ACAD_DSTYLE_DIM_EXT1_LINETYPE
1070
   381
1005
16
1001
ACAD_DSTYLE_DIM_EXT2_LINETYPE
1070
   382
1005
16
0
DIMENSION
5
1B9
100
AcDbEntity
8
SK2
62
256
6
ByLayer
370
18
48
1
60
0
100
AcDbDimension
2
_U1
10
7.13
20
-26.986973
30
0
11
21.815
21
-26.986973
31
0
70
32
71
1
72
1
41
1
210
0
220
0
230
1
3
Standard
100
AcDbAlignedDimension
13
36.5
23
-4.7625
33
0
14
7.13
24
-4.7625
34
0
50
0
100
AcDbRotatedDimension
1001
ACAD
1000
DSTYLE
1002
{
1070
   371
1070
    13
1070
   372
1070
    13
1070
   170
1070
     0
1070
   144
1040
1.0
1070
   277
1070
     2
1070
   284
1070
     8
1070
   278
1070
    46
1070
   146
1040
1.0
1070
   345
1005
16
1070
   347
1005
16
1070
   346
1005
16
1070
   344
1005
0
1070
   343
1005
0
1070
   172
1070
     1
1070
    76
1070
     0
1070
    75
1070
     0
1070
   282
1070
     0
1070
   281
1070
     0
1070
    71
1070
     0
1070
    74
1070
     0
1070
   279
1070
     0
1070
   173
1070
     1
1070
   340
1005
17E
1070
   271
1070
     2
1070
   272
1070
     2
1070
    77
1070
     1
1070
    73
1070
     1
1070
   171
1070
     3
1070
   274
1070
     4
1070
   177
1070
     2
1070
   176
1070
     2
1070
   178
1070
     2
1070
    78
1070
     8
1070
    48
1040
-0.1
1070
    41
1040
3.5
1070
   147
1040
1.75
1070
    42
1040
1.5875
1070
    44
1040
2.0
1070
   140
1040
3.5
1002
}
1001
ACAD_DSTYLE_DIM_LINETYPE
1070
   380
1005
16
1001
ACAD_DSTYLE_DIM_EXT1_LINETYPE
1070
   381
1005
16
1001
ACAD_DSTYLE_DIM_EXT2_LINETYPE
1070
   382
1005
16
0
DIMENSION
5
1D1
100
AcDbEntity
8
SK2
62
256
6
ByLayer
370
18
48
1
60
0
100
AcDbDimension
2
_U2
10
26.975
20
15.244545
30
0
11
31.7375
21
15.244545
31
0
70
32
71
1
72
1
41
1
210
0
220
0
230
1
3
Standard
100
AcDbAlignedDimension
13
36.5
23
4.7625
33
0
14
26.975
24
4.7625
34
0
50
0
100
AcDbRotatedDimension
1001
ACAD
1000
DSTYLE
1002
{
1070
   371
1070
    13
1070
   372
1070
    13
1070
   170
1070
     0
1070
   144
1040
1.0
1070
   277
1070
     2
1070
   284
1070
     8
1070
   278
1070
    46
1070
   146
1040
1.0
1070
   345
1005
16
1070
   347
1005
16
1070
   346
1005
16
1070
   344
1005
0
1070
   343
1005
0
1070
   172
1070
     1
1070
    76
1070
     0
1070
    75
1070
     0
1070
   282
1070
     0
1070
   281
1070
     0
1070
    47
1040
0.953
1070
    72
1070
     0
1070
    71
1070
     1
1070
    74
1070
     0
1070
   279
1070
     0
1070
   173
1070
     1
1070
   340
1005
17E
1070
   271
1070
     2
1070
   272
1070
     2
1070
    77
1070
     1
1070
    73
1070
     1
1070
   171
1070
     3
1070
   274
1070
     4
1070
   177
1070
     2
1070
   176
1070
     2
1070
   178
1070
     2
1070
    78
1070
     8
1070
    48
1040
0.953
1070
    41
1040
3.5
1070
   147
1040
1.75
1070
    42
1040
1.5875
1070
    44
1040
2.0
1070
   140
1040
3.5
1002
}
1001
ACAD_DSTYLE_DIM_LINETYPE
1070
   380
1005
16
1001
ACAD_DSTYLE_DIM_EXT1_LINETYPE
1070
   381
1005
16
1001
ACAD_DSTYLE_DIM_EXT2_LINETYPE
1070
   382
1005
16
0
DIMENSION
5
1EB
100
AcDbEntity
8
2
62
256
6
ByLayer
370
18
48
1
60
0
100
AcDbDimension
2
_U3
10
36.5
20
-38.986973
30
0
11
-1.6
21
-38.986973
31
0
70
32
71
1
72
1
41
1
210
0
220
0
230
1
3
Standard
100
AcDbAlignedDimension
13
-39.7
23
-4.7625
33
0
14
36.5
24
-4.7625
34
0
50
0
100
AcDbRotatedDimension
1001
ACAD
1000
DSTYLE
1002
{
1070
   371
1070
    13
1070
   372
1070
    13
1070
   170
1070
     0
1070
   144
1040
1.0
1070
   277
1070
     2
1070
   284
1070
     8
1070
   278
1070
    46
1070
   146
1040
1.0
1070
   345
1005
16
1070
   347
1005
16
1070
   346
1005
16
1070
   344
1005
0
1070
   343
1005
0
1070
   172
1070
     1
1070
    76
1070
     0
1070
    75
1070
     0
1070
   282
1070
     0
1070
   281
1070
     0
1070
    71
1070
     0
1070
    74
1070
     0
1070
   279
1070
     0
1070
   173
1070
     1
1070
   340
1005
17E
1070
   271
1070
     2
1070
   272
1070
     2
1070
    77
1070
     1
1070
    73
1070
     1
1070
   171
1070
     3
1070
   274
1070
     4
1070
   177
1070
     2
1070
   176
1070
     2
1070
   178
1070
     2
1070
    78
1070
     8
1070
    48
1040
-0.1
1070
    41
1040
3.5
1070
   147
1040
1.75
1070
    42
1040
1.5875
1070
    44
1040
2.0
1070
   140
1040
3.5
1002
}
1001
ACAD_DSTYLE_DIM_LINETYPE
1070
   380
1005
16
1001
ACAD_DSTYLE_DIM_EXT1_LINETYPE
1070
   381
1005
16
1001
ACAD_DSTYLE_DIM_EXT2_LINETYPE
1070
   382
1005
16
0
ENDSEC
0
SECTION
2
OBJECTS
0
DICTIONARY
5
273
330
0
100
AcDbDictionary
280
0
281
1
3
ACAD_GROUP
350
274
3
ACAD_MLINESTYLE
350
275
0
DICTIONARY
5
274
330
0
100
AcDbDictionary
280
0
281
1
0
DICTIONARY
5
275
330
0
100
AcDbDictionary
280
0
281
1
3
Standard
350
18
0
MLINESTYLE
5
18
330
275
100
AcDbMlineStyle
2
Standard
70
0
3

62
256
51
90
52
90
71
2
49
-0.5
62
256
6
ByLayer
49
0.5
62
256
6
ByLayer
0
RASTERVARIABLES
5
261
330

100
AcDbRasterVariables
90
0
70
1
71
1
72
1
0
ENDSEC
0
EOF
