0
SECTION
2
HEADER
9
$ACADVER
1
AC1015
9
$DWGCODEPAGE
3
ANSI_1252
9
$HANDSEED
5
29f
9
$ANGBASE
50
0
9
$ANGDIR
70
0
9
$ATTMODE
70
1
9
$AUNITS
70
0
9
$AUPREC
70
0
9
$CECOLOR
62
256
9
$CELTSCALE
40
1
9
$CELTYPE
6
ByLayer
9
$CELWEIGHT
370
18
9
$CLAYER
8
0
9
$CMLJUST
70
0
9
$CMLSCALE
40
1
9
$CMLSTYLE
2
Standard
9
$DIMSTYLE
2
Standard
9
$TEXTSIZE
40
0.2
9
$TEXTSTYLE
7
Standard
9
$LUNITS
70
2
9
$LUPREC
70
4
9
$EXTNAMES
290
1
9
$INSUNITS
70
4
9
$LTSCALE
40
1
9
$LWDISPLAY
290
1
9
$PDMODE
70
0
9
$PDSIZE
40
0
9
$PLINEGEN
70
0
0
ENDSEC
0
SECTION
2
CLASSES
0
CLASS
1
RASTERVARIABLES
2
AcDbRasterVariables
3
ISM
90
0
280
0
281
0
0
ENDSEC
0
SECTION
2
TABLES
0
TABLE
2
VPORT
5
295
100
AcDbSymbolTable
0
VPORT
5
1
100
AcDbSymbolTableRecord
100
AcDbViewportTableRecord
2
*Active
70
0
10
0
20
0
11
1
21
1
12
-1
22
1
13
0
23
0
14
0.5
24
0.5
15
10
25
10
16
0
26
0
36
1
17
0
27
0
37
0
0
ENDTAB
0
TABLE
2
LTYPE
5
296
100
AcDbSymbolTable
0
LTYPE
5
14
100
AcDbSymbolTableRecord
100
AcDbLinetypeTableRecord
70
0
2
ByBlock
3

72
65
73
0
40
0
0
LTYPE
5
15
100
AcDbSymbolTableRecord
100
AcDbLinetypeTableRecord
70
0
2
ByLayer
3

72
65
73
0
40
0
0
LTYPE
5
16
100
AcDbSymbolTableRecord
100
AcDbLinetypeTableRecord
70
0
2
Continuous
3
Solid line
72
65
73
0
40
0
0
LTYPE
5
6E
100
AcDbSymbolTableRecord
100
AcDbLinetypeTableRecord
70
0
2
CENTER
3
____ _ ____ _ ____ _ ____
72
65
73
4
40
47.5
49
22
74
0
49
-8.5
74
0
49
8.5
74
0
49
-8.5
74
0
0
LTYPE
5
6F
100
AcDbSymbolTableRecord
100
AcDbLinetypeTableRecord
70
0
2
DASHED
3
__ __ __ __ __ __ __ __ __
72
65
73
2
40
25.72
49
12.86
74
0
49
-12.86
74
0
0
ENDTAB
0
TABLE
2
LAYER
5
297
100
AcDbSymbolTable
0
LAYER
5
10
100
AcDbSymbolTableRecord
100
AcDbLayerTableRecord
2
0
70
0
62
7
6
Continuous
290
1
370
-3
390
0
0
LAYER
5
71
100
AcDbSymbolTableRecord
100
AcDbLayerTableRecord
2
80
70
0
62
-6
6
Continuous
290
1
370
-3
390
0
0
LAYER
5
73
100
AcDbSymbolTableRecord
100
AcDbLayerTableRecord
2
81
70
0
62
-3
6
Continuous
290
1
370
-3
390
0
0
LAYER
5
77
100
AcDbSymbolTableRecord
100
AcDbLayerTableRecord
2
1
70
0
62
4
6
Continuous
290
1
370
-3
390
0
0
LAYER
5
80
100
AcDbSymbolTableRecord
100
AcDbLayerTableRecord
2
4
70
0
62
-2
6
CENTER
290
1
370
-3
390
0
0
LAYER
5
D0
100
AcDbSymbolTableRecord
100
AcDbLayerTableRecord
2
2
70
0
62
7
6
Continuous
290
1
370
-3
390
0
0
LAYER
5
1C3
100
AcDbSymbolTableRecord
100
AcDbLayerTableRecord
2
Defpoints
70
0
62
7
6
Continuous
290
0
370
-3
390
0
0
LAYER
5
281
100
AcDbSymbolTableRecord
100
AcDbLayerTableRecord
2
SK4
70
0
62
2
6
CENTER
290
1
370
-3
390
0
0
LAYER
5
282
100
AcDbSymbolTableRecord
100
AcDbLayerTableRecord
2
SK1
70
0
62
4
6
Continuous
290
1
370
-3
390
0
0
LAYER
5
283
100
AcDbSymbolTableRecord
100
AcDbLayerTableRecord
2
SK2
70
0
62
7
6
Continuous
290
1
370
-3
390
0
0
LAYER
5
284
100
AcDbSymbolTableRecord
100
AcDbLayerTableRecord
2
SK6
70
0
62
5
6
Continuous
290
1
370
-3
390
0
0
ENDTAB
0
TABLE
2
STYLE
5
298
100
AcDbSymbolTable
0
STYLE
5
11
100
AcDbSymbolTableRecord
100
AcDbTextStyleTableRecord
2
Standard
3
txt
70
0
71
0
40
0
41
1
42
0
50
0
0
STYLE
5
19E
100
AcDbSymbolTableRecord
100
AcDbTextStyleTableRecord
2
iso_b_vert
3
simplex.shx
70
0
71
0
40
0
41
1
42
0
50
0
0
STYLE
5
19F
100
AcDbSymbolTableRecord
100
AcDbTextStyleTableRecord
2
DWGDirectTextStyle
3
simplex
70
0
71
0
40
0
41
1
42
0
50
0
0
ENDTAB
0
TABLE
2
DIMSTYLE
5
299
100
AcDbSymbolTable
100
AcDbDimStyleTable
0
DIMSTYLE
105
27
100
AcDbSymbolTableRecord
100
AcDbDimStyleTableRecord
2
Standard
70
0
3
<>
41
0.18
42
0.0625
44
0.18
140
0.18
147
0.09
73
0
74
0
77
1
271
2
275
0
278
52
280
0
340
11
0
ENDTAB
0
TABLE
2
VIEW
5
29a
100
AcDbSymbolTable
0
ENDTAB
0
TABLE
2
UCS
5
29b
100
AcDbSymbolTable
0
ENDTAB
0
TABLE
2
APPID
5
29c
100
AcDbSymbolTable
0
APPID
5
12
100
AcDbSymbolTableRecord
100
AcDbRegAppTableRecord
2
ACAD
70
0
0
APPID
5
1BF
100
AcDbSymbolTableRecord
100
AcDbRegAppTableRecord
2
ACAD_DSTYLE_DIMBREAK
70
0
0
APPID
5
240
100
AcDbSymbolTableRecord
100
AcDbRegAppTableRecord
2
ACAD_DSTYLE_DIM_LINETYPE
70
0
0
APPID
5
241
100
AcDbSymbolTableRecord
100
AcDbRegAppTableRecord
2
ACAD_DSTYLE_DIM_EXT1_LINETYPE
70
0
0
APPID
5
242
100
AcDbSymbolTableRecord
100
AcDbRegAppTableRecord
2
ACAD_DSTYLE_DIM_EXT2_LINETYPE
70
0
0
APPID
5
27D
100
AcDbSymbolTableRecord
100
AcDbRegAppTableRecord
2
ACAD_MLEADERVER
70
0
0
ENDTAB
0
TABLE
2
BLOCK_RECORD
5
29d
100
AcDbSymbolTable
0
BLOCK_RECORD
5
1F
100
AcDbSymbolTableRecord
100
AcDbBlockTableRecord
2
*Model_Space
340
0
70
0
0
BLOCK_RECORD
5
1B
100
AcDbSymbolTableRecord
100
AcDbBlockTableRecord
2
*Paper_Space
340
0
70
0
0
BLOCK_RECORD
5
23
100
AcDbSymbolTableRecord
100
AcDbBlockTableRecord
2
*Paper_Space0
340
0
70
0
0
BLOCK_RECORD
5
1C4
100
AcDbSymbolTableRecord
100
AcDbBlockTableRecord
2
*D1
340
0
70
0
0
BLOCK_RECORD
5
1D0
100
AcDbSymbolTableRecord
100
AcDbBlockTableRecord
2
_U0
340
0
70
0
0
BLOCK_RECORD
5
1DC
100
AcDbSymbolTableRecord
100
AcDbBlockTableRecord
2
*D3
340
0
70
0
0
BLOCK_RECORD
5
1E8
100
AcDbSymbolTableRecord
100
AcDbBlockTableRecord
2
_U1
340
0
70
0
0
BLOCK_RECORD
5
1F4
100
AcDbSymbolTableRecord
100
AcDbBlockTableRecord
2
*D5
340
0
70
0
0
BLOCK_RECORD
5
200
100
AcDbSymbolTableRecord
100
AcDbBlockTableRecord
2
_U2
340
0
70
0
0
BLOCK_RECORD
5
20D
100
AcDbSymbolTableRecord
100
AcDbBlockTableRecord
2
*D7
340
0
70
0
0
BLOCK_RECORD
5
219
100
AcDbSymbolTableRecord
100
AcDbBlockTableRecord
2
_U3
340
0
70
0
0
ENDTAB
0
ENDSEC
0
SECTION
2
BLOCKS
0
BLOCK
5
20
100
AcDbEntity
8
0
100
AcDbBlockBegin
2
*Model_Space
70
0
10
0
20
0
30
0
3
*Model_Space
0
ENDBLK
5
21
100
AcDbEntity
8
0
100
AcDbBlockEnd
0
BLOCK
5
1C
100
AcDbEntity
8
0
100
AcDbBlockBegin
2
*Paper_Space
70
0
10
0
20
0
30
0
3
*Paper_Space
0
ENDBLK
5
1D
100
AcDbEntity
8
0
100
AcDbBlockEnd
0
BLOCK
5
24
100
AcDbEntity
8
0
100
AcDbBlockBegin
2
*Paper_Space0
70
0
10
0
20
0
30
0
3
*Paper_Space0
0
ENDBLK
5
25
100
AcDbEntity
8
0
100
AcDbBlockEnd
0
BLOCK
5
1C5
100
AcDbEntity
8
0
100
AcDbBlockBegin
2
*D1
70
1
10
0
20
0
30
0
3
*D1
0
LINE
5
1C7
100
AcDbEntity
8
0
62
256
6
ByLayer
370
-2
48
1
60
0
100
AcDbLine
10
56.35
20
-11.1125
30
0
11
56.35
21
-20.583324
31
0
39
0
210
0
220
0
230
1
0
LINE
5
1C8
100
AcDbEntity
8
0
62
256
6
ByLayer
370
-2
48
1
60
0
100
AcDbLine
10
15.07
20
-11.1125
30
0
11
15.07
21
-20.583324
31
0
39
0
210
0
220
0
230
1
0
LINE
5
1C9
100
AcDbEntity
8
0
62
256
6
ByLayer
370
-2
48
1
60
0
100
AcDbLine
10
52.85
20
-18.583324
30
0
11
18.57
21
-18.583324
31
0
39
0
210
0
220
0
230
1
0
SOLID
5
1CA
100
AcDbEntity
8
0
62
256
6
ByLayer
370
-1
48
1
60
0
100
AcDbTrace
10
52.85
20
-19.166657
30
0
11
52.85
21
-17.999991
31
0
12
56.35
22
-18.583324
32
0
13
56.35
23
-18.583324
33
0
39
0
210
0
220
0
230
1
0
SOLID
5
1CB
100
AcDbEntity
8
0
62
256
6
ByLayer
370
-1
48
1
60
0
100
AcDbTrace
10
18.57
20
-17.999991
30
0
11
18.57
21
-19.166657
31
0
12
15.07
22
-18.583324
32
0
13
15.07
23
-18.583324
33
0
39
0
210
0
220
0
230
1
0
MTEXT
5
1CC
100
AcDbEntity
8
0
62
256
6
ByLayer
370
18
48
1
60
0
100
AcDbMText
10
35.71
20
-11.583324
30
0
210
0
220
0
230
1
1
\A1;41.28
40
3.5
41
0
44
1
50
0
71
5
72
5
7
iso_b_vert
0
POINT
5
1CD
100
AcDbEntity
8
Defpoints
62
0
6
ByLayer
370
-1
48
1
60
0
100
AcDbPoint
10
56.35
20
-9.525
30
0
39
0
210
0
220
0
230
1
50
360
0
POINT
5
1CE
100
AcDbEntity
8
Defpoints
62
0
6
ByLayer
370
-1
48
1
60
0
100
AcDbPoint
10
15.07
20
-9.525
30
0
39
0
210
0
220
0
230
1
50
360
0
POINT
5
1CF
100
AcDbEntity
8
Defpoints
62
0
6
ByLayer
370
-1
48
1
60
0
100
AcDbPoint
10
15.07
20
-18.583324
30
0
39
0
210
0
220
0
230
1
50
360
0
ENDBLK
5
1C6
100
AcDbEntity
8
0
100
AcDbBlockEnd
0
BLOCK
5
1D7
100
AcDbEntity
8
0
100
AcDbBlockBegin
2
_U0
70
0
10
0
20
0
30
0
3
_U0
0
MTEXT
5
1D1
100
AcDbEntity
8
SK2
62
256
6
ByLayer
370
18
48
1
60
0
100
AcDbMText
10
30.733734
20
-17.55069
30
0
210
0
220
0
230
1
1
\W0.7091;41.28
40
3.5
41
0
44
1.084337
50
0
71
7
72
5
7
iso_b_vert
0
LINE
5
1D2
100
AcDbEntity
8
SK2
62
256
6
ByLayer
370
13
48
1
60
0
100
AcDbLine
10
56.35
20
-11.1125
30
0
11
56.35
21
-20.583324
31
0
39
0
210
0
220
0
230
1
0
LINE
5
1D3
100
AcDbEntity
8
SK2
62
256
6
ByLayer
370
13
48
1
60
0
100
AcDbLine
10
15.07
20
-11.1125
30
0
11
15.07
21
-20.583324
31
0
39
0
210
0
220
0
230
1
0
LINE
5
1D4
100
AcDbEntity
8
SK2
62
256
6
ByLayer
370
13
48
1
60
0
100
AcDbLine
10
56.35
20
-18.583324
30
0
11
15.07
21
-18.583324
31
0
39
0
210
0
220
0
230
1
0
SOLID
5
1D5
100
AcDbEntity
8
SK2
62
256
6
ByLayer
370
18
48
1
60
0
100
AcDbTrace
10
56.35
20
-18.583324
30
0
11
52.850002
21
-19.044108
31
0
12
52.849998
22
-18.12254
32
0
13
52.849998
23
-18.12254
33
0
39
0
210
0
220
0
230
1
0
SOLID
5
1D6
100
AcDbEntity
8
SK2
62
256
6
ByLayer
370
18
48
1
60
0
100
AcDbTrace
10
15.07
20
-18.583324
30
0
11
18.569998
21
-18.12254
31
0
12
18.570002
22
-19.044108
32
0
13
18.570002
23
-19.044108
33
0
39
0
210
0
220
0
230
1
0
ENDBLK
5
1D8
100
AcDbEntity
8
0
100
AcDbBlockEnd
0
BLOCK
5
1DD
100
AcDbEntity
8
0
100
AcDbBlockBegin
2
*D3
70
1
10
0
20
0
30
0
3
*D3
0
LINE
5
1DF
100
AcDbEntity
8
0
62
256
6
ByLayer
370
-2
48
1
60
0
100
AcDbLine
10
56.35
20
-11.1125
30
0
11
56.35
21
-33.583324
31
0
39
0
210
0
220
0
230
1
0
LINE
5
1E0
100
AcDbEntity
8
0
62
256
6
ByLayer
370
-2
48
1
60
0
100
AcDbLine
10
7.14
20
-11.1125
30
0
11
7.14
21
-33.583324
31
0
39
0
210
0
220
0
230
1
0
LINE
5
1E1
100
AcDbEntity
8
0
62
256
6
ByLayer
370
-2
48
1
60
0
100
AcDbLine
10
52.85
20
-31.583324
30
0
11
10.64
21
-31.583324
31
0
39
0
210
0
220
0
230
1
0
SOLID
5
1E2
100
AcDbEntity
8
0
62
256
6
ByLayer
370
-1
48
1
60
0
100
AcDbTrace
10
52.85
20
-32.166657
30
0
11
52.85
21
-30.999991
31
0
12
56.35
22
-31.583324
32
0
13
56.35
23
-31.583324
33
0
39
0
210
0
220
0
230
1
0
SOLID
5
1E3
100
AcDbEntity
8
0
62
256
6
ByLayer
370
-1
48
1
60
0
100
AcDbTrace
10
10.64
20
-30.999991
30
0
11
10.64
21
-32.166657
31
0
12
7.14
22
-31.583324
32
0
13
7.14
23
-31.583324
33
0
39
0
210
0
220
0
230
1
0
MTEXT
5
1E4
100
AcDbEntity
8
0
62
256
6
ByLayer
370
18
48
1
60
0
100
AcDbMText
10
31.745
20
-24.583324
30
0
210
0
220
0
230
1
1
\A1;49.21
40
3.5
41
0
44
1
50
0
71
5
72
5
7
iso_b_vert
0
POINT
5
1E5
100
AcDbEntity
8
Defpoints
62
0
6
ByLayer
370
-1
48
1
60
0
100
AcDbPoint
10
56.35
20
-9.525
30
0
39
0
210
0
220
0
230
1
50
360
0
POINT
5
1E6
100
AcDbEntity
8
Defpoints
62
0
6
ByLayer
370
-1
48
1
60
0
100
AcDbPoint
10
7.14
20
-9.525
30
0
39
0
210
0
220
0
230
1
50
360
0
POINT
5
1E7
100
AcDbEntity
8
Defpoints
62
0
6
ByLayer
370
-1
48
1
60
0
100
AcDbPoint
10
7.14
20
-31.583324
30
0
39
0
210
0
220
0
230
1
50
360
0
ENDBLK
5
1DE
100
AcDbEntity
8
0
100
AcDbBlockEnd
0
BLOCK
5
1EF
100
AcDbEntity
8
0
100
AcDbBlockBegin
2
_U1
70
0
10
0
20
0
30
0
3
_U1
0
MTEXT
5
1E9
100
AcDbEntity
8
SK2
62
256
6
ByLayer
370
18
48
1
60
0
100
AcDbMText
10
26.768734
20
-30.55069
30
0
210
0
220
0
230
1
1
\W0.7616;49.21
40
3.5
41
0
44
1.084337
50
0
71
7
72
5
7
iso_b_vert
0
LINE
5
1EA
100
AcDbEntity
8
SK2
62
256
6
ByLayer
370
13
48
1
60
0
100
AcDbLine
10
56.35
20
-11.1125
30
0
11
56.35
21
-33.583324
31
0
39
0
210
0
220
0
230
1
0
LINE
5
1EB
100
AcDbEntity
8
SK2
62
256
6
ByLayer
370
13
48
1
60
0
100
AcDbLine
10
7.14
20
-11.1125
30
0
11
7.14
21
-33.583324
31
0
39
0
210
0
220
0
230
1
0
LINE
5
1EC
100
AcDbEntity
8
SK2
62
256
6
ByLayer
370
13
48
1
60
0
100
AcDbLine
10
56.35
20
-31.583324
30
0
11
7.14
21
-31.583324
31
0
39
0
210
0
220
0
230
1
0
SOLID
5
1ED
100
AcDbEntity
8
SK2
62
256
6
ByLayer
370
18
48
1
60
0
100
AcDbTrace
10
56.35
20
-31.583324
30
0
11
52.850002
21
-32.044108
31
0
12
52.849998
22
-31.12254
32
0
13
52.849998
23
-31.12254
33
0
39
0
210
0
220
0
230
1
0
SOLID
5
1EE
100
AcDbEntity
8
SK2
62
256
6
ByLayer
370
18
48
1
60
0
100
AcDbTrace
10
7.14
20
-31.583324
30
0
11
10.639998
21
-31.12254
31
0
12
10.640002
22
-32.044108
32
0
13
10.640002
23
-32.044108
33
0
39
0
210
0
220
0
230
1
0
ENDBLK
5
1F0
100
AcDbEntity
8
0
100
AcDbBlockEnd
0
BLOCK
5
1F5
100
AcDbEntity
8
0
100
AcDbBlockBegin
2
*D5
70
1
10
0
20
0
30
0
3
*D5
0
LINE
5
1F7
100
AcDbEntity
8
0
62
256
6
ByLayer
370
-2
48
1
60
0
100
AcDbLine
10
56.35
20
11.1125
30
0
11
56.35
21
22.083324
31
0
39
0
210
0
220
0
230
1
0
LINE
5
1F8
100
AcDbEntity
8
0
62
256
6
ByLayer
370
-2
48
1
60
0
100
AcDbLine
10
37.3
20
11.1125
30
0
11
37.3
21
22.083324
31
0
39
0
210
0
220
0
230
1
0
LINE
5
1F9
100
AcDbEntity
8
0
62
256
6
ByLayer
370
-2
48
1
60
0
100
AcDbLine
10
52.85
20
20.083324
30
0
11
40.8
21
20.083324
31
0
39
0
210
0
220
0
230
1
0
SOLID
5
1FA
100
AcDbEntity
8
0
62
256
6
ByLayer
370
-1
48
1
60
0
100
AcDbTrace
10
52.85
20
19.499991
30
0
11
52.85
21
20.666657
31
0
12
56.35
22
20.083324
32
0
13
56.35
23
20.083324
33
0
39
0
210
0
220
0
230
1
0
SOLID
5
1FB
100
AcDbEntity
8
0
62
256
6
ByLayer
370
-1
48
1
60
0
100
AcDbTrace
10
40.8
20
20.666657
30
0
11
40.8
21
19.499991
31
0
12
37.3
22
20.083324
32
0
13
37.3
23
20.083324
33
0
39
0
210
0
220
0
230
1
0
MTEXT
5
1FC
100
AcDbEntity
8
0
62
256
6
ByLayer
370
18
48
1
60
0
100
AcDbMText
10
46.825
20
27.083324
30
0
210
0
220
0
230
1
1
\A1;19.05
40
3.5
41
0
44
1
50
0
71
5
72
5
7
iso_b_vert
0
POINT
5
1FD
100
AcDbEntity
8
Defpoints
62
0
6
ByLayer
370
-1
48
1
60
0
100
AcDbPoint
10
56.35
20
9.525
30
0
39
0
210
0
220
0
230
1
50
360
0
POINT
5
1FE
100
AcDbEntity
8
Defpoints
62
0
6
ByLayer
370
-1
48
1
60
0
100
AcDbPoint
10
37.3
20
9.525
30
0
39
0
210
0
220
0
230
1
50
360
0
POINT
5
1FF
100
AcDbEntity
8
Defpoints
62
0
6
ByLayer
370
-1
48
1
60
0
100
AcDbPoint
10
37.3
20
20.083324
30
0
39
0
210
0
220
0
230
1
50
360
0
ENDBLK
5
1F6
100
AcDbEntity
8
0
100
AcDbBlockEnd
0
BLOCK
5
208
100
AcDbEntity
8
0
100
AcDbBlockBegin
2
_U2
70
0
10
0
20
0
30
0
3
_U2
0
MTEXT
5
201
100
AcDbEntity
8
SK2
62
256
6
ByLayer
370
18
48
1
60
0
100
AcDbMText
10
35.645968
20
21.115958
30
0
210
0
220
0
230
1
1
\W0.6864;19.05
40
3.5
41
0
44
1.084337
50
0
71
7
72
5
7
iso_b_vert
0
MTEXT
5
202
100
AcDbEntity
8
SK2
62
256
6
ByLayer
370
18
48
1
60
0
100
AcDbMText
10
49.100966
20
21.115958
30
0
210
0
220
0
230
1
1
\W0.7702;\W0.3851;%%p\W0.7702;1.9
40
3.5
41
0
44
1.084337
50
0
71
7
72
5
7
iso_b_vert
0
LINE
5
203
100
AcDbEntity
8
SK2
62
256
6
ByLayer
370
13
48
1
60
0
100
AcDbLine
10
56.35
20
11.1125
30
0
11
56.35
21
22.083324
31
0
39
0
210
0
220
0
230
1
0
LINE
5
204
100
AcDbEntity
8
SK2
62
256
6
ByLayer
370
13
48
1
60
0
100
AcDbLine
10
37.3
20
11.1125
30
0
11
37.3
21
22.083324
31
0
39
0
210
0
220
0
230
1
0
LINE
5
205
100
AcDbEntity
8
SK2
62
256
6
ByLayer
370
13
48
1
60
0
100
AcDbLine
10
35.460468
20
20.083324
30
0
11
58.189532
21
20.083324
31
0
39
0
210
0
220
0
230
1
0
SOLID
5
206
100
AcDbEntity
8
SK2
62
256
6
ByLayer
370
18
48
1
60
0
100
AcDbTrace
10
56.35
20
20.083324
30
0
11
52.850002
21
19.62254
31
0
12
52.849998
22
20.544108
32
0
13
52.849998
23
20.544108
33
0
39
0
210
0
220
0
230
1
0
SOLID
5
207
100
AcDbEntity
8
SK2
62
256
6
ByLayer
370
18
48
1
60
0
100
AcDbTrace
10
37.3
20
20.083324
30
0
11
40.799998
21
20.544108
31
0
12
40.800002
22
19.62254
32
0
13
40.800002
23
19.62254
33
0
39
0
210
0
220
0
230
1
0
ENDBLK
5
209
100
AcDbEntity
8
0
100
AcDbBlockEnd
0
BLOCK
5
20E
100
AcDbEntity
8
0
100
AcDbBlockBegin
2
*D7
70
1
10
0
20
0
30
0
3
*D7
0
LINE
5
210
100
AcDbEntity
8
0
62
256
6
ByLayer
370
-2
48
1
60
0
100
AcDbLine
10
-51.6
20
-11.1125
30
0
11
-51.6
21
-45.583324
31
0
39
0
210
0
220
0
230
1
0
LINE
5
211
100
AcDbEntity
8
0
62
256
6
ByLayer
370
-2
48
1
60
0
100
AcDbLine
10
56.35
20
-11.1125
30
0
11
56.35
21
-45.583324
31
0
39
0
210
0
220
0
230
1
0
LINE
5
212
100
AcDbEntity
8
0
62
256
6
ByLayer
370
-2
48
1
60
0
100
AcDbLine
10
-48.1
20
-43.583324
30
0
11
52.85
21
-43.583324
31
0
39
0
210
0
220
0
230
1
0
SOLID
5
213
100
AcDbEntity
8
0
62
256
6
ByLayer
370
-1
48
1
60
0
100
AcDbTrace
10
-48.1
20
-42.999991
30
0
11
-48.1
21
-44.166657
31
0
12
-51.6
22
-43.583324
32
0
13
-51.6
23
-43.583324
33
0
39
0
210
0
220
0
230
1
0
SOLID
5
214
100
AcDbEntity
8
0
62
256
6
ByLayer
370
-1
48
1
60
0
100
AcDbTrace
10
52.85
20
-44.166657
30
0
11
52.85
21
-42.999991
31
0
12
56.35
22
-43.583324
32
0
13
56.35
23
-43.583324
33
0
39
0
210
0
220
0
230
1
0
MTEXT
5
215
100
AcDbEntity
8
0
62
256
6
ByLayer
370
18
48
1
60
0
100
AcDbMText
10
2.375
20
-36.583324
30
0
210
0
220
0
230
1
1
\A1;107.95
40
3.5
41
0
44
1
50
0
71
5
72
5
7
iso_b_vert
0
POINT
5
216
100
AcDbEntity
8
Defpoints
62
0
6
ByLayer
370
-1
48
1
60
0
100
AcDbPoint
10
-51.6
20
-9.525
30
0
39
0
210
0
220
0
230
1
50
360
0
POINT
5
217
100
AcDbEntity
8
Defpoints
62
0
6
ByLayer
370
-1
48
1
60
0
100
AcDbPoint
10
56.35
20
-9.525
30
0
39
0
210
0
220
0
230
1
50
360
0
POINT
5
218
100
AcDbEntity
8
Defpoints
62
0
6
ByLayer
370
-1
48
1
60
0
100
AcDbPoint
10
56.35
20
-43.583324
30
0
39
0
210
0
220
0
230
1
50
360
0
ENDBLK
5
20F
100
AcDbEntity
8
0
100
AcDbBlockEnd
0
BLOCK
5
220
100
AcDbEntity
8
0
100
AcDbBlockBegin
2
_U3
70
0
10
0
20
0
30
0
3
_U3
0
MTEXT
5
21A
100
AcDbEntity
8
2
62
256
6
ByLayer
370
18
48
1
60
0
100
AcDbMText
10
-3.724732
20
-42.55069
30
0
210
0
220
0
230
1
1
\W0.7022;107.95
40
3.5
41
0
44
1.084337
50
0
71
7
72
5
7
iso_b_vert
0
LINE
5
21B
100
AcDbEntity
8
2
62
256
6
ByLayer
370
13
48
1
60
0
100
AcDbLine
10
-51.6
20
-11.1125
30
0
11
-51.6
21
-45.583324
31
0
39
0
210
0
220
0
230
1
0
LINE
5
21C
100
AcDbEntity
8
2
62
256
6
ByLayer
370
13
48
1
60
0
100
AcDbLine
10
56.35
20
-11.1125
30
0
11
56.35
21
-45.583324
31
0
39
0
210
0
220
0
230
1
0
LINE
5
21D
100
AcDbEntity
8
2
62
256
6
ByLayer
370
13
48
1
60
0
100
AcDbLine
10
-51.6
20
-43.583324
30
0
11
56.35
21
-43.583324
31
0
39
0
210
0
220
0
230
1
0
SOLID
5
21E
100
AcDbEntity
8
2
62
256
6
ByLayer
370
18
48
1
60
0
100
AcDbTrace
10
-51.6
20
-43.583324
30
0
11
-48.100002
21
-43.12254
31
0
12
-48.099998
22
-44.044108
32
0
13
-48.099998
23
-44.044108
33
0
39
0
210
0
220
0
230
1
0
SOLID
5
21F
100
AcDbEntity
8
2
62
256
6
ByLayer
370
18
48
1
60
0
100
AcDbTrace
10
56.35
20
-43.583324
30
0
11
52.850002
21
-44.044108
31
0
12
52.849998
22
-43.12254
32
0
13
52.849998
23
-43.12254
33
0
39
0
210
0
220
0
230
1
0
ENDBLK
5
221
100
AcDbEntity
8
0
100
AcDbBlockEnd
0
ENDSEC
0
SECTION
2
ENTITIES
0
ARC
5
D9
100
AcDbEntity
8
1
62
256
6
ByLayer
370
18
48
1
60
0
100
AcDbCircle
39
0
10
7.135358
20
11.05
30
0
40
2
210
0
220
0
230
1
100
AcDbArc
50
240
51
270
0
ARC
5
DA
100
AcDbEntity
8
1
62
256
6
ByLayer
370
18
48
1
60
0
100
AcDbCircle
39
0
10
7.135358
20
-11.05
30
0
40
2
210
0
220
0
230
1
100
AcDbArc
50
90
51
120
0
ELLIPSE
5
DB
100
AcDbEntity
8
1
62
256
6
ByLayer
370
18
48
1
60
0
100
AcDbEllipse
10
56.219917
20
-0.333478
30
0
11
0.0213740447404171
21
-1.85946673511852
31
0
210
0
220
0
230
1
40
0.062769
41
-1.67022625194311
42
-1.32583280861754
0
ELLIPSE
5
DC
100
AcDbEntity
8
1
62
256
6
ByLayer
370
18
48
1
60
0
100
AcDbEllipse
10
55.8718
20
0.937354
30
0
11
0.0468719000886773
21
-1.97801499505233
31
0
210
0
220
0
230
1
40
0.057384
41
0.189633348120449
42
0.955655658911366
0
ELLIPSE
5
DD
100
AcDbEntity
8
1
62
256
6
ByLayer
370
18
48
1
60
0
100
AcDbEllipse
10
54.280858
20
-6.062466
30
0
11
-0.368277358455515
21
3.02566947752874
31
0
210
0
220
0
230
1
40
0.676164
41
3.05075448167001
42
3.06177658015555
0
ELLIPSE
5
DE
100
AcDbEntity
8
1
62
256
6
ByLayer
370
18
48
1
60
0
100
AcDbEllipse
10
56.280027
20
-1.182759
30
0
11
0.10148862593814
21
-1.05670226413573
31
0
210
0
220
0
230
1
40
0.058181
41
-3.02301329449914
42
-2.9682744719284
0
ELLIPSE
5
DF
100
AcDbEntity
8
1
62
256
6
ByLayer
370
18
48
1
60
0
100
AcDbEllipse
10
55.667295
20
-0.950475
30
0
11
0.182695616760263
21
-1.07814437774411
31
0
210
0
220
0
230
1
40
0.237873
41
0.630488129481996
42
1.48023897045157
0
ELLIPSE
5
E0
100
AcDbEntity
8
1
62
256
6
ByLayer
370
18
48
1
60
0
100
AcDbEllipse
10
56.322363
20
-1.198497
30
0
11
0.212922185056002
21
-1.04993234468373
31
0
210
0
220
0
230
1
40
0.510775
41
-2.3220969731328
42
-2.31331084049494
0
ELLIPSE
5
E1
100
AcDbEntity
8
1
62
256
6
ByLayer
370
18
48
1
60
0
100
AcDbEllipse
10
54.970395
20
-0.686285
30
0
11
1.14451594133082
21
-1.19239057083565
31
0
210
0
220
0
230
1
40
0.425877
41
1.27992197213505
42
1.30454046194916
0
ELLIPSE
5
E2
100
AcDbEntity
8
1
62
256
6
ByLayer
370
18
48
1
60
0
100
AcDbEllipse
10
55.735941
20
-0.976501
30
0
11
1.42802251148166
21
0.410231611809283
31
0
210
0
220
0
230
1
40
0.285653
41
1.44698604763918
42
1.47110923950583
0
ELLIPSE
5
E3
100
AcDbEntity
8
1
62
256
6
ByLayer
370
18
48
1
60
0
100
AcDbEllipse
10
56.322753
20
-1.198956
30
0
11
0.213297139033474
21
-1.05043510035011
31
0
210
0
220
0
230
1
40
0.510789
41
3.03193472808376
42
-2.37114511150686
0
POINT
5
70
100
AcDbEntity
8
80
62
256
6
ByLayer
370
18
48
1
60
0
100
AcDbPoint
10
0
20
0
30
0
39
0
210
0
220
0
230
1
50
360
0
POINT
5
72
100
AcDbEntity
8
81
62
256
6
ByLayer
370
18
48
1
60
0
100
AcDbPoint
10
56.35
20
0
30
0
39
0
210
0
220
0
230
1
50
360
0
POINT
5
74
100
AcDbEntity
8
81
62
256
6
ByLayer
370
18
48
1
60
0
100
AcDbPoint
10
-51.6
20
0
30
0
39
0
210
0
220
0
230
1
50
360
0
POINT
5
75
100
AcDbEntity
8
81
62
256
6
ByLayer
370
18
48
1
60
0
100
AcDbPoint
10
56.35
20
0
30
0
39
0
210
0
220
0
230
1
50
360
0
POINT
5
76
100
AcDbEntity
8
1
62
256
6
ByLayer
370
18
48
1
60
1
100
AcDbPoint
10
56.35
20
-9.525
30
0
39
0
210
0
220
0
230
1
50
360
0
POINT
5
78
100
AcDbEntity
8
1
62
256
6
ByLayer
370
18
48
1
60
1
100
AcDbPoint
10
15.07
20
-9.525
30
0
39
0
210
0
220
0
230
1
50
360
0
POINT
5
79
100
AcDbEntity
8
1
62
256
6
ByLayer
370
18
48
1
60
1
100
AcDbPoint
10
56.35
20
-9.525
30
0
39
0
210
0
220
0
230
1
50
360
0
POINT
5
7A
100
AcDbEntity
8
1
62
256
6
ByLayer
370
18
48
1
60
1
100
AcDbPoint
10
7.14
20
-9.525
30
0
39
0
210
0
220
0
230
1
50
360
0
POINT
5
7B
100
AcDbEntity
8
1
62
256
6
ByLayer
370
18
48
1
60
1
100
AcDbPoint
10
56.35
20
9.525
30
0
39
0
210
0
220
0
230
1
50
360
0
POINT
5
7C
100
AcDbEntity
8
1
62
256
6
ByLayer
370
18
48
1
60
1
100
AcDbPoint
10
37.3
20
9.525
30
0
39
0
210
0
220
0
230
1
50
360
0
POINT
5
7D
100
AcDbEntity
8
1
62
256
6
ByLayer
370
18
48
1
60
1
100
AcDbPoint
10
-51.6
20
-9.525
30
0
39
0
210
0
220
0
230
1
50
360
0
POINT
5
7E
100
AcDbEntity
8
1
62
256
6
ByLayer
370
18
48
1
60
1
100
AcDbPoint
10
56.35
20
-9.525
30
0
39
0
210
0
220
0
230
1
50
360
0
SPLINE
5
E4
100
AcDbEntity
8
1
62
256
6
ByLayer
370
18
48
1
60
0
100
AcDbSpline
70
4
71
3
72
8
73
4
40
0
40
0
40
0
40
0
40
1
40
1
40
1
40
1
41
1
10
56.2560855773997
20
-0.0992427429022484
30
0
41
1
10
56.2578356090313
20
-0.106913975040101
30
0
41
1
10
56.2596148697856
20
-0.114348953711271
30
0
41
1
10
56.2614827944657
20
-0.121067278655744
30
0
0
SPLINE
5
E5
100
AcDbEntity
8
1
62
256
6
ByLayer
370
18
48
1
60
0
100
AcDbSpline
70
4
71
3
72
8
73
4
40
0
40
0
40
0
40
0
40
1
40
1
40
1
40
1
41
1
10
56.2705050180506
20
-0.168044841831602
30
0
41
1
10
56.2223271423936
20
-0.546714302878655
30
0
41
1
10
56.1741460951138
20
-0.925333323917414
30
0
41
1
10
56.1259622579878
20
-1.3039079765457
30
0
0
SPLINE
5
E6
100
AcDbEntity
8
1
62
256
6
ByLayer
370
18
48
1
60
0
100
AcDbSpline
70
4
71
3
72
8
73
4
40
0
40
0
40
0
40
0
40
1
40
1
40
1
40
1
41
1
10
56.2614827984443
20
-0.121067276061723
30
0
41
1
10
56.2649064082823
20
-0.133380899840063
30
0
41
1
10
56.2679035189125
20
-0.149122830821597
30
0
41
1
10
56.2705050180504
20
-0.168044841831573
30
0
0
SPLINE
5
E7
100
AcDbEntity
8
1
62
256
6
ByLayer
370
18
48
1
60
0
100
AcDbSpline
70
4
71
3
72
8
73
4
40
0
40
0
40
0
40
0
40
1
40
1
40
1
40
1
41
1
10
15.0700000000001
20
9.51380497424393
30
0
41
1
10
14.9508152606521
20
9.43804027417696
30
0
41
1
10
14.8313398645485
20
9.35889149061848
30
0
41
1
10
14.7113774815426
20
9.2763179897735
30
0
0
SPLINE
5
E8
100
AcDbEntity
8
1
62
256
6
ByLayer
370
18
48
1
60
0
100
AcDbSpline
70
4
71
3
72
14
73
10
40
0
40
0
40
0
40
0
40
0.25
40
0.25
40
0.5
40
0.5
40
0.75
40
0.75
40
1
40
1
40
1
40
1
41
1
10
14.7113774815426
20
9.2763179897735
30
0
41
1
10
14.6340315756839
20
9.2230786153734
30
0
41
1
10
14.5549055042053
20
9.1743016996661
30
0
41
1
10
14.3935756081233
20
9.08492543880809
30
0
41
1
10
14.3113699645399
20
9.04433074205221
30
0
41
1
10
14.1442499838536
20
8.97107099733117
30
0
41
1
10
14.0593346463116
20
8.93840714448015
30
0
41
1
10
13.8870973258985
20
8.88115964738293
30
0
41
1
10
13.7997748011121
20
8.85657441884899
30
0
41
1
10
13.7113774815424
20
8.83630732725737
30
0
0
SPLINE
5
E9
100
AcDbEntity
8
1
62
256
6
ByLayer
370
18
48
1
60
0
100
AcDbSpline
70
4
71
3
72
8
73
4
40
0
40
0
40
0
40
0
40
1
40
1
40
1
40
1
41
1
10
13.7113774815425
20
8.83630732725737
30
0
41
1
10
13.5874629337714
20
8.80789710507597
30
0
41
1
10
13.4634160092818
20
8.77672744468293
30
0
41
1
10
13.3390647904083
20
8.74286307698438
30
0
0
SPLINE
5
EA
100
AcDbEntity
8
1
62
256
6
ByLayer
370
18
48
1
60
0
100
AcDbSpline
70
4
71
3
72
8
73
4
40
0
40
0
40
0
40
0
40
1
40
1
40
1
40
1
41
1
10
56.2614827984422
20
6.34238263064702
30
0
41
1
10
56.2649065063404
20
6.47881595274728
30
0
41
1
10
56.2679035915766
20
6.61467759673167
30
0
41
1
10
56.2705050180487
20
6.75000904268813
30
0
0
SPLINE
5
EB
100
AcDbEntity
8
1
62
256
6
ByLayer
370
18
48
1
60
0
100
AcDbSpline
70
4
71
3
72
44
73
40
40
0
40
0
40
0
40
0
40
0.0625000000000071
40
0.0625000000000071
40
0.125000000000014
40
0.125000000000014
40
0.187500000000021
40
0.187500000000021
40
0.218750000000025
40
0.218750000000025
40
0.250000000000029
40
0.250000000000029
40
0.312500000000036
40
0.312500000000036
40
0.343750000000036
40
0.343750000000036
40
0.375000000000036
40
0.375000000000036
40
0.500000000000036
40
0.500000000000036
40
0.531250000000034
40
0.531250000000034
40
0.562500000000032
40
0.562500000000032
40
0.625000000000027
40
0.625000000000027
40
0.656250000000025
40
0.656250000000025
40
0.687500000000023
40
0.687500000000023
40
0.750000000000017
40
0.750000000000017
40
0.781250000000014
40
0.781250000000014
40
0.81250000000001
40
0.81250000000001
40
0.875000000000007
40
0.875000000000007
40
1
40
1
40
1
40
1
41
1
10
54.4848449622666
20
9.09835679379736
30
0
41
1
10
54.5450778607359
20
9.09294588111834
30
0
41
1
10
54.6040325955817
20
9.08367362646283
30
0
41
1
10
54.7197092481744
20
9.05797562177449
30
0
41
1
10
54.7764283519013
20
9.04154733169872
30
0
41
1
10
54.887812200506
20
9.00186314486481
30
0
41
1
10
54.9424775579521
20
8.97860359996352
30
0
41
1
10
55.0230055793894
20
8.93870579023343
30
0
41
1
10
55.0496208476206
20
8.92455917768029
30
0
41
1
10
55.1023024314607
20
8.89462564617526
30
0
41
1
10
55.1282663691517
20
8.8788982259928
30
0
41
1
10
55.2050662232804
20
8.82948991002021
30
0
41
1
10
55.2548069802228
20
8.79360228914626
30
0
41
1
10
55.3273713995302
20
8.73538641423261
30
0
41
1
10
55.3512307661883
20
8.71523478150434
30
0
41
1
10
55.3979980033676
20
8.67372957827885
30
0
41
1
10
55.4209411870707
20
8.65235095729724
30
0
41
1
10
55.5335245095429
20
8.54241282983489
30
0
41
1
10
55.6167952477987
20
8.44485305530333
30
0
41
1
10
55.7129830118474
20
8.31167060716979
30
0
41
1
10
55.7318228983547
20
8.28446795772004
30
0
41
1
10
55.7687129095867
20
8.22892480335065
30
0
41
1
10
55.7867782077511
20
8.20055667891191
30
0
41
1
10
55.8395225189607
20
8.11419192310686
30
0
41
1
10
55.8728374771561
20
8.0548184486905
30
0
41
1
10
55.9201274769063
20
7.96313246015717
30
0
41
1
10
55.935443127529
20
7.93213226302771
30
0
41
1
10
55.9651870756159
20
7.86926090383176
30
0
41
1
10
55.9796277591978
20
7.83736021280191
30
0
41
1
10
56.0215107097899
20
7.74062130428115
30
0
41
1
10
56.0475225294957
20
7.67474786728718
30
0
41
1
10
56.0837520730308
20
7.57392555373636
30
0
41
1
10
56.0953633057474
20
7.53998224049471
30
0
41
1
10
56.1176612782978
20
7.47142767982643
30
0
41
1
10
56.1283556618348
20
7.43679001337713
30
0
41
1
10
56.1590016599559
20
7.33205766266533
30
0
41
1
10
56.1774633224333
20
7.26134166939781
30
0
41
1
10
56.2271118029498
20
7.04660079573105
30
0
41
1
10
56.2525977444566
20
6.90000708768218
30
0
41
1
10
56.2705050180487
20
6.75000904268813
30
0
0
SPLINE
5
EC
100
AcDbEntity
8
1
62
256
6
ByLayer
370
18
48
1
60
0
100
AcDbSpline
70
4
71
3
72
8
73
4
40
0
40
0
40
0
40
0
40
1
40
1
40
1
40
1
41
1
10
54.4848449622575
20
9.09835679380311
30
0
41
1
10
54.4568747300195
20
9.11627680077513
30
0
41
1
10
54.4286136282577
20
9.1333114820149
30
0
41
1
10
54.400060592105
20
9.14945759636365
30
0
0
SPLINE
5
ED
100
AcDbEntity
8
1
62
256
6
ByLayer
370
18
48
1
60
0
100
AcDbSpline
70
4
71
3
72
8
73
4
40
0
40
0
40
0
40
0
40
1
40
1
40
1
40
1
41
1
10
56.2560855773974
20
6.1193190750293
30
0
41
1
10
56.2578356090291
20
6.19361554625709
30
0
41
1
10
56.2596148697837
20
6.26794661462915
30
0
41
1
10
56.2614827944638
20
6.34238263033905
30
0
0
SPLINE
5
EE
100
AcDbEntity
8
1
62
256
6
ByLayer
370
13
48
1
60
0
100
AcDbSpline
70
4
71
3
72
28
73
24
40
0
40
0
40
0
40
0
40
0.0048601377478202
40
0.0389404990796993
40
0.108731910736354
40
0.212588660685179
40
0.315533685753496
40
0.367342634788492
40
0.419645835081747
40
0.454807810879123
40
0.489788404016145
40
0.524048606206568
40
0.540752609113783
40
0.557082275862985
40
0.57296381750843
40
0.58884138993095
40
0.621849930417848
40
0.691006475226289
40
0.72614243862622
40
0.778413786330126
40
0.881683154367333
40
0.93320058705237
40
1
40
1
40
1
40
1
41
1
10
56.2614828015942
20
6.34238263166884
30
0
41
1
10
56.2588389467828
20
6.34925553353372
30
0
41
1
10
56.2376231803663
20
6.40410390164809
30
0
41
1
10
56.1775840187693
20
6.55267377831061
30
0
41
1
10
56.0571666571504
20
6.82084165166742
30
0
41
1
10
55.8740463898884
20
7.16639718077118
30
0
41
1
10
55.680102655773
20
7.46762627416814
30
0
41
1
10
55.5154530338408
20
7.68933119544471
30
0
41
1
10
55.4011896630186
20
7.82916454767297
30
0
41
1
10
55.2988359083353
20
7.9446514694479
30
0
41
1
10
55.2091831130446
20
8.03936322679218
30
0
41
1
10
55.1323007683093
20
8.11528630804105
30
0
41
1
10
55.0695013945154
20
8.17409456654207
30
0
41
1
10
55.0225391854202
20
8.21654670525618
30
0
41
1
10
54.9741416811021
20
8.25871494691128
30
0
41
1
10
54.9086100493067
20
8.31371030115824
30
0
41
1
10
54.7933764051757
20
8.4048328670923
30
0
41
1
10
54.6631981721631
20
8.49602294367992
30
0
41
1
10
54.5136435574825
20
8.58815070838779
30
0
41
1
10
54.3270974387202
20
8.69005310854061
30
0
41
1
10
54.1177582145584
20
8.77874018326409
30
0
41
1
10
53.8917721058424
20
8.84730556822865
30
0
41
1
10
53.7712455023518
20
8.87294895103628
30
0
41
1
10
53.7036346232615
20
8.88397504143208
30
0
0
SPLINE
5
EF
100
AcDbEntity
8
1
62
256
6
ByLayer
370
18
48
1
60
0
100
AcDbSpline
70
4
71
3
72
21
73
17
40
0
40
0
40
0
40
0
40
0.125000000000004
40
0.125000000000004
40
0.250000000000008
40
0.250000000000008
40
0.312500000000001
40
0.312500000000001
40
0.374999999999993
40
0.374999999999993
40
0.499999999999999
40
0.625000000000005
40
0.625000000000005
40
0.750000000000011
40
0.750000000000011
40
1
40
1
40
1
40
1
41
1
10
56.2028004958284
20
6.10005375710475
30
0
41
1
10
56.1861283235863
20
6.14576263534949
30
0
41
1
10
56.1660382630283
20
6.18936209931312
30
0
41
1
10
56.120521169274
20
6.27326721384955
30
0
41
1
10
56.0951835145575
20
6.31362802603959
30
0
41
1
10
56.0547638002315
20
6.3726798724928
30
0
41
1
10
56.0408808797673
20
6.39211097811116
30
0
41
1
10
56.0124684767828
20
6.43057415137528
30
0
41
1
10
55.9979550020658
20
6.44959115490346
30
0
41
1
10
55.9538168273639
20
6.50584535010461
30
0
41
1
10
55.8932146629878
20
6.57893199438703
30
0
41
1
10
55.8299694054846
20
6.64912246795177
30
0
41
1
10
55.765731172627
20
6.71822488823707
30
0
41
1
10
55.7331081208065
20
6.75222391090287
30
0
41
1
10
55.6339434729519
20
6.85280144241261
30
0
41
1
10
55.566117901998
20
6.91797303504663
30
0
41
1
10
55.4968441814592
20
6.98155781699285
30
0
0
SPLINE
5
F0
100
AcDbEntity
8
1
62
256
6
ByLayer
370
18
48
1
60
0
100
AcDbSpline
70
4
71
1
72
4
73
2
40
0
40
0
40
1
40
1
41
1
10
15.0700000000001
20
8.8531009968622
30
0
41
1
10
13.3390647904083
20
8.74286307698435
30
0
0
SPLINE
5
F1
100
AcDbEntity
8
1
62
256
6
ByLayer
370
18
48
1
60
0
100
AcDbSpline
70
4
71
3
72
16
73
12
40
0
40
0
40
0
40
0
40
0.313491894076712
40
0.313491894076712
40
0.470237841115067
40
0.470237841115067
40
0.626983788153423
40
0.626983788153423
40
0.940475682230133
40
0.940475682230133
40
1
40
1
40
1
40
1
41
1
10
13.3390647904083
20
8.74286307698438
30
0
41
1
10
13.1149675859093
20
8.68180330683654
30
0
41
1
10
12.8895416348655
20
8.61228828121727
30
0
41
1
10
12.5465298826195
20
8.49704153463591
30
0
41
1
10
12.4313779877311
20
8.45680350731917
30
0
41
1
10
12.1989205577751
20
8.37305809068792
30
0
41
1
10
12.0815947068066
20
8.32954218774265
30
0
41
1
10
11.7256582359282
20
8.19481539936217
30
0
41
1
10
11.4841316898653
20
8.09974790072351
30
0
41
1
10
11.188840949658
20
7.98349289427637
30
0
41
1
10
11.1414789467497
20
7.9648481928391
30
0
41
1
10
11.0938544659452
20
7.94613423368639
30
0
0
SPLINE
5
F2
100
AcDbEntity
8
1
62
256
6
ByLayer
370
18
48
1
60
0
100
AcDbSpline
70
4
71
3
72
8
73
4
40
0
40
0
40
0
40
0
40
1
40
1
40
1
40
1
41
1
10
15.07
20
-9.51380497424404
30
0
41
1
10
14.9508152606521
20
-9.43804027417707
30
0
41
1
10
14.8313398645484
20
-9.35889149061859
30
0
41
1
10
14.7113774815425
20
-9.27631798977359
30
0
0
SPLINE
5
F3
100
AcDbEntity
8
1
62
256
6
ByLayer
370
18
48
1
60
0
100
AcDbSpline
70
4
71
3
72
8
73
4
40
0
40
0
40
0
40
0
40
1
40
1
40
1
40
1
41
1
10
56.2614827984442
20
-6.34238263064194
30
0
41
1
10
56.2649065063424
20
-6.47881595273873
30
0
41
1
10
56.2679035915785
20
-6.61467759671964
30
0
41
1
10
56.2705050180504
20
-6.7500090426727
30
0
0
SPLINE
5
F4
100
AcDbEntity
8
1
62
256
6
ByLayer
370
18
48
1
60
0
100
AcDbSpline
70
4
71
3
72
8
73
4
40
0
40
0
40
0
40
0
40
1
40
1
40
1
40
1
41
1
10
56.2560855773997
20
-6.11931907503055
30
0
41
1
10
56.2578356090313
20
-6.19361554625618
30
0
41
1
10
56.2596148697857
20
-6.26794661462614
30
0
41
1
10
56.2614827944657
20
-6.34238263033387
30
0
0
SPLINE
5
F5
100
AcDbEntity
8
1
62
256
6
ByLayer
370
18
48
1
60
0
100
AcDbSpline
70
4
71
3
72
8
73
4
40
0
40
0
40
0
40
0
40
1
40
1
40
1
40
1
41
1
10
54.4848449622666
20
-9.09835679379779
30
0
41
1
10
54.4568747300256
20
-9.11627680077191
30
0
41
1
10
54.4286136282607
20
-9.1333114820136
30
0
41
1
10
54.4000605921048
20
-9.14945759636407
30
0
0
SPLINE
5
F6
100
AcDbEntity
8
1
62
256
6
ByLayer
370
18
48
1
60
0
100
AcDbSpline
70
4
71
3
72
17
73
13
40
0
40
0
40
0
40
0
40
0.25000000000001
40
0.25000000000001
40
0.50000000000002
40
0.50000000000002
40
0.56250000000002
40
0.56250000000002
40
0.62500000000002
40
0.750000000000013
40
0.750000000000013
40
1
40
1
40
1
40
1
41
1
10
54.7570912274435
20
8.34310905218319
30
0
41
1
10
54.8491778781152
20
8.26182782846814
30
0
41
1
10
54.9353106999501
20
8.1715813468463
30
0
41
1
10
55.0938392243964
20
7.97312299312909
30
0
41
1
10
55.166222213551
20
7.86487227579559
30
0
41
1
10
55.246338114358
20
7.71820875581921
30
0
41
1
10
55.2618073556369
20
7.68836530784117
30
0
41
1
10
55.2914399217759
20
7.62808083457912
30
0
41
1
10
55.3340191376199
20
7.53659486580065
30
0
41
1
10
55.3710132523051
20
7.44214332008195
30
0
41
1
10
55.437531232739
20
7.24981427679205
30
0
41
1
10
55.4719019235852
20
7.11701737656216
30
0
41
1
10
55.4968441814592
20
6.98155781699285
30
0
0
SPLINE
5
F7
100
AcDbEntity
8
1
62
256
6
ByLayer
370
18
48
1
60
0
100
AcDbSpline
70
4
71
3
72
28
73
24
40
0
40
0
40
0
40
0
40
0.0819974590564893
40
0.0819974590564893
40
0.163994918112979
40
0.163994918112979
40
0.327989836225957
40
0.327989836225957
40
0.368988565754205
40
0.368988565754205
40
0.409987295282453
40
0.409987295282453
40
0.49198475433895
40
0.49198475433895
40
0.655979672451957
40
0.655979672451957
40
0.819974590564964
40
0.819974590564964
40
0.901972049621468
40
0.901972049621468
40
0.983969508677972
40
0.983969508677972
40
1
40
1
40
1
40
1
41
1
10
55.4968441814589
20
6.98155781699265
30
0
41
1
10
55.4739580113002
20
6.93067389475189
30
0
41
1
10
55.4488053785962
20
6.88051291452058
30
0
41
1
10
55.3939793394502
20
6.78191599139106
30
0
41
1
10
55.3646742328294
20
6.73413235636829
30
0
41
1
10
55.2714349160942
20
6.59504390411752
30
0
41
1
10
55.2021822870453
20
6.5079970739466
30
0
41
1
10
55.1078305952907
20
6.40542202122614
30
0
41
1
10
55.0885705161079
20
6.38521904165233
30
0
41
1
10
55.0492961584207
20
6.34541690311093
30
0
41
1
10
55.0292592932401
20
6.32579645337469
30
0
41
1
10
54.9682052620367
20
6.26795359731588
30
0
41
1
10
54.9264949962324
20
6.23097615083913
30
0
41
1
10
54.7987065631963
20
6.12422305059414
30
0
41
1
10
54.7099854023267
20
6.05860361089859
30
0
41
1
10
54.5269859287854
20
5.93610357680598
30
0
41
1
10
54.4327018297726
20
5.8792320816631
30
0
41
1
10
54.2879185531591
20
5.79920405825203
30
0
41
1
10
54.2390953041521
20
5.7734120646891
30
0
41
1
10
54.1404341222401
20
5.72342370890914
30
0
41
1
10
54.0907361368
20
5.69930014726893
30
0
41
1
10
54.0311432376542
20
5.67148002101743
30
0
41
1
10
54.0213901160057
20
5.6669619300211
30
0
41
1
10
54.0116292515296
20
5.66247451866246
30
0
0
SPLINE
5
F8
100
AcDbEntity
8
1
62
256
6
ByLayer
370
18
48
1
60
0
100
AcDbSpline
70
4
71
3
72
44
73
40
40
0
40
0
40
0
40
0
40
0.0625000000000108
40
0.0625000000000108
40
0.125000000000022
40
0.125000000000022
40
0.187500000000032
40
0.187500000000032
40
0.218750000000034
40
0.218750000000034
40
0.250000000000035
40
0.250000000000035
40
0.31250000000003
40
0.31250000000003
40
0.343750000000031
40
0.343750000000031
40
0.375000000000031
40
0.375000000000031
40
0.50000000000002
40
0.50000000000002
40
0.531250000000015
40
0.531250000000015
40
0.562500000000011
40
0.562500000000011
40
0.625000000000007
40
0.625000000000007
40
0.656250000000006
40
0.656250000000006
40
0.687500000000006
40
0.687500000000006
40
0.750000000000006
40
0.750000000000006
40
0.781250000000004
40
0.781250000000004
40
0.812500000000002
40
0.812500000000002
40
0.875000000000001
40
0.875000000000001
40
1
40
1
40
1
40
1
41
1
10
54.4848449622666
20
-9.09835679379776
30
0
41
1
10
54.5450778607365
20
-9.09294588111868
30
0
41
1
10
54.604032595571
20
-9.0836736264651
30
0
41
1
10
54.719709248165
20
-9.05797562177742
30
0
41
1
10
54.7764283518924
20
-9.04154733170191
30
0
41
1
10
54.8878122004983
20
-9.00186314486831
30
0
41
1
10
54.9424775579449
20
-8.97860359996713
30
0
41
1
10
55.0230055793829
20
-8.93870579023712
30
0
41
1
10
55.0496208476145
20
-8.92455917768396
30
0
41
1
10
55.1023024314552
20
-8.89462564617889
30
0
41
1
10
55.1282663691464
20
-8.87889822599647
30
0
41
1
10
55.205066223276
20
-8.82948991002374
30
0
41
1
10
55.2548069802188
20
-8.79360228914965
30
0
41
1
10
55.3273713995269
20
-8.73538641423571
30
0
41
1
10
55.3512307661852
20
-8.71523478150729
30
0
41
1
10
55.397998003365
20
-8.67372957828155
30
0
41
1
10
55.4209411870684
20
-8.6523509572998
30
0
41
1
10
55.5335245095416
20
-8.54241282983676
30
0
41
1
10
55.6167952477982
20
-8.44485305530435
30
0
41
1
10
55.7129830118478
20
-8.31167060716965
30
0
41
1
10
55.7318228983552
20
-8.28446795771967
30
0
41
1
10
55.7687129095876
20
-8.22892480334974
30
0
41
1
10
55.786778207752
20
-8.20055667891074
30
0
41
1
10
55.8395225189621
20
-8.11419192310487
30
0
41
1
10
55.8728374771577
20
-8.05481844868794
30
0
41
1
10
55.9201274769082
20
-7.96313246015373
30
0
41
1
10
55.935443127531
20
-7.93213226302399
30
0
41
1
10
55.965187075618
20
-7.86926090382738
30
0
41
1
10
55.9796277592
20
-7.83736021279722
30
0
41
1
10
56.0215107097924
20
-7.74062130427552
30
0
41
1
10
56.0475225294983
20
-7.6747478672809
30
0
41
1
10
56.0837520730334
20
-7.57392555372905
30
0
41
1
10
56.09536330575
20
-7.53998224048703
30
0
41
1
10
56.1176612783005
20
-7.47142767981805
30
0
41
1
10
56.1283556618375
20
-7.43679001336841
30
0
41
1
10
56.1590016599586
20
-7.33205766265559
30
0
41
1
10
56.1774633224359
20
-7.26134166938735
30
0
41
1
10
56.2271118029523
20
-7.04660079571852
30
0
41
1
10
56.2525977444588
20
-6.9000070876682
30
0
41
1
10
56.2705050180506
20
-6.7500090426727
30
0
0
SPLINE
5
F9
100
AcDbEntity
8
1
62
256
6
ByLayer
370
18
48
1
60
0
100
AcDbSpline
70
4
71
3
72
8
73
4
40
0
40
0
40
0
40
0
40
1
40
1
40
1
40
1
41
1
10
56.2705050180506
20
-6.75000904267262
30
0
41
1
10
56.1896887027881
20
-6.59468974320149
30
0
41
1
10
56.1088634612822
20
-6.43865119231859
30
0
41
1
10
56.0280310959189
20
-6.28203862117368
30
0
0
SPLINE
5
FA
100
AcDbEntity
8
1
62
256
6
ByLayer
370
18
48
1
60
0
100
AcDbSpline
70
4
71
3
72
14
73
10
40
0
40
0
40
0
40
0
40
0.25
40
0.25
40
0.5
40
0.5
40
0.75
40
0.75
40
1
40
1
40
1
40
1
41
1
10
14.7113774815425
20
-9.27631798977359
30
0
41
1
10
14.6340315756839
20
-9.22307861537351
30
0
41
1
10
14.5549055042053
20
-9.17430169966624
30
0
41
1
10
14.3935756081233
20
-9.08492543880823
30
0
41
1
10
14.3113699645399
20
-9.04433074205238
30
0
41
1
10
14.1442499838535
20
-8.97107099733137
30
0
41
1
10
14.0593346463115
20
-8.93840714448038
30
0
41
1
10
13.8870973258986
20
-8.88115964738319
30
0
41
1
10
13.7997748011122
20
-8.85657441884925
30
0
41
1
10
13.7113774815426
20
-8.83630732725763
30
0
0
SPLINE
5
FB
100
AcDbEntity
8
1
62
256
6
ByLayer
370
18
48
1
60
0
100
AcDbSpline
70
4
71
3
72
32
73
28
40
0
40
0
40
0
40
0
40
0.0925518763333229
40
0.0925518763333229
40
0.185103752666646
40
0.277655628999969
40
0.370207505333292
40
0.370207505333292
40
0.416483443499954
40
0.416483443499954
40
0.439621412583284
40
0.439621412583284
40
0.462759381666615
40
0.555311257999937
40
0.555311257999937
40
0.647863134333259
40
0.647863134333259
40
0.740415010666581
40
0.740415010666581
40
0.832966886999903
40
0.832966886999903
40
0.856104856083234
40
0.856104856083234
40
0.879242825166564
40
0.925518763333224
40
0.925518763333224
40
1
40
1
40
1
40
1
41
1
10
7.17584126455719
20
-7.77702888896104
30
0
41
1
10
7.24260878158196
20
-7.89738769064434
30
0
41
1
10
7.31103254596547
20
-8.00875980321851
30
0
41
1
10
7.45130163667423
20
-8.21430108710575
30
0
41
1
10
7.59499132373961
20
-8.40263716377586
30
0
41
1
10
7.82105953929928
20
-8.63489309021875
30
0
41
1
10
7.97898722117142
20
-8.75658222981988
30
0
41
1
10
8.10023159524968
20
-8.83534535243936
30
0
41
1
10
8.14111308749571
20
-8.85951363948487
30
0
41
1
10
8.203150087431
20
-8.89260798814647
30
0
41
1
10
8.2239523021704
20
-8.90311345712001
30
0
41
1
10
8.26562845634666
20
-8.92298981214378
30
0
41
1
10
8.37010195088311
20
-8.96989874635722
30
0
41
1
10
8.47598799367162
20
-9.00308224361265
30
0
41
1
10
8.64722886888083
20
-9.03916993694682
30
0
41
1
10
8.73376055521885
20
-9.04870966345322
30
0
41
1
10
8.90869482744498
20
-9.05104610156593
30
0
41
1
10
8.99708526230953
20
-9.043842031591
30
0
41
1
10
9.17588566208647
20
-9.01268407584956
30
0
41
1
10
9.26632513545641
20
-8.98872975507982
30
0
41
1
10
9.38100256312029
20
-8.94817060568653
30
0
41
1
10
9.40404149342302
20
-8.93951838862532
30
0
41
1
10
9.45016309428209
20
-8.92119717671847
30
0
41
1
10
9.51940484031442
20
-8.89219617400792
30
0
41
1
10
9.58885633276032
20
-8.85868766909073
30
0
41
1
10
9.70999369005386
20
-8.79526344812675
30
0
41
1
10
9.7850219157713
20
-8.75105545673233
30
0
41
1
10
9.86047459326144
20
-8.70186913002732
30
0
0
SPLINE
5
FC
100
AcDbEntity
8
1
62
256
6
ByLayer
370
18
48
1
60
0
100
AcDbSpline
70
4
71
3
72
22
73
18
40
0
40
0
40
0
40
0
40
0.125
40
0.125
40
0.250000000000001
40
0.250000000000001
40
0.3125
40
0.3125
40
0.375
40
0.375
40
0.499999999999999
40
0.499999999999999
40
0.624999999999999
40
0.624999999999999
40
0.749999999999998
40
0.749999999999998
40
1
40
1
40
1
40
1
41
1
10
56.0280310959189
20
-6.28203862117414
30
0
41
1
10
56.0126458050696
20
-6.33892179514044
30
0
41
1
10
55.9957420297817
20
-6.38953631185848
30
0
41
1
10
55.9598039968932
20
-6.48197021835506
30
0
41
1
10
55.9407596356888
20
-6.52374789810568
30
0
41
1
10
55.9109688233261
20
-6.58136034387923
30
0
41
1
10
55.900874779446
20
-6.5996297794139
30
0
41
1
10
55.8804843657822
20
-6.63442003287321
30
0
41
1
10
55.8701744331986
20
-6.65096627401161
30
0
41
1
10
55.8389454807212
20
-6.6983914740093
30
0
41
1
10
55.8177293748567
20
-6.72707221671735
30
0
41
1
10
55.7746739317029
20
-6.77982225117776
30
0
41
1
10
55.7528335451027
20
-6.80388377880601
30
0
41
1
10
55.7086416470723
20
-6.84822488887662
30
0
41
1
10
55.6862896018123
20
-6.86850052137359
30
0
41
1
10
55.6185866260354
20
-6.92454128195928
30
0
41
1
10
55.5725949110787
20
-6.95556507977969
30
0
41
1
10
55.5259569288398
20
-6.98180697835909
30
0
0
SPLINE
5
FD
100
AcDbEntity
8
1
62
256
6
ByLayer
370
18
48
1
60
0
100
AcDbSpline
70
4
71
3
72
8
73
4
40
0
40
0
40
0
40
0
40
1
40
1
40
1
40
1
41
1
10
7.1353578443217
20
-7.66354010009258
30
0
41
1
10
7.14346384906275
20
-7.70264669193048
30
0
41
1
10
7.15748092634055
20
-7.74040598215987
30
0
41
1
10
7.17584126455728
20
-7.7770288889611
30
0
0
SPLINE
5
FE
100
AcDbEntity
8
1
62
256
6
ByLayer
370
18
48
1
60
0
100
AcDbSpline
70
4
71
1
72
4
73
2
40
0
40
0
40
1
40
1
41
1
10
9.58072284357556
20
-7.4015838103644
30
0
41
1
10
7.17584126455728
20
-7.7770288889611
30
0
0
SPLINE
5
FF
100
AcDbEntity
8
1
62
256
6
ByLayer
370
18
48
1
60
0
100
AcDbSpline
70
4
71
3
72
20
73
16
40
0
40
0
40
0
40
0
40
0.124999999999995
40
0.124999999999995
40
0.24999999999999
40
0.24999999999999
40
0.374999999999985
40
0.374999999999985
40
0.49999999999998
40
0.49999999999998
40
0.749999999999981
40
0.749999999999981
40
0.87499999999999
40
0.87499999999999
40
1
40
1
40
1
40
1
41
1
10
55.7832821110725
20
-0.568720781250363
30
0
41
1
10
55.777708632195
20
-0.591669975115764
30
0
41
1
10
55.7741501231447
20
-0.614485792608605
30
0
41
1
10
55.7704777158602
20
-0.659615975834356
30
0
41
1
10
55.7703669105284
20
-0.68193142476207
30
0
41
1
10
55.7732297826229
20
-0.725815868862611
30
0
41
1
10
55.7762047504625
20
-0.747385921886234
30
0
41
1
10
55.7850307394482
20
-0.789490612536866
30
0
41
1
10
55.7909210320516
20
-0.810102350889935
30
0
41
1
10
55.8123298067083
20
-0.868755645006047
30
0
41
1
10
55.8315397225798
20
-0.903984912645456
30
0
41
1
10
55.8670335933029
20
-0.948824770290884
30
0
41
1
10
55.8799931891966
20
-0.962425676374778
30
0
41
1
10
55.9082615538873
20
-0.986398592923479
30
0
41
1
10
55.9233245821384
20
-0.996547678397349
30
0
41
1
10
55.9392276191131
20
-1.00469506764395
30
0
0
SPLINE
5
100
100
AcDbEntity
8
1
62
256
6
ByLayer
370
18
48
1
60
0
100
AcDbSpline
70
4
71
3
72
8
73
4
40
0
40
0
40
0
40
0
40
1
40
1
40
1
40
1
41
1
10
13.5493765242534
20
-7.53193060190162
30
0
41
1
10
13.4210475284395
20
-7.45427529618834
30
0
41
1
10
13.2912120702487
20
-7.38920420203939
30
0
41
1
10
13.1607597988405
20
-7.33583348332317
30
0
0
SPLINE
5
101
100
AcDbEntity
8
1
62
256
6
ByLayer
370
18
48
1
60
0
100
AcDbSpline
70
4
71
3
72
10
73
6
40
0
40
0
40
0
40
0
40
0.77716997953012
40
0.77716997953012
40
1
40
1
40
1
40
1
41
1
10
55.207956414672
20
4.84383622998303
30
0
41
1
10
55.1760833337601
20
4.90822957445749
30
0
41
1
10
55.1504959309318
20
4.95077382995169
30
0
41
1
10
55.1256335185216
20
4.97749482831179
30
0
41
1
10
55.1206103281682
20
4.98165231334664
30
0
41
1
10
55.1161100953067
20
4.98399199215305
30
0
0
SPLINE
5
102
100
AcDbEntity
8
1
62
256
6
ByLayer
370
18
48
1
60
0
100
AcDbSpline
70
4
71
1
72
4
73
2
40
0
40
0
40
1
40
1
41
1
10
35.5764388207731
20
-6.6387188446688
30
0
41
1
10
31.3942326651469
20
-7.42059219379124
30
0
0
SPLINE
5
103
100
AcDbEntity
8
1
62
256
6
ByLayer
370
13
48
1
60
0
100
AcDbSpline
70
4
71
1
72
4
73
2
40
0
40
0
40
1
40
1
41
1
10
15.07
20
-7.85883802602419
30
0
41
1
10
12.2074315484801
20
-6.67744575041394
30
0
0
SPLINE
5
104
100
AcDbEntity
8
1
62
256
6
ByLayer
370
18
48
1
60
0
100
AcDbSpline
70
4
71
1
72
4
73
2
40
0
40
0
40
1
40
1
41
1
10
15.07
20
6.54460934999435
30
0
41
1
10
14.667644744339
20
6.60742421036144
30
0
0
SPLINE
5
105
100
AcDbEntity
8
1
62
256
6
ByLayer
370
18
48
1
60
0
100
AcDbSpline
70
4
71
3
72
8
73
4
40
0
40
0
40
0
40
0
40
1
40
1
40
1
40
1
41
1
10
13.5493766212897
20
5.32538737886972
30
0
41
1
10
13.4210475646354
20
5.43851789668705
30
0
41
1
10
13.2912120607434
20
5.55536787608224
30
0
41
1
10
13.1607597584561
20
5.67648063681881
30
0
0
SPLINE
5
106
100
AcDbEntity
8
1
62
256
6
ByLayer
370
18
48
1
60
0
100
AcDbSpline
70
4
71
3
72
9
73
5
40
0
40
0
40
0
40
0
40
0.5
40
1
40
1
40
1
40
1
41
1
10
55.5256286303046
20
3.92371919849202
30
0
41
1
10
55.4696683818671
20
4.08952093471058
30
0
41
1
10
55.3607535129186
20
4.40871370929352
30
0
41
1
10
55.2578642629212
20
4.70302578073503
30
0
41
1
10
55.2079564146721
20
4.84383622998314
30
0
0
SPLINE
5
107
100
AcDbEntity
8
1
62
256
6
ByLayer
370
18
48
1
60
0
100
AcDbSpline
70
4
71
3
72
22
73
18
40
0
40
0
40
0
40
0
40
0.256459557304215
40
0.256459557304215
40
0.51291911460843
40
0.51291911460843
40
0.64114889326054
40
0.64114889326054
40
0.673206337923569
40
0.673206337923569
40
0.705263782586598
40
0.705263782586598
40
0.769378671912651
40
0.769378671912651
40
0.897608450564756
40
0.897608450564756
40
1
40
1
40
1
40
1
41
1
10
55.207956414672
20
4.84383622998305
30
0
41
1
10
54.8356719310424
20
5.11482028893519
30
0
41
1
10
54.4649795964473
20
5.37113748026781
30
0
41
1
10
53.7230559380875
20
5.85251919389293
30
0
41
1
10
53.351830288425
20
6.07759308049776
30
0
41
1
10
52.7920845791733
20
6.38997284483958
30
0
41
1
10
52.605020569049
20
6.48988965692374
30
0
41
1
10
52.3703390049102
20
6.60928878823668
30
0
41
1
10
52.3233601327942
20
6.63289361604237
30
0
41
1
10
52.2293111033202
20
6.6795467521068
30
0
41
1
10
52.1822386793719
20
6.70259568603629
30
0
41
1
10
52.0412159796797
20
6.77073566040235
30
0
41
1
10
51.9473468368801
20
6.81487675980202
30
0
41
1
10
51.6661103353986
20
6.94343418457032
30
0
41
1
10
51.4790943960512
20
7.02398860862894
30
0
41
1
10
51.1434480424381
20
7.15949729370845
30
0
41
1
10
50.9946965973957
20
7.21632768395042
30
0
41
1
10
50.8461349550648
20
7.26982587746141
30
0
0
SPLINE
5
108
100
AcDbEntity
8
1
62
256
6
ByLayer
370
13
48
1
60
0
100
AcDbSpline
70
4
71
1
72
4
73
2
40
0
40
0
40
1
40
1
41
1
10
15.07
20
4.01756429536715
30
0
41
1
10
13.7633487332082
20
5.13152389922016
30
0
0
SPLINE
5
109
100
AcDbEntity
8
1
62
256
6
ByLayer
370
13
48
1
60
0
100
AcDbSpline
70
4
71
1
72
4
73
2
40
0
40
0
40
1
40
1
41
1
10
12.4090168478578
20
6.28613266808819
30
0
41
1
10
11.3978581240957
20
7.14817596914438
30
0
0
SPLINE
5
10A
100
AcDbEntity
8
1
62
256
6
ByLayer
370
13
48
1
60
0
100
AcDbSpline
70
4
71
3
72
8
73
4
40
0
40
0
40
0
40
0
40
1
40
1
40
1
40
1
41
1
10
55.4676179528174
20
3.64401863423313
30
0
41
1
10
54.9887379081823
20
4.06234777850628
30
0
41
1
10
54.5098578635472
20
4.46294768401157
30
0
41
1
10
54.030977818912
20
4.8410035647974
30
0
0
SPLINE
5
10B
100
AcDbEntity
8
1
62
256
6
ByLayer
370
13
48
1
60
0
100
AcDbSpline
70
4
71
3
72
9
73
5
40
0
40
0
40
0
40
0
40
0.198633504472562
40
1
40
1
40
1
40
1
41
1
10
21.5090014167036
20
-7.95598710096544
30
0
41
1
10
21.0826676111357
20
-8.07832090892731
30
0
41
1
10
18.9363338055678
20
-8.5464199915466
30
0
41
1
10
16.79
20
-8.23684003085984
30
0
41
1
10
15.07
20
-7.49670897929991
30
0
0
SPLINE
5
10C
100
AcDbEntity
8
1
62
256
6
ByLayer
370
18
48
1
60
0
100
AcDbSpline
70
4
71
5
72
12
73
6
40
0
40
0
40
0
40
0
40
0
40
0
40
1
40
1
40
1
40
1
40
1
40
1
41
1
10
15.07
20
-7.49670897929991
30
0
41
0.982012206989967
10
15.07
20
-7.55240865284309
30
0
41
0.973220535920807
10
15.07
20
-7.61996858739243
30
0
41
0.973220535920807
10
15.07
20
-7.6960990637661
30
0
41
0.982012206989967
10
15.07
20
-7.77705891055584
30
0
41
1
10
15.07
20
-7.85883802602419
30
0
0
SPLINE
5
10D
100
AcDbEntity
8
1
62
256
6
ByLayer
370
18
48
1
60
0
100
AcDbSpline
70
4
71
3
72
16
73
12
40
0
40
0
40
0
40
0
40
0.25
40
0.25
40
0.500000000000001
40
0.500000000000001
40
0.625000000000001
40
0.625000000000001
40
0.750000000000001
40
0.750000000000001
40
1
40
1
40
1
40
1
41
1
10
55.3113222049975
20
-6.33139328139202
30
0
41
1
10
55.2959935455522
20
-6.18180896242023
30
0
41
1
10
55.2834166435917
20
-6.03233709755912
30
0
41
1
10
55.2637633221595
20
-5.73361815213207
30
0
41
1
10
55.2566865787429
20
-5.58437105832763
30
0
41
1
10
55.2503282259705
20
-5.36067437569238
30
0
41
1
10
55.2489195658039
20
-5.28612840452888
30
0
41
1
10
55.2475647978996
20
-5.13713425996147
30
0
41
1
10
55.2476246642731
20
-5.06335862783362
30
0
41
1
10
55.2499736280243
20
-4.84415457453642
30
0
41
1
10
55.2544266938611
20
-4.700843716001
30
0
41
1
10
55.2617232307926
20
-4.56031535095357
30
0
0
SPLINE
5
10E
100
AcDbEntity
8
1
62
256
6
ByLayer
370
13
48
1
60
0
100
AcDbSpline
70
4
71
3
72
14
73
10
40
0
40
0
40
0
40
0
40
0.25
40
0.25
40
0.5
40
0.5
40
0.75
40
0.75
40
1
40
1
40
1
40
1
41
1
10
37.3
20
-3.02861208952493
30
0
41
1
10
37.3
20
-2.82980968296763
30
0
41
1
10
37.3
20
-2.63496675519997
30
0
41
1
10
37.3
20
-2.25575582548825
30
0
41
1
10
37.3
20
-2.07138976934067
30
0
41
1
10
37.3000000000001
20
-1.71548777078723
30
0
41
1
10
37.3
20
-1.54395348669161
30
0
41
1
10
37.3
20
-1.21581077151592
30
0
41
1
10
37.3
20
-1.05920364805439
30
0
41
1
10
37.3
20
-0.910955237375646
30
0
0
SPLINE
5
10F
100
AcDbEntity
8
1
62
256
6
ByLayer
370
18
48
1
60
0
100
AcDbSpline
70
4
71
1
72
4
73
2
40
0
40
0
40
1
40
1
41
1
10
37.3
20
-0.910955237375646
30
0
41
1
10
30.5239801349603
20
3.75930032000738
30
0
0
SPLINE
5
110
100
AcDbEntity
8
1
62
256
6
ByLayer
370
18
48
1
60
0
100
AcDbSpline
70
4
71
3
72
45
73
41
40
0
40
0
40
0
40
0
40
0.0666892909875905
40
0.0666892909875905
40
0.15153571907962
40
0.15153571907962
40
0.172747326102627
40
0.183353129614132
40
0.183353129614132
40
0.193958933125637
40
0.193958933125637
40
0.236382147171655
40
0.278805361217674
40
0.278805361217674
40
0.321228575263693
40
0.321228575263693
40
0.406075003355728
40
0.406075003355728
40
0.490921431447764
40
0.490921431447764
40
0.512133038470774
40
0.512133038470774
40
0.522738841982279
40
0.522738841982279
40
0.533344645493785
40
0.575767859539803
40
0.618191073585822
40
0.618191073585822
40
0.660614287631841
40
0.660614287631841
40
0.745460715723878
40
0.745460715723878
40
0.830307143815915
40
0.830307143815915
40
0.851518750838925
40
0.851518750838925
40
0.872730357861934
40
0.915153571907956
40
0.915153571907956
40
1
40
1
40
1
40
1
41
1
10
50.4950911931091
20
-7.39014268305311
30
0
41
1
10
50.2031031447627
20
-7.48512425523924
30
0
41
1
10
49.9115765873171
20
-7.56717063560572
30
0
41
1
10
49.2485495735239
20
-7.72376363262401
30
0
41
1
10
48.8768540123526
20
-7.79019164099313
30
0
41
1
10
48.4096437400982
20
-7.84538635155019
30
0
41
1
10
48.2692838996407
20
-7.85985808581697
30
0
41
1
10
48.1285592135717
20
-7.87118312144329
30
0
41
1
10
48.0346542370705
20
-7.87803148701565
30
0
41
1
10
47.9876286815704
20
-7.88110634706692
30
0
41
1
10
47.7527306829786
20
-7.89469473547206
30
0
41
1
10
47.3781521959846
20
-7.90504622937459
30
0
41
1
10
47.0052203993567
20
-7.89316701847847
30
0
41
1
10
46.6327649161011
20
-7.87032550915899
30
0
41
1
10
46.4467839563106
20
-7.85342097656539
30
0
41
1
10
45.8894074931468
20
-7.78609125358108
30
0
41
1
10
45.5186889269813
20
-7.71888561893596
30
0
41
1
10
44.775883787577
20
-7.54075689806513
30
0
41
1
10
44.4037251653051
20
-7.42992304872047
30
0
41
1
10
43.9353671259667
20
-7.26435089177886
30
0
41
1
10
43.8415413934001
20
-7.22987770845072
30
0
41
1
10
43.7005370455319
20
-7.17611347031811
30
0
41
1
10
43.653513545606
20
-7.15785763392739
30
0
41
1
10
43.559603550749
20
-7.12075187157012
30
0
41
1
10
43.3250385840958
20
-7.026452052975
30
0
41
1
10
42.9045937342921
20
-6.84297259588669
30
0
41
1
10
42.5323744466837
20
-6.66146024410185
30
0
41
1
10
42.1604933168262
20
-6.47116749580866
30
0
41
1
10
41.9747124449922
20
-6.37164230103997
30
0
41
1
10
41.4174596471221
20
-6.06023279115303
30
0
41
1
10
41.0461748538303
20
-5.83544189814063
30
0
41
1
10
40.3020419840402
20
-5.35195847650485
30
0
41
1
10
39.929124393302
20
-5.0933889080259
30
0
41
1
10
39.4597600015065
20
-4.75031210908395
30
0
41
1
10
39.3656797422768
20
-4.6806670906264
30
0
41
1
10
39.1778293884903
20
-4.53993979305841
30
0
41
1
10
38.8962775003298
20
-4.3265187092781
30
0
41
1
10
38.6151422369615
20
-4.10635425496369
30
0
41
1
10
38.0527482627719
20
-3.65765181536381
30
0
41
1
10
37.6777028376409
20
-3.34722609615722
30
0
41
1
10
37.3
20
-3.02858785658097
30
0
0
SPLINE
5
111
100
AcDbEntity
8
1
62
256
6
ByLayer
370
18
48
1
60
0
100
AcDbSpline
70
4
71
3
72
30
73
26
40
0
40
0
40
0
40
0
40
0.124999999999995
40
0.124999999999995
40
0.24999999999999
40
0.24999999999999
40
0.374999999999985
40
0.374999999999985
40
0.49999999999998
40
0.49999999999998
40
0.562499999999979
40
0.562499999999979
40
0.59374999999998
40
0.59374999999998
40
0.624999999999981
40
0.624999999999981
40
0.749999999999987
40
0.749999999999987
40
0.81249999999999
40
0.81249999999999
40
0.874999999999994
40
0.874999999999994
40
0.937499999999997
40
0.937499999999997
40
1
40
1
40
1
40
1
41
1
10
30.5239801349603
20
3.75930032000738
30
0
41
1
10
30.8360976368369
20
3.52545040793734
30
0
41
1
10
31.1400763720002
20
3.28134971998975
30
0
41
1
10
31.7340709784691
20
2.77344948848045
30
0
41
1
10
32.0240883290596
20
2.50964939175756
30
0
41
1
10
32.5934110476906
20
1.96411222598491
30
0
41
1
10
32.8727118147648
20
1.68237020760279
30
0
41
1
10
33.4248081373935
20
1.10373265083513
30
0
41
1
10
33.6975940184633
20
0.806832456077075
30
0
41
1
10
34.1055396166857
20
0.352942936891964
30
0
41
1
10
34.241325058248
20
0.200232419072137
30
0
41
1
10
34.4452740309263
20
-0.0304901756382492
30
0
41
1
10
34.5133319815906
20
-0.107706101463606
30
0
41
1
10
34.6490096982147
20
-0.261873653392286
30
0
41
1
10
34.7167062588067
20
-0.338911962970542
30
0
41
1
10
35.0547487953696
20
-0.723610574613588
30
0
41
1
10
35.3236874522912
20
-1.02986889801173
30
0
41
1
10
35.7309871306599
20
-1.48108522183847
30
0
41
1
10
35.8674231776854
20
-1.63010905674682
30
0
41
1
10
36.1428743140862
20
-1.92422614834905
30
0
41
1
10
36.2818866406849
20
-2.06932222176934
30
0
41
1
10
36.5639252065309
20
-2.35424989313989
30
0
41
1
10
36.7069500868447
20
-2.49408255429043
30
0
41
1
10
36.9987037239889
20
-2.76692796477119
30
0
41
1
10
37.1474316794411
20
-2.89994119538167
30
0
41
1
10
37.3
20
-3.02864507208085
30
0
0
SPLINE
5
112
100
AcDbEntity
8
1
62
256
6
ByLayer
370
18
48
1
60
0
100
AcDbSpline
70
4
71
3
72
79
73
75
40
0
40
0
40
0
40
0
40
0.0624999999999999
40
0.0624999999999999
40
0.125
40
0.125
40
0.1875
40
0.1875
40
0.218749999999997
40
0.218749999999997
40
0.234374999999996
40
0.234374999999996
40
0.249999999999995
40
0.249999999999995
40
0.281249999999992
40
0.281249999999992
40
0.312499999999989
40
0.312499999999989
40
0.328124999999988
40
0.328124999999988
40
0.343749999999987
40
0.343749999999987
40
0.37499999999998
40
0.37499999999998
40
0.382812499999978
40
0.382812499999978
40
0.390624999999976
40
0.390624999999976
40
0.406249999999976
40
0.406249999999976
40
0.421874999999976
40
0.421874999999976
40
0.429687499999976
40
0.429687499999976
40
0.437499999999976
40
0.437499999999976
40
0.468749999999972
40
0.468749999999972
40
0.476562499999971
40
0.476562499999971
40
0.48437499999997
40
0.499999999999968
40
0.499999999999968
40
0.515624999999966
40
0.515624999999966
40
0.531249999999964
40
0.531249999999964
40
0.562499999999961
40
0.562499999999961
40
0.570312499999961
40
0.570312499999961
40
0.578124999999961
40
0.578124999999961
40
0.593749999999962
40
0.593749999999962
40
0.624999999999967
40
0.624999999999967
40
0.656249999999971
40
0.656249999999971
40
0.671874999999973
40
0.671874999999973
40
0.687499999999975
40
0.687499999999975
40
0.718749999999979
40
0.718749999999979
40
0.749999999999983
40
0.749999999999983
40
0.812499999999987
40
0.812499999999987
40
0.874999999999991
40
0.874999999999991
40
0.937499999999996
40
0.937499999999996
40
1
40
1
40
1
40
1
41
1
10
31.3980491202962
20
5.93595529744002
30
0
41
1
10
31.232334795211
20
5.95827683572497
30
0
41
1
10
31.0668368333434
20
5.97874781384411
30
0
41
1
10
30.7364019656133
20
6.01646429159234
30
0
41
1
10
30.5714641744731
20
6.0337145570486
30
0
41
1
10
30.2422773932004
20
6.06518459492372
30
0
41
1
10
30.0780282311807
20
6.07943007191281
30
0
41
1
10
29.8322858675432
20
6.09832116088498
30
0
41
1
10
29.7504771602066
20
6.10419952073318
30
0
41
1
10
29.6279403628926
20
6.11227670190203
30
0
41
1
10
29.5871241784044
20
6.11484497648402
30
0
41
1
10
29.5055542801953
20
6.11970332272381
30
0
41
1
10
29.4647255968547
20
6.12199725705915
30
0
41
1
10
29.3429768499644
20
6.12836888656494
30
0
41
1
10
29.2628509534626
20
6.13194261281254
30
0
41
1
10
29.1049901185754
20
6.13734616562033
30
0
41
1
10
29.0272536997122
20
6.1391789905951
30
0
41
1
10
28.9127970515058
20
6.14013731381277
30
0
41
1
10
28.8751279967787
20
6.1401535022527
30
0
41
1
10
28.8011738520638
20
6.13947984098169
30
0
41
1
10
28.7648391883401
20
6.13879075591822
30
0
41
1
10
28.6579536209755
20
6.13547939911382
30
0
41
1
10
28.5894907940721
20
6.13164239939945
30
0
41
1
10
28.5083868315184
20
6.12385225229016
30
0
41
1
10
28.4923921609303
20
6.12214221036135
30
0
41
1
10
28.4608910790747
20
6.11838304104089
30
0
41
1
10
28.4454141635298
20
6.11633639548617
30
0
41
1
10
28.400175910377
20
6.10969509777348
30
0
41
1
10
28.3714799543272
20
6.10458672686397
30
0
41
1
10
28.3173227820901
20
6.09276536526963
30
0
41
1
10
28.2918604107827
20
6.08605323165176
30
0
41
1
10
28.2564003276283
20
6.07454542789159
30
0
41
1
10
28.2450367835905
20
6.07046891132703
30
0
41
1
10
28.2232872212109
20
6.06178575034184
30
0
41
1
10
28.2129995995889
20
6.05721712855961
30
0
41
1
10
28.1646795367697
20
6.0332564473986
30
0
41
1
10
28.1358047568608
20
6.01046159003511
30
0
41
1
10
28.1126585827829
20
5.97657528885884
30
0
41
1
10
28.1086757538058
20
5.96951957469631
30
0
41
1
10
28.1020462329882
20
5.9548743520194
30
0
41
1
10
28.0942023671639
20
5.93232874151605
30
0
41
1
10
28.0923137353583
20
5.90808211752099
30
0
41
1
10
28.0945858128071
20
5.87428850583871
30
0
41
1
10
28.0981179374723
20
5.85665922938003
30
0
41
1
10
28.1095657845943
20
5.81997415033584
30
0
41
1
10
28.1173925749015
20
5.80119827874162
30
0
41
1
10
28.1461042471466
20
5.74383973650265
30
0
41
1
10
28.1721944934056
20
5.70415170586497
30
0
41
1
10
28.2112521500468
20
5.65294757282163
30
0
41
1
10
28.2193902453866
20
5.6426267158019
30
0
41
1
10
28.2362785733537
20
5.62182920673638
30
0
41
1
10
28.2450434959673
20
5.61133572262716
30
0
41
1
10
28.2720673768568
20
5.5797823042239
30
0
41
1
10
28.2910531282444
20
5.55864396161888
30
0
41
1
10
28.3504680240188
20
5.49491762321409
30
0
41
1
10
28.3933330672602
20
5.45201791573692
30
0
41
1
10
28.483935062447
20
5.36539035564911
30
0
41
1
10
28.5316841301395
20
5.3216629103776
30
0
41
1
10
28.6061910057912
20
5.25546060365147
30
0
41
1
10
28.6315106120307
20
5.23329134878074
30
0
41
1
10
28.683019451985
20
5.18875098357682
30
0
41
1
10
28.7092375093414
20
5.16635570977326
30
0
41
1
10
28.7888673023579
20
5.09904263821409
30
0
41
1
10
28.8430937908949
20
5.0541250856073
30
0
41
1
10
28.9533499142581
20
4.96412036736069
30
0
41
1
10
29.009381762911
20
4.91903368125537
30
0
41
1
10
29.1796821946326
20
4.78343301415183
30
0
41
1
10
29.2961301080992
20
4.69257427977769
30
0
41
1
10
29.5331095809805
20
4.50964353586255
30
0
41
1
10
29.6536566055147
20
4.41757456423579
30
0
41
1
10
29.8978079554371
20
4.23204118391982
30
0
41
1
10
30.0214191335115
20
4.13857802476233
30
0
41
1
10
30.2710243183263
20
3.95011820640678
30
0
41
1
10
30.3970217487626
20
3.85512211852546
30
0
41
1
10
30.5239801349602
20
3.75930032000738
30
0
0
SPLINE
5
113
100
AcDbEntity
8
1
62
256
6
ByLayer
370
18
48
1
60
0
100
AcDbSpline
70
4
71
3
72
8
73
4
40
0
40
0
40
0
40
0
40
1
40
1
40
1
40
1
41
1
10
55.5259569288398
20
-6.98180697835906
30
0
41
1
10
55.5081318992304
20
-7.08672698927884
30
0
41
1
10
55.4886828956122
20
-7.18992403659553
30
0
41
1
10
55.4676188211625
20
-7.29142001346727
30
0
0
SPLINE
5
114
100
AcDbEntity
8
1
62
256
6
ByLayer
370
18
48
1
60
0
100
AcDbSpline
70
4
71
3
72
8
73
4
40
0
40
0
40
0
40
0
40
1
40
1
40
1
40
1
41
1
10
55.5259569288399
20
-6.981806978359
30
0
41
1
10
55.4516943257673
20
-6.77576193502276
30
0
41
1
10
55.3801405312355
20
-6.55899255190178
30
0
41
1
10
55.3113222049975
20
-6.331393281392
30
0
0
SPLINE
5
115
100
AcDbEntity
8
1
62
256
6
ByLayer
370
18
48
1
60
0
100
AcDbSpline
70
4
71
3
72
61
73
57
40
0
40
0
40
0
40
0
40
0.0653082555775951
40
0.0653082555775951
40
0.13061651115519
40
0.13061651115519
40
0.163270638943987
40
0.163270638943987
40
0.179597702838386
40
0.179597702838386
40
0.187761234785584
40
0.187761234785584
40
0.195924766732783
40
0.261233022310374
40
0.261233022310374
40
0.326541277887966
40
0.326541277887966
40
0.391849533465558
40
0.391849533465558
40
0.424503661254353
40
0.424503661254353
40
0.432667193201552
40
0.432667193201552
40
0.44083072514875
40
0.457157789043146
40
0.457157789043146
40
0.48981191683194
40
0.48981191683194
40
0.522466044620733
40
0.522466044620733
40
0.587774300198319
40
0.587774300198319
40
0.653082555775905
40
0.653082555775905
40
0.669409619670302
40
0.669409619670302
40
0.677573151617501
40
0.677573151617501
40
0.6857366835647
40
0.718390811353493
40
0.718390811353493
40
0.751044939142286
40
0.751044939142286
40
0.78369906693108
40
0.78369906693108
40
0.849007322508666
40
0.849007322508666
40
0.914315578086253
40
0.914315578086253
40
0.922479110033452
40
0.922479110033452
40
0.930642641980651
40
0.946969705875048
40
0.979623833663845
40
0.979623833663845
40
1
40
1
40
1
40
1
41
1
10
55.3113222049975
20
-6.331393281392
30
0
41
1
10
54.936698977879
20
-6.11777677878891
30
0
41
1
10
54.5638134108502
20
-5.88610707583726
30
0
41
1
10
53.817761553641
20
-5.39070199826398
30
0
41
1
10
53.4446022326296
20
-5.12696641729121
30
0
41
1
10
52.8821710561071
20
-4.70941615889956
30
0
41
1
10
52.694248070916
20
-4.56656531470159
30
0
41
1
10
52.4114002231708
20
-4.34696062996261
30
0
41
1
10
52.3169571208811
20
-4.27287035228321
30
0
41
1
10
52.175015292825
20
-4.16041744935865
30
0
41
1
10
52.1276615788629
20
-4.12271833648336
30
0
41
1
10
52.0330893307977
20
-4.04707113884086
30
0
41
1
10
51.6078680309571
20
-3.70532623541845
30
0
41
1
10
51.1854971120659
20
-3.35195463722329
30
0
41
1
10
50.4372132309662
20
-2.70729122212416
30
0
41
1
10
50.064299965907
20
-2.37686042059133
30
0
41
1
10
49.3177556593143
20
-1.70321579588116
30
0
41
1
10
48.9440838796883
20
-1.36005307721138
30
0
41
1
10
48.3804851169453
20
-0.838184340028874
30
0
41
1
10
48.1921049992998
20
-0.663037137353029
30
0
41
1
10
47.9556991181409
20
-0.44291477899921
30
0
41
1
10
47.9083893466501
20
-0.398847328549806
30
0
41
1
10
47.8139035892918
20
-0.310817746004432
30
0
41
1
10
47.6722927499726
20
-0.178854035255881
30
0
41
1
10
47.5310044292092
20
-0.0471622437659107
30
0
41
1
10
47.2487834365801
20
0.215785543741816
30
0
41
1
10
47.061107950699
20
0.390501252825658
30
0
41
1
10
46.6863660106871
20
0.73842524861908
30
0
41
1
10
46.4993008882908
20
0.911635175440267
30
0
41
1
10
45.9387412295763
20
1.42867867197231
30
0
41
1
10
45.5659786234123
20
1.7700000801139
30
0
41
1
10
44.8191180486151
20
2.4425321925282
30
0
41
1
10
44.44495308078
20
2.77368799536347
30
0
41
1
10
43.9740302437416
20
3.17876481822287
30
0
41
1
10
43.8796887944632
20
3.25933970701195
30
0
41
1
10
43.7379056998684
20
3.37949912020963
30
0
41
1
10
43.6905789054847
20
3.41945224561442
30
0
41
1
10
43.5960588785285
20
3.49892428325637
30
0
41
1
10
43.3599700146495
20
3.69662338445801
30
0
41
1
10
43.1248798565473
20
3.88935897757548
30
0
41
1
10
42.7495409902467
20
4.19115615278898
30
0
41
1
10
42.5622739795672
20
4.33876567301925
30
0
41
1
10
42.1881519885102
20
4.62718532416034
30
0
41
1
10
42.0012925191033
20
4.76799391189772
30
0
41
1
10
41.4408940919248
20
5.17988545406993
30
0
41
1
10
41.0676096907835
20
5.44049830118104
30
0
41
1
10
40.3193375093198
20
5.93112959831882
30
0
41
1
10
39.944298698179
20
6.16116094668305
30
0
41
1
10
39.5193656394051
20
6.40084818224381
30
0
41
1
10
39.4720871638346
20
6.4272259169293
30
0
41
1
10
39.3775511083188
20
6.4793795125052
30
0
41
1
10
39.2358131373742
20
6.55668881321267
30
0
41
1
10
38.9054776502115
20
6.7305957213328
30
0
41
1
10
38.622734693256
20
6.8684247653901
30
0
41
1
10
38.3165327486901
20
7.00932093155271
30
0
41
1
10
38.1988613407537
20
7.06145117189968
30
0
41
1
10
38.0811007824005
20
7.11156855294365
30
0
0
SPLINE
5
116
100
AcDbEntity
8
1
62
256
6
ByLayer
370
13
48
1
60
0
100
AcDbSpline
70
4
71
3
72
11
73
7
40
0
40
0
40
0
40
0
40
0.34979412283905
40
0.576494353796685
40
0.80319458475432
40
1
40
1
40
1
40
1
41
1
10
55.2617232307922
20
-4.56031535095335
30
0
41
1
10
54.0369821538615
20
-3.89211639220215
30
0
41
1
10
52.0184910769307
20
-2.57662934949599
30
0
41
1
10
49.20625
20
-0.449516813642731
30
0
41
1
10
46.9296713092048
20
1.28341323761853
30
0
41
1
10
45.4468426184096
20
2.3618607018154
30
0
41
1
10
44.7577639276144
20
2.83463109356174
30
0
0
SPLINE
5
117
100
AcDbEntity
8
1
62
256
6
ByLayer
370
18
48
1
60
0
100
AcDbSpline
70
4
71
3
72
18
73
14
40
0
40
0
40
0
40
0
40
0.250000000000001
40
0.250000000000001
40
0.500000000000003
40
0.500000000000003
40
0.625000000000003
40
0.625000000000003
40
0.687500000000002
40
0.687500000000002
40
0.750000000000002
40
0.750000000000002
40
1
40
1
40
1
40
1
41
1
10
55.2617232307936
20
-4.56031535095462
30
0
41
1
10
55.268509549827
20
-4.42907889160492
30
0
41
1
10
55.2722377115842
20
-4.29571728599529
30
0
41
1
10
55.2743459877586
20
-4.02527765937236
30
0
41
1
10
55.2727216710541
20
-3.88819655912593
30
0
41
1
10
55.2666256247198
20
-3.6800318334615
30
0
41
1
10
55.2639818320191
20
-3.6102184610028
30
0
41
1
10
55.2591289255009
20
-3.5048818653901
30
0
41
1
10
55.2573600813146
20
-3.46961010356878
30
0
41
1
10
55.2535509585409
20
-3.39922717323876
30
0
41
1
10
55.2515107630641
20
-3.36410543026594
30
0
41
1
10
55.2406585640748
20
-3.18883147341194
30
0
41
1
10
55.2299018513841
20
-3.0496789299475
30
0
41
1
10
55.2173351187239
20
-2.91145682042037
30
0
0
SPLINE
5
118
100
AcDbEntity
8
1
62
256
6
ByLayer
370
18
48
1
60
0
100
AcDbSpline
70
4
71
3
72
10
73
6
40
0
40
0
40
0
40
0
40
0.5
40
0.5
40
1
40
1
40
1
40
1
41
1
10
53.9416242042341
20
-1.02826065352079
30
0
41
1
10
54.1524114581363
20
-1.34543116205069
30
0
41
1
10
54.3640496861143
20
-1.66106607724311
30
0
41
1
10
54.7892334099661
20
-2.28889421891603
30
0
41
1
10
55.0027797744307
20
-2.6010858780129
30
0
41
1
10
55.217335118724
20
-2.91145682042043
30
0
0
SPLINE
5
119
100
AcDbEntity
8
1
62
256
6
ByLayer
370
18
48
1
60
0
100
AcDbSpline
70
4
71
3
72
46
73
42
40
0
40
0
40
0
40
0
40
0.124999999999989
40
0.124999999999989
40
0.187499999999986
40
0.187499999999986
40
0.203124999999986
40
0.203124999999986
40
0.218749999999985
40
0.218749999999985
40
0.249999999999985
40
0.249999999999985
40
0.374999999999978
40
0.374999999999978
40
0.406249999999977
40
0.406249999999977
40
0.437499999999977
40
0.437499999999977
40
0.499999999999974
40
0.499999999999974
40
0.562499999999971
40
0.562499999999971
40
0.593749999999973
40
0.593749999999973
40
0.624999999999975
40
0.624999999999975
40
0.687499999999979
40
0.687499999999979
40
0.718749999999981
40
0.718749999999981
40
0.749999999999983
40
0.749999999999983
40
0.812499999999987
40
0.812499999999987
40
0.843749999999989
40
0.843749999999989
40
0.874999999999992
40
0.874999999999992
40
0.937499999999996
40
0.937499999999996
40
1
40
1
40
1
40
1
41
1
10
53.9416242042363
20
-1.02826065352642
30
0
41
1
10
53.8882529462368
20
-0.947953193150141
30
0
41
1
10
53.8448834373683
20
-0.863577717537396
30
0
41
1
10
53.7949638767019
20
-0.731471748409746
30
0
41
1
10
53.7808588550189
20
-0.686510235910959
30
0
41
1
10
53.7665117368078
20
-0.629192369349482
30
0
41
1
10
53.763806826566
20
-0.617672953480451
30
0
41
1
10
53.7587302357575
20
-0.594523292636239
30
0
41
1
10
53.75635694422
20
-0.582881140037443
30
0
41
1
10
53.7497890634226
20
-0.548048074660159
30
0
41
1
10
53.7461273445701
20
-0.524872024614268
30
0
41
1
10
53.7312850418086
20
-0.409280126395714
30
0
41
1
10
53.7303930667864
20
-0.317723314745649
30
0
41
1
10
53.7421887318249
20
-0.205390226360862
30
0
41
1
10
53.7452159059099
20
-0.18294850088958
30
0
41
1
10
53.752495007961
20
-0.138818719855521
30
0
41
1
10
53.7567422177348
20
-0.117116967161962
30
0
41
1
10
53.7712228581161
20
-0.0531040352421428
30
0
41
1
10
53.7831867576422
20
-0.0118821367138935
30
0
41
1
10
53.8114950993175
20
0.0675729262916889
30
0
41
1
10
53.8278379758802
20
0.105807510729392
30
0
41
1
10
53.8556760704025
20
0.160772242550365
30
0
41
1
10
53.865480927339
20
0.17862307057581
30
0
41
1
10
53.8859154570002
20
0.21301344954756
30
0
41
1
10
53.8965737306084
20
0.229610747743038
30
0
41
1
10
53.9298570118599
20
0.277621751523469
30
0
41
1
10
53.9537789081802
20
0.307263809273934
30
0
41
1
10
53.9923976135143
20
0.348076714765796
30
0
41
1
10
54.0057292135797
20
0.361070488853159
30
0
41
1
10
54.033371441763
20
0.385788798383032
30
0
41
1
10
54.0477404804872
20
0.397553222515825
30
0
41
1
10
54.091851980564
20
0.430401584029909
30
0
41
1
10
54.1226488752237
20
0.449150598471533
30
0
41
1
10
54.1712886975437
20
0.472385599245456
30
0
41
1
10
54.1879123888098
20
0.479312006095171
30
0
41
1
10
54.222086210991
20
0.491445509734803
30
0
41
1
10
54.2396614163714
20
0.49665904015751
30
0
41
1
10
54.2938391692854
20
0.509487980011471
30
0
41
1
10
54.3309760274491
20
0.514105586700083
30
0
41
1
10
54.4079604904702
20
0.515211111222072
30
0
41
1
10
54.4478011939928
20
0.511706694933508
30
0
41
1
10
54.4895285361804
20
0.50363241006167
30
0
0
SPLINE
5
11A
100
AcDbEntity
8
1
62
256
6
ByLayer
370
18
48
1
60
0
100
AcDbSpline
70
4
71
3
72
19
73
15
40
0
40
0
40
0
40
0
40
0.0624999999999989
40
0.0624999999999989
40
0.124999999999998
40
0.249999999999997
40
0.374999999999996
40
0.437499999999996
40
0.437499999999996
40
0.499999999999996
40
0.499999999999996
40
0.749999999999998
40
0.749999999999998
40
1
40
1
40
1
40
1
41
1
10
55.4968689701354
20
0.34444735033992
30
0
41
1
10
55.4839625998354
20
0.345297417481902
30
0
41
1
10
55.470362310598
20
0.346338643254398
30
0
41
1
10
55.4419832177396
20
0.348782932022459
30
0
41
1
10
55.3975661571319
20
0.35299724815647
30
0
41
1
10
55.314524334554
20
0.362692729836226
30
0
41
1
10
55.2200672926903
20
0.375771749858075
30
0
41
1
10
55.1585249163151
20
0.385062110624318
30
0
41
1
10
55.1164444777348
20
0.391567559099911
30
0
41
1
10
55.0948590415994
20
0.394979641663696
30
0
41
1
10
54.9853817159452
20
0.412632164509176
30
0
41
1
10
54.8921348216101
20
0.428747679225353
30
0
41
1
10
54.6969230992792
20
0.464046504948584
30
0
41
1
10
54.5949467254348
20
0.483233878880668
30
0
41
1
10
54.4895285361804
20
0.50363241006167
30
0
0
SPLINE
5
11B
100
AcDbEntity
8
1
62
256
6
ByLayer
370
18
48
1
60
0
100
AcDbSpline
70
4
71
3
72
26
73
22
40
0
40
0
40
0
40
0
40
0.135830342564805
40
0.135830342564805
40
0.27166068512961
40
0.27166068512961
40
0.407491027694415
40
0.407491027694415
40
0.54332137025922
40
0.54332137025922
40
0.679151712824025
40
0.679151712824025
40
0.747066884106428
40
0.747066884106428
40
0.781024469747629
40
0.781024469747629
40
0.81498205538883
40
0.81498205538883
40
0.950812397953635
40
0.950812397953635
40
1
40
1
40
1
40
1
41
1
10
31.3942326651471
20
-7.42059219379121
30
0
41
1
10
31.6646720375829
20
-7.4860003423652
30
0
41
1
10
31.9289794523131
20
-7.5479432169231
30
0
41
1
10
32.4467478727224
20
-7.66066530748677
30
0
41
1
10
32.7002104289875
20
-7.71143607241879
30
0
41
1
10
33.1984380048083
20
-7.79768917145304
30
0
41
1
10
33.443220634175
20
-7.83312202869669
30
0
41
1
10
33.92677476293
20
-7.88536767484754
30
0
41
1
10
34.1655375840723
20
-7.9021941350579
30
0
41
1
10
34.6402803560945
20
-7.91441960245001
30
0
41
1
10
34.8762511227505
20
-7.90981528017599
30
0
41
1
10
35.2311627148501
20
-7.8849849085419
30
0
41
1
10
35.3496331291657
20
-7.87372394687597
30
0
41
1
10
35.5280484894867
20
-7.85215950195254
30
0
41
1
10
35.5876391734183
20
-7.84419279110247
30
0
41
1
10
35.7071428369822
20
-7.82667309134416
30
0
41
1
10
35.7669830049128
20
-7.81712952990802
30
0
41
1
10
36.0663768815872
20
-7.76555971288118
30
0
41
1
10
36.3069210308566
20
-7.71187713850921
30
0
41
1
10
36.6399321730407
20
-7.6223289786455
30
0
41
1
10
36.7289813348575
20
-7.59693997420439
30
0
41
1
10
36.8187058625458
20
-7.57001313104846
30
0
0
SPLINE
5
11C
100
AcDbEntity
8
1
62
256
6
ByLayer
370
18
48
1
60
0
100
AcDbSpline
70
4
71
3
72
94
73
90
40
0
40
0
40
0
40
0
40
0.0625000000000065
40
0.0625000000000065
40
0.125000000000013
40
0.125000000000013
40
0.156250000000018
40
0.156250000000018
40
0.187500000000023
40
0.187500000000023
40
0.203125000000026
40
0.203125000000026
40
0.218750000000029
40
0.218750000000029
40
0.250000000000034
40
0.250000000000034
40
0.281250000000039
40
0.281250000000039
40
0.296875000000043
40
0.296875000000043
40
0.304687500000044
40
0.304687500000044
40
0.312500000000044
40
0.312500000000044
40
0.328125000000042
40
0.328125000000042
40
0.335937500000041
40
0.335937500000041
40
0.343750000000039
40
0.343750000000039
40
0.35937500000004
40
0.35937500000004
40
0.375000000000041
40
0.375000000000041
40
0.382812500000041
40
0.382812500000041
40
0.386718750000041
40
0.386718750000041
40
0.390625000000041
40
0.390625000000041
40
0.406250000000039
40
0.406250000000039
40
0.414062500000037
40
0.414062500000037
40
0.417968750000036
40
0.417968750000036
40
0.421875000000035
40
0.437500000000031
40
0.437500000000031
40
0.445312500000029
40
0.445312500000029
40
0.453125000000028
40
0.453125000000028
40
0.468750000000025
40
0.468750000000025
40
0.484375000000022
40
0.484375000000022
40
0.492187500000022
40
0.492187500000022
40
0.500000000000021
40
0.500000000000021
40
0.51562500000002
40
0.51562500000002
40
0.531250000000019
40
0.531250000000019
40
0.562500000000014
40
0.562500000000014
40
0.570312500000014
40
0.570312500000014
40
0.578125000000014
40
0.593750000000014
40
0.593750000000014
40
0.625000000000014
40
0.625000000000014
40
0.656250000000013
40
0.656250000000013
40
0.687500000000013
40
0.687500000000013
40
0.750000000000012
40
0.750000000000012
40
0.781250000000012
40
0.781250000000012
40
0.812500000000012
40
0.812500000000012
40
0.875000000000008
40
0.875000000000008
40
0.937500000000004
40
0.937500000000004
40
1
40
1
40
1
40
1
41
1
10
31.2476741837017
20
-3.34807854492161
30
0
41
1
10
31.0332820286066
20
-3.32598189916044
30
0
41
1
10
30.8189544215099
20
-3.31279867151417
30
0
41
1
10
30.3906662159205
20
-3.30643825544112
30
0
41
1
10
30.1767052438737
20
-3.31328442867604
30
0
41
1
10
29.856197605788
20
-3.34065485570713
30
0
41
1
10
29.7494334462996
20
-3.35263396567146
30
0
41
1
10
29.5360675097646
20
-3.38284337934906
30
0
41
1
10
29.4294657541458
20
-3.4010686065044
30
0
41
1
10
29.2696949646148
20
-3.43369886051195
30
0
41
1
10
29.2163660218288
20
-3.44548378402402
30
0
41
1
10
29.1103115782725
20
-3.47082875794087
30
0
41
1
10
29.0575898910932
20
-3.48438363346278
30
0
41
1
10
28.9003930287729
20
-3.52785416081545
30
0
41
1
10
28.7968787516368
20
-3.56055275155788
30
0
41
1
10
28.5928301587687
20
-3.63466674078063
30
0
41
1
10
28.4922881417502
20
-3.67605806422705
30
0
41
1
10
28.3442527788765
20
-3.74637510405049
30
0
41
1
10
28.2953736314438
20
-3.77119529483554
30
0
41
1
10
28.2228671530169
20
-3.8108513877992
30
0
41
1
10
28.1988637107435
20
-3.82446115949227
30
0
41
1
10
28.1514369961258
20
-3.8523909412593
30
0
41
1
10
28.1279825473956
20
-3.8667280194191
30
0
41
1
10
28.0584508895829
20
-3.91093489510143
30
0
41
1
10
28.0132005656081
20
-3.9419934235606
30
0
41
1
10
27.9472617920602
20
-3.99136577331743
30
0
41
1
10
27.9256059710779
20
-4.00828873294668
30
0
41
1
10
27.8830034037735
20
-4.04315420561022
30
0
41
1
10
27.8620190115408
20
-4.06113060907953
30
0
41
1
10
27.8004980967545
20
-4.1165201588349
30
0
41
1
10
27.761717911765
20
-4.15507965499813
30
0
41
1
10
27.6892572907596
20
-4.23589864048671
30
0
41
1
10
27.6555728692808
20
-4.27815537562222
30
0
41
1
10
27.6095447750037
20
-4.34477934082415
30
0
41
1
10
27.5949542956574
20
-4.36752884829727
30
0
41
1
10
27.5743103523219
20
-4.40254363352193
30
0
41
1
10
27.5676362327878
20
-4.41436381021185
30
0
41
1
10
27.5547244687122
20
-4.43831656816815
30
0
41
1
10
27.5485026042953
20
-4.45042316407333
30
0
41
1
10
27.5188398764032
20
-4.51111466900636
30
0
41
1
10
27.4994862025427
20
-4.56062615552565
30
0
41
1
10
27.4772384327475
20
-4.6363248446616
30
0
41
1
10
27.4709540092417
20
-4.6617965272732
30
0
41
1
10
27.4632615318233
20
-4.70036334420581
30
0
41
1
10
27.4609818276118
20
-4.71331167783947
30
0
41
1
10
27.4570336083282
20
-4.73914842744651
30
0
41
1
10
27.4486924178938
20
-4.80353714679976
30
0
41
1
10
27.4477154709224
20
-4.86692752325598
30
0
41
1
10
27.4528046380221
20
-4.94208792403609
30
0
41
1
10
27.4555469614673
20
-4.96698990785782
30
0
41
1
10
27.4630130180923
20
-5.01649781810937
30
0
41
1
10
27.4677107020375
20
-5.04091081487769
30
0
41
1
10
27.4842988624407
20
-5.1127651101653
30
0
41
1
10
27.4987026350503
20
-5.15903801368813
30
0
41
1
10
27.5329014478953
20
-5.2488907321692
30
0
41
1
10
27.5526991878506
20
-5.29246937831996
30
0
41
1
10
27.5857401490077
20
-5.35612462005625
30
0
41
1
10
27.5973356057901
20
-5.37709023913717
30
0
41
1
10
27.6213480185013
20
-5.41815173949169
30
0
41
1
10
27.6337827004309
20
-5.43828616910486
30
0
41
1
10
27.6722291535617
20
-5.49762168916641
30
0
41
1
10
27.6993774200082
20
-5.53575997117826
30
0
41
1
10
27.7561306249892
20
-5.60969086563122
30
0
41
1
10
27.7857380848934
20
-5.64548138623422
30
0
41
1
10
27.8776310443597
20
-5.74986007758764
30
0
41
1
10
27.9429565306902
20
-5.8154814144803
30
0
41
1
10
28.0283303431269
20
-5.89372404680341
30
0
41
1
10
28.0456010738698
20
-5.90918713836768
30
0
41
1
10
28.0803632538727
20
-5.93963993405617
30
0
41
1
10
28.1328852561191
20
-5.98465252514177
30
0
41
1
10
28.1864481573907
20
-6.0278088496049
30
0
41
1
10
28.294759565858
20
-6.1119521946774
30
0
41
1
10
28.3685386705292
20
-6.16516936286007
30
0
41
1
10
28.5184762673358
20
-6.26700657475914
30
0
41
1
10
28.5946394667223
20
-6.31561967066006
30
0
41
1
10
28.7488438643305
20
-6.40901297676811
30
0
41
1
10
28.8268874603033
20
-6.45378962353306
30
0
41
1
10
29.0633010355935
20
-6.58318301982683
30
0
41
1
10
29.2239270599987
20
-6.66290608559265
30
0
41
1
10
29.468002022069
20
-6.77477033295264
30
0
41
1
10
29.5498911069297
20
-6.81075882689635
30
0
41
1
10
29.7145736906501
20
-6.88036516740112
30
0
41
1
10
29.7973996584522
20
-6.91399502949486
30
0
41
1
10
30.0468342281257
20
-7.01150627325131
30
0
41
1
10
30.2140268002261
20
-7.07189039776623
30
0
41
1
10
30.5496167748855
20
-7.18457402154493
30
0
41
1
10
30.7180210844843
20
-7.23685097481754
30
0
41
1
10
31.0556145881528
20
-7.33408184799131
30
0
41
1
10
31.2248034443638
20
-7.3790394901022
30
0
41
1
10
31.3942326651469
20
-7.42059219379124
30
0
0
SPLINE
5
11D
100
AcDbEntity
8
1
62
256
6
ByLayer
370
13
48
1
60
0
100
AcDbSpline
70
4
71
5
72
12
73
6
40
0
40
0
40
0
40
0
40
0
40
0
40
1
40
1
40
1
40
1
40
1
40
1
41
1
10
15.0700000001076
20
6.54460934997755
30
0
41
0.986738843463664
10
15.0700000001076
20
6.49243634277157
30
0
41
0.980218176615922
10
15.0700000001076
20
6.19925328056961
30
0
41
0.980218176615922
10
15.0700000001076
20
5.67495356379846
30
0
41
0.986738843463664
10
15.0700000001076
20
4.93856497564701
30
0
41
1
10
15.0700000001076
20
4.01756429527546
30
0
0
SPLINE
5
11E
100
AcDbEntity
8
1
62
256
6
ByLayer
370
13
48
1
60
0
100
AcDbSpline
70
4
71
5
72
12
73
6
40
0
40
0
40
0
40
0
40
0
40
0
40
1
40
1
40
1
40
1
40
1
40
1
41
0.979467352066166
10
37.3000000000037
20
5.27827333653992
30
0
41
0.905473315648832
10
37.3000000000037
20
4.48399013001745
30
0
41
0.874012595832424
10
37.3000000000038
20
3.17164579608196
30
0
41
0.877712052338764
10
37.3000000000037
20
1.61887817474797
30
0
41
0.916978758248279
10
37.3000000000036
20
0.15449005751655
30
0
41
1
10
37.3000000000037
20
-0.910955237378175
30
0
0
SPLINE
5
11F
100
AcDbEntity
8
1
62
256
6
ByLayer
370
13
48
1
60
0
100
AcDbSpline
70
4
71
3
72
11
73
7
40
0
40
0
40
0
40
0
40
0.164089670984077
40
0.373067253238058
40
0.582044835492038
40
1
40
1
40
1
40
1
41
1
10
48.6947628942608
20
-5.99664833684562
30
0
41
1
10
48.0715085961739
20
-5.95803732809961
30
0
41
1
10
46.6545042980869
20
-5.76430356700496
30
0
41
1
10
44.44375
20
-5.07655340185829
30
0
41
1
10
41.26875
20
-3.59741513030931
30
0
41
1
10
38.8875000000001
20
-2.00511240412158
30
0
41
1
10
37.3
20
-0.910955237375646
30
0
0
SPLINE
5
120
100
AcDbEntity
8
1
62
256
6
ByLayer
370
13
48
1
60
0
100
AcDbSpline
70
4
71
3
72
16
73
12
40
0
40
0
40
0
40
0
40
0.11303568764792
40
0.234250684555227
40
0.355465681462535
40
0.476680678369842
40
0.59789567527715
40
0.719110672184457
40
0.840325669091765
40
0.961540665999072
40
1
40
1
40
1
40
1
41
1
10
48.4359075326681
20
-7.96164061407456
30
0
41
1
10
47.6339383551121
20
-8.19047610617477
30
0
41
1
10
45.971969177556
20
-8.44767925667352
30
0
41
1
10
43.45
20
-8.11947469173615
30
0
41
1
10
40.87
20
-7.05337996452741
30
0
41
1
10
38.2899999999999
20
-5.35896374384478
30
0
41
1
10
35.71
20
-3.17570288398625
30
0
41
1
10
33.13
20
-0.712963935641113
30
0
41
1
10
30.55
20
1.81591371893967
30
0
41
1
10
28.5571374987858
20
3.64317460908762
30
0
41
1
10
27.4242749975717
20
4.57332549769674
30
0
41
1
10
27.1514124963575
20
4.79010787794527
30
0
0
SPLINE
5
121
100
AcDbEntity
8
1
62
256
6
ByLayer
370
18
48
1
60
0
100
AcDbSpline
70
4
71
3
72
28
73
24
40
0
40
0
40
0
40
0
40
0.124999999999963
40
0.124999999999963
40
0.187499999999956
40
0.187499999999956
40
0.249999999999948
40
0.249999999999948
40
0.374999999999934
40
0.374999999999934
40
0.437499999999948
40
0.437499999999948
40
0.499999999999963
40
0.499999999999963
40
0.624999999999943
40
0.624999999999943
40
0.687499999999933
40
0.687499999999933
40
0.749999999999923
40
0.749999999999923
40
0.874999999999961
40
0.874999999999961
40
1
40
1
40
1
40
1
41
1
10
55.4676188211625
20
-7.29142001346722
30
0
41
1
10
55.4652591937342
20
-7.30279389992239
30
0
41
1
10
55.4623947028007
20
-7.31469762738445
30
0
41
1
10
55.4572408230732
20
-7.33341576592059
30
0
41
1
10
55.4553794858488
20
-7.33979934969713
30
0
41
1
10
55.451345539878
20
-7.35287288578294
30
0
41
1
10
55.4491595316175
20
-7.35960003611228
30
0
41
1
10
55.4422353356827
20
-7.37985619455742
30
0
41
1
10
55.4371159914793
20
-7.39352865468558
30
0
41
1
10
55.4286600978758
20
-7.41427466488113
30
0
41
1
10
55.4257116420604
20
-7.42122967633534
30
0
41
1
10
55.4195471536842
20
-7.43521789704167
30
0
41
1
10
55.4163522886261
20
-7.44220070133522
30
0
41
1
10
55.4065705180791
20
-7.46283549383034
30
0
41
1
10
55.3997356467693
20
-7.47629265269168
30
0
41
1
10
55.3890427957524
20
-7.49606810591413
30
0
41
1
10
55.385392402136
20
-7.50261184535992
30
0
41
1
10
55.3780655038393
20
-7.51536503622771
30
0
41
1
10
55.3743776238375
20
-7.52159686821474
30
0
41
1
10
55.3632442723815
20
-7.53989900306871
30
0
41
1
10
55.3557292273946
20
-7.55157787366579
30
0
41
1
10
55.3405280916833
20
-7.57404520381701
30
0
41
1
10
55.3328189597534
20
-7.58486253770889
30
0
41
1
10
55.3250976900776
20
-7.5951955154832
30
0
0
SPLINE
5
122
100
AcDbEntity
8
1
62
256
6
ByLayer
370
13
48
1
60
0
100
AcDbSpline
70
4
71
3
72
12
73
8
40
0
40
0
40
0
40
0
40
0.295711715865218
40
0.47406707169025
40
0.652422427515281
40
0.830777783340313
40
1
40
1
40
1
40
1
41
1
10
55.4676188211623
20
-7.29142001346722
30
0
41
1
10
54.0417458807749
20
-6.62165439265903
30
0
41
1
10
51.7558729403874
20
-5.0509779592262
30
0
41
1
10
48.61
20
-2.22493951109857
30
0
41
1
10
46.03
20
0.292647071572475
30
0
41
1
10
43.4940384851124
20
2.74085186916247
30
0
41
1
10
41.8180769702246
20
4.20015268486793
30
0
41
1
10
41.0021154553369
20
4.84496640553632
30
0
0
SPLINE
5
123
100
AcDbEntity
8
1
62
256
6
ByLayer
370
18
48
1
60
0
100
AcDbSpline
70
4
71
3
72
70
73
66
40
0
40
0
40
0
40
0
40
0.0318208126909678
40
0.0318208126909678
40
0.0479571324794499
40
0.0479571324794499
40
0.0640934522679321
40
0.0640934522679321
40
0.0963660918448963
40
0.0963660918448963
40
0.128638731421861
40
0.128638731421861
40
0.160911370998825
40
0.160911370998825
40
0.177047690787307
40
0.177047690787307
40
0.185115850681548
40
0.185115850681548
40
0.193184010575789
40
0.193184010575789
40
0.225456650152756
40
0.225456650152756
40
0.257729289729722
40
0.257729289729722
40
0.290001929306689
40
0.290001929306689
40
0.354547208460622
40
0.354547208460622
40
0.419092487614555
40
0.419092487614555
40
0.435228807403039
40
0.435228807403039
40
0.451365127191523
40
0.451365127191523
40
0.483637766768493
40
0.483637766768493
40
0.515910406345462
40
0.515910406345462
40
0.532046726133946
40
0.532046726133946
40
0.548183045922431
40
0.548183045922431
40
0.612728325076372
40
0.612728325076372
40
0.677273604230312
40
0.677273604230312
40
0.741818883384253
40
0.741818883384253
40
0.774091522961223
40
0.774091522961223
40
0.782159682855466
40
0.782159682855466
40
0.790227842749708
40
0.790227842749708
40
0.806364162538192
40
0.806364162538192
40
0.870909441692128
40
0.870909441692128
40
0.903182081269096
40
0.903182081269096
40
0.91931840105758
40
0.91931840105758
40
0.935454720846064
40
0.935454720846064
40
1
40
1
40
1
40
1
41
1
10
37.8552404926878
20
7.25518452716901
30
0
41
1
10
38.035047918461
20
7.34968162100014
30
0
41
1
10
38.21475599622
20
7.43936503728898
30
0
41
1
10
38.485756417088
20
7.56676845793541
30
0
41
1
10
38.5769692392505
20
7.60831422652973
30
0
41
1
10
38.7595098991822
20
7.68869489851383
30
0
41
1
10
38.8508912250864
20
7.72755078102887
30
0
41
1
10
39.1247234758732
20
7.83974551363008
30
0
41
1
10
39.3069527733323
20
7.9087494238895
30
0
41
1
10
39.6712159480574
20
8.03521420338012
30
0
41
1
10
39.8532512235312
20
8.0926765944775
30
0
41
1
10
40.2175339905034
20
8.19635024535921
30
0
41
1
10
40.3997826604033
20
8.24256213815667
30
0
41
1
10
40.6735537700913
20
8.30381687193056
30
0
41
1
10
40.7648763670059
20
8.32289279720482
30
0
41
1
10
40.9019797059427
20
8.34955552481736
30
0
41
1
10
40.9476930757885
20
8.35811648733781
30
0
41
1
10
41.0390060757619
20
8.37457061796692
30
0
41
1
10
41.0846250664227
20
8.38246760525951
30
0
41
1
10
41.3125440979325
20
8.42032664287115
30
0
41
1
10
41.4943188440184
20
8.4454483770196
30
0
41
1
10
41.8569865367875
20
8.48538621861888
30
0
41
1
10
42.037873950309
20
8.50018414239992
30
0
41
1
10
42.3990188325556
20
8.51861271410644
30
0
41
1
10
42.579278599368
20
8.52225233272227
30
0
41
1
10
43.1196776475046
20
8.51570277031036
30
0
41
1
10
43.479428965304
20
8.48793991171556
30
0
41
1
10
44.2014652312804
20
8.38379465795731
30
0
41
1
10
44.5637847067887
20
8.30743739899683
30
0
41
1
10
45.020422735418
20
8.18228428858018
30
0
41
1
10
45.1120131623518
20
8.15574875589516
30
0
41
1
10
45.2949574230094
20
8.09996116273834
30
0
41
1
10
45.3863666124728
20
8.07069648046021
30
0
41
1
10
45.6604749755279
20
7.978921512309
30
0
41
1
10
45.8430583067632
20
7.91242891031928
30
0
41
1
10
46.2082117131908
20
7.76955580386823
30
0
41
1
10
46.3907761969441
20
7.69321894070163
30
0
41
1
10
46.6647949158521
20
7.57146339665724
30
0
41
1
10
46.7561633415275
20
7.52966203515419
30
0
41
1
10
46.9389990624833
20
7.44355318762655
30
0
41
1
10
47.0305021801698
20
7.39922732557216
30
0
41
1
10
47.4879968080456
20
7.17142643241331
30
0
41
1
10
47.8511461143779
20
6.97077519752511
30
0
41
1
10
48.5747505349473
20
6.5338022236711
30
0
41
1
10
48.935225600066
20
6.29750076952666
30
0
41
1
10
49.6568136272687
20
5.79145415330069
30
0
41
1
10
50.0179419735712
20
5.52172338188203
30
0
41
1
10
50.562439103946
20
5.09405703495176
30
0
41
1
10
50.7444024424309
20
4.94765832731386
30
0
41
1
10
50.9726430517569
20
4.76006155693048
30
0
41
1
10
51.0183303800669
20
4.72231224704546
30
0
41
1
10
51.109788104436
20
4.64635869949637
30
0
41
1
10
51.1555787021815
20
4.60813743925695
30
0
41
1
10
51.2928742392322
20
4.49297314973157
30
0
41
1
10
51.3843297228947
20
4.41550954944586
30
0
41
1
10
51.8413278881362
20
4.02484973837866
30
0
41
1
10
52.2060117721867
20
3.70155028200955
30
0
41
1
10
52.75371088154
20
3.20211991921121
30
0
41
1
10
52.9363926915433
20
3.03323198598406
30
0
41
1
10
53.2108714154934
20
2.77650248395767
30
0
41
1
10
53.3023136365825
20
2.69047804517476
30
0
41
1
10
53.4848814479062
20
2.51783047241904
30
0
41
1
10
53.5760482303544
20
2.43116884301733
30
0
41
1
10
54.0314178816924
20
1.99629551084803
30
0
41
1
10
54.3942329494836
20
1.64339623930235
30
0
41
1
10
54.7570845847997
20
1.28702323614064
30
0
0
SPLINE
5
124
100
AcDbEntity
8
1
62
256
6
ByLayer
370
13
48
1
60
0
100
AcDbSpline
70
4
71
3
72
14
73
10
40
0
40
0
40
0
40
0
40
0.112626381010818
40
0.239394040866416
40
0.366161700722013
40
0.49292936057761
40
0.619697020433208
40
0.746464680288805
40
1
40
1
40
1
40
1
41
1
10
35.4221939502465
20
-7.95837273809545
30
0
41
1
10
34.6581293001644
20
-8.17699902515434
30
0
41
1
10
33.0340646500822
20
-8.44076863916522
30
0
41
1
10
30.55
20
-8.15248967490928
30
0
41
1
10
27.97
20
-7.12095979111393
30
0
41
1
10
25.3900000000001
20
-5.45004245043447
30
0
41
1
10
22.81
20
-3.2896863838476
30
0
41
1
10
19.37
20
-0.0141329138513413
30
0
41
1
10
16.79
20
2.55121243292149
30
0
41
1
10
15.07
20
4.01756429536715
30
0
0
SPLINE
5
125
100
AcDbEntity
8
1
62
256
6
ByLayer
370
18
48
1
60
0
100
AcDbSpline
70
4
71
5
72
12
73
6
40
0
40
0
40
0
40
0
40
0
40
0
40
1
40
1
40
1
40
1
40
1
40
1
41
1
10
15.07
20
4.01756429536715
30
0
41
0.994690301289111
10
15.07
20
4.0009732644253
30
0
41
0.990183393538057
10
15.0700000000001
20
3.9854707508743
30
0
41
0.986468854201223
10
15.0700000000001
20
3.97112609002232
30
0
41
0.98353934319576
10
15.0700000000001
20
3.95800340290507
30
0
41
0.981390602901578
10
15.0700000000001
20
3.94616129536716
30
0
0
SPLINE
5
126
100
AcDbEntity
8
1
62
256
6
ByLayer
370
18
48
1
60
0
100
AcDbSpline
70
4
71
3
72
14
73
10
40
0
40
0
40
0
40
0
40
0.499999999999998
40
0.499999999999998
40
0.624999999999999
40
0.624999999999999
40
0.750000000000001
40
0.750000000000001
40
1
40
1
40
1
40
1
41
1
10
13.3997622620343
20
5.2516442231649
30
0
41
1
10
13.3316345835507
20
5.31117688373709
30
0
41
1
10
13.2784739511405
20
5.37806372614742
30
0
41
1
10
13.2287808311528
20
5.46929301127182
30
0
41
1
10
13.2197716588144
20
5.48776666451874
30
0
41
1
10
13.2035616488892
20
5.52490275958883
30
0
41
1
10
13.1963415316275
20
5.54360067777452
30
0
41
1
10
13.1771184702259
20
5.60002883473837
30
0
41
1
10
13.1675441657477
20
5.63809146169365
30
0
41
1
10
13.1607597584658
20
5.67648063681921
30
0
0
SPLINE
5
127
100
AcDbEntity
8
1
62
256
6
ByLayer
370
18
48
1
60
0
100
AcDbSpline
70
4
71
3
72
8
73
4
40
0
40
0
40
0
40
0
40
1
40
1
40
1
40
1
41
1
10
12.2070570647862
20
6.44992114494181
30
0
41
1
10
12.5268625500612
20
6.20633298089015
30
0
41
1
10
12.8438589243274
20
5.94795562322318
30
0
41
1
10
13.1607597584566
20
5.6764806368175
30
0
0
SPLINE
5
128
100
AcDbEntity
8
1
62
256
6
ByLayer
370
18
48
1
60
0
100
AcDbSpline
70
4
71
3
72
20
73
16
40
0
40
0
40
0
40
0
40
0.0625000000000077
40
0.0625000000000077
40
0.125000000000015
40
0.125000000000015
40
0.250000000000013
40
0.250000000000013
40
0.375000000000011
40
0.375000000000011
40
0.50000000000001
40
0.50000000000001
40
0.750000000000005
40
0.750000000000005
40
1
40
1
40
1
40
1
41
1
10
11.3978581240957
20
7.1481759691444
30
0
41
1
10
11.4097047479095
20
7.13262803744004
30
0
41
1
10
11.4225090160728
20
7.11734343979342
30
0
41
1
10
11.4493305243558
20
7.08706362705655
30
0
41
1
10
11.4633591795962
20
7.0720723411234
30
0
41
1
10
11.5067733756511
20
7.02736905897461
30
0
41
1
10
11.5374893533999
20
6.99789676893681
30
0
41
1
10
11.6009700278296
20
6.93933322877072
30
0
41
1
10
11.6337223875387
20
6.91028127421816
30
0
41
1
10
11.7006579271442
20
6.85239047859258
30
0
41
1
10
11.7348483429007
20
6.8235548168052
30
0
41
1
10
11.8390915757256
20
6.73717749242095
30
0
41
1
10
11.9108153354688
20
6.67973948254223
30
0
41
1
10
12.0569782164046
20
6.56490630802614
30
0
41
1
10
12.1314795306284
20
6.50748688448957
30
0
41
1
10
12.2070570647861
20
6.44992114494178
30
0
0
SPLINE
5
129
100
AcDbEntity
8
1
62
256
6
ByLayer
370
18
48
1
60
0
100
AcDbSpline
70
4
71
3
72
30
73
26
40
0
40
0
40
0
40
0
40
0.104143445878432
40
0.104143445878432
40
0.216125515143624
40
0.216125515143624
40
0.244121032459922
40
0.244121032459922
40
0.27211654977622
40
0.328107584408818
40
0.328107584408818
40
0.440089653674014
40
0.440089653674014
40
0.552071722939209
40
0.552071722939209
40
0.664053792204405
40
0.664053792204405
40
0.720044826837003
40
0.748040344153302
40
0.748040344153302
40
0.7760358614696
40
0.7760358614696
40
0.8880179307348
40
0.8880179307348
40
1
40
1
40
1
40
1
41
1
10
8.83960910702808
20
9.05000013497701
30
0
41
1
10
8.92107424427473
20
9.04999651162026
30
0
41
1
10
9.00334317933286
20
9.04275152003777
30
0
41
1
10
9.17588566208579
20
9.01268407584951
30
0
41
1
10
9.26632513545559
20
8.98872975507973
30
0
41
1
10
9.3810025631193
20
8.94817060568644
30
0
41
1
10
9.404041493422
20
8.9395183886252
30
0
41
1
10
9.45016309428104
20
8.92119717671838
30
0
41
1
10
9.51940484031323
20
8.89219617400778
30
0
41
1
10
9.58885633275909
20
8.85868766909061
30
0
41
1
10
9.72812122190993
20
8.78577236617014
30
0
41
1
10
9.82144701113944
20
8.72930441482555
30
0
41
1
10
10.0094932679414
20
8.60107719233076
30
0
41
1
10
10.1042128158992
20
8.52931718696976
30
0
41
1
10
10.2954856077951
20
8.37072410032999
30
0
41
1
10
10.3920378143865
20
8.28389064362887
30
0
41
1
10
10.5386007532776
20
8.14235886235721
30
0
41
1
10
10.6123164932477
20
8.06877042536445
30
0
41
1
10
10.6867586313411
20
7.99093341181703
30
0
41
1
10
10.7365571364052
20
7.93809498334389
30
0
41
1
10
10.7615543528938
20
7.91118828371322
30
0
41
1
10
10.8868388818276
20
7.77444378242683
30
0
41
1
10
10.987708716144
20
7.65832465619599
30
0
41
1
10
11.1912665354803
20
7.41300492438376
30
0
41
1
10
11.293952987298
20
7.28380326479845
30
0
41
1
10
11.3978581240957
20
7.14817596914438
30
0
0
SPLINE
5
12A
100
AcDbEntity
8
1
62
256
6
ByLayer
370
18
48
1
60
0
100
AcDbSpline
70
4
71
3
72
67
73
63
40
0
40
0
40
0
40
0
40
0.125
40
0.125
40
0.1875
40
0.1875
40
0.25
40
0.25
40
0.375
40
0.375
40
0.406250000000001
40
0.406250000000001
40
0.437500000000002
40
0.437500000000002
40
0.500000000000002
40
0.500000000000002
40
0.562500000000002
40
0.562500000000002
40
0.625000000000002
40
0.625000000000002
40
0.656250000000002
40
0.656250000000002
40
0.671875
40
0.671875
40
0.687499999999999
40
0.687499999999999
40
0.718749999999999
40
0.718749999999999
40
0.75
40
0.75
40
0.765625000000001
40
0.765625000000001
40
0.781250000000002
40
0.781250000000002
40
0.812500000000005
40
0.812500000000005
40
0.843750000000008
40
0.843750000000008
40
0.859375000000009
40
0.859375000000009
40
0.86718750000001
40
0.86718750000001
40
0.87500000000001
40
0.87500000000001
40
0.890625000000009
40
0.890625000000009
40
0.898437500000009
40
0.898437500000009
40
0.906250000000008
40
0.906250000000008
40
0.921875000000005
40
0.921875000000005
40
0.929687500000003
40
0.933593750000002
40
0.933593750000002
40
0.937500000000002
40
0.937500000000002
40
0.968750000000001
40
0.968750000000001
40
0.984375
40
0.984375
40
1
40
1
40
1
40
1
41
1
10
13.3390647904071
20
2.79206320163081
30
0
41
1
10
13.1150625736447
20
3.01681868768137
30
0
41
1
10
12.8897341038822
20
3.2367868349518
30
0
41
1
10
12.5468762873387
20
3.55721845979073
30
0
41
1
10
12.4317769333238
20
3.66244218683693
30
0
41
1
10
12.1994269164934
20
3.86931507758669
30
0
41
1
10
12.0821487245457
20
3.97098842705228
30
0
41
1
10
11.7264073768087
20
4.26986336246881
30
0
41
1
10
11.4847266576175
20
4.46041879430783
30
0
41
1
10
11.1737883847968
20
4.68544236740647
30
0
41
1
10
11.1111547702502
20
4.72978598693825
30
0
41
1
10
10.9848955021874
20
4.81707988128593
30
0
41
1
10
10.9212509045372
20
4.86004143544235
30
0
41
1
10
10.7291288711165
20
4.98641517943909
30
0
41
1
10
10.5993286162619
20
5.06741478472276
30
0
41
1
10
10.3354978636995
20
5.22222503160427
30
0
41
1
10
10.2014750974828
20
5.29604516327703
30
0
41
1
10
9.92821277095581
20
5.43562323924414
30
0
41
1
10
9.78898384312458
20
5.50139356437532
30
0
41
1
10
9.57515302967224
20
5.59298540950584
30
0
41
1
10
9.50304062529344
20
5.62233412864617
30
0
41
1
10
9.39342221957205
20
5.6643873414337
30
0
41
1
10
9.3566405806736
20
5.67807615984825
30
0
41
1
10
9.28255201071309
20
5.70475377707095
30
0
41
1
10
9.24520937291661
20
5.71775429514932
30
0
41
1
10
9.13266485999296
20
5.75551661591351
30
0
41
1
10
9.05692928091858
20
5.77905650474662
30
0
41
1
10
8.90378929532122
20
5.82239757555982
30
0
41
1
10
8.82638669847748
20
5.84220258357433
30
0
41
1
10
8.7087509071772
20
5.86857226956957
30
0
41
1
10
8.66921891546633
20
5.87681709803257
30
0
41
1
10
8.5899366418507
20
5.89202314772513
30
0
41
1
10
8.55021412403985
20
5.89898151013676
30
0
41
1
10
8.43078147517716
20
5.91777512946189
30
0
41
1
10
8.35080887279614
20
5.92755002800129
30
0
41
1
10
8.19000223962286
20
5.94041850387916
30
0
41
1
10
8.10917156375913
20
5.94353911933877
30
0
41
1
10
7.98707166280906
20
5.94162111765547
30
0
41
1
10
7.9462282344922
20
5.93987273864445
30
0
41
1
10
7.88470278708058
20
5.93523382325577
30
0
41
1
10
7.86415993287977
20
5.93334838751497
30
0
41
1
10
7.82338901427107
20
5.92887726364231
30
0
41
1
10
7.80311251211418
20
5.92628843840345
30
0
41
1
10
7.74263547760975
20
5.91737609643124
30
0
41
1
10
7.70278486692808
20
5.90991560765036
30
0
41
1
10
7.64384931118295
20
5.89597369422248
30
0
41
1
10
7.62433250598869
20
5.8908623411007
30
0
41
1
10
7.58566272691289
20
5.87962245996135
30
0
41
1
10
7.56668447828091
20
5.87354481870028
30
0
41
1
10
7.51088421070355
20
5.85384747396367
30
0
41
1
10
7.47519458875442
20
5.83876701424973
30
0
41
1
10
7.42425714241057
20
5.812749582104
30
0
41
1
10
7.3994379401654
20
5.79889099081316
30
0
41
1
10
7.37567081094332
20
5.78364498906117
30
0
41
1
10
7.36007032517719
20
5.77315749209905
30
0
41
1
10
7.35238239070981
20
5.76774330602242
30
0
41
1
10
7.28514009873402
20
5.71810637982696
30
0
41
1
10
7.23767429935055
20
5.66666353136068
30
0
41
1
10
7.18460520873157
20
5.57814771815083
30
0
41
1
10
7.17049631274702
20
5.54764521297847
30
0
41
1
10
7.14847627849852
20
5.48500440850319
30
0
41
1
10
7.14055420250739
20
5.45283740999389
30
0
41
1
10
7.1353578443217
20
5.41988499164
30
0
0
SPLINE
5
12B
100
AcDbEntity
8
1
62
256
6
ByLayer
370
18
48
1
60
0
100
AcDbSpline
70
4
71
5
72
12
73
6
40
0
40
0
40
0
40
0
40
0
40
0
40
1
40
1
40
1
40
1
40
1
40
1
41
1
10
15.0700000001364
20
8.85310099687089
30
0
41
0.931594274639019
10
15.0700000001364
20
8.15195521170219
30
0
41
0.90031600149738
10
15.0700000001364
20
7.45534345409946
30
0
41
0.90031600149738
10
15.0700000001364
20
6.89457571214122
30
0
41
0.931594274639019
10
15.0700000001364
20
6.57247505402642
30
0
41
1
10
15.0700000001364
20
6.54460934997306
30
0
0
SPLINE
5
12C
100
AcDbEntity
8
1
62
256
6
ByLayer
370
18
48
1
60
0
100
AcDbSpline
70
4
71
3
72
13
73
9
40
0
40
0
40
0
40
0
40
0.0431257408064577
40
0.202604784005381
40
0.362083827204305
40
0.521562870403229
40
0.681041913602153
40
1
40
1
40
1
40
1
41
1
10
31.2476741836975
20
-3.34807854491876
30
0
41
1
10
31.015116122465
20
-3.19123762394281
30
0
41
1
10
29.9225580612325
20
-2.43666414389011
30
0
41
1
10
27.97
20
-0.955604728948572
30
0
41
1
10
25.3900000000001
20
1.07108101920161
30
0
41
1
10
22.81
20
3.0175234531099
30
0
41
1
10
19.37
20
5.23389387293417
30
0
41
1
10
16.7900000000001
20
6.27608655002766
30
0
41
1
10
15.07
20
6.54460934999435
30
0
0
SPLINE
5
12D
100
AcDbEntity
8
1
62
256
6
ByLayer
370
18
48
1
60
0
100
AcDbSpline
70
4
71
3
72
10
73
6
40
0
40
0
40
0
40
0
40
0.484801544784489
40
0.484801544784489
40
1
40
1
40
1
40
1
41
1
10
32.1614139369335
20
-3.4655474248618
30
0
41
1
10
32.014630411606
20
-3.43974843793657
30
0
41
1
10
31.8671714864787
20
-3.41885138647626
30
0
41
1
10
31.5623814927802
20
-3.38097502348927
30
0
41
1
10
31.4050130846743
20
-3.36430886215226
30
0
41
1
10
31.2476741837017
20
-3.34807854492161
30
0
0
SPLINE
5
12E
100
AcDbEntity
8
1
62
256
6
ByLayer
370
13
48
1
60
0
100
AcDbSpline
70
4
71
3
72
9
73
5
40
0
40
0
40
0
40
0
40
0.269874413139988
40
1
40
1
40
1
40
1
41
1
10
31.3980491202962
20
5.93595529744002
30
0
41
1
10
31.1153660801975
20
6.03655573076196
30
0
41
1
10
30.0679046450444
20
6.37359395636219
30
0
41
1
10
29.0204432098913
20
6.57184969322446
30
0
41
1
10
28.2556648148369
20
6.63717268323757
30
0
0
SPLINE
5
12F
100
AcDbEntity
8
1
62
256
6
ByLayer
370
18
48
1
60
0
100
AcDbSpline
70
4
71
3
72
61
73
57
40
0
40
0
40
0
40
0
40
0.0625000000000094
40
0.0625000000000094
40
0.125000000000019
40
0.125000000000019
40
0.156250000000023
40
0.156250000000023
40
0.187500000000028
40
0.187500000000028
40
0.250000000000037
40
0.250000000000037
40
0.281250000000042
40
0.281250000000042
40
0.296875000000042
40
0.296875000000042
40
0.312500000000043
40
0.312500000000043
40
0.375000000000048
40
0.375000000000048
40
0.437500000000053
40
0.437500000000053
40
0.468750000000053
40
0.468750000000053
40
0.484375000000053
40
0.484375000000053
40
0.500000000000054
40
0.562500000000047
40
0.562500000000047
40
0.593750000000046
40
0.593750000000046
40
0.625000000000045
40
0.625000000000045
40
0.656250000000044
40
0.656250000000044
40
0.671875000000043
40
0.671875000000043
40
0.687500000000042
40
0.687500000000042
40
0.75000000000004
40
0.75000000000004
40
0.765625000000038
40
0.765625000000038
40
0.781250000000036
40
0.781250000000036
40
0.812500000000033
40
0.812500000000033
40
0.875000000000025
40
0.875000000000025
40
0.906250000000022
40
0.906250000000022
40
0.92187500000002
40
0.92187500000002
40
0.937500000000018
40
0.937500000000018
40
1
40
1
40
1
40
1
41
1
10
37.3
20
5.27802850372751
30
0
41
1
10
37.1903030892432
20
5.36321989415595
30
0
41
1
10
37.0805240386429
20
5.44887265500725
30
0
41
1
10
36.8611437993113
20
5.61895603860154
30
0
41
1
10
36.7515389184079
20
5.70343337385657
30
0
41
1
10
36.5873504063109
20
5.82718747582845
30
0
41
1
10
36.5326561498691
20
5.86793581542062
30
0
41
1
10
36.4233320958267
20
5.9478807559893
30
0
41
1
10
36.3687029083856
20
5.98707894301583
30
0
41
1
10
36.2048632865608
20
6.10122536856881
30
0
41
1
10
36.0957497847518
20
6.17276658578163
30
0
41
1
10
35.9314614898452
20
6.26716034903208
30
0
41
1
10
35.8765842048461
20
6.29645348249204
30
0
41
1
10
35.7938741678026
20
6.33651296168472
30
0
41
1
10
35.7661550455041
20
6.34925584509261
30
0
41
1
10
35.7111203710025
20
6.37314452879536
30
0
41
1
10
35.6837716419663
20
6.38431126323096
30
0
41
1
10
35.5477149186758
20
6.43637609561736
30
0
41
1
10
35.4410505075026
20
6.4659544387965
30
0
41
1
10
35.2278229323303
20
6.50560419105062
30
0
41
1
10
35.1212552045438
20
6.51573517008433
30
0
41
1
10
34.9589590518025
20
6.51863437091581
30
0
41
1
10
34.9044597247389
20
6.51753417367439
30
0
41
1
10
34.821829606405
20
6.51294870248822
30
0
41
1
10
34.7941123828096
20
6.51092705683996
30
0
41
1
10
34.7386162121944
20
6.5059549142168
30
0
41
1
10
34.5995802002122
20
6.49119787699755
30
0
41
1
10
34.458535989799
20
6.46533196370908
30
0
41
1
10
34.2853407441367
20
6.42541817781736
30
0
41
1
10
34.2269516026978
20
6.41063323481649
30
0
41
1
10
34.1084990010049
20
6.37843156583693
30
0
41
1
10
34.0484385528778
20
6.3609911466981
30
0
41
1
10
33.9262352974132
20
6.32401063701715
30
0
41
1
10
33.8640884101134
20
6.30449300309152
30
0
41
1
10
33.7689915012724
20
6.27423959391368
30
0
41
1
10
33.7370072406203
20
6.2640009972896
30
0
41
1
10
33.6726366156798
20
6.24338064480023
30
0
41
1
10
33.6402206212972
20
6.23298944906409
30
0
41
1
10
33.4768984444749
20
6.18087245356713
30
0
41
1
10
33.3422459776998
20
6.13866209886081
30
0
41
1
10
33.1677237531129
20
6.08911626786229
30
0
41
1
10
33.1324629802119
20
6.07935572013307
30
0
41
1
10
33.0615591314591
20
6.06032506350371
30
0
41
1
10
33.0259305347548
20
6.05105815501187
30
0
41
1
10
32.9185084156505
20
6.0241363232694
30
0
41
1
10
32.8461772437677
20
6.00736011835986
30
0
41
1
10
32.6270235592229
20
5.96164694759005
30
0
41
1
10
32.4780236354047
20
5.93738891001786
30
0
41
1
10
32.2504755484397
20
5.91369314434235
30
0
41
1
10
32.173956015248
20
5.90789465173961
30
0
41
1
10
32.0582445411815
20
5.90262842604844
30
0
41
1
10
32.0195189092725
20
5.90144395209785
30
0
41
1
10
31.9417719546245
20
5.90025201701164
30
0
41
1
10
31.9028382370318
20
5.90024683818697
30
0
41
1
10
31.70837012961
20
5.90318227260369
30
0
41
1
10
31.5529746549123
20
5.91504933966812
30
0
41
1
10
31.3980491202962
20
5.93595529744005
30
0
0
SPLINE
5
130
100
AcDbEntity
8
1
62
256
6
ByLayer
370
18
48
1
60
0
100
AcDbSpline
70
4
71
3
72
8
73
4
40
0
40
0
40
0
40
0
40
1
40
1
40
1
40
1
41
1
10
37.299856389123
20
5.27815756101506
30
0
41
1
10
37.2999042616234
20
5.27878154427168
30
0
41
1
10
37.2999521341928
20
5.27940475183172
30
0
41
1
10
37.300000006831
20
5.28002718297751
30
0
0
SPLINE
5
131
100
AcDbEntity
8
1
62
256
6
ByLayer
370
18
48
1
60
0
100
AcDbSpline
70
4
71
3
72
26
73
22
40
0
40
0
40
0
40
0
40
0.127885408634949
40
0.127885408634949
40
0.255770817269899
40
0.255770817269899
40
0.319713521587374
40
0.319713521587374
40
0.383656225904849
40
0.383656225904849
40
0.511541634539794
40
0.511541634539794
40
0.639427043174739
40
0.639427043174739
40
0.767312451809684
40
0.767312451809684
40
0.831255156127157
40
0.831255156127157
40
0.89519786044463
40
0.89519786044463
40
1
40
1
40
1
40
1
41
1
10
37.3000000000036
20
5.28002709371719
30
0
41
1
10
37.4827463913849
20
5.13797126319906
30
0
41
1
10
37.6652165953129
20
4.99270995896094
30
0
41
1
10
38.0299454663971
20
4.69561326319581
30
0
41
1
10
38.2122058525494
20
4.54377845552105
30
0
41
1
10
38.4857648718761
20
4.31114128003062
30
0
41
1
10
38.5769798372889
20
4.23278308516498
30
0
41
1
10
38.7595255242037
20
4.07446753002367
30
0
41
1
10
38.8509073683149
20
3.9944646234112
30
0
41
1
10
39.1247243289672
20
3.75263703932242
30
0
41
1
10
39.3069462535578
20
3.58889591894774
30
0
41
1
10
39.6712002319088
20
3.25686700612934
30
0
41
1
10
39.8532336805463
20
3.08858126368966
30
0
41
1
10
40.2175180881054
20
2.74800472105738
30
0
41
1
10
40.3997702239361
20
2.57571540521633
30
0
41
1
10
40.6735502523763
20
2.31467176834764
30
0
41
1
10
40.7648764417069
20
2.22722201646084
30
0
41
1
10
40.9476892695919
20
2.05151312619879
30
0
41
1
10
41.0390320200942
20
1.96339239274857
30
0
41
1
10
41.279601768369
20
1.73054687842179
30
0
41
1
10
41.4286376571085
20
1.58552203235888
30
0
41
1
10
41.5773648169996
20
1.44015225104613
30
0
0
SPLINE
5
132
100
AcDbEntity
8
1
62
256
6
ByLayer
370
18
48
1
60
0
100
AcDbSpline
70
4
71
3
72
10
73
6
40
0
40
0
40
0
40
0
40
0.5
40
0.5
40
1
40
1
40
1
40
1
41
1
10
54.4131601887188
20
8.6136238413074
30
0
41
1
10
54.4762504934032
20
8.57833204106137
30
0
41
1
10
54.5368685883933
20
8.53842526020298
30
0
41
1
10
54.6519783491925
20
8.44854242196854
30
0
41
1
10
54.7064662180267
20
8.39854627604467
30
0
41
1
10
54.7570912274435
20
8.34310905218328
30
0
0
SPLINE
5
133
100
AcDbEntity
8
1
62
256
6
ByLayer
370
18
48
1
60
0
100
AcDbSpline
70
4
71
5
72
12
73
6
40
0
40
0
40
0
40
0
40
0
40
0
40
1
40
1
40
1
40
1
40
1
40
1
41
0.937895849456037
10
15.0700000000682
20
0.902164170507749
30
0
41
0.916205935737288
10
15.0700000000682
20
0.734340875223149
30
0
41
0.911785357670014
10
15.0700000000682
20
0.430860931134236
30
0
41
0.923653807692314
10
15.0700000000682
20
0.0211449419436773
30
0
41
0.95236366589068
10
15.0700000000682
20
-0.45479146570549
30
0
41
1
10
15.0700000000682
20
-0.950314829492243
30
0
0
SPLINE
5
134
100
AcDbEntity
8
1
62
256
6
ByLayer
370
13
48
1
60
0
100
AcDbSpline
70
4
71
3
72
8
73
4
40
0
40
0
40
0
40
0
40
1
40
1
40
1
40
1
41
1
10
20.0722505719524
20
-4.43274634584063
30
0
41
1
10
18.404833714635
20
-3.46149298884117
30
0
41
1
10
16.7374168573176
20
-2.23314577797029
30
0
41
1
10
15.07
20
-0.950314829439805
30
0
0
SPLINE
5
135
100
AcDbEntity
8
1
62
256
6
ByLayer
370
18
48
1
60
0
100
AcDbSpline
70
4
71
3
72
18
73
14
40
0
40
0
40
0
40
0
40
0.0212072384501052
40
0.0212072384501052
40
0.347471492300071
40
0.347471492300071
40
0.510603619225056
40
0.510603619225056
40
0.592169682687549
40
0.592169682687549
40
0.673735746150042
40
0.673735746150042
40
1
40
1
40
1
40
1
41
1
10
51.4045071372779
20
7.05405212873148
30
0
41
1
10
51.4282781929709
20
7.06723436797523
30
0
41
1
10
51.4520451874124
20
7.08033563968689
30
0
41
1
10
51.8413961121284
20
7.29366603336635
30
0
41
1
10
52.2060804270286
20
7.47468132394511
30
0
41
1
10
52.7537974810528
20
7.71589053293798
30
0
41
1
10
52.9364881930972
20
7.79123871203905
30
0
41
1
10
53.2109849295587
20
7.89646454186828
30
0
41
1
10
53.30240930942
20
7.93018100102887
30
0
41
1
10
53.4849622744505
20
7.99481975616547
30
0
41
1
10
53.5761220231176
20
8.02575403452724
30
0
41
1
10
54.0314584772104
20
8.17349166701567
30
0
41
1
10
54.3942533541939
20
8.26951152211751
30
0
41
1
10
54.7570912274435
20
8.34310905218362
30
0
0
SPLINE
5
136
100
AcDbEntity
8
1
62
256
6
ByLayer
370
18
48
1
60
0
100
AcDbSpline
70
4
71
3
72
8
73
4
40
0
40
0
40
0
40
0
40
1
40
1
40
1
40
1
41
1
10
56.2560855774007
20
0.0992427429016516
30
0
41
1
10
56.2578356090323
20
0.106913975039362
30
0
41
1
10
56.2596148697867
20
0.114348953710419
30
0
41
1
10
56.2614827944667
20
0.121067278654806
30
0
0
SPLINE
5
137
100
AcDbEntity
8
1
62
256
6
ByLayer
370
18
48
1
60
0
100
AcDbSpline
70
4
71
3
72
10
73
6
40
0
40
0
40
0
40
0
40
0.5
40
0.5
40
1
40
1
40
1
40
1
41
1
10
54.4131601887177
20
1.65032783608922
30
0
41
1
10
54.4762489312671
20
1.58672371885592
30
0
41
1
10
54.5368656524263
20
1.52477485654268
30
0
41
1
10
54.6519731544533
20
1.40384389713543
30
0
41
1
10
54.706460145169
20
1.34487513097358
30
0
41
1
10
54.7570845847997
20
1.2870232361407
30
0
0
SPLINE
5
138
100
AcDbEntity
8
1
62
256
6
ByLayer
370
18
48
1
60
0
100
AcDbSpline
70
4
71
3
72
17
73
13
40
0
40
0
40
0
40
0
40
0.249999999999994
40
0.249999999999994
40
0.499999999999988
40
0.499999999999988
40
0.562499999999991
40
0.562499999999991
40
0.624999999999994
40
0.749999999999994
40
0.749999999999994
40
1
40
1
40
1
40
1
41
1
10
54.7570845847996
20
1.28702323614073
30
0
41
1
10
54.8491560004105
20
1.19289769513767
30
0
41
1
10
54.9352867618843
20
1.10365132345868
30
0
41
1
10
55.0938292491794
20
0.933367809030557
30
0
41
1
10
55.1662284152557
20
0.852363274645796
30
0
41
1
10
55.2463684810027
20
0.754828371053407
30
0
41
1
10
55.2618314209644
20
0.735557251569304
30
0
41
1
10
55.2914597174113
20
0.697620612015243
30
0
41
1
10
55.3340341768224
20
0.641528156157079
30
0
41
1
10
55.3710275581697
20
0.587525199103737
30
0
41
1
10
55.4375471753003
20
0.481394880118899
30
0
41
1
10
55.4719229765102
20
0.413151107670501
30
0
41
1
10
55.4968689701354
20
0.34444735033992
30
0
0
SPLINE
5
139
100
AcDbEntity
8
1
62
256
6
ByLayer
370
18
48
1
60
0
100
AcDbSpline
70
4
71
3
72
21
73
17
40
0
40
0
40
0
40
0
40
0.125000000000002
40
0.125000000000002
40
0.250000000000003
40
0.250000000000003
40
0.312500000000014
40
0.312500000000014
40
0.375000000000024
40
0.375000000000024
40
0.500000000000024
40
0.625000000000024
40
0.625000000000024
40
0.750000000000024
40
0.750000000000024
40
1
40
1
40
1
40
1
41
1
10
56.2028004958285
20
0.103983019039759
30
0
41
1
10
56.1861288207471
20
0.111631654243524
30
0
41
1
10
56.1660394650398
20
0.119939827243911
30
0
41
1
10
56.1205240391801
20
0.13758604270123
30
0
41
1
10
56.0951873360283
20
0.146906839272077
30
0
41
1
10
56.0547691213157
20
0.161353721363952
30
0
41
1
10
56.0408867136651
20
0.166248405991553
30
0
41
1
10
56.0124753516225
20
0.176162544652584
30
0
41
1
10
55.9979623816396
20
0.181176943842672
30
0
41
1
10
55.9538257595977
20
0.196301623209308
30
0
41
1
10
55.8932257283472
20
0.216739482684943
30
0
41
1
10
55.8299826630862
20
0.237587290184763
30
0
41
1
10
55.7657466485225
20
0.258589109174181
30
0
41
1
10
55.7331247218278
20
0.26916817913397
30
0
41
1
10
55.6339634980357
20
0.301106318924752
30
0
41
1
10
55.5661402771522
20
0.322664531868384
30
0
41
1
10
55.4968689701354
20
0.34444735033992
30
0
0
SPLINE
5
13A
100
AcDbEntity
8
1
62
256
6
ByLayer
370
18
48
1
60
0
100
AcDbSpline
70
4
71
4
72
10
73
5
40
0
40
0
40
0
40
0
40
0
40
1
40
1
40
1
40
1
40
1
41
1.00103787622024
10
56.2560855774007
20
0.0992427429016929
30
0
41
1.00078002632839
10
56.2429493681191
20
0.100934007653004
30
0
41
1.00048432794068
10
56.2296781374547
20
0.102295002593353
30
0
41
1.00016314983853
10
56.2162892628037
20
0.103314247570937
30
0
41
0.999826883733753
10
56.2028004958274
20
0.103983019039854
30
0
0
SPLINE
5
13B
100
AcDbEntity
8
1
62
256
6
ByLayer
370
13
48
1
60
0
100
AcDbSpline
70
4
71
1
72
4
73
2
40
0
40
0
40
1
40
1
41
1
10
15.07
20
-7.49670897929991
30
0
41
1
10
11.3978520290207
20
-5.91655157276239
30
0
0
SPLINE
5
13C
100
AcDbEntity
8
1
62
256
6
ByLayer
370
13
48
1
60
0
100
AcDbSpline
70
4
71
5
72
12
73
6
40
0
40
0
40
0
40
0
40
0
40
0
40
1
40
1
40
1
40
1
40
1
40
1
41
1
10
15.0700000001446
20
-0.950314829551104
30
0
41
0.984456594172656
10
15.0700000001446
20
-2.43964459096697
30
0
41
0.97683588967443
10
15.0700000001446
20
-3.89901050519168
30
0
41
0.97683588967443
10
15.0700000001446
20
-5.26589433903569
30
0
41
0.984456594172656
10
15.0700000001446
20
-6.48220088582935
30
0
41
1
10
15.0700000001446
20
-7.49670897936215
30
0
0
SPLINE
5
13D
100
AcDbEntity
8
1
62
256
6
ByLayer
370
18
48
1
60
0
100
AcDbSpline
70
4
71
1
72
4
73
2
40
0
40
0
40
1
40
1
41
1
10
15.07
20
-0.950314829439805
30
0
41
1
10
7.1463521220559
20
5.14576167265179
30
0
0
SPLINE
5
13E
100
AcDbEntity
8
1
62
256
6
ByLayer
370
18
48
1
60
0
100
AcDbSpline
70
4
71
3
72
14
73
10
40
0
40
0
40
0
40
0
40
0.499999999999998
40
0.499999999999998
40
0.624999999999999
40
0.624999999999999
40
0.749999999999999
40
0.749999999999999
40
1
40
1
40
1
40
1
41
1
10
13.3997622620342
20
-7.63514466322201
30
0
41
1
10
13.3316346173457
20
-7.59589957786974
30
0
41
1
10
13.2784740039488
20
-7.55072711253425
30
0
41
1
10
13.2287808919021
20
-7.48675834766757
30
0
41
1
10
13.2197717194965
20
-7.47369603225798
30
0
41
1
10
13.2035617088227
20
-7.44720737305954
30
0
41
1
10
13.1963415905053
20
-7.43375618388208
30
0
41
1
10
13.1771185241126
20
-7.39280183524411
30
0
41
1
10
13.1675442138856
20
-7.36469892600658
30
0
41
1
10
13.1607597988509
20
-7.33583348331922
30
0
0
SPLINE
5
13F
100
AcDbEntity
8
1
62
256
6
ByLayer
370
18
48
1
60
0
100
AcDbSpline
70
4
71
3
72
8
73
4
40
0
40
0
40
0
40
0
40
1
40
1
40
1
40
1
41
1
10
12.2074315484802
20
-6.67744575041394
30
0
41
1
10
12.5271102967129
20
-6.91174271581301
30
0
41
1
10
12.8439828887688
20
-7.13178680142957
30
0
41
1
10
13.160759798841
20
-7.33583348332058
30
0
0
SPLINE
5
140
100
AcDbEntity
8
1
62
256
6
ByLayer
370
18
48
1
60
0
100
AcDbSpline
70
4
71
3
72
20
73
16
40
0
40
0
40
0
40
0
40
0.0624999999999943
40
0.0624999999999943
40
0.124999999999989
40
0.124999999999989
40
0.249999999999996
40
0.249999999999996
40
0.375000000000003
40
0.375000000000003
40
0.50000000000001
40
0.50000000000001
40
0.750000000000005
40
0.750000000000005
40
1
40
1
40
1
40
1
41
1
10
11.3978520290104
20
-5.91655157275792
30
0
41
1
10
11.409689052545
20
-5.9357538662133
30
0
41
1
10
11.4224890790936
20
-5.95445668618672
30
0
41
1
10
11.4493070732501
20
-5.99119286757593
30
0
41
1
10
11.4633366012404
20
-6.00922091173589
30
0
41
1
10
11.506757997155
20
-6.06253289315814
30
0
41
1
10
11.5374851256417
20
-6.09708247544333
30
0
41
1
10
11.6009917279184
20
-6.16465000240305
30
0
41
1
10
11.633759569852
20
-6.19762274083604
30
0
41
1
10
11.7007289792097
20
-6.26231965339207
30
0
41
1
10
11.7349378228302
20
-6.2940394211937
30
0
41
1
10
11.8392393668972
20
-6.38763070090292
30
0
41
1
10
11.9110059463619
20
-6.44796391913945
30
0
41
1
10
12.0572580354554
20
-6.56514572585598
30
0
41
1
10
12.1318059981262
20
-6.62201853077605
30
0
41
1
10
12.2074315484801
20
-6.67744575041394
30
0
0
SPLINE
5
141
100
AcDbEntity
8
1
62
256
6
ByLayer
370
18
48
1
60
0
100
AcDbSpline
70
4
71
3
72
49
73
45
40
0
40
0
40
0
40
0
40
0.0625000000000008
40
0.0625000000000008
40
0.125000000000002
40
0.125000000000002
40
0.187500000000002
40
0.187500000000002
40
0.218750000000003
40
0.218750000000003
40
0.234375000000003
40
0.234375000000003
40
0.250000000000003
40
0.250000000000003
40
0.312500000000004
40
0.312500000000004
40
0.375000000000004
40
0.375000000000004
40
0.437500000000005
40
0.437500000000005
40
0.468750000000005
40
0.468750000000005
40
0.484375000000006
40
0.484375000000006
40
0.500000000000006
40
0.500000000000006
40
0.562500000000006
40
0.562500000000006
40
0.625000000000006
40
0.625000000000006
40
0.687500000000006
40
0.687500000000006
40
0.750000000000006
40
0.750000000000006
40
0.765625000000006
40
0.765625000000006
40
0.781250000000005
40
0.812500000000005
40
0.812500000000005
40
0.875000000000003
40
0.875000000000003
40
0.937500000000002
40
0.937500000000002
40
1
40
1
40
1
40
1
41
1
10
7.1463521220559
20
5.14576167265173
30
0
41
1
10
7.19796509360762
20
4.93042501228234
30
0
41
1
10
7.25289328214015
20
4.71093376610364
30
0
41
1
10
7.36927394359253
20
4.26411351634971
30
0
41
1
10
7.43072481630713
20
4.03678294815992
30
0
41
1
10
7.56004353190681
20
3.57452835948956
30
0
41
1
10
7.62791016439152
20
3.33960359202334
30
0
41
1
10
7.73447558545149
20
2.98156346929147
30
0
41
1
10
7.77079208997895
20
2.86127319277517
30
0
41
1
10
7.82645834398843
20
2.67941535030764
30
0
41
1
10
7.84521238619394
20
2.61855891240347
30
0
41
1
10
7.88311816970415
20
2.49636950696211
30
0
41
1
10
7.90228023127369
20
2.43500371952081
30
0
41
1
10
7.99897580752187
20
2.12732951819746
30
0
41
1
10
8.0784399072607
20
1.88077406767746
30
0
41
1
10
8.24129987305574
20
1.38683928706939
30
0
41
1
10
8.32469570387681
20
1.13945965548405
30
0
41
1
10
8.49523482424675
20
0.643866818385078
30
0
41
1
10
8.58237786602402
20
0.395653410716307
30
0
41
1
10
8.71584198500776
20
0.022693508832333
30
0
41
1
10
8.76078911073577
20
-0.101733149309268
30
0
41
1
10
8.82889875904525
20
-0.288535334179755
30
0
41
1
10
8.8517161359261
20
-0.35083001356702
30
0
41
1
10
8.89758682639024
20
-0.475471955427537
30
0
41
1
10
8.92066276865162
20
-0.537878720105198
30
0
41
1
10
9.03637966579444
20
-0.849277818279063
30
0
41
1
10
9.12976474935286
20
-1.09565642265798
30
0
41
1
10
9.31864985080685
20
-1.58292644262284
30
0
41
1
10
9.41414862853827
20
-1.82381795086636
30
0
41
1
10
9.60773819249596
20
-2.3000282791019
30
0
41
1
10
9.70582767988986
20
-2.53534743755435
30
0
41
1
10
9.9051011563821
20
-3.00024174992654
30
0
41
1
10
10.0062836109904
20
-3.22981751792858
30
0
41
1
10
10.1350517833275
20
-3.51302769453238
30
0
41
1
10
10.1609443549184
20
-3.56953347221614
30
0
41
1
10
10.2128027913512
20
-3.68180497487114
30
0
41
1
10
10.2907242802403
20
-3.84915724116047
30
0
41
1
10
10.3690811247683
20
-4.01336283696753
30
0
41
1
10
10.5264686525856
20
-4.33760950052394
30
0
41
1
10
10.632289597466
20
-4.54822718258197
30
0
41
1
10
10.8462661330542
20
-4.95838780480111
30
0
41
1
10
10.9544198880249
20
-5.15793080992361
30
0
41
1
10
11.1737040714179
20
-5.54576934325331
30
0
41
1
10
11.2848320369989
20
-5.73406539351282
30
0
41
1
10
11.3978520290104
20
-5.91655157275795
30
0
0
SPLINE
5
142
100
AcDbEntity
8
1
62
256
6
ByLayer
370
18
48
1
60
0
100
AcDbSpline
70
4
71
3
72
8
73
4
40
0
40
0
40
0
40
0
40
1
40
1
40
1
40
1
41
1
10
7.13535784432173
20
5.21004586076893
30
0
41
1
10
7.13827637702624
20
5.18859694612607
30
0
41
1
10
7.14196855898095
20
5.16717152897306
30
0
41
1
10
7.1463521220559
20
5.14576167265179
30
0
0
SPLINE
5
143
100
AcDbEntity
8
1
62
256
6
ByLayer
370
18
48
1
60
0
100
AcDbSpline
70
4
71
3
72
64
73
60
40
0
40
0
40
0
40
0
40
0.125000000000004
40
0.125000000000004
40
0.187500000000005
40
0.187500000000005
40
0.250000000000007
40
0.250000000000007
40
0.375000000000011
40
0.375000000000011
40
0.43750000000001
40
0.43750000000001
40
0.50000000000001
40
0.50000000000001
40
0.531250000000008
40
0.531250000000008
40
0.562500000000007
40
0.562500000000007
40
0.625000000000007
40
0.625000000000007
40
0.687500000000007
40
0.687500000000007
40
0.703125000000007
40
0.703125000000007
40
0.718750000000007
40
0.718750000000007
40
0.750000000000008
40
0.750000000000008
40
0.781250000000009
40
0.781250000000009
40
0.796875000000008
40
0.796875000000008
40
0.812500000000007
40
0.812500000000007
40
0.843750000000006
40
0.843750000000006
40
0.859375000000005
40
0.859375000000005
40
0.867187500000005
40
0.867187500000005
40
0.875000000000004
40
0.875000000000004
40
0.890625000000003
40
0.890625000000003
40
0.906250000000003
40
0.906250000000003
40
0.921875000000002
40
0.921875000000002
40
0.937500000000001
40
0.937500000000001
40
0.953125
40
0.953125
40
0.96875
40
0.96875
40
0.9765625
40
0.9765625
40
0.984375
40
0.984375
40
1
40
1
40
1
40
1
41
1
10
13.3390647904081
20
-8.74286307698443
30
0
41
1
10
13.1149675859089
20
-8.68180330683651
30
0
41
1
10
12.8895416348648
20
-8.61228828121716
30
0
41
1
10
12.5465298826182
20
-8.4970415346356
30
0
41
1
10
12.4313779877296
20
-8.4568035073188
30
0
41
1
10
12.1989205577734
20
-8.37305809068744
30
0
41
1
10
12.0815947068047
20
-8.32954218774208
30
0
41
1
10
11.7256582359258
20
-8.1948153993614
30
0
41
1
10
11.4841316898624
20
-8.0997479007226
30
0
41
1
10
11.1118774130599
20
-7.95319259960047
30
0
41
1
10
10.9861230049649
20
-7.90369435248269
30
0
41
1
10
10.7304824951015
20
-7.80428034190183
30
0
41
1
10
10.6005967748366
20
-7.75436342586525
30
0
41
1
10
10.4019134966455
20
-7.68000254572931
30
0
41
1
10
10.335042626315
20
-7.65530255525542
30
0
41
1
10
10.1998654303509
20
-7.60624009381911
30
0
41
1
10
10.1316416423203
20
-7.58190836124464
30
0
41
1
10
9.92538353438977
20
-7.50998022256189
30
0
41
1
10
9.78558183745056
20
-7.46335833907364
30
0
41
1
10
9.50017680334278
20
-7.374707939697
30
0
41
1
10
9.35459522510334
20
-7.33265376088104
30
0
41
1
10
9.16777920979368
20
-7.28474145655096
30
0
41
1
10
9.13017106359118
20
-7.27539543687155
30
0
41
1
10
9.05441883646515
20
-7.25723997866407
30
0
41
1
10
9.01623212031595
20
-7.24842117628415
30
0
41
1
10
8.90113383842987
20
-7.2229584752539
30
0
41
1
10
8.82375346912139
20
-7.2073113233869
30
0
41
1
10
8.66742691948915
20
-7.17937970399157
30
0
41
1
10
8.58847750419838
20
-7.16710276352018
30
0
41
1
10
8.46861059009734
20
-7.15188884332048
30
0
41
1
10
8.42841378074215
20
-7.14735266963316
30
0
41
1
10
8.34747663989765
20
-7.1394998437658
30
0
41
1
10
8.30684914189106
20
-7.13619669169083
30
0
41
1
10
8.18512178942959
20
-7.12843197384097
30
0
41
1
10
8.10392207114549
20
-7.126059550299
30
0
41
1
10
7.98202938410489
20
-7.12794782234414
30
0
41
1
10
7.94138286036485
20
-7.12949099463597
30
0
41
1
10
7.88038533616614
20
-7.13342243798786
30
0
41
1
10
7.86004818961541
20
-7.13500319650905
30
0
41
1
10
7.81936365876774
20
-7.13875945927222
30
0
41
1
10
7.79905857282219
20
-7.14093264951717
30
0
41
1
10
7.7387142121022
20
-7.14835382295362
30
0
41
1
10
7.69907685991453
20
-7.15451328550753
30
0
41
1
10
7.6211900239492
20
-7.16963977380706
30
0
41
1
10
7.58293842529227
20
-7.17860301918048
30
0
41
1
10
7.50813279716149
20
-7.19991068884937
30
0
41
1
10
7.47238045515698
20
-7.21203468968005
30
0
41
1
10
7.40469096138523
20
-7.23948253527647
30
0
41
1
10
7.37274187606093
20
-7.25481508279793
30
0
41
1
10
7.31318421743921
20
-7.2890581055122
30
0
41
1
10
7.28653281416948
20
-7.30742626172452
30
0
41
1
10
7.23940287305615
20
-7.34638222507894
30
0
41
1
10
7.21890339680928
20
-7.36698290360877
30
0
41
1
10
7.19271290201706
20
-7.39945966696257
30
0
41
1
10
7.18485233958955
20
-7.41041611965093
30
0
41
1
10
7.17080721869863
20
-7.43245587746119
30
0
41
1
10
7.16460925080398
20
-7.44355604300176
30
0
41
1
10
7.1483083530712
20
-7.47705828084247
30
0
41
1
10
7.14049079242946
20
-7.49966071338747
30
0
41
1
10
7.1353578443217
20
-7.52244760365235
30
0
0
SPLINE
5
144
100
AcDbEntity
8
1
62
256
6
ByLayer
370
18
48
1
60
0
100
AcDbSpline
70
4
71
3
72
8
73
4
40
0
40
0
40
0
40
0
40
1
40
1
40
1
40
1
41
1
10
13.7113774815425
20
-8.83630732725766
30
0
41
1
10
13.5874629337713
20
-8.80789710507622
30
0
41
1
10
13.4634160092817
20
-8.77672744468308
30
0
41
1
10
13.3390647904082
20
-8.74286307698443
30
0
0
SPLINE
5
145
100
AcDbEntity
8
1
62
256
6
ByLayer
370
18
48
1
60
0
100
AcDbSpline
70
4
71
3
72
12
73
8
40
0
40
0
40
0
40
0
40
0.500000000000013
40
0.500000000000013
40
0.750000000000006
40
0.750000000000006
40
1
40
1
40
1
40
1
41
1
10
53.7036346232235
20
2.39982141168144
30
0
41
1
10
53.8242861177087
20
2.26816765258997
30
0
41
1
10
53.9431441651715
20
2.13976745252288
30
0
41
1
10
54.1201225791902
20
1.95229808220782
30
0
41
1
10
54.1788939888437
20
1.89066311045025
30
0
41
1
10
54.2961853811369
20
1.76915049701961
30
0
41
1
10
54.3547026720858
20
1.70927475690138
30
0
41
1
10
54.4131601887177
20
1.65032783608922
30
0
0
SPLINE
5
146
100
AcDbEntity
8
1
62
256
6
ByLayer
370
13
48
1
60
0
100
AcDbSpline
70
4
71
3
72
14
73
10
40
0
40
0
40
0
40
0
40
0.191607739557281
40
0.344981428456827
40
0.498355117356373
40
0.651728806255919
40
0.805102495155465
40
0.958476184055011
40
1
40
1
40
1
40
1
41
1
10
54.4131601887177
20
1.65032783608925
30
0
41
1
10
53.3387734591451
20
2.74211096982117
30
0
41
1
10
51.4043867295726
20
4.63876738320386
30
0
41
1
10
48.6100000000001
20
6.84146111581566
30
0
41
1
10
46.0300000000001
20
8.27558000101624
30
0
41
1
10
43.4500000000001
20
8.94809689168963
30
0
41
1
10
40.87
20
8.83623085535004
30
0
41
1
10
38.9171668330539
20
8.13669653286376
30
0
41
1
10
37.8243336661078
20
7.55864882894144
30
0
41
1
10
37.5915004991617
20
7.42740039528138
30
0
0
SPLINE
5
147
100
AcDbEntity
8
1
62
256
6
ByLayer
370
13
48
1
60
0
100
AcDbSpline
70
4
71
3
72
9
73
5
40
0
40
0
40
0
40
0
40
0.329927714386672
40
1
40
1
40
1
40
1
41
1
10
22.7706617208126
20
-7.61636676589248
30
0
41
1
10
21.9237744805417
20
-8.00915592286924
30
0
41
1
10
19.3568872402709
20
-8.85957630113643
30
0
41
1
10
16.79
20
-8.56868820025173
30
0
41
1
10
15.07
20
-7.85883802602419
30
0
0
SPLINE
5
148
100
AcDbEntity
8
1
62
256
6
ByLayer
370
18
48
1
60
0
100
AcDbSpline
70
4
71
3
72
8
73
4
40
0
40
0
40
0
40
0
40
1
40
1
40
1
40
1
41
1
10
56.2705050180514
20
0.168044841829897
30
0
41
1
10
56.1896887011701
20
0.803246596566908
30
0
41
1
10
56.1088634597793
20
1.43830642007438
30
0
41
1
10
56.0280310959156
20
2.07325297110066
30
0
0
SPLINE
5
149
100
AcDbEntity
8
1
62
256
6
ByLayer
370
18
48
1
60
0
100
AcDbSpline
70
4
71
3
72
26
73
22
40
0
40
0
40
0
40
0
40
0.0624999999999986
40
0.0624999999999986
40
0.0937499999999994
40
0.0937499999999994
40
0.125
40
0.125
40
0.249999999999995
40
0.249999999999995
40
0.374999999999991
40
0.374999999999991
40
0.499999999999986
40
0.499999999999986
40
0.562499999999986
40
0.562499999999986
40
0.624999999999985
40
0.624999999999985
40
0.74999999999999
40
0.74999999999999
40
1
40
1
40
1
40
1
41
1
10
56.0280310959155
20
2.07325297110091
30
0
41
1
10
56.0204432948824
20
2.10422930066144
30
0
41
1
10
56.012430245346
20
2.13643409717736
30
0
41
1
10
55.9998613013492
20
2.18632832285178
30
0
41
1
10
55.9955798336791
20
2.20322498203908
30
0
41
1
10
55.9868453564744
20
2.23751385421008
30
0
41
1
10
55.9823857197163
20
2.2549316410288
30
0
41
1
10
55.9598290822483
20
2.34262550076525
30
0
41
1
10
55.940888669216
20
2.41500500893375
30
0
41
1
10
55.9017201355697
20
2.5629641070511
30
0
41
1
10
55.8814870494551
20
2.63855603676433
30
0
41
1
10
55.8400215016409
20
2.79222344420032
30
0
41
1
10
55.8187869501388
20
2.87030411529062
30
0
41
1
10
55.7863280102753
20
2.98893385731836
30
0
41
1
10
55.7753988875756
20
3.02875796279741
30
0
41
1
10
55.7533919823589
20
3.10873356936199
30
0
41
1
10
55.7423243239022
20
3.14884845724688
30
0
41
1
10
55.708947303529
20
3.26953761350825
30
0
41
1
10
55.6864646356608
20
3.35045491166403
30
0
41
1
10
55.6184371971057
20
3.59435369948034
30
0
41
1
10
55.5723187423089
20
3.75847069967438
30
0
41
1
10
55.5256286303046
20
3.92371919849197
30
0
0
SPLINE
5
14A
100
AcDbEntity
8
1
62
256
6
ByLayer
370
18
48
1
60
0
100
AcDbSpline
70
4
71
3
72
8
73
4
40
0
40
0
40
0
40
0
40
1
40
1
40
1
40
1
41
1
10
55.5256286303046
20
3.92371919849197
30
0
41
1
10
55.5079549782391
20
3.83206325696295
30
0
41
1
10
55.4886250277761
20
3.73881606332091
30
0
41
1
10
55.4676179528175
20
3.64401863423308
30
0
0
SPLINE
5
14B
100
AcDbEntity
8
1
62
256
6
ByLayer
370
18
48
1
60
0
100
AcDbSpline
70
4
71
3
72
28
73
24
40
0
40
0
40
0
40
0
40
0.124999999999964
40
0.124999999999964
40
0.187499999999943
40
0.187499999999943
40
0.249999999999923
40
0.249999999999923
40
0.374999999999881
40
0.374999999999881
40
0.437499999999864
40
0.437499999999864
40
0.499999999999847
40
0.499999999999847
40
0.624999999999813
40
0.624999999999813
40
0.687499999999825
40
0.687499999999825
40
0.749999999999838
40
0.749999999999838
40
0.874999999999919
40
0.874999999999919
40
1
40
1
40
1
40
1
41
1
10
55.4676179528176
20
3.64401863423302
30
0
41
1
10
55.4652637656778
20
3.63338886763216
30
0
41
1
10
55.4624040547987
20
3.62374681464527
30
0
41
1
10
55.4572558919295
20
3.61090678658016
30
0
41
1
10
55.4553962157471
20
3.60689815950758
30
0
41
1
10
55.4513649836574
20
3.59946034797201
30
0
41
1
10
55.449180046046
20
3.59601663706903
30
0
41
1
10
55.4422582914266
20
3.58680419452475
30
0
41
1
10
55.4371392520609
20
3.58209296984308
30
0
41
1
10
55.4286814055418
20
3.57714709823478
30
0
41
1
10
55.4257318951956
20
3.57585297433741
30
0
41
1
10
55.4195643918022
20
3.57398158599131
30
0
41
1
10
55.4163680614281
20
3.57341430059609
30
0
41
1
10
55.4065806246502
20
3.5727743201775
30
0
41
1
10
55.3997407413021
20
3.57374196093957
30
0
41
1
10
55.3890385355289
20
3.57705306260857
30
0
41
1
10
55.3853849481376
20
3.57847529864927
30
0
41
1
10
55.3780519839961
20
3.58185482239639
30
0
41
1
10
55.3743609040487
20
3.58381391871364
30
0
41
1
10
55.3632174857754
20
3.59041879399999
30
0
41
1
10
55.3556951086358
20
3.59578832820191
30
0
41
1
10
55.3404781920379
20
3.6081574242418
30
0
41
1
10
55.332760477168
20
3.61518302011649
30
0
41
1
10
55.3250315503722
20
3.62285516707016
30
0
0
SPLINE
5
14C
100
AcDbEntity
8
1
62
256
6
ByLayer
370
18
48
1
60
0
100
AcDbSpline
70
4
71
3
72
8
73
4
40
0
40
0
40
0
40
0
40
1
40
1
40
1
40
1
41
1
10
55.325031550371
20
3.62285516707121
30
0
41
1
10
55.2376561215003
20
3.70958864280161
30
0
41
1
10
55.1435581133435
20
3.80621230622015
30
0
41
1
10
55.0430219924984
20
3.9122321214912
30
0
0
SPLINE
5
14D
100
AcDbEntity
8
1
62
256
6
ByLayer
370
18
48
1
60
0
100
AcDbSpline
70
4
71
3
72
8
73
4
40
0
40
0
40
0
40
0
40
1
40
1
40
1
40
1
41
1
10
7.1353578443217
20
-7.52244760365235
30
0
41
1
10
7.12452954891924
20
-7.57051806411897
30
0
41
1
10
7.12582479890025
20
-7.6175488962657
30
0
41
1
10
7.13535784432167
20
-7.66354010009258
30
0
0
SPLINE
5
14E
100
AcDbEntity
8
1
62
256
6
ByLayer
370
18
48
1
60
0
100
AcDbSpline
70
4
71
3
72
8
73
4
40
0
40
0
40
0
40
0
40
1
40
1
40
1
40
1
41
1
10
7.13535784432173
20
5.41988499164
30
0
41
1
10
7.12444248180279
20
5.35066582326172
30
0
41
1
10
7.12574135909793
20
5.28071944630472
30
0
41
1
10
7.1353578443217
20
5.21004586076893
30
0
0
SPLINE
5
14F
100
AcDbEntity
8
1
62
256
6
ByLayer
370
18
48
1
60
0
100
AcDbSpline
70
4
71
3
72
12
73
8
40
0
40
0
40
0
40
0
40
0.250000000000011
40
0.250000000000011
40
0.500000000000021
40
0.500000000000021
40
1
40
1
40
1
40
1
41
1
10
53.2450125748941
20
2.90304144288055
30
0
41
1
10
53.2835415499909
20
2.86083064282954
30
0
41
1
10
53.3219429192188
20
2.81865843568559
30
0
41
1
10
53.3985757686548
20
2.73443938348819
30
0
41
1
10
53.4368114026721
20
2.69239220472966
30
0
41
1
10
53.5513508574513
20
2.56650256744211
30
0
41
1
10
53.6274857298641
20
2.48291435722848
30
0
41
1
10
53.7036346232347
20
2.39982141166922
30
0
0
SPLINE
5
150
100
AcDbEntity
8
1
62
256
6
ByLayer
370
13
48
1
60
0
100
AcDbSpline
70
4
71
3
72
28
73
24
40
0
40
0
40
0
40
0
40
0.0048601377496478
40
0.038940499081163
40
0.108731910737072
40
0.212588660684789
40
0.315533685752006
40
0.367342634786449
40
0.419645835079146
40
0.454807810876147
40
0.489788404012795
40
0.524048606202852
40
0.540752609109889
40
0.557082275858916
40
0.572963817504192
40
0.588841389926542
40
0.621849930413088
40
0.69100647522079
40
0.726142438620347
40
0.778413786323694
40
0.881683154359798
40
0.933200587044285
40
1
40
1
40
1
40
1
41
1
10
56.2614828015973
20
0.121067276738245
30
0
41
1
10
56.2588389467848
20
0.122495733832068
30
0
41
1
10
56.2376231803673
20
0.134024757142725
30
0
41
1
10
56.1775840187692
20
0.168102271868179
30
0
41
1
10
56.0571666571504
20
0.242957796780047
30
0
41
1
10
55.8740463898884
20
0.370381685422387
30
0
41
1
10
55.680102655773
20
0.519472922442674
30
0
41
1
10
55.5154530338408
20
0.653472871477362
30
0
41
1
10
55.4011896630186
20
0.749527880947653
30
0
41
1
10
55.2988359083353
20
0.837704393835651
30
0
41
1
10
55.2091831130445
20
0.916346101207608
30
0
41
1
10
55.1323007683093
20
0.984942346000651
30
0
41
1
10
55.0695013945154
20
1.04167368088349
30
0
41
1
10
55.0225391854202
20
1.08443115581707
30
0
41
1
10
54.9741416811021
20
1.12884064553884
30
0
41
1
10
54.9086100493066
20
1.18943120971517
30
0
41
1
10
54.7933764051757
20
1.29719524116388
30
0
41
1
10
54.6631981721631
20
1.42150032314066
30
0
41
1
10
54.5136435574825
20
1.56706607704314
30
0
41
1
10
54.3270974387202
20
1.75147752946373
30
0
41
1
10
54.1177582145584
20
1.96402451058481
30
0
41
1
10
53.8917721058334
20
2.19940590686016
30
0
41
1
10
53.7712455023339
20
2.32732842180474
30
0
41
1
10
53.7036346232348
20
2.39982141166922
30
0
0
SPLINE
5
151
100
AcDbEntity
8
1
62
256
6
ByLayer
370
18
48
1
60
0
100
AcDbSpline
70
4
71
3
72
8
73
4
40
0
40
0
40
0
40
0
40
1
40
1
40
1
40
1
41
1
10
56.2614827984452
20
0.121067276060756
30
0
41
1
10
56.2649064082833
20
0.133380899838926
30
0
41
1
10
56.2679035189135
20
0.149122830820204
30
0
41
1
10
56.2705050180514
20
0.168044841829897
30
0
0
SPLINE
5
152
100
AcDbEntity
8
1
62
256
6
ByLayer
370
18
48
1
60
0
100
AcDbSpline
70
4
71
3
72
44
73
40
40
0
40
0
40
0
40
0
40
0.0624999999999923
40
0.0624999999999923
40
0.124999999999985
40
0.124999999999985
40
0.187499999999977
40
0.187499999999977
40
0.218749999999973
40
0.218749999999973
40
0.249999999999969
40
0.249999999999969
40
0.312499999999968
40
0.312499999999968
40
0.343749999999967
40
0.343749999999967
40
0.374999999999967
40
0.374999999999967
40
0.499999999999963
40
0.499999999999963
40
0.531249999999964
40
0.531249999999964
40
0.562499999999965
40
0.562499999999965
40
0.624999999999971
40
0.624999999999971
40
0.656249999999974
40
0.656249999999974
40
0.687499999999976
40
0.687499999999976
40
0.749999999999984
40
0.749999999999984
40
0.781249999999986
40
0.781249999999986
40
0.812499999999989
40
0.812499999999989
40
0.874999999999994
40
0.874999999999994
40
1
40
1
40
1
40
1
41
1
10
54.4848449622666
20
1.87485859659077
30
0
41
1
10
54.5450778607363
20
1.82622226380943
30
0
41
1
10
54.6040325955858
20
1.77772610751933
30
0
41
1
10
54.7197092481789
20
1.68114879913816
30
0
41
1
10
54.776428351906
20
1.63306547076226
30
0
41
1
10
54.8878122005113
20
1.5373831326807
30
0
41
1
10
54.9424775579575
20
1.48978634791013
30
0
41
1
10
55.0230055793951
20
1.41878897533965
30
0
41
1
10
55.0496208476264
20
1.39517627866391
30
0
41
1
10
55.1023024314667
20
1.34816710565363
30
0
41
1
10
55.1282663691578
20
1.32486217409385
30
0
41
1
10
55.2050662232867
20
1.25554317652288
30
0
41
1
10
55.2548069802292
20
1.21010635127087
30
0
41
1
10
55.3273713995368
20
1.14323434478595
30
0
41
1
10
55.351230766195
20
1.12114324140947
30
0
41
1
10
55.3979980033743
20
1.07765852788023
30
0
41
1
10
55.4209411870775
20
1.05622847610201
30
0
41
1
10
55.5335245095498
20
0.950606840161697
30
0
41
1
10
55.6167952478056
20
0.870868691317071
30
0
41
1
10
55.7129830118544
20
0.776801795346103
30
0
41
1
10
55.7318228983617
20
0.75827150078922
30
0
41
1
10
55.7687129095938
20
0.721789127985318
30
0
41
1
10
55.7867782077581
20
0.703821677284367
30
0
41
1
10
55.8395225189676
20
0.651064844380471
30
0
41
1
10
55.8728374771629
20
0.617334197421741
30
0
41
1
10
55.920127476913
20
0.56885910856235
30
0
41
1
10
55.9354431275356
20
0.553054664323099
30
0
41
1
10
55.9651870756224
20
0.522151416456182
30
0
41
1
10
55.9796277592042
20
0.507039478871775
30
0
41
1
10
56.0215107097961
20
0.462884355033395
30
0
41
1
10
56.0475225295018
20
0.435013645079238
30
0
41
1
10
56.0837520730366
20
0.395485803719083
30
0
41
1
10
56.0953633057531
20
0.382690250413305
30
0
41
1
10
56.1176612783033
20
0.357856245430043
30
0
41
1
10
56.1283556618401
20
0.34580904999612
30
0
41
1
10
56.1590016599609
20
0.310866210510227
30
0
41
1
10
56.1774633224381
20
0.289236383852852
30
0
41
1
10
56.2271118029538
20
0.229156132078884
30
0
41
1
10
56.2525977444598
20
0.195458743617309
30
0
41
1
10
56.2705050180514
20
0.168044841829897
30
0
0
SPLINE
5
153
100
AcDbEntity
8
1
62
256
6
ByLayer
370
18
48
1
60
0
100
AcDbSpline
70
4
71
3
72
8
73
4
40
0
40
0
40
0
40
0
40
1
40
1
40
1
40
1
41
1
10
54.484844962255
20
1.87485859660387
30
0
41
1
10
54.4568747300178
20
1.90648847774213
30
0
41
1
10
54.4286136282569
20
1.93836247739318
30
0
41
1
10
54.400060592105
20
1.9704814892695
30
0
0
SPLINE
5
154
100
AcDbEntity
8
1
62
256
6
ByLayer
370
18
48
1
60
0
100
AcDbSpline
70
4
71
3
72
8
73
4
40
0
40
0
40
0
40
0
40
1
40
1
40
1
40
1
41
1
10
15.07
20
0.958952160261731
30
0
41
1
10
14.9508152606521
20
1.09641445272422
30
0
41
1
10
14.8313398645484
20
1.23153140321222
30
0
41
1
10
14.7113774815426
20
1.36410969335751
30
0
0
SPLINE
5
155
100
AcDbEntity
8
1
62
256
6
ByLayer
370
18
48
1
60
0
100
AcDbSpline
70
4
71
3
72
14
73
10
40
0
40
0
40
0
40
0
40
0.25
40
0.25
40
0.5
40
0.5
40
0.75
40
0.75
40
1
40
1
40
1
40
1
41
1
10
14.7113774815425
20
1.36410969335753
30
0
41
1
10
14.6340315756839
20
1.44958972210932
30
0
41
1
10
14.5549055042053
20
1.53547360226403
30
0
41
1
10
14.3935756081234
20
1.7081527404066
30
0
41
1
10
14.31136996454
20
1.79494845191402
30
0
41
1
10
14.1442499838537
20
1.96967973339781
30
0
41
1
10
14.0593346463117
20
2.05761492514537
30
0
41
1
10
13.8870973258987
20
2.23497511234967
30
0
41
1
10
13.7997748011124
20
2.32439887411689
30
0
41
1
10
13.7113774815428
20
2.41481508707832
30
0
0
SPLINE
5
156
100
AcDbEntity
8
1
62
256
6
ByLayer
370
18
48
1
60
0
100
AcDbSpline
70
4
71
3
72
8
73
4
40
0
40
0
40
0
40
0
40
1
40
1
40
1
40
1
41
1
10
13.7113774815427
20
2.41481508707827
30
0
41
1
10
13.587462933771
20
2.54155970099745
30
0
41
1
10
13.4634160092811
20
2.66735836096149
30
0
41
1
10
13.3390647904072
20
2.79206320163081
30
0
0
SPLINE
5
157
100
AcDbEntity
8
1
62
256
6
ByLayer
370
18
48
1
60
0
100
AcDbSpline
70
4
71
1
72
4
73
2
40
0
40
0
40
1
40
1
41
1
10
14.3040883970857
20
1.80067453169497
30
0
41
1
10
13.3390647904072
20
2.79206320163081
30
0
0
SPLINE
5
158
100
AcDbEntity
8
1
62
256
6
ByLayer
370
18
48
1
60
0
100
AcDbSpline
70
4
71
3
72
77
73
73
40
0
40
0
40
0
40
0
40
0.0044270306498563
40
0.0092354018498125
40
0.0144250828128322
40
0.0199960292976486
40
0.0259481811943739
40
0.0322814599856497
40
0.0389957661009233
40
0.0460909761848272
40
0.0535669403041445
40
0.0614234791222696
40
0.0696603810745634
40
0.0782773995833651
40
0.0872742503571574
40
0.0966506088250293
40
0.106406160373957
40
0.116540767489353
40
0.127054355419034
40
0.137946872563822
40
0.149218293397457
40
0.160868621581445
40
0.172897893304363
40
0.18530618087969
40
0.198093596641039
40
0.211260297178875
40
0.224806487968354
40
0.23873242844377
40
0.25303843758137
40
0.267724900058788
40
0.282792273066316
40
0.298241093852332
40
0.31407195298263
40
0.330285157166389
40
0.346880794146526
40
0.363858903717423
40
0.38121947354047
40
0.459051510582319
40
0.532636992189622
40
0.601956023922876
40
0.667005582520815
40
0.678932924283151
40
0.690780849898837
40
0.702549411902958
40
0.7142386703512
40
0.725848691154472
40
0.737379533896476
40
0.748831249180843
40
0.760203881284901
40
0.771497468925288
40
0.7827120459668
40
0.79384764207946
40
0.804904283346056
40
0.815881992822322
40
0.826780791051847
40
0.837600696537819
40
0.848341726173547
40
0.859003895633777
40
0.869587219728681
40
0.880091712722355
40
0.890517388617648
40
0.900864261409048
40
0.911132345305327
40
0.921321654923579
40
0.93143220267038
40
0.941463987052971
40
0.95141699958162
40
0.961291228727782
40
0.971086660396086
40
0.980803278360403
40
0.990441064666105
40
1
40
1
40
1
40
1
41
1
10
43.9648108973668
20
9.37138156653049
30
0
41
1
10
43.9785007997875
20
9.36866371915221
30
0
41
1
10
44.0070598408559
20
9.36299391139843
30
0
41
1
10
44.0516627469735
20
9.35383647043366
30
0
41
1
10
44.09980023966
20
9.34369098314147
30
0
41
1
10
44.1514717780846
20
9.33247064372057
30
0
41
1
10
44.2066773073762
20
9.32011357011027
30
0
41
1
10
44.265416535579
20
9.30654445213651
30
0
41
1
10
44.3276891334148
20
9.29168601844626
30
0
41
1
10
44.393494658304
20
9.27545566869011
30
0
41
1
10
44.4628325589758
20
9.25776649471078
30
0
41
1
10
44.5357021554633
20
9.23852701326084
30
0
41
1
10
44.6121026251848
20
9.21764127729284
30
0
41
1
10
44.6920329868462
20
9.19500887807777
30
0
41
1
10
44.775492081753
20
9.1705249834757
30
0
41
1
10
44.8624787265507
20
9.14408030666792
30
0
41
1
10
44.9529923504695
20
9.11556095056881
30
0
41
1
10
45.047031790245
20
9.0848512541728
30
0
41
1
10
45.1445966012379
20
9.05183152052609
30
0
41
1
10
45.2456865459511
20
9.016378275813
30
0
41
1
10
45.3503014817903
20
8.97836438409962
30
0
41
1
10
45.4584413696434
20
8.93765913713696
30
0
41
1
10
45.5701062858494
20
8.89412834344208
30
0
41
1
10
45.68529643372
20
8.84763442150648
30
0
41
1
10
45.8040121556816
20
8.79803649568399
30
0
41
1
10
45.9262539458021
20
8.74519049547882
30
0
41
1
10
46.052022462522
20
8.68894925681983
30
0
41
1
10
46.1813185426015
20
8.62916263044374
30
0
41
1
10
46.3141432122719
20
8.56567757756804
30
0
41
1
10
46.4504977112006
20
8.49833832986599
30
0
41
1
10
46.5903834686658
20
8.42698631472291
30
0
41
1
10
46.7338021583797
20
8.35146106293672
30
0
41
1
10
46.8807539575541
20
8.27159814069813
30
0
41
1
10
47.0312399847521
20
8.1872477114058
30
0
41
1
10
47.1852605150897
20
8.09826741466375
30
0
41
1
10
47.3428167471992
20
8.00451391631469
30
0
41
1
10
47.6897558058012
20
7.79201718350123
30
0
41
1
10
48.2118047652701
20
7.44744188088541
30
0
41
1
10
48.8944289642903
20
6.94916819401473
30
0
41
1
10
49.5376429171775
20
6.44034083706961
30
0
41
1
10
49.9902586566585
20
6.05795455263541
30
0
41
1
10
50.2650400108138
20
5.81791038321674
30
0
41
1
10
50.3749983517104
20
5.72088787137477
30
0
41
1
10
50.4842206019703
20
5.6235755537619
30
0
41
1
10
50.5927071800405
20
5.52600414709929
30
0
41
1
10
50.7004578076024
20
5.42820409385743
30
0
41
1
10
50.8074727748144
20
5.33020964902553
30
0
41
1
10
50.9137523783193
20
5.2320547826769
30
0
41
1
10
51.019296893817
20
5.1337725458261
30
0
41
1
10
51.1241065877068
20
5.03539524777329
30
0
41
1
10
51.2281817157514
20
4.93695442219047
30
0
41
1
10
51.3315225236661
20
4.83848085050252
30
0
41
1
10
51.4341292471941
20
4.74000456997442
30
0
41
1
10
51.5360021123155
20
4.64155488575074
30
0
41
1
10
51.6371413354196
20
4.54316038174429
30
0
41
1
10
51.7375471234846
20
4.44484893172807
30
0
41
1
10
51.8372196742538
20
4.34664771026922
30
0
41
1
10
51.9361591764102
20
4.24858320360664
30
0
41
1
10
52.0343658097494
20
4.15068122042723
30
0
41
1
10
52.1318397453565
20
4.05296690261849
30
0
41
1
10
52.2285811457545
20
3.95546473573424
30
0
41
1
10
52.3245901651572
20
3.85819856014024
30
0
41
1
10
52.4198669493245
20
3.7611915792728
30
0
41
1
10
52.514411628265
20
3.66446638698744
30
0
41
1
10
52.6082242669371
20
3.5680449944964
30
0
41
1
10
52.7013048388332
20
3.47194997864571
30
0
41
1
10
52.7936532822967
20
3.3762035430114
30
0
41
1
10
52.8852695239011
20
3.28082651804729
30
0
41
1
10
52.9761534989225
20
3.18584177985389
30
0
41
1
10
53.0663051192465
20
3.09126170782554
30
0
41
1
10
53.1557243904866
20
2.99713446708554
30
0
41
1
10
53.215092682293
20
2.93436925907625
30
0
41
1
10
53.2446548998901
20
2.90311555983305
30
0
0
SPLINE
5
159
100
AcDbEntity
8
1
62
256
6
ByLayer
370
18
48
1
60
0
100
AcDbSpline
70
4
71
3
72
10
73
6
40
0
40
0
40
0
40
0
40
0.5
40
0.5
40
1
40
1
40
1
40
1
41
1
10
53.2452736361447
20
2.90355373117407
30
0
41
1
10
53.4269187061045
20
2.73560528821014
30
0
41
1
10
53.6143213889983
20
2.57418506792632
30
0
41
1
10
53.9995567177477
20
2.26343324228327
30
0
41
1
10
54.1974067436829
20
2.11412162102502
30
0
41
1
10
54.4000605921158
20
1.97048148926166
30
0
0
SPLINE
5
15A
100
AcDbEntity
8
1
62
256
6
ByLayer
370
18
48
1
60
0
100
AcDbSpline
70
4
71
3
72
8
73
4
40
0
40
0
40
0
40
0
40
1
40
1
40
1
40
1
41
1
10
54.2109418912786
20
2.17044962632554
30
0
41
1
10
54.2739546938867
20
2.10388128885239
30
0
41
1
10
54.3369943535721
20
2.03722493924173
30
0
41
1
10
54.4000605921048
20
1.97048148926942
30
0
0
SPLINE
5
15B
100
AcDbEntity
8
1
62
256
6
ByLayer
370
18
48
1
60
0
100
AcDbSpline
70
4
71
3
72
8
73
4
40
0
40
0
40
0
40
0
40
1
40
1
40
1
40
1
41
1
10
54.2109418912908
20
2.17044962631206
30
0
41
1
10
54.2738826725474
20
2.22967361986912
30
0
41
1
10
54.3394795779399
20
2.28595553284728
30
0
41
1
10
54.407181713757
20
2.33990556778451
30
0
0
SPLINE
5
15C
100
AcDbEntity
8
1
62
256
6
ByLayer
370
18
48
1
60
0
100
AcDbSpline
70
4
71
3
72
30
73
26
40
0
40
0
40
0
40
0
40
0.0312499999999965
40
0.0312499999999965
40
0.062499999999993
40
0.062499999999993
40
0.124999999999987
40
0.124999999999987
40
0.156249999999984
40
0.156249999999984
40
0.18749999999998
40
0.18749999999998
40
0.249999999999982
40
0.249999999999982
40
0.374999999999985
40
0.374999999999985
40
0.499999999999988
40
0.499999999999988
40
0.624999999999991
40
0.624999999999991
40
0.749999999999994
40
0.749999999999994
40
0.874999999999997
40
0.874999999999997
40
1
40
1
40
1
40
1
41
1
10
54.4071817137575
20
2.33990556778463
30
0
41
1
10
54.4225020070037
20
2.3521139028085
30
0
41
1
10
54.4363636782906
20
2.36529277052193
30
0
41
1
10
54.4623006261159
20
2.3928155289056
30
0
41
1
10
54.474358821931
20
2.40717107440989
30
0
41
1
10
54.5086661427811
20
2.45142574117671
30
0
41
1
10
54.5290877766678
20
2.48248548389694
30
0
41
1
10
54.5576789848064
20
2.53028100995519
30
0
41
1
10
54.5668534355858
20
2.54642465641993
30
0
41
1
10
54.5846370435031
20
2.57903383812663
30
0
41
1
10
54.5932479596796
20
2.59550616888558
30
0
41
1
10
54.6182696093554
20
2.64505464823657
30
0
41
1
10
54.6339297148155
20
2.67834684598446
30
0
41
1
10
54.6788208621732
20
2.7786281618778
30
0
41
1
10
54.7060080436504
20
2.84600455846729
30
0
41
1
10
54.7573107161975
20
2.98087074179989
30
0
41
1
10
54.7813786651821
20
3.04837880179613
30
0
41
1
10
54.827411571352
20
3.1831306011907
30
0
41
1
10
54.8493624139684
20
3.25037979196191
30
0
41
1
10
54.8916844051056
20
3.38440658652621
30
0
41
1
10
54.9120501594328
20
3.45118628430546
30
0
41
1
10
54.951503934394
20
3.58415037429484
30
0
41
1
10
54.9705972177624
20
3.65036353698812
30
0
41
1
10
55.0076378134529
20
3.78193865965497
30
0
41
1
10
55.0255859853768
20
3.84730631033787
30
0
41
1
10
55.0430219924984
20
3.9122321214912
30
0
0
SPLINE
5
15D
100
AcDbEntity
8
1
62
256
6
ByLayer
370
18
48
1
60
0
100
AcDbSpline
70
4
71
3
72
38
73
34
40
0
40
0
40
0
40
0
40
0.0751653650835344
40
0.0751653650835344
40
0.150330730167069
40
0.225496095250603
40
0.300661460334137
40
0.300661460334137
40
0.338244142875906
40
0.338244142875906
40
0.35703548414679
40
0.35703548414679
40
0.375826825417674
40
0.375826825417674
40
0.450992190501208
40
0.450992190501208
40
0.526157555584742
40
0.526157555584742
40
0.601322920668277
40
0.601322920668277
40
0.751653650835345
40
0.751653650835345
40
0.826819015918878
40
0.826819015918878
40
0.845610357189762
40
0.845610357189762
40
0.864401698460646
40
0.864401698460646
40
0.901984381002416
40
0.901984381002416
40
0.977149746085956
40
0.977149746085956
40
1
40
1
40
1
40
1
41
1
10
55.0430219924984
20
3.9122321214912
30
0
41
1
10
54.8348673804335
20
4.10916778557191
30
0
41
1
10
54.6269954544503
20
4.30245453882245
30
0
41
1
10
54.2114915464453
20
4.68123549194408
30
0
41
1
10
53.7962283616522
20
5.05222376847334
30
0
41
1
10
53.172759698017
20
5.58327480622484
30
0
41
1
10
52.7556160672236
20
5.91860045723092
30
0
41
1
10
52.4416710690601
20
6.1622699410336
30
0
41
1
10
52.3368404311996
20
6.24218258746342
30
0
41
1
10
52.1792343193137
20
6.36005417777164
30
0
41
1
10
52.1265979679509
20
6.39904189155183
30
0
41
1
10
52.0214006695415
20
6.47619404880723
30
0
41
1
10
51.9688692434243
20
6.51433755059449
30
0
41
1
10
51.7065053684711
20
6.70291690894834
30
0
41
1
10
51.4975425762071
20
6.8469429698815
30
0
41
1
10
51.0805450149888
20
7.12188210337357
30
0
41
1
10
50.8725097435182
20
7.25279640998912
30
0
41
1
10
50.4567225469537
20
7.50194847244131
30
0
41
1
10
50.2489719425995
20
7.62020541502821
30
0
41
1
10
49.6255300552979
20
7.95560962173482
30
0
41
1
10
49.2096760323488
20
8.15342951078017
30
0
41
1
10
48.5826770709622
20
8.40879711028094
30
0
41
1
10
48.3731309864114
20
8.48704182147054
30
0
41
1
10
48.1102120200621
20
8.57562888194266
30
0
41
1
10
48.0575786958701
20
8.59288424638586
30
0
41
1
10
47.9522040774301
20
8.62645136616067
30
0
41
1
10
47.8994296259341
20
8.64277298907473
30
0
41
1
10
47.7411644478916
20
8.69022101413762
30
0
41
1
10
47.6359318650563
20
8.71977381267257
30
0
41
1
10
47.3209816134565
20
8.80208529815604
30
0
41
1
10
47.1120144117763
20
8.84850356410826
30
0
41
1
10
46.8404868832808
20
8.89751833960219
30
0
41
1
10
46.7772569936704
20
8.90811494373199
30
0
41
1
10
46.7140835689072
20
8.91789656078109
30
0
0
SPLINE
5
15E
100
AcDbEntity
8
1
62
256
6
ByLayer
370
18
48
1
60
0
100
AcDbSpline
70
4
71
3
72
40
73
36
40
0
40
0
40
0
40
0
40
0.0154609322333594
40
0.0519253421506408
40
0.0519253421506408
40
0.124854161985205
40
0.124854161985205
40
0.19778298181977
40
0.19778298181977
40
0.270711801654335
40
0.270711801654335
40
0.343640621488899
40
0.343640621488899
40
0.416569441323464
40
0.416569441323464
40
0.453033851240747
40
0.453033851240747
40
0.489498261158031
40
0.489498261158031
40
0.562427080992597
40
0.635355900827164
40
0.635355900827164
40
0.708284720661731
40
0.708284720661731
40
0.781213540496297
40
0.781213540496297
40
0.854142360330864
40
0.854142360330864
40
0.890606770248147
40
0.890606770248147
40
0.908838975206789
40
0.908838975206789
40
0.927071180165431
40
0.927071180165431
40
1
40
1
40
1
40
1
41
1
10
23.6245520861122
20
-7.43521609146632
30
0
41
1
10
23.5801116411107
20
-7.46166518156684
30
0
41
1
10
23.4309654872056
20
-7.54949816037575
30
0
41
1
10
23.2821677192717
20
-7.63395014846901
30
0
41
1
10
22.9691637679564
20
-7.80672016125089
30
0
41
1
10
22.7611278019062
20
-7.91504122291482
30
0
41
1
10
22.3460423445919
20
-8.1170297186336
30
0
41
1
10
22.1389990945383
20
-8.21069722962224
30
0
41
1
10
21.7254994695045
20
-8.38225076459941
30
0
41
1
10
21.5190450433305
20
-8.46007576939482
30
0
41
1
10
21.1058752928427
20
-8.60013169091343
30
0
41
1
10
20.8991593452933
20
-8.66236842298125
30
0
41
1
10
20.4847015318525
20
-8.77147828550602
30
0
41
1
10
20.2769578874015
20
-8.81835279277837
30
0
41
1
10
19.964067100634
20
-8.87719765565538
30
0
41
1
10
19.8595599326498
20
-8.89490036116555
30
0
41
1
10
19.6500543816836
20
-8.92646730518058
30
0
41
1
10
19.5454331915573
20
-8.94027315712128
30
0
41
1
10
19.2321776064789
20
-8.97582536124924
30
0
41
1
10
18.8158341933482
20
-9.00764018428987
30
0
41
1
10
18.4009969443938
20
-9.00930288905252
30
0
41
1
10
17.9863861395909
20
-8.99625384804551
30
0
41
1
10
17.7791856384497
20
-8.98243662931301
30
0
41
1
10
17.3646336116096
20
-8.93964953210229
30
0
41
1
10
17.1572869759116
20
-8.91066117554124
30
0
41
1
10
16.7420235162385
20
-8.83657185872431
30
0
41
1
10
16.5341075999013
20
-8.79147110952255
30
0
41
1
10
16.2213945192662
20
-8.71086896749685
30
0
41
1
10
16.1170168887654
20
-8.68182911210135
30
0
41
1
10
15.9601733774809
20
-8.63495115718794
30
0
41
1
10
15.9078455697471
20
-8.61877681735581
30
0
41
1
10
15.8030839678163
20
-8.5853424936229
30
0
41
1
10
15.7506539033684
20
-8.5680830646196
30
0
41
1
10
15.4887122168264
20
-8.47927613855776
30
0
41
1
10
15.2794139307272
20
-8.40008225722795
30
0
41
1
10
15.07
20
-8.31327427663626
30
0
0
SPLINE
5
15F
100
AcDbEntity
8
1
62
256
6
ByLayer
370
18
48
1
60
0
100
AcDbSpline
70
4
71
3
72
10
73
6
40
0
40
0
40
0
40
0
40
0.5
40
0.5
40
1
40
1
40
1
40
1
41
1
10
13.5493765252214
20
-7.53193060248736
30
0
41
1
10
13.8005734438469
20
-7.68393657263394
30
0
41
1
10
14.0518366031286
20
-7.825518296317
30
0
41
1
10
14.5575214730165
20
-8.0867397450472
30
0
41
1
10
14.8119406461027
20
-8.20630155663042
30
0
41
1
10
15.07
20
-8.31327427663626
30
0
0
SPLINE
5
160
100
AcDbEntity
8
1
62
256
6
ByLayer
370
13
48
1
60
0
100
AcDbSpline
70
4
71
3
72
8
73
4
40
0
40
0
40
0
40
0
40
1
40
1
40
1
40
1
41
1
10
13.3997622620319
20
-7.63514466322346
30
0
41
1
10
13.4494193204356
20
-7.60071805530075
30
0
41
1
10
13.4992894902564
20
-7.56630780931025
30
0
41
1
10
13.5493765409682
20
-7.53193059042945
30
0
0
SPLINE
5
161
100
AcDbEntity
8
1
62
256
6
ByLayer
370
18
48
1
60
0
100
AcDbSpline
70
4
71
3
72
8
73
4
40
0
40
0
40
0
40
0
40
1
40
1
40
1
40
1
41
1
10
13.399762262032
20
-7.63514466322351
30
0
41
1
10
13.5033546373111
20
-7.69481928764733
30
0
41
1
10
13.60718146903
20
-7.75274142472509
30
0
41
1
10
13.7113774815426
20
-7.80885108245744
30
0
0
SPLINE
5
162
100
AcDbEntity
8
1
62
256
6
ByLayer
370
18
48
1
60
0
100
AcDbSpline
70
4
71
3
72
28
73
24
40
0
40
0
40
0
40
0
40
0.0312500000000009
40
0.0312500000000009
40
0.0625000000000018
40
0.0625000000000018
40
0.125000000000004
40
0.125000000000004
40
0.187500000000005
40
0.187500000000005
40
0.250000000000007
40
0.250000000000007
40
0.312500000000009
40
0.312500000000009
40
0.375000000000011
40
0.375000000000011
40
0.50000000000001
40
0.50000000000001
40
0.625000000000008
40
0.625000000000008
40
0.750000000000007
40
0.750000000000007
40
1
40
1
40
1
40
1
41
1
10
13.7113774815424
20
-7.808851082454
30
0
41
1
10
13.7331928039416
20
-7.82059865554845
30
0
41
1
10
13.7536080514018
20
-7.83295010190136
30
0
41
1
10
13.7924622385214
20
-7.85843525425804
30
0
41
1
10
13.8108929615045
20
-7.87157311159373
30
0
41
1
10
13.8639270236229
20
-7.91179142146356
30
0
41
1
10
13.8963087875587
20
-7.93965767511023
30
0
41
1
10
13.9572441815655
20
-7.99637828857126
30
0
41
1
10
13.9857673571495
20
-8.02524823733197
30
0
41
1
10
14.0400332762481
20
-8.08341151057215
30
0
41
1
10
14.0657654194166
20
-8.11271031302277
30
0
41
1
10
14.1150923661647
20
-8.17137890053726
30
0
41
1
10
14.1386826375407
20
-8.20075105036969
30
0
41
1
10
14.1841517524019
20
-8.25932874056807
30
0
41
1
10
14.2060520655245
20
-8.28856888957631
30
0
41
1
10
14.2693792410004
20
-8.37542941299881
30
0
41
1
10
14.3085186029972
20
-8.4322446063284
30
0
41
1
10
14.3824455079022
20
-8.54304422118017
30
0
41
1
10
14.4172144943604
20
-8.59703549238432
30
0
41
1
10
14.4834231301432
20
-8.70181710670613
30
0
41
1
10
14.5148551239062
20
-8.75261032255784
30
0
41
1
10
14.6051604827753
20
-8.89980973755524
30
0
41
1
10
14.6600957783939
20
-8.99102449281492
30
0
41
1
10
14.7113774815431
20
-9.07461224786508
30
0
0
SPLINE
5
163
100
AcDbEntity
8
1
62
256
6
ByLayer
370
18
48
1
60
0
100
AcDbSpline
70
4
71
3
72
9
73
5
40
0
40
0
40
0
40
0
40
0.5
40
1
40
1
40
1
40
1
41
1
10
14.7113774815425
20
-9.07461224786539
30
0
41
1
10
14.7715797393032
20
-9.17274025973191
30
0
41
1
10
14.8913883588475
20
-9.34379536391214
30
0
41
1
10
15.0104930033567
20
-9.46525285928624
30
0
41
1
10
15.07
20
-9.51349047898009
30
0
0
SPLINE
5
164
100
AcDbEntity
8
1
62
256
6
ByLayer
370
18
48
1
60
0
100
AcDbSpline
70
4
71
3
72
8
73
4
40
0
40
0
40
0
40
0
40
1
40
1
40
1
40
1
41
1
10
15.07
20
-9.51349047898384
30
0
41
1
10
15.07
20
-9.51394931036103
30
0
41
1
10
15.07
20
-9.51440738623953
30
0
41
1
10
15.07
20
-9.51486470644323
30
0
0
SPLINE
5
165
100
AcDbEntity
8
1
62
256
6
ByLayer
370
18
48
1
60
0
100
AcDbSpline
70
4
71
3
72
10
73
6
40
0
40
0
40
0
40
0
40
0.805234036586728
40
0.805234036586728
40
1
40
1
40
1
40
1
41
1
10
15.07
20
-9.51486470644323
30
0
41
1
10
15.5460407404041
20
-9.54008017143929
30
0
41
1
10
16.0173211786843
20
-9.52104933489719
30
0
41
1
10
16.6012684215214
20
-9.44437831050405
30
0
41
1
10
16.7149388331337
20
-9.42695841938331
30
0
41
1
10
16.8285963587088
20
-9.40707640683539
30
0
0
SPLINE
5
166
100
AcDbEntity
8
1
62
256
6
ByLayer
370
18
48
1
60
0
100
AcDbSpline
70
4
71
3
72
56
73
52
40
0
40
0
40
0
40
0
40
0.0051343104524881
40
0.144162868650213
40
0.303947804085199
40
0.316623627292593
40
0.329408948725064
40
0.342303737091312
40
0.355307963159512
40
0.368421600096714
40
0.381644623829491
40
0.394977013426607
40
0.408418751504613
40
0.421969824657183
40
0.435630223909185
40
0.449399945757574
40
0.463278991193763
40
0.477267359257126
40
0.491365045739633
40
0.505572043000449
40
0.519888339781413
40
0.53431392102392
40
0.548848767687627
40
0.563492856571424
40
0.578246160137104
40
0.593108646336258
40
0.608080278440943
40
0.623161014878497
40
0.638350809071228
40
0.653649609281385
40
0.669057358462104
40
0.684573994114841
40
0.70019944815399
40
0.715933646779295
40
0.731776510356689
40
0.747727953308354
40
0.763787884012577
40
0.779956204714274
40
0.796232811446827
40
0.81261759396613
40
0.829110435697538
40
0.845711214888099
40
0.86241991455037
40
0.879236717550664
40
0.896161834941706
40
0.913195485824343
40
0.93033789754279
40
0.947589305890297
40
0.964949955325564
40
0.982420099200546
40
1
40
1
40
1
40
1
41
1
10
37.0551108779748
20
7.71326385200254
30
0
41
1
10
37.0631985778527
20
7.71853635754385
30
0
41
1
10
37.2902833726919
20
7.86630220427813
30
0
41
1
10
37.7688009853048
20
8.16141073178702
30
0
41
1
10
38.2591781694757
20
8.4265076376463
30
0
41
1
10
38.5508219748099
20
8.57014465685194
30
0
41
1
10
38.61121001137
20
8.59945735557329
30
0
41
1
10
38.6721170851443
20
8.62858187142396
30
0
41
1
10
38.7335435038929
20
8.65750415156234
30
0
41
1
10
38.7954894570438
20
8.68620957658894
30
0
41
1
10
38.8579551771579
20
8.71468336202571
30
0
41
1
10
38.9209408963526
20
8.74291044497357
30
0
41
1
10
38.9844468582612
20
8.77087551183971
30
0
41
1
10
39.0484733153279
20
8.79856298247049
30
0
41
1
10
39.1130205294462
20
8.82595702641376
30
0
41
1
10
39.1780887753419
20
8.85304149411695
30
0
41
1
10
39.2436778292953
20
8.87980338476865
30
0
41
1
10
39.3097874631066
20
8.90622964625709
30
0
41
1
10
39.3764174376206
20
8.93230710139486
30
0
41
1
10
39.4435674992301
20
8.95802246559461
30
0
41
1
10
39.5112373799884
20
8.98336234163992
30
0
41
1
10
39.5794267972144
20
9.00831322086091
30
0
41
1
10
39.6481354532327
20
9.03286148257163
30
0
41
1
10
39.7173630350744
20
9.05699339397671
30
0
41
1
10
39.7871092141862
20
9.08069510994881
30
0
41
1
10
39.8573736461331
20
9.10395267283891
30
0
41
1
10
39.9281559703028
20
9.12675201227586
30
0
41
1
10
39.9994558096045
20
9.14907894496676
30
0
41
1
10
40.0712727701678
20
9.17091917449488
30
0
41
1
10
40.1436064410389
20
9.19225829111667
30
0
41
1
10
40.2164563938744
20
9.21308177155649
30
0
41
1
10
40.2898221826337
20
9.23337497880024
30
0
41
1
10
40.3637033432685
20
9.25312316188695
30
0
41
1
10
40.4380993934117
20
9.27231145569982
30
0
41
1
10
40.5130098320595
20
9.29092488075153
30
0
41
1
10
40.5884341392686
20
9.30894834298351
30
0
41
1
10
40.6643717757898
20
9.32636663350527
30
0
41
1
10
40.740822182925
20
9.34316442855089
30
0
41
1
10
40.81778478154
20
9.35932628861039
30
0
41
1
10
40.8952589742442
20
9.37483666066217
30
0
41
1
10
40.973244137505
20
9.38967986906769
30
0
41
1
10
41.0517398320877
20
9.40384018168243
30
0
41
1
10
41.130745985627
20
9.41730171697259
30
0
41
1
10
41.2102627270399
20
9.43004833276962
30
0
41
1
10
41.2902905926303
20
9.44206374287808
30
0
41
1
10
41.3708301663256
20
9.45333203611366
30
0
41
1
10
41.4518820527393
20
9.46383530432666
30
0
41
1
10
41.5334469171858
20
9.47356261170182
30
0
41
1
10
41.6155253215244
20
9.48247618601997
30
0
41
1
10
41.6981183488894
20
9.49063879765279
30
0
41
1
10
41.753349711318
20
9.49535405597129
30
0
41
1
10
41.7810518692334
20
9.49771906789221
30
0
0
SPLINE
5
167
100
AcDbEntity
8
1
62
256
6
ByLayer
370
18
48
1
60
0
100
AcDbSpline
70
4
71
3
72
9
73
5
40
0
40
0
40
0
40
0
40
0.532621309219329
40
1
40
1
40
1
40
1
41
1
10
41.7810518692334
20
9.49771906789221
30
0
41
1
10
42.1684934786227
20
9.52948030190657
30
0
41
1
10
42.8958444228962
20
9.53505954644137
30
0
41
1
10
43.6243098924769
20
9.43848018675004
30
0
41
1
10
43.9648108973667
20
9.37138156653049
30
0
0
SPLINE
5
168
100
AcDbEntity
8
1
62
256
6
ByLayer
370
13
48
1
60
0
100
AcDbSpline
70
4
71
3
72
15
73
11
40
0
40
0
40
0
40
0
40
0.0256365470347117
40
0.177215485248485
40
0.328794423462258
40
0.480373361676031
40
0.631952299889804
40
0.783531238103577
40
0.93511017631735
40
1
40
1
40
1
40
1
41
1
10
41.3063554206738
20
1.73608065232537
30
0
41
1
10
41.1609036137825
20
1.88354047076476
30
0
41
1
10
40.1554518068913
20
2.89755343931495
30
0
41
1
10
38.29
20
4.69319835772865
30
0
41
1
10
35.71
20
6.76499338127868
30
0
41
1
10
33.13
20
8.21424876883694
30
0
41
1
10
30.55
20
8.94340441235215
30
0
41
1
10
27.97
20
8.85050694737799
30
0
41
1
10
25.881840353121
20
8.14754077132429
30
0
41
1
10
24.653680706242
20
7.48436083814397
30
0
41
1
10
24.285521059363
20
7.26542263835208
30
0
0
SPLINE
5
169
100
AcDbEntity
8
1
62
256
6
ByLayer
370
13
48
1
60
0
100
AcDbSpline
70
4
71
3
72
16
73
12
40
0
40
0
40
0
40
0
40
0.0490720012527264
40
0.17278931261331
40
0.296506623973894
40
0.420223935334478
40
0.543941246695061
40
0.667658558055645
40
0.791375869416229
40
0.915093180776813
40
1
40
1
40
1
40
1
41
1
10
49.6333471923992
20
-7.65379732395408
30
0
41
1
10
49.2922314615995
20
-7.80927063502583
30
0
41
1
10
48.0911157307998
20
-8.29297383669604
30
0
41
1
10
46.03
20
-8.71359914787064
30
0
41
1
10
43.4500000000001
20
-8.45617612667488
30
0
41
1
10
40.87
20
-7.43820044144903
30
0
41
1
10
38.29
20
-5.75732893376912
30
0
41
1
10
35.71
20
-3.5518251811996
30
0
41
1
10
33.1300000000001
20
-1.03307444942439
30
0
41
1
10
30.8197845828616
20
1.30726130086825
30
0
41
1
10
29.369569165723
20
2.70902981795226
30
0
41
1
10
28.7793537485846
20
3.25642898490767
30
0
0
SPLINE
5
16A
100
AcDbEntity
8
1
62
256
6
ByLayer
370
13
48
1
60
0
100
AcDbSpline
70
4
71
3
72
15
73
11
40
0
40
0
40
0
40
0
40
0.0471998590916829
40
0.170337584682611
40
0.293475310273538
40
0.416613035864466
40
0.539750761455394
40
0.662888487046321
40
0.786026212637249
40
1
40
1
40
1
40
1
41
1
10
36.6989384903948
20
-7.61304179545041
30
0
41
1
10
36.3692923269299
20
-7.76612091246108
30
0
41
1
10
35.1796461634649
20
-8.25791826429767
30
0
41
1
10
33.13
20
-8.70578864882393
30
0
41
1
10
30.55
20
-8.4858975217991
30
0
41
1
10
27.97
20
-7.50395432141278
30
0
41
1
10
25.39
20
-5.84820930139142
30
0
41
1
10
22.81
20
-3.66728333058074
30
0
41
1
10
19.5955964266931
20
-0.538644112804803
30
0
41
1
10
17.2411928533862
20
1.87971699599174
30
0
41
1
10
15.7467892800793
20
3.26744899843041
30
0
0
SPLINE
5
16B
100
AcDbEntity
8
1
62
256
6
ByLayer
370
18
48
1
60
0
100
AcDbSpline
70
4
71
3
72
120
73
116
40
0
40
0
40
0
40
0
40
0.0170086785878125
40
0.0170086785878125
40
0.0576021554060963
40
0.0576021554060963
40
0.0778988938152378
40
0.0778988938152378
40
0.0829730784175234
40
0.0829730784175234
40
0.0880472630198089
40
0.0880472630198089
40
0.0981956322243794
40
0.0981956322243794
40
0.11849237063352
40
0.11849237063352
40
0.138789109042661
40
0.138789109042661
40
0.159085847451802
40
0.159085847451802
40
0.179382585860943
40
0.179382585860943
40
0.199679324270084
40
0.199679324270084
40
0.219976062679225
40
0.219976062679225
40
0.225050247281511
40
0.225050247281511
40
0.230124431883796
40
0.240272801088367
40
0.240272801088367
40
0.250421170292939
40
0.250421170292939
40
0.26056953949751
40
0.26056953949751
40
0.301163016315796
40
0.301163016315796
40
0.321459754724938
40
0.321459754724938
40
0.341756493134081
40
0.341756493134081
40
0.351904862338652
40
0.351904862338652
40
0.362053231543224
40
0.362053231543224
40
0.382349969952367
40
0.382349969952367
40
0.402646708361511
40
0.402646708361511
40
0.422943446770654
40
0.422943446770654
40
0.443240185179798
40
0.443240185179798
40
0.463536923588941
40
0.473685292793513
40
0.478759477395799
40
0.478759477395799
40
0.483833661998085
40
0.483833661998085
40
0.504130400407228
40
0.504130400407228
40
0.544723877225515
40
0.544723877225515
40
0.565020615634659
40
0.565020615634659
40
0.585317354043802
40
0.585317354043802
40
0.605614092452946
40
0.605614092452946
40
0.610688277055232
40
0.610688277055232
40
0.615762461657518
40
0.615762461657518
40
0.625910830862091
40
0.625910830862091
40
0.646207569271235
40
0.646207569271235
40
0.666504307680379
40
0.666504307680379
40
0.686801046089524
40
0.686801046089524
40
0.707097784498668
40
0.707097784498668
40
0.727394522907812
40
0.727394522907812
40
0.737542892112384
40
0.737542892112384
40
0.74261707671467
40
0.74261707671467
40
0.747691261316957
40
0.747691261316957
40
0.788284738135248
40
0.788284738135248
40
0.808581476544393
40
0.808581476544393
40
0.828878214953539
40
0.828878214953539
40
0.869471691771829
40
0.869471691771829
40
0.874545876374116
40
0.874545876374116
40
0.879620060976402
40
0.889768430180975
40
0.889768430180975
40
0.91006516859012
40
0.91006516859012
40
0.930361906999265
40
0.930361906999265
40
0.95065864540841
40
0.95065864540841
40
0.970955383817555
40
0.970955383817555
40
0.991252122226701
40
0.991252122226701
40
1
40
1
40
1
40
1
41
1
10
50.5635905999072
20
-7.43741808406051
30
0
41
1
10
50.3894099299666
20
-7.54009416634079
30
0
41
1
10
50.2153062015125
20
-7.63831717718702
30
0
41
1
10
49.6255300552979
20
-7.95560962173519
30
0
41
1
10
49.2096760323487
20
-8.15342951078051
30
0
41
1
10
48.5826770709622
20
-8.40879711028131
30
0
41
1
10
48.3731309864113
20
-8.48704182147088
30
0
41
1
10
48.110212020062
20
-8.575628881943
30
0
41
1
10
48.05757869587
20
-8.59288424638621
30
0
41
1
10
47.9522040774301
20
-8.62645136616101
30
0
41
1
10
47.899429625934
20
-8.64277298907507
30
0
41
1
10
47.7411644478916
20
-8.69022101413796
30
0
41
1
10
47.6359318650563
20
-8.71977381267291
30
0
41
1
10
47.3209816134565
20
-8.80208529815638
30
0
41
1
10
47.1120144117762
20
-8.8485035641086
30
0
41
1
10
46.695561074679
20
-8.92367961323561
30
0
41
1
10
46.4881023515353
20
-8.95228490709235
30
0
41
1
10
46.0736881711421
20
-8.99260923204517
30
0
41
1
10
45.8667179298828
20
-9.00436776001447
30
0
41
1
10
45.4523942423406
20
-9.01240774695648
30
0
41
1
10
45.2450443566066
20
-9.00868950415531
30
0
41
1
10
44.8292994356498
20
-8.98709057473604
30
0
41
1
10
44.6208912086168
20
-8.96937701938404
30
0
41
1
10
44.2026702446975
20
-8.91959130915382
30
0
41
1
10
43.9928691807006
20
-8.88745876548828
30
0
41
1
10
43.7294944330562
20
-8.83734801683602
30
0
41
1
10
43.6767909536381
20
-8.82683194808061
30
0
41
1
10
43.5715728826806
20
-8.80484585332485
30
0
41
1
10
43.4139228794362
20
-8.77041565035037
30
0
41
1
10
43.2567874083254
20
-8.73157169604232
30
0
41
1
10
43.0477036936579
20
-8.67572939195372
30
0
41
1
10
42.9433796912238
20
-8.64577245568447
30
0
41
1
10
42.7351094638337
20
-8.58172075249684
30
0
41
1
10
42.6311570175847
20
-8.54764762642455
30
0
41
1
10
42.1120245678445
20
-8.36741442357547
30
0
41
1
10
41.698667506799
20
-8.19170924837371
30
0
41
1
10
41.0769020537289
20
-7.88726833279446
30
0
41
1
10
40.8693596073054
20
-7.77905876235562
30
0
41
1
10
40.4532000521653
20
-7.5492379849868
30
0
41
1
10
40.2445994076947
20
-7.42755485151497
30
0
41
1
10
39.9305366553
20
-7.23450563470598
30
0
41
1
10
39.8256417998528
20
-7.16839368799862
30
0
41
1
10
39.6154371872263
20
-7.0326342789395
30
0
41
1
10
39.5105844107474
20
-6.96328235821034
30
0
41
1
10
39.1966709096325
20
-6.75087122289557
30
0
41
1
10
38.9882695534513
20
-6.60341153890795
30
0
41
1
10
38.5725075016933
20
-6.29752313063076
30
0
41
1
10
38.3651296571619
20
-6.13914437239117
30
0
41
1
10
37.9507323791373
20
-5.81221114991797
30
0
41
1
10
37.7437231915869
20
-5.64364833755104
30
0
41
1
10
37.329569574212
20
-5.29662856978487
30
0
41
1
10
37.1224334250623
20
-5.11813716356184
30
0
41
1
10
36.7074537925983
20
-4.75147286415486
30
0
41
1
10
36.3956757178932
20
-4.46926207625671
30
0
41
1
10
36.0300932169349
20
-4.12812811182235
30
0
41
1
10
35.872923307141
20
-3.97945920699968
30
0
41
1
10
35.7680233313087
20
-3.87980674554751
30
0
41
1
10
35.7155131533021
20
-3.82971010792898
30
0
41
1
10
35.4533998110527
20
-3.57863438806532
30
0
41
1
10
35.2444956727348
20
-3.37529842019478
30
0
41
1
10
34.619187618569
20
-2.75893576945842
30
0
41
1
10
34.204165136537
20
-2.33959361867582
30
0
41
1
10
33.5811126647578
20
-1.70139375182549
30
0
41
1
10
33.3733441903271
20
-1.48712926933578
30
0
41
1
10
32.9571787147885
20
-1.05593278256128
30
0
41
1
10
32.748796398388
20
-0.838974959478065
30
0
41
1
10
32.3310301400852
20
-0.402487024612753
30
0
41
1
10
32.1216476002738
20
-0.182955606195947
30
0
41
1
10
31.8589244485773
20
0.0929041774454618
30
0
41
1
10
31.8062991278436
20
0.148180048518895
30
0
41
1
10
31.701266852016
20
0.258523069404703
30
0
41
1
10
31.6488255816415
20
0.313626228498748
30
0
41
1
10
31.491714286742
20
0.478714807883477
30
0
41
1
10
31.3872626515875
20
0.588479836563039
30
0
41
1
10
31.0745987254238
20
0.916752334156428
30
0
41
1
10
30.8670493925293
20
1.13422813508322
30
0
41
1
10
30.4526491584146
20
1.56579600002621
30
0
41
1
10
30.2457955716383
20
1.77988601036398
30
0
41
1
10
29.8319730953552
20
2.20428322131079
30
0
41
1
10
29.6249999358817
20
2.41459430247662
30
0
41
1
10
29.2103386443269
20
2.83117805989801
30
0
41
1
10
29.0026826081048
20
3.03745219089225
30
0
41
1
10
28.5864360913624
20
3.44546730127965
30
0
41
1
10
28.3778475184869
20
3.64720999459178
30
0
41
1
10
28.0639490327798
20
3.94588201204468
30
0
41
1
10
27.9591453282798
20
4.04478014269088
30
0
41
1
10
27.80163234845
20
4.19205248055556
30
0
41
1
10
27.7490340412719
20
4.24100357108136
30
0
41
1
10
27.6439908366082
20
4.3382865944678
30
0
41
1
10
27.5915427706987
20
4.38662170838569
30
0
41
1
10
27.1201320596056
20
4.8188386631025
30
0
41
1
10
26.7054721316555
20
5.18318736752587
30
0
41
1
10
26.0854801906594
20
5.69802303703051
30
0
41
1
10
25.8791533898485
20
5.86434929680394
30
0
41
1
10
25.466459812737
20
6.18607350079472
30
0
41
1
10
25.2600810585852
20
6.34147684923477
30
0
41
1
10
24.6397715168651
20
6.79134566997126
30
0
41
1
10
24.2246492838841
20
7.06950727251456
30
0
41
1
10
23.7533344241321
20
7.35792325964712
30
0
41
1
10
23.7008716870412
20
7.38964987735838
30
0
41
1
10
23.5960325928107
20
7.45228020078258
30
0
41
1
10
23.4389068734108
20
7.54499092977284
30
0
41
1
10
23.2821677192717
20
7.63395014846884
30
0
41
1
10
22.9691637679564
20
7.80672016125072
30
0
41
1
10
22.7611278019062
20
7.91504122291468
30
0
41
1
10
22.3460423445919
20
8.11702971863346
30
0
41
1
10
22.1389990945384
20
8.2106972296221
30
0
41
1
10
21.7254994695045
20
8.38225076459923
30
0
41
1
10
21.5190450433306
20
8.46007576939468
30
0
41
1
10
21.1058752928427
20
8.60013169091326
30
0
41
1
10
20.8991593452933
20
8.6623684229811
30
0
41
1
10
20.4847015318525
20
8.77147828550588
30
0
41
1
10
20.2769578874016
20
8.81835279277823
30
0
41
1
10
19.9784602462045
20
8.87449076010802
30
0
41
1
10
19.8884002465677
20
8.889977939223
30
0
41
1
10
19.7981613771512
20
8.90403976499209
30
0
0
SPLINE
5
16C
100
AcDbEntity
8
1
62
256
6
ByLayer
370
18
48
1
60
0
100
AcDbSpline
70
4
71
3
72
77
73
73
40
0
40
0
40
0
40
0
40
0.0044270306498015
40
0.009235401849711
40
0.0144250828126878
40
0.0199960292974662
40
0.0259481811941611
40
0.0322814599854079
40
0.0389957661006615
40
0.0460909761845482
40
0.0535669403038543
40
0.0614234791219753
40
0.0696603810742678
40
0.0782773995830761
40
0.0872742503568788
40
0.0966506088247669
40
0.106406160373716
40
0.116540767489137
40
0.127054355418851
40
0.137946872563678
40
0.149218293397356
40
0.160868621581394
40
0.172897893304364
40
0.185306180879752
40
0.198093596641164
40
0.211260297179072
40
0.224806487968626
40
0.238732428444123
40
0.253038437581809
40
0.267724900059319
40
0.282792273066948
40
0.298241093853065
40
0.314071952983472
40
0.330285157167344
40
0.346880794147601
40
0.363858903718622
40
0.381219473541799
40
0.459051510645515
40
0.532636992273607
40
0.60195602398656
40
0.667005582523145
40
0.678932924287812
40
0.69078084990567
40
0.7025494119118
40
0.714238670361889
40
0.725848691166849
40
0.737379533910382
40
0.748831249196117
40
0.76020388130138
40
0.771497468942815
40
0.782712045985217
40
0.793847642098601
40
0.804904283365764
40
0.815881992842434
40
0.826780791072206
40
0.837600696558266
40
0.848341726193917
40
0.859003895653912
40
0.86958721974842
40
0.880091712741538
40
0.890517388636114
40
0.900864261426639
40
0.91113234532188
40
0.921321654938936
40
0.931432202684379
40
0.94146398706545
40
0.951416999592421
40
0.961291228736746
40
0.971086660403048
40
0.980803278365208
40
0.990441064668586
40
1
40
1
40
1
40
1
41
1
10
43.9648108973954
20
-1.20425952437642
30
0
41
1
10
43.9785007998159
20
-1.21934644037927
30
0
41
1
10
44.0070598408838
20
-1.25081984614064
30
0
41
1
10
44.0516627470007
20
-1.29994360407437
30
0
41
1
10
44.0998002396865
20
-1.35292888242577
30
0
41
1
10
44.1514717781104
20
-1.40976174097068
30
0
41
1
10
44.2066773074015
20
-1.47042980001669
30
0
41
1
10
44.2654165356036
20
-1.53491781018067
30
0
41
1
10
44.327689133439
20
-1.60320872169851
30
0
41
1
10
44.3934946583275
20
-1.67528309945195
30
0
41
1
10
44.4628325589989
20
-1.75111901082883
30
0
41
1
10
44.535702155486
20
-1.83069175818909
30
0
41
1
10
44.612102625207
20
-1.91397364053881
30
0
41
1
10
44.6920329868679
20
-2.00093368991099
30
0
41
1
10
44.7754920817744
20
-2.09153740069186
30
0
41
1
10
44.8624787265717
20
-2.18574661331229
30
0
41
1
10
44.9529923504902
20
-2.28351998070792
30
0
41
1
10
45.0470317902654
20
-2.38481520864283
30
0
41
1
10
45.144596601258
20
-2.4895871601139
30
0
41
1
10
45.245686545971
20
-2.59778712853085
30
0
41
1
10
45.3503014818099
20
-2.70936246494455
30
0
41
1
10
45.4584413696629
20
-2.82425634768737
30
0
41
1
10
45.5701062858687
20
-2.94240754134037
30
0
41
1
10
45.6852964337392
20
-3.06375014830482
30
0
41
1
10
45.8040121557007
20
-3.18821335202625
30
0
41
1
10
45.9262539458211
20
-3.31572115224341
30
0
41
1
10
46.052022462541
20
-3.44619209173627
30
0
41
1
10
46.1813185426205
20
-3.57953897635434
30
0
41
1
10
46.3141432122909
20
-3.71566858144885
30
0
41
1
10
46.4504977112197
20
-3.85448137140466
30
0
41
1
10
46.590383468685
20
-3.99587112859643
30
0
41
1
10
46.733802158399
20
-4.13972478493957
30
0
41
1
10
46.8807539575736
20
-4.28591994578326
30
0
41
1
10
47.0312399847717
20
-4.43432962825545
30
0
41
1
10
47.1852605151095
20
-4.584819082411
30
0
41
1
10
47.3428167472193
20
-4.73724575554348
30
0
41
1
10
47.6897558060114
20
-5.0693695815514
30
0
41
1
10
48.2118047657334
20
-5.55396883129134
30
0
41
1
10
48.8944289649425
20
-6.15193320726488
30
0
41
1
10
49.5376429176378
20
-6.68014648411165
30
0
41
1
10
49.9902586568706
20
-7.02634446531104
30
0
41
1
10
50.2650400108485
20
-7.22694374854166
30
0
41
1
10
50.3749983517647
20
-7.30601866290138
30
0
41
1
10
50.4842206020425
20
-7.38336567261328
30
0
41
1
10
50.5927071801293
20
-7.45899391068468
30
0
41
1
10
50.7004578077062
20
-7.53291193652484
30
0
41
1
10
50.8074727749318
20
-7.60513435285705
30
0
41
1
10
50.9137523784488
20
-7.67567652484129
30
0
41
1
10
51.019296893957
20
-7.74455388037944
30
0
41
1
10
51.124106587856
20
-7.81178208863116
30
0
41
1
10
51.2281817159082
20
-7.87737700561237
30
0
41
1
10
51.3315225238291
20
-7.94135468057738
30
0
41
1
10
51.4341292473617
20
-8.00373134633415
30
0
41
1
10
51.5360021124863
20
-8.06452341387401
30
0
41
1
10
51.637141335592
20
-8.12374746591047
30
0
41
1
10
51.7375471236574
20
-8.18142025076153
30
0
41
1
10
51.8372196744252
20
-8.23755867619261
30
0
41
1
10
51.936159176579
20
-8.29217980333266
30
0
41
1
10
52.0343658099139
20
-8.3453008405894
30
0
41
1
10
52.1318397455153
20
-8.39693913775102
30
0
41
1
10
52.228581145906
20
-8.44711217960284
30
0
41
1
10
52.3245901653001
20
-8.49583758153352
30
0
41
1
10
52.4198669494571
20
-8.54313307800035
30
0
41
1
10
52.5144116283862
20
-8.58901653336096
30
0
41
1
10
52.6082242670451
20
-8.6335058382308
30
0
41
1
10
52.7013048389265
20
-8.67662160995684
30
0
41
1
10
52.7936532823739
20
-8.71838514500746
30
0
41
1
10
52.8852695239609
20
-8.75881544308214
30
0
41
1
10
52.976153498963
20
-8.79793969167474
30
0
41
1
10
53.0663051192666
20
-8.83575475101733
30
0
41
1
10
53.1557243904846
20
-8.87236910862654
30
0
41
1
10
53.2150926822758
20
-8.89587261781992
30
0
41
1
10
53.244654899865
20
-8.90757610181657
30
0
0
SPLINE
5
16D
100
AcDbEntity
8
1
62
256
6
ByLayer
370
18
48
1
60
0
100
AcDbSpline
70
4
71
3
72
10
73
6
40
0
40
0
40
0
40
0
40
0.5
40
0.5
40
1
40
1
40
1
40
1
41
1
10
53.2452736361178
20
-8.90721381806912
30
0
41
1
10
53.4269187060814
20
-8.96513200664742
30
0
41
1
10
53.6143213889794
20
-9.01309524519831
30
0
41
1
10
53.9995567177376
20
-9.09279658145761
30
0
41
1
10
54.1974067436775
20
-9.12450654154009
30
0
41
1
10
54.4000605921154
20
-9.14945759636521
30
0
0
SPLINE
5
16E
100
AcDbEntity
8
1
62
256
6
ByLayer
370
18
48
1
60
0
100
AcDbSpline
70
4
71
3
72
8
73
4
40
0
40
0
40
0
40
0
40
1
40
1
40
1
40
1
41
1
10
54.2109418912785
20
-9.09503869041819
30
0
41
1
10
54.2739546938866
20
-9.11392133654056
30
0
41
1
10
54.3369943535721
20
-9.13205839718503
30
0
41
1
10
54.4000605921048
20
-9.14945759636387
30
0
0
SPLINE
5
16F
100
AcDbEntity
8
1
62
256
6
ByLayer
370
18
48
1
60
0
100
AcDbSpline
70
4
71
3
72
8
73
4
40
0
40
0
40
0
40
0
40
1
40
1
40
1
40
1
41
1
10
54.2109418912907
20
-9.09503869042211
30
0
41
1
10
54.2738826725473
20
-9.05587075353876
30
0
41
1
10
54.3394795779398
20
-9.01676060532378
30
0
41
1
10
54.4071817137569
20
-8.97769626011225
30
0
0
SPLINE
5
170
100
AcDbEntity
8
1
62
256
6
ByLayer
370
18
48
1
60
0
100
AcDbSpline
70
4
71
3
72
30
73
26
40
0
40
0
40
0
40
0
40
0.0312499999999906
40
0.0312499999999906
40
0.0624999999999812
40
0.0624999999999812
40
0.124999999999975
40
0.124999999999975
40
0.156249999999972
40
0.156249999999972
40
0.18749999999997
40
0.18749999999997
40
0.249999999999972
40
0.249999999999972
40
0.374999999999977
40
0.374999999999977
40
0.499999999999982
40
0.499999999999982
40
0.624999999999987
40
0.624999999999987
40
0.749999999999991
40
0.749999999999991
40
0.874999999999996
40
0.874999999999996
40
1
40
1
40
1
40
1
41
1
10
54.4071817137574
20
-8.97769626011211
30
0
41
1
10
54.4225020073353
20
-8.96885640255303
30
0
41
1
10
54.436363678892
20
-8.95978568065811
30
0
41
1
10
54.4623006271985
20
-8.94132297055023
30
0
41
1
10
54.4743588232235
20
-8.93192875176322
30
0
41
1
10
54.5086661446512
20
-8.90336175209762
30
0
41
1
10
54.5290877788546
20
-8.88380938397466
30
0
41
1
10
54.557678987426
20
-8.85390919474759
30
0
41
1
10
54.5668534383418
20
-8.84384525980414
30
0
41
1
10
54.5846370465207
20
-8.82353937944501
30
0
41
1
10
54.593247962816
20
-8.81329338546277
30
0
41
1
10
54.6182696128309
20
-8.7824569609937
30
0
41
1
10
54.6339297185014
20
-8.76171274137377
30
0
41
1
10
54.6788208664611
20
-8.69890089227499
30
0
41
1
10
54.7060080483022
20
-8.65625316977034
30
0
41
1
10
54.7573107215393
20
-8.56935787100016
30
0
41
1
10
54.781378670849
20
-8.5251111940793
30
0
41
1
10
54.8274115776411
20
-8.43499130052427
30
0
41
1
10
54.8493624205543
20
-8.38911839175586
30
0
41
1
10
54.89168441226
20
-8.29572660944882
30
0
41
1
10
54.9120501668589
20
-8.24820787007204
30
0
41
1
10
54.9515039423387
20
-8.1515068189205
30
0
41
1
10
54.9705972259542
20
-8.10230307647049
30
0
41
1
10
55.0076378220954
20
-8.00234914577641
30
0
41
1
10
55.0255859942296
20
-7.95159633478758
30
0
41
1
10
55.0430220015457
20
-7.90006138410359
30
0
0
SPLINE
5
171
100
AcDbEntity
8
1
62
256
6
ByLayer
370
18
48
1
60
0
100
AcDbSpline
70
4
71
3
72
17
73
13
40
0
40
0
40
0
40
0
40
0.234156526288279
40
0.234156526288279
40
0.489437684192186
40
0.489437684192186
40
0.744718842096094
40
0.744718842096094
40
0.872359421048051
40
0.936179710524025
40
0.936179710524025
40
1
40
1
40
1
40
1
41
1
10
23.6241836127303
20
7.4409304308341
30
0
41
1
10
23.8398740821486
20
7.59062643359923
30
0
41
1
10
24.0551823203529
20
7.73300881667512
30
0
41
1
10
24.5051258602989
20
8.01502179482318
30
0
41
1
10
24.7397509416945
20
8.15325399969117
30
0
41
1
10
25.2097110542871
20
8.41141820604471
30
0
41
1
10
25.4450382231131
20
8.53135610674465
30
0
41
1
10
25.7991962986078
20
8.69687179091545
30
0
41
1
10
25.9765721658406
20
8.77602091194012
30
0
41
1
10
26.1545216799288
20
8.84967721923474
30
0
41
1
10
26.2732969814716
20
8.89755067510706
30
0
41
1
10
26.3328045033406
20
8.92089043802991
30
0
41
1
10
26.3922645944142
20
8.94356175929977
30
0
0
SPLINE
5
172
100
AcDbEntity
8
1
62
256
6
ByLayer
370
18
48
1
60
0
100
AcDbSpline
70
4
71
3
72
9
73
5
40
0
40
0
40
0
40
0
40
0.559575275393852
40
1
40
1
40
1
40
1
41
1
10
26.3922645944142
20
8.9435617592998
30
0
41
1
10
26.8025770113544
20
9.09974826498421
30
0
41
1
10
27.5358450756154
20
9.32378347538904
30
0
41
1
10
28.2701867190661
20
9.44702414415977
30
0
41
1
10
28.5936403618337
20
9.48127236263861
30
0
0
SPLINE
5
173
100
AcDbEntity
8
1
62
256
6
ByLayer
370
18
48
1
60
0
100
AcDbSpline
70
4
71
3
72
146
73
142
40
0
40
0
40
0
40
0
40
0.0033162675605079
40
0.0066940209749972
40
0.0101332435139841
40
0.0136339167339305
40
0.0171960204194011
40
0.0208195325270097
40
0.0245044291314506
40
0.0282506843739017
40
0.0320582704131636
40
0.0359271573798823
40
0.0398573133342021
40
0.0438487042272844
40
0.0479012938670724
40
0.0520150438887683
40
0.056189913730481
40
0.0604258606145197
40
0.0647228395348845
40
0.0690808032514486
40
0.0734997028218439
40
0.0779795091324483
40
0.0825202220918996
40
0.0871218450513859
40
0.091784382918545
40
0.0965078422193024
40
0.101292231162356
40
0.106137559706569
40
0.111043839631492
40
0.116011084611294
40
0.121039310292385
40
0.126128534375005
40
0.131278776699117
40
0.136490059334897
40
0.141762406678176
40
0.147095845551204
40
0.152490405309076
40
0.157946117952246
40
0.163463018245508
40
0.169041143843885
40
0.174680535425858
40
0.18038123683442
40
0.186143295226384
40
0.191966761230503
40
0.197851689114884
40
0.203798136964229
40
0.209806166867477
40
0.215875845116407
40
0.222007236286145
40
0.228200366386895
40
0.234455242830264
40
0.240771870433752
40
0.247150251334218
40
0.253590384854092
40
0.26009226737323
40
0.26665589220727
40
0.273281249493349
40
0.279968326084083
40
0.286717105450803
40
0.293527567596988
40
0.300399688982981
40
0.307333442463027
40
0.314328797235801
40
0.321385718809568
40
0.328504168983203
40
0.335684105844353
40
0.342925483786055
40
0.350228253543174
40
0.357592362250115
40
0.36501775368322
40
0.372504375567084
40
0.380052184357573
40
0.387661137801399
40
0.395331194713398
40
0.403062315443703
40
0.410854462385781
40
0.418707600527362
40
0.426621698046358
40
0.434596726953872
40
0.442632663786518
40
0.450729490350283
40
0.458887194518254
40
0.467105771084529
40
0.475385222676746
40
0.483725560729652
40
0.492126806522221
40
0.50058899228082
40
0.505823493050016
40
0.518481534475777
40
0.538562709857219
40
0.566068957152805
40
0.601006655129124
40
0.643387307522934
40
0.693222525467555
40
0.750497931215746
40
0.755041619364654
40
0.759624557492015
40
0.764246734381368
40
0.768908139554475
40
0.77360876339298
40
0.77834859726769
40
0.78312763367574
40
0.787945866385975
40
0.792803290592858
40
0.797699903079225
40
0.802635702589398
40
0.807610689478755
40
0.81262486340295
40
0.817678222853609
40
0.822770765091847
40
0.82790248608214
40
0.833073380426688
40
0.83828344130042
40
0.843532660386825
40
0.848821027814747
40
0.854148532096337
40
0.859515160066346
40
0.864920896822928
40
0.870365725670162
40
0.875849628062492
40
0.881372583551292
40
0.886934569733766
40
0.892535562204418
40
0.898175534509316
40
0.903854458103381
40
0.909572302310979
40
0.915329034290025
40
0.921124618999902
40
0.926959019173458
40
0.932832195293347
40
0.938744105573028
40
0.944694706369778
40
0.950683991594393
40
0.956712026795871
40
0.962778887626719
40
0.968884652624312
40
0.97502940328089
40
0.981213224117274
40
0.987436202760444
40
0.993698430025194
40
1
40
1
40
1
40
1
41
1
10
28.5936403618337
20
9.48127236263861
30
0
41
1
10
28.6082144561577
20
9.48278695862663
30
0
41
1
10
28.6376328584175
20
9.48584423224145
30
0
41
1
10
28.6821646340538
20
9.49015595482609
30
0
41
1
10
28.7275062082641
20
9.49430485866327
30
0
41
1
10
28.773657389669
20
9.49825360546845
30
0
41
1
10
28.820618090781
20
9.5019938406239
30
0
41
1
10
28.8683881800614
20
9.50550886893564
30
0
41
1
10
28.9169675219521
20
9.50878392375509
30
0
41
1
10
28.966355965174
20
9.51180334055894
30
0
41
1
10
29.0165533452416
20
9.51455133209646
30
0
41
1
10
29.0675594830583
20
9.51701177343469
30
0
41
1
10
29.1193741845771
20
9.51916825902714
30
0
41
1
10
29.1719972401544
20
9.52100408504816
30
0
41
1
10
29.2254284239916
20
9.52250225216557
30
0
41
1
10
29.2796674934764
20
9.52364546285318
30
0
41
1
10
29.3347141887938
20
9.52441611947535
30
0
41
1
10
29.3905682314797
20
9.52479632477468
30
0
41
1
10
29.4472293269602
20
9.52476787156871
30
0
41
1
10
29.5046971541852
20
9.52431227386407
30
0
41
1
10
29.5629715079021
20
9.52341063820924
30
0
41
1
10
29.6220522387287
20
9.52204419038793
30
0
41
1
10
29.6819391666261
20
9.5201946025208
30
0
41
1
10
29.7426322973851
20
9.51784318528374
30
0
41
1
10
29.8041316410223
20
9.51497105428314
30
0
41
1
10
29.8664372201766
20
9.51155908632856
30
0
41
1
10
29.9295490659235
20
9.50758793261136
30
0
41
1
10
29.9934672193756
20
9.50303801629093
30
0
41
1
10
30.0581917317059
20
9.49788953435908
30
0
41
1
10
30.123722664608
20
9.49212245835241
30
0
41
1
10
30.190060090644
20
9.48571653539679
30
0
41
1
10
30.2572040936274
20
9.47865128917826
30
0
41
1
10
30.3251547690039
20
9.47090602095147
30
0
41
1
10
30.3939122242375
20
9.46245981055534
30
0
41
1
10
30.4634765792014
20
9.45329151744423
30
0
41
1
10
30.5338479665737
20
9.4433797817326
30
0
41
1
10
30.6050265322371
20
9.43270302525386
30
0
41
1
10
30.6770124356845
20
9.42123945263316
30
0
41
1
10
30.7498058504272
20
9.40896705237392
30
0
41
1
10
30.8234069644095
20
9.3958635979611
30
0
41
1
10
30.8978159804267
20
9.38190664896828
30
0
41
1
10
30.9730331165518
20
9.36707355221998
30
0
41
1
10
31.0490586065445
20
9.35134144281335
30
0
41
1
10
31.1258927003596
20
9.3346872457422
30
0
41
1
10
31.2035356642915
20
9.31708767530804
30
0
41
1
10
31.2819877825253
20
9.29851924299081
30
0
41
1
10
31.3612493533745
20
9.27895823332233
30
0
41
1
10
31.4413206787293
20
9.25838080803473
30
0
41
1
10
31.5222018141094
20
9.23676269578141
30
0
41
1
10
31.603892964126
20
9.21408232575956
30
0
41
1
10
31.6863941789648
20
9.19031867023756
30
0
41
1
10
31.7697054117054
20
9.16545058712634
30
0
41
1
10
31.8538266166577
20
9.13945697361552
30
0
41
1
10
31.9387577420807
20
9.11231672697781
30
0
41
1
10
32.024498732086
20
9.08400876311197
30
0
41
1
10
32.1110495259805
20
9.0545120194775
30
0
41
1
10
32.198410058304
20
9.02380546234795
30
0
41
1
10
32.286580258678
20
8.99186809296461
30
0
41
1
10
32.3755600517048
20
8.95867895406431
30
0
41
1
10
32.4653493568518
20
8.92421713637989
30
0
41
1
10
32.5559480883398
20
8.88846178522164
30
0
41
1
10
32.6473561550289
20
8.85139210711745
30
0
41
1
10
32.7395734603049
20
8.81298737648598
30
0
41
1
10
32.832599901965
20
8.77322694247295
30
0
41
1
10
32.9264353721021
20
8.73209023544717
30
0
41
1
10
33.0210797569921
20
8.68955677506369
30
0
41
1
10
33.1165329369692
20
8.64560617268077
30
0
41
1
10
33.2127947863438
20
8.6002181553983
30
0
41
1
10
33.3098651738675
20
8.55337250831101
30
0
41
1
10
33.4077439954665
20
8.50504930914926
30
0
41
1
10
33.5064312247554
20
8.45522787900052
30
0
41
1
10
33.6059268968221
20
8.40388618708897
30
0
41
1
10
33.7062310912027
20
8.351002475607
30
0
41
1
10
33.8073438948209
20
8.29655496004145
30
0
41
1
10
33.9092653991815
20
8.24052192368259
30
0
41
1
10
34.011995700488
20
8.18288169928175
30
0
41
1
10
34.1155348996661
20
8.12361268095441
30
0
41
1
10
34.2198831027031
20
8.06269332803242
30
0
41
1
10
34.3250404198102
20
8.0001021707956
30
0
41
1
10
34.431006969026
20
7.93581781710759
30
0
41
1
10
34.5377828630577
20
7.869818953736
30
0
41
1
10
34.645368259392
20
7.80208436852155
30
0
41
1
10
34.7537631716155
20
7.73259289391248
30
0
41
1
10
34.8629681819095
20
7.66132364751428
30
0
41
1
10
34.9729817528639
20
7.58825515201858
30
0
41
1
10
35.0838103711295
20
7.51336868380156
30
0
41
1
10
35.1809706426914
20
7.44657593065216
30
0
41
1
10
35.2969113721281
20
7.36584918774372
30
0
41
1
10
35.4639798595274
20
7.24749375397346
30
0
41
1
10
35.72905579828
20
7.05392942216719
30
0
41
1
10
36.0921444471917
20
6.77765193038897
30
0
41
1
10
36.5532238928188
20
6.4090934031266
30
0
41
1
10
37.1122288866169
20
5.93727385232773
30
0
41
1
10
37.7688009853251
20
5.35083820715303
30
0
41
1
10
38.2591781694002
20
4.88772998751492
30
0
41
1
10
38.5508219746773
20
4.60481727345169
30
0
41
1
10
38.6112100112339
20
4.54600789611405
30
0
41
1
10
38.6721170850048
20
4.48646362363331
30
0
41
1
10
38.7335435037502
20
4.42618099715838
30
0
41
1
10
38.795489456898
20
4.36515706203971
30
0
41
1
10
38.8579551770093
20
4.30338884565856
30
0
41
1
10
38.9209408962012
20
4.24087350290495
30
0
41
1
10
38.9844468581071
20
4.17760828083829
30
0
41
1
10
39.0484733151715
20
4.11359053120376
30
0
41
1
10
39.1130205292876
20
4.04881771378945
30
0
41
1
10
39.1780887751811
20
3.98328738671452
30
0
41
1
10
39.2436778291326
20
3.91699828683284
30
0
41
1
10
39.3097874629421
20
3.84994931649686
30
0
41
1
10
39.3764174374545
20
3.78213954307563
30
0
41
1
10
39.4435674990625
20
3.7135682093822
30
0
41
1
10
39.5112373798195
20
3.64423473675612
30
0
41
1
10
39.5794267970443
20
3.57413872970403
30
0
41
1
10
39.6481354530617
20
3.50327998016021
30
0
41
1
10
39.7173630349026
20
3.43165847189397
30
0
41
1
10
39.7871092140137
20
3.35927438491998
30
0
41
1
10
39.8573736459601
20
3.28612809995104
30
0
41
1
10
39.9281559701294
20
3.2122202028828
30
0
41
1
10
39.9994558094309
20
3.13755148931276
30
0
41
1
10
40.0712727699942
20
3.06212296909348
30
0
41
1
10
40.1436064408653
20
2.98593587091955
30
0
41
1
10
40.2164563937012
20
2.90899164694906
30
0
41
1
10
40.289822182461
20
2.83129197745862
30
0
41
1
10
40.3637033430964
20
2.75283877553287
30
0
41
1
10
40.4380993932404
20
2.67363419178881
30
0
41
1
10
40.5130098318891
20
2.59368061912983
30
0
41
1
10
40.5884341390992
20
2.51298069755165
30
0
41
1
10
40.6643717756217
20
2.43153731891584
30
0
41
1
10
40.7408221827583
20
2.34935363200751
30
0
41
1
10
40.817784781375
20
2.2664330466861
30
0
41
1
10
40.8952589740807
20
2.18277924161777
30
0
41
1
10
40.9732441373436
20
2.09839615663893
30
0
41
1
10
41.0517398319282
20
2.01328784759636
30
0
41
1
10
41.1307459854698
20
1.92745797707408
30
0
41
1
10
41.2102627268849
20
1.84090954310994
30
0
41
1
10
41.2902905924779
20
1.75364542460875
30
0
41
1
10
41.370830166176
20
1.66566872811592
30
0
41
1
10
41.4518820525924
20
1.57698253282007
30
0
41
1
10
41.533446917042
20
1.48759106480713
30
0
41
1
10
41.6155253213836
20
1.39749527377694
30
0
41
1
10
41.698118348752
20
1.30670952106743
30
0
41
1
10
41.7533497111829
20
1.24589308184966
30
0
41
1
10
41.7810518690994
20
1.21538964088813
30
0
0
SPLINE
5
174
100
AcDbEntity
8
1
62
256
6
ByLayer
370
18
48
1
60
0
100
AcDbSpline
70
4
71
3
72
9
73
5
40
0
40
0
40
0
40
0
40
0.532621309241038
40
1
40
1
40
1
40
1
41
1
10
41.7810518690994
20
1.21538964088813
30
0
41
1
10
42.1684934785334
20
0.789131148977759
30
0
41
1
10
42.895844422861
20
-0.0182971147255273
30
0
41
1
10
43.624309892496
20
-0.828424495963134
30
0
41
1
10
43.9648108973953
20
-1.20425952437637
30
0
0
SPLINE
5
175
100
AcDbEntity
8
1
62
256
6
ByLayer
370
18
48
1
60
0
100
AcDbSpline
70
4
71
3
72
10
73
6
40
0
40
0
40
0
40
0
40
0.5
40
0.5
40
1
40
1
40
1
40
1
41
1
10
53.2452736361262
20
8.9072138180714
30
0
41
1
10
53.4269187060888
20
8.96513200664899
30
0
41
1
10
53.6143213889856
20
9.01309524519934
30
0
41
1
10
53.9995567177413
20
9.09279658145778
30
0
41
1
10
54.19740674368
20
9.12450654154
30
0
41
1
10
54.4000605921164
20
9.14945759636493
30
0
0
SPLINE
5
176
100
AcDbEntity
8
1
62
256
6
ByLayer
370
18
48
1
60
0
100
AcDbSpline
70
4
71
3
72
90
73
86
40
0
40
0
40
0
40
0
40
0.0062464631655552
40
0.0062464631655552
40
0.0346394213608228
40
0.0488359004584567
40
0.055934140007274
40
0.055934140007274
40
0.0630323795560913
40
0.0630323795560913
40
0.0914253377513606
40
0.0914253377513606
40
0.1482112541419
40
0.1482112541419
40
0.176604212337168
40
0.176604212337168
40
0.204997170532437
40
0.204997170532437
40
0.233390128727706
40
0.233390128727706
40
0.240488368276524
40
0.240488368276524
40
0.247586607825341
40
0.247586607825341
40
0.261783086922976
40
0.261783086922976
40
0.290176045118245
40
0.290176045118245
40
0.318569003313514
40
0.318569003313514
40
0.346961961508783
40
0.346961961508783
40
0.375354919704052
40
0.375354919704052
40
0.403747877899321
40
0.403747877899321
40
0.417944356996955
40
0.417944356996955
40
0.425042596545772
40
0.425042596545772
40
0.432140836094589
40
0.432140836094589
40
0.488926752485133
40
0.488926752485133
40
0.517319710680404
40
0.517319710680404
40
0.545712668875675
40
0.545712668875675
40
0.602498585266218
40
0.602498585266218
40
0.609596824815035
40
0.609596824815035
40
0.616695064363853
40
0.630891543461488
40
0.630891543461488
40
0.659284501656758
40
0.659284501656758
40
0.687677459852029
40
0.687677459852029
40
0.716070418047299
40
0.716070418047299
40
0.74446337624257
40
0.74446337624257
40
0.77285633443784
40
0.77285633443784
40
0.787052813535475
40
0.787052813535475
40
0.801249292633111
40
0.801249292633111
40
0.82964225082838
40
0.85803520902365
40
0.85803520902365
40
0.88642816721892
40
0.88642816721892
40
0.914821125414189
40
0.914821125414189
40
0.943214083609459
40
0.943214083609459
40
0.957410562707094
40
0.957410562707094
40
0.964508802255911
40
0.964508802255911
40
0.971607041804729
40
0.971607041804729
40
1
40
1
40
1
40
1
41
1
10
37.0518384603015
20
-7.7215110540389
30
0
41
1
10
37.0062217070134
20
-7.74617545451221
30
0
41
1
10
36.9605909697385
20
-7.77051126877299
30
0
41
1
10
36.707453273879
20
-7.90362620234089
30
0
41
1
10
36.3956751489946
20
-8.05706361335996
30
0
41
1
10
36.0300925648247
20
-8.21776354101442
30
0
41
1
10
35.8729226139119
20
-8.28266491290893
30
0
41
1
10
35.7680226094331
20
-8.32504510577971
30
0
41
1
10
35.7155124450624
20
-8.34579063900995
30
0
41
1
10
35.4533991684697
20
-8.44700091875612
30
0
41
1
10
35.2444950733
20
-8.52016937295878
30
0
41
1
10
34.6191871203968
20
-8.71692495158155
30
0
41
1
10
34.2041646681467
20
-8.8178397319069
30
0
41
1
10
33.5811121861841
20
-8.92502034565948
30
0
41
1
10
33.3733436992694
20
-8.95339105636606
30
0
41
1
10
32.9571781812328
20
-8.99518127442471
30
0
41
1
10
32.748795834824
20
-9.0085481696494
30
0
41
1
10
32.3310294992579
20
-9.01911044992701
30
0
41
1
10
32.1216469121946
20
-9.01630609451857
30
0
41
1
10
31.8589236896054
20
-9.00179673204227
30
0
41
1
10
31.8062983723074
20
-8.99834080503348
30
0
41
1
10
31.7012661319029
20
-8.99032942217485
30
0
41
1
10
31.6488248786533
20
-8.98577270095831
30
0
41
1
10
31.4917136333681
20
-8.97043523410755
30
0
41
1
10
31.3872620289339
20
-8.95796648335434
30
0
41
1
10
31.0745981877442
20
-8.91397087859809
30
0
41
1
10
30.8670489021836
20
-8.87592786228822
30
0
41
1
10
30.4526487457374
20
-8.78416064267523
30
0
41
1
10
30.2457951892749
20
-8.73043891122552
30
0
41
1
10
29.8319727562923
20
-8.60891997866764
30
0
41
1
10
29.6249996097795
20
-8.54115413678545
30
0
41
1
10
29.2103383270413
20
-8.39287805677333
30
0
41
1
10
29.0026822865714
20
-8.31224964976502
30
0
41
1
10
28.5864357431105
20
-8.13719560788044
30
0
41
1
10
28.3778471477804
20
-8.04276919643536
30
0
41
1
10
28.0639486145431
20
-7.88991437108746
30
0
41
1
10
27.9591448918923
20
-7.83709128638677
30
0
41
1
10
27.8016318813796
20
-7.75491622806928
30
0
41
1
10
27.7490335647817
20
-7.72701081832756
30
0
41
1
10
27.6439903946619
20
-7.67033877905513
30
0
41
1
10
27.5915423454452
20
-7.64156976726736
30
0
41
1
10
27.1201317794325
20
-7.37876494968697
30
0
41
1
10
26.7054719453346
20
-7.11768024889423
30
0
41
1
10
26.0854801023643
20
-6.68934662748691
30
0
41
1
10
25.8791533268752
20
-6.54044026640912
30
0
41
1
10
25.4664597847179
20
-6.23101786807354
30
0
41
1
10
25.2600810401553
20
-6.07052484618967
30
0
41
1
10
24.6397715011923
20
-5.57328893092816
30
0
41
1
10
24.2246492348014
20
-5.22085522461319
30
0
41
1
10
23.7533342964858
20
-4.80438836523192
30
0
41
1
10
23.7008715498311
20
-4.75780396176151
30
0
41
1
10
23.5960324840841
20
-4.66425708777828
30
0
41
1
10
23.438906805541
20
-4.52337375839349
30
0
41
1
10
23.2821676867415
20
-4.38079768044227
30
0
41
1
10
22.96916379907
20
-4.09338043741502
30
0
41
1
10
22.7611278661422
20
-3.89874987673605
30
0
41
1
10
22.3460424580777
20
-3.50341725640436
30
0
41
1
10
22.1389992240775
20
-3.30270877929164
30
0
41
1
10
21.7254996136804
20
-2.89524399489784
30
0
41
1
10
21.5190451860482
20
-2.68846463432365
30
0
41
1
10
21.1058754156548
20
-2.2697980281975
30
0
41
1
10
20.8991594496581
20
-2.05791343143935
30
0
41
1
10
20.4847015815728
20
-1.62990571493665
30
0
41
1
10
20.2769579008941
20
-1.4137849063535
30
0
41
1
10
19.9640670450211
20
-1.08696636746913
30
0
41
1
10
19.8595598515514
20
-0.977584531654657
30
0
41
1
10
19.6500542445375
20
-0.758004433208072
30
0
41
1
10
19.5454331353214
20
-0.648201652639727
30
0
41
1
10
19.2321776294837
20
-0.319197265299579
30
0
41
1
10
18.8158343018592
20
0.11869586689366
30
0
41
1
10
18.4009971002349
20
0.554054443290426
30
0
41
1
10
17.9863863246909
20
0.987687362606465
30
0
41
1
10
17.7791858292082
20
1.20364133646419
30
0
41
1
10
17.3646337958034
20
1.63340234307816
30
0
41
1
10
17.1572871478758
20
1.84721163792909
30
0
41
1
10
16.7420236456184
20
2.27215333672859
30
0
41
1
10
16.5341076989322
20
2.4832866415058
30
0
41
1
10
16.221394558716
20
2.79746862415109
30
0
41
1
10
16.1170169059942
20
2.9017743769748
30
0
41
1
10
15.960173357817
20
3.05752819665335
30
0
41
1
10
15.9078455371973
20
3.10932884355725
30
0
41
1
10
15.8030839083374
20
3.21268478726725
30
0
41
1
10
15.7506538500794
20
3.26423615540665
30
0
41
1
10
15.4887121874548
20
3.52086266115512
30
0
41
1
10
15.279413917115
20
3.72294246932145
30
0
41
1
10
15.0700000000001
20
3.92165430553843
30
0
0
SPLINE
5
177
100
AcDbEntity
8
1
62
256
6
ByLayer
370
18
48
1
60
0
100
AcDbSpline
70
4
71
3
72
10
73
6
40
0
40
0
40
0
40
0
40
0.5
40
0.5
40
1
40
1
40
1
40
1
41
1
10
13.5493766222577
20
5.32538737801642
30
0
41
1
10
13.8005732342589
20
5.10394101557233
30
0
41
1
10
14.0518362347335
20
4.87540911692179
30
0
41
1
10
14.5575210687744
20
4.40672953062801
30
0
41
1
10
14.8119403653924
20
4.16652557056943
30
0
41
1
10
15.07
20
3.92165430553845
30
0
0
SPLINE
5
178
100
AcDbEntity
8
1
62
256
6
ByLayer
370
13
48
1
60
0
100
AcDbSpline
70
4
71
3
72
8
73
4
40
0
40
0
40
0
40
0
40
1
40
1
40
1
40
1
41
1
10
13.399762262032
20
5.25164422316385
30
0
41
1
10
13.4494193525036
20
5.27662435352013
30
0
41
1
10
13.4992895546675
20
5.30120011902801
30
0
41
1
10
13.5493766380051
20
5.32538738694163
30
0
0
SPLINE
5
179
100
AcDbEntity
8
1
62
256
6
ByLayer
370
18
48
1
60
0
100
AcDbSpline
70
4
71
3
72
8
73
4
40
0
40
0
40
0
40
0
40
1
40
1
40
1
40
1
41
1
10
13.3997622620321
20
5.25164422316376
30
0
41
1
10
13.5033546373112
20
5.16112110755751
30
0
41
1
10
13.6071814690301
20
5.06944580435862
30
0
41
1
10
13.7113774815426
20
4.97672833556052
30
0
0
SPLINE
5
17A
100
AcDbEntity
8
1
62
256
6
ByLayer
370
18
48
1
60
0
100
AcDbSpline
70
4
71
3
72
28
73
24
40
0
40
0
40
0
40
0
40
0.0312500000000008
40
0.0312500000000008
40
0.0625000000000017
40
0.0625000000000017
40
0.125000000000003
40
0.125000000000003
40
0.187500000000005
40
0.187500000000005
40
0.250000000000007
40
0.250000000000007
40
0.312500000000009
40
0.312500000000009
40
0.375000000000011
40
0.375000000000011
40
0.500000000000009
40
0.500000000000009
40
0.625000000000008
40
0.625000000000008
40
0.750000000000006
40
0.750000000000006
40
1
40
1
40
1
40
1
41
1
10
13.7113774815425
20
4.97672833556533
30
0
41
1
10
13.7331928039417
20
4.95731625419012
30
0
41
1
10
13.7536080514018
20
4.93742276342164
30
0
41
1
10
13.7924622385215
20
4.89690993550559
30
0
41
1
10
13.8108929615046
20
4.87628817396359
30
0
41
1
10
13.8639270236229
20
4.8135347613418
30
0
41
1
10
13.8963087875588
20
4.77052544453827
30
0
41
1
10
13.9572441815656
20
4.68275290919541
30
0
41
1
10
13.9857673571495
20
4.63798083837909
30
0
41
1
10
14.0400332762481
20
4.54696856426338
30
0
41
1
10
14.0657654194166
20
4.50072531399169
30
0
41
1
10
14.1150923661648
20
4.40694229158836
30
0
41
1
10
14.1386826375407
20
4.35940123166512
30
0
41
1
10
14.1841517524019
20
4.26313346884075
30
0
41
1
10
14.2060520655245
20
4.2143484135463
30
0
41
1
10
14.2693792410005
20
4.06693637316795
30
0
41
1
10
14.3085186029972
20
3.96715751083903
30
0
41
1
10
14.3824455079023
20
3.76480023727459
30
0
41
1
10
14.4172144943604
20
3.66221978467794
30
0
41
1
10
14.4834231301432
20
3.45437561401985
30
0
41
1
10
14.5148551239062
20
3.34911107829461
30
0
41
1
10
14.6051604827753
20
3.02939852581954
30
0
41
1
10
14.660095778394
20
2.81104162735821
30
0
41
1
10
14.7113774815432
20
2.5875881672269
30
0
0
SPLINE
5
17B
100
AcDbEntity
8
1
62
256
6
ByLayer
370
18
48
1
60
0
100
AcDbSpline
70
4
71
3
72
9
73
5
40
0
40
0
40
0
40
0
40
0.5
40
1
40
1
40
1
40
1
41
1
10
14.7113774815425
20
2.58758816722701
30
0
41
1
10
14.7715797393031
20
2.32526453173543
30
0
41
1
10
14.8913883588466
20
1.79246452997577
30
0
41
1
10
15.0104930033569
20
1.24372115272692
30
0
41
1
10
15.07
20
0.965362822818463
30
0
0
SPLINE
5
17C
100
AcDbEntity
8
1
62
256
6
ByLayer
370
18
48
1
60
0
100
AcDbSpline
70
4
71
3
72
8
73
4
40
0
40
0
40
0
40
0
40
1
40
1
40
1
40
1
41
1
10
15.07
20
0.965362822803968
30
0
41
1
10
15.07
20
0.963196882890287
30
0
41
1
10
15.07
20
0.961030650937943
30
0
41
1
10
15.07
20
0.958864126875028
30
0
0
SPLINE
5
17D
100
AcDbEntity
8
1
62
256
6
ByLayer
370
18
48
1
60
0
100
AcDbSpline
70
4
71
3
72
8
73
4
40
0
40
0
40
0
40
0
40
1
40
1
40
1
40
1
41
1
10
55.3250976900765
20
-7.59519551548266
30
0
41
1
10
55.2377039088256
20
-7.71215017118013
30
0
41
1
10
55.143583788164
20
-7.81352800622355
30
0
41
1
10
55.0430220015457
20
-7.90006138410357
30
0
0
SPLINE
5
17E
100
AcDbEntity
8
1
62
256
6
ByLayer
370
13
48
1
60
0
100
AcDbSpline
70
4
71
3
72
12
73
8
40
0
40
0
40
0
40
0
40
0.327499722223847
40
0.531835712970873
40
0.736171703717899
40
0.940507694464925
40
1
40
1
40
1
40
1
41
1
10
55.3250976900765
20
-7.59519551548266
30
0
41
1
10
53.9467317933844
20
-6.94808320517203
30
0
41
1
10
51.7083658966922
20
-5.40898936003401
30
0
41
1
10
48.61
20
-2.58234177177758
30
0
41
1
10
46.03
20
0.0033897861091816
30
0
41
1
10
44.0596114973525
20
1.97744488777218
30
0
41
1
10
42.9492229947049
20
3.02513778330353
30
0
41
1
10
42.6988344920573
20
3.25724321736445
30
0
0
SPLINE
5
17F
100
AcDbEntity
8
1
62
256
6
ByLayer
370
18
48
1
60
0
100
AcDbSpline
70
4
71
3
72
85
73
81
40
0
40
0
40
0
40
0
40
0.0293194950704818
40
0.0293194950704818
40
0.0586389901409636
40
0.0879584852114455
40
0.117277980281927
40
0.117277980281927
40
0.131937727817168
40
0.131937727817168
40
0.139267601584789
40
0.139267601584789
40
0.146597475352409
40
0.146597475352409
40
0.175916970422892
40
0.175916970422892
40
0.205236465493375
40
0.205236465493375
40
0.234555960563858
40
0.234555960563858
40
0.293194950704824
40
0.293194950704824
40
0.322514445775307
40
0.322514445775307
40
0.329844319542928
40
0.329844319542928
40
0.33717419331055
40
0.33717419331055
40
0.351833940845792
40
0.351833940845792
40
0.381153435916277
40
0.381153435916277
40
0.410472930986761
40
0.410472930986761
40
0.439792426057245
40
0.439792426057245
40
0.469111921127729
40
0.469111921127729
40
0.498431416198214
40
0.498431416198214
40
0.527750911268698
40
0.527750911268698
40
0.535080785036319
40
0.535080785036319
40
0.54241065880394
40
0.557070406339182
40
0.557070406339182
40
0.571730153874423
40
0.571730153874423
40
0.586389901409665
40
0.586389901409665
40
0.645028891550631
40
0.645028891550631
40
0.674348386621115
40
0.674348386621115
40
0.703667881691599
40
0.703667881691599
40
0.718327629226841
40
0.718327629226841
40
0.732987376762083
40
0.732987376762083
40
0.762306871832567
40
0.762306871832567
40
0.79162636690305
40
0.79162636690305
40
0.820945861973534
40
0.820945861973534
40
0.850265357044018
40
0.850265357044018
40
0.879584852114501
40
0.894244599649742
40
0.901574473417363
40
0.901574473417363
40
0.908904347184985
40
0.908904347184985
40
0.938223842255469
40
0.938223842255469
40
0.996862832396437
40
0.996862832396437
40
1
40
1
40
1
40
1
41
1
10
55.0430220015457
20
-7.90006138410357
30
0
41
1
10
54.8348673706902
20
-7.79609849034284
30
0
41
1
10
54.6269954219858
20
-7.6857399767037
30
0
41
1
10
54.2114914634712
20
-7.45204260334705
30
0
41
1
10
53.7962282231127
20
-7.2053632332084
30
0
41
1
10
53.1727594657735
20
-6.79551152798777
30
0
41
1
10
52.7556157664583
20
-6.49497956272279
30
0
41
1
10
52.4416707141754
20
-6.25902236819337
30
0
41
1
10
52.3368400578014
20
-6.1786020274553
30
0
41
1
10
52.179233917368
20
-6.05543037043643
30
0
41
1
10
52.1265975515483
20
-6.01391701959031
30
0
41
1
10
52.0214002670405
20
-5.93022827908328
30
0
41
1
10
51.9688688474713
20
-5.8880770710102
30
0
41
1
10
51.706505003289
20
-5.67584782497056
30
0
41
1
10
51.4975422294071
20
-5.50136392351789
30
0
41
1
10
51.080544692583
20
-5.14433030530793
30
0
41
1
10
50.8725094270985
20
-4.96178180989159
30
0
41
1
10
50.4567222285412
20
-4.58957083120782
30
0
41
1
10
50.2489716162262
20
-4.39991716742227
30
0
41
1
10
49.6255296823162
20
-3.82078134951911
30
0
41
1
10
49.2096755974081
20
-3.42111498454358
30
0
41
1
10
48.5826764998166
20
-2.80301531704765
30
0
41
1
10
48.3731303628832
20
-2.59390184851753
30
0
41
1
10
48.1102113231617
20
-2.3286640694846
30
0
41
1
10
48.0575779838949
20
-2.27542386026087
30
0
41
1
10
47.9522033345018
20
-2.16855758764652
30
0
41
1
10
47.8994288521495
20
-2.11489768891079
30
0
41
1
10
47.7411637204969
20
-1.95357775998897
30
0
41
1
10
47.6359311663951
20
-1.84578161716482
30
0
41
1
10
47.3209809945872
20
-1.52172719762132
30
0
41
1
10
47.1120138376129
20
-1.30480002621309
30
0
41
1
10
46.6955605723822
20
-0.869667364522371
30
0
41
1
10
46.4881018761428
20
-0.651436799851524
30
0
41
1
10
46.073687731269
20
-0.214629612726924
30
0
41
1
10
45.8667174986458
20
0.0039331397291562
30
0
41
1
10
45.4523938094007
20
0.440565254893841
30
0
41
1
10
45.2450439133108
20
0.658638037595978
30
0
41
1
10
44.8292989527946
20
1.09366551091068
30
0
41
1
10
44.6208906967476
20
1.31060889535311
30
0
41
1
10
44.2026696560423
20
1.74303104916962
30
0
41
1
10
43.9928685441897
20
1.95852053279626
30
0
41
1
10
43.729493724608
20
2.22672338804429
30
0
41
1
10
43.6767902683008
20
2.28027670184903
30
0
41
1
10
43.5715722241726
20
2.38694458126326
30
0
41
1
10
43.4139222593414
20
2.54639622004154
30
0
41
1
10
43.2567868213855
20
2.70414886736609
30
0
41
1
10
43.0477031462764
20
2.9128824122395
30
0
41
1
10
42.9433791613033
20
3.01644502160732
30
0
41
1
10
42.7351089640522
20
3.2218671773739
30
0
41
1
10
42.6311565305098
20
3.32373115420023
30
0
41
1
10
42.1120241330856
20
3.82870383893089
30
0
41
1
10
41.6986670787613
20
4.21873019464786
30
0
41
1
10
41.0769015851443
20
4.78118314170499
30
0
41
1
10
40.8693591166522
20
4.96494705729643
30
0
41
1
10
40.4531994985701
20
5.32453568908812
30
0
41
1
10
40.2445988132075
20
5.50034123776635
30
0
41
1
10
39.9305359840456
20
5.7574796448605
30
0
41
1
10
39.8256410409578
20
5.84210634112782
30
0
41
1
10
39.6154364905395
20
6.00901606603423
30
0
41
1
10
39.510583742441
20
6.09093623469042
30
0
41
1
10
39.196670318481
20
6.33201324407653
30
0
41
1
10
38.9882690030321
20
6.48645016145537
30
0
41
1
10
38.5725070126788
20
6.7826333931603
30
0
41
1
10
38.365129188936
20
6.92441847377722
30
0
41
1
10
37.9507319342886
20
7.19528441924976
30
0
41
1
10
37.7437227493387
20
7.32437013343551
30
0
41
1
10
37.329569119403
20
7.56944654577919
30
0
41
1
10
37.1224329550532
20
7.68540507765218
30
0
41
1
10
36.707453273879
20
7.90362620234066
30
0
41
1
10
36.3956751489946
20
8.05706361335973
30
0
41
1
10
36.0300925648247
20
8.21776354101416
30
0
41
1
10
35.8729226139119
20
8.2826649129087
30
0
41
1
10
35.7680226094331
20
8.32504510577948
30
0
41
1
10
35.7155124450624
20
8.34579063900972
30
0
41
1
10
35.4533991684697
20
8.44700091875589
30
0
41
1
10
35.2444950733
20
8.52016937295855
30
0
41
1
10
34.6191871203968
20
8.71692495158132
30
0
41
1
10
34.2041646681467
20
8.81783973190667
30
0
41
1
10
33.7665742717646
20
8.89311622724895
30
0
41
1
10
33.7443512312509
20
8.89685476039372
30
0
41
1
10
33.7221269436085
20
8.90050892752475
30
0
0
SPLINE
5
180
100
AcDbEntity
8
1
62
256
6
ByLayer
370
18
48
1
60
0
100
AcDbSpline
70
4
71
3
72
8
73
4
40
0
40
0
40
0
40
0
40
1
40
1
40
1
40
1
41
1
10
43.7891890967773
20
-9.40395199509564
30
0
41
1
10
43.1198100209108
20
-9.52069343829072
30
0
41
1
10
42.4504309450444
20
-9.55274880237715
30
0
41
1
10
41.781051869178
20
-9.49771906788794
30
0
0
SPLINE
5
181
100
AcDbEntity
8
1
62
256
6
ByLayer
370
18
48
1
60
0
100
AcDbSpline
70
4
71
3
72
94
73
90
40
0
40
0
40
0
40
0
40
0.006707044407163
40
0.0134934261025407
40
0.0203591573179064
40
0.0273042540679252
40
0.0343287366624404
40
0.0414326302636872
40
0.0486159654910959
40
0.0558787790764397
40
0.0632211145721856
40
0.070643023117709
40
0.0781445634516104
40
0.0857257959079483
40
0.0933867784215738
40
0.101127566146746
40
0.108948211172631
40
0.116848762251605
40
0.12482926454267
40
0.144964981266924
40
0.163801702886122
40
0.181338725978994
40
0.197575343514977
40
0.212510915841893
40
0.226144909510041
40
0.238476914159619
40
0.249506645426886
40
0.270011091332623
40
0.290675233885963
40
0.311498715482161
40
0.332481207977148
40
0.353622453973151
40
0.374922312683975
40
0.403061046591914
40
0.444563276788646
40
0.499428490126336
40
0.524111114181387
40
0.565953273403347
40
0.624959829366587
40
0.652054432843776
40
0.687399811273155
40
0.732216243565276
40
0.749643823145934
40
0.770472752819192
40
0.791314158268137
40
0.812168316420154
40
0.83303574401611
40
0.853917236596097
40
0.874813874412729
40
0.87794076113648
40
0.881067778142393
40
0.884194927552564
40
0.887322211338183
40
0.89044963132234
40
0.893577189182858
40
0.896704886455106
40
0.899832724534835
40
0.902960704680992
40
0.906088828018565
40
0.909217095541397
40
0.912345508115034
40
0.915474066479551
40
0.918602771252391
40
0.9217316229312
40
0.924860621896673
40
0.927989768415388
40
0.931119062642654
40
0.934248504625346
40
0.937378094304764
40
0.940507831519464
40
0.943637716008117
40
0.946767747412354
40
0.94989792527961
40
0.953028249065988
40
0.956158718139099
40
0.95928933178092
40
0.962420089190653
40
0.965550989487573
40
0.968682031713885
40
0.971813214837589
40
0.97494453775533
40
0.978075999295265
40
0.981207598219915
40
0.984339333229036
40
0.987471202962475
40
0.990603206003035
40
0.993735340879343
40
0.996867606068709
40
1
40
1
40
1
40
1
41
1
10
41.781051869178
20
-9.49771906788797
30
0
41
1
10
41.7515677864967
20
-9.49519739619555
30
0
41
1
10
41.6922508554149
20
-9.49012422408416
30
0
41
1
10
41.602745996633
20
-9.48119439770022
30
0
41
1
10
41.5121903026744
20
-9.47119958466251
30
0
41
1
10
41.4205832961222
20
-9.46000931886599
30
0
41
1
10
41.3279251028833
20
-9.44760977820269
30
0
41
1
10
41.2342156840113
20
-9.4339546449321
30
0
41
1
10
41.1394550451732
20
-9.41900576888875
30
0
41
1
10
41.0436431792748
20
-9.40272204055842
30
0
41
1
10
40.9467800830546
20
-9.38506256471391
30
0
41
1
10
40.8488657523561
20
-9.36598523569376
30
0
41
1
10
40.7499002325535
20
-9.34544931606288
30
0
41
1
10
40.6498835500371
20
-9.32342152466347
30
0
41
1
10
40.548815703654
20
-9.29986767556582
30
0
41
1
10
40.4466967003529
20
-9.27475359067478
30
0
41
1
10
40.3435265230381
20
-9.24804596591278
30
0
41
1
10
40.2393052429685
20
-9.21970798041261
30
0
41
1
10
40.0809370094011
20
-9.17458962147288
30
0
41
1
10
39.8744980735945
20
-9.11091361027002
30
0
41
1
10
39.6260960949789
20
-9.0261841160785
30
0
41
1
10
39.3948750762338
20
-8.94035972349297
30
0
41
1
10
39.1808363589443
20
-8.85497299751677
30
0
41
1
10
38.9839789730484
20
-8.77142462550367
30
0
41
1
10
38.8043037958459
20
-8.69096669518527
30
0
41
1
10
38.6418076935754
20
-8.61475652949403
30
0
41
1
10
38.4491733261362
20
-8.5205767389175
30
0
41
1
10
38.2199502115292
20
-8.40288702899505
30
0
41
1
10
37.9476695648214
20
-8.2551051909638
30
0
41
1
10
37.6732478893277
20
-8.09802759858329
30
0
41
1
10
37.3966820778521
20
-7.93164225315189
30
0
41
1
10
37.1179706080987
20
-7.75590893613202
30
0
41
1
10
36.8077602390795
20
-7.55137146741751
30
0
41
1
10
36.4079352672951
20
-7.274964125991
30
0
41
1
10
35.8603904509426
20
-6.87174851805
30
0
41
1
10
35.3278684970546
20
-6.44720136285349
30
0
41
1
10
34.794124580873
20
-5.99675309490976
30
0
41
1
10
34.2422295148341
20
-5.51064951869435
30
0
41
1
10
33.679753808292
20
-4.98683588842832
30
0
41
1
10
33.1460416294901
20
-4.47010242501477
30
0
41
1
10
32.6746574521976
20
-4.00207870049408
30
0
41
1
10
32.2456943942847
20
-3.56388486898933
30
0
41
1
10
31.8805563508685
20
-3.18401948368171
30
0
41
1
10
31.6208295824253
20
-2.91065591441819
30
0
41
1
10
31.3459786943902
20
-2.61863608741703
30
0
41
1
10
31.0709248870864
20
-2.32375820288547
30
0
41
1
10
30.7956600868593
20
-2.02632471115174
30
0
41
1
10
30.5201879194105
20
-1.72659176521427
30
0
41
1
10
30.3227170949562
20
-1.51044121696364
30
0
41
1
10
30.2033290396593
20
-1.37938638478144
30
0
41
1
10
30.1620785148992
20
-1.33407107245583
30
0
41
1
10
30.1208267632842
20
-1.28872208591474
30
0
41
1
10
30.0795737677205
20
-1.24334038930596
30
0
41
1
10
30.0383195327648
20
-1.19792708205199
30
0
41
1
10
29.9970640571725
20
-1.15248322761471
30
0
41
1
10
29.9558073412534
20
-1.10700989937996
30
0
41
1
10
29.9145493849007
20
-1.06150816836168
30
0
41
1
10
29.8732901881193
20
-1.01597910649619
30
0
41
1
10
29.8320297508842
20
-0.970423785759095
30
0
41
1
10
29.7907680731782
20
-0.924843278401255
30
0
41
1
10
29.7495051549821
20
-0.87923865688532
30
0
41
1
10
29.7082409962774
20
-0.833610993901999
30
0
41
1
10
29.6669755970451
20
-0.787961362365394
30
0
41
1
10
29.6257089572664
20
-0.742290835413655
30
0
41
1
10
29.5844410769226
20
-0.696600486408443
30
0
41
1
10
29.543171955995
20
-0.65089138893444
30
0
41
1
10
29.5019015944644
20
-0.605164616799215
30
0
41
1
10
29.4606299923123
20
-0.55942124403245
30
0
41
1
10
29.4193571495197
20
-0.513662344886029
30
0
41
1
10
29.3780830660679
20
-0.467888993833299
30
0
41
1
10
29.3368077419379
20
-0.422102265568753
30
0
41
1
10
29.2955311771109
20
-0.376303235007924
30
0
41
1
10
29.2542533715681
20
-0.330492977286497
30
0
41
1
10
29.2129743252906
20
-0.284672567760453
30
0
41
1
10
29.1716940382595
20
-0.23884308200536
30
0
41
1
10
29.1304125104559
20
-0.193005595815947
30
0
41
1
10
29.0891297418611
20
-0.147161185206443
30
0
41
1
10
29.0478457324559
20
-0.101310926407592
30
0
41
1
10
29.006560482222
20
-0.0554558958756104
30
0
41
1
10
28.9652739911392
20
-0.0095971702571092
30
0
41
1
10
28.9239862591928
20
0.0362641734816407
30
0
41
1
10
28.882697286349
20
0.0821270585391858
30
0
41
1
10
28.8414070726437
20
0.127990406472264
30
0
41
1
10
28.800115617854
20
0.173853143940818
30
0
41
1
10
28.7588229227223
20
0.219714177535309
30
0
41
1
10
28.7175289843886
20
0.265572487729884
30
0
41
1
10
28.6762338134376
20
0.311426778224529
30
0
41
1
10
28.6349373702743
20
0.357276784701952
30
0
41
1
10
28.607406219527
20
0.38783723224455
30
0
41
1
10
28.5936403612638
20
0.403117770032225
30
0
0
SPLINE
5
182
100
AcDbEntity
8
1
62
256
6
ByLayer
370
18
48
1
60
0
100
AcDbSpline
70
4
71
3
72
47
73
43
40
0
40
0
40
0
40
0
40
0.0298809832528349
40
0.0595121219176548
40
0.0888933634135152
40
0.118024656106326
40
0.146905949524281
40
0.17553719454972
40
0.203918343588915
40
0.2320493507209
40
0.259930171826593
40
0.287560764699241
40
0.314941089135617
40
0.342071107009019
40
0.368950782333664
40
0.395580081312441
40
0.421958972370505
40
0.44808742617641
40
0.473965415651593
40
0.499592915969096
40
0.524969904542338
40
0.550096361004736
40
0.57497226718086
40
0.59959760705
40
0.623972366702621
40
0.648096534290574
40
0.671970099971541
40
0.695593055848462
40
0.718965395904347
40
0.742087115933245
40
0.764958213467655
40
0.787578687703096
40
0.809948539420139
40
0.832067770904472
40
0.853936385865384
40
0.875554389353027
40
0.896921787674894
40
0.918038588311908
40
0.938904799834317
40
0.959520431817891
40
0.97988549476058
40
1
40
1
40
1
40
1
41
1
10
28.5936403612638
20
0.403117770032225
30
0
41
1
10
28.5717133117482
20
0.427454139753451
30
0
41
1
10
28.5280425518864
20
0.475923394919079
30
0
41
1
10
28.4628128639937
20
0.548289396824998
30
0
41
1
10
28.3981341946606
20
0.620016427925094
30
0
41
1
10
28.334006650207
20
0.691099097170962
30
0
41
1
10
28.2704302022309
20
0.761534779699133
30
0
41
1
10
28.2074048579996
20
0.831320370141754
30
0
41
1
10
28.1449306153727
20
0.90045313594473
30
0
41
1
10
28.083007474724
20
0.968930486134553
30
0
41
1
10
28.0216354357864
20
1.03675002700274
30
0
41
1
10
27.9608144984872
20
1.10390954195216
30
0
41
1
10
27.9005446627278
20
1.17040699144826
30
0
41
1
10
27.8408259284277
20
1.23624050772648
30
0
41
1
10
27.7816582955224
20
1.30140839088528
30
0
41
1
10
27.723041763962
20
1.36590910468197
30
0
41
1
10
27.6649763337099
20
1.42974127245776
30
0
41
1
10
27.6074620047412
20
1.49290367307484
30
0
41
1
10
27.5504987770423
20
1.5553952368978
30
0
41
1
10
27.4940866506102
20
1.6172150418106
30
0
41
1
10
27.4382256254513
20
1.6783623092719
30
0
41
1
10
27.382915701581
20
1.73883640040754
30
0
41
1
10
27.3281568790229
20
1.7986368121411
30
0
41
1
10
27.2739491578078
20
1.8577631733616
30
0
41
1
10
27.2202925379736
20
1.91621524112955
30
0
41
1
10
27.1671870195641
20
1.97399289691981
30
0
41
1
10
27.1146326026288
20
2.03109614290327
30
0
41
1
10
27.062629287222
20
2.08752509826465
30
0
41
1
10
27.0111770734027
20
2.14327999556147
30
0
41
1
10
26.9602759612335
20
2.1983611771108
30
0
41
1
10
26.9099259507806
20
2.25276909144776
30
0
41
1
10
26.8601270421124
20
2.30650428969955
30
0
41
1
10
26.8108792353022
20
2.35956742244477
30
0
41
1
10
26.7621825304174
20
2.41195923496858
30
0
41
1
10
26.7140369275544
20
2.46368056858131
30
0
41
1
10
26.6664424267109
20
2.51473233986769
30
0
41
1
10
26.6193990282516
20
2.56511560106639
30
0
41
1
10
26.5729067312006
20
2.61483130309014
30
0
41
1
10
26.5269655394965
20
2.6638811490308
30
0
41
1
10
26.4815754390657
20
2.71226445027122
30
0
41
1
10
26.4367364818431
20
2.75998963352652
30
0
41
1
10
26.4070272596657
20
2.79154657600336
30
0
41
1
10
26.3922645946478
20
2.8072273827238
30
0
0
SPLINE
5
183
100
AcDbEntity
8
1
62
256
6
ByLayer
370
18
48
1
60
0
100
AcDbSpline
70
4
71
3
72
46
73
42
40
0
40
0
40
0
40
0
40
0.0156250000000006
40
0.0156250000000006
40
0.0312500000000012
40
0.0625000000000011
40
0.0625000000000011
40
0.125000000000001
40
0.125000000000001
40
0.1875
40
0.1875
40
0.25
40
0.25
40
0.312499999999999
40
0.312499999999999
40
0.34375
40
0.34375
40
0.359375
40
0.359375
40
0.375000000000001
40
0.375000000000001
40
0.437499999999999
40
0.437499999999999
40
0.499999999999997
40
0.499999999999997
40
0.562499999999995
40
0.562499999999995
40
0.624999999999993
40
0.624999999999993
40
0.656249999999992
40
0.671874999999992
40
0.671874999999992
40
0.687499999999992
40
0.687499999999992
40
0.749999999999993
40
0.749999999999993
40
0.812499999999994
40
0.812499999999994
40
0.874999999999996
40
0.874999999999996
40
1
40
1
40
1
40
1
41
1
10
26.3922645946477
20
2.8072273827238
30
0
41
1
10
26.332804503573
20
2.87035575105273
30
0
41
1
10
26.2732969817027
20
2.93332714150645
30
0
41
1
10
26.1545216801569
20
3.05857452304832
30
0
41
1
10
25.9765721660645
20
3.24555795693098
30
0
41
1
10
25.7991962988277
20
3.42983366362122
30
0
41
1
10
25.445038223325
20
3.79465321971389
30
0
41
1
10
25.2097110544938
20
4.03289363743676
30
0
41
1
10
24.7397509418911
20
4.49903807072192
30
0
41
1
10
24.5051258604906
20
4.7269470517918
30
0
41
1
10
24.0357622966256
20
5.17189544619339
30
0
41
1
10
23.8010252697098
20
5.38893116461037
30
0
41
1
10
23.3305705945352
20
5.81141319605408
30
0
41
1
10
23.0948520761832
20
6.01686874439818
30
0
41
1
10
22.7398424189502
20
6.31575225567929
30
0
41
1
10
22.6212668130434
20
6.41382846086904
30
0
41
1
10
22.4429528920964
20
6.55852105613204
30
0
41
1
10
22.3834944013995
20
6.6063031329561
30
0
41
1
10
22.2647906110633
20
6.70074709903045
30
0
41
1
10
22.2055054679576
20
6.74744139948257
30
0
41
1
10
21.9093762397463
20
6.97826332111276
30
0
41
1
10
21.6734212688592
20
7.15444068367844
30
0
41
1
10
21.2024754399788
20
7.48949701520016
30
0
41
1
10
20.967484081992
20
7.64838267420691
30
0
41
1
10
20.4975836368893
20
7.94835020067009
30
0
41
1
10
20.262673013822
20
8.08943265980346
30
0
41
1
10
19.7920990310121
20
8.3530306791165
30
0
41
1
10
19.556444948502
20
8.47551730070356
30
0
41
1
10
19.2017616061887
20
8.64508649941084
30
0
41
1
10
19.0241189831122
20
8.72632898888341
30
0
41
1
10
18.8458981810576
20
8.80219637684812
30
0
41
1
10
18.7269413134252
20
8.85157120183118
30
0
41
1
10
18.6674835876226
20
8.87561815989233
30
0
41
1
10
18.3706554255627
20
8.99250925213346
30
0
41
1
10
18.1342639588443
20
9.07550451861593
30
0
41
1
10
17.6626863340074
20
9.22082439642671
30
0
41
1
10
17.4275044118322
20
9.2831367257356
30
0
41
1
10
16.9574819117442
20
9.3869455927115
30
0
41
1
10
16.7226424719774
20
9.4284421571991
30
0
41
1
10
16.0173211787062
20
9.52104933489619
30
0
41
1
10
15.5460407404152
20
9.54008017143977
30
0
41
1
10
15.0700000000001
20
9.51486470644315
30
0
0
SPLINE
5
184
100
AcDbEntity
8
1
62
256
6
ByLayer
370
13
48
1
60
0
100
AcDbSpline
70
4
71
3
72
11
73
7
40
0
40
0
40
0
40
0
40
0.162082825409969
40
0.371562119057477
40
0.581041412704985
40
1
40
1
40
1
40
1
41
1
10
27.3862531010888
20
1.73520674676732
30
0
41
1
10
26.7208354007259
20
2.41041432385344
30
0
41
1
10
25.195417700363
20
3.92242214725945
30
0
41
1
10
22.81
20
6.00390276562203
30
0
41
1
10
19.37
20
8.30354488529343
30
0
41
1
10
16.79
20
8.96264248699953
30
0
41
1
10
15.07
20
8.8531009968622
30
0
0
SPLINE
5
185
100
AcDbEntity
8
1
62
256
6
ByLayer
370
18
48
1
60
0
100
AcDbSpline
70
4
71
3
72
12
73
8
40
0
40
0
40
0
40
0
40
0.499999999999987
40
0.499999999999987
40
0.749999999999994
40
0.749999999999994
40
1
40
1
40
1
40
1
41
1
10
53.7036346232509
20
8.88397504143384
30
0
41
1
10
53.8242861177316
20
8.86101697409777
30
0
41
1
10
53.9431441651895
20
8.82593406653859
30
0
41
1
10
54.1201225792018
20
8.75766195172403
30
0
41
1
10
54.1788939888532
20
8.732289942074
30
0
41
1
10
54.2961853811421
20
8.67663638768082
30
0
41
1
10
54.3547026720891
20
8.64634400006412
30
0
41
1
10
54.4131601887189
20
8.61362384130743
30
0
0
SPLINE
5
186
100
AcDbEntity
8
1
62
256
6
ByLayer
370
18
48
1
60
0
100
AcDbSpline
70
4
71
3
72
12
73
8
40
0
40
0
40
0
40
0
40
0.25
40
0.25
40
0.5
40
0.5
40
1
40
1
40
1
40
1
41
1
10
53.245012574876
20
8.90617627971051
30
0
41
1
10
53.2835415499767
20
8.91011767247389
30
0
41
1
10
53.3219429192083
20
8.91245560916303
30
0
41
1
10
53.3985757686519
20
8.91422793132247
30
0
41
1
10
53.4368114026729
20
8.91370492539588
30
0
41
1
10
53.5513508574632
20
8.90794045124957
30
0
41
1
10
53.6274857298834
20
8.89846496904821
30
0
41
1
10
53.7036346232615
20
8.88397504143205
30
0
0
SPLINE
5
187
100
AcDbEntity
8
1
62
256
6
ByLayer
370
18
48
1
60
0
100
AcDbSpline
70
4
71
3
72
35
73
31
40
0
40
0
40
0
40
0
40
0.0109389581898148
40
0.0511229092017071
40
0.091032813561067
40
0.130668846414354
40
0.170031161011747
40
0.209119891357118
40
0.247935154661385
40
0.286477053616747
40
0.324745678499503
40
0.362741109108849
40
0.400463416549125
40
0.437912664862497
40
0.475088912519133
40
0.511992213771613
40
0.548622619880041
40
0.584980180214514
40
0.621064943240916
40
0.656876957396165
40
0.692416271858877
40
0.727682937220913
40
0.762676996423203
40
0.797398444299104
40
0.831847251464431
40
0.866023378017248
40
0.899926775171415
40
0.933557386766011
40
0.966915150657439
40
1
40
1
40
1
40
1
41
1
10
50.5636200825352
20
7.43863446699166
30
0
41
1
10
50.5733974666959
20
7.44542540293943
30
0
41
1
10
50.6190917750348
20
7.47709401099755
30
0
41
1
10
50.7004578076849
20
7.53291193650946
30
0
41
1
10
50.8074727748978
20
7.60513435283355
30
0
41
1
10
50.9137523784034
20
7.67567652481063
30
0
41
1
10
51.0192968939013
20
7.74455388034261
30
0
41
1
10
51.124106587791
20
7.81178208858907
30
0
41
1
10
51.2281817158351
20
7.87737700556596
30
0
41
1
10
51.3315225237488
20
7.94135468052744
30
0
41
1
10
51.4341292472755
20
8.00373134628151
30
0
41
1
10
51.5360021123952
20
8.0645234138195
30
0
41
1
10
51.6371413354972
20
8.12374746585473
30
0
41
1
10
51.7375471235598
20
8.18142025070537
30
0
41
1
10
51.837219674326
20
8.23755867613664
30
0
41
1
10
51.9361591764793
20
8.29217980327752
30
0
41
1
10
52.0343658098148
20
8.34530084053574
30
0
41
1
10
52.1318397454179
20
8.39693913769938
30
0
41
1
10
52.2285811458115
20
8.44711217955367
30
0
41
1
10
52.3245901652093
20
8.49583758148739
30
0
41
1
10
52.4198669493714
20
8.54313307795766
30
0
41
1
10
52.5144116283064
20
8.58901653332217
30
0
41
1
10
52.6082242669725
20
8.63350583819627
30
0
41
1
10
52.7013048388622
20
8.67662160992685
30
0
41
1
10
52.793653282319
20
8.71838514498236
30
0
41
1
10
52.8852695239163
20
8.75881544306222
30
0
41
1
10
52.9761534989301
20
8.79793969166022
30
0
41
1
10
53.0663051192462
20
8.83575475100841
30
0
41
1
10
53.155724390478
20
8.87236910862339
30
0
41
1
10
53.2150926822786
20
8.89587261782054
30
0
41
1
10
53.2446548998728
20
8.90757610181913
30
0
0
SPLINE
5
188
100
AcDbEntity
8
1
62
256
6
ByLayer
370
18
48
1
60
0
100
AcDbSpline
70
4
71
3
72
45
73
41
40
0
40
0
40
0
40
0
40
0.0202192194916883
40
0.0408133170517186
40
0.0617821906807537
40
0.0831257279288972
40
0.104843805543021
40
0.126936289125033
40
0.149403032802788
40
0.17224387891556
40
0.195458657716095
40
0.219047187091506
40
0.243009272305117
40
0.267344705761811
40
0.292053266799303
40
0.317134721508173
40
0.342588822583346
40
0.368415309210077
40
0.394613906987627
40
0.421184327893868
40
0.448126273528124
40
0.475439566385205
40
0.503124205908048
40
0.531180212528817
40
0.559607616169274
40
0.588406456617855
40
0.617576783922841
40
0.647118658803231
40
0.677032153078697
40
0.707317350120412
40
0.737974345324219
40
0.769003246608163
40
0.800404174936085
40
0.832177264869432
40
0.864322665149131
40
0.896840539309907
40
0.929731066329226
40
0.962994441313234
40
0.996630876222203
40
1
40
1
40
1
40
1
41
1
10
28.5936403616353
20
-9.4812723626178
30
0
41
1
10
28.6082144559598
20
-9.48278695860625
30
0
41
1
10
28.6376328582208
20
-9.48584423222192
30
0
41
1
10
28.6821646338587
20
-9.49015595480785
30
0
41
1
10
28.7275062080706
20
-9.49430485864627
30
0
41
1
10
28.773657389477
20
-9.49825360545273
30
0
41
1
10
28.8206180905906
20
-9.50199384060946
30
0
41
1
10
28.8683881798725
20
-9.50550886892248
30
0
41
1
10
28.9169675217647
20
-9.50878392374321
30
0
41
1
10
28.966355964988
20
-9.51180334054831
30
0
41
1
10
29.016553345057
20
-9.51455133208714
30
0
41
1
10
29.067559482875
20
-9.51701177342665
30
0
41
1
10
29.1193741843953
20
-9.51916825902035
30
0
41
1
10
29.1719972399739
20
-9.52100408504268
30
0
41
1
10
29.2254284238123
20
-9.52250225216133
30
0
41
1
10
29.2796674932984
20
-9.52364546285025
30
0
41
1
10
29.3347141886169
20
-9.5244161194737
30
0
41
1
10
29.3905682313041
20
-9.52479632477431
30
0
41
1
10
29.4472293267858
20
-9.52476787156962
30
0
41
1
10
29.5046971540119
20
-9.52431227386629
30
0
41
1
10
29.5629715077298
20
-9.52341063821277
30
0
41
1
10
29.6220522385576
20
-9.52204419039276
30
0
41
1
10
29.6819391664559
20
-9.52019460252691
30
0
41
1
10
29.7426322972159
20
-9.51784318529116
30
0
41
1
10
29.8041316408541
20
-9.51497105429189
30
0
41
1
10
29.8664372200092
20
-9.51155908633859
30
0
41
1
10
29.9295490657571
20
-9.5075879326227
30
0
41
1
10
29.9934672192101
20
-9.50303801630361
30
0
41
1
10
30.0581917315411
20
-9.49788953437309
30
0
41
1
10
30.1237226644441
20
-9.49212245836773
30
0
41
1
10
30.1900600904808
20
-9.48571653541345
30
0
41
1
10
30.257204093465
20
-9.47865128919625
30
0
41
1
10
30.3251547688422
20
-9.47090602097083
30
0
41
1
10
30.3939122240765
20
-9.46245981057606
30
0
41
1
10
30.463476579041
20
-9.45329151746631
30
0
41
1
10
30.5338479664138
20
-9.44337978175605
30
0
41
1
10
30.6050265320779
20
-9.4327030252787
30
0
41
1
10
30.6770124355258
20
-9.42123945265939
30
0
41
1
10
30.7277025478852
20
-9.41269349626779
30
0
41
1
10
30.7543973280824
20
-9.40805509297516
30
0
41
1
10
30.7568277199046
20
-9.40763165281103
30
0
0
SPLINE
5
189
100
AcDbEntity
8
1
62
256
6
ByLayer
370
18
48
1
60
0
100
AcDbSpline
70
4
71
3
72
9
73
5
40
0
40
0
40
0
40
0
40
0.559575275429848
40
1
40
1
40
1
40
1
41
1
10
26.392264594486
20
-8.94356175932731
30
0
41
1
10
26.8025770114023
20
-9.09974826499902
30
0
41
1
10
27.5358450755733
20
-9.32378347537306
30
0
41
1
10
28.2701867189338
20
-9.44702414413777
30
0
41
1
10
28.5936403616353
20
-9.4812723626178
30
0
0
SPLINE
5
18A
100
AcDbEntity
8
1
62
256
6
ByLayer
370
18
48
1
60
0
100
AcDbSpline
70
4
71
3
72
46
73
42
40
0
40
0
40
0
40
0
40
0.125000000000008
40
0.125000000000008
40
0.187500000000012
40
0.187500000000012
40
0.250000000000016
40
0.250000000000016
40
0.312500000000021
40
0.312500000000021
40
0.328125000000021
40
0.328125000000021
40
0.343750000000021
40
0.37500000000002
40
0.37500000000002
40
0.437500000000017
40
0.437500000000017
40
0.500000000000015
40
0.500000000000015
40
0.562500000000012
40
0.562500000000012
40
0.62500000000001
40
0.62500000000001
40
0.640625000000009
40
0.640625000000009
40
0.656250000000008
40
0.656250000000008
40
0.687500000000007
40
0.687500000000007
40
0.750000000000006
40
0.750000000000006
40
0.812500000000005
40
0.812500000000005
40
0.875000000000004
40
0.875000000000004
40
0.937500000000003
40
0.937500000000003
40
0.968750000000001
40
0.984375000000001
40
0.984375000000001
40
1
40
1
40
1
40
1
41
1
10
15.07
20
0.958864126875
30
0
41
1
10
15.5460407404085
20
0.432804248158334
30
0
41
1
10
16.0173211786929
20
-0.092464443726243
30
0
41
1
10
16.7226424719541
20
-0.874359286755805
30
0
41
1
10
16.9574819117177
20
-1.13399629983891
30
0
41
1
10
17.427504411799
20
-1.65052487440721
30
0
41
1
10
17.6626863339708
20
-1.90741747843472
30
0
41
1
10
18.1342639588009
20
-2.41767184229934
30
0
41
1
10
18.3706554255159
20
-2.67103892755188
30
0
41
1
10
18.6674835875715
20
-2.98498312851268
30
0
41
1
10
18.7269413133731
20
-3.04765957212064
30
0
41
1
10
18.8458981810039
20
-3.17260602344581
30
0
41
1
10
19.024118983056
20
-3.35912593054587
30
0
41
1
10
19.2017616061302
20
-3.54290022405593
30
0
41
1
10
19.5564449484387
20
-3.90665447135586
30
0
41
1
10
19.7920990309455
20
-4.14410025120802
30
0
41
1
10
20.2626730137489
20
-4.60808547247223
30
0
41
1
10
20.497583636813
20
-4.83465329190847
30
0
41
1
10
20.9674840819091
20
-5.27650704568939
30
0
41
1
10
21.2024754398924
20
-5.49179092249904
30
0
41
1
10
21.6734212687659
20
-5.91043231817281
30
0
41
1
10
21.9093762396495
20
-6.11378508140703
30
0
41
1
10
22.2055054678563
20
-6.36000928732517
30
0
41
1
10
22.2647906109611
20
-6.40885582686454
30
0
41
1
10
22.3834944012954
20
-6.5057387512289
30
0
41
1
10
22.4429528919913
20
-6.55380695331291
30
0
41
1
10
22.621266812936
20
-6.69654717303368
30
0
41
1
10
22.7398424188413
20
-6.78958321001633
30
0
41
1
10
23.0948520760697
20
-7.06230043983501
30
0
41
1
10
23.3305705944186
20
-7.23559880691136
30
0
41
1
10
23.8010252695869
20
-7.56487540481811
30
0
41
1
10
24.0357622964994
20
-7.72083684780429
30
0
41
1
10
24.5051258603577
20
-8.01502179485894
30
0
41
1
10
24.7397509417549
20
-8.15325399972625
30
0
41
1
10
25.2097110543505
20
-8.41141820607817
30
0
41
1
10
25.4450382231782
20
-8.53135610677717
30
0
41
1
10
25.7991962986754
20
-8.69687179094629
30
0
41
1
10
25.9765721659094
20
-8.77602091197002
30
0
41
1
10
26.1545216799988
20
-8.84967721926367
30
0
41
1
10
26.2732969815426
20
-8.89755067513531
30
0
41
1
10
26.332804503412
20
-8.92089043805782
30
0
41
1
10
26.3922645944859
20
-8.94356175932728
30
0
0
SPLINE
5
18B
100
AcDbEntity
8
1
62
256
6
ByLayer
370
13
48
1
60
0
100
AcDbSpline
70
4
71
3
72
9
73
5
40
0
40
0
40
0
40
0
40
0.971314254249635
40
1
40
1
40
1
40
1
41
1
10
54.4131601887189
20
8.61362384130743
30
0
41
1
10
53.338773459146
20
8.34865039913913
30
0
41
1
10
52.2326569526988
20
7.86993960812265
30
0
41
1
10
51.1265404462516
20
7.20475170552976
30
0
41
1
10
51.0948106693774
20
7.18551849140604
30
0
0
SPLINE
5
18C
100
AcDbEntity
8
1
62
256
6
ByLayer
370
18
48
1
60
0
100
AcDbSpline
70
4
71
1
72
4
73
2
40
0
40
0
40
1
40
1
41
1
10
54.3332664908388
20
1.73144331212714
30
0
41
1
10
54.3332664889265
20
1.73142168135553
30
0
0
SPLINE
5
18D
100
AcDbEntity
8
1
62
256
6
ByLayer
370
18
48
1
60
0
100
AcDbSpline
70
4
71
3
72
10
73
6
40
0
40
0
40
0
40
0
40
0.272298397434033
40
0.706411810229962
40
1
40
1
40
1
40
1
41
1
10
9.86529578748676
20
-8.69993359614634
30
0
41
1
10
9.97474191495795
20
-8.62604242643903
30
0
41
1
10
10.2599498389146
20
-8.43790943961511
30
0
41
1
10
10.6653978015411
20
-8.18669215549582
30
0
41
1
10
10.9675951624559
20
-8.01120170010731
30
0
41
1
10
11.0905925234957
20
-7.94188219283205
30
0
0
SPLINE
5
18E
100
AcDbEntity
8
1
62
256
6
ByLayer
370
18
48
1
60
0
100
AcDbSpline
70
4
71
1
72
4
73
2
40
0
40
0
40
1
40
1
41
1
10
55.1260818978809
20
4.97900617407402
30
0
41
1
10
53.7285221289451
20
5.84381671258839
30
0
0
SPLINE
5
18F
100
AcDbEntity
8
1
62
256
6
ByLayer
370
18
48
1
60
0
100
AcDbSpline
70
4
71
3
72
18
73
14
40
0
40
0
40
0
40
0
40
0.118552936657243
40
0.215550042874785
40
0.29740478022313
40
0.370382363919481
40
0.435524343094164
40
0.49534752365843
40
0.568844590193516
40
0.667813965394807
40
0.810527048461084
40
0.926964441542744
40
1
40
1
40
1
40
1
41
1
10
14.6676873041822
20
6.6074175660078
30
0
41
1
10
14.4929985102607
20
6.63488565534453
30
0
41
1
10
14.1601116530284
20
6.70094256223899
30
0
41
1
10
13.6613127054794
20
6.82753764846359
30
0
41
1
10
13.2138876662134
20
6.97090171539989
30
0
41
1
10
12.8346918901899
20
7.10804871819727
30
0
41
1
10
12.4953569178245
20
7.24457544631454
30
0
41
1
10
12.1903540000463
20
7.3788908114052
30
0
41
1
10
11.82499329617
20
7.55077794839471
30
0
41
1
10
11.3208613169585
20
7.80919399407622
30
0
41
1
10
10.7620926202654
20
8.12677963406838
30
0
41
1
10
10.2599498389106
20
8.43790943961673
30
0
41
1
10
9.97474191495448
20
8.62604242644016
30
0
41
1
10
9.86529578748397
20
8.69993359614699
30
0
0
SPLINE
5
190
100
AcDbEntity
8
1
62
256
6
ByLayer
370
18
48
1
60
0
100
AcDbSpline
70
4
71
3
72
14
73
10
40
0
40
0
40
0
40
0
40
0.274620570262878
40
0.47954459996719
40
0.617294384777335
40
0.735813284671359
40
0.853549896005678
40
0.97328069116088
40
1
40
1
40
1
40
1
41
1
10
21.4888161638549
20
-7.96175719368466
30
0
41
1
10
21.6824910742657
20
-7.90655366380511
30
0
41
1
10
22.0202157715596
20
-7.81235731181437
30
0
41
1
10
22.4547622120041
20
-7.69571828905447
30
0
41
1
10
22.7777661126603
20
-7.61162912955993
30
0
41
1
10
23.0391688344079
20
-7.54515637849067
30
0
41
1
10
23.2880259314069
20
-7.48334008537881
30
0
41
1
10
23.4729147546558
20
-7.43856395797218
30
0
41
1
10
23.5757069397945
20
-7.41408990804098
30
0
41
1
10
23.594469958107
20
-7.40963663508987
30
0
0
SPLINE
5
191
100
AcDbEntity
8
1
62
256
6
ByLayer
370
18
48
1
60
0
100
AcDbSpline
70
4
71
3
72
17
73
13
40
0
40
0
40
0
40
0
40
0.148218310288139
40
0.263098665807798
40
0.344597840709082
40
0.39616201665324
40
0.441620335885234
40
0.48551460815997
40
0.550483815366461
40
0.653029294982133
40
0.80806815263518
40
1
40
1
40
1
40
1
41
1
10
44.8055325106257
20
2.80181225842037
30
0
41
1
10
44.636959560427
20
2.91791143641933
30
0
41
1
10
44.3378628527806
20
3.12505791318975
30
0
41
1
10
43.9464528643168
20
3.39907599803382
30
0
41
1
10
43.6649590040673
20
3.59727156836715
30
0
41
1
10
43.4627685363205
20
3.74011527247933
30
0
41
1
10
43.3030409711898
20
3.85317757133035
30
0
41
1
10
43.1279720451777
20
3.97728967731229
30
0
41
1
10
42.8879401487472
20
4.14772563409457
30
0
41
1
10
42.5216986856991
20
4.40817696959263
30
0
41
1
10
42.011249902836
20
4.77154411791099
30
0
41
1
10
41.6172874099028
20
5.05047944549616
30
0
41
1
10
41.3993652156398
20
5.20449013122521
30
0
0
SPLINE
5
192
100
AcDbEntity
8
1
62
256
6
ByLayer
370
18
48
1
60
0
100
AcDbSpline
70
4
71
3
72
17
73
13
40
0
40
0
40
0
40
0
40
0.114258120100366
40
0.199850779732807
40
0.257788415420148
40
0.308920905724382
40
0.361348419280166
40
0.415663355009199
40
0.567839061915997
40
0.736787320287043
40
0.935829720982402
40
1
40
1
40
1
40
1
41
1
10
28.2670380633651
20
6.63619539079707
30
0
41
1
10
28.0945933168398
20
6.65111600680675
30
0
41
1
10
27.7922394030507
20
6.68007731277362
30
0
41
1
10
27.4020385737999
20
6.72371003654348
30
0
41
1
10
27.104661928026
20
6.7603961243471
30
0
41
1
10
26.8578979423798
20
6.79299193227104
30
0
41
1
10
26.6175359253677
20
6.82670959157545
30
0
41
1
10
26.224418062672
20
6.88512254541868
30
0
41
1
10
25.6540399850692
20
6.97897042373927
30
0
41
1
10
24.8646514427833
20
7.12720394472822
30
0
41
1
10
24.2054925118882
20
7.26785812784985
30
0
41
1
10
23.8052077049734
20
7.36008205108522
30
0
41
1
10
23.7077164756163
20
7.3829280246936
30
0
0
SPLINE
5
193
100
AcDbEntity
8
1
62
256
6
ByLayer
370
18
48
1
60
0
100
AcDbSpline
70
4
71
3
72
11
73
7
40
0
40
0
40
0
40
0
40
0.378993236168818
40
0.654213591861803
40
0.861225138648809
40
1
40
1
40
1
40
1
41
1
10
48.4326763206375
20
-7.96256204789165
30
0
41
1
10
48.6021578964167
20
-7.91411408349526
30
0
41
1
10
48.8978343840849
20
-7.831257252353
30
0
41
1
10
49.292342145939
20
-7.72421930557041
30
0
41
1
10
49.5828754723088
20
-7.64761815147665
30
0
41
1
10
49.7428082373156
20
-7.60662105896847
30
0
41
1
10
49.8069548178094
20
-7.59034844910971
30
0
0
SPLINE
5
194
100
AcDbEntity
8
1
62
256
6
ByLayer
370
18
48
1
60
0
100
AcDbSpline
70
4
71
3
72
10
73
6
40
0
40
0
40
0
40
0
40
0.499351368259836
40
0.872610641503697
40
1
40
1
40
1
40
1
41
1
10
35.4179586661462
20
-7.95958363647568
30
0
41
1
10
35.6091272860654
20
-7.90489124850581
30
0
41
1
10
35.9424445489011
20
-7.8112362458497
30
0
41
1
10
36.3250942166416
20
-7.70645483747808
30
0
41
1
10
36.5147801037281
20
-7.65597158147716
30
0
41
1
10
36.5629807643387
20
-7.64321967885809
30
0
0
SPLINE
5
195
100
AcDbEntity
8
1
62
256
6
ByLayer
370
18
48
1
60
0
100
AcDbSpline
70
4
71
1
72
4
73
2
40
0
40
0
40
1
40
1
41
1
10
54.4118899587965
20
1.65159763782248
30
0
41
1
10
54.3370356265249
20
1.72761981656779
30
0
0
SPLINE
5
196
100
AcDbEntity
8
1
62
256
6
ByLayer
370
18
48
1
60
0
100
AcDbSpline
70
4
71
3
72
14
73
10
40
0
40
0
40
0
40
0
40
0.193879007094053
40
0.350302391952108
40
0.448664337208501
40
0.530260441921318
40
0.649311470993338
40
0.805902755137415
40
1
40
1
40
1
40
1
41
1
10
46.7158186428686
20
8.9176614580592
30
0
41
1
10
46.5260616052318
20
8.94675199422534
30
0
41
1
10
46.1835788199201
20
9.00006459259873
30
0
41
1
10
45.7446911192851
20
9.06968107858992
30
0
41
1
10
45.4174517391307
20
9.1233183281515
30
0
41
1
10
45.1265114999561
20
9.17194944562263
30
0
41
1
10
44.7779243346523
20
9.23142810545608
30
0
41
1
10
44.3195483536212
20
9.31129286616346
30
0
41
1
10
43.9772103139023
20
9.37104958538819
30
0
41
1
10
43.7877055792117
20
9.40430022918017
30
0
0
SPLINE
5
197
100
AcDbEntity
8
1
62
256
6
ByLayer
370
18
48
1
60
0
100
AcDbSpline
70
4
71
3
72
14
73
10
40
0
40
0
40
0
40
0
40
0.199066929016232
40
0.352505085847766
40
0.460290763948204
40
0.532454423199317
40
0.654553023396026
40
0.817183320683546
40
1
40
1
40
1
40
1
41
1
10
16.8271722554749
20
-9.40732284257234
30
0
41
1
10
17.0243966038967
20
-9.37278118259948
30
0
41
1
10
17.3736275555869
20
-9.3117229156943
30
0
41
1
10
17.8296070661239
20
-9.23192239131646
30
0
41
1
10
18.1598699916462
20
-9.17465291076192
30
0
41
1
10
18.4591217438588
20
-9.12328461673459
30
0
41
1
10
18.8126740485158
20
-9.06339134077555
30
0
41
1
10
19.2758513749747
20
-8.98667338214403
30
0
41
1
10
19.6182010651494
20
-8.93227144966087
30
0
41
1
10
19.7994040127134
20
-8.90405561862144
30
0
0
SPLINE
5
198
100
AcDbEntity
8
1
62
256
6
ByLayer
370
18
48
1
60
0
100
AcDbSpline
70
4
71
2
72
6
73
3
40
0
40
0
40
0
40
1
40
1
40
1
41
1
10
15.746098820274
20
3.26809016225272
30
0
41
1
10
15.7460991934809
20
3.26837880272191
30
0
41
1
10
15.7460995666878
20
3.26866740198122
30
0
0
SPLINE
5
199
100
AcDbEntity
8
1
62
256
6
ByLayer
370
18
48
1
60
0
100
AcDbSpline
70
4
71
3
72
15
73
11
40
0
40
0
40
0
40
0
40
0.156520689145623
40
0.297094625592771
40
0.401133418741057
40
0.46964952943298
40
0.548903314834846
40
0.663708939069508
40
0.81408018963422
40
1
40
1
40
1
40
1
41
1
10
19.7986757370266
20
8.90414200497577
30
0
41
1
10
19.6434259790902
20
8.92830085854797
30
0
41
1
10
19.3488382380116
20
8.97497813314584
30
0
41
1
10
18.9513780680785
20
9.04032058561523
30
0
41
1
10
18.6412094111644
20
9.09238709559224
30
0
41
1
10
18.3920359133837
20
9.13478269426898
30
0
41
1
10
18.132137722788
20
9.17942936627057
30
0
41
1
10
17.7910931392139
20
9.23864572610475
30
0
41
1
10
17.3443781655885
20
9.31684726775629
30
0
41
1
10
17.0113180652563
20
9.37508278556209
30
0
41
1
10
16.8271722554749
20
9.40732284257223
30
0
0
SPLINE
5
19A
100
AcDbEntity
8
1
62
256
6
ByLayer
370
18
48
1
60
0
100
AcDbSpline
70
4
71
3
72
14
73
10
40
0
40
0
40
0
40
0
40
0.200399495516939
40
0.354545562375621
40
0.462385817128334
40
0.534116267198081
40
0.655698496085154
40
0.817980727850999
40
1
40
1
40
1
40
1
41
1
10
43.7877055792116
20
-9.40430022918048
30
0
41
1
10
43.9834941595354
20
-9.36993755487663
30
0
41
1
10
44.3298789055376
20
-9.30947987736437
30
0
41
1
10
44.7815701655512
20
-9.23082158081147
30
0
41
1
10
45.1076185098733
20
-9.1751871790064
30
0
41
1
10
45.401741360506
20
-9.12591925481431
30
0
41
1
10
45.7490481796599
20
-9.06897411234911
30
0
41
1
10
46.2041284533056
20
-8.99689581942596
30
0
41
1
10
46.5402843456963
20
-8.94459022463286
30
0
41
1
10
46.7179710840846
20
-8.91732394658194
30
0
0
SPLINE
5
19B
100
AcDbEntity
8
1
62
256
6
ByLayer
370
18
48
1
60
0
100
AcDbSpline
70
4
71
3
72
14
73
10
40
0
40
0
40
0
40
0
40
0.167073928648875
40
0.315668036557434
40
0.424733756373561
40
0.496643828649369
40
0.612937980482355
40
0.78074255084018
40
1
40
1
40
1
40
1
41
1
10
33.7225800989683
20
8.90059642077409
30
0
41
1
10
33.5572080689196
20
8.92780543695511
30
0
41
1
10
33.2447915497122
20
8.97979414407791
30
0
41
1
10
32.8245888624582
20
9.05171948066916
30
0
41
1
10
32.4985056789011
20
9.107792283653
30
0
41
1
10
32.2043391187633
20
9.15844639627707
30
0
41
1
10
31.852208226296
20
9.21906713831436
30
0
41
1
10
31.3541653702706
20
9.30440476665294
30
0
41
1
10
30.971094714993
20
9.37055849453185
30
0
41
1
10
30.7540598698559
20
9.40811353003903
30
0
0
SPLINE
5
19C
100
AcDbEntity
8
1
62
256
6
ByLayer
370
18
48
1
60
0
100
AcDbSpline
70
4
71
3
72
14
73
10
40
0
40
0
40
0
40
0
40
0.183543337394847
40
0.328376407062931
40
0.434489338469788
40
0.504928983760442
40
0.623315336340081
40
0.795376027426714
40
1
40
1
40
1
40
1
41
1
10
30.7540598698558
20
-9.40811353003926
30
0
41
1
10
30.9357262413533
20
-9.37662393384241
30
0
41
1
10
31.2606995114629
20
-9.32044596723097
30
0
41
1
10
31.6906372773611
20
-9.24680902251797
30
0
41
1
10
32.0085216102505
20
-9.19214968417418
30
0
41
1
10
32.3003459630343
20
-9.14191690648812
30
0
41
1
10
32.6574567485543
20
-9.08044086070504
30
0
41
1
10
33.1472179198015
20
-8.99623874844178
30
0
41
1
10
33.5200088308401
20
-8.93403579631675
30
0
41
1
10
33.7225354018395
20
-8.90063529042317
30
0
0
LINE
5
7F
100
AcDbEntity
8
4
62
256
6
ByLayer
370
18
48
0.05
60
0
100
AcDbLine
10
0
20
0
30
0
11
56.35
21
0
31
0
39
0
210
0
220
0
230
1
0
LINE
5
81
100
AcDbEntity
8
80
62
256
6
ByLayer
370
18
48
1
60
0
100
AcDbLine
10
0
20
0
30
0
11
-5
21
0
31
0
39
0
210
0
220
0
230
1
0
LINE
5
82
100
AcDbEntity
8
SK4
62
256
6
ByLayer
370
18
48
0.05
60
0
100
AcDbLine
10
-51.6
20
0
30
0
11
56.35
21
0
31
0
39
0
210
0
220
0
230
1
0
LINE
5
84
100
AcDbEntity
8
81
62
256
6
ByLayer
370
18
48
1
60
0
100
AcDbLine
10
56.35
20
0
30
0
11
61.35
21
0
31
0
39
0
210
0
220
0
230
1
0
LINE
5
85
100
AcDbEntity
8
1
62
256
6
ByLayer
370
18
48
1
60
0
100
AcDbLine
10
0
20
9.525
30
0
11
0
21
0
31
0
39
0
210
0
220
0
230
1
0
LINE
5
86
100
AcDbEntity
8
1
62
256
6
ByLayer
370
18
48
1
60
0
100
AcDbLine
10
0
20
0
30
0
11
0
21
-9.525
31
0
39
0
210
0
220
0
230
1
0
LINE
5
87
100
AcDbEntity
8
1
62
256
6
ByLayer
370
18
48
1
60
0
100
AcDbLine
10
56.256086
20
-0.099243
30
0
11
56.25694
21
-0.092553
31
0
39
0
210
0
220
0
230
1
0
LINE
5
88
100
AcDbEntity
8
1
62
256
6
ByLayer
370
18
48
1
60
0
100
AcDbLine
10
56.25694
20
-0.092553
30
0
11
56.222257
21
2E-06
31
0
39
0
210
0
220
0
230
1
0
LINE
5
89
100
AcDbEntity
8
1
62
256
6
ByLayer
370
18
48
1
60
0
100
AcDbLine
10
56.140372
20
-0.14402
30
0
11
56.105376
21
-0.489276
31
0
39
0
210
0
220
0
230
1
0
LINE
5
8A
100
AcDbEntity
8
1
62
256
6
ByLayer
370
18
48
1
60
0
100
AcDbLine
10
56.25694
20
6.121055
30
0
11
56.125956
21
1.303848
31
0
39
0
210
0
220
0
230
1
0
LINE
5
8B
100
AcDbEntity
8
1
62
256
6
ByLayer
370
18
48
1
60
0
100
AcDbLine
10
56.2028
20
6.100054
30
0
11
56.25694
21
6.121055
31
0
39
0
210
0
220
0
230
1
0
LINE
5
8C
100
AcDbEntity
8
1
62
256
6
ByLayer
370
18
48
1
60
0
100
AcDbLine
10
55.78511
20
-0.561303
30
0
11
55.778622
21
-0.525409
31
0
39
0
210
0
220
0
230
1
0
LINE
5
8D
100
AcDbEntity
8
1
62
256
6
ByLayer
370
18
48
1
60
0
100
AcDbLine
10
56.256086
20
-6.119319
30
0
11
56.25694
21
-6.121055
31
0
39
0
210
0
220
0
230
1
0
LINE
5
8E
100
AcDbEntity
8
1
62
256
6
ByLayer
370
18
48
1
60
0
100
AcDbLine
10
56.25694
20
-6.121055
30
0
11
56.111868
21
-0.785739
31
0
39
0
210
0
220
0
230
1
0
LINE
5
8F
100
AcDbEntity
8
1
62
256
6
ByLayer
370
18
48
1
60
0
100
AcDbLine
10
54.210942
20
-9.095039
30
0
11
54.462032
21
-9.098249
31
0
39
0
210
0
220
0
230
1
0
LINE
5
90
100
AcDbEntity
8
1
62
256
6
ByLayer
370
13
48
1
60
0
100
AcDbLine
10
54.462032
20
-9.098249
30
0
11
54.407182
21
-8.977696
31
0
39
0
210
0
220
0
230
1
0
LINE
5
91
100
AcDbEntity
8
1
62
256
6
ByLayer
370
13
48
1
60
0
100
AcDbLine
10
14.711377
20
-9.074612
30
0
11
14.711377
21
-9.276318
31
0
39
0
210
0
220
0
230
1
0
LINE
5
92
100
AcDbEntity
8
1
62
256
6
ByLayer
370
18
48
1
60
0
100
AcDbLine
10
55.96606
20
-1.795715
30
0
11
55.920353
21
-2.103973
31
0
39
0
210
0
220
0
230
1
0
LINE
5
93
100
AcDbEntity
8
1
62
256
6
ByLayer
370
18
48
1
60
0
100
AcDbLine
10
56.028031
20
-6.282039
30
0
11
55.920353
21
-2.103973
31
0
39
0
210
0
220
0
230
1
0
LINE
5
94
100
AcDbEntity
8
1
62
256
6
ByLayer
370
18
48
1
60
0
100
AcDbLine
10
55.920353
20
-2.103973
30
0
11
55.217335
21
-2.911457
31
0
39
0
210
0
220
0
230
1
0
LINE
5
95
100
AcDbEntity
8
1
62
256
6
ByLayer
370
13
48
1
60
0
100
AcDbLine
10
55.96606
20
-1.795715
30
0
11
53.941624
21
-1.028261
31
0
39
0
210
0
220
0
230
1
0
LINE
5
96
100
AcDbEntity
8
1
62
256
6
ByLayer
370
18
48
1
60
0
100
AcDbLine
10
56.256086
20
0.099243
30
0
11
56.25694
21
0.092553
31
0
39
0
210
0
220
0
230
1
0
LINE
5
97
100
AcDbEntity
8
1
62
256
6
ByLayer
370
18
48
1
60
0
100
AcDbLine
10
56.2028
20
0.103983
30
0
11
56.25694
21
0.092553
31
0
39
0
210
0
220
0
230
1
0
LINE
5
98
100
AcDbEntity
8
1
62
256
6
ByLayer
370
13
48
1
60
0
100
AcDbLine
10
54.489529
20
0.503632
30
0
11
56.171978
21
-0.134176
31
0
39
0
210
0
220
0
230
1
0
LINE
5
99
100
AcDbEntity
8
1
62
256
6
ByLayer
370
18
48
1
60
0
100
AcDbLine
10
56.25694
20
0.092553
30
0
11
56.171978
21
-0.134176
31
0
39
0
210
0
220
0
230
1
0
LINE
5
9A
100
AcDbEntity
8
1
62
256
6
ByLayer
370
13
48
1
60
0
100
AcDbLine
10
13.711377
20
-8.836307
30
0
11
13.711377
21
-7.808851
31
0
39
0
210
0
220
0
230
1
0
LINE
5
9B
100
AcDbEntity
8
1
62
256
6
ByLayer
370
13
48
1
60
0
100
AcDbLine
10
15.07
20
-7.858838
30
0
11
15.07
21
-8.313274
31
0
39
0
210
0
220
0
230
1
0
LINE
5
9C
100
AcDbEntity
8
1
62
256
6
ByLayer
370
13
48
1
60
0
100
AcDbLine
10
13.711377
20
2.414815
30
0
11
13.711377
21
4.976728
31
0
39
0
210
0
220
0
230
1
0
LINE
5
9D
100
AcDbEntity
8
1
62
256
6
ByLayer
370
13
48
1
60
0
100
AcDbLine
10
54.462032
20
1.899492
30
0
11
54.407182
21
2.339906
31
0
39
0
210
0
220
0
230
1
0
LINE
5
9E
100
AcDbEntity
8
1
62
256
6
ByLayer
370
13
48
1
60
0
100
AcDbLine
10
7.135358
20
-9.05
30
0
11
7.135358
21
-7.66354
31
0
39
0
210
0
220
0
230
1
0
LINE
5
9F
100
AcDbEntity
8
1
62
256
6
ByLayer
370
13
48
1
60
0
100
AcDbLine
10
7.135358
20
5.210046
30
0
11
7.135358
21
-7.522448
31
0
39
0
210
0
220
0
230
1
0
LINE
5
A0
100
AcDbEntity
8
1
62
256
6
ByLayer
370
13
48
1
60
0
100
AcDbLine
10
7.135358
20
9.05
30
0
11
7.135358
21
5.419885
31
0
39
0
210
0
220
0
230
1
0
LINE
5
A1
100
AcDbEntity
8
1
62
256
6
ByLayer
370
13
48
1
60
0
100
AcDbLine
10
14.711377
20
2.587588
30
0
11
14.711377
21
1.36411
31
0
39
0
210
0
220
0
230
1
0
LINE
5
A2
100
AcDbEntity
8
1
62
256
6
ByLayer
370
13
48
1
60
0
100
AcDbLine
10
6.135358
20
9.317949
30
0
11
6.135358
21
0
31
0
39
0
210
0
220
0
230
1
0
LINE
5
A3
100
AcDbEntity
8
1
62
256
6
ByLayer
370
13
48
1
60
0
100
AcDbLine
10
6.135358
20
0
30
0
11
6.135358
21
-9.317949
31
0
39
0
210
0
220
0
230
1
0
LINE
5
A4
100
AcDbEntity
8
1
62
256
6
ByLayer
370
18
48
1
60
0
100
AcDbLine
10
5.776735
20
9.525
30
0
11
5.776735
21
0
31
0
39
0
210
0
220
0
230
1
0
LINE
5
A5
100
AcDbEntity
8
1
62
256
6
ByLayer
370
18
48
1
60
0
100
AcDbLine
10
5.776735
20
0
30
0
11
5.776735
21
-9.525
31
0
39
0
210
0
220
0
230
1
0
LINE
5
A6
100
AcDbEntity
8
1
62
256
6
ByLayer
370
18
48
1
60
0
100
AcDbLine
10
15.07
20
9.513805
30
0
11
15.07
21
9.514865
31
0
39
0
210
0
220
0
230
1
0
LINE
5
A7
100
AcDbEntity
8
1
62
256
6
ByLayer
370
13
48
1
60
0
100
AcDbLine
10
15.07
20
9.513805
30
0
11
15.07
21
8.853101
31
0
39
0
210
0
220
0
230
1
0
LINE
5
A8
100
AcDbEntity
8
SK1
62
256
6
ByLayer
370
18
48
1
60
0
100
AcDbLine
10
-51.6
20
-8.525
30
0
11
-51.6
21
8.525
31
0
39
0
210
0
220
0
230
1
0
LINE
5
AA
100
AcDbEntity
8
SK1
62
256
6
ByLayer
370
18
48
1
60
0
100
AcDbLine
10
0
20
9.525
30
0
11
0
21
0
31
0
39
0
210
0
220
0
230
1
0
LINE
5
AB
100
AcDbEntity
8
SK1
62
256
6
ByLayer
370
18
48
1
60
0
100
AcDbLine
10
0
20
0
30
0
11
0
21
-9.525
31
0
39
0
210
0
220
0
230
1
0
LINE
5
AC
100
AcDbEntity
8
SK1
62
256
6
ByLayer
370
18
48
1
60
0
100
AcDbLine
10
-50.6
20
9.525
30
0
11
-50.6
21
-9.525
31
0
39
0
210
0
220
0
230
1
0
LINE
5
AD
100
AcDbEntity
8
SK1
62
256
6
ByLayer
370
18
48
1
60
0
100
AcDbLine
10
-31.58
20
7.62
30
0
11
-33.485
21
9.525
31
0
39
0
210
0
220
0
230
1
0
LINE
5
AE
100
AcDbEntity
8
SK1
62
256
6
ByLayer
370
18
48
1
60
0
100
AcDbLine
10
-18.115
20
9.525
30
0
11
-20.02
21
7.62
31
0
39
0
210
0
220
0
230
1
0
LINE
5
AF
100
AcDbEntity
8
SK1
62
256
6
ByLayer
370
18
48
1
60
0
100
AcDbLine
10
-31.58
20
7.62
30
0
11
-20.02
21
7.62
31
0
39
0
210
0
220
0
230
1
0
LINE
5
B0
100
AcDbEntity
8
1
62
256
6
ByLayer
370
18
48
1
60
0
100
AcDbLine
10
5.776735
20
9.525
30
0
11
0
21
9.525
31
0
39
0
210
0
220
0
230
1
0
LINE
5
B1
100
AcDbEntity
8
1
62
256
6
ByLayer
370
18
48
1
60
0
100
AcDbLine
10
0
20
-9.525
30
0
11
5.776735
21
-9.525
31
0
39
0
210
0
220
0
230
1
0
LINE
5
B2
100
AcDbEntity
8
1
62
256
6
ByLayer
370
18
48
1
60
0
100
AcDbLine
10
7.135358
20
-9.05
30
0
11
8.840123
21
-9.05
31
0
39
0
210
0
220
0
230
1
0
LINE
5
B3
100
AcDbEntity
8
1
62
256
6
ByLayer
370
18
48
1
60
0
100
AcDbLine
10
8.840123
20
9.05
30
0
11
7.135358
21
9.05
31
0
39
0
210
0
220
0
230
1
0
LINE
5
B4
100
AcDbEntity
8
1
62
256
6
ByLayer
370
18
48
1
60
0
100
AcDbLine
10
6.135358
20
9.317949
30
0
11
5.776735
21
9.525
31
0
39
0
210
0
220
0
230
1
0
LINE
5
B5
100
AcDbEntity
8
1
62
256
6
ByLayer
370
18
48
1
60
0
100
AcDbLine
10
5.776735
20
-9.525
30
0
11
6.135358
21
-9.317949
31
0
39
0
210
0
220
0
230
1
0
LINE
5
B6
100
AcDbEntity
8
1
62
256
6
ByLayer
370
18
48
1
60
0
100
AcDbLine
10
28.778047
20
3.25764
30
0
11
28.778026
21
3.25766
31
0
39
0
210
0
220
0
230
1
0
LINE
5
B7
100
AcDbEntity
8
SK1
62
256
6
ByLayer
370
18
48
1
60
0
100
AcDbLine
10
-51.6
20
-8.525
30
0
11
-50.6
21
-9.525
31
0
39
0
210
0
220
0
230
1
0
LINE
5
B8
100
AcDbEntity
8
SK1
62
256
6
ByLayer
370
18
48
1
60
0
100
AcDbLine
10
-50.6
20
9.525
30
0
11
-51.6
21
8.525
31
0
39
0
210
0
220
0
230
1
0
LINE
5
B9
100
AcDbEntity
8
SK1
62
256
6
ByLayer
370
18
48
1
60
0
100
AcDbLine
10
0
20
9.525
30
0
11
-18.115
21
9.525
31
0
39
0
210
0
220
0
230
1
0
LINE
5
BA
100
AcDbEntity
8
SK1
62
256
6
ByLayer
370
18
48
1
60
0
100
AcDbLine
10
-33.485
20
9.525
30
0
11
-50.6
21
9.525
31
0
39
0
210
0
220
0
230
1
0
LINE
5
BB
100
AcDbEntity
8
SK1
62
256
6
ByLayer
370
18
48
1
60
0
100
AcDbLine
10
-50.6
20
-9.525
30
0
11
0
21
-9.525
31
0
39
0
210
0
220
0
230
1
0
LINE
5
BC
100
AcDbEntity
8
SK2
62
256
6
ByLayer
370
13
48
1
60
0
100
AcDbLine
10
-79.85
20
9.525
30
0
11
-79.85
21
-9.525
31
0
39
0
210
0
220
0
230
1
0
LINE
5
BE
100
AcDbEntity
8
SK2
62
256
6
ByLayer
370
13
48
1
60
0
100
AcDbLine
10
-53.1875
20
-9.525
30
0
11
-81.85
21
-9.525
31
0
39
0
210
0
220
0
230
1
0
LINE
5
BF
100
AcDbEntity
8
SK2
62
256
6
ByLayer
370
13
48
1
60
0
100
AcDbLine
10
-53.1875
20
9.525
30
0
11
-81.85
21
9.525
31
0
39
0
210
0
220
0
230
1
0
LINE
5
C0
100
AcDbEntity
8
1
62
256
6
ByLayer
370
18
48
1
60
1
100
AcDbLine
10
-79.85
20
-9.525
30
0
11
-80.310784
21
-6.025002
31
0
39
0
210
0
220
0
230
1
0
LINE
5
C1
100
AcDbEntity
8
1
62
256
6
ByLayer
370
18
48
1
60
1
100
AcDbLine
10
-80.310784
20
-6.025002
30
0
11
-79.389216
21
-6.024998
31
0
39
0
210
0
220
0
230
1
0
LINE
5
C2
100
AcDbEntity
8
1
62
256
6
ByLayer
370
18
48
1
60
1
100
AcDbLine
10
-79.389216
20
-6.024998
30
0
11
-79.85
21
-9.525
31
0
39
0
210
0
220
0
230
1
0
LINE
5
C3
100
AcDbEntity
8
1
62
256
6
ByLayer
370
18
48
1
60
1
100
AcDbLine
10
-79.85
20
9.525
30
0
11
-79.389216
21
6.025002
31
0
39
0
210
0
220
0
230
1
0
LINE
5
C4
100
AcDbEntity
8
1
62
256
6
ByLayer
370
18
48
1
60
1
100
AcDbLine
10
-79.389216
20
6.025002
30
0
11
-80.310784
21
6.024998
31
0
39
0
210
0
220
0
230
1
0
LINE
5
C5
100
AcDbEntity
8
1
62
256
6
ByLayer
370
18
48
1
60
1
100
AcDbLine
10
-80.310784
20
6.024998
30
0
11
-79.85
21
9.525
31
0
39
0
210
0
220
0
230
1
0
LINE
5
C6
100
AcDbEntity
8
SK2
62
256
6
ByLayer
370
13
48
1
60
0
100
AcDbLine
10
6.82
20
9.05
30
0
11
6.82
21
-9.05
31
0
39
0
210
0
220
0
230
1
0
LINE
5
C7
100
AcDbEntity
8
SK2
62
256
6
ByLayer
370
13
48
1
60
0
100
AcDbLine
10
13.4825
20
-9.05
30
0
11
4.82
21
-9.05
31
0
39
0
210
0
220
0
230
1
0
LINE
5
C8
100
AcDbEntity
8
SK2
62
256
6
ByLayer
370
13
48
1
60
0
100
AcDbLine
10
13.4825
20
9.05
30
0
11
4.82
21
9.05
31
0
39
0
210
0
220
0
230
1
0
LINE
5
C9
100
AcDbEntity
8
1
62
256
6
ByLayer
370
18
48
1
60
1
100
AcDbLine
10
6.82
20
-9.05
30
0
11
6.359216
21
-5.550002
31
0
39
0
210
0
220
0
230
1
0
LINE
5
CA
100
AcDbEntity
8
1
62
256
6
ByLayer
370
18
48
1
60
1
100
AcDbLine
10
6.359216
20
-5.550002
30
0
11
7.280784
21
-5.549998
31
0
39
0
210
0
220
0
230
1
0
LINE
5
CB
100
AcDbEntity
8
1
62
256
6
ByLayer
370
18
48
1
60
1
100
AcDbLine
10
7.280784
20
-5.549998
30
0
11
6.82
21
-9.05
31
0
39
0
210
0
220
0
230
1
0
LINE
5
CC
100
AcDbEntity
8
1
62
256
6
ByLayer
370
18
48
1
60
1
100
AcDbLine
10
6.82
20
9.05
30
0
11
7.280784
21
5.550002
31
0
39
0
210
0
220
0
230
1
0
LINE
5
CD
100
AcDbEntity
8
1
62
256
6
ByLayer
370
18
48
1
60
1
100
AcDbLine
10
7.280784
20
5.550002
30
0
11
6.359216
21
5.549998
31
0
39
0
210
0
220
0
230
1
0
LINE
5
CE
100
AcDbEntity
8
1
62
256
6
ByLayer
370
18
48
1
60
1
100
AcDbLine
10
6.359216
20
5.549998
30
0
11
6.82
21
9.05
31
0
39
0
210
0
220
0
230
1
0
LINE
5
CF
100
AcDbEntity
8
2
62
256
6
ByLayer
370
13
48
1
60
0
100
AcDbLine
10
73.35
20
9.525
30
0
11
73.35
21
-9.525
31
0
39
0
210
0
220
0
230
1
0
LINE
5
D1
100
AcDbEntity
8
2
62
256
6
ByLayer
370
13
48
1
60
0
100
AcDbLine
10
57.9375
20
-9.525
30
0
11
75.35
21
-9.525
31
0
39
0
210
0
220
0
230
1
0
LINE
5
D2
100
AcDbEntity
8
2
62
256
6
ByLayer
370
13
48
1
60
0
100
AcDbLine
10
57.9375
20
9.525
30
0
11
75.35
21
9.525
31
0
39
0
210
0
220
0
230
1
0
LINE
5
D3
100
AcDbEntity
8
1
62
256
6
ByLayer
370
18
48
1
60
1
100
AcDbLine
10
73.35
20
-9.525
30
0
11
72.889216
21
-6.025002
31
0
39
0
210
0
220
0
230
1
0
LINE
5
D4
100
AcDbEntity
8
1
62
256
6
ByLayer
370
18
48
1
60
1
100
AcDbLine
10
72.889216
20
-6.025002
30
0
11
73.810784
21
-6.024998
31
0
39
0
210
0
220
0
230
1
0
LINE
5
D5
100
AcDbEntity
8
1
62
256
6
ByLayer
370
18
48
1
60
1
100
AcDbLine
10
73.810784
20
-6.024998
30
0
11
73.35
21
-9.525
31
0
39
0
210
0
220
0
230
1
0
LINE
5
D6
100
AcDbEntity
8
1
62
256
6
ByLayer
370
18
48
1
60
1
100
AcDbLine
10
73.35
20
9.525
30
0
11
73.810784
21
6.025002
31
0
39
0
210
0
220
0
230
1
0
LINE
5
D7
100
AcDbEntity
8
1
62
256
6
ByLayer
370
18
48
1
60
1
100
AcDbLine
10
73.810784
20
6.025002
30
0
11
72.889216
21
6.024998
31
0
39
0
210
0
220
0
230
1
0
LINE
5
D8
100
AcDbEntity
8
1
62
256
6
ByLayer
370
18
48
1
60
1
100
AcDbLine
10
72.889216
20
6.024998
30
0
11
73.35
21
9.525
31
0
39
0
210
0
220
0
230
1
0
LINE
5
1A1
100
AcDbEntity
8
1
62
256
6
ByLayer
370
18
48
1
60
1
100
AcDbLine
10
-79.85
20
-9.525
30
0
11
-80.310784
21
-6.025002
31
0
39
0
210
0
220
0
230
1
0
LINE
5
1A2
100
AcDbEntity
8
1
62
256
6
ByLayer
370
18
48
1
60
1
100
AcDbLine
10
-80.310784
20
-6.025002
30
0
11
-79.389216
21
-6.024998
31
0
39
0
210
0
220
0
230
1
0
LINE
5
1A3
100
AcDbEntity
8
1
62
256
6
ByLayer
370
18
48
1
60
1
100
AcDbLine
10
-79.389216
20
-6.024998
30
0
11
-79.85
21
-9.525
31
0
39
0
210
0
220
0
230
1
0
LINE
5
1A5
100
AcDbEntity
8
1
62
256
6
ByLayer
370
18
48
1
60
1
100
AcDbLine
10
-79.85
20
9.525
30
0
11
-79.389216
21
6.025002
31
0
39
0
210
0
220
0
230
1
0
LINE
5
1A6
100
AcDbEntity
8
1
62
256
6
ByLayer
370
18
48
1
60
1
100
AcDbLine
10
-79.389216
20
6.025002
30
0
11
-80.310784
21
6.024998
31
0
39
0
210
0
220
0
230
1
0
LINE
5
1A7
100
AcDbEntity
8
1
62
256
6
ByLayer
370
18
48
1
60
1
100
AcDbLine
10
-80.310784
20
6.024998
30
0
11
-79.85
21
9.525
31
0
39
0
210
0
220
0
230
1
0
LINE
5
1AB
100
AcDbEntity
8
1
62
256
6
ByLayer
370
18
48
1
60
1
100
AcDbLine
10
6.82
20
-9.05
30
0
11
6.359216
21
-5.550002
31
0
39
0
210
0
220
0
230
1
0
LINE
5
1AC
100
AcDbEntity
8
1
62
256
6
ByLayer
370
18
48
1
60
1
100
AcDbLine
10
6.359216
20
-5.550002
30
0
11
7.280784
21
-5.549998
31
0
39
0
210
0
220
0
230
1
0
LINE
5
1AD
100
AcDbEntity
8
1
62
256
6
ByLayer
370
18
48
1
60
1
100
AcDbLine
10
7.280784
20
-5.549998
30
0
11
6.82
21
-9.05
31
0
39
0
210
0
220
0
230
1
0
LINE
5
1AF
100
AcDbEntity
8
1
62
256
6
ByLayer
370
18
48
1
60
1
100
AcDbLine
10
6.82
20
9.05
30
0
11
7.280784
21
5.550002
31
0
39
0
210
0
220
0
230
1
0
LINE
5
1B0
100
AcDbEntity
8
1
62
256
6
ByLayer
370
18
48
1
60
1
100
AcDbLine
10
7.280784
20
5.550002
30
0
11
6.359216
21
5.549998
31
0
39
0
210
0
220
0
230
1
0
LINE
5
1B1
100
AcDbEntity
8
1
62
256
6
ByLayer
370
18
48
1
60
1
100
AcDbLine
10
6.359216
20
5.549998
30
0
11
6.82
21
9.05
31
0
39
0
210
0
220
0
230
1
0
LINE
5
1B5
100
AcDbEntity
8
1
62
256
6
ByLayer
370
18
48
1
60
1
100
AcDbLine
10
73.35
20
-9.525
30
0
11
72.889216
21
-6.025002
31
0
39
0
210
0
220
0
230
1
0
LINE
5
1B6
100
AcDbEntity
8
1
62
256
6
ByLayer
370
18
48
1
60
1
100
AcDbLine
10
72.889216
20
-6.025002
30
0
11
73.810784
21
-6.024998
31
0
39
0
210
0
220
0
230
1
0
LINE
5
1B7
100
AcDbEntity
8
1
62
256
6
ByLayer
370
18
48
1
60
1
100
AcDbLine
10
73.810784
20
-6.024998
30
0
11
73.35
21
-9.525
31
0
39
0
210
0
220
0
230
1
0
LINE
5
1B9
100
AcDbEntity
8
1
62
256
6
ByLayer
370
18
48
1
60
1
100
AcDbLine
10
73.35
20
9.525
30
0
11
73.810784
21
6.025002
31
0
39
0
210
0
220
0
230
1
0
LINE
5
1BA
100
AcDbEntity
8
1
62
256
6
ByLayer
370
18
48
1
60
1
100
AcDbLine
10
73.810784
20
6.025002
30
0
11
72.889216
21
6.024998
31
0
39
0
210
0
220
0
230
1
0
LINE
5
1BB
100
AcDbEntity
8
1
62
256
6
ByLayer
370
18
48
1
60
1
100
AcDbLine
10
72.889216
20
6.024998
30
0
11
73.35
21
9.525
31
0
39
0
210
0
220
0
230
1
0
MTEXT
5
19D
100
AcDbEntity
8
SK2
62
256
6
ByLayer
370
18
48
1
60
0
100
AcDbMText
10
-81.414634
20
-7.417655
30
0
210
0
220
0
230
1
1
%%c
40
3.5
41
0
44
1.084337
50
90
71
7
72
5
7
iso_b_vert
0
MTEXT
5
1A0
100
AcDbEntity
8
SK2
62
256
6
ByLayer
370
18
48
1
60
0
100
AcDbMText
10
-81.414634
20
-0.444999
30
0
210
0
220
0
230
1
1
\W0.6864;19.05
40
3.5
41
0
44
1.084337
50
90
71
7
72
5
7
iso_b_vert
0
MTEXT
5
1A9
100
AcDbEntity
8
SK2
62
256
6
ByLayer
370
18
48
1
60
0
100
AcDbMText
10
5.255366
20
-5.672489
30
0
210
0
220
0
230
1
1
%%c
40
3.5
41
0
44
1.084337
50
90
71
7
72
5
7
iso_b_vert
0
MTEXT
5
1AA
100
AcDbEntity
8
SK2
62
256
6
ByLayer
370
18
48
1
60
0
100
AcDbMText
10
5.255366
20
1.300167
30
0
210
0
220
0
230
1
1
\W0.6347;18.1
40
3.5
41
0
44
1.084337
50
90
71
7
72
5
7
iso_b_vert
0
MTEXT
5
1B3
100
AcDbEntity
8
2
62
256
6
ByLayer
370
18
48
1
60
0
100
AcDbMText
10
71.785366
20
-7.417655
30
0
210
0
220
0
230
1
1
%%c
40
3.5
41
0
44
1.084337
50
90
71
7
72
5
7
iso_b_vert
0
MTEXT
5
1B4
100
AcDbEntity
8
2
62
256
6
ByLayer
370
18
48
1
60
0
100
AcDbMText
10
71.785366
20
-0.444999
30
0
210
0
220
0
230
1
1
\W0.6864;19.05
40
3.5
41
0
44
1.084337
50
90
71
7
72
5
7
iso_b_vert
0
MTEXT
5
1BD
100
AcDbEntity
8
SK6
62
256
6
ByLayer
370
18
48
1
60
0
100
AcDbMText
10
-23.437587
20
-62.114886
30
0
210
0
220
0
230
1
1
\W0.7292;2S440-1905-304-SD   1725
40
3
41
0
44
1.084337
50
0
71
7
72
5
7
iso_b_vert
0
HATCH
5
1A4
100
AcDbEntity
8
SK2
62
256
6
ByLayer
370
13
48
1
60
0
100
AcDbHatch
10
0
20
0
30
0
210
0
220
0
230
1
2
ANSI31
70
0
71
0
91
1
92
5
93
3
72
1
10
-79.85
20
-9.52499999999978
11
-80.3107837415527
21
-6.02500169255296
72
1
10
-80.3107837415527
20
-6.02500169255296
11
-79.3892162584472
21
-6.02499830744659
72
1
10
-79.3892162584472
20
-6.02499830744659
11
-79.85
21
-9.52499999999978
97
0
75
0
76
1
52
0
41
0.0062
77
0
78
1
53
45
43
0
44
0
45
-0.0139193969876572
46
0.0139193969876572
79
0
47
0
98
1
10
0
20
0
0
HATCH
5
1A8
100
AcDbEntity
8
SK2
62
256
6
ByLayer
370
13
48
1
60
0
100
AcDbHatch
10
0
20
0
30
0
210
0
220
0
230
1
2
ANSI31
70
0
71
0
91
1
92
5
93
3
72
1
10
-79.85
20
9.5250000000002
11
-79.3892162584472
21
6.02500169255339
72
1
10
-79.3892162584472
20
6.02500169255339
11
-80.3107837415527
21
6.02499830744702
72
1
10
-80.3107837415527
20
6.02499830744702
11
-79.85
21
9.5250000000002
97
0
75
0
76
1
52
0
41
0.0062
77
0
78
1
53
45
43
0
44
0
45
-0.0139193969876572
46
0.0139193969876572
79
0
47
0
98
1
10
0
20
0
0
HATCH
5
1AE
100
AcDbEntity
8
SK2
62
256
6
ByLayer
370
13
48
1
60
0
100
AcDbHatch
10
0
20
0
30
0
210
0
220
0
230
1
2
ANSI31
70
0
71
0
91
1
92
5
93
3
72
1
10
6.82000000000002
20
-9.05000000000004
11
6.35921625844725
21
-5.55000169255322
72
1
10
6.35921625844725
20
-5.55000169255322
11
7.2807837415528
21
-5.54999830744686
72
1
10
7.2807837415528
20
-5.54999830744686
11
6.82000000000002
21
-9.05000000000004
97
0
75
0
76
1
52
0
41
0.0062
77
0
78
1
53
45
43
0
44
0
45
-0.0139193969876572
46
0.0139193969876572
79
0
47
0
98
1
10
0
20
0
0
HATCH
5
1B2
100
AcDbEntity
8
SK2
62
256
6
ByLayer
370
13
48
1
60
0
100
AcDbHatch
10
0
20
0
30
0
210
0
220
0
230
1
2
ANSI31
70
0
71
0
91
1
92
5
93
3
72
1
10
6.82000000000002
20
9.04999999999995
11
7.2807837415528
21
5.55000169255314
72
1
10
7.2807837415528
20
5.55000169255314
11
6.35921625844725
21
5.54999830744677
72
1
10
6.35921625844725
20
5.54999830744677
11
6.82000000000002
21
9.04999999999995
97
0
75
0
76
1
52
0
41
0.0062
77
0
78
1
53
45
43
0
44
0
45
-0.0139193969876572
46
0.0139193969876572
79
0
47
0
98
1
10
0
20
0
0
HATCH
5
1B8
100
AcDbEntity
8
2
62
256
6
ByLayer
370
13
48
1
60
0
100
AcDbHatch
10
0
20
0
30
0
210
0
220
0
230
1
2
ANSI31
70
0
71
0
91
1
92
5
93
3
72
1
10
73.3500000000001
20
-9.5250000000002
11
72.8892162584472
21
-6.02500169255339
72
1
10
72.8892162584472
20
-6.02500169255339
11
73.8107837415529
21
-6.02499830744702
72
1
10
73.8107837415529
20
-6.02499830744702
11
73.3500000000001
21
-9.5250000000002
97
0
75
0
76
1
52
0
41
0.0062
77
0
78
1
53
45
43
0
44
0
45
-0.0139193969876572
46
0.0139193969876572
79
0
47
0
98
1
10
0
20
0
0
HATCH
5
1BC
100
AcDbEntity
8
2
62
256
6
ByLayer
370
13
48
1
60
0
100
AcDbHatch
10
0
20
0
30
0
210
0
220
0
230
1
2
ANSI31
70
0
71
0
91
1
92
5
93
3
72
1
10
73.3500000000001
20
9.52499999999981
11
73.8107837415529
21
6.02500169255299
72
1
10
73.8107837415529
20
6.02500169255299
11
72.8892162584472
21
6.02499830744662
72
1
10
72.8892162584472
20
6.02499830744662
11
73.3500000000001
21
9.52499999999981
97
0
75
0
76
1
52
0
41
0.0062
77
0
78
1
53
45
43
0
44
0
45
-0.0139193969876572
46
0.0139193969876572
79
0
47
0
98
1
10
0
20
0
0
DIMENSION
5
1C0
100
AcDbEntity
8
SK2
62
256
6
ByLayer
370
18
48
1
60
0
100
AcDbDimension
2
_U0
10
15.07
20
-18.583324
30
0
11
35.71
21
-18.583324
31
0
70
32
71
1
72
1
41
1
210
0
220
0
230
1
3
Standard
100
AcDbAlignedDimension
13
56.35
23
-9.525
33
0
14
15.07
24
-9.525
34
0
50
0
100
AcDbRotatedDimension
1001
ACAD
1000
DSTYLE
1002
{
1070
   371
1070
    13
1070
   372
1070
    13
1070
   170
1070
     0
1070
   144
1040
1.0
1070
   277
1070
     2
1070
   284
1070
     8
1070
   278
1070
    46
1070
   146
1040
1.0
1070
   345
1005
16
1070
   347
1005
16
1070
   346
1005
16
1070
   344
1005
0
1070
   343
1005
0
1070
   172
1070
     1
1070
    76
1070
     0
1070
    75
1070
     0
1070
   282
1070
     0
1070
   281
1070
     0
1070
    71
1070
     0
1070
    74
1070
     0
1070
   279
1070
     0
1070
   173
1070
     1
1070
   340
1005
19E
1070
   271
1070
     2
1070
   272
1070
     2
1070
    77
1070
     1
1070
    73
1070
     1
1070
   171
1070
     3
1070
   274
1070
     4
1070
   177
1070
     2
1070
   176
1070
     2
1070
   178
1070
     2
1070
    78
1070
     8
1070
    48
1040
-0.1
1070
    41
1040
3.5
1070
   147
1040
1.75
1070
    42
1040
1.5875
1070
    44
1040
2.0
1070
   140
1040
3.5
1002
}
1001
ACAD_DSTYLE_DIM_LINETYPE
1070
   380
1005
16
1001
ACAD_DSTYLE_DIM_EXT1_LINETYPE
1070
   381
1005
16
1001
ACAD_DSTYLE_DIM_EXT2_LINETYPE
1070
   382
1005
16
0
DIMENSION
5
1D9
100
AcDbEntity
8
SK2
62
256
6
ByLayer
370
18
48
1
60
0
100
AcDbDimension
2
_U1
10
7.14
20
-31.583324
30
0
11
31.745
21
-31.583324
31
0
70
32
71
1
72
1
41
1
210
0
220
0
230
1
3
Standard
100
AcDbAlignedDimension
13
56.35
23
-9.525
33
0
14
7.14
24
-9.525
34
0
50
0
100
AcDbRotatedDimension
1001
ACAD
1000
DSTYLE
1002
{
1070
   371
1070
    13
1070
   372
1070
    13
1070
   170
1070
     0
1070
   144
1040
1.0
1070
   277
1070
     2
1070
   284
1070
     8
1070
   278
1070
    46
1070
   146
1040
1.0
1070
   345
1005
16
1070
   347
1005
16
1070
   346
1005
16
1070
   344
1005
0
1070
   343
1005
0
1070
   172
1070
     1
1070
    76
1070
     0
1070
    75
1070
     0
1070
   282
1070
     0
1070
   281
1070
     0
1070
    71
1070
     0
1070
    74
1070
     0
1070
   279
1070
     0
1070
   173
1070
     1
1070
   340
1005
19E
1070
   271
1070
     2
1070
   272
1070
     2
1070
    77
1070
     1
1070
    73
1070
     1
1070
   171
1070
     3
1070
   274
1070
     4
1070
   177
1070
     2
1070
   176
1070
     2
1070
   178
1070
     2
1070
    78
1070
     8
1070
    48
1040
-0.1
1070
    41
1040
3.5
1070
   147
1040
1.75
1070
    42
1040
1.5875
1070
    44
1040
2.0
1070
   140
1040
3.5
1002
}
1001
ACAD_DSTYLE_DIM_LINETYPE
1070
   380
1005
16
1001
ACAD_DSTYLE_DIM_EXT1_LINETYPE
1070
   381
1005
16
1001
ACAD_DSTYLE_DIM_EXT2_LINETYPE
1070
   382
1005
16
0
DIMENSION
5
1F1
100
AcDbEntity
8
SK2
62
256
6
ByLayer
370
18
48
1
60
0
100
AcDbDimension
2
_U2
10
37.3
20
20.083324
30
0
11
46.825
21
20.083324
31
0
70
32
71
1
72
1
41
1
210
0
220
0
230
1
3
Standard
100
AcDbAlignedDimension
13
56.35
23
9.525
33
0
14
37.3
24
9.525
34
0
50
0
100
AcDbRotatedDimension
1001
ACAD
1000
DSTYLE
1002
{
1070
   371
1070
    13
1070
   372
1070
    13
1070
   170
1070
     0
1070
   144
1040
1.0
1070
   277
1070
     2
1070
   284
1070
     8
1070
   278
1070
    46
1070
   146
1040
1.0
1070
   345
1005
16
1070
   347
1005
16
1070
   346
1005
16
1070
   344
1005
0
1070
   343
1005
0
1070
   172
1070
     1
1070
    76
1070
     0
1070
    75
1070
     0
1070
   282
1070
     0
1070
   281
1070
     0
1070
    47
1040
1.905
1070
    72
1070
     0
1070
    71
1070
     1
1070
    74
1070
     0
1070
   279
1070
     0
1070
   173
1070
     1
1070
   340
1005
19E
1070
   271
1070
     2
1070
   272
1070
     2
1070
    77
1070
     1
1070
    73
1070
     1
1070
   171
1070
     3
1070
   274
1070
     4
1070
   177
1070
     2
1070
   176
1070
     2
1070
   178
1070
     2
1070
    78
1070
     8
1070
    48
1040
1.905
1070
    41
1040
3.5
1070
   147
1040
1.75
1070
    42
1040
1.5875
1070
    44
1040
2.0
1070
   140
1040
3.5
1002
}
1001
ACAD_DSTYLE_DIM_LINETYPE
1070
   380
1005
16
1001
ACAD_DSTYLE_DIM_EXT1_LINETYPE
1070
   381
1005
16
1001
ACAD_DSTYLE_DIM_EXT2_LINETYPE
1070
   382
1005
16
0
DIMENSION
5
20A
100
AcDbEntity
8
2
62
256
6
ByLayer
370
18
48
1
60
0
100
AcDbDimension
2
_U3
10
56.35
20
-43.583324
30
0
11
2.375
21
-43.583324
31
0
70
32
71
1
72
1
41
1
210
0
220
0
230
1
3
Standard
100
AcDbAlignedDimension
13
-51.6
23
-9.525
33
0
14
56.35
24
-9.525
34
0
50
0
100
AcDbRotatedDimension
1001
ACAD
1000
DSTYLE
1002
{
1070
   371
1070
    13
1070
   372
1070
    13
1070
   170
1070
     0
1070
   144
1040
1.0
1070
   277
1070
     2
1070
   284
1070
     8
1070
   278
1070
    46
1070
   146
1040
1.0
1070
   345
1005
16
1070
   347
1005
16
1070
   346
1005
16
1070
   344
1005
0
1070
   343
1005
0
1070
   172
1070
     1
1070
    76
1070
     0
1070
    75
1070
     0
1070
   282
1070
     0
1070
   281
1070
     0
1070
    71
1070
     0
1070
    74
1070
     0
1070
   279
1070
     0
1070
   173
1070
     1
1070
   340
1005
19E
1070
   271
1070
     2
1070
   272
1070
     2
1070
    77
1070
     1
1070
    73
1070
     1
1070
   171
1070
     3
1070
   274
1070
     4
1070
   177
1070
     2
1070
   176
1070
     2
1070
   178
1070
     2
1070
    78
1070
     8
1070
    48
1040
-0.1
1070
    41
1040
3.5
1070
   147
1040
1.75
1070
    42
1040
1.5875
1070
    44
1040
2.0
1070
   140
1040
3.5
1002
}
1001
ACAD_DSTYLE_DIM_LINETYPE
1070
   380
1005
16
1001
ACAD_DSTYLE_DIM_EXT1_LINETYPE
1070
   381
1005
16
1001
ACAD_DSTYLE_DIM_EXT2_LINETYPE
1070
   382
1005
16
0
ENDSEC
0
SECTION
2
OBJECTS
0
DICTIONARY
5
292
330
0
100
AcDbDictionary
280
0
281
1
3
ACAD_GROUP
350
293
3
ACAD_MLINESTYLE
350
294
0
DICTIONARY
5
293
330
0
100
AcDbDictionary
280
0
281
1
0
DICTIONARY
5
294
330
0
100
AcDbDictionary
280
0
281
1
3
Standard
350
18
0
MLINESTYLE
5
18
330
294
100
AcDbMlineStyle
2
Standard
70
0
3

62
256
51
90
52
90
71
2
49
-0.5
62
256
6
ByLayer
49
0.5
62
256
6
ByLayer
0
RASTERVARIABLES
5
280
330

100
AcDbRasterVariables
90
0
70
1
71
1
72
1
0
ENDSEC
0
EOF
