0
SECTION
2
HEADER
9
$ACADVER
1
AC1015
9
$DWGCODEPAGE
3
ANSI_1252
9
$HANDSEED
5
29c
9
$ANGBASE
50
0
9
$ANGDIR
70
0
9
$ATTMODE
70
1
9
$AUNITS
70
0
9
$AUPREC
70
0
9
$CECOLOR
62
256
9
$CELTSCALE
40
1
9
$CELTYPE
6
ByLayer
9
$CELWEIGHT
370
18
9
$CLAYER
8
0
9
$CMLJUST
70
0
9
$CMLSCALE
40
1
9
$CMLSTYLE
2
Standard
9
$DIMSTYLE
2
Standard
9
$TEXTSIZE
40
0.2
9
$TEXTSTYLE
7
Standard
9
$LUNITS
70
2
9
$LUPREC
70
4
9
$EXTNAMES
290
1
9
$INSUNITS
70
4
9
$LTSCALE
40
1
9
$LWDISPLAY
290
1
9
$PDMODE
70
0
9
$PDSIZE
40
0
9
$PLINEGEN
70
0
0
ENDSEC
0
SECTION
2
CLASSES
0
CLASS
1
RASTERVARIABLES
2
AcDbRasterVariables
3
ISM
90
0
280
0
281
0
0
ENDSEC
0
SECTION
2
TABLES
0
TABLE
2
VPORT
5
292
100
AcDbSymbolTable
0
VPORT
5
1
100
AcDbSymbolTableRecord
100
AcDbViewportTableRecord
2
*Active
70
0
10
0
20
0
11
1
21
1
12
-1
22
1
13
0
23
0
14
0.5
24
0.5
15
10
25
10
16
0
26
0
36
1
17
0
27
0
37
0
0
ENDTAB
0
TABLE
2
LTYPE
5
293
100
AcDbSymbolTable
0
LTYPE
5
14
100
AcDbSymbolTableRecord
100
AcDbLinetypeTableRecord
70
0
2
ByBlock
3

72
65
73
0
40
0
0
LTYPE
5
15
100
AcDbSymbolTableRecord
100
AcDbLinetypeTableRecord
70
0
2
ByLayer
3

72
65
73
0
40
0
0
LTYPE
5
16
100
AcDbSymbolTableRecord
100
AcDbLinetypeTableRecord
70
0
2
Continuous
3
Solid line
72
65
73
0
40
0
0
LTYPE
5
6E
100
AcDbSymbolTableRecord
100
AcDbLinetypeTableRecord
70
0
2
CENTER
3
____ _ ____ _ ____ _ ____
72
65
73
4
40
47.5
49
22
74
0
49
-8.5
74
0
49
8.5
74
0
49
-8.5
74
0
0
LTYPE
5
6F
100
AcDbSymbolTableRecord
100
AcDbLinetypeTableRecord
70
0
2
DASHED
3
__ __ __ __ __ __ __ __ __
72
65
73
2
40
25.72
49
12.86
74
0
49
-12.86
74
0
0
ENDTAB
0
TABLE
2
LAYER
5
294
100
AcDbSymbolTable
0
LAYER
5
10
100
AcDbSymbolTableRecord
100
AcDbLayerTableRecord
2
0
70
0
62
7
6
Continuous
290
1
370
-3
390
0
0
LAYER
5
71
100
AcDbSymbolTableRecord
100
AcDbLayerTableRecord
2
81
70
0
62
-3
6
Continuous
290
1
370
-3
390
0
0
LAYER
5
73
100
AcDbSymbolTableRecord
100
AcDbLayerTableRecord
2
80
70
0
62
-6
6
Continuous
290
1
370
-3
390
0
0
LAYER
5
77
100
AcDbSymbolTableRecord
100
AcDbLayerTableRecord
2
1
70
0
62
4
6
Continuous
290
1
370
-3
390
0
0
LAYER
5
83
100
AcDbSymbolTableRecord
100
AcDbLayerTableRecord
2
4
70
0
62
-2
6
CENTER
290
1
370
-3
390
0
0
LAYER
5
D1
100
AcDbSymbolTableRecord
100
AcDbLayerTableRecord
2
2
70
0
62
7
6
Continuous
290
1
370
-3
390
0
0
LAYER
5
1BD
100
AcDbSymbolTableRecord
100
AcDbLayerTableRecord
2
Defpoints
70
0
62
7
6
Continuous
290
0
370
-3
390
0
0
LAYER
5
27e
100
AcDbSymbolTableRecord
100
AcDbLayerTableRecord
2
SK4
70
0
62
2
6
CENTER
290
1
370
-3
390
0
0
LAYER
5
27f
100
AcDbSymbolTableRecord
100
AcDbLayerTableRecord
2
SK1
70
0
62
4
6
Continuous
290
1
370
-3
390
0
0
LAYER
5
280
100
AcDbSymbolTableRecord
100
AcDbLayerTableRecord
2
SK2
70
0
62
7
6
Continuous
290
1
370
-3
390
0
0
LAYER
5
281
100
AcDbSymbolTableRecord
100
AcDbLayerTableRecord
2
SK6
70
0
62
5
6
Continuous
290
1
370
-3
390
0
0
ENDTAB
0
TABLE
2
STYLE
5
295
100
AcDbSymbolTable
0
STYLE
5
11
100
AcDbSymbolTableRecord
100
AcDbTextStyleTableRecord
2
Standard
3
txt
70
0
71
0
40
0
41
1
42
0
50
0
0
STYLE
5
198
100
AcDbSymbolTableRecord
100
AcDbTextStyleTableRecord
2
iso_b_vert
3
simplex.shx
70
0
71
0
40
0
41
1
42
0
50
0
0
STYLE
5
199
100
AcDbSymbolTableRecord
100
AcDbTextStyleTableRecord
2
DWGDirectTextStyle
3
simplex
70
0
71
0
40
0
41
1
42
0
50
0
0
ENDTAB
0
TABLE
2
DIMSTYLE
5
296
100
AcDbSymbolTable
100
AcDbDimStyleTable
0
DIMSTYLE
105
27
100
AcDbSymbolTableRecord
100
AcDbDimStyleTableRecord
2
Standard
70
0
3
<>
41
0.18
42
0.0625
44
0.18
140
0.18
147
0.09
73
0
74
0
77
1
271
2
275
0
278
52
280
0
340
11
0
ENDTAB
0
TABLE
2
VIEW
5
297
100
AcDbSymbolTable
0
ENDTAB
0
TABLE
2
UCS
5
298
100
AcDbSymbolTable
0
ENDTAB
0
TABLE
2
APPID
5
299
100
AcDbSymbolTable
0
APPID
5
12
100
AcDbSymbolTableRecord
100
AcDbRegAppTableRecord
2
ACAD
70
0
0
APPID
5
1B9
100
AcDbSymbolTableRecord
100
AcDbRegAppTableRecord
2
ACAD_DSTYLE_DIMBREAK
70
0
0
APPID
5
23D
100
AcDbSymbolTableRecord
100
AcDbRegAppTableRecord
2
ACAD_DSTYLE_DIM_LINETYPE
70
0
0
APPID
5
23E
100
AcDbSymbolTableRecord
100
AcDbRegAppTableRecord
2
ACAD_DSTYLE_DIM_EXT1_LINETYPE
70
0
0
APPID
5
23F
100
AcDbSymbolTableRecord
100
AcDbRegAppTableRecord
2
ACAD_DSTYLE_DIM_EXT2_LINETYPE
70
0
0
APPID
5
27A
100
AcDbSymbolTableRecord
100
AcDbRegAppTableRecord
2
ACAD_MLEADERVER
70
0
0
ENDTAB
0
TABLE
2
BLOCK_RECORD
5
29a
100
AcDbSymbolTable
0
BLOCK_RECORD
5
1F
100
AcDbSymbolTableRecord
100
AcDbBlockTableRecord
2
*Model_Space
340
0
70
0
0
BLOCK_RECORD
5
1B
100
AcDbSymbolTableRecord
100
AcDbBlockTableRecord
2
*Paper_Space
340
0
70
0
0
BLOCK_RECORD
5
23
100
AcDbSymbolTableRecord
100
AcDbBlockTableRecord
2
*Paper_Space0
340
0
70
0
0
BLOCK_RECORD
5
1BE
100
AcDbSymbolTableRecord
100
AcDbBlockTableRecord
2
*D1
340
0
70
0
0
BLOCK_RECORD
5
1CB
100
AcDbSymbolTableRecord
100
AcDbBlockTableRecord
2
_U0
340
0
70
0
0
BLOCK_RECORD
5
1D7
100
AcDbSymbolTableRecord
100
AcDbBlockTableRecord
2
*D3
340
0
70
0
0
BLOCK_RECORD
5
1E3
100
AcDbSymbolTableRecord
100
AcDbBlockTableRecord
2
_U1
340
0
70
0
0
BLOCK_RECORD
5
1EF
100
AcDbSymbolTableRecord
100
AcDbBlockTableRecord
2
*D5
340
0
70
0
0
BLOCK_RECORD
5
1FC
100
AcDbSymbolTableRecord
100
AcDbBlockTableRecord
2
_U2
340
0
70
0
0
BLOCK_RECORD
5
20A
100
AcDbSymbolTableRecord
100
AcDbBlockTableRecord
2
*D7
340
0
70
0
0
BLOCK_RECORD
5
216
100
AcDbSymbolTableRecord
100
AcDbBlockTableRecord
2
_U3
340
0
70
0
0
ENDTAB
0
ENDSEC
0
SECTION
2
BLOCKS
0
BLOCK
5
20
100
AcDbEntity
8
0
100
AcDbBlockBegin
2
*Model_Space
70
0
10
0
20
0
30
0
3
*Model_Space
0
ENDBLK
5
21
100
AcDbEntity
8
0
100
AcDbBlockEnd
0
BLOCK
5
1C
100
AcDbEntity
8
0
100
AcDbBlockBegin
2
*Paper_Space
70
0
10
0
20
0
30
0
3
*Paper_Space
0
ENDBLK
5
1D
100
AcDbEntity
8
0
100
AcDbBlockEnd
0
BLOCK
5
24
100
AcDbEntity
8
0
100
AcDbBlockBegin
2
*Paper_Space0
70
0
10
0
20
0
30
0
3
*Paper_Space0
0
ENDBLK
5
25
100
AcDbEntity
8
0
100
AcDbBlockEnd
0
BLOCK
5
1BF
100
AcDbEntity
8
0
100
AcDbBlockBegin
2
*D1
70
1
10
0
20
0
30
0
3
*D1
0
LINE
5
1C1
100
AcDbEntity
8
0
62
256
6
ByLayer
370
-2
48
1
60
0
100
AcDbLine
10
27.5
20
-4.7625
30
0
11
27.5
21
-13.9862
31
0
39
0
210
0
220
0
230
1
0
LINE
5
1C2
100
AcDbEntity
8
0
62
256
6
ByLayer
370
-2
48
1
60
0
100
AcDbLine
10
11.62
20
-4.7625
30
0
11
11.62
21
-13.9862
31
0
39
0
210
0
220
0
230
1
0
LINE
5
1C3
100
AcDbEntity
8
0
62
256
6
ByLayer
370
-2
48
1
60
0
100
AcDbLine
10
31
20
-11.9862
30
0
11
34.5
21
-11.9862
31
0
39
0
210
0
220
0
230
1
0
LINE
5
1C4
100
AcDbEntity
8
0
62
256
6
ByLayer
370
-2
48
1
60
0
100
AcDbLine
10
8.12
20
-11.9862
30
0
11
4.62
21
-11.9862
31
0
39
0
210
0
220
0
230
1
0
SOLID
5
1C5
100
AcDbEntity
8
0
62
256
6
ByLayer
370
-1
48
1
60
0
100
AcDbTrace
10
31
20
-11.402867
30
0
11
31
21
-12.569534
31
0
12
27.5
22
-11.9862
32
0
13
27.5
23
-11.9862
33
0
39
0
210
0
220
0
230
1
0
SOLID
5
1C6
100
AcDbEntity
8
0
62
256
6
ByLayer
370
-1
48
1
60
0
100
AcDbTrace
10
8.12
20
-12.569534
30
0
11
8.12
21
-11.402867
31
0
12
11.62
22
-11.9862
32
0
13
11.62
23
-11.9862
33
0
39
0
210
0
220
0
230
1
0
MTEXT
5
1C7
100
AcDbEntity
8
0
62
256
6
ByLayer
370
18
48
1
60
0
100
AcDbMText
10
19.56
20
-4.9862
30
0
210
0
220
0
230
1
1
\A1;15.88
40
3.5
41
0
44
1
50
0
71
5
72
5
7
iso_b_vert
0
POINT
5
1C8
100
AcDbEntity
8
Defpoints
62
0
6
ByLayer
370
-1
48
1
60
0
100
AcDbPoint
10
27.5
20
-3.175
30
0
39
0
210
0
220
0
230
1
50
360
0
POINT
5
1C9
100
AcDbEntity
8
Defpoints
62
0
6
ByLayer
370
-1
48
1
60
0
100
AcDbPoint
10
11.62
20
-3.175
30
0
39
0
210
0
220
0
230
1
50
360
0
POINT
5
1CA
100
AcDbEntity
8
Defpoints
62
0
6
ByLayer
370
-1
48
1
60
0
100
AcDbPoint
10
11.62
20
-11.9862
30
0
39
0
210
0
220
0
230
1
50
360
0
ENDBLK
5
1C0
100
AcDbEntity
8
0
100
AcDbBlockEnd
0
BLOCK
5
1D2
100
AcDbEntity
8
0
100
AcDbBlockBegin
2
_U0
70
0
10
0
20
0
30
0
3
_U0
0
MTEXT
5
1CC
100
AcDbEntity
8
SK2
62
256
6
ByLayer
370
18
48
1
60
0
100
AcDbMText
10
14.768001
20
-10.953567
30
0
210
0
220
0
230
1
1
\W0.6864;15.88
40
3.5
41
0
44
1.084337
50
0
71
7
72
5
7
iso_b_vert
0
LINE
5
1CD
100
AcDbEntity
8
SK2
62
256
6
ByLayer
370
13
48
1
60
0
100
AcDbLine
10
27.5
20
-4.7625
30
0
11
27.5
21
-13.9862
31
0
39
0
210
0
220
0
230
1
0
LINE
5
1CE
100
AcDbEntity
8
SK2
62
256
6
ByLayer
370
13
48
1
60
0
100
AcDbLine
10
11.62
20
-4.7625
30
0
11
11.62
21
-13.9862
31
0
39
0
210
0
220
0
230
1
0
LINE
5
1CF
100
AcDbEntity
8
SK2
62
256
6
ByLayer
370
13
48
1
60
0
100
AcDbLine
10
27.5
20
-11.9862
30
0
11
11.62
21
-11.9862
31
0
39
0
210
0
220
0
230
1
0
SOLID
5
1D0
100
AcDbEntity
8
SK2
62
256
6
ByLayer
370
18
48
1
60
0
100
AcDbTrace
10
27.5
20
-11.9862
30
0
11
24.000002
21
-12.446984
31
0
12
23.999998
22
-11.525416
32
0
13
23.999998
23
-11.525416
33
0
39
0
210
0
220
0
230
1
0
SOLID
5
1D1
100
AcDbEntity
8
SK2
62
256
6
ByLayer
370
18
48
1
60
0
100
AcDbTrace
10
11.62
20
-11.9862
30
0
11
15.119998
21
-11.525416
31
0
12
15.120002
22
-12.446984
32
0
13
15.120002
23
-12.446984
33
0
39
0
210
0
220
0
230
1
0
ENDBLK
5
1D3
100
AcDbEntity
8
0
100
AcDbBlockEnd
0
BLOCK
5
1D8
100
AcDbEntity
8
0
100
AcDbBlockBegin
2
*D3
70
1
10
0
20
0
30
0
3
*D3
0
LINE
5
1DA
100
AcDbEntity
8
0
62
256
6
ByLayer
370
-2
48
1
60
0
100
AcDbLine
10
27.5
20
-4.7625
30
0
11
27.5
21
-26.9862
31
0
39
0
210
0
220
0
230
1
0
LINE
5
1DB
100
AcDbEntity
8
0
62
256
6
ByLayer
370
-2
48
1
60
0
100
AcDbLine
10
5.27
20
-4.7625
30
0
11
5.27
21
-26.9862
31
0
39
0
210
0
220
0
230
1
0
LINE
5
1DC
100
AcDbEntity
8
0
62
256
6
ByLayer
370
-2
48
1
60
0
100
AcDbLine
10
24
20
-24.9862
30
0
11
8.77
21
-24.9862
31
0
39
0
210
0
220
0
230
1
0
SOLID
5
1DD
100
AcDbEntity
8
0
62
256
6
ByLayer
370
-1
48
1
60
0
100
AcDbTrace
10
24
20
-25.569534
30
0
11
24
21
-24.402867
31
0
12
27.5
22
-24.9862
32
0
13
27.5
23
-24.9862
33
0
39
0
210
0
220
0
230
1
0
SOLID
5
1DE
100
AcDbEntity
8
0
62
256
6
ByLayer
370
-1
48
1
60
0
100
AcDbTrace
10
8.77
20
-24.402867
30
0
11
8.77
21
-25.569534
31
0
12
5.27
22
-24.9862
32
0
13
5.27
23
-24.9862
33
0
39
0
210
0
220
0
230
1
0
MTEXT
5
1DF
100
AcDbEntity
8
0
62
256
6
ByLayer
370
18
48
1
60
0
100
AcDbMText
10
16.385
20
-17.9862
30
0
210
0
220
0
230
1
1
\A1;22.23
40
3.5
41
0
44
1
50
0
71
5
72
5
7
iso_b_vert
0
POINT
5
1E0
100
AcDbEntity
8
Defpoints
62
0
6
ByLayer
370
-1
48
1
60
0
100
AcDbPoint
10
27.5
20
-3.175
30
0
39
0
210
0
220
0
230
1
50
360
0
POINT
5
1E1
100
AcDbEntity
8
Defpoints
62
0
6
ByLayer
370
-1
48
1
60
0
100
AcDbPoint
10
5.27
20
-3.175
30
0
39
0
210
0
220
0
230
1
50
360
0
POINT
5
1E2
100
AcDbEntity
8
Defpoints
62
0
6
ByLayer
370
-1
48
1
60
0
100
AcDbPoint
10
5.27
20
-24.9862
30
0
39
0
210
0
220
0
230
1
50
360
0
ENDBLK
5
1D9
100
AcDbEntity
8
0
100
AcDbBlockEnd
0
BLOCK
5
1EA
100
AcDbEntity
8
0
100
AcDbBlockBegin
2
_U1
70
0
10
0
20
0
30
0
3
_U1
0
MTEXT
5
1E4
100
AcDbEntity
8
SK2
62
256
6
ByLayer
370
18
48
1
60
0
100
AcDbMText
10
11.155568
20
-23.953567
30
0
210
0
220
0
230
1
1
\W0.7468;22.23
40
3.5
41
0
44
1.084337
50
0
71
7
72
5
7
iso_b_vert
0
LINE
5
1E5
100
AcDbEntity
8
SK2
62
256
6
ByLayer
370
13
48
1
60
0
100
AcDbLine
10
27.5
20
-4.7625
30
0
11
27.5
21
-26.9862
31
0
39
0
210
0
220
0
230
1
0
LINE
5
1E6
100
AcDbEntity
8
SK2
62
256
6
ByLayer
370
13
48
1
60
0
100
AcDbLine
10
5.27
20
-4.7625
30
0
11
5.27
21
-26.9862
31
0
39
0
210
0
220
0
230
1
0
LINE
5
1E7
100
AcDbEntity
8
SK2
62
256
6
ByLayer
370
13
48
1
60
0
100
AcDbLine
10
27.5
20
-24.9862
30
0
11
5.27
21
-24.9862
31
0
39
0
210
0
220
0
230
1
0
SOLID
5
1E8
100
AcDbEntity
8
SK2
62
256
6
ByLayer
370
18
48
1
60
0
100
AcDbTrace
10
27.5
20
-24.9862
30
0
11
24.000002
21
-25.446984
31
0
12
23.999998
22
-24.525416
32
0
13
23.999998
23
-24.525416
33
0
39
0
210
0
220
0
230
1
0
SOLID
5
1E9
100
AcDbEntity
8
SK2
62
256
6
ByLayer
370
18
48
1
60
0
100
AcDbTrace
10
5.27
20
-24.9862
30
0
11
8.769998
21
-24.525416
31
0
12
8.770002
22
-25.446984
32
0
13
8.770002
23
-25.446984
33
0
39
0
210
0
220
0
230
1
0
ENDBLK
5
1EB
100
AcDbEntity
8
0
100
AcDbBlockEnd
0
BLOCK
5
1F0
100
AcDbEntity
8
0
100
AcDbBlockBegin
2
*D5
70
1
10
0
20
0
30
0
3
*D5
0
LINE
5
1F2
100
AcDbEntity
8
0
62
256
6
ByLayer
370
-2
48
1
60
0
100
AcDbLine
10
27.5
20
4.7625
30
0
11
27.5
21
15.493181
31
0
39
0
210
0
220
0
230
1
0
LINE
5
1F3
100
AcDbEntity
8
0
62
256
6
ByLayer
370
-2
48
1
60
0
100
AcDbLine
10
21.15
20
4.7625
30
0
11
21.15
21
15.493181
31
0
39
0
210
0
220
0
230
1
0
LINE
5
1F4
100
AcDbEntity
8
0
62
256
6
ByLayer
370
-2
48
1
60
0
100
AcDbLine
10
31
20
13.493181
30
0
11
34.5
21
13.493181
31
0
39
0
210
0
220
0
230
1
0
LINE
5
1F5
100
AcDbEntity
8
0
62
256
6
ByLayer
370
-2
48
1
60
0
100
AcDbLine
10
17.65
20
13.493181
30
0
11
14.15
21
13.493181
31
0
39
0
210
0
220
0
230
1
0
SOLID
5
1F6
100
AcDbEntity
8
0
62
256
6
ByLayer
370
-1
48
1
60
0
100
AcDbTrace
10
31
20
14.076514
30
0
11
31
21
12.909847
31
0
12
27.5
22
13.493181
32
0
13
27.5
23
13.493181
33
0
39
0
210
0
220
0
230
1
0
SOLID
5
1F7
100
AcDbEntity
8
0
62
256
6
ByLayer
370
-1
48
1
60
0
100
AcDbTrace
10
17.65
20
12.909847
30
0
11
17.65
21
14.076514
31
0
12
21.15
22
13.493181
32
0
13
21.15
23
13.493181
33
0
39
0
210
0
220
0
230
1
0
MTEXT
5
1F8
100
AcDbEntity
8
0
62
256
6
ByLayer
370
18
48
1
60
0
100
AcDbMText
10
24.325
20
20.493181
30
0
210
0
220
0
230
1
1
\A1;6.35
40
3.5
41
0
44
1
50
0
71
5
72
5
7
iso_b_vert
0
POINT
5
1F9
100
AcDbEntity
8
Defpoints
62
0
6
ByLayer
370
-1
48
1
60
0
100
AcDbPoint
10
27.5
20
3.175
30
0
39
0
210
0
220
0
230
1
50
360
0
POINT
5
1FA
100
AcDbEntity
8
Defpoints
62
0
6
ByLayer
370
-1
48
1
60
0
100
AcDbPoint
10
21.15
20
3.175
30
0
39
0
210
0
220
0
230
1
50
360
0
POINT
5
1FB
100
AcDbEntity
8
Defpoints
62
0
6
ByLayer
370
-1
48
1
60
0
100
AcDbPoint
10
21.15
20
13.493181
30
0
39
0
210
0
220
0
230
1
50
360
0
ENDBLK
5
1F1
100
AcDbEntity
8
0
100
AcDbBlockEnd
0
BLOCK
5
205
100
AcDbEntity
8
0
100
AcDbBlockBegin
2
_U2
70
0
10
0
20
0
30
0
3
_U2
0
MTEXT
5
1FD
100
AcDbEntity
8
SK2
62
256
6
ByLayer
370
18
48
1
60
0
100
AcDbMText
10
12.086835
20
14.525814
30
0
210
0
220
0
230
1
1
\W0.7346;6.35
40
3.5
41
0
44
1.084337
50
0
71
7
72
5
7
iso_b_vert
0
MTEXT
5
1FE
100
AcDbEntity
8
SK2
62
256
6
ByLayer
370
18
48
1
60
0
100
AcDbMText
10
23.801233
20
14.525814
30
0
210
0
220
0
230
1
1
\W0.8378;\W0.4189;%%p\W0.8378;0.64
40
3.5
41
0
44
1.084337
50
0
71
7
72
5
7
iso_b_vert
0
LINE
5
1FF
100
AcDbEntity
8
SK2
62
256
6
ByLayer
370
13
48
1
60
0
100
AcDbLine
10
27.5
20
4.7625
30
0
11
27.5
21
15.493181
31
0
39
0
210
0
220
0
230
1
0
LINE
5
200
100
AcDbEntity
8
SK2
62
256
6
ByLayer
370
13
48
1
60
0
100
AcDbLine
10
21.15
20
4.7625
30
0
11
21.15
21
15.493181
31
0
39
0
210
0
220
0
230
1
0
LINE
5
201
100
AcDbEntity
8
SK2
62
256
6
ByLayer
370
13
48
1
60
0
100
AcDbLine
10
27.5
20
13.493181
30
0
11
36.748665
21
13.493181
31
0
39
0
210
0
220
0
230
1
0
LINE
5
202
100
AcDbEntity
8
SK2
62
256
6
ByLayer
370
13
48
1
60
0
100
AcDbLine
10
21.15
20
13.493181
30
0
11
12.4
21
13.493181
31
0
39
0
210
0
220
0
230
1
0
SOLID
5
203
100
AcDbEntity
8
SK2
62
256
6
ByLayer
370
18
48
1
60
0
100
AcDbTrace
10
27.5
20
13.493181
30
0
11
30.999998
21
13.953965
31
0
12
31.000002
22
13.032397
32
0
13
31.000002
23
13.032397
33
0
39
0
210
0
220
0
230
1
0
SOLID
5
204
100
AcDbEntity
8
SK2
62
256
6
ByLayer
370
18
48
1
60
0
100
AcDbTrace
10
21.15
20
13.493181
30
0
11
17.650002
21
13.032397
31
0
12
17.649998
22
13.953965
32
0
13
17.649998
23
13.953965
33
0
39
0
210
0
220
0
230
1
0
ENDBLK
5
206
100
AcDbEntity
8
0
100
AcDbBlockEnd
0
BLOCK
5
20B
100
AcDbEntity
8
0
100
AcDbBlockBegin
2
*D7
70
1
10
0
20
0
30
0
3
*D7
0
LINE
5
20D
100
AcDbEntity
8
0
62
256
6
ByLayer
370
-2
48
1
60
0
100
AcDbLine
10
-36
20
-4.7625
30
0
11
-36
21
-38.9862
31
0
39
0
210
0
220
0
230
1
0
LINE
5
20E
100
AcDbEntity
8
0
62
256
6
ByLayer
370
-2
48
1
60
0
100
AcDbLine
10
27.5
20
-4.7625
30
0
11
27.5
21
-38.9862
31
0
39
0
210
0
220
0
230
1
0
LINE
5
20F
100
AcDbEntity
8
0
62
256
6
ByLayer
370
-2
48
1
60
0
100
AcDbLine
10
-32.5
20
-36.9862
30
0
11
24
21
-36.9862
31
0
39
0
210
0
220
0
230
1
0
SOLID
5
210
100
AcDbEntity
8
0
62
256
6
ByLayer
370
-1
48
1
60
0
100
AcDbTrace
10
-32.5
20
-36.402867
30
0
11
-32.5
21
-37.569534
31
0
12
-36
22
-36.9862
32
0
13
-36
23
-36.9862
33
0
39
0
210
0
220
0
230
1
0
SOLID
5
211
100
AcDbEntity
8
0
62
256
6
ByLayer
370
-1
48
1
60
0
100
AcDbTrace
10
24
20
-37.569534
30
0
11
24
21
-36.402867
31
0
12
27.5
22
-36.9862
32
0
13
27.5
23
-36.9862
33
0
39
0
210
0
220
0
230
1
0
MTEXT
5
212
100
AcDbEntity
8
0
62
256
6
ByLayer
370
18
48
1
60
0
100
AcDbMText
10
-4.25
20
-29.9862
30
0
210
0
220
0
230
1
1
\A1;63.5
40
3.5
41
0
44
1
50
0
71
5
72
5
7
iso_b_vert
0
POINT
5
213
100
AcDbEntity
8
Defpoints
62
0
6
ByLayer
370
-1
48
1
60
0
100
AcDbPoint
10
-36
20
-3.175
30
0
39
0
210
0
220
0
230
1
50
360
0
POINT
5
214
100
AcDbEntity
8
Defpoints
62
0
6
ByLayer
370
-1
48
1
60
0
100
AcDbPoint
10
27.5
20
-3.175
30
0
39
0
210
0
220
0
230
1
50
360
0
POINT
5
215
100
AcDbEntity
8
Defpoints
62
0
6
ByLayer
370
-1
48
1
60
0
100
AcDbPoint
10
27.5
20
-36.9862
30
0
39
0
210
0
220
0
230
1
50
360
0
ENDBLK
5
20C
100
AcDbEntity
8
0
100
AcDbBlockEnd
0
BLOCK
5
21D
100
AcDbEntity
8
0
100
AcDbBlockBegin
2
_U3
70
0
10
0
20
0
30
0
3
_U3
0
MTEXT
5
217
100
AcDbEntity
8
2
62
256
6
ByLayer
370
18
48
1
60
0
100
AcDbMText
10
-8.171699
20
-35.953567
30
0
210
0
220
0
230
1
1
\W0.7346;63.5
40
3.5
41
0
44
1.084337
50
0
71
7
72
5
7
iso_b_vert
0
LINE
5
218
100
AcDbEntity
8
2
62
256
6
ByLayer
370
13
48
1
60
0
100
AcDbLine
10
-36
20
-4.7625
30
0
11
-36
21
-38.9862
31
0
39
0
210
0
220
0
230
1
0
LINE
5
219
100
AcDbEntity
8
2
62
256
6
ByLayer
370
13
48
1
60
0
100
AcDbLine
10
27.5
20
-4.7625
30
0
11
27.5
21
-38.9862
31
0
39
0
210
0
220
0
230
1
0
LINE
5
21A
100
AcDbEntity
8
2
62
256
6
ByLayer
370
13
48
1
60
0
100
AcDbLine
10
-36
20
-36.9862
30
0
11
27.5
21
-36.9862
31
0
39
0
210
0
220
0
230
1
0
SOLID
5
21B
100
AcDbEntity
8
2
62
256
6
ByLayer
370
18
48
1
60
0
100
AcDbTrace
10
-36
20
-36.9862
30
0
11
-32.500002
21
-36.525416
31
0
12
-32.499998
22
-37.446984
32
0
13
-32.499998
23
-37.446984
33
0
39
0
210
0
220
0
230
1
0
SOLID
5
21C
100
AcDbEntity
8
2
62
256
6
ByLayer
370
18
48
1
60
0
100
AcDbTrace
10
27.5
20
-36.9862
30
0
11
24.000002
21
-37.446984
31
0
12
23.999998
22
-36.525416
32
0
13
23.999998
23
-36.525416
33
0
39
0
210
0
220
0
230
1
0
ENDBLK
5
21E
100
AcDbEntity
8
0
100
AcDbBlockEnd
0
ENDSEC
0
SECTION
2
ENTITIES
0
ARC
5
DA
100
AcDbEntity
8
1
62
256
6
ByLayer
370
18
48
1
60
0
100
AcDbCircle
39
0
10
5.236168
20
5.015
30
0
40
2
210
0
220
0
230
1
100
AcDbArc
50
246.926082
51
270
0
ARC
5
DB
100
AcDbEntity
8
1
62
256
6
ByLayer
370
18
48
1
60
0
100
AcDbCircle
39
0
10
5.236168
20
-5.015
30
0
40
2
210
0
220
0
230
1
100
AcDbArc
50
90
51
113.073918
0
ELLIPSE
5
DC
100
AcDbEntity
8
1
62
256
6
ByLayer
370
18
48
1
60
0
100
AcDbEllipse
10
27.643639
20
0.139688
30
0
11
0.403274213144083
21
0.038901639829085
31
0
210
0
220
0
230
1
40
0.282099
41
-2.11087076748891
42
-1.96203868621645
0
ELLIPSE
5
DD
100
AcDbEntity
8
1
62
256
6
ByLayer
370
18
48
1
60
0
100
AcDbEllipse
10
27.546399
20
-0.028992
30
0
11
0.38595796320233
21
-0.00293692721981584
31
0
210
0
220
0
230
1
40
0.114594
41
1.69217809075389
42
1.91217548004955
0
ELLIPSE
5
DE
100
AcDbEntity
8
1
62
256
6
ByLayer
370
18
48
1
60
0
100
AcDbEllipse
10
27.546399
20
0.028992
30
0
11
0.385957963221687
21
0.00293692722182304
31
0
210
0
220
0
230
1
40
0.114594
41
-1.91217548008336
42
-1.6921780907922
0
ELLIPSE
5
DF
100
AcDbEntity
8
1
62
256
6
ByLayer
370
18
48
1
60
0
100
AcDbEllipse
10
27.643639
20
-0.139688
30
0
11
0.403274213310656
21
-0.0389016398828136
31
0
210
0
220
0
230
1
40
0.282099
41
1.96203868645499
42
2.23661175453546
0
ELLIPSE
5
E0
100
AcDbEntity
8
1
62
256
6
ByLayer
370
18
48
1
60
0
100
AcDbEllipse
10
27.338475
20
0.389677
30
0
11
0.0284031369778024
21
-0.702171918260317
31
0
210
0
220
0
230
1
40
0.133816
41
-0.649993404577473
42
-0.444481493901518
0
ELLIPSE
5
E1
100
AcDbEntity
8
1
62
256
6
ByLayer
370
18
48
1
60
0
100
AcDbEllipse
10
27.45913
20
-0.180377
30
0
11
0.00755216247579242
21
-0.657011579756751
31
0
210
0
220
0
230
1
40
0.062769
41
-1.81089398967739
42
-1.32583280863988
0
ELLIPSE
5
E2
100
AcDbEntity
8
1
62
256
6
ByLayer
370
18
48
1
60
0
100
AcDbEllipse
10
27.330305
20
0.403848
30
0
11
0.0165614046980561
21
-0.698898631588548
31
0
210
0
220
0
230
1
40
0.057384
41
-0.0662435625167002
42
0.898397256837662
0
ELLIPSE
5
E3
100
AcDbEntity
8
1
62
256
6
ByLayer
370
18
48
1
60
0
100
AcDbEllipse
10
27.479166
20
-0.378889
30
0
11
0.033936433165364
21
-0.38765837365183
31
0
210
0
220
0
230
1
40
0.063507
41
-2.94007546371151
42
-2.82823971178705
0
ELLIPSE
5
E4
100
AcDbEntity
8
1
62
256
6
ByLayer
370
18
48
1
60
0
100
AcDbEllipse
10
27.252121
20
-0.272058
30
0
11
0.0717700520691351
21
-0.401514721373379
31
0
210
0
220
0
230
1
40
0.213785
41
0.527426366596569
42
1.47901145713179
0
ELLIPSE
5
E5
100
AcDbEntity
8
1
62
256
6
ByLayer
370
18
48
1
60
0
100
AcDbEllipse
10
26.972023
20
-0.140264
30
0
11
0.404875867157618
21
-0.481684192556721
31
0
210
0
220
0
230
1
40
0.366455
41
1.06084102229116
42
1.1773029307885
0
ELLIPSE
5
E6
100
AcDbEntity
8
1
62
256
6
ByLayer
370
18
48
1
60
0
100
AcDbEllipse
10
27.355443
20
-0.320674
30
0
11
0.481915691410069
21
0.124099730228189
31
0
210
0
220
0
230
1
40
0.291521
41
1.56785334227525
42
1.63110587695056
0
ELLIPSE
5
E7
100
AcDbEntity
8
1
62
256
6
ByLayer
370
18
48
1
60
0
100
AcDbEllipse
10
27.512652
20
-0.394645
30
0
11
0.0716341691620498
21
-0.384210657201635
31
0
210
0
220
0
230
1
40
0.493052
41
-3.13247777849812
42
-2.28615056327311
0
POINT
5
70
100
AcDbEntity
8
81
62
256
6
ByLayer
370
18
48
1
60
0
100
AcDbPoint
10
27.5
20
0
30
0
39
0
210
0
220
0
230
1
50
360
0
POINT
5
72
100
AcDbEntity
8
80
62
256
6
ByLayer
370
18
48
1
60
0
100
AcDbPoint
10
0
20
0
30
0
39
0
210
0
220
0
230
1
50
360
0
POINT
5
74
100
AcDbEntity
8
81
62
256
6
ByLayer
370
18
48
1
60
0
100
AcDbPoint
10
-36
20
0
30
0
39
0
210
0
220
0
230
1
50
360
0
POINT
5
75
100
AcDbEntity
8
81
62
256
6
ByLayer
370
18
48
1
60
0
100
AcDbPoint
10
27.5
20
0
30
0
39
0
210
0
220
0
230
1
50
360
0
POINT
5
76
100
AcDbEntity
8
1
62
256
6
ByLayer
370
18
48
1
60
1
100
AcDbPoint
10
27.5
20
-3.175
30
0
39
0
210
0
220
0
230
1
50
360
0
POINT
5
78
100
AcDbEntity
8
1
62
256
6
ByLayer
370
18
48
1
60
1
100
AcDbPoint
10
11.62
20
-3.175
30
0
39
0
210
0
220
0
230
1
50
360
0
POINT
5
79
100
AcDbEntity
8
1
62
256
6
ByLayer
370
18
48
1
60
1
100
AcDbPoint
10
27.5
20
-3.175
30
0
39
0
210
0
220
0
230
1
50
360
0
POINT
5
7A
100
AcDbEntity
8
1
62
256
6
ByLayer
370
18
48
1
60
1
100
AcDbPoint
10
5.27
20
-3.175
30
0
39
0
210
0
220
0
230
1
50
360
0
POINT
5
7B
100
AcDbEntity
8
1
62
256
6
ByLayer
370
18
48
1
60
1
100
AcDbPoint
10
27.5
20
3.175
30
0
39
0
210
0
220
0
230
1
50
360
0
POINT
5
7C
100
AcDbEntity
8
1
62
256
6
ByLayer
370
18
48
1
60
1
100
AcDbPoint
10
21.15
20
3.175
30
0
39
0
210
0
220
0
230
1
50
360
0
POINT
5
7D
100
AcDbEntity
8
1
62
256
6
ByLayer
370
18
48
1
60
1
100
AcDbPoint
10
-36
20
-3.175
30
0
39
0
210
0
220
0
230
1
50
360
0
POINT
5
7E
100
AcDbEntity
8
1
62
256
6
ByLayer
370
18
48
1
60
1
100
AcDbPoint
10
27.5
20
-3.175
30
0
39
0
210
0
220
0
230
1
50
360
0
SPLINE
5
E8
100
AcDbEntity
8
1
62
256
6
ByLayer
370
18
48
1
60
0
100
AcDbSpline
70
4
71
3
72
8
73
4
40
0
40
0
40
0
40
0
40
1
40
1
40
1
40
1
41
1
10
27.4736761078327
20
-0.15589234573585
30
0
41
1
10
27.474327952991
20
-0.159611747758362
30
0
41
1
10
27.474969311583
20
-0.163415643793343
30
0
41
1
10
27.4756496654377
20
-0.166905341056093
30
0
0
SPLINE
5
E9
100
AcDbEntity
8
1
62
256
6
ByLayer
370
18
48
1
60
0
100
AcDbSpline
70
4
71
3
72
8
73
4
40
0
40
0
40
0
40
0
40
1
40
1
40
1
40
1
41
1
10
27.4792437190722
20
-0.196144725374353
30
0
41
1
10
27.462118362302
20
-0.328893334957911
30
0
41
1
10
27.444992338938
20
-0.461627226844314
30
0
41
1
10
27.4278657165628
20
-0.594347893187773
30
0
0
SPLINE
5
EA
100
AcDbEntity
8
1
62
256
6
ByLayer
370
18
48
1
60
0
100
AcDbSpline
70
4
71
3
72
8
73
4
40
0
40
0
40
0
40
0
40
1
40
1
40
1
40
1
41
1
10
27.4756496701346
20
-0.166905338320106
30
0
41
1
10
27.4771228472575
20
-0.174461613515092
30
0
41
1
10
27.478308103201
20
-0.184309621816453
30
0
41
1
10
27.4792437190722
20
-0.196144725374268
30
0
0
SPLINE
5
EB
100
AcDbEntity
8
1
62
256
6
ByLayer
370
18
48
1
60
0
100
AcDbSpline
70
4
71
3
72
8
73
4
40
0
40
0
40
0
40
0
40
1
40
1
40
1
40
1
41
1
10
27.4756496701332
20
2.37145521649876
30
0
41
1
10
27.4771229284674
20
2.4278358270202
30
0
41
1
10
27.4783081523802
20
2.48381380509747
30
0
41
1
10
27.4792437190709
20
2.53944278273795
30
0
0
SPLINE
5
EC
100
AcDbEntity
8
1
62
256
6
ByLayer
370
18
48
1
60
0
100
AcDbSpline
70
4
71
3
72
26
73
22
40
0
40
0
40
0
40
0
40
0.125000000000016
40
0.125000000000016
40
0.187500000000024
40
0.187500000000024
40
0.250000000000032
40
0.250000000000032
40
0.375000000000016
40
0.375000000000016
40
0.500000000000001
40
0.500000000000001
40
0.624999999999985
40
0.624999999999985
40
0.687499999999988
40
0.687499999999988
40
0.74999999999999
40
0.74999999999999
40
0.874999999999995
40
0.874999999999995
40
1
40
1
40
1
40
1
41
1
10
27.0387461816386
20
3.08512303606887
30
0
41
1
10
27.0680419130138
20
3.08223450462384
30
0
41
1
10
27.0960327330338
20
3.07570339637135
30
0
41
1
10
27.1364831120062
20
3.06119061982676
30
0
41
1
10
27.1497058051847
20
3.05555954038004
30
0
41
1
10
27.1756609823957
20
3.04276283780248
30
0
41
1
10
27.1884205726855
20
3.03557114103293
30
0
41
1
10
27.2253805952322
20
3.01212413513943
30
0
41
1
10
27.248484565965
20
2.99394383537211
30
0
41
1
10
27.2920329456915
20
2.9527874632789
30
0
41
1
10
27.3125183684333
20
2.92971769058326
30
0
41
1
10
27.3501572447059
20
2.88002014784683
30
0
41
1
10
27.3674555184611
20
2.8532139725514
30
0
41
1
10
27.3908802857617
20
2.81088481476036
30
0
41
1
10
27.3982818402401
20
2.79640288473982
30
0
41
1
10
27.4122938401044
20
2.76670912485474
30
0
41
1
10
27.4189138363488
20
2.75146841764754
30
0
41
1
10
27.4374323169572
20
2.70511071473689
30
0
41
1
10
27.4480591289581
20
2.67324747064015
30
0
41
1
10
27.4660791904141
20
2.60770786092334
30
0
41
1
10
27.4734699397035
20
2.57402584016745
30
0
41
1
10
27.4792437190709
20
2.53944278273795
30
0
0
SPLINE
5
ED
100
AcDbEntity
8
1
62
256
6
ByLayer
370
18
48
1
60
0
100
AcDbSpline
70
4
71
3
72
8
73
4
40
0
40
0
40
0
40
0
40
1
40
1
40
1
40
1
41
1
10
26.976012363185
20
3.09081535275587
30
0
41
1
10
26.9966774524532
20
3.08910904548677
30
0
41
1
10
27.0175923625996
20
3.08720878264717
30
0
41
1
10
27.0387461816385
20
3.08512303606881
30
0
0
SPLINE
5
EE
100
AcDbEntity
8
1
62
256
6
ByLayer
370
18
48
1
60
0
100
AcDbSpline
70
4
71
3
72
8
73
4
40
0
40
0
40
0
40
0
40
1
40
1
40
1
40
1
41
1
10
27.4736761078313
20
2.29342020236746
30
0
41
1
10
27.4743279529895
20
2.31942519443985
30
0
41
1
10
27.4749693115816
20
2.34541852717786
30
0
41
1
10
27.4756496654364
20
2.37145521622531
30
0
0
SPLINE
5
EF
100
AcDbEntity
8
1
62
256
6
ByLayer
370
13
48
1
60
0
100
AcDbSpline
70
4
71
3
72
24
73
20
40
0
40
0
40
0
40
0
40
0.0817835201623155
40
0.174266518425701
40
0.265946126221934
40
0.312084632648826
40
0.389976749117032
40
0.42113094312589
40
0.451638641861483
40
0.466514792675915
40
0.495209263224715
40
0.538758511446494
40
0.600342674104529
40
0.678180665156931
40
0.770146017785653
40
0.816027514553575
40
0.908531319624458
40
0.970731652688561
40
1
40
1
40
1
40
1
41
1
10
27.4756496739278
20
2.37145521768974
30
0
41
1
10
27.4634972275685
20
2.40482503050623
30
0
41
1
10
27.4364038116892
20
2.47172052842331
30
0
41
1
10
27.3874666528962
20
2.5707792206976
30
0
41
1
10
27.3387392896147
20
2.65113851993476
30
0
41
1
10
27.2898611897784
20
2.72078650997557
30
0
41
1
10
27.2530721988514
20
2.76676935891484
30
0
41
1
10
27.2186938239527
20
2.80511284997536
30
0
41
1
10
27.1986891547124
20
2.82595611982825
30
0
41
1
10
27.1790032245624
20
2.84545266599707
30
0
41
1
10
27.1535209749459
20
2.86938310464149
30
0
41
1
10
27.1148030017239
20
2.90238758159387
30
0
41
1
10
27.0644701859624
20
2.93988219357485
30
0
41
1
10
26.9986126314823
20
2.98057449032268
30
0
41
1
10
26.9341011328205
20
3.01056718927325
30
0
41
1
10
26.8644111374433
20
3.03459752509846
30
0
41
1
10
26.8035227356425
20
3.04841475809076
30
0
41
1
10
26.7488654525062
20
3.05385170857943
30
0
41
1
10
26.7209695818495
20
3.05453867027998
30
0
41
1
10
26.7118940996425
20
3.05452393079415
30
0
0
SPLINE
5
F0
100
AcDbEntity
8
1
62
256
6
ByLayer
370
18
48
1
60
0
100
AcDbSpline
70
4
71
3
72
8
73
4
40
0
40
0
40
0
40
0
40
1
40
1
40
1
40
1
41
1
10
11.1248496307541
20
-2.94068547068073
30
0
41
1
10
11.0733011498508
20
-2.95100385429296
30
0
41
1
10
11.0209640584734
20
-2.9667058290292
30
0
41
1
10
10.9683570190845
20
-2.98770775082676
30
0
0
SPLINE
5
F1
100
AcDbEntity
8
1
62
256
6
ByLayer
370
18
48
1
60
0
100
AcDbSpline
70
4
71
3
72
8
73
4
40
0
40
0
40
0
40
0
40
1
40
1
40
1
40
1
41
1
10
10.8361632823094
20
-3.00110057569822
30
0
41
1
10
10.8806057766396
20
-2.99641206447265
30
0
41
1
10
10.9246727454253
20
-2.991983048397
30
0
41
1
10
10.9683570190845
20
-2.98770775082659
30
0
0
SPLINE
5
F2
100
AcDbEntity
8
1
62
256
6
ByLayer
370
18
48
1
60
0
100
AcDbSpline
70
4
71
3
72
18
73
14
40
0
40
0
40
0
40
0
40
0.124999999999999
40
0.124999999999999
40
0.249999999999998
40
0.249999999999998
40
0.374999999999998
40
0.374999999999998
40
0.499999999999997
40
0.499999999999997
40
0.749999999999998
40
0.749999999999998
40
1
40
1
40
1
40
1
41
1
10
27.4576183604786
20
2.28841340847768
30
0
41
1
10
27.4553821464658
20
2.30128420192091
30
0
41
1
10
27.4524580758854
20
2.3138992592539
30
0
41
1
10
27.4450312652583
20
2.33854244517977
30
0
41
1
10
27.4405543816835
20
2.35058018687309
30
0
41
1
10
27.4301619415278
20
2.37412079037739
30
0
41
1
10
27.4242021885734
20
2.38564335661286
30
0
41
1
10
27.4113092047909
20
2.40774341134377
30
0
41
1
10
27.4043565631759
20
2.41839533786131
30
0
41
1
10
27.3824375097073
20
2.44951651027722
30
0
41
1
10
27.3664888245486
20
2.46921317088871
30
0
41
1
10
27.3330610276617
20
2.50740276904949
30
0
41
1
10
27.3155194995991
20
2.52587545504394
30
0
41
1
10
27.2975203767103
20
2.54370021957737
30
0
0
SPLINE
5
F3
100
AcDbEntity
8
1
62
256
6
ByLayer
370
13
48
1
60
0
100
AcDbSpline
70
4
71
1
72
4
73
2
40
0
40
0
40
1
40
1
41
1
10
11.62
20
-2.68128906276465
30
0
41
1
10
10.6638818484707
20
-3.01331216583995
30
0
0
SPLINE
5
F4
100
AcDbEntity
8
1
62
256
6
ByLayer
370
18
48
1
60
0
100
AcDbSpline
70
4
71
3
72
8
73
4
40
0
40
0
40
0
40
0
40
1
40
1
40
1
40
1
41
1
10
11.1248496307543
20
2.94068547068065
30
0
41
1
10
11.073301149851
20
2.95100385429288
30
0
41
1
10
11.0209640584735
20
2.96670582902914
30
0
41
1
10
10.9683570190845
20
2.98770775082676
30
0
0
SPLINE
5
F5
100
AcDbEntity
8
1
62
256
6
ByLayer
370
18
48
1
60
0
100
AcDbSpline
70
4
71
3
72
8
73
4
40
0
40
0
40
0
40
0
40
1
40
1
40
1
40
1
41
1
10
26.976012363185
20
-3.09081535275604
30
0
41
1
10
26.9966774524531
20
-3.08910904548694
30
0
41
1
10
27.0175923625996
20
-3.08720878264737
30
0
41
1
10
27.0387461816386
20
-3.08512303606901
30
0
0
SPLINE
5
F6
100
AcDbEntity
8
1
62
256
6
ByLayer
370
18
48
1
60
0
100
AcDbSpline
70
4
71
3
72
8
73
4
40
0
40
0
40
0
40
0
40
1
40
1
40
1
40
1
41
1
10
27.4756496701345
20
-2.37145521649524
30
0
41
1
10
27.4771229284687
20
-2.42783582701503
30
0
41
1
10
27.4783081523816
20
-2.48381380509065
30
0
41
1
10
27.4792437190721
20
-2.53944278272954
30
0
0
SPLINE
5
F7
100
AcDbEntity
8
1
62
256
6
ByLayer
370
18
48
1
60
0
100
AcDbSpline
70
4
71
3
72
8
73
4
40
0
40
0
40
0
40
0
40
1
40
1
40
1
40
1
41
1
10
27.4736761078327
20
-2.29342020236811
30
0
41
1
10
27.4743279529909
20
-2.31942519443911
30
0
41
1
10
27.4749693115829
20
-2.3454185271757
30
0
41
1
10
27.4756496654377
20
-2.37145521622176
30
0
0
SPLINE
5
F8
100
AcDbEntity
8
1
62
256
6
ByLayer
370
18
48
1
60
0
100
AcDbSpline
70
4
71
3
72
26
73
22
40
0
40
0
40
0
40
0
40
0.125000000000001
40
0.125000000000001
40
0.187499999999983
40
0.187499999999983
40
0.249999999999965
40
0.249999999999965
40
0.374999999999962
40
0.374999999999962
40
0.499999999999958
40
0.499999999999958
40
0.624999999999955
40
0.624999999999955
40
0.687499999999963
40
0.687499999999963
40
0.749999999999971
40
0.749999999999971
40
0.874999999999985
40
0.874999999999985
40
1
40
1
40
1
40
1
41
1
10
27.0387461816385
20
-3.08512303606906
30
0
41
1
10
27.0680419130142
20
-3.08223450462401
30
0
41
1
10
27.0960327330343
20
-3.07570339637141
30
0
41
1
10
27.1364831120071
20
-3.06119061982653
30
0
41
1
10
27.1497058051859
20
-3.05555954037973
30
0
41
1
10
27.175660982397
20
-3.04276283780194
30
0
41
1
10
27.188420572687
20
-3.03557114103225
30
0
41
1
10
27.225380595234
20
-3.01212413513832
30
0
41
1
10
27.2484845659669
20
-2.99394383537069
30
0
41
1
10
27.2920329456937
20
-2.95278746327671
30
0
41
1
10
27.3125183684356
20
-2.92971769058067
30
0
41
1
10
27.3501572447084
20
-2.88002014784343
30
0
41
1
10
27.3674555184636
20
-2.85321397254754
30
0
41
1
10
27.3908802857642
20
-2.81088481475581
30
0
41
1
10
27.3982818402426
20
-2.79640288473502
30
0
41
1
10
27.4122938401068
20
-2.76670912484946
30
0
41
1
10
27.4189138363512
20
-2.75146841764203
30
0
41
1
10
27.4374323169594
20
-2.70511071473072
30
0
41
1
10
27.4480591289602
20
-2.67324747063353
30
0
41
1
10
27.466079190416
20
-2.60770786091578
30
0
41
1
10
27.4734699397052
20
-2.57402584015941
30
0
41
1
10
27.4792437190723
20
-2.53944278272942
30
0
0
SPLINE
5
F9
100
AcDbEntity
8
1
62
256
6
ByLayer
370
18
48
1
60
0
100
AcDbSpline
70
4
71
3
72
8
73
4
40
0
40
0
40
0
40
0
40
1
40
1
40
1
40
1
41
1
10
27.4792437190721
20
-2.53944278273059
30
0
41
1
10
27.4515544859482
20
-2.48479929278759
30
0
41
1
10
27.4238635066567
20
-2.43000587670849
30
0
41
1
10
27.3961710674373
20
-2.37508711104613
30
0
0
SPLINE
5
FA
100
AcDbEntity
8
1
62
256
6
ByLayer
370
18
48
1
60
0
100
AcDbSpline
70
4
71
3
72
14
73
10
40
0
40
0
40
0
40
0
40
0.500000000000042
40
0.500000000000042
40
0.625000000000041
40
0.625000000000041
40
0.750000000000041
40
0.750000000000041
40
1
40
1
40
1
40
1
41
1
10
27.1571660530628
20
2.80095075947355
30
0
41
1
10
27.1872827039438
20
2.76511765500419
30
0
41
1
10
27.2145277570468
20
2.72566874496252
30
0
41
1
10
27.2441930695867
20
2.67166295269036
30
0
41
1
10
27.2499068639564
20
2.66062915385712
30
0
41
1
10
27.2608736716336
20
2.63809615568724
30
0
41
1
10
27.2661288544714
20
2.62658554781237
30
0
41
1
10
27.281011584006
20
2.59173188013085
30
0
41
1
10
27.2898224896424
20
2.56795411552065
30
0
41
1
10
27.2975203767181
20
2.54370021958422
30
0
0
SPLINE
5
FB
100
AcDbEntity
8
1
62
256
6
ByLayer
370
18
48
1
60
0
100
AcDbSpline
70
4
71
3
72
30
73
26
40
0
40
0
40
0
40
0
40
0.0799824077348608
40
0.0799824077348608
40
0.159964815469722
40
0.239947223204582
40
0.279938427072022
40
0.279938427072022
40
0.319929630939461
40
0.319929630939461
40
0.479894446409291
40
0.479894446409291
40
0.51988565027674
40
0.51988565027674
40
0.55987685414419
40
0.55987685414419
40
0.63985926187909
40
0.63985926187909
40
0.799824077348889
40
0.799824077348889
40
0.879806485083789
40
0.879806485083789
40
0.959788892818689
40
0.959788892818689
40
1
40
1
40
1
40
1
41
1
10
27.2975203767256
20
2.54370021958562
30
0
41
1
10
27.2953911875144
20
2.52093181691512
30
0
41
1
10
27.2922252408931
20
2.49797400513805
30
0
41
1
10
27.2837803941942
20
2.45288353488596
30
0
41
1
10
27.2732167336735
20
2.4083956861075
30
0
41
1
10
27.2544312569497
20
2.3543731645851
30
0
41
1
10
27.2405142949204
20
2.32271212041172
30
0
41
1
10
27.2306331051847
20
2.30177632076453
30
0
41
1
10
27.2253901825698
20
2.29139863236017
30
0
41
1
10
27.1980049625659
20
2.24058789902344
30
0
41
1
10
27.1721098298147
20
2.20284759798415
30
0
41
1
10
27.1353873011228
20
2.15884796454165
30
0
41
1
10
27.1278249593617
20
2.15020693834214
30
0
41
1
10
27.1122797336403
20
2.13323165045242
30
0
41
1
10
27.1042771158846
20
2.12487806263769
30
0
41
1
10
27.0798223354506
20
2.10042031277968
30
0
41
1
10
27.0629535650011
20
2.0849375294124
30
0
41
1
10
27.0108938985002
20
2.04060242144414
30
0
41
1
10
26.9742604781075
20
2.01384759050217
30
0
41
1
10
26.9171348310965
20
1.97687864038033
30
0
41
1
10
26.8977273162043
20
1.96508730277748
30
0
41
1
10
26.8582703381138
20
1.94243804856382
30
0
41
1
10
26.8381811106372
20
1.93156183413882
30
0
41
1
10
26.8078424447417
20
1.91597388021543
30
0
41
1
10
26.7976583353367
20
1.91087924818044
30
0
41
1
10
26.7874422533538
20
1.90589708921982
30
0
0
SPLINE
5
FC
100
AcDbEntity
8
1
62
256
6
ByLayer
370
18
48
1
60
0
100
AcDbSpline
70
4
71
3
72
16
73
12
40
0
40
0
40
0
40
0
40
0.125
40
0.125
40
0.250000000000001
40
0.250000000000001
40
0.500000000000001
40
0.500000000000001
40
0.75
40
0.75
40
1
40
1
40
1
40
1
41
1
10
27.3961710674373
20
-2.37508711104613
30
0
41
1
10
27.3923648468656
20
-2.38474084503471
30
0
41
1
10
27.3883697153692
20
-2.3936147107496
30
0
41
1
10
27.3800803274196
20
-2.41012758472456
30
0
41
1
10
27.3758023384914
20
-2.41772746495798
30
0
41
1
10
27.3627845531974
20
-2.43875922196096
30
0
41
1
10
27.3538068568696
20
-2.45056673616509
30
0
41
1
10
27.3354531393154
20
-2.47123445533543
30
0
41
1
10
27.3260743185313
20
-2.48007394564902
30
0
41
1
10
27.3070183769573
20
-2.49554572716289
30
0
41
1
10
27.2973402690586
20
-2.50217071449055
30
0
41
1
10
27.2875438558267
20
-2.50792032997313
30
0
0
SPLINE
5
FD
100
AcDbEntity
8
1
62
256
6
ByLayer
370
18
48
1
60
0
100
AcDbSpline
70
4
71
3
72
10
73
6
40
0
40
0
40
0
40
0
40
0.5
40
0.5
40
1
40
1
40
1
40
1
41
1
10
27.3237154086812
20
-0.245901633558987
30
0
41
1
10
27.3258842098018
20
-0.254710600261632
30
0
41
1
10
27.3287438275449
20
-0.263239811470925
30
0
41
1
10
27.3356037995159
20
-0.279200445684467
30
0
41
1
10
27.3396151736121
20
-0.286685053533461
30
0
41
1
10
27.3441757692494
20
-0.293580545631869
30
0
0
SPLINE
5
FE
100
AcDbEntity
8
1
62
256
6
ByLayer
370
18
48
1
60
0
100
AcDbSpline
70
4
71
3
72
8
73
4
40
0
40
0
40
0
40
0
40
1
40
1
40
1
40
1
41
1
10
27.3226699686164
20
-0.169307932699866
30
0
41
1
10
27.3218825195117
20
-0.172822353018717
30
0
41
1
10
27.321223632865
20
-0.176327692905829
30
0
41
1
10
27.3206840984492
20
-0.17982078845489
30
0
0
SPLINE
5
FF
100
AcDbEntity
8
1
62
256
6
ByLayer
370
18
48
1
60
0
100
AcDbSpline
70
4
71
3
72
8
73
4
40
0
40
0
40
0
40
0
40
1
40
1
40
1
40
1
41
1
10
27.1307794253391
20
1.68092341371596
30
0
41
1
10
27.1249094704448
20
1.68944722473665
30
0
41
1
10
27.1198814577405
20
1.69505201286717
30
0
41
1
10
27.1156947667304
20
1.69773992937405
30
0
0
SPLINE
5
100
100
AcDbEntity
8
1
62
256
6
ByLayer
370
18
48
1
60
0
100
AcDbSpline
70
4
71
3
72
12
73
8
40
0
40
0
40
0
40
0
40
0.500000000000011
40
0.500000000000011
40
0.750000000000006
40
0.750000000000006
40
1
40
1
40
1
40
1
41
1
10
11.0366121135524
20
2.94996140942234
30
0
41
1
10
11.0148359670146
20
2.95575047454687
30
0
41
1
10
10.9983925261929
20
2.96223994464407
30
0
41
1
10
10.9814907661727
20
2.972051021808
30
0
41
1
10
10.9771341868928
20
2.97535621988135
30
0
41
1
10
10.9709882692383
20
2.98171221796991
30
0
41
1
10
10.9691545702161
20
2.98477883944642
30
0
41
1
10
10.968357019085
20
2.98770775082662
30
0
0
SPLINE
5
101
100
AcDbEntity
8
1
62
256
6
ByLayer
370
18
48
1
60
0
100
AcDbSpline
70
4
71
3
72
8
73
4
40
0
40
0
40
0
40
0
40
1
40
1
40
1
40
1
41
1
10
10.8361632823094
20
3.00110057569822
30
0
41
1
10
10.8806057766397
20
2.99641206447265
30
0
41
1
10
10.9246727454253
20
2.991983048397
30
0
41
1
10
10.9683570190845
20
2.98770775082659
30
0
0
SPLINE
5
102
100
AcDbEntity
8
1
62
256
6
ByLayer
370
18
48
1
60
0
100
AcDbSpline
70
4
71
3
72
8
73
4
40
0
40
0
40
0
40
0
40
1
40
1
40
1
40
1
41
1
10
11.0137690882195
20
2.64436500268056
30
0
41
1
10
10.9555097441627
20
2.67010974699036
30
0
41
1
10
10.8962561240304
20
2.69589095781802
30
0
41
1
10
10.8361632823094
20
2.72210590276657
30
0
0
SPLINE
5
103
100
AcDbEntity
8
1
62
256
6
ByLayer
370
18
48
1
60
0
100
AcDbSpline
70
4
71
3
72
10
73
6
40
0
40
0
40
0
40
0
40
0.5
40
0.5
40
1
40
1
40
1
40
1
41
1
10
11.62
20
2.36936890210333
30
0
41
1
10
11.5237696392001
20
2.41497985151423
30
0
41
1
10
11.4249953275143
20
2.46059049298637
30
0
41
1
10
11.2227994071428
20
2.55199075710388
30
0
41
1
10
11.1193665656952
20
2.59777282834006
30
0
41
1
10
11.0137690882195
20
2.64436500268056
30
0
0
SPLINE
5
104
100
AcDbEntity
8
1
62
256
6
ByLayer
370
18
48
1
60
0
100
AcDbSpline
70
4
71
1
72
4
73
2
40
0
40
0
40
1
40
1
41
1
10
11.62
20
2.23325068315842
30
0
41
1
10
11.0137690882195
20
2.64436500268059
30
0
0
SPLINE
5
105
100
AcDbEntity
8
1
62
256
6
ByLayer
370
18
48
1
60
0
100
AcDbSpline
70
4
71
1
72
4
73
2
40
0
40
0
40
1
40
1
41
1
10
20.6117851714075
20
-2.11925714267491
30
0
41
1
10
19.0181915203658
20
-2.3200356679794
30
0
0
SPLINE
5
106
100
AcDbEntity
8
1
62
256
6
ByLayer
370
18
48
1
60
0
100
AcDbSpline
70
4
71
3
72
9
73
5
40
0
40
0
40
0
40
0
40
0.5
40
1
40
1
40
1
40
1
41
1
10
27.2719840892856
20
1.28739579182494
30
0
41
1
10
27.2467506051655
20
1.36035550887087
30
0
41
1
10
27.1979946418873
20
1.49885269791412
30
0
41
1
10
27.1526130703564
20
1.62271199130069
30
0
41
1
10
27.1307794253391
20
1.68092341371596
30
0
0
SPLINE
5
107
100
AcDbEntity
8
1
62
256
6
ByLayer
370
18
48
1
60
0
100
AcDbSpline
70
4
71
3
72
18
73
14
40
0
40
0
40
0
40
0
40
0.218722687870855
40
0.218722687870855
40
0.43744537574171
40
0.43744537574171
40
0.546806719677131
40
0.546806719677131
40
0.656168063612553
40
0.656168063612553
40
0.874890751483401
40
0.874890751483401
40
1
40
1
40
1
40
1
41
1
10
27.1307794253391
20
1.68092341371593
30
0
41
1
10
27.0061836098026
20
1.76976545789287
30
0
41
1
10
26.8821239739763
20
1.85353143040629
30
0
41
1
10
26.6341149404285
20
2.01042003381087
30
0
41
1
10
26.5101670209438
20
2.08354228577207
30
0
41
1
10
26.3235259820899
20
2.18460994689841
30
0
41
1
10
26.2611914499539
20
2.21686051442091
30
0
41
1
10
26.1361326081058
20
2.2783454166979
30
0
41
1
10
26.0737986634888
20
2.3073857868892
30
0
41
1
10
25.8874163971083
20
2.3892406959749
30
0
41
1
10
25.763871013203
20
2.43685388389869
30
0
41
1
10
25.5698493116607
20
2.50047610783022
30
0
41
1
10
25.4993017033105
20
2.52126658193768
30
0
41
1
10
25.4286670938194
20
2.53970311180021
30
0
0
SPLINE
5
108
100
AcDbEntity
8
1
62
256
6
ByLayer
370
18
48
1
60
0
100
AcDbSpline
70
4
71
3
72
10
73
6
40
0
40
0
40
0
40
0
40
0.5
40
0.5
40
1
40
1
40
1
40
1
41
1
10
27.2875438558299
20
1.24434123119929
30
0
41
1
10
27.2852068484893
20
1.2504262758741
30
0
41
1
10
27.2826952577119
20
1.25720254189605
30
0
41
1
10
27.2774863576103
20
1.27163385233246
30
0
41
1
10
27.2747802667881
20
1.27931051552943
30
0
41
1
10
27.2719840867982
20
1.28739579270777
30
0
0
SPLINE
5
109
100
AcDbEntity
8
1
62
256
6
ByLayer
370
13
48
1
60
0
100
AcDbSpline
70
4
71
3
72
8
73
4
40
0
40
0
40
0
40
0
40
1
40
1
40
1
40
1
41
1
10
27.2719840849626
20
1.28739579801555
30
0
41
1
10
27.1609528378532
20
1.38310916850926
30
0
41
1
10
27.0499215907439
20
1.47569022712145
30
0
41
1
10
26.9388903436346
20
1.56465802805423
30
0
0
SPLINE
5
10A
100
AcDbEntity
8
1
62
256
6
ByLayer
370
13
48
1
60
0
100
AcDbSpline
70
4
71
3
72
11
73
7
40
0
40
0
40
0
40
0
40
0.101108247665003
40
0.325831185748753
40
0.550554123832502
40
1
40
1
40
1
40
1
41
1
10
16.0365495897447
20
-2.65202586961573
30
0
41
1
10
15.8876997264965
20
-2.69483811901858
30
0
41
1
10
15.4080165299149
20
-2.79826156432731
30
0
41
1
10
14.5975
20
-2.77512798323284
30
0
41
1
10
13.2741666666666
20
-2.29303166617214
30
0
41
1
10
12.2816666666667
20
-1.50437800034663
30
0
41
1
10
11.62
20
-0.888086475194484
30
0
0
SPLINE
5
10B
100
AcDbEntity
8
1
62
256
6
ByLayer
370
18
48
1
60
0
100
AcDbSpline
70
4
71
3
72
15
73
11
40
0
40
0
40
0
40
0
40
0.25
40
0.5
40
0.5
40
0.625
40
0.625
40
0.75
40
0.75
40
1
40
1
40
1
40
1
41
1
10
27.1307794253322
20
-2.0487419720393
30
0
41
1
10
27.1239144570773
20
-1.98812675187011
30
0
41
1
10
27.1124900893861
20
-1.866687960018
30
0
41
1
10
27.1056594260787
20
-1.74483404056693
30
0
41
1
10
27.1023151526356
20
-1.65328285980155
30
0
41
1
10
27.1014964798339
20
-1.62266987422831
30
0
41
1
10
27.1004760439797
20
-1.56170419224665
30
0
41
1
10
27.1002751669921
20
-1.53149361269317
30
0
41
1
10
27.1005820155012
20
-1.4416623377173
30
0
41
1
10
27.101996740794
20
-1.3828399235303
30
0
41
1
10
27.1046041621997
20
-1.32506724158804
30
0
0
SPLINE
5
10C
100
AcDbEntity
8
1
62
256
6
ByLayer
370
18
48
1
60
0
100
AcDbSpline
70
4
71
3
72
24
73
20
40
0
40
0
40
0
40
0
40
0.124999999999999
40
0.124999999999999
40
0.249999999999999
40
0.249999999999999
40
0.374999999999998
40
0.374999999999998
40
0.499999999999998
40
0.499999999999998
40
0.5625
40
0.5625
40
0.625000000000002
40
0.625000000000002
40
0.750000000000001
40
0.750000000000001
40
0.875000000000001
40
0.875000000000001
40
1
40
1
40
1
40
1
41
1
10
19.0181915203658
20
-2.3200356679794
30
0
41
1
10
19.1165804551203
20
-2.35372179319472
30
0
41
1
10
19.2125392782969
20
-2.38606242232694
30
0
41
1
10
19.4001558362981
20
-2.44632557348763
30
0
41
1
10
19.4918139964278
20
-2.47424309664655
30
0
41
1
10
19.6717296074553
20
-2.52388129076795
30
0
41
1
10
19.759986315018
20
-2.54560998032397
30
0
41
1
10
19.934219689334
20
-2.5814111995835
30
0
41
1
10
20.020193464347
20
-2.59548310394805
30
0
41
1
10
20.1485274274871
20
-2.60978532792043
30
0
41
1
10
20.1912037541011
20
-2.61341896783208
30
0
41
1
10
20.2765749531915
20
-2.61824846921348
30
0
41
1
10
20.3193429455138
20
-2.61944116121276
30
0
41
1
10
20.4471821978499
20
-2.61913549512687
30
0
41
1
10
20.5319537955495
20
-2.61376297782448
30
0
41
1
10
20.7029131049263
20
-2.59233315521368
30
0
41
1
10
20.7890871789752
20
-2.57629579946965
30
0
41
1
10
20.9655796086452
20
-2.5338804342546
30
0
41
1
10
21.0558948653502
20
-2.50749403973578
30
0
41
1
10
21.1500000000009
20
-2.47636042870474
30
0
0
SPLINE
5
10D
100
AcDbEntity
8
1
62
256
6
ByLayer
370
18
48
1
60
0
100
AcDbSpline
70
4
71
3
72
61
73
57
40
0
40
0
40
0
40
0
40
0.125000000000023
40
0.125000000000023
40
0.187500000000031
40
0.187500000000031
40
0.218750000000039
40
0.218750000000039
40
0.250000000000047
40
0.250000000000047
40
0.281250000000054
40
0.281250000000054
40
0.312500000000062
40
0.312500000000062
40
0.343750000000069
40
0.343750000000069
40
0.359375000000073
40
0.359375000000073
40
0.375000000000076
40
0.375000000000076
40
0.39062500000008
40
0.39062500000008
40
0.39843750000008
40
0.39843750000008
40
0.40625000000008
40
0.40625000000008
40
0.437500000000073
40
0.437500000000073
40
0.45312500000007
40
0.45312500000007
40
0.468750000000068
40
0.476562500000066
40
0.476562500000066
40
0.484375000000065
40
0.484375000000065
40
0.500000000000062
40
0.500000000000062
40
0.531250000000058
40
0.531250000000058
40
0.562500000000054
40
0.562500000000054
40
0.59375000000005
40
0.59375000000005
40
0.625000000000046
40
0.625000000000046
40
0.687500000000039
40
0.687500000000039
40
0.750000000000031
40
0.750000000000031
40
0.812500000000023
40
0.812500000000023
40
0.875000000000015
40
0.875000000000015
40
0.937500000000008
40
0.937500000000008
40
1
40
1
40
1
40
1
41
1
10
19.159059341028
20
-1.01598748881528
30
0
41
1
10
19.0346721982779
20
-1.00199340996446
30
0
41
1
10
18.9106481681562
20
-0.998107425616752
30
0
41
1
10
18.7255241800927
20
-1.01155848391767
30
0
41
1
10
18.6639666675573
20
-1.01925120230209
30
0
41
1
10
18.5719024882572
20
-1.03664890884093
30
0
41
1
10
18.5412597906596
20
-1.04343178180383
30
0
41
1
10
18.4800755272893
20
-1.05926218622537
30
0
41
1
10
18.4495031108189
20
-1.06832917272237
30
0
41
1
10
18.3894593055406
20
-1.08879494302497
30
0
41
1
10
18.3598729879634
20
-1.10021623914048
30
0
41
1
10
18.3017215334181
20
-1.12586265033696
30
0
41
1
10
18.2730811031897
20
-1.14013807599253
30
0
41
1
10
18.2180092285001
20
-1.17163157106779
30
0
41
1
10
18.1914713630093
20
-1.18887740760337
30
0
41
1
10
18.153568679168
20
-1.21760536446078
30
0
41
1
10
18.1412540649055
20
-1.22766127618132
30
0
41
1
10
18.1173753583218
20
-1.24889991189485
30
0
41
1
10
18.1059074455299
20
-1.26000364953646
30
0
41
1
10
18.0842388709752
20
-1.28309816757812
30
0
41
1
10
18.0740066408695
20
-1.29511574437373
30
0
41
1
10
18.0596912753681
20
-1.31394404601278
30
0
41
1
10
18.0550920702616
20
-1.32035411758585
30
0
41
1
10
18.0462666699756
20
-1.33346291908722
30
0
41
1
10
18.0420279076975
20
-1.34018543551477
30
0
41
1
10
18.0221243281659
20
-1.37408881677098
30
0
41
1
10
18.0101239066262
20
-1.40236896954301
30
0
41
1
10
17.9986122426067
20
-1.44661761471775
30
0
41
1
10
17.9958694504223
20
-1.46176733314235
30
0
41
1
10
17.9927473497048
20
-1.49158251302231
30
0
41
1
10
17.9921098292963
20
-1.51376167807715
30
0
41
1
10
17.9938026919098
20
-1.53567296073294
30
0
41
1
10
17.9954258422463
20
-1.55022165547226
30
0
41
1
10
17.9964894555667
20
-1.5574873790809
30
0
41
1
10
18.0003361550587
20
-1.57893138912652
30
0
41
1
10
18.0037732648641
20
-1.59282488887865
30
0
41
1
10
18.0162416977564
20
-1.63348650240758
30
0
41
1
10
18.0274110060214
20
-1.6592523275215
30
0
41
1
10
18.0538662978591
20
-1.70870837537387
30
0
41
1
10
18.0688544071125
20
-1.73185355719357
30
0
41
1
10
18.1012388009854
20
-1.77589452755581
30
0
41
1
10
18.1186475508121
20
-1.79678032223109
30
0
41
1
10
18.1552641099724
20
-1.83680981081446
30
0
41
1
10
18.1745015332664
20
-1.8559721935566
30
0
41
1
10
18.2341697700225
20
-1.91119314003697
30
0
41
1
10
18.2759457468534
20
-1.94453421049829
30
0
41
1
10
18.3618783410308
20
-2.0066578779041
30
0
41
1
10
18.4060616111674
20
-2.03540204956821
30
0
41
1
10
18.4960716504032
20
-2.08942870530637
30
0
41
1
10
18.5419072550329
20
-2.11469809763827
30
0
41
1
10
18.6347890122751
20
-2.16241064472163
30
0
41
1
10
18.6818371219181
20
-2.18485174048863
30
0
41
1
10
18.7768470543247
20
-2.22734945601522
30
0
41
1
10
18.8248417959278
20
-2.24741407921732
30
0
41
1
10
18.9212059486002
20
-2.28531445854182
30
0
41
1
10
18.9696146766788
20
-2.30316768826052
30
0
41
1
10
19.0181915203658
20
-2.3200356679794
30
0
0
SPLINE
5
10E
100
AcDbEntity
8
1
62
256
6
ByLayer
370
18
48
1
60
0
100
AcDbSpline
70
4
71
3
72
9
73
5
40
0
40
0
40
0
40
0
40
0.5
40
1
40
1
40
1
40
1
41
1
10
27.2719840892787
20
-2.46111032309449
30
0
41
1
10
27.2467506051585
20
-2.39908796511966
30
0
41
1
10
27.1979946418805
20
-2.26829164401701
30
0
41
1
10
27.1526130703496
20
-2.12418003803276
30
0
41
1
10
27.1307794253322
20
-2.04874197203924
30
0
0
SPLINE
5
10F
100
AcDbEntity
8
1
62
256
6
ByLayer
370
18
48
1
60
0
100
AcDbSpline
70
4
71
3
72
54
73
50
40
0
40
0
40
0
40
0
40
0.0653423990626582
40
0.0653423990626582
40
0.130684798125316
40
0.130684798125316
40
0.163355997656645
40
0.163355997656645
40
0.196027197187975
40
0.196027197187975
40
0.261369596250633
40
0.261369596250633
40
0.326711995313291
40
0.326711995313291
40
0.359383194844619
40
0.359383194844619
40
0.392054394375948
40
0.392054394375948
40
0.424725593907276
40
0.424725593907276
40
0.457396793438604
40
0.457396793438604
40
0.52273919250126
40
0.52273919250126
40
0.539074792266924
40
0.539074792266924
40
0.555410392032587
40
0.588081591563917
40
0.588081591563917
40
0.653423990626575
40
0.653423990626575
40
0.718766389689233
40
0.718766389689233
40
0.751437589220562
40
0.751437589220562
40
0.767773188986226
40
0.767773188986226
40
0.78410878875189
40
0.78410878875189
40
0.849451187814542
40
0.849451187814542
40
0.882122387345867
40
0.898457987111529
40
0.898457987111529
40
0.914793586877191
40
0.914793586877191
40
0.980135985939833
40
0.980135985939833
40
1
40
1
40
1
40
1
41
1
10
27.1307794253322
20
-2.0487419720393
30
0
41
1
10
27.0061836097959
20
-1.97612064056625
30
0
41
1
10
26.8821239739698
20
-1.89761378316283
30
0
41
1
10
26.6341149404223
20
-1.72982124661681
30
0
41
1
10
26.5101670209377
20
-1.64053291300698
30
0
41
1
10
26.3235259820841
20
-1.49912010616552
30
0
41
1
10
26.2611914499481
20
-1.45073462355751
30
0
41
1
10
26.1361326081001
20
-1.3515574775841
30
0
41
1
10
26.0737986634832
20
-1.30107521040415
30
0
41
1
10
25.8874163971029
20
-1.14740907200837
30
0
41
1
10
25.7638710131977
20
-1.04191913455017
30
0
41
1
10
25.5170239720972
20
-0.826069570147752
30
0
41
1
10
25.3937550212871
20
-0.715649879590927
30
0
41
1
10
25.2079807933054
20
-0.547550254555517
30
0
41
1
10
25.1459066967512
20
-0.49111290728294
30
0
41
1
10
25.0213086763385
20
-0.377605884417932
30
0
41
1
10
24.9587947268595
20
-0.32052414299892
30
0
41
1
10
24.8333041544314
20
-0.205714673817113
30
0
41
1
10
24.7702531978704
20
-0.147918011325657
30
0
41
1
10
24.6445124046201
20
-0.0325055602513373
30
0
41
1
10
24.5817286741739
20
0.0251962114875823
30
0
41
1
10
24.3935544145395
20
0.198192513186626
30
0
41
1
10
24.2683403299638
20
0.313378229473756
30
0
41
1
10
24.1114755384739
20
0.456480559276002
30
0
41
1
10
24.0800659561147
20
0.485073727860907
30
0
41
1
10
24.017421126834
20
0.541946516243968
30
0
41
1
10
23.9236407045918
20
0.626853648131572
30
0
41
1
10
23.8303395252729
20
0.71048150502304
30
0
41
1
10
23.6441625346997
20
0.875826868230547
30
0
41
1
10
23.5206171603202
20
0.983505814862411
30
0
41
1
10
23.2735018770935
20
1.19263753776812
30
0
41
1
10
23.1499155856814
20
1.29410132565232
30
0
41
1
10
22.9636733969328
20
1.44089412531949
30
0
41
1
10
22.9014505782707
20
1.48892459208113
30
0
41
1
10
22.8078126103484
20
1.55951987583609
30
0
41
1
10
22.7765493946338
20
1.58280982597441
30
0
41
1
10
22.7139073241681
20
1.62888825919958
30
0
41
1
10
22.6825025694924
20
1.65169475463404
30
0
41
1
10
22.5257120649754
20
1.76404864141301
30
0
41
1
10
22.4007784250088
20
1.84878087046789
30
0
41
1
10
22.213439139647
20
1.9677003083244
30
0
41
1
10
22.1197772174786
20
2.02511412586202
30
0
41
1
10
22.0259703803869
20
2.07934651580428
30
0
41
1
10
21.963382013982
20
2.11477961964408
30
0
41
1
10
21.9320416103893
20
2.13214653999918
30
0
41
1
10
21.7755070953136
20
2.21695604588714
30
0
41
1
10
21.6507477425189
20
2.27838078920721
30
0
41
1
10
21.4878883327839
20
2.34974265561652
30
0
41
1
10
21.4499070005756
20
2.36576064628744
30
0
41
1
10
21.4118913064912
20
2.38115697517333
30
0
0
SPLINE
5
110
100
AcDbEntity
8
1
62
256
6
ByLayer
370
13
48
1
60
0
100
AcDbSpline
70
4
71
3
72
10
73
6
40
0
40
0
40
0
40
0
40
0.5
40
0.5
40
1
40
1
40
1
40
1
41
1
10
21.15
20
-0.939809754797324
30
0
41
1
10
21.15
20
-0.830174433886555
30
0
41
1
10
21.15
20
-0.725947257521028
30
0
41
1
10
21.15
20
-0.533317624527314
30
0
41
1
10
21.15
20
-0.444927340380929
30
0
41
1
10
21.15
20
-0.366379513215406
30
0
0
SPLINE
5
111
100
AcDbEntity
8
1
62
256
6
ByLayer
370
18
48
1
60
0
100
AcDbSpline
70
4
71
1
72
4
73
2
40
0
40
0
40
1
40
1
41
1
10
21.15
20
-0.366379513215406
30
0
41
1
10
19.0181915203663
20
1.15129645994003
30
0
0
SPLINE
5
112
100
AcDbEntity
8
1
62
256
6
ByLayer
370
18
48
1
60
0
100
AcDbSpline
70
4
71
3
72
44
73
40
40
0
40
0
40
0
40
0
40
0.072610293247057
40
0.072610293247057
40
0.114764370826735
40
0.114764370826735
40
0.156918448406413
40
0.156918448406413
40
0.199072525986091
40
0.199072525986091
40
0.241226603565769
40
0.241226603565769
40
0.325534758725127
40
0.325534758725127
40
0.346611797514966
40
0.346611797514966
40
0.367688836304805
40
0.409842913884483
40
0.409842913884483
40
0.494151069043836
40
0.494151069043836
40
0.578459224203189
40
0.578459224203189
40
0.620613301782867
40
0.620613301782867
40
0.641690340572706
40
0.641690340572706
40
0.662767379362545
40
0.662767379362545
40
0.747075534521903
40
0.747075534521903
40
0.789229612101582
40
0.810306650891423
40
0.810306650891423
40
0.831383689681264
40
0.831383689681264
40
0.915691844840632
40
0.915691844840632
40
1
40
1
40
1
40
1
41
1
10
25.589078953045
20
-2.49375630080263
30
0
41
1
10
25.4828053536822
20
-2.52688979257539
30
0
41
1
10
25.3765707503901
20
-2.55467703336666
30
0
41
1
10
25.2079807933066
20
-2.59017660985927
30
0
41
1
10
25.1459066967523
20
-2.60142901974982
30
0
41
1
10
25.0213086763397
20
-2.6203710945459
30
0
41
1
10
24.9587947268606
20
-2.62805861779367
30
0
41
1
10
24.8333041544325
20
-2.63978286029587
30
0
41
1
10
24.7702531978715
20
-2.64381628625998
30
0
41
1
10
24.6445124046211
20
-2.64808513379663
30
0
41
1
10
24.5817286741749
20
-2.64833345003081
30
0
41
1
10
24.3935544145404
20
-2.64332306031645
30
0
41
1
10
24.2683403299648
20
-2.63232294893825
30
0
41
1
10
24.1114755384748
20
-2.60901655153793
30
0
41
1
10
24.0800659561156
20
-2.60387236058904
30
0
41
1
10
24.0174211268349
20
-2.59266690582871
30
0
41
1
10
23.9236407045926
20
-2.57447346492492
30
0
41
1
10
23.8303395252737
20
-2.5521773175164
30
0
41
1
10
23.6441625347005
20
-2.50222701373099
30
0
41
1
10
23.5206171603209
20
-2.46175911957525
30
0
41
1
10
23.2735018770941
20
-2.36709620367634
30
0
41
1
10
23.1499155856819
20
-2.31296895043451
30
0
41
1
10
22.9636733969333
20
-2.22209400596432
30
0
41
1
10
22.9014505782711
20
-2.19018386920158
30
0
41
1
10
22.8078126103488
20
-2.13990993732801
30
0
41
1
10
22.7765493946342
20
-2.12275017099313
30
0
41
1
10
22.7139073241685
20
-2.08762597389037
30
0
41
1
10
22.6825025694927
20
-2.0696463142763
30
0
41
1
10
22.5257120649758
20
-1.97802843630086
30
0
41
1
10
22.4007784250091
20
-1.89900613881343
30
0
41
1
10
22.2134391396472
20
-1.77247752078478
30
0
41
1
10
22.1197772174788
20
-1.70722468383102
30
0
41
1
10
22.0259703803871
20
-1.63911585934909
30
0
41
1
10
21.9633820139821
20
-1.59308847961253
30
0
41
1
10
21.9320416103895
20
-1.56974808917965
30
0
41
1
10
21.7755070953138
20
-1.45178284106393
30
0
41
1
10
21.650747742519
20
-1.3533299683223
30
0
41
1
10
21.4009631511485
20
-1.14944581259357
30
0
41
1
10
21.2759170047636
20
-1.04404418682822
30
0
41
1
10
21.15
20
-0.936006264696744
30
0
0
SPLINE
5
113
100
AcDbEntity
8
1
62
256
6
ByLayer
370
18
48
1
60
0
100
AcDbSpline
70
4
71
3
72
24
73
20
40
0
40
0
40
0
40
0
40
0.124999999999998
40
0.124999999999998
40
0.249999999999997
40
0.249999999999997
40
0.374999999999995
40
0.374999999999995
40
0.499999999999993
40
0.499999999999993
40
0.562499999999992
40
0.562499999999992
40
0.624999999999991
40
0.624999999999991
40
0.749999999999994
40
0.749999999999994
40
0.874999999999997
40
0.874999999999997
40
1
40
1
40
1
40
1
41
1
10
19.0181915203664
20
1.15129645994
30
0
41
1
10
19.1165804551208
20
1.07788665843501
30
0
41
1
10
19.2125392782973
20
1.00159946294804
30
0
41
1
10
19.4001558362984
20
0.843436350778717
30
0
41
1
10
19.4918139964281
20
0.761559662998991
30
0
41
1
10
19.6717296074556
20
0.59272910214483
30
0
41
1
10
19.7599863150182
20
0.505776401854007
30
0
41
1
10
19.9342196893342
20
0.32761427531392
30
0
41
1
10
20.0201934643471
20
0.236401662692686
30
0
41
1
10
20.1485274274873
20
0.0972678685617723
30
0
41
1
10
20.1912037541013
20
0.0505071734683042
30
0
41
1
10
20.2765749531917
20
-0.0435884123832864
30
0
41
1
10
20.3193429455139
20
-0.0910050346381297
30
0
41
1
10
20.44718219785
20
-0.232798127542054
30
0
41
1
10
20.5319537955496
20
-0.326922748057598
30
0
41
1
10
20.7029131049264
20
-0.512049597887085
30
0
41
1
10
20.7890871789752
20
-0.603068329658612
30
0
41
1
10
20.9655796086452
20
-0.779391170946411
30
0
41
1
10
21.0558948653502
20
-0.86469691743369
30
0
41
1
10
21.1500000000009
20
-0.945546969911589
30
0
0
SPLINE
5
114
100
AcDbEntity
8
1
62
256
6
ByLayer
370
18
48
1
60
0
100
AcDbSpline
70
4
71
3
72
61
73
57
40
0
40
0
40
0
40
0
40
0.12499999999998
40
0.12499999999998
40
0.187499999999969
40
0.187499999999969
40
0.218749999999964
40
0.218749999999964
40
0.249999999999959
40
0.249999999999959
40
0.281249999999954
40
0.281249999999954
40
0.312499999999949
40
0.312499999999949
40
0.343749999999944
40
0.343749999999944
40
0.359374999999941
40
0.359374999999941
40
0.374999999999939
40
0.374999999999939
40
0.390624999999936
40
0.390624999999936
40
0.398437499999937
40
0.398437499999937
40
0.406249999999937
40
0.406249999999937
40
0.43749999999994
40
0.43749999999994
40
0.453124999999941
40
0.453124999999941
40
0.468749999999942
40
0.476562499999943
40
0.476562499999943
40
0.484374999999943
40
0.484374999999943
40
0.499999999999944
40
0.499999999999944
40
0.531249999999948
40
0.531249999999948
40
0.562499999999951
40
0.562499999999951
40
0.593749999999954
40
0.593749999999954
40
0.624999999999958
40
0.624999999999958
40
0.687499999999965
40
0.687499999999965
40
0.749999999999972
40
0.749999999999972
40
0.812499999999979
40
0.812499999999979
40
0.874999999999986
40
0.874999999999986
40
0.937499999999993
40
0.937499999999993
40
1
40
1
40
1
40
1
41
1
10
19.1590593410283
20
1.98180589130431
30
0
41
1
10
19.0346721982781
20
2.00080408365119
30
0
41
1
10
18.9106481681565
20
2.01732642548467
30
0
41
1
10
18.7255241800929
20
2.0392110402573
30
0
41
1
10
18.6639666675574
20
2.04601242280364
30
0
41
1
10
18.5719024882574
20
2.05529158484345
30
0
41
1
10
18.5412597906598
20
2.05822702362943
30
0
41
1
10
18.4800755272895
20
2.06370754198764
30
0
41
1
10
18.449503110819
20
2.06625439280074
30
0
41
1
10
18.3894593055407
20
2.07076052379003
30
0
41
1
10
18.3598729879636
20
2.07273222891425
30
0
41
1
10
18.3017215334183
20
2.07591411336423
30
0
41
1
10
18.2730811031898
20
2.0771256472224
30
0
41
1
10
18.2180092285003
20
2.07842465756849
30
0
41
1
10
18.1914713630094
20
2.07852491617538
30
0
41
1
10
18.1535686791681
20
2.07745108618994
30
0
41
1
10
18.1412540649056
20
2.07688692263852
30
0
41
1
10
18.1173753583219
20
2.07523719398512
30
0
41
1
10
18.10590744553
20
2.0741560943143
30
0
41
1
10
18.0842388709752
20
2.07139486409017
30
0
41
1
10
18.0740066408695
20
2.06971313381979
30
0
41
1
10
18.0596912753681
20
2.066638467616
30
0
41
1
10
18.0550920702617
20
2.06552126336987
30
0
41
1
10
18.0462666699756
20
2.06308098508839
30
0
41
1
10
18.0420279076975
20
2.06175253739971
30
0
41
1
10
18.0221243281659
20
2.05464013359531
30
0
41
1
10
18.0101239066262
20
2.04742074550111
30
0
41
1
10
17.9986122426066
20
2.0337370754666
30
0
41
1
10
17.9958694504222
20
2.02865719538644
30
0
41
1
10
17.9927473497047
20
2.01785467330177
30
0
41
1
10
17.9921098292963
20
2.00922205492361
30
0
41
1
10
17.9938026919096
20
1.99981633691056
30
0
41
1
10
17.9954258422461
20
1.99337678569958
30
0
41
1
10
17.9964894555665
20
1.99006227071345
30
0
41
1
10
18.0003361550585
20
1.97999596294716
30
0
41
1
10
18.003773264864
20
1.97309445118461
30
0
41
1
10
18.0162416977562
20
1.95187426463579
30
0
41
1
10
18.0274110060213
20
1.93703803062806
30
0
41
1
10
18.053866297859
20
1.90622055475529
30
0
41
1
10
18.0688544071124
20
1.89058378182065
30
0
41
1
10
18.1012388009853
20
1.85888682947086
30
0
41
1
10
18.1186475508119
20
1.84282664239427
30
0
41
1
10
18.1552641099723
20
1.81030831305108
30
0
41
1
10
18.1745015332663
20
1.79382955544941
30
0
41
1
10
18.2341697700225
20
1.74395569824762
30
0
41
1
10
18.2759457468534
20
1.71058932189615
30
0
41
1
10
18.3618783410308
20
1.6433879070878
30
0
41
1
10
18.4060616111674
20
1.60955753034986
30
0
41
1
10
18.4960716504034
20
1.54132594124789
30
0
41
1
10
18.5419072550331
20
1.50692599642966
30
0
41
1
10
18.6347890122754
20
1.43748839794199
30
0
41
1
10
18.6818371219184
20
1.40245168570871
30
0
41
1
10
18.7768470543251
20
1.33169949034595
30
0
41
1
10
18.8248417959282
20
1.29596079460259
30
0
41
1
10
18.9212059486006
20
1.22402537277463
30
0
41
1
10
18.9696146766793
20
1.18780023171408
30
0
41
1
10
19.0181915203663
20
1.15129645994003
30
0
0
SPLINE
5
115
100
AcDbEntity
8
1
62
256
6
ByLayer
370
13
48
1
60
0
100
AcDbSpline
70
4
71
3
72
15
73
11
40
0
40
0
40
0
40
0
40
0.136447353532797
40
0.276818547441061
40
0.417189741349324
40
0.557560935257588
40
0.697932129165852
40
0.838303323074115
40
0.978674516982379
40
1
40
1
40
1
40
1
41
1
10
20.5247563336236
20
-2.65313659175888
30
0
41
1
10
20.2031708890824
20
-2.74515702320335
30
0
41
1
10
19.5507521112078
20
-2.82790089628062
30
0
41
1
10
18.5675
20
-2.62589073742217
30
0
41
1
10
17.575
20
-2.10640267498621
30
0
41
1
10
16.5825
20
-1.33677845674165
30
0
41
1
10
15.59
20
-0.406946816847039
30
0
41
1
10
14.5975
20
0.571358331477626
30
0
41
1
10
13.8855724469276
20
1.22345751571211
30
0
41
1
10
13.5044782271885
20
1.53365279757176
30
0
41
1
10
13.4542173407827
20
1.57383816115359
30
0
0
SPLINE
5
116
100
AcDbEntity
8
1
62
256
6
ByLayer
370
13
48
1
60
0
100
AcDbSpline
70
4
71
3
72
9
73
5
40
0
40
0
40
0
40
0
40
0.557515762810784
40
1
40
1
40
1
40
1
41
1
10
27.1046041621989
20
-1.32506724158762
30
0
41
1
10
26.4426527747993
20
-0.952474315386865
30
0
41
1
10
25.2553295965947
20
-0.0871633207923992
30
0
41
1
10
24.0680064183903
20
0.777311126415299
30
0
41
1
10
23.5426346275852
20
1.10240595735823
30
0
0
SPLINE
5
117
100
AcDbEntity
8
1
62
256
6
ByLayer
370
18
48
1
60
0
100
AcDbSpline
70
4
71
3
72
14
73
10
40
0
40
0
40
0
40
0
40
0.5
40
0.5
40
0.75
40
0.75
40
0.875
40
0.875
40
1
40
1
40
1
40
1
41
1
10
27.1046041622026
20
-1.32506724159111
30
0
41
1
10
27.1078726121559
20
-1.25162215450604
30
0
41
1
10
27.1084258391937
20
-1.1764096363838
30
0
41
1
10
27.1059292183141
20
-1.06142555219981
30
0
41
1
10
27.1045363505153
20
-1.02273257091184
30
0
41
1
10
27.1016565463126
20
-0.964178533984267
30
0
41
1
10
27.1005655140753
20
-0.944606074240397
30
0
41
1
10
27.0981536177352
20
-0.90567919626011
30
0
41
1
10
27.0968305424825
20
-0.88627783614163
30
0
41
1
10
27.0953972475066
20
-0.866934893904869
30
0
0
SPLINE
5
118
100
AcDbEntity
8
1
62
256
6
ByLayer
370
18
48
1
60
0
100
AcDbSpline
70
4
71
3
72
8
73
4
40
0
40
0
40
0
40
0
40
1
40
1
40
1
40
1
41
1
10
26.7258463182627
20
-0.314151295800286
30
0
41
1
10
26.8481499860772
20
-0.499889438960452
30
0
41
1
10
26.9713009397209
20
-0.684205504031894
30
0
41
1
10
27.0953972475066
20
-0.866934893904869
30
0
0
SPLINE
5
119
100
AcDbEntity
8
1
62
256
6
ByLayer
370
18
48
1
60
0
100
AcDbSpline
70
4
71
3
72
40
73
36
40
0
40
0
40
0
40
0
40
0.125000000000014
40
0.125000000000014
40
0.187500000000021
40
0.187500000000021
40
0.218750000000019
40
0.218750000000019
40
0.250000000000016
40
0.250000000000016
40
0.375000000000007
40
0.375000000000007
40
0.406250000000006
40
0.406250000000006
40
0.437500000000005
40
0.500000000000003
40
0.562500000000001
40
0.562500000000001
40
0.624999999999999
40
0.624999999999999
40
0.687499999999997
40
0.687499999999997
40
0.718750000000009
40
0.718750000000009
40
0.750000000000021
40
0.750000000000021
40
0.812500000000016
40
0.812500000000016
40
0.875000000000011
40
0.875000000000011
40
0.906250000000008
40
0.906250000000008
40
0.937500000000006
40
0.937500000000006
40
1
40
1
40
1
40
1
41
1
10
26.7258463182664
20
-0.3141512958058
30
0
41
1
10
26.7070232106572
20
-0.28556532517797
30
0
41
1
10
26.6917582693081
20
-0.255512316907812
30
0
41
1
10
26.67428842758
20
-0.208367668359273
30
0
41
1
10
26.6693737939507
20
-0.192307690872838
30
0
41
1
10
26.6634166921575
20
-0.167708875988268
30
0
41
1
10
26.661661975134
20
-0.159393702256409
30
0
41
1
10
26.6586653459691
20
-0.142756038004933
30
0
41
1
10
26.657424089524
20
-0.134449884051605
30
0
41
1
10
26.6524588269582
20
-0.0930007252987082
30
0
41
1
10
26.6524190784703
20
-0.0601011114718517
30
0
41
1
10
26.6569528194589
20
-0.0195989804171575
30
0
41
1
10
26.6580969546929
20
-0.0115016540740953
30
0
41
1
10
26.6608137634576
20
0.0044206779926981
30
0
41
1
10
26.6655319261715
20
0.0279327543462102
30
0
41
1
10
26.6764361375396
20
0.0652686604063319
30
0
41
1
10
26.6882138566269
20
0.0931200945778698
30
0
41
1
10
26.7015300947965
20
0.119900802284263
30
0
41
1
10
26.7088357915218
20
0.132504946284485
30
0
41
1
10
26.7246100577759
20
0.156039024650966
30
0
41
1
10
26.733090232983
20
0.166993761794288
30
0
41
1
10
26.7467466349107
20
0.182172779706434
30
0
41
1
10
26.7514557498919
20
0.187022847035251
30
0
41
1
10
26.7612094055689
20
0.196287099655962
30
0
41
1
10
26.7662686501073
20
0.200710419457863
30
0
41
1
10
26.7817353445962
20
0.213092529471368
30
0
41
1
10
26.792495388844
20
0.220241823348147
30
0
41
1
10
26.8150718600836
20
0.232272138627224
30
0
41
1
10
26.8268854694107
20
0.237155825623176
30
0
41
1
10
26.8456424503806
20
0.242580220868831
30
0
41
1
10
26.8521060574295
20
0.244074667332654
30
0
41
1
10
26.8652326615467
20
0.246329586024416
30
0
41
1
10
26.8718913065357
20
0.24709434037544
30
0
41
1
10
26.8922037068083
20
0.248275435461153
30
0
41
1
10
26.9061883823518
20
0.247588738142497
30
0
41
1
10
26.9208042432666
20
0.245254252454032
30
0
0
SPLINE
5
11A
100
AcDbEntity
8
1
62
256
6
ByLayer
370
18
48
1
60
0
100
AcDbSpline
70
4
71
3
72
23
73
19
40
0
40
0
40
0
40
0
40
0.0624999999999968
40
0.0624999999999968
40
0.124999999999994
40
0.250000000000002
40
0.312499999999996
40
0.312499999999996
40
0.37499999999999
40
0.37499999999999
40
0.499999999999949
40
0.624999999999909
40
0.624999999999909
40
0.687499999999909
40
0.687499999999909
40
0.749999999999909
40
0.749999999999909
40
1
40
1
40
1
40
1
41
1
10
27.2975203767256
20
0.228321604434001
30
0
41
1
10
27.296154004617
20
0.226728864756325
30
0
41
1
10
27.2943622722194
20
0.225226405835969
30
0
41
1
10
27.2899086763122
20
0.222459179114765
30
0
41
1
10
27.2819426570872
20
0.21866779252548
30
0
41
1
10
27.2660087257453
20
0.215097975220004
30
0
41
1
10
27.2497975002947
20
0.213611901087404
30
0
41
1
10
27.238010839752
20
0.212894957254321
30
0
41
1
10
27.2315992674721
20
0.212673333189656
30
0
41
1
10
27.2110877939299
20
0.212433406081175
30
0
41
1
10
27.1804218993614
20
0.21323534961121
30
0
41
1
10
27.1436629689645
20
0.216097862225809
30
0
41
1
10
27.114003805639
20
0.218951540225419
30
0
41
1
10
27.1037356686245
20
0.220024458158378
30
0
41
1
10
27.0827254798726
20
0.222373356210312
30
0
41
1
10
27.0719892904014
20
0.22364800319221
30
0
41
1
10
27.01726284969
20
0.230474541955317
30
0
41
1
10
26.9701781705274
20
0.237368112374895
30
0
41
1
10
26.9208042432648
20
0.245254252455595
30
0
0
SPLINE
5
11B
100
AcDbEntity
8
1
62
256
6
ByLayer
370
18
48
1
60
0
100
AcDbSpline
70
4
71
3
72
14
73
10
40
0
40
0
40
0
40
0
40
0.25
40
0.25
40
0.5
40
0.5
40
0.75
40
0.75
40
1
40
1
40
1
40
1
41
1
10
27.2875438558269
20
-2.50792032997296
30
0
41
1
10
27.2859459457188
20
-2.51383929968333
30
0
41
1
10
27.284101365848
20
-2.51989683909983
30
0
41
1
10
27.2798531706036
20
-2.53229830733537
30
0
41
1
10
27.2775409131337
20
-2.53837436738988
30
0
41
1
10
27.2725605326099
20
-2.55028924078363
30
0
41
1
10
27.2698744990946
20
-2.55615490531051
30
0
41
1
10
27.2643768347583
20
-2.56722594707563
30
0
41
1
10
27.2615412031532
20
-2.57249388379296
30
0
41
1
10
27.2586266450719
20
-2.57753340997326
30
0
0
SPLINE
5
11C
100
AcDbEntity
8
1
62
256
6
ByLayer
370
18
48
1
60
0
100
AcDbSpline
70
4
71
3
72
10
73
6
40
0
40
0
40
0
40
0
40
0.5
40
0.5
40
1
40
1
40
1
40
1
41
1
10
27.2875438558268
20
-2.50792032997308
30
0
41
1
10
27.2852068484858
20
-2.49920051823065
30
0
41
1
10
27.2826952577077
20
-2.49087693536512
30
0
41
1
10
27.2774863576048
20
-2.47528641586757
30
0
41
1
10
27.2747802667819
20
-2.46798119653712
30
0
41
1
10
27.2719840867913
20
-2.46111032456599
30
0
0
SPLINE
5
11D
100
AcDbEntity
8
1
62
256
6
ByLayer
370
13
48
1
60
0
100
AcDbSpline
70
4
71
3
72
12
73
8
40
0
40
0
40
0
40
0
40
0.365217839985431
40
0.571525176112886
40
0.77783251224034
40
0.984139848367795
40
1
40
1
40
1
40
1
41
1
10
27.2719840849557
20
-2.46111032005547
30
0
41
1
10
26.6863227233038
20
-2.19836365134438
30
0
41
1
10
25.7698280283186
20
-1.53413499744454
30
0
41
1
10
24.5225
20
-0.359340899378481
30
0
41
1
10
23.53
20
0.618485986021511
30
0
41
1
10
22.8429000795764
20
1.24371023690475
30
0
41
1
10
22.4866334924861
20
1.5328892438194
30
0
41
1
10
22.4612002387291
20
1.55334838156074
30
0
0
SPLINE
5
11E
100
AcDbEntity
8
1
62
256
6
ByLayer
370
18
48
1
60
0
100
AcDbSpline
70
4
71
5
72
12
73
6
40
0
40
0
40
0
40
0
40
0
40
0
40
1
40
1
40
1
40
1
40
1
40
1
41
0.979385449244789
10
21.150000000006
20
1.76172135754974
30
0
41
0.899123344026399
10
21.150000000006
20
1.48662056201323
30
0
41
0.865154011438562
10
21.150000000006
20
1.02419791530867
30
0
41
0.868835302759686
10
21.150000000006
20
0.480048365505069
30
0
41
0.910608836819689
10
21.150000000006
20
-0.0216486370212107
30
0
41
1
10
21.150000000006
20
-0.366379513219698
30
0
0
SPLINE
5
11F
100
AcDbEntity
8
1
62
256
6
ByLayer
370
13
48
1
60
0
100
AcDbSpline
70
4
71
3
72
10
73
6
40
0
40
0
40
0
40
0
40
0.387942522694414
40
0.591961681796276
40
1
40
1
40
1
40
1
41
1
10
25.0405659816179
20
-2.08538597983437
30
0
41
1
10
24.537460654412
20
-2.07263225623873
30
0
41
1
10
23.7697719938727
20
-1.89682629174865
30
0
41
1
10
22.4729166666667
20
-1.28779604829035
30
0
41
1
10
21.6791666666667
20
-0.743103568620569
30
0
41
1
10
21.15
20
-0.366379513215406
30
0
0
SPLINE
5
120
100
AcDbEntity
8
1
62
256
6
ByLayer
370
13
48
1
60
0
100
AcDbSpline
70
4
71
3
72
15
73
11
40
0
40
0
40
0
40
0
40
0.069109109476696
40
0.209097773570785
40
0.349086437664873
40
0.489075101758962
40
0.629063765853051
40
0.76905242994714
40
0.909041094041228
40
1
40
1
40
1
40
1
41
1
10
25.0124738960973
20
-2.65361240970694
30
0
41
1
10
24.8491492640649
20
-2.70026282731664
30
0
41
1
10
24.3549912986991
20
-2.80226282340041
30
0
41
1
10
23.53
20
-2.7648076920168
30
0
41
1
10
22.5375
20
-2.38901984796078
30
0
41
1
10
21.545
20
-1.72846497028712
30
0
41
1
10
20.5525
20
-0.862789099324317
30
0
41
1
10
19.56
20
0.107996691905498
30
0
41
1
10
18.683371370167
20
0.952142028403188
30
0
41
1
10
18.1375760736674
20
1.4208667458245
30
0
41
1
10
17.9226141105011
20
1.59200769138553
30
0
0
SPLINE
5
121
100
AcDbEntity
8
1
62
256
6
ByLayer
370
18
48
1
60
0
100
AcDbSpline
70
4
71
3
72
62
73
58
40
0
40
0
40
0
40
0
40
0.0217656502808574
40
0.0217656502808574
40
0.0543734619381652
40
0.0543734619381652
40
0.086981273595473
40
0.086981273595473
40
0.152196896910089
40
0.152196896910089
40
0.168500802738741
40
0.168500802738741
40
0.184804708567395
40
0.184804708567395
40
0.217412520224701
40
0.217412520224701
40
0.250020331882007
40
0.250020331882007
40
0.282628143539313
40
0.282628143539313
40
0.347843766853923
40
0.347843766853923
40
0.380451578511228
40
0.380451578511228
40
0.39675548433988
40
0.39675548433988
40
0.413059390168533
40
0.413059390168533
40
0.478275013483145
40
0.478275013483145
40
0.510882825140451
40
0.510882825140451
40
0.527186730969104
40
0.527186730969104
40
0.543490636797757
40
0.543490636797757
40
0.576098448455061
40
0.576098448455061
40
0.608706260112365
40
0.608706260112365
40
0.641314071769669
40
0.641314071769669
40
0.673921883426974
40
0.673921883426974
40
0.73913750674158
40
0.73913750674158
40
0.771745318398883
40
0.771745318398883
40
0.804353130056185
40
0.804353130056185
40
0.86956875337079
40
0.86956875337079
40
0.902176565028093
40
0.902176565028093
40
0.934784376685395
40
0.934784376685395
40
1
40
1
40
1
40
1
41
1
10
21.4007655085083
20
2.37653126602561
30
0
41
1
10
21.4426250513961
20
2.398826497724
30
0
41
1
10
21.4844935865605
20
2.42028710512693
30
0
41
1
10
21.5891605740421
20
2.47189695978579
30
0
41
1
10
21.6520588312368
20
2.50109630976291
30
0
41
1
10
21.7777173840194
20
2.55604802517311
30
0
41
1
10
21.8404617594339
20
2.58179720810514
30
0
41
1
10
22.0285794802194
20
2.65413038569306
30
0
41
1
10
22.1538317033599
20
2.6958739477482
30
0
41
1
10
22.3105995250344
20
2.7397450658911
30
0
41
1
10
22.3419636244021
20
2.74809778376695
30
0
41
1
10
22.4047265060572
20
2.76392758155552
30
0
41
1
10
22.4361284211978
20
2.77140442545803
30
0
41
1
10
22.5300813708034
20
2.79238334212354
30
0
41
1
10
22.59248519831
20
2.80447017531674
30
0
41
1
10
22.7169431200173
20
2.82438698584795
30
0
41
1
10
22.7789959793198
20
2.83218582610203
30
0
41
1
10
22.9029307921625
20
2.84299945775288
30
0
41
1
10
22.964815274582
20
2.84602505056685
30
0
41
1
10
23.1505377222665
20
2.84784707594915
30
0
41
1
10
23.2744772696647
20
2.83930542606581
30
0
41
1
10
23.4615357497628
20
2.81367432953326
30
0
41
1
10
23.5240727417882
20
2.80302261820978
30
0
41
1
10
23.6182046175197
20
2.78421867642658
30
0
41
1
10
23.6496621527312
20
2.77747083245302
30
0
41
1
10
23.7125203859353
20
2.7631005971499
30
0
41
1
10
23.7439280858506
20
2.75547766204991
30
0
41
1
10
23.9008871733994
20
2.71526052221202
30
0
41
1
10
24.0262089262967
20
2.67642651767739
30
0
41
1
10
24.2142068623002
20
2.60895128331495
30
0
41
1
10
24.276873386757
20
2.58490955594519
30
0
41
1
10
24.3709202579087
20
2.54649436491863
30
0
41
1
10
24.4022990396602
20
2.53328669321553
30
0
41
1
10
24.4649728845065
20
2.50611531870715
30
0
41
1
10
24.4962485593135
20
2.49216068464
30
0
41
1
10
24.5899038311531
20
2.44916697871446
30
0
41
1
10
24.6521100424919
20
2.41900528872978
30
0
41
1
10
24.7761488661639
20
2.35540770114
30
0
41
1
10
24.8379794447129
20
2.32197228273367
30
0
41
1
10
24.9614286327877
20
2.25131742906083
30
0
41
1
10
25.0230461226496
20
2.21409108017562
30
0
41
1
10
25.1463637952844
20
2.13517562672027
30
0
41
1
10
25.2080746070968
20
2.09342479817499
30
0
41
1
10
25.3938427792747
20
1.96153686628008
30
0
41
1
10
25.5185979938682
20
1.86485595168574
30
0
41
1
10
25.70781771907
20
1.71116834292351
30
0
41
1
10
25.7707995560075
20
1.65882930020098
30
0
41
1
10
25.8967083045212
20
1.55236129850269
30
0
41
1
10
25.9596385560074
20
1.49822557641267
30
0
41
1
10
26.1485125923308
20
1.33348442441721
30
0
41
1
10
26.2745459403666
20
1.22057011192811
30
0
41
1
10
26.4641773565406
20
1.04730914631853
30
0
41
1
10
26.5274775458454
20
0.988902553336089
30
0
41
1
10
26.6537630304309
20
0.871348746595686
30
0
41
1
10
26.7168178526305
20
0.812137768264847
30
0
41
1
10
26.9057863894714
20
0.633252978578156
30
0
41
1
10
27.0314872765731
20
0.512331627521434
30
0
41
1
10
27.1571660530615
20
0.389763245519902
30
0
0
SPLINE
5
122
100
AcDbEntity
8
1
62
256
6
ByLayer
370
18
48
1
60
0
100
AcDbSpline
70
4
71
3
72
9
73
5
40
0
40
0
40
0
40
0
40
0.606573528088958
40
1
40
1
40
1
40
1
41
1
10
19.1590593410264
20
1.98180589130496
30
0
41
1
10
18.9618728940176
20
2.05200950470862
30
0
41
1
10
18.6367903807236
20
2.14474354750223
30
0
41
1
10
18.3117078674295
20
2.19504838765698
30
0
41
1
10
18.1838118011442
20
2.2081969578903
30
0
0
SPLINE
5
123
100
AcDbEntity
8
1
62
256
6
ByLayer
370
18
48
1
60
0
100
AcDbSpline
70
4
71
3
72
48
73
44
40
0
40
0
40
0
40
0
40
0.0624999999999985
40
0.0624999999999985
40
0.124999999999997
40
0.124999999999997
40
0.187499999999996
40
0.187499999999996
40
0.249999999999994
40
0.249999999999994
40
0.28124999999999
40
0.28124999999999
40
0.296874999999988
40
0.296874999999988
40
0.312499999999987
40
0.312499999999987
40
0.374999999999996
40
0.374999999999996
40
0.437500000000006
40
0.437500000000006
40
0.500000000000015
40
0.500000000000015
40
0.53125000000002
40
0.53125000000002
40
0.562500000000025
40
0.562500000000025
40
0.625000000000028
40
0.625000000000028
40
0.687500000000031
40
0.687500000000031
40
0.718750000000033
40
0.718750000000033
40
0.750000000000034
40
0.750000000000034
40
0.81250000000003
40
0.81250000000003
40
0.875000000000025
40
0.875000000000025
40
0.906250000000019
40
0.906250000000019
40
0.937500000000013
40
0.937500000000013
40
1
40
1
40
1
40
1
41
1
10
21.15
20
1.75850465811877
30
0
41
1
10
21.1134538254653
20
1.78709462088159
30
0
41
1
10
21.0768980174957
20
1.81578351300209
30
0
41
1
10
21.0038922348079
20
1.87253995167427
30
0
41
1
10
20.9674410825128
20
1.90062832991094
30
0
41
1
10
20.8947035629878
20
1.95501049809422
30
0
41
1
10
20.8584225511766
20
1.98132276357259
30
0
41
1
10
20.7859850651593
20
2.0299216861936
30
0
41
1
10
20.7498440458921
20
2.05212372525253
30
0
41
1
10
20.6953757892013
20
2.08033605675931
30
0
41
1
10
20.6771711227967
20
2.08890132242004
30
0
41
1
10
20.6497012483826
20
2.10041532364068
30
0
41
1
10
20.6404928606413
20
2.1040413497189
30
0
41
1
10
20.6221247428144
20
2.11081100562831
30
0
41
1
10
20.6129890973132
20
2.11394744150226
30
0
41
1
10
20.5674844937489
20
2.12847792809399
30
0
41
1
10
20.5316107978943
20
2.13645875353976
30
0
41
1
10
20.4595324765243
20
2.14697102036647
30
0
41
1
10
20.4233402665263
20
2.14948843650492
30
0
41
1
10
20.3497299015267
20
2.14994853758185
30
0
41
1
10
20.3123210769668
20
2.14787656303733
30
0
41
1
10
20.2547067665242
20
2.14165865790773
30
0
41
1
10
20.2352957728245
20
2.13906833300433
30
0
41
1
10
20.1962358178836
20
2.13296526455434
30
0
41
1
10
20.1765493310781
20
2.12944843526137
30
0
41
1
10
20.1168935981556
20
2.11763020964753
30
0
41
1
10
20.0763343565383
20
2.10803906998677
30
0
41
1
10
19.992875430833
20
2.08632047515121
30
0
41
1
10
19.9499625747767
20
2.07423536067475
30
0
41
1
10
19.8831834129363
20
2.05556055732001
30
0
41
1
10
19.8605034494387
20
2.04924168736608
30
0
41
1
10
19.8143222805767
20
2.036698260496
30
0
41
1
10
19.7909918251376
20
2.03052112697838
30
0
41
1
10
19.7202272268859
20
2.01266154628183
30
0
41
1
10
19.6720134848118
20
2.00165623437457
30
0
41
1
10
19.5733651476944
20
1.98343580740163
30
0
41
1
10
19.52292977552
20
1.97622352647963
30
0
41
1
10
19.445662009015
20
1.96957401591641
30
0
41
1
10
19.4195708292094
20
1.9680512577776
30
0
41
1
10
19.3674542207391
20
1.96656753451555
30
0
41
1
10
19.341381831233
20
1.96659843764218
30
0
41
1
10
19.2631747496381
20
1.96906628860503
30
0
41
1
10
19.2110526424026
20
1.97389520308832
30
0
41
1
10
19.1590593410283
20
1.98180589130431
30
0
0
SPLINE
5
124
100
AcDbEntity
8
1
62
256
6
ByLayer
370
18
48
1
60
0
100
AcDbSpline
70
4
71
3
72
22
73
18
40
0
40
0
40
0
40
0
40
0.131882610449596
40
0.131882610449596
40
0.263765220899192
40
0.263765220899192
40
0.395647831348789
40
0.395647831348789
40
0.527530441798385
40
0.527530441798385
40
0.791295662697577
40
0.791295662697577
40
0.857236967922375
40
0.857236967922375
40
0.923178273147173
40
0.923178273147173
40
1
40
1
40
1
40
1
41
1
10
21.1500000000059
20
1.76352527104387
30
0
41
1
10
21.212799672921
20
1.71427552216733
30
0
41
1
10
21.2755096188534
20
1.66373007976651
30
0
41
1
10
21.4009202957973
20
1.56019779760751
30
0
41
1
10
21.463622810108
20
1.50721436858305
30
0
41
1
10
21.5891605740422
20
1.3991209742187
30
0
41
1
10
21.6520588312369
20
1.34396410860774
30
0
41
1
10
21.7777173840195
20
1.23214023539808
30
0
41
1
10
21.840461759434
20
1.17548771641023
30
0
41
1
10
22.0285794802195
20
1.0035585415082
30
0
41
1
10
22.1538317033599
20
0.886331890643845
30
0
41
1
10
22.3105995250344
20
0.736894324188057
30
0
41
1
10
22.3419636244021
20
0.70685974969058
30
0
41
1
10
22.4047265060573
20
0.64649890153953
30
0
41
1
10
22.4361284211979
20
0.616169261236109
30
0
41
1
10
22.5039311836324
20
0.550422914877942
30
0
41
1
10
22.5403377560066
20
0.514957183312987
30
0
41
1
10
22.5766769760952
20
0.479415102078292
30
0
0
SPLINE
5
125
100
AcDbEntity
8
1
62
256
6
ByLayer
370
18
48
1
60
0
100
AcDbSpline
70
4
71
3
72
10
73
6
40
0
40
0
40
0
40
0
40
0.5
40
0.5
40
1
40
1
40
1
40
1
41
1
10
27.0498983086532
20
2.91237780711626
30
0
41
1
10
27.0701329858015
20
2.89699868509231
30
0
41
1
10
27.0893076945677
20
2.88003492269357
30
0
41
1
10
27.12520536793
20
2.842919923361
30
0
41
1
10
27.1419306417348
20
2.82276828438796
30
0
41
1
10
27.1571660530532
20
2.80095075946019
30
0
0
SPLINE
5
126
100
AcDbEntity
8
1
62
256
6
ByLayer
370
18
48
1
60
0
100
AcDbSpline
70
4
71
5
72
12
73
6
40
0
40
0
40
0
40
0
40
0
40
0
40
1
40
1
40
1
40
1
40
1
40
1
41
1
10
11.620000000031
20
2.23325068313741
30
0
41
0.933487863452818
10
11.620000000031
20
2.09101507733152
30
0
41
0.902996710371771
10
11.620000000031
20
1.88174725154399
30
0
41
0.902996710371771
10
11.620000000031
20
1.64264573960628
30
0
41
0.933487863452818
10
11.620000000031
20
1.41636997165722
30
0
41
1
10
11.620000000031
20
1.24346437896003
30
0
0
SPLINE
5
127
100
AcDbEntity
8
1
62
256
6
ByLayer
370
18
48
1
60
0
100
AcDbSpline
70
4
71
3
72
10
73
6
40
0
40
0
40
0
40
0
40
0.218176146928195
40
0.47878409795213
40
1
40
1
40
1
40
1
41
1
10
15.4284026066759
20
-1.50152794933433
30
0
41
1
10
15.1514350711173
20
-1.34171148412725
30
0
41
1
10
14.5436342022252
20
-0.943407383106319
30
0
41
1
10
13.2741666666666
20
0.0186601670130528
30
0
41
1
10
12.2816666666667
20
0.819898481724209
30
0
41
1
10
11.62
20
1.24346437897989
30
0
0
SPLINE
5
128
100
AcDbEntity
8
1
62
256
6
ByLayer
370
18
48
1
60
0
100
AcDbSpline
70
4
71
3
72
16
73
12
40
0
40
0
40
0
40
0
40
0.0896675453985693
40
0.0896675453985693
40
0.393111696932385
40
0.393111696932385
40
0.544833772699293
40
0.544833772699293
40
0.696555848466201
40
0.696555848466201
40
1
40
1
40
1
40
1
41
1
10
25.9109906420217
20
2.3794833681369
30
0
41
1
10
25.9481900611462
20
2.39798621869588
30
0
41
1
10
25.9853884665241
20
2.41592895747812
30
0
41
1
10
26.1485125923317
20
2.49224621470094
30
0
41
1
10
26.2745459403675
20
2.54506258212248
30
0
41
1
10
26.4641773565416
20
2.61567011186884
30
0
41
1
10
26.5274775458465
20
2.63775391053051
30
0
41
1
10
26.6537630304319
20
2.67883954869958
30
0
41
1
10
26.7168178526316
20
2.69786914004152
30
0
41
1
10
26.9057863894725
20
2.75032887347234
30
0
41
1
10
27.0314872765743
20
2.77922672526782
30
0
41
1
10
27.1571660530627
20
2.80095075947364
30
0
0
SPLINE
5
129
100
AcDbEntity
8
1
62
256
6
ByLayer
370
18
48
1
60
0
100
AcDbSpline
70
4
71
3
72
8
73
4
40
0
40
0
40
0
40
0
40
1
40
1
40
1
40
1
41
1
10
11.1248496307543
20
-0.595336197287452
30
0
41
1
10
11.073301149851
20
-0.539272945000675
30
0
41
1
10
11.0209640584735
20
-0.486401633969336
30
0
41
1
10
10.9683570190845
20
-0.436141260968014
30
0
0
SPLINE
5
12A
100
AcDbEntity
8
1
62
256
6
ByLayer
370
18
48
1
60
0
100
AcDbSpline
70
4
71
3
72
8
73
4
40
0
40
0
40
0
40
0
40
1
40
1
40
1
40
1
41
1
10
10.6638818484707
20
-3.01331216583995
30
0
41
1
10
10.7214730603042
20
-3.01121179075889
30
0
41
1
10
10.7788535371448
20
-3.00714653210974
30
0
41
1
10
10.8361632823094
20
-3.00110057569825
30
0
0
SPLINE
5
12B
100
AcDbEntity
8
1
62
256
6
ByLayer
370
18
48
1
60
0
100
AcDbSpline
70
4
71
3
72
16
73
12
40
0
40
0
40
0
40
0
40
0.12500000000001
40
0.12500000000001
40
0.25000000000002
40
0.25000000000002
40
0.500000000000013
40
0.500000000000013
40
0.750000000000007
40
0.750000000000007
40
1
40
1
40
1
40
1
41
1
10
10.3943573285137
20
-3.00432356585929
30
0
41
1
10
10.4022343472746
20
-3.00574814964486
30
0
41
1
10
10.4113333936301
20
-3.00697237090688
30
0
41
1
10
10.430605419211
20
-3.00913140659179
30
0
41
1
10
10.4408350964944
20
-3.01006340271812
30
0
41
1
10
10.472546906398
20
-3.01247232293511
30
0
41
1
10
10.4949946569912
20
-3.0135631431734
30
0
41
1
10
10.5412955594754
20
-3.01488539957299
30
0
41
1
10
10.56518971429
20
-3.01511278545851
30
0
41
1
10
10.6138831595444
20
-3.0147854122381
30
0
41
1
10
10.6387033499149
20
-3.01423044107091
30
0
41
1
10
10.6638818484707
20
-3.01331216583995
30
0
0
SPLINE
5
12C
100
AcDbEntity
8
1
62
256
6
ByLayer
370
18
48
1
60
0
100
AcDbSpline
70
4
71
3
72
8
73
4
40
0
40
0
40
0
40
0
40
1
40
1
40
1
40
1
41
1
10
10.663881848471
20
-0.100870170026155
30
0
41
1
10
10.7214730603044
20
-0.163615040813284
30
0
41
1
10
10.778853537145
20
-0.226425292730738
30
0
41
1
10
10.8361632823094
20
-0.289171808002948
30
0
0
SPLINE
5
12D
100
AcDbEntity
8
1
62
256
6
ByLayer
370
18
48
1
60
0
100
AcDbSpline
70
4
71
3
72
58
73
54
40
0
40
0
40
0
40
0
40
0.125000000000001
40
0.125000000000001
40
0.250000000000001
40
0.250000000000001
40
0.312500000000001
40
0.312500000000001
40
0.375000000000001
40
0.375000000000001
40
0.500000000000009
40
0.500000000000009
40
0.562500000000012
40
0.562500000000012
40
0.59375000000001
40
0.59375000000001
40
0.625000000000008
40
0.625000000000008
40
0.687500000000004
40
0.687500000000004
40
0.718749999999998
40
0.718749999999998
40
0.749999999999992
40
0.749999999999992
40
0.765624999999989
40
0.765624999999989
40
0.781249999999986
40
0.781249999999986
40
0.812499999999971
40
0.812499999999971
40
0.828124999999968
40
0.828124999999968
40
0.843749999999965
40
0.843749999999965
40
0.859374999999962
40
0.859374999999962
40
0.867187499999964
40
0.867187499999964
40
0.874999999999966
40
0.874999999999966
40
0.89062499999997
40
0.89062499999997
40
0.906249999999975
40
0.906249999999975
40
0.921874999999979
40
0.921874999999979
40
0.937499999999983
40
0.937499999999983
40
0.968749999999991
40
0.968749999999991
40
0.984374999999996
40
0.984374999999996
40
1
40
1
40
1
40
1
41
1
10
10.8361632823094
20
2.72210590276657
30
0
41
1
10
10.7647626761367
20
2.75325375509817
30
0
41
1
10
10.6925790400594
20
2.78159428519964
30
0
41
1
10
10.5455200855222
20
2.8326717214934
30
0
41
1
10
10.4706517147313
20
2.85540879101563
30
0
41
1
10
10.3553130804238
20
2.8854371967044
30
0
41
1
10
10.3163903319963
20
2.8947581840068
30
0
41
1
10
10.2376563700542
20
2.91201522174711
30
0
41
1
10
10.1978116678643
20
2.91996042660199
30
0
41
1
10
10.076529484984
20
2.94184260777331
30
0
41
1
10
9.99338473615614
20
2.95382201387773
30
0
41
1
10
9.86348594500356
20
2.96836811091219
30
0
41
1
10
9.81931545804588
20
2.97264751774557
30
0
41
1
10
9.75137613572414
20
2.97827414342098
30
0
41
1
10
9.72848693468305
20
2.98001374717828
30
0
41
1
10
9.68239238879275
20
2.9832175681108
30
0
41
1
10
9.65915584704823
20
2.98468450396325
30
0
41
1
10
9.58879257853908
20
2.98869750799551
30
0
41
1
10
9.54103047941061
20
2.99086097643112
30
0
41
1
10
9.46753259846167
20
2.99334472890351
30
0
41
1
10
9.44272207114187
20
2.99404535459104
30
0
41
1
10
9.39233244241046
20
2.99517735235884
30
0
41
1
10
9.36696121221328
20
2.99560404447737
30
0
41
1
10
9.32876613020386
20
2.99600982289206
30
0
41
1
10
9.31600265012935
20
2.99610597536181
30
0
41
1
10
9.29040371171243
20
2.99621176613107
30
0
41
1
10
9.27753579647174
20
2.99622134229043
30
0
41
1
10
9.23904602458776
20
2.99610117491923
30
0
41
1
10
9.21367362948467
20
2.99582831412312
30
0
41
1
10
9.1761768651271
20
2.99501672112086
30
0
41
1
10
9.16377231628852
20
2.99467826724819
30
0
41
1
10
9.13918935624596
20
2.99382811213331
30
0
41
1
10
9.12695069570063
20
2.99331253332431
30
0
41
1
10
9.10336184843416
20
2.99208356855988
30
0
41
1
10
9.09195199437787
20
2.99136930095807
30
0
41
1
10
9.07550455266477
20
2.99010698225888
30
0
41
1
10
9.07013374295022
20
2.98965419326655
30
0
41
1
10
9.05963391240726
20
2.98867556256428
30
0
41
1
10
9.05449722560741
20
2.98814829226706
30
0
41
1
10
9.03976058385746
20
2.98647505930396
30
0
41
1
10
9.03073424183165
20
2.98522976635334
30
0
41
1
10
9.01431422562686
20
2.98243649619221
30
0
41
1
10
9.00689612073387
20
2.98088210863315
30
0
41
1
10
8.99387161216896
20
2.97744173910101
30
0
41
1
10
8.98840664800377
20
2.97559621526338
30
0
41
1
10
8.97934838755225
20
2.97164177727765
30
0
41
1
10
8.97574583070812
20
2.96952409207685
30
0
41
1
10
8.96758239548498
20
2.96280980739587
30
0
41
1
10
8.96573161517927
20
2.9579866959395
30
0
41
1
10
8.96674460968194
20
2.95022965153362
30
0
41
1
10
8.96773223630285
20
2.94754842444652
30
0
41
1
10
8.97080609931476
20
2.94205944835522
30
0
41
1
10
8.97288735174641
20
2.93925288875025
30
0
41
1
10
8.97543220105206
20
2.93638437789403
30
0
0
SPLINE
5
12E
100
AcDbEntity
8
1
62
256
6
ByLayer
370
18
48
1
60
0
100
AcDbSpline
70
4
71
3
72
8
73
4
40
0
40
0
40
0
40
0
40
1
40
1
40
1
40
1
41
1
10
10.6638818484714
20
3.01331216583989
30
0
41
1
10
10.7214730603047
20
3.01121179075884
30
0
41
1
10
10.7788535371451
20
3.00714653210972
30
0
41
1
10
10.8361632823094
20
3.00110057569825
30
0
0
SPLINE
5
12F
100
AcDbEntity
8
1
62
256
6
ByLayer
370
18
48
1
60
0
100
AcDbSpline
70
4
71
3
72
10
73
6
40
0
40
0
40
0
40
0
40
0.167100813969179
40
0.167100813969179
40
1
40
1
40
1
40
1
41
1
10
10.5749397162358
20
3.01500005070341
30
0
41
1
10
10.5797855063367
20
3.01499903736479
30
0
41
1
10
10.5846518635665
20
3.01498193855596
30
0
41
1
10
10.6138831595451
20
3.01478541223804
30
0
41
1
10
10.6387033499156
20
3.01423044107085
30
0
41
1
10
10.6638818484714
20
3.01331216583989
30
0
0
SPLINE
5
130
100
AcDbEntity
8
1
62
256
6
ByLayer
370
18
48
1
60
0
100
AcDbSpline
70
4
71
3
72
16
73
12
40
0
40
0
40
0
40
0
40
0.12500000000001
40
0.12500000000001
40
0.25000000000002
40
0.25000000000002
40
0.500000000000013
40
0.500000000000013
40
0.750000000000007
40
0.750000000000007
40
1
40
1
40
1
40
1
41
1
10
10.3943573285141
20
0.253505249694598
30
0
41
1
10
10.4022343472751
20
0.236622322639789
30
0
41
1
10
10.4113333936284
20
0.220443405110103
30
0
41
1
10
10.4306054192094
20
0.188696348974787
30
0
41
1
10
10.4408350964929
20
0.173143333966948
30
0
41
1
10
10.4725469063966
20
0.127187709572468
30
0
41
1
10
10.49499465699
20
0.0975279668815858
30
0
41
1
10
10.5412955594746
20
0.0392498364132052
30
0
41
1
10
10.5651897142893
20
0.0106496135163638
30
0
41
1
10
10.6138831595442
20
-0.0456885265654421
30
0
41
1
10
10.638703349915
20
-0.073438374041956
30
0
41
1
10
10.663881848471
20
-0.100870170026155
30
0
0
SPLINE
5
131
100
AcDbEntity
8
1
62
256
6
ByLayer
370
13
48
1
60
0
100
AcDbSpline
70
4
71
1
72
4
73
2
40
0
40
0
40
1
40
1
41
1
10
11.62
20
-1.0087265712622
30
0
41
1
10
10.663881848471
20
-0.100870170026127
30
0
0
SPLINE
5
132
100
AcDbEntity
8
1
62
256
6
ByLayer
370
18
48
1
60
0
100
AcDbSpline
70
4
71
5
72
12
73
6
40
0
40
0
40
0
40
0
40
0
40
0
40
1
40
1
40
1
40
1
40
1
40
1
41
1
10
11.62
20
-0.888086475194484
30
0
41
0.982026807950054
10
11.62
20
-0.915335313512004
30
0
41
0.973242109195371
10
11.62
20
-0.942307778106834
30
0
41
0.973242109195371
10
11.62
20
-0.96766893873953
30
0
41
0.982026807950054
10
11.62
20
-0.990173512989101
30
0
41
1
10
11.62
20
-1.0087265712622
30
0
0
SPLINE
5
133
100
AcDbEntity
8
1
62
256
6
ByLayer
370
18
48
1
60
0
100
AcDbSpline
70
4
71
3
72
31
73
27
40
0
40
0
40
0
40
0
40
0.125
40
0.125
40
0.25
40
0.25
40
0.28125
40
0.28125
40
0.3125
40
0.375
40
0.375
40
0.5
40
0.5
40
0.53125
40
0.53125
40
0.5625
40
0.5625
40
0.625
40
0.625
40
0.749999999999999
40
0.749999999999999
40
0.812499999999999
40
0.812499999999999
40
0.874999999999999
40
0.874999999999999
40
1
40
1
40
1
40
1
41
1
10
8.97543220105206
20
2.93638437789403
30
0
41
1
10
9.01588269415754
20
2.89881238527579
30
0
41
1
10
9.05930973198176
20
2.84877902462185
30
0
41
1
10
9.15225020582724
20
2.72568923988789
30
0
41
1
10
9.2017552549722
20
2.65262176929815
30
0
41
1
10
9.26764628322385
20
2.54691479616113
30
0
41
1
10
9.28105203004336
20
2.52500599326481
30
0
41
1
10
9.30806469776124
20
2.48008137702786
30
0
41
1
10
9.3489335068117
20
2.41096080624487
30
0
41
1
10
9.39084680409729
20
2.336766395637
30
0
41
1
10
9.47608309142566
20
2.18182475099863
30
0
41
1
10
9.53475903214198
20
2.06982472225471
30
0
41
1
10
9.61072388560302
20
1.91907989514345
30
0
41
1
10
9.62605233769943
20
1.8883918111527
30
0
41
1
10
9.65700334361208
20
1.82593308500199
30
0
41
1
10
9.67256004190253
20
1.79429504000331
30
0
41
1
10
9.7193794176834
20
1.69842875814382
30
0
41
1
10
9.75084235064611
20
1.63314743059448
30
0
41
1
10
9.8461697275873
20
1.43339642440893
30
0
41
1
10
9.91096642264657
20
1.29503793003411
30
0
41
1
10
10.010807113905
20
1.08013908901651
30
0
41
1
10
10.0445292353102
20
1.00727440142509
30
0
41
1
10
10.1130156060116
20
0.859100284208211
30
0
41
1
10
10.1474761826037
20
0.784448372176939
30
0
41
1
10
10.2516217405818
20
0.559161004849926
30
0
41
1
10
10.3220936437704
20
0.407093465621102
30
0
41
1
10
10.394357328514
20
0.253505249694683
30
0
0
SPLINE
5
134
100
AcDbEntity
8
1
62
256
6
ByLayer
370
18
48
1
60
0
100
AcDbSpline
70
4
71
1
72
4
73
2
40
0
40
0
40
1
40
1
41
1
10
11.62
20
-0.888086475194484
30
0
41
1
10
10.3943573285141
20
0.253505249694598
30
0
0
SPLINE
5
135
100
AcDbEntity
8
1
62
256
6
ByLayer
370
18
48
1
60
0
100
AcDbSpline
70
4
71
5
72
12
73
6
40
0
40
0
40
0
40
0
40
0
40
0
40
1
40
1
40
1
40
1
40
1
40
1
41
1
10
11.6200000000577
20
1.24346437894295
30
0
41
0.985667927231617
10
11.6200000000577
20
0.894182810134907
30
0
41
0.978630271041075
10
11.6200000000577
20
0.489888223050013
30
0
41
0.978630271041075
10
11.6200000000577
20
0.0463224663340849
30
0
41
0.985667927231618
10
11.6200000000577
20
-0.419123515975125
30
0
41
1
10
11.6200000000577
20
-0.88808647524823
30
0
0
SPLINE
5
136
100
AcDbEntity
8
1
62
256
6
ByLayer
370
18
48
1
60
0
100
AcDbSpline
70
4
71
1
72
4
73
2
40
0
40
0
40
1
40
1
41
1
10
11.62
20
1.24346437897989
30
0
41
1
10
8.97543220105206
20
2.93638437789403
30
0
0
SPLINE
5
137
100
AcDbEntity
8
1
62
256
6
ByLayer
370
18
48
1
60
0
100
AcDbSpline
70
4
71
3
72
58
73
54
40
0
40
0
40
0
40
0
40
0.125000000000022
40
0.125000000000022
40
0.250000000000045
40
0.250000000000045
40
0.312500000000059
40
0.312500000000059
40
0.375000000000074
40
0.375000000000074
40
0.500000000000103
40
0.500000000000103
40
0.562500000000113
40
0.562500000000113
40
0.593750000000115
40
0.593750000000115
40
0.625000000000117
40
0.625000000000117
40
0.68750000000012
40
0.68750000000012
40
0.718750000000122
40
0.718750000000122
40
0.750000000000123
40
0.750000000000123
40
0.76562500000012
40
0.76562500000012
40
0.781250000000116
40
0.781250000000116
40
0.81250000000011
40
0.81250000000011
40
0.828125000000106
40
0.828125000000106
40
0.843750000000103
40
0.843750000000103
40
0.859375000000099
40
0.859375000000099
40
0.867187500000094
40
0.867187500000094
40
0.875000000000089
40
0.875000000000089
40
0.890625000000078
40
0.890625000000078
40
0.906250000000067
40
0.906250000000067
40
0.921875000000056
40
0.921875000000056
40
0.937500000000046
40
0.937500000000046
40
0.968750000000023
40
0.968750000000023
40
0.984375000000011
40
0.984375000000011
40
1
40
1
40
1
40
1
41
1
10
10.8361632823094
20
-1.29628872328911
30
0
41
1
10
10.7647626761364
20
-1.23088064624011
30
0
41
1
10
10.6925790400587
20
-1.16527130181285
30
0
41
1
10
10.5455200855209
20
-1.0349371442434
30
0
41
1
10
10.4706517147296
20
-0.970204477081609
30
0
41
1
10
10.3553130804217
20
-0.874977117794742
30
0
41
1
10
10.316390331994
20
-0.843578445455307
30
0
41
1
10
10.2376563700516
20
-0.7819315096759
30
0
41
1
10
10.1978116678614
20
-0.751653947473955
30
0
41
1
10
10.0765294849806
20
-0.662945902611597
30
0
41
1
10
9.99338473615239
20
-0.606578907556951
30
0
41
1
10
9.86348594499935
20
-0.528876283557111
30
0
41
1
10
9.81931545804153
20
-0.504127737489029
30
0
41
1
10
9.75137613571957
20
-0.46930415163871
30
0
41
1
10
9.72848693467836
20
-0.458104340795615
30
0
41
1
10
9.68239238878795
20
-0.436754463906738
30
0
41
1
10
9.65915584704334
20
-0.426587562072456
30
0
41
1
10
9.588792578534
20
-0.397852172242381
30
0
41
1
10
9.54103047940532
20
-0.380998877855092
30
0
41
1
10
9.46753259845616
20
-0.360774812398034
30
0
41
1
10
9.44272207113627
20
-0.354881926091139
30
0
41
1
10
9.39233244240467
20
-0.345197616925503
30
0
41
1
10
9.36696121220749
20
-0.34144867151025
30
0
41
1
10
9.32876613019795
20
-0.337863267868102
30
0
41
1
10
9.31600265012332
20
-0.337007728347999
30
0
41
1
10
9.29040371170638
20
-0.336065882027242
30
0
41
1
10
9.2775357964656
20
-0.33598035200319
30
0
41
1
10
9.23904602458157
20
-0.33705083499035
30
0
41
1
10
9.21367362947836
20
-0.339499886822694
30
0
41
1
10
9.17617686512071
20
-0.346562339873742
30
0
41
1
10
9.16377231628206
20
-0.349485694015556
30
0
41
1
10
9.1391893562394
20
-0.356695121427549
30
0
41
1
10
9.12695069569401
20
-0.361013428679172
30
0
41
1
10
9.10336184842743
20
-0.371061365001736
30
0
41
1
10
9.09195199437104
20
-0.376800356177
30
0
41
1
10
9.07550455265786
20
-0.386647365731932
30
0
41
1
10
9.07013374294328
20
-0.390136944802521
30
0
41
1
10
9.05963391240024
20
-0.397564350447823
30
0
41
1
10
9.05449722560036
20
-0.40151210523311
30
0
41
1
10
9.03976058385024
20
-0.413836282931726
30
0
41
1
10
9.03073424182435
20
-0.42275652529753
30
0
41
1
10
9.01431422561927
20
-0.442032107187117
30
0
41
1
10
9.0068961207262
20
-0.452429075188746
30
0
41
1
10
8.993871612161
20
-0.47454283674341
30
0
41
1
10
8.98840664799567
20
-0.485999553627295
30
0
41
1
10
8.97934838754389
20
-0.50962098657098
30
0
41
1
10
8.97574583069965
20
-0.521834444860957
30
0
41
1
10
8.96758239547617
20
-0.559125326095113
30
0
41
1
10
8.96573161517034
20
-0.584118801303504
30
0
41
1
10
8.9667446096729
20
-0.621718400933673
30
0
41
1
10
8.96773223629378
20
-0.63430824472303
30
0
41
1
10
8.97080609930572
20
-0.659298768484092
30
0
41
1
10
8.9728873517374
20
-0.671697345302817
30
0
41
1
10
8.97543220104308
20
-0.684011538832976
30
0
0
SPLINE
5
138
100
AcDbEntity
8
1
62
256
6
ByLayer
370
18
48
1
60
0
100
AcDbSpline
70
4
71
3
72
31
73
27
40
0
40
0
40
0
40
0
40
0.125000000000003
40
0.125000000000003
40
0.250000000000006
40
0.250000000000006
40
0.281250000000007
40
0.281250000000007
40
0.312500000000007
40
0.375000000000009
40
0.375000000000009
40
0.500000000000011
40
0.500000000000011
40
0.531250000000012
40
0.531250000000012
40
0.562500000000012
40
0.562500000000012
40
0.625000000000012
40
0.625000000000012
40
0.750000000000009
40
0.750000000000009
40
0.812500000000007
40
0.812500000000007
40
0.875000000000005
40
0.875000000000005
40
1
40
1
40
1
40
1
41
1
10
8.97543220104308
20
-0.684011538832976
30
0
41
1
10
9.01588269414904
20
-0.845303864922357
30
0
41
1
10
9.05930973197377
20
-1.0003684774959
30
0
41
1
10
9.15225020582031
20
-1.29880606306429
30
0
41
1
10
9.20175525496578
20
-1.44217700103499
30
0
41
1
10
9.26764628321811
20
-1.61402548172973
30
0
41
1
10
9.28105203003773
20
-1.64808732951292
30
0
41
1
10
9.30806469775587
20
-1.71494707645576
30
0
41
1
10
9.34893350680676
20
-1.81347444157248
30
0
41
1
10
9.39084680409272
20
-1.90683398313669
30
0
41
1
10
9.47608309142188
20
-2.08684878801185
30
0
41
1
10
9.53475903213868
20
-2.19796227676298
30
0
41
1
10
9.61072388560035
20
-2.32570829598015
30
0
41
1
10
9.62605233769693
20
-2.35069626483056
30
0
41
1
10
9.65700334360986
20
-2.39953431544797
30
0
41
1
10
9.67256004190043
20
-2.42327906481501
30
0
41
1
10
9.71937941768164
20
-2.49234211530205
30
0
41
1
10
9.7508423506446
20
-2.53557239721621
30
0
41
1
10
9.84616972758647
20
-2.65704560307353
30
0
41
1
10
9.91096642264614
20
-2.72711092824699
30
0
41
1
10
10.0108071139051
20
-2.81594257970215
30
0
41
1
10
10.0445292353104
20
-2.84283198888699
30
0
41
1
10
10.1130156060121
20
-2.89106245841882
30
0
41
1
10
10.1474761826043
20
-2.91218742245934
30
0
41
1
10
10.2516217405828
20
-2.96672265289632
30
0
41
1
10
10.3220936437699
20
-2.99136377035958
30
0
41
1
10
10.3943573285136
20
-3.00432356585935
30
0
0
SPLINE
5
139
100
AcDbEntity
8
1
62
256
6
ByLayer
370
18
48
1
60
0
100
AcDbSpline
70
4
71
1
72
4
73
2
40
0
40
0
40
1
40
1
41
1
10
11.62
20
-2.6306468862301
30
0
41
1
10
10.3943573285172
20
-3.00432356585821
30
0
0
SPLINE
5
13A
100
AcDbEntity
8
1
62
256
6
ByLayer
370
18
48
1
60
0
100
AcDbSpline
70
4
71
5
72
12
73
6
40
0
40
0
40
0
40
0
40
0
40
0
40
1
40
1
40
1
40
1
40
1
40
1
41
0.987068359381616
10
11.6200000000578
20
-2.17718679755709
30
0
41
0.982401840281041
10
11.6200000000578
20
-2.33006282688951
30
0
41
0.98052144045283
10
11.6200000000577
20
-2.45269121840719
30
0
41
0.981394393336024
10
11.6200000000576
20
-2.54315020555092
30
0
41
0.985026864919327
10
11.6200000000577
20
-2.60006150868265
30
0
41
0.991463953741105
10
11.6200000000577
20
-2.62261079755709
30
0
0
SPLINE
5
13B
100
AcDbEntity
8
1
62
256
6
ByLayer
370
18
48
1
60
0
100
AcDbSpline
70
4
71
1
72
4
73
2
40
0
40
0
40
1
40
1
41
1
10
11.1988116119146
20
-1.66272169376216
30
0
41
1
10
8.97543220104308
20
-0.684011538832976
30
0
0
SPLINE
5
13C
100
AcDbEntity
8
1
62
256
6
ByLayer
370
18
48
1
60
0
100
AcDbSpline
70
4
71
3
72
13
73
9
40
0
40
0
40
0
40
0
40
0.108212548618673
40
0.289768221998329
40
0.471323895377984
40
0.652879568757639
40
0.834435242137294
40
1
40
1
40
1
40
1
41
1
10
19.1590593410261
20
-1.01598748881403
30
0
41
1
10
18.9618728940174
20
-0.878847993198008
30
0
41
1
10
18.4338531136754
20
-0.492132040979556
30
0
41
1
10
17.575
20
0.180590539431193
30
0
41
1
10
16.5825
20
0.944943024911282
30
0
41
1
10
15.59
20
1.58816862261648
30
0
41
1
10
14.626638873961
20
2.03501573919195
30
0
41
1
10
13.9941110812555
20
2.17727015649297
30
0
41
1
10
13.6924166218832
20
2.20800978062627
30
0
0
SPLINE
5
13D
100
AcDbEntity
8
1
62
256
6
ByLayer
370
18
48
1
60
0
100
AcDbSpline
70
4
71
3
72
14
73
10
40
0
40
0
40
0
40
0
40
0.111999913452383
40
0.111999913452383
40
0.333999935089302
40
0.333999935089302
40
0.55599995672622
40
0.55599995672622
40
1
40
1
40
1
40
1
41
1
10
19.5101937847535
20
-1.06779785548068
30
0
41
1
10
19.4973373689763
20
-1.06503845479327
30
0
41
1
10
19.4844118986271
20
-1.06240613976254
30
0
41
1
10
19.4456620090147
20
-1.05490497337175
30
0
41
1
10
19.419570829209
20
-1.05036465685402
30
0
41
1
10
19.3674542207388
20
-1.042074338774
30
0
41
1
10
19.3413818312326
20
-1.0383120981588
30
0
41
1
10
19.2631747496378
20
-1.02780357096592
30
0
41
1
10
19.2110526424022
20
-1.02182286634965
30
0
41
1
10
19.159059341028
20
-1.01598748881528
30
0
0
SPLINE
5
13E
100
AcDbEntity
8
1
62
256
6
ByLayer
370
18
48
1
60
0
100
AcDbSpline
70
4
71
3
72
8
73
4
40
0
40
0
40
0
40
0
40
1
40
1
40
1
40
1
41
1
10
27.4736761078314
20
0.155892345735737
30
0
41
1
10
27.4743279529897
20
0.159611747758476
30
0
41
1
10
27.4749693115817
20
0.163415643793712
30
0
41
1
10
27.4756496654365
20
0.16690534105669
30
0
0
SPLINE
5
13F
100
AcDbEntity
8
1
62
256
6
ByLayer
370
18
48
1
60
0
100
AcDbSpline
70
4
71
3
72
10
73
6
40
0
40
0
40
0
40
0
40
0.5
40
0.5
40
1
40
1
40
1
40
1
41
1
10
27.0498983086529
20
0.50335247909328
30
0
41
1
10
27.070132985801
20
0.483245918297655
30
0
41
1
10
27.0893076945671
20
0.46382335288871
30
0
41
1
10
27.1252053679291
20
0.426061483521124
30
0
41
1
10
27.1419306417337
20
0.407724713006644
30
0
41
1
10
27.157166053052
20
0.38976324552047
30
0
0
SPLINE
5
140
100
AcDbEntity
8
1
62
256
6
ByLayer
370
18
48
1
60
0
100
AcDbSpline
70
4
71
3
72
14
73
10
40
0
40
0
40
0
40
0
40
0.499999999999974
40
0.499999999999974
40
0.624999999999981
40
0.624999999999981
40
0.749999999999989
40
0.749999999999989
40
1
40
1
40
1
40
1
41
1
10
27.1571660530615
20
0.389763245519902
30
0
41
1
10
27.1872827039429
20
0.359020503950603
30
0
41
1
10
27.2145277570461
20
0.330425566983649
30
0
41
1
10
27.2441930695863
20
0.296847486520477
30
0
41
1
10
27.249906863956
20
0.290237609794929
30
0
41
1
10
27.2608736716332
20
0.277208578650402
30
0
41
1
10
27.266128854471
20
0.270785173183015
30
0
41
1
10
27.2810115840058
20
0.251967376530246
30
0
41
1
10
27.2898224896422
20
0.239951318574555
30
0
41
1
10
27.297520376718
20
0.228321604440651
30
0
0
SPLINE
5
141
100
AcDbEntity
8
1
62
256
6
ByLayer
370
18
48
1
60
0
100
AcDbSpline
70
4
71
3
72
18
73
14
40
0
40
0
40
0
40
0
40
0.124999999999999
40
0.124999999999999
40
0.249999999999998
40
0.249999999999998
40
0.374999999999998
40
0.374999999999998
40
0.499999999999997
40
0.499999999999997
40
0.749999999999998
40
0.749999999999998
40
1
40
1
40
1
40
1
41
1
10
27.4576183604784
20
0.155944669070038
30
0
41
1
10
27.4553818854747
20
0.158180902229105
30
0
41
1
10
27.4524573888329
20
0.160550063718347
30
0
41
1
10
27.4450293518743
20
0.165593463786479
30
0
41
1
10
27.4405516897401
20
0.168262702599463
30
0
41
1
10
27.4301573557551
20
0.173879202245729
30
0
41
1
10
27.4241965251075
20
0.176839740104441
30
0
41
1
10
27.4113013250955
20
0.182872111110669
30
0
41
1
10
27.4043475153537
20
0.185958458347954
30
0
41
1
10
27.3824249062955
20
0.195364581648619
30
0
41
1
10
27.3664737943292
20
0.201820508280548
30
0
41
1
10
27.3330409447268
20
0.214944509381979
30
0
41
1
10
27.3154932767922
20
0.221626203769034
30
0
41
1
10
27.2975203767091
20
0.228321604434171
30
0
0
SPLINE
5
142
100
AcDbEntity
8
1
62
256
6
ByLayer
370
18
48
1
60
0
100
AcDbSpline
70
4
71
4
72
10
73
5
40
0
40
0
40
0
40
0
40
0
40
1
40
1
40
1
40
1
40
1
41
1.00053063825251
10
27.4736761078313
20
0.155892345735689
30
0
41
1.00017618281084
10
27.469709806177
20
0.156086800958459
30
0
41
0.999784342545811
10
27.4657063583211
20
0.156162688244984
30
0
41
0.999373725561304
10
27.4616733281845
20
0.156116150338948
30
0
41
0.998959174000782
10
27.4576183604785
20
0.155944669069993
30
0
0
SPLINE
5
143
100
AcDbEntity
8
1
62
256
6
ByLayer
370
18
48
1
60
0
100
AcDbSpline
70
4
71
3
72
12
73
8
40
0
40
0
40
0
40
0
40
0.500000000000012
40
0.500000000000012
40
0.750000000000005
40
0.750000000000005
40
1
40
1
40
1
40
1
41
1
10
11.0366121135524
20
-0.669908888641913
30
0
41
1
10
11.0148359670146
20
-0.634511312800043
30
0
41
1
10
10.9983925261929
20
-0.597115792371255
30
0
41
1
10
10.9814907661727
20
-0.537956667319264
30
0
41
1
10
10.9771341868928
20
-0.51759970085385
30
0
41
1
10
10.9709882692383
20
-0.476949635571259
30
0
41
1
10
10.9691545702161
20
-0.45657099107251
30
0
41
1
10
10.968357019085
20
-0.436141260967986
30
0
0
SPLINE
5
144
100
AcDbEntity
8
1
62
256
6
ByLayer
370
18
48
1
60
0
100
AcDbSpline
70
4
71
3
72
8
73
4
40
0
40
0
40
0
40
0
40
1
40
1
40
1
40
1
41
1
10
10.8361632823094
20
-0.289171808002948
30
0
41
1
10
10.8806057766397
20
-0.337830402474623
30
0
41
1
10
10.9246727454253
20
-0.386821078972645
30
0
41
1
10
10.9683570190845
20
-0.436141260967986
30
0
0
SPLINE
5
145
100
AcDbEntity
8
1
62
256
6
ByLayer
370
18
48
1
60
0
100
AcDbSpline
70
4
71
3
72
8
73
4
40
0
40
0
40
0
40
0
40
1
40
1
40
1
40
1
41
1
10
11.0137690882186
20
-1.46467320579018
30
0
41
1
10
10.9555097441621
20
-1.40747286026203
30
0
41
1
10
10.8962561240301
20
-1.35133807695757
30
0
41
1
10
10.8361632823094
20
-1.29628872328911
30
0
0
SPLINE
5
146
100
AcDbEntity
8
1
62
256
6
ByLayer
370
18
48
1
60
0
100
AcDbSpline
70
4
71
3
72
10
73
6
40
0
40
0
40
0
40
0
40
0.5
40
0.5
40
1
40
1
40
1
40
1
41
1
10
11.62
20
-2.11346067049888
30
0
41
1
10
11.5237696392
20
-2.00074270137441
30
0
41
1
10
11.4249953275139
20
-1.89040168474526
30
0
41
1
10
11.2227994071423
20
-1.67413797702207
30
0
41
1
10
11.1193665656945
20
-1.56822258113598
30
0
41
1
10
11.0137690882186
20
-1.46467320579018
30
0
0
SPLINE
5
147
100
AcDbEntity
8
1
62
256
6
ByLayer
370
18
48
1
60
0
100
AcDbSpline
70
4
71
3
72
8
73
4
40
0
40
0
40
0
40
0
40
1
40
1
40
1
40
1
41
1
10
27.479243719071
20
0.196144725376001
30
0
41
1
10
27.4515544825995
20
0.410780116132514
30
0
41
1
10
27.4238635035028
20
0.625377031540296
30
0
41
1
10
27.396171067441
20
0.839941778670863
30
0
0
SPLINE
5
148
100
AcDbEntity
8
1
62
256
6
ByLayer
370
18
48
1
60
0
100
AcDbSpline
70
4
71
3
72
16
73
12
40
0
40
0
40
0
40
0
40
0.125
40
0.125
40
0.25
40
0.25
40
0.499999999999999
40
0.499999999999999
40
0.75
40
0.75
40
1
40
1
40
1
40
1
41
1
10
27.396171067441
20
0.839941778670863
30
0
41
1
10
27.3923659479705
20
0.855236505073094
30
0
41
1
10
27.3883758886519
20
0.870990459554918
30
0
41
1
10
27.3801044436612
20
0.903221767198005
30
0
41
1
10
27.3758133045297
20
0.919734646796428
30
0
41
1
10
27.3627625604167
20
0.969478114612798
30
0
41
1
10
27.3537717871562
20
1.00313490947823
30
0
41
1
10
27.3354063073242
20
1.07110252405329
30
0
41
1
10
27.3260287915246
20
1.10541812924211
30
0
41
1
10
27.3069872349973
20
1.17453743069228
30
0
41
1
10
27.2973222151905
20
1.20934279479894
30
0
41
1
10
27.2875438558286
20
1.24434123120045
30
0
0
SPLINE
5
149
100
AcDbEntity
8
1
62
256
6
ByLayer
370
18
48
1
60
0
100
AcDbSpline
70
4
71
3
72
14
73
10
40
0
40
0
40
0
40
0
40
0.25
40
0.25
40
0.5
40
0.5
40
0.75
40
0.75
40
1
40
1
40
1
40
1
41
1
10
27.2875438558297
20
1.24434123119923
30
0
41
1
10
27.2859459457217
20
1.24228656460218
30
0
41
1
10
27.2841013658509
20
1.24092271967891
30
0
41
1
10
27.2798531706063
20
1.23966903692172
30
0
41
1
10
27.2775409131361
20
1.23980586242732
30
0
41
1
10
27.2725605326118
20
1.24143064606287
30
0
41
1
10
27.2698744990962
20
1.24294238854659
30
0
41
1
10
27.2643768347591
20
1.24703236548893
30
0
41
1
10
27.2615412031537
20
1.24961335884541
30
0
41
1
10
27.2586266450719
20
1.25264592661787
30
0
0
SPLINE
5
14A
100
AcDbEntity
8
1
62
256
6
ByLayer
370
13
48
1
60
0
100
AcDbSpline
70
4
71
3
72
24
73
20
40
0
40
0
40
0
40
0
40
0.0817835201624574
40
0.174266518425665
40
0.265946126221722
40
0.312084632648525
40
0.389976749116581
40
0.42113094312538
40
0.451638641860914
40
0.466514792675318
40
0.495209263224063
40
0.538758511445757
40
0.600342674103675
40
0.678180665155927
40
0.770146017784472
40
0.816027514552306
40
0.908531319623011
40
0.970731652686995
40
1
40
1
40
1
40
1
41
1
10
27.4756496739279
20
0.166905339145956
30
0
41
1
10
27.4634972275685
20
0.174624327289308
30
0
41
1
10
27.4364038116893
20
0.19295860774514
30
0
41
1
10
27.3874666528962
20
0.229339986746254
30
0
41
1
10
27.3387392896147
20
0.268306378278169
30
0
41
1
10
27.2898611897784
20
0.309037159236141
30
0
41
1
10
27.2530721988514
20
0.340659688808785
30
0
41
1
10
27.2186938239527
20
0.370904026012568
30
0
41
1
10
27.1986891547123
20
0.388723396513427
30
0
41
1
10
27.1790032245624
20
0.406411027602331
30
0
41
1
10
27.1535209749459
20
0.429502583010844
30
0
41
1
10
27.1148030017239
20
0.465091419799904
30
0
41
1
10
27.0644701859623
20
0.512167946124265
30
0
41
1
10
26.9986126314822
20
0.57501981397516
30
0
41
1
10
26.9341011328205
20
0.638067119761075
30
0
41
1
10
26.8644111374433
20
0.707430776212306
30
0
41
1
10
26.8035227356425
20
0.769110688837714
30
0
41
1
10
26.7488654525057
20
0.825523336217856
30
0
41
1
10
26.7209695818486
20
0.854628270679711
30
0
41
1
10
26.711894099641
20
0.864132834534928
30
0
0
SPLINE
5
14B
100
AcDbEntity
8
1
62
256
6
ByLayer
370
18
48
1
60
0
100
AcDbSpline
70
4
71
3
72
8
73
4
40
0
40
0
40
0
40
0
40
1
40
1
40
1
40
1
41
1
10
27.4756496701334
20
0.166905338320703
30
0
41
1
10
27.4771228472562
20
0.174461613515945
30
0
41
1
10
27.4783081031997
20
0.184309621817675
30
0
41
1
10
27.479243719071
20
0.196144725375916
30
0
0
SPLINE
5
14C
100
AcDbEntity
8
1
62
256
6
ByLayer
370
18
48
1
60
0
100
AcDbSpline
70
4
71
3
72
26
73
22
40
0
40
0
40
0
40
0
40
0.124999999999969
40
0.124999999999969
40
0.187499999999971
40
0.187499999999971
40
0.249999999999974
40
0.249999999999974
40
0.374999999999979
40
0.374999999999979
40
0.499999999999983
40
0.499999999999983
40
0.624999999999988
40
0.624999999999988
40
0.687499999999991
40
0.687499999999991
40
0.749999999999993
40
0.749999999999993
40
0.874999999999996
40
0.874999999999996
40
1
40
1
40
1
40
1
41
1
10
27.0387461816386
20
0.613230846196927
30
0
41
1
10
27.0680419130137
20
0.591815838448042
30
0
41
1
10
27.0960327330383
20
0.570215892599322
30
0
41
1
10
27.1364831120104
20
0.537770904421166
30
0
41
1
10
27.1497058051888
20
0.526945340808965
30
0
41
1
10
27.1756609823995
20
0.505291606142634
30
0
41
1
10
27.1884205726892
20
0.494442369169718
30
0
41
1
10
27.2253805952355
20
0.46249748703238
30
0
41
1
10
27.248484565968
20
0.441791873605467
30
0
41
1
10
27.2920329456941
20
0.401749768919615
30
0
41
1
10
27.3125183684357
20
0.382328817039365
30
0
41
1
10
27.3501572447079
20
0.3454988311276
30
0
41
1
10
27.3674555184629
20
0.327969217772221
30
0
41
1
10
27.3908802857632
20
0.303401076614961
30
0
41
1
10
27.3982818402415
20
0.295487017218704
30
0
41
1
10
27.4122938401056
20
0.280204875037242
30
0
41
1
10
27.4189138363499
20
0.272824426708837
30
0
41
1
10
27.4374323169581
20
0.251694279075053
30
0
41
1
10
27.4480591289588
20
0.238882486787588
30
0
41
1
10
27.4660791904147
20
0.21568679043736
30
0
41
1
10
27.4734699397039
20
0.205316448418245
30
0
41
1
10
27.4792437190712
20
0.196144725375831
30
0
0
SPLINE
5
14D
100
AcDbEntity
8
1
62
256
6
ByLayer
370
18
48
1
60
0
100
AcDbSpline
70
4
71
3
72
8
73
4
40
0
40
0
40
0
40
0
40
1
40
1
40
1
40
1
41
1
10
26.976012363185
20
0.660633905907048
30
0
41
1
10
26.9966774524549
20
0.644490119370403
30
0
41
1
10
27.0175923626032
20
0.628694163796268
30
0
41
1
10
27.038746181644
20
0.61323084619292
30
0
0
SPLINE
5
14E
100
AcDbEntity
8
1
62
256
6
ByLayer
370
18
48
1
60
0
100
AcDbSpline
70
4
71
3
72
16
73
12
40
0
40
0
40
0
40
0
40
0.250000000000014
40
0.250000000000014
40
0.500000000000027
40
0.500000000000027
40
0.625000000000008
40
0.625000000000008
40
0.749999999999988
40
0.749999999999988
40
1
40
1
40
1
40
1
41
1
10
26.7123479526229
20
0.863581637359857
30
0
41
1
10
26.7415159067967
20
0.831390629228906
30
0
41
1
10
26.77026837697
20
0.799642625317716
30
0
41
1
10
26.827274506444
20
0.737119661643447
30
0
41
1
10
26.8555341843304
20
0.706338182624165
30
0
41
1
10
26.8977204731511
20
0.660978615686986
30
0
41
1
10
26.9117477307208
20
0.645994855969207
30
0
41
1
10
26.9397562822785
20
0.616317131264225
30
0
41
1
10
26.9537591643181
20
0.601601127144761
30
0
41
1
10
26.9954217348028
20
0.558237299246144
30
0
41
1
10
27.0228075621119
20
0.530295550232779
30
0
41
1
10
27.0498983086377
20
0.503352479110305
30
0
0
SPLINE
5
14F
100
AcDbEntity
8
1
62
256
6
ByLayer
370
18
48
1
60
0
100
AcDbSpline
70
4
71
3
72
13
73
9
40
0
40
0
40
0
40
0
40
0.268263855048551
40
0.441729337834533
40
0.615194820620516
40
0.788660303406498
40
0.96212578619248
40
1
40
1
40
1
40
1
41
1
10
27.0498983086403
20
0.503352479106127
30
0
41
1
10
26.5382655390936
20
1.02451795097585
30
0
41
1
10
25.6957994362134
20
1.84323528598611
30
0
41
1
10
24.5225
20
2.62087092042447
30
0
41
1
10
23.53
20
2.97606324608057
30
0
41
1
10
22.5375
20
2.96443176391224
30
0
41
1
10
21.8035996404967
20
2.70263001001527
30
0
41
1
10
21.4005326143267
20
2.47937701033982
30
0
41
1
10
21.3282989214901
20
2.43698546402956
30
0
0
SPLINE
5
150
100
AcDbEntity
8
1
62
256
6
ByLayer
370
18
48
1
60
0
100
AcDbSpline
70
4
71
3
72
8
73
4
40
0
40
0
40
0
40
0
40
1
40
1
40
1
40
1
41
1
10
27.2586266450723
20
1.25264592661762
30
0
41
1
10
27.2345251963326
20
1.27772321254807
30
0
41
1
10
27.2073594851259
20
1.30651801341108
30
0
41
1
10
27.1771938541852
20
1.33901849414684
30
0
0
SPLINE
5
151
100
AcDbEntity
8
1
62
256
6
ByLayer
370
13
48
1
60
0
100
AcDbSpline
70
4
71
3
72
11
73
7
40
0
40
0
40
0
40
0
40
0.175114130487429
40
0.381335597865572
40
0.587557065243714
40
1
40
1
40
1
40
1
41
1
10
16.4327870130033
20
-2.54978994141956
30
0
41
1
10
16.1518580086688
20
-2.67800508390925
30
0
41
1
10
15.5400956710011
20
-2.87675916443572
30
0
41
1
10
14.5975
20
-2.88181825270743
30
0
41
1
10
13.2741666666667
20
-2.42765044584149
30
0
41
1
10
12.2816666666667
20
-1.63699444574743
30
0
41
1
10
11.62
20
-1.0087265712622
30
0
0
SPLINE
5
152
100
AcDbEntity
8
1
62
256
6
ByLayer
370
18
48
1
60
0
100
AcDbSpline
70
4
71
3
72
97
73
93
40
0
40
0
40
0
40
0
40
0.0232629575838026
40
0.0711531281802755
40
0.123197961605286
40
0.179426962625004
40
0.23984498905702
40
0.249059923513
40
0.258268527698851
40
0.267470643916067
40
0.276666117558266
40
0.285854798870104
40
0.295036544689364
40
0.304211220172768
40
0.313378700505885
40
0.322538872597523
40
0.331691636758898
40
0.34083691689784
40
0.349974772485527
40
0.359105349172188
40
0.368228781497451
40
0.377345191892782
40
0.386454692101659
40
0.39555738458736
40
0.404653363928054
40
0.413742718198964
40
0.422825530341396
40
0.431901879518444
40
0.440971842457271
40
0.450035494777828
40
0.459092912307893
40
0.46814417238438
40
0.477189355140753
40
0.486228544780524
40
0.495261830836645
40
0.504289309416713
40
0.513311084433808
40
0.522327268822788
40
0.531337985741808
40
0.540343367834276
40
0.549343474377343
40
0.558338245997551
40
0.567327602932238
40
0.576311454538448
40
0.58528970093726
40
0.594262234640087
40
0.603228942157197
40
0.612189705588802
40
0.621144404199035
40
0.63009291597319
40
0.639035119158652
40
0.647970893789822
40
0.656900123197527
40
0.665822695503201
40
0.674738505098224
40
0.683647454108749
40
0.692549453846269
40
0.701444426244172
40
0.710332305280462
40
0.71921303838676
40
0.728086587843635
40
0.73695293216223
40
0.7458120833818
40
0.754664171643227
40
0.763509358979365
40
0.772347789918313
40
0.78117959260386
40
0.790004880080083
40
0.798823751565188
40
0.80763629371428
40
0.816442581870649
40
0.825242681305314
40
0.834036648444644
40
0.842824532085824
40
0.851606374600077
40
0.860382213123562
40
0.869152080735838
40
0.877916007625937
40
0.886674022245965
40
0.895426152452261
40
0.904172426634124
40
0.912912874830108
40
0.921647529831914
40
0.930376428275848
40
0.939099611721872
40
0.947817115393627
40
0.956528907616148
40
0.965234928462043
40
0.973935114386549
40
0.982629399528947
40
0.991317716974018
40
1
40
1
40
1
40
1
41
1
10
21.149924203461
20
2.52821193054228
30
0
41
1
10
21.1930599906831
20
2.5572174044882
30
0
41
1
10
21.3250071437408
20
2.64330936495787
30
0
41
1
10
21.5535073567114
20
2.77799727964859
30
0
41
1
10
21.8431792034108
20
2.92147757046715
30
0
41
1
10
22.1559260014707
20
3.04229718380583
30
0
41
1
10
22.3892047894637
20
3.10429965820273
30
0
41
1
10
22.5352503496316
20
3.1324089599803
30
0
41
1
10
22.586425899562
20
3.14126210297113
30
0
41
1
10
22.6375656246312
20
3.14911050033154
30
0
41
1
10
22.6886699657021
20
3.15595297424721
30
0
41
1
10
22.7397385426735
20
3.16178820215563
30
0
41
1
10
22.7907711960546
20
3.16661491603631
30
0
41
1
10
22.8417677089071
20
3.17043184345718
30
0
41
1
10
22.8927278785549
20
3.1732377441389
30
0
41
1
10
22.9436515075207
20
3.17503132255379
30
0
41
1
10
22.9945383840086
20
3.17581154074003
30
0
41
1
10
23.0453886523657
20
3.17557645383476
30
0
41
1
10
23.0962021764476
20
3.17432897772213
30
0
41
1
10
23.1469788759324
20
3.17207513454838
30
0
41
1
10
23.1977189582066
20
3.16882021222574
30
0
41
1
10
23.2484226085586
20
3.16456967419828
30
0
41
1
10
23.2990900184072
20
3.15932891627756
30
0
41
1
10
23.3497213765413
20
3.15310333185423
30
0
41
1
10
23.4003168714642
20
3.14589829454758
30
0
41
1
10
23.4508766907663
20
3.13771916295193
30
0
41
1
10
23.5014010212937
20
3.12857127946862
30
0
41
1
10
23.5518900491038
20
3.11845997072032
30
0
41
1
10
23.6023439594775
20
3.10739054754231
30
0
41
1
10
23.6527629369174
20
3.09536830508441
30
0
41
1
10
23.7031471651495
20
3.08239852288989
30
0
41
1
10
23.7534968271214
20
3.06848646495536
30
0
41
1
10
23.8038121050134
20
3.05363737988767
30
0
41
1
10
23.8540931801992
20
3.0378565006898
30
0
41
1
10
23.9043402333972
20
3.02114904593199
30
0
41
1
10
23.9545534441075
20
3.00352021575546
30
0
41
1
10
24.0047329927141
20
2.98497520714233
30
0
41
1
10
24.0548790526469
20
2.96551915734995
30
0
41
1
10
24.1049918160391
20
2.94515735664004
30
0
41
1
10
24.1550712254383
20
2.92389452885399
30
0
41
1
10
24.2051171819116
20
2.90173823038759
30
0
41
1
10
24.2551298728953
20
2.87870051180559
30
0
41
1
10
24.3051091688788
20
2.85479265485384
30
0
41
1
10
24.3550549555341
20
2.83002612437863
30
0
41
1
10
24.4049671111654
20
2.80441228553576
30
0
41
1
10
24.4548455166381
20
2.77796247787407
30
0
41
1
10
24.5046900527188
20
2.75068799560438
30
0
41
1
10
24.5545006007864
20
2.72260009298211
30
0
41
1
10
24.6042770426407
20
2.69370998296642
30
0
41
1
10
24.6540192605528
20
2.66402883767862
30
0
41
1
10
24.7037271372507
20
2.63356778837854
30
0
41
1
10
24.7534005559224
20
2.60233792556934
30
0
41
1
10
24.8030394002142
20
2.5703502990666
30
0
41
1
10
24.8526435542295
20
2.53761591808191
30
0
41
1
10
24.9022129025306
20
2.50414575128102
30
0
41
1
10
24.951747330128
20
2.46995072692832
30
0
41
1
10
25.001246722512
20
2.43504173271083
30
0
41
1
10
25.0507109655304
20
2.39942961675601
30
0
41
1
10
25.1001399458341
20
2.36312518419899
30
0
41
1
10
25.1495335492072
20
2.32613921034041
30
0
41
1
10
25.19889166678
20
2.28848239196188
30
0
41
1
10
25.2482142013926
20
2.25016550621467
30
0
41
1
10
25.297501337849
20
2.21119858557489
30
0
41
1
10
25.3467528219808
20
2.1715962673768
30
0
41
1
10
25.3959686226219
20
2.13137381934266
30
0
41
1
10
25.445148835897
20
2.09054612851401
30
0
41
1
10
25.494293549055
20
2.04912808964778
30
0
41
1
10
25.5434028513378
20
2.00713452166241
30
0
41
1
10
25.5924768309855
20
1.96458019024607
30
0
41
1
10
25.6415155760391
20
1.92147980198143
30
0
41
1
10
25.6905191741264
20
1.87784800609344
30
0
41
1
10
25.7394877125215
20
1.83369939415562
30
0
41
1
10
25.788421278131
20
1.78904850034252
30
0
41
1
10
25.8373199574997
20
1.74390980153504
30
0
41
1
10
25.8861838368123
20
1.69829771746467
30
0
41
1
10
25.9350130018952
20
1.65222661084621
30
0
41
1
10
25.9838075382194
20
1.60571078751428
30
0
41
1
10
26.032567530902
20
1.55876449655275
30
0
41
1
10
26.0812930647135
20
1.51140193044708
30
0
41
1
10
26.1299842240612
20
1.46363722514818
30
0
41
1
10
26.1786410930638
20
1.41548446046463
30
0
41
1
10
26.2272637552857
20
1.36695765922883
30
0
41
1
10
26.27585229474
20
1.31807079103234
30
0
41
1
10
26.3244067921596
20
1.26883775892455
30
0
41
1
10
26.3729273160581
20
1.21927247297418
30
0
41
1
10
26.4214137337746
20
1.1693888056204
30
0
41
1
10
26.469866172655
20
1.11920242838232
30
0
41
1
10
26.5182846616871
20
1.0687287166742
30
0
41
1
10
26.5666691725896
20
1.01798502393939
30
0
41
1
10
26.615019675989
20
0.966981043314291
30
0
41
1
10
26.6633361607632
20
0.915754759385607
30
0
41
1
10
26.6955356828917
20
0.881398474742895
30
0
41
1
10
26.7116298510171
20
0.864226299982107
30
0
0
SPLINE
5
153
100
AcDbEntity
8
1
62
256
6
ByLayer
370
18
48
1
60
0
100
AcDbSpline
70
4
71
3
72
8
73
4
40
0
40
0
40
0
40
0
40
1
40
1
40
1
40
1
41
1
10
26.7127891385406
20
0.863195592814094
30
0
41
1
10
26.7958203745234
20
0.790552392859809
30
0
41
1
10
26.883771045055
20
0.723207960045585
30
0
41
1
10
26.9760123631851
20
0.660633905906792
30
0
0
SPLINE
5
154
100
AcDbEntity
8
1
62
256
6
ByLayer
370
18
48
1
60
0
100
AcDbSpline
70
4
71
3
72
8
73
4
40
0
40
0
40
0
40
0
40
1
40
1
40
1
40
1
41
1
10
26.976012363186
20
0.660633905906565
30
0
41
1
10
26.9893010768578
20
0.6883315568775
30
0
41
1
10
27.0050966981353
20
0.71445488937465
30
0
41
1
10
27.022831299682
20
0.739360557346885
30
0
0
SPLINE
5
155
100
AcDbEntity
8
1
62
256
6
ByLayer
370
18
48
1
60
0
100
AcDbSpline
70
4
71
3
72
22
73
18
40
0
40
0
40
0
40
0
40
0.0312500000000097
40
0.0312500000000097
40
0.0625000000000194
40
0.0625000000000194
40
0.125000000000017
40
0.125000000000017
40
0.250000000000011
40
0.250000000000011
40
0.375000000000006
40
0.375000000000006
40
0.500000000000001
40
0.500000000000001
40
0.75
40
0.75
40
1
40
1
40
1
40
1
41
1
10
27.0228312996847
20
0.739360557344469
30
0
41
1
10
27.0268749311151
20
0.745039249450656
30
0
41
1
10
27.0303363965875
20
0.750955395967793
30
0
41
1
10
27.0367083273481
20
0.763000269841484
30
0
41
1
10
27.0396025505526
20
0.769135925350668
30
0
41
1
10
27.0477639639113
20
0.787730808043278
30
0
41
1
10
27.0525211711784
20
0.800373101265876
30
0
41
1
10
27.0658255185336
20
0.83857120044587
30
0
41
1
10
27.0734097766577
20
0.8644135409873
30
0
41
1
10
27.087546328554
20
0.915879508873417
30
0
41
1
10
27.0940551251965
20
0.941570432608074
30
0
41
1
10
27.106454486295
20
0.992722998572134
30
0
41
1
10
27.1123339256083
20
1.01818786637963
30
0
41
1
10
27.1293130601789
20
1.09415932483347
30
0
41
1
10
27.1397699482151
20
1.14426041399526
30
0
41
1
10
27.1594182743279
20
1.2428141915706
30
0
41
1
10
27.1686020527581
20
1.29131501173492
30
0
41
1
10
27.1771938541852
20
1.33901849414684
30
0
0
SPLINE
5
156
100
AcDbEntity
8
1
62
256
6
ByLayer
370
18
48
1
60
0
100
AcDbSpline
70
4
71
3
72
29
73
25
40
0
40
0
40
0
40
0
40
0.177446549508842
40
0.177446549508842
40
0.266169824263264
40
0.266169824263264
40
0.354893099017685
40
0.354893099017685
40
0.399254736394897
40
0.399254736394897
40
0.421435555083503
40
0.421435555083503
40
0.443616373772109
40
0.532339648526526
40
0.532339648526526
40
0.709786198035363
40
0.709786198035363
40
0.887232747544201
40
0.887232747544201
40
0.931594384921409
40
0.931594384921409
40
0.975956022298618
40
0.975956022298618
40
1
40
1
40
1
40
1
41
1
10
27.1771938541852
20
1.33901849414684
30
0
41
1
10
27.0152831640361
20
1.49116293138164
30
0
41
1
10
26.8539034413247
20
1.6362830916205
30
0
41
1
10
26.6117998572497
20
1.84180236206171
30
0
41
1
10
26.5310839006467
20
1.90826506437242
30
0
41
1
10
26.3693562532485
20
2.03663239071488
30
0
41
1
10
26.2883478471282
20
2.09850796892951
30
0
41
1
10
26.1663129348052
20
2.18763406962125
30
0
41
1
10
26.1255469760044
20
2.21673074003508
30
0
41
1
10
26.0642278835024
20
2.25943501557941
30
0
41
1
10
26.04376229779
20
2.2735108159103
30
0
41
1
10
26.0029252668305
20
2.30124012780371
30
0
41
1
10
25.9009702719049
20
2.36957627556677
30
0
41
1
10
25.7996059577854
20
2.43301824523724
30
0
41
1
10
25.5568702317638
20
2.57609768350307
30
0
41
1
10
25.3957221913996
20
2.65928645426484
30
0
41
1
10
25.0725970833586
20
2.80156112942453
30
0
41
1
10
24.910689842989
20
2.86065664071344
30
0
41
1
10
24.7066062655294
20
2.91761592101878
30
0
41
1
10
24.6656832185951
20
2.92816090065375
30
0
41
1
10
24.5837013295273
20
2.94745843024876
30
0
41
1
10
24.5428364939302
20
2.95616596216291
30
0
41
1
10
24.4799908825095
20
2.96812679052655
30
0
41
1
10
24.4579334409856
20
2.97205178845516
30
0
41
1
10
24.4359055210423
20
2.97569536579704
30
0
0
SPLINE
5
157
100
AcDbEntity
8
1
62
256
6
ByLayer
370
18
48
1
60
0
100
AcDbSpline
70
4
71
3
72
46
73
42
40
0
40
0
40
0
40
0
40
0.0107609931934034
40
0.0107609931934034
40
0.0348887738472202
40
0.0348887738472202
40
0.0831443351548555
40
0.0831443351548555
40
0.131399896462491
40
0.131399896462491
40
0.227911019077764
40
0.227911019077764
40
0.2761665803854
40
0.2761665803854
40
0.300294361039218
40
0.300294361039218
40
0.324422141693037
40
0.324422141693037
40
0.420933264308314
40
0.420933264308314
40
0.517444386923591
40
0.517444386923591
40
0.54157216757741
40
0.54157216757741
40
0.565699948231229
40
0.565699948231229
40
0.613955509538869
40
0.613955509538869
40
0.710466632154152
40
0.710466632154152
40
0.758722193461793
40
0.758722193461793
40
0.782849974115613
40
0.782849974115613
40
0.806977754769433
40
0.806977754769433
40
0.903488877384716
40
0.903488877384716
40
0.951744438692358
40
0.951744438692358
40
1
40
1
40
1
40
1
41
1
10
16.6602965929661
20
-2.52987361918358
30
0
41
1
10
16.6420811462484
20
-2.54029807329061
30
0
41
1
10
16.6238489839837
20
-2.55057515304344
30
0
41
1
10
16.5646917672712
20
-2.58340006396821
30
0
41
1
10
16.5239044874784
20
-2.60522544713936
30
0
41
1
10
16.4018595259891
20
-2.66804944710398
30
0
41
1
10
16.3209223299253
20
-2.70639135438432
30
0
41
1
10
16.1595743667587
20
-2.77582460163126
30
0
41
1
10
16.0791505068837
20
-2.80694680174017
30
0
41
1
10
15.8379815411979
20
-2.88986637736099
30
0
41
1
10
15.6773120475893
20
-2.93125547070045
30
0
41
1
10
15.4343979319293
20
-2.97323887233927
30
0
41
1
10
15.3531200475291
20
-2.98387399566713
30
0
41
1
10
15.2305389973705
20
-2.99476800462276
30
0
41
1
10
15.1897039266042
20
-2.99754226571747
30
0
41
1
10
15.1082224824264
20
-3.0013932972885
30
0
41
1
10
15.0675489650104
20
-3.0024711593388
30
0
41
1
10
14.8644510492372
20
-3.00361292842013
30
0
41
1
10
14.7028460856544
20
-2.99100906764738
30
0
41
1
10
14.3795552018158
20
-2.93728621957663
30
0
41
1
10
14.2179327884736
20
-2.89614560491643
30
0
41
1
10
14.0144147669007
20
-2.82476372570781
30
0
41
1
10
13.9736141773555
20
-2.80947410391764
30
0
41
1
10
13.8918742240488
20
-2.77695051913804
30
0
41
1
10
13.8511337375217
20
-2.75979738273989
30
0
41
1
10
13.7291987893162
20
-2.70580467264418
30
0
41
1
10
13.6482872773627
20
-2.6664362548614
30
0
41
1
10
13.4059957930925
20
-2.53917886962702
30
0
41
1
10
13.2450534167292
20
-2.44218620129198
30
0
41
1
10
13.002617741244
20
-2.2810306274333
30
0
41
1
10
12.9216403677021
20
-2.22469773712109
30
0
41
1
10
12.799739569239
20
-2.13640265924383
30
0
41
1
10
12.7590344650655
20
-2.10633185123513
30
0
41
1
10
12.6774522282337
20
-2.04489452255038
30
0
41
1
10
12.6365335118143
20
-2.0134953570689
30
0
41
1
10
12.431909536337
20
-1.85357529677194
30
0
41
1
10
12.2693702769221
20
-1.71730472054654
30
0
41
1
10
12.0259792077377
20
-1.50047548896589
30
0
41
1
10
11.9449157646652
20
-1.42612244755179
30
0
41
1
10
11.7826508366815
20
-1.27321566709486
30
0
41
1
10
11.7014534770316
20
-1.19462494171822
30
0
41
1
10
11.62
20
-1.11407815578579
30
0
0
SPLINE
5
158
100
AcDbEntity
8
1
62
256
6
ByLayer
370
18
48
1
60
0
100
AcDbSpline
70
4
71
3
72
10
73
6
40
0
40
0
40
0
40
0
40
0.5
40
0.5
40
1
40
1
40
1
40
1
41
1
10
11.1248496308379
20
-0.595336197375872
30
0
41
1
10
11.2065564453522
20
-0.684199141062379
30
0
41
1
10
11.2882844651593
20
-0.772236040283076
30
0
41
1
10
11.4529168903489
20
-0.945551556992399
30
0
41
1
10
11.5358179345107
20
-1.03083325235792
30
0
41
1
10
11.62
20
-1.11407815578579
30
0
0
SPLINE
5
159
100
AcDbEntity
8
1
62
256
6
ByLayer
370
13
48
1
60
0
100
AcDbSpline
70
4
71
3
72
8
73
4
40
0
40
0
40
0
40
0
40
1
40
1
40
1
40
1
41
1
10
11.0366121135524
20
-0.669908888641885
30
0
41
1
10
11.0658980679041
20
-0.644875523189256
30
0
41
1
10
11.0953217901393
20
-0.620032366930076
30
0
41
1
10
11.1248496321392
20
-0.595336196129722
30
0
0
SPLINE
5
15A
100
AcDbEntity
8
1
62
256
6
ByLayer
370
18
48
1
60
0
100
AcDbSpline
70
4
71
3
72
24
73
20
40
0
40
0
40
0
40
0
40
0.124999999999992
40
0.124999999999992
40
0.18749999999999
40
0.18749999999999
40
0.249999999999989
40
0.249999999999989
40
0.374999999999991
40
0.374999999999991
40
0.499999999999993
40
0.499999999999993
40
0.749999999999993
40
0.749999999999993
40
0.874999999999995
40
0.874999999999995
40
0.937499999999997
40
0.937499999999997
40
1
40
1
40
1
40
1
41
1
10
11.0366121135525
20
-0.669908888641913
30
0
41
1
10
11.0727370021985
20
-0.728630641060647
30
0
41
1
10
11.1061151169409
20
-0.788809975627998
30
0
41
1
10
11.1533720726039
20
-0.880355517153532
30
0
41
1
10
11.1686475630615
20
-0.911089255537462
30
0
41
1
10
11.1983887505127
20
-0.97289320110238
30
0
41
1
10
11.2128699556042
20
-1.00399884719562
30
0
41
1
10
11.2551615085202
20
-1.09746359649887
30
0
41
1
10
11.2816799795307
20
-1.15962018331913
30
0
41
1
10
11.3322174458984
20
-1.28325398779873
30
0
41
1
10
11.3562310481916
20
-1.3447339484633
30
0
41
1
10
11.4253597028354
20
-1.52779141977334
30
0
41
1
10
11.4676054957456
20
-1.64797459282136
30
0
41
1
10
11.5273029144728
20
-1.82447968111211
30
0
41
1
10
11.5465765857506
20
-1.88269092196336
30
0
41
1
10
11.5747207242146
20
-1.96897099045421
30
0
41
1
10
11.5839792906756
20
-1.99757526802591
30
0
41
1
10
11.6021964540207
20
-2.0542103813232
30
0
41
1
10
11.6111629650531
20
-2.08226527391383
30
0
41
1
10
11.62
20
-2.11005268654239
30
0
0
SPLINE
5
15B
100
AcDbEntity
8
1
62
256
6
ByLayer
370
18
48
1
60
0
100
AcDbSpline
70
4
71
3
72
8
73
4
40
0
40
0
40
0
40
0
40
1
40
1
40
1
40
1
41
1
10
11.62
20
-2.11005268654236
30
0
41
1
10
11.62
20
-2.11138541191912
30
0
41
1
10
11.62
20
-2.11271757005696
30
0
41
1
10
11.62
20
-2.11404916077288
30
0
0
SPLINE
5
15C
100
AcDbEntity
8
1
62
256
6
ByLayer
370
18
48
1
60
0
100
AcDbSpline
70
4
71
3
72
26
73
22
40
0
40
0
40
0
40
0
40
0.143965142083731
40
0.143965142083731
40
0.287930284167461
40
0.287930284167461
40
0.431895426251191
40
0.431895426251191
40
0.467886711772124
40
0.467886711772124
40
0.503877997293057
40
0.575860568334926
40
0.575860568334926
40
0.719825710418663
40
0.719825710418663
40
0.863790852502401
40
0.863790852502401
40
0.899782138023335
40
0.899782138023335
40
0.93577342354427
40
1
40
1
40
1
40
1
41
1
10
11.62
20
-2.11404916077288
30
0
41
1
10
11.7580845029546
20
-2.22881402988728
30
0
41
1
10
11.8949129941091
20
-2.33491747827065
30
0
41
1
10
12.1677496756888
20
-2.52954084382415
30
0
41
1
10
12.3037545083409
20
-2.61815066484897
30
0
41
1
10
12.576530171288
20
-2.77753665681237
30
0
41
1
10
12.7132936127256
20
-2.84831799250134
30
0
41
1
10
12.8857708547567
20
-2.92481088007955
30
0
41
1
10
12.9202773575917
20
-2.93947669831968
30
0
41
1
10
12.989098514662
20
-2.96743897398918
30
0
41
1
10
13.0921511671913
20
-3.00737895831872
30
0
41
1
10
13.1947829044122
20
-3.0413597359483
30
0
41
1
10
13.3997617202569
20
-3.10144383592299
30
0
41
1
10
13.5360392339159
20
-3.13102573290453
30
0
41
1
10
13.8091083397788
20
-3.16897143183803
30
0
41
1
10
13.9458848123677
20
-3.17732889655068
30
0
41
1
10
14.1182294831397
20
-3.17367470389277
30
0
41
1
10
14.1527602334346
20
-3.1722372505279
30
0
41
1
10
14.2215726148505
20
-3.16798291785881
30
0
41
1
10
14.3171744475732
20
-3.16013694633565
30
0
41
1
10
14.4123228972721
20
-3.14703670208419
30
0
41
1
10
14.473190591874
20
-3.13653308664749
30
0
0
SPLINE
5
15D
100
AcDbEntity
8
1
62
256
6
ByLayer
370
18
48
1
60
0
100
AcDbSpline
70
4
71
3
72
14
73
10
40
0
40
0
40
0
40
0
40
0.0021028277456786
40
0.177027738598357
40
0.351952649451035
40
0.526877560303713
40
0.701802471156391
40
0.876727382009069
40
1
40
1
40
1
40
1
41
1
10
22.5494311567885
20
0.513112148881618
30
0
41
1
10
22.5454541045257
20
0.517164605808773
30
0
41
1
10
22.2106437189295
20
0.85820043203853
30
0
41
1
10
21.545
20
1.515203374696
30
0
41
1
10
20.5525
20
2.30861258114061
30
0
41
1
10
19.56
20
2.83523548808679
30
0
41
1
10
18.5675
20
3.01240885221705
30
0
41
1
10
17.6726893464657
20
2.8584247337169
30
0
41
1
10
17.1087120262645
20
2.5920334369188
30
0
41
1
10
16.8755680393969
20
2.45773498066629
30
0
0
SPLINE
5
15E
100
AcDbEntity
8
1
62
256
6
ByLayer
370
13
48
1
60
0
100
AcDbSpline
70
4
71
3
72
15
73
11
40
0
40
0
40
0
40
0
40
0.0378781084254982
40
0.183658657144996
40
0.329439205864494
40
0.475219754583992
40
0.62100030330349
40
0.766780852022988
40
0.912561400742486
40
1
40
1
40
1
40
1
41
1
10
20.8103809240501
20
-2.59970838318529
30
0
41
1
10
20.7244206160334
20
-2.63596693696277
30
0
41
1
10
20.3076269746833
20
-2.79459735821592
30
0
41
1
10
19.56
20
-2.92187521487011
30
0
41
1
10
18.5675
20
-2.74533868723111
30
0
41
1
10
17.575
20
-2.23900934743847
30
0
41
1
10
16.5825
20
-1.46670948625581
30
0
41
1
10
15.59
20
-0.518691399532685
30
0
41
1
10
14.7299008023239
20
0.356416033037164
30
0
41
1
10
14.2006349379811
20
0.869476508430438
30
0
41
1
10
14.0022024069716
20
1.05424791036367
30
0
0
SPLINE
5
15F
100
AcDbEntity
8
1
62
256
6
ByLayer
370
18
48
1
60
0
100
AcDbSpline
70
4
71
3
72
8
73
4
40
0
40
0
40
0
40
0
40
1
40
1
40
1
40
1
41
1
10
14.0022024069229
20
1.05424791040898
30
0
41
1
10
13.9921839037224
20
1.06357668766242
30
0
41
1
10
13.9821654005218
20
1.07288612928309
30
0
41
1
10
13.9721468973213
20
1.08217571928299
30
0
0
SPLINE
5
160
100
AcDbEntity
8
1
62
256
6
ByLayer
370
13
48
1
60
0
100
AcDbSpline
70
4
71
3
72
15
73
11
40
0
40
0
40
0
40
0
40
0.117029351724072
40
0.261580321593463
40
0.406131291462855
40
0.550682261332246
40
0.695233231201637
40
0.839784201071029
40
0.98433517094042
40
1
40
1
40
1
40
1
41
1
10
25.3260340869113
20
-2.58883088437204
30
0
41
1
10
25.0581893912742
20
-2.70370688540317
30
0
41
1
10
24.4595113623038
20
-2.88402647449118
30
0
41
1
10
23.53
20
-2.87285385941712
30
0
41
1
10
22.5375
20
-2.51729038431415
30
0
41
1
10
21.545
20
-1.86166277370052
30
0
41
1
10
20.5525
20
-0.985026315464069
30
0
41
1
10
19.56
20
0.0113379106827551
30
0
41
1
10
18.8624812901505
20
0.709051035341105
30
0
41
1
10
18.4957959136344
20
1.05165000171533
30
0
41
1
10
18.4599438704515
20
1.08489309013152
30
0
0
SPLINE
5
161
100
AcDbEntity
8
1
62
256
6
ByLayer
370
18
48
1
60
0
100
AcDbSpline
70
4
71
3
72
81
73
77
40
0
40
0
40
0
40
0
40
0.038833098943387
40
0.038833098943387
40
0.0866571072251373
40
0.0866571072251373
40
0.0986131092955756
40
0.0986131092955756
40
0.110569111366014
40
0.110569111366014
40
0.134481115506889
40
0.134481115506889
40
0.158393119647765
40
0.158393119647765
40
0.182305123788641
40
0.182305123788641
40
0.230129132070391
40
0.230129132070391
40
0.242085134140829
40
0.242085134140829
40
0.254041136211266
40
0.254041136211266
40
0.277953140352141
40
0.277953140352141
40
0.325777148633891
40
0.325777148633891
40
0.349689152774765
40
0.349689152774765
40
0.361645154845203
40
0.361645154845203
40
0.37360115691564
40
0.37360115691564
40
0.421425165197388
40
0.421425165197388
40
0.469249173479136
40
0.469249173479136
40
0.49316117762001
40
0.49316117762001
40
0.499139178655228
40
0.499139178655228
40
0.505117179690446
40
0.517073181760882
40
0.517073181760882
40
0.564897190042627
40
0.564897190042627
40
0.5888091941835
40
0.5888091941835
40
0.612721198324373
40
0.612721198324373
40
0.624677200394809
40
0.624677200394809
40
0.636633202465245
40
0.636633202465245
40
0.660545206606118
40
0.660545206606118
40
0.708369214887864
40
0.708369214887864
40
0.756193223169611
40
0.756193223169611
40
0.804017231451357
40
0.804017231451357
40
0.851841239733103
40
0.851841239733103
40
0.875753243873977
40
0.875753243873977
40
0.887709245944413
40
0.887709245944413
40
0.89966524801485
40
0.89966524801485
40
0.923577252155724
40
0.923577252155724
40
0.947489256296598
40
0.947489256296598
40
0.995313264578345
40
0.995313264578345
40
1
40
1
40
1
40
1
41
1
10
25.6274898682557
20
-2.53321687920158
30
0
41
1
10
25.49626394646
20
-2.60695070117868
30
0
41
1
10
25.3653484454953
20
-2.67266026745494
30
0
41
1
10
25.0725970833586
20
-2.8015611294247
30
0
41
1
10
24.9106898429889
20
-2.86065664071361
30
0
41
1
10
24.7066062655294
20
-2.91761592101895
30
0
41
1
10
24.6656832185951
20
-2.92816090065392
30
0
41
1
10
24.5837013295272
20
-2.94745843024893
30
0
41
1
10
24.5428364939301
20
-2.95616596216308
30
0
41
1
10
24.4205687142432
20
-2.97943606637841
30
0
41
1
10
24.3394958994523
20
-2.99114873498274
30
0
41
1
10
24.1779548369302
20
-3.00674232476317
30
0
41
1
10
24.0974958582579
20
-3.01057540960102
30
0
41
1
10
23.9367930419305
20
-3.01037868842627
30
0
41
1
10
23.856536205533
20
-3.00639838926256
30
0
41
1
10
23.6153871992752
20
-2.98340300628576
30
0
41
1
10
23.4540701004445
20
-2.95339368729054
30
0
41
1
10
23.2500925358726
20
-2.89883776707612
30
0
41
1
10
23.2091899724557
20
-2.887068213454
30
0
41
1
10
23.1276421376155
20
-2.86200353994056
30
0
41
1
10
23.0869315029923
20
-2.84869172353163
30
0
41
1
10
22.964935850029
20
-2.80649147097895
30
0
41
1
10
22.8837838833086
20
-2.77535693977771
30
0
41
1
10
22.6405751324439
20
-2.6729508184107
30
0
41
1
10
22.4787760240682
20
-2.59272687904527
30
0
41
1
10
22.235307564891
20
-2.45331356115113
30
0
41
1
10
22.1540220884783
20
-2.40364695463251
30
0
41
1
10
22.0316664642401
20
-2.32411110749052
30
0
41
1
10
21.9907714501702
20
-2.29673319940892
30
0
41
1
10
21.9089517197543
20
-2.24036387318017
30
0
41
1
10
21.8681890665065
20
-2.21147948868011
30
0
41
1
10
21.6649688016085
20
-2.06369924487217
30
0
41
1
10
21.5041952428883
20
-1.93488611864936
30
0
41
1
10
21.1827148768674
20
-1.66064233306238
30
0
41
1
10
21.0220483037432
20
-1.51518124496289
30
0
41
1
10
20.7792210006067
20
-1.28669712788317
30
0
41
1
10
20.6979780685717
20
-1.20881755863738
30
0
41
1
10
20.5958778809733
20
-1.1094249578104
30
0
41
1
10
20.57542267823
20
-1.08943595426757
30
0
41
1
10
20.5345851662947
20
-1.04938366710405
30
0
41
1
10
20.4733916745319
20
-0.989148741115855
30
0
41
1
10
20.4123728455446
20
-0.928457734698867
30
0
41
1
10
20.2093012219788
20
-0.725199994960747
30
0
41
1
10
20.0479068590088
20
-0.559527563444817
30
0
41
1
10
19.8059358134317
20
-0.307649810212894
30
0
41
1
10
19.7252940451317
20
-0.223131417773175
30
0
41
1
10
19.5637214867764
20
-0.0532266620544135
30
0
41
1
10
19.4827833403463
20
0.0321519359478657
30
0
41
1
10
19.3608652613015
20
0.160582863503066
30
0
41
1
10
19.3201412874181
20
0.203454309489445
30
0
41
1
10
19.2384781623424
20
0.289275933705397
30
0
41
1
10
19.1976801473345
20
0.332077426045629
30
0
41
1
10
19.075675905132
20
0.459722061751563
30
0
41
1
10
18.9947057767216
20
0.543965387560405
30
0
41
1
10
18.7523586088502
20
0.793743773117285
30
0
41
1
10
18.591534137547
20
0.956327468024597
30
0
41
1
10
18.2689184766291
20
1.27153188453377
30
0
41
1
10
18.1071031527059
20
1.42422304996541
30
0
41
1
10
17.7801532539368
20
1.71733198077854
30
0
41
1
10
17.6181764060584
20
1.85489264864421
30
0
41
1
10
17.2948847289586
20
2.11079450285035
30
0
41
1
10
17.1336333375962
20
2.22915233217566
30
0
41
1
10
16.8907192008188
20
2.39078694400294
30
0
41
1
10
16.8095727131844
20
2.44200365047601
30
0
41
1
10
16.6873535880108
20
2.51453114320373
30
0
41
1
10
16.6465136366886
20
2.53799908460203
30
0
41
1
10
16.5646917672712
20
2.58340006396816
30
0
41
1
10
16.5239044874784
20
2.60522544713928
30
0
41
1
10
16.4018595259891
20
2.6680494471039
30
0
41
1
10
16.3209223299253
20
2.70639135438424
30
0
41
1
10
16.1595743667587
20
2.7758246016312
30
0
41
1
10
16.0791505068837
20
2.80694680174008
30
0
41
1
10
15.8379815411979
20
2.8898663773609
30
0
41
1
10
15.6773120475896
20
2.93125547070022
30
0
41
1
10
15.4994989738127
20
2.96198731052238
30
0
41
1
10
15.4836168689118
20
2.96460116432169
30
0
41
1
10
15.4677219628252
20
2.96708586783689
30
0
0
SPLINE
5
162
100
AcDbEntity
8
1
62
256
6
ByLayer
370
18
48
1
60
0
100
AcDbSpline
70
4
71
3
72
8
73
4
40
0
40
0
40
0
40
0
40
1
40
1
40
1
40
1
41
1
10
26.7127891385406
20
3.05452462494543
30
0
41
1
10
26.7958203745234
20
3.07225346278281
30
0
41
1
10
26.8837710450551
20
3.08380938173201
30
0
41
1
10
26.9760123631851
20
3.09081535275558
30
0
0
SPLINE
5
163
100
AcDbEntity
8
1
62
256
6
ByLayer
370
18
48
1
60
0
100
AcDbSpline
70
4
71
3
72
77
73
73
40
0
40
0
40
0
40
0
40
0.029745987790607
40
0.029745987790607
40
0.0552789881119054
40
0.0552789881119054
40
0.0616622381922305
40
0.0616622381922305
40
0.0680454882725554
40
0.0808119884332052
40
0.0808119884332052
40
0.131877989075806
40
0.131877989075806
40
0.157410989397106
40
0.157410989397106
40
0.182943989718406
40
0.182943989718406
40
0.195710489879056
40
0.195710489879056
40
0.208476990039706
40
0.208476990039706
40
0.234009990361007
40
0.234009990361007
40
0.285075991003609
40
0.285075991003609
40
0.336141991646211
40
0.336141991646211
40
0.387207992288813
40
0.387207992288813
40
0.438273992931416
40
0.438273992931416
40
0.463806993252716
40
0.463806993252716
40
0.476573493413366
40
0.476573493413366
40
0.489339993574015
40
0.489339993574015
40
0.514872993895316
40
0.514872993895316
40
0.540405994216616
40
0.540405994216616
40
0.591471994859218
40
0.591471994859218
40
0.617004995180518
40
0.617004995180518
40
0.629771495341168
40
0.629771495341168
40
0.642537995501818
40
0.642537995501818
40
0.693603996144416
40
0.693603996144416
40
0.744669996787014
40
0.744669996787014
40
0.757436496947663
40
0.757436496947663
40
0.770202997108313
40
0.770202997108313
40
0.795735997429612
40
0.795735997429612
40
0.84680199807221
40
0.84680199807221
40
0.872334998393508
40
0.872334998393508
40
0.885101498554157
40
0.885101498554157
40
0.897867998714805
40
0.897867998714805
40
0.948933999357402
40
0.948933999357402
40
0.974466999678701
40
0.974466999678701
40
1
40
1
40
1
40
1
41
1
10
21.1420728579369
20
-2.53421756854243
30
0
41
1
10
21.0483461995153
20
-2.58690409146709
30
0
41
1
10
20.9544615055013
20
-2.63559303945158
30
0
41
1
10
20.7792210006067
20
-2.71862873865769
30
0
41
1
10
20.6979780685717
20
-2.75403294890424
30
0
41
1
10
20.5958778809733
20
-2.79446571161384
30
0
41
1
10
20.5754226782301
20
-2.80236312752695
30
0
41
1
10
20.5345851662947
20
-2.81772089034052
30
0
41
1
10
20.473391674532
20
-2.8401207573128
30
0
41
1
10
20.4123728455446
20
-2.86061122632836
30
0
41
1
10
20.2093012219787
20
-2.92465186679308
30
0
41
1
10
20.0479068590088
20
-2.96232734381169
30
0
41
1
10
19.8059358134317
20
-2.99716920845091
30
0
41
1
10
19.7252940451317
20
-3.00515582347859
30
0
41
1
10
19.5637214867764
20
-3.01347561544768
30
0
41
1
10
19.4827833403464
20
-3.01381295376686
30
0
41
1
10
19.3608652613015
20
-3.00859536182921
30
0
41
1
10
19.3201412874181
20
-3.00590144375388
30
0
41
1
10
19.2384781623424
20
-2.99859709585149
30
0
41
1
10
19.1976801473346
20
-2.99399751583474
30
0
41
1
10
19.075675905132
20
-2.9774603493336
30
0
41
1
10
18.9947057767217
20
-2.96277476862076
30
0
41
1
10
18.7523586088502
20
-2.90817684875717
30
0
41
1
10
18.5915341375474
20
-2.85775618727485
30
0
41
1
10
18.2689184766294
20
-2.72999843754138
30
0
41
1
10
18.1071031527059
20
-2.65272927946293
30
0
41
1
10
17.7801532539368
20
-2.47233047401937
30
0
41
1
10
17.6181764060584
20
-2.37098072054678
30
0
41
1
10
17.2948847289587
20
-2.1479229170865
30
0
41
1
10
17.1336333375963
20
-2.02614503478577
30
0
41
1
10
16.8907192008188
20
-1.82879921741636
30
0
41
1
10
16.8095727131845
20
-1.76056259901333
30
0
41
1
10
16.6873535880108
20
-1.65454006648312
30
0
41
1
10
16.6465136366886
20
-1.61857253533617
30
0
41
1
10
16.5646917672713
20
-1.54547218293018
30
0
41
1
10
16.5239044874784
20
-1.50851412048667
30
0
41
1
10
16.4018595259892
20
-1.39646203242015
30
0
41
1
10
16.3209223299254
20
-1.3201849975249
30
0
41
1
10
16.1595743667587
20
-1.16475285847355
30
0
41
1
10
16.0791505068838
20
-1.08562092849661
30
0
41
1
10
15.8379815411979
20
-0.844738516837822
30
0
41
1
10
15.6773120475898
20
-0.679541141945748
30
0
41
1
10
15.4343979319297
20
-0.427158103874575
30
0
41
1
10
15.3531200475292
20
-0.342251036756636
30
0
41
1
10
15.2305389973705
20
-0.213920803645635
30
0
41
1
10
15.1897039266042
20
-0.171124714187528
30
0
41
1
10
15.1082224824264
20
-0.0857053310599554
30
0
41
1
10
15.0675489650104
20
-0.0430527784892263
30
0
41
1
10
14.8644510492372
20
0.169858461928356
30
0
41
1
10
14.7028460856544
20
0.339083524517662
30
0
41
1
10
14.3795552018158
20
0.673335553730624
30
0
41
1
10
14.2179327884736
20
0.838421118692821
30
0
41
1
10
14.0144147669006
20
1.04044698822742
30
0
41
1
10
13.9736141773555
20
1.08064900720709
30
0
41
1
10
13.8918742240488
20
1.16048231835103
30
0
41
1
10
13.8511337375217
20
1.1999194619853
30
0
41
1
10
13.7291987893162
20
1.31677241244358
30
0
41
1
10
13.6482872773627
20
1.39272871677778
30
0
41
1
10
13.4059957930925
20
1.61463380749586
30
0
41
1
10
13.2450534167292
20
1.7546466800523
30
0
41
1
10
13.002617741244
20
1.95236778985179
30
0
41
1
10
12.9216403677021
20
2.01622852452715
30
0
41
1
10
12.799739569239
20
2.10882043252263
30
0
41
1
10
12.7590344650654
20
2.13914772066008
30
0
41
1
10
12.6774522282337
20
2.19868249716834
30
0
41
1
10
12.6365335118143
20
2.22791893579239
30
0
41
1
10
12.4319095363369
20
2.37083008899745
30
0
41
1
10
12.269370276922
20
2.47391937655314
30
0
41
1
10
12.0259792077377
20
2.60943520555378
30
0
41
1
10
11.9449157646652
20
2.65140617849644
30
0
41
1
10
11.7826508366815
20
2.72838004476492
30
0
41
1
10
11.7014534770316
20
2.76333121644225
30
0
41
1
10
11.62
20
2.79469174812382
30
0
0
SPLINE
5
164
100
AcDbEntity
8
1
62
256
6
ByLayer
370
18
48
1
60
0
100
AcDbSpline
70
4
71
3
72
10
73
6
40
0
40
0
40
0
40
0
40
0.403796526455021
40
0.403796526455021
40
1
40
1
40
1
40
1
41
1
10
11.2039806494152
20
2.92362212902935
30
0
41
1
10
11.2593682822227
20
2.91082315995908
30
0
41
1
10
11.3148495756698
20
2.89620925697409
30
0
41
1
10
11.452916890349
20
2.8554399509828
30
0
41
1
10
11.5358179345107
20
2.82710279508865
30
0
41
1
10
11.62
20
2.79469174812382
30
0
0
SPLINE
5
165
100
AcDbEntity
8
1
62
256
6
ByLayer
370
13
48
1
60
0
100
AcDbSpline
70
4
71
3
72
8
73
4
40
0
40
0
40
0
40
0
40
1
40
1
40
1
40
1
41
1
10
11.0366121135524
20
2.94996140942234
30
0
41
1
10
11.0527055176279
20
2.94837405026954
30
0
41
1
10
11.0688405247425
20
2.94672262673723
30
0
41
1
10
11.0850115511405
20
2.94501150173536
30
0
0
SPLINE
5
166
100
AcDbEntity
8
1
62
256
6
ByLayer
370
18
48
1
60
0
100
AcDbSpline
70
4
71
3
72
8
73
4
40
0
40
0
40
0
40
0
40
1
40
1
40
1
40
1
41
1
10
11.0850118737617
20
2.94501146759745
30
0
41
1
10
11.0982679477036
20
2.94360878548906
30
0
41
1
10
11.1115482257633
20
2.9421659853646
30
0
41
1
10
11.1248496321392
20
2.94068547052527
30
0
0
SPLINE
5
167
100
AcDbEntity
8
1
62
256
6
ByLayer
370
18
48
1
60
0
100
AcDbSpline
70
4
71
3
72
24
73
20
40
0
40
0
40
0
40
0
40
0.125000000000006
40
0.125000000000006
40
0.187500000000007
40
0.187500000000007
40
0.250000000000007
40
0.250000000000007
40
0.375000000000008
40
0.375000000000008
40
0.500000000000009
40
0.500000000000009
40
0.750000000000008
40
0.750000000000008
40
0.875000000000006
40
0.875000000000006
40
0.937500000000003
40
0.937500000000003
40
1
40
1
40
1
40
1
41
1
10
11.0366121135525
20
2.94996140942234
30
0
41
1
10
11.0727370021985
20
2.9403578125405
30
0
41
1
10
11.1061151169409
20
2.92933642227555
30
0
41
1
10
11.1533720726039
20
2.91016636630496
30
0
41
1
10
11.1686475630615
20
2.90333957925768
30
0
41
1
10
11.1983887505128
20
2.88875230368092
30
0
41
1
10
11.2128699556042
20
2.88098255293545
30
0
41
1
10
11.2551615085202
20
2.85626042796329
30
0
41
1
10
11.2816799795307
20
2.83798887936177
30
0
41
1
10
11.3322174458985
20
2.79773883484103
30
0
41
1
10
11.3562310481916
20
2.77576202303266
30
0
41
1
10
11.4253597028354
20
2.70415329569292
30
0
41
1
10
11.4676054957456
20
2.64885244387347
30
0
41
1
10
11.5273029144728
20
2.5540797987064
30
0
41
1
10
11.5465765857506
20
2.52051736085386
30
0
41
1
10
11.5747207242146
20
2.4671311657317
30
0
41
1
10
11.5839792906755
20
2.44881610730613
30
0
41
1
10
11.6021964540207
20
2.41129798736762
30
0
41
1
10
11.6111629650531
20
2.39208082381941
30
0
41
1
10
11.62
20
2.37240440482125
30
0
0
SPLINE
5
168
100
AcDbEntity
8
1
62
256
6
ByLayer
370
18
48
1
60
0
100
AcDbSpline
70
4
71
3
72
8
73
4
40
0
40
0
40
0
40
0
40
1
40
1
40
1
40
1
41
1
10
11.62
20
2.37240440482128
30
0
41
1
10
11.62
20
2.3715455976787
30
0
41
1
10
11.62
20
2.37068574403995
30
0
41
1
10
11.62
20
2.36982484356744
30
0
0
SPLINE
5
169
100
AcDbEntity
8
1
62
256
6
ByLayer
370
18
48
1
60
0
100
AcDbSpline
70
4
71
3
72
200
73
196
40
0
40
0
40
0
40
0
40
0.0028239724913807
40
0.0056480253323359
40
0.0084721641653933
40
0.0112963937444555
40
0.0141207179692157
40
0.0169451399195743
40
0.0197696618900693
40
0.0225942854242853
40
0.0254190113492782
40
0.0282438398099811
40
0.0310687703035999
40
0.0338938017140081
40
0.0367189323461277
40
0.0395441599602928
40
0.0423694818066075
40
0.0451948946592832
40
0.0480203948509725
40
0.0508459783070785
40
0.0536716405800616
40
0.0564973768837202
40
0.059323182127476
40
0.0621490509506286
40
0.0649749777566127
40
0.0678009567472417
40
0.0706269819569338
40
0.0734530472869437
40
0.0762791465395744
40
0.0791052734523899
40
0.081931421732419
40
0.084757585090362
40
0.0875837572747847
40
0.0904099321063194
40
0.093236103511864
40
0.0960622655587764
40
0.0988884124890862
40
0.101714538753688
40
0.104540639046559
40
0.107366708338972
40
0.110192741913714
40
0.113018735399318
40
0.115844684945182
40
0.118670590302128
40
0.121496454419195
40
0.124322280118815
40
0.127148069977436
40
0.129973826356275
40
0.132799551432069
40
0.135625247227828
40
0.1384509156436
40
0.141276558487229
40
0.14410217750513
40
0.146927774413056
40
0.149753350926871
40
0.152578908793338
40
0.155404449820881
40
0.158229975910387
40
0.161055489085973
40
0.163880991525786
40
0.166706485592782
40
0.169531973865512
40
0.172357459168923
40
0.175182944605132
40
0.178008433584222
40
0.180833929855025
40
0.183659437535908
40
0.186484961145546
40
0.189310505633703
40
0.192136076412001
40
0.194961679384674
40
0.197787320979328
40
0.200613008177677
40
0.203438748546272
40
0.206264550267213
40
0.209090422168839
40
0.211916373756412
40
0.214742415242754
40
0.217568557578877
40
0.220394812484577
40
0.223221192478989
40
0.226047710911109
40
0.228874381990272
40
0.231701220816582
40
0.234528243411293
40
0.237355466329395
40
0.240182899076865
40
0.243010543779707
40
0.245838401309475
40
0.24866647154473
40
0.251494753408812
40
0.25432324490763
40
0.257151943167419
40
0.259980844472505
40
0.262809944303046
40
0.265639237372761
40
0.268468717666639
40
0.271298378478645
40
0.280157042229528
40
0.291518219809016
40
0.305381984828308
40
0.321747198414477
40
0.340610714637326
40
0.36196678016567
40
0.385810173936758
40
0.412141635007422
40
0.440964784087979
40
0.472288456023122
40
0.506130408533557
40
0.542493565342435
40
0.548039660219539
40
0.553581945163986
40
0.559120325263451
40
0.56465470746663
40
0.570185001641863
40
0.575711121625622
40
0.581232986261215
40
0.586750520427905
40
0.592263656060692
40
0.597772333160948
40
0.603276505931885
40
0.608776210166792
40
0.614271533526625
40
0.619762556985328
40
0.625249354229424
40
0.630731992512777
40
0.636210533503874
40
0.641685034125474
40
0.647155547386479
40
0.652622123205891
40
0.658084809228763
40
0.663543651634059
40
0.668998695934356
40
0.674449987767318
40
0.679897573678888
40
0.685341501898149
40
0.690781823103774
40
0.696218591182009
40
0.701651863976118
40
0.707081704027163
40
0.712508179306049
40
0.717931363936668
40
0.723351337751704
40
0.728768136427663
40
0.734181724230072
40
0.739592053153024
40
0.744999068642203
40
0.750402710584543
40
0.755802914287027
40
0.761199611444795
40
0.76659273109875
40
0.771982200582875
40
0.777367946461479
40
0.7827498954566
40
0.788127975365819
40
0.793502115970697
40
0.798872249936068
40
0.804238313700393
40
0.809600248357376
40
0.814958000529009
40
0.820311523230166
40
0.825660776724889
40
0.831005729374406
40
0.836346358476922
40
0.841682651099168
40
0.847014614487083
40
0.852342326967182
40
0.857665886060458
40
0.862985378752504
40
0.868300882167869
40
0.873612464343187
40
0.878920184993868
40
0.884224096274102
40
0.889524243529954
40
0.894820666045401
40
0.900113397781186
40
0.905402468106348
40
0.91068790252241
40
0.915969723380114
40
0.921247950588706
40
0.926522602317738
40
0.931793695691378
40
0.937061247475224
40
0.942325274755643
40
0.94758579561162
40
0.952842829779148
40
0.958096399308133
40
0.96334652921183
40
0.968593240689913
40
0.973836514678514
40
0.979076315109761
40
0.984312603738649
40
0.989545340926279
40
0.994774486399104
40
1
40
1
40
1
40
1
41
1
10
17.4719784313897
20
2.96579684367202
30
0
41
1
10
17.4806816075671
20
2.96922165726801
30
0
41
1
10
17.4980882075504
20
2.97607138190509
30
0
41
1
10
17.5241974976251
20
2.98602629734887
30
0
41
1
10
17.5503067819177
20
2.99574701397151
30
0
41
1
10
17.57641599421
20
3.00521030577914
30
0
41
1
10
17.6025251537675
20
3.0144220363436
30
0
41
1
10
17.6286342569198
20
3.02338027394231
30
0
41
1
10
17.6547433061139
20
3.03208517530288
30
0
41
1
10
17.68085230213
20
3.04053633713869
30
0
41
1
10
17.706961246169
20
3.04873350584728
30
0
41
1
10
17.7330701392935
20
3.05667638734525
30
0
41
1
10
17.7591789825788
20
3.06436469803376
30
0
41
1
10
17.7852877770736
20
3.07179815114958
30
0
41
1
10
17.8113965238116
20
3.07897646043074
30
0
41
1
10
17.8375052238095
20
3.08589933914234
30
0
41
1
10
17.8636138780681
20
3.09256650034558
30
0
41
1
10
17.8897224875738
20
3.09897765683391
30
0
41
1
10
17.9158310532986
20
3.10513252115822
30
0
41
1
10
17.9419395762017
20
3.11103080562813
30
0
41
1
10
17.9680480572297
20
3.11667222231975
30
0
41
1
10
17.9941564973178
20
3.12205648308179
30
0
41
1
10
18.0202648973907
20
3.12718329954194
30
0
41
1
10
18.0463732583634
20
3.13205238311332
30
0
41
1
10
18.0724815811414
20
3.13666344500083
30
0
41
1
10
18.0985898666226
20
3.14101619620754
30
0
41
1
10
18.1246981156976
20
3.14511034754113
30
0
41
1
10
18.1508063292505
20
3.14894560962026
30
0
41
1
10
18.1769145081598
20
3.1525216928809
30
0
41
1
10
18.2030226532994
20
3.15583830758288
30
0
41
1
10
18.2291307655391
20
3.15889516381608
30
0
41
1
10
18.2552388457461
20
3.16169197150705
30
0
41
1
10
18.2813468947851
20
3.16422844042512
30
0
41
1
10
18.3074549135195
20
3.16650428018934
30
0
41
1
10
18.3335629028125
20
3.16851920027293
30
0
41
1
10
18.359670863527
20
3.17027291001753
30
0
41
1
10
18.3857787965295
20
3.17176511860927
30
0
41
1
10
18.4118867026792
20
3.17299553519914
30
0
41
1
10
18.4379945828742
20
3.1739638684837
30
0
41
1
10
18.464102437881
20
3.17466982829998
30
0
41
1
10
18.4902102689765
20
3.17511311970398
30
0
41
1
10
18.516318075989
20
3.17529346510239
30
0
41
1
10
18.5424258760484
20
3.17521052164412
30
0
41
1
10
18.5685336719241
20
3.17486425091809
30
0
41
1
10
18.5946414555098
20
3.17425492707801
30
0
41
1
10
18.6207492372207
20
3.1733827583692
30
0
41
1
10
18.6468570260071
20
3.17224797061013
30
0
41
1
10
18.6729648313535
20
3.17085078483959
30
0
41
1
10
18.6990726626182
20
3.16919142331446
30
0
41
1
10
18.7251805292084
20
3.16727010790962
30
0
41
1
10
18.7512884405327
20
3.16508706055362
30
0
41
1
10
18.7773964060121
20
3.16264250311889
30
0
41
1
10
18.8035044350762
20
3.15993665745802
30
0
41
1
10
18.8296125371626
20
3.15696974540103
30
0
41
1
10
18.8557207217158
20
3.15374198876304
30
0
41
1
10
18.8818289981871
20
3.15025360934911
30
0
41
1
10
18.9079373760323
20
3.1465048289599
30
0
41
1
10
18.9340458647116
20
3.14249586939707
30
0
41
1
10
18.9601544736884
20
3.13822695246884
30
0
41
1
10
18.9862632124282
20
3.13369829999533
30
0
41
1
10
19.012372090398
20
3.12891013381415
30
0
41
1
10
19.0384811170648
20
3.1238626757858
30
0
41
1
10
19.0645903018949
20
3.11855614779921
30
0
41
1
10
19.0906996543533
20
3.11299077177716
30
0
41
1
10
19.1168091839017
20
3.10716676968178
30
0
41
1
10
19.1429188999987
20
3.10108436352004
30
0
41
1
10
19.169028812098
20
3.09474377534914
30
0
41
1
10
19.1951389296476
20
3.08814522728218
30
0
41
1
10
19.2212492620893
20
3.08128894149346
30
0
41
1
10
19.2473598188568
20
3.07417514022404
30
0
41
1
10
19.2734706093756
20
3.06680404578722
30
0
41
1
10
19.2995816430614
20
3.05917588057406
30
0
41
1
10
19.3256929293196
20
3.05129086705881
30
0
41
1
10
19.3518044775439
20
3.04314922780441
30
0
41
1
10
19.3779162971154
20
3.03475118546811
30
0
41
1
10
19.4040283974017
20
3.02609696280652
30
0
41
1
10
19.430140787756
20
3.01718678268267
30
0
41
1
10
19.4562534775156
20
3.00802086806579
30
0
41
1
10
19.4823664760026
20
2.99859944205835
30
0
41
1
10
19.5084797925161
20
2.98892272782052
30
0
41
1
10
19.534593436357
20
2.97899094887919
30
0
41
1
10
19.5607074167311
20
2.96880432799983
30
0
41
1
10
19.5868217431055
20
2.95836309142359
30
0
41
1
10
19.6129364238731
20
2.94766745307933
30
0
41
1
10
19.6390514700465
20
2.93671767407514
30
0
41
1
10
19.6651668519388
20
2.92551385336765
30
0
41
1
10
19.6912825608321
20
2.91405698022095
30
0
41
1
10
19.717398606718
20
2.90234875182074
30
0
41
1
10
19.7435149667575
20
2.89039071987486
30
0
41
1
10
19.7696316208039
20
2.87818447785705
30
0
41
1
10
19.7957485478998
20
2.86573160831443
30
0
41
1
10
19.8218657269553
20
2.85303369687807
30
0
41
1
10
19.847983138234
20
2.8400923286309
30
0
41
1
10
19.8741007567364
20
2.82690908863739
30
0
41
1
10
19.9002185771866
20
2.81348556347143
30
0
41
1
10
19.9263365207006
20
2.79982333458793
30
0
41
1
10
19.9524547831628
20
2.78592400332496
30
0
41
1
10
19.9971212382048
20
2.76175055456699
30
0
41
1
10
20.0680418831485
20
2.72206507876356
30
0
41
1
10
20.1729163677998
20
2.66011460010907
30
0
41
1
10
20.3008868551334
20
2.57968209850671
30
0
41
1
10
20.4519470086632
20
2.47812991782158
30
0
41
1
10
20.6260861682462
20
2.35256469060405
30
0
41
1
10
20.8233054278629
20
2.1999258718605
30
0
41
1
10
21.0436174347263
20
2.01713991176106
30
0
41
1
10
21.2870086555782
20
1.80145116083287
30
0
41
1
10
21.5535073567365
20
1.55043848750597
30
0
41
1
10
21.8431792034348
20
1.26226264187923
30
0
41
1
10
22.1559260014935
20
0.935958690304062
30
0
41
1
10
22.3892047894995
20
0.683616018629209
30
0
41
1
10
22.5352503496943
20
0.523651278632144
30
0
41
1
10
22.5864258996653
20
0.467432249913486
30
0
41
1
10
22.637565624774
20
0.411105954168249
30
0
41
1
10
22.6886699658834
20
0.354691057601201
30
0
41
1
10
22.7397385428924
20
0.298207143308389
30
0
41
1
10
22.79077119631
20
0.241673450436537
30
0
41
1
10
22.841767709198
20
0.185109212571632
30
0
41
1
10
22.8927278788804
20
0.128533564651803
30
0
41
1
10
22.9436515078798
20
0.0719655781396682
30
0
41
1
10
22.9945383844003
20
0.0154241966862401
30
0
41
1
10
23.0453886527889
20
-0.0410718559517989
30
0
41
1
10
23.0962021769014
20
-0.097504961435817
30
0
41
1
10
23.1469788764157
20
-0.153858486251693
30
0
41
1
10
23.1977189587186
20
-0.210115986829436
30
0
41
1
10
23.2484226090981
20
-0.266261115963573
30
0
41
1
10
23.2990900189733
20
-0.322277586943073
30
0
41
1
10
23.349721377133
20
-0.378149181653896
30
0
41
1
10
23.4003168720805
20
-0.433859748252729
30
0
41
1
10
23.4508766914063
20
-0.489393201632168
30
0
41
1
10
23.5014010219564
20
-0.544733523139712
30
0
41
1
10
23.551890049788
20
-0.599864760496985
30
0
41
1
10
23.6023439601824
20
-0.654771027665817
30
0
41
1
10
23.6527629376419
20
-0.709436504728814
30
0
41
1
10
23.7031471658927
20
-0.763845437768168
30
0
41
1
10
23.7534968278822
20
-0.817982138738472
30
0
41
1
10
23.8038121057909
20
-0.871830985367126
30
0
41
1
10
23.8540931809924
20
-0.925376420952063
30
0
41
1
10
23.9043402342051
20
-0.978602954543646
30
0
41
1
10
23.9545534449291
20
-1.03149515969511
30
0
41
1
10
24.0047329935484
20
-1.08403767855052
30
0
41
1
10
24.054879053493
20
-1.13621520603377
30
0
41
1
10
24.1049918168959
20
-1.18801254454328
30
0
41
1
10
24.1550712263049
20
-1.23941422231329
30
0
41
1
10
24.2051171827869
20
-1.29040515725907
30
0
41
1
10
24.2551298737783
20
-1.3409712141368
30
0
41
1
10
24.3051091697687
20
-1.39109788354404
30
0
41
1
10
24.3550549564297
20
-1.44077076333346
30
0
41
1
10
24.4049671120659
20
-1.48997549775089
30
0
41
1
10
24.4548455175423
20
-1.53869779754333
30
0
41
1
10
24.5046900536258
20
-1.58692343442434
30
0
41
1
10
24.5545006016952
20
-1.63463824240486
30
0
41
1
10
24.6042770435503
20
-1.6818281172865
30
0
41
1
10
24.6540192614622
20
-1.72847901664727
30
0
41
1
10
24.7037271381589
20
-1.77457695969556
30
0
41
1
10
24.7534005568284
20
-1.82010802716033
30
0
41
1
10
24.8030394011169
20
-1.86505836116953
30
0
41
1
10
24.8526435551281
20
-1.90941416513931
30
0
41
1
10
24.902212903424
20
-1.95316170363355
30
0
41
1
10
24.9517473310152
20
-1.99628730233042
30
0
41
1
10
25.0012467233921
20
-2.03877734759124
30
0
41
1
10
25.0507109664023
20
-2.0806182875111
30
0
41
1
10
25.1001399466969
20
-2.12179662744651
30
0
41
1
10
25.1495335500598
20
-2.16229894612886
30
0
41
1
10
25.1988916676214
20
-2.20211183504395
30
0
41
1
10
25.2482142022219
20
-2.24122214726074
30
0
41
1
10
25.2975013386651
20
-2.27961629764502
30
0
41
1
10
25.3467528227828
20
-2.31728683575952
30
0
41
1
10
25.3959686234088
20
-2.35422780145589
30
0
41
1
10
25.4451488366678
20
-2.39043303453343
30
0
41
1
10
25.4942935498086
20
-2.42589648708315
30
0
41
1
10
25.5434028520734
20
-2.46061211992983
30
0
41
1
10
25.592476831702
20
-2.49457393024255
30
0
41
1
10
25.6415155767355
20
-2.52777594410551
30
0
41
1
10
25.6905191748017
20
-2.56021221846791
30
0
41
1
10
25.7394877131748
20
-2.59187684058361
30
0
41
1
10
25.7884212787611
20
-2.62276392812311
30
0
41
1
10
25.8373199581059
20
-2.65286762910577
30
0
41
1
10
25.8861838373934
20
-2.6821821218806
30
0
41
1
10
25.9350130024503
20
-2.7107016150932
30
0
41
1
10
25.9838075387474
20
-2.73842034766005
30
0
41
1
10
26.032567531402
20
-2.76533258872757
30
0
41
1
10
26.0812930651845
20
-2.79143263768515
30
0
41
1
10
26.1299842245021
20
-2.81671482397809
30
0
41
1
10
26.1786410934738
20
-2.84117350766513
30
0
41
1
10
26.2272637556637
20
-2.86480307720132
30
0
41
1
10
26.2758522950849
20
-2.88759795756445
30
0
41
1
10
26.3244067924705
20
-2.90955257981679
30
0
41
1
10
26.3729273163341
20
-2.93066148450768
30
0
41
1
10
26.4214137340146
20
-2.95091884383257
30
0
41
1
10
26.469866172858
20
-2.97032184538082
30
0
41
1
10
26.5182846618521
20
-2.98886598259006
30
0
41
1
10
26.5666691727157
20
-3.00655385338024
30
0
41
1
10
26.6150196760752
20
-3.02336133133923
30
0
41
1
10
26.6633361608085
20
-3.03936408336398
30
0
41
1
10
26.6955356829093
20
-3.04930203762805
30
0
41
1
10
26.7116298510207
20
-3.05426928857384
30
0
0
SPLINE
5
16A
100
AcDbEntity
8
1
62
256
6
ByLayer
370
18
48
1
60
0
100
AcDbSpline
70
4
71
3
72
8
73
4
40
0
40
0
40
0
40
0
40
1
40
1
40
1
40
1
41
1
10
26.7127891385406
20
-3.05452462494563
30
0
41
1
10
26.7958203745234
20
-3.07225346278301
30
0
41
1
10
26.883771045055
20
-3.08380938173218
30
0
41
1
10
26.9760123631851
20
-3.09081535275578
30
0
0
SPLINE
5
16B
100
AcDbEntity
8
1
62
256
6
ByLayer
370
18
48
1
60
0
100
AcDbSpline
70
4
71
3
72
8
73
4
40
0
40
0
40
0
40
0
40
1
40
1
40
1
40
1
41
1
10
26.9760123631859
20
-3.09081535275573
30
0
41
1
10
26.9893010768577
20
-3.07756300575775
30
0
41
1
10
27.0050966981353
20
-3.06398105531395
30
0
41
1
10
27.0228312996821
20
-3.05014417143187
30
0
0
SPLINE
5
16C
100
AcDbEntity
8
1
62
256
6
ByLayer
370
18
48
1
60
0
100
AcDbSpline
70
4
71
3
72
22
73
18
40
0
40
0
40
0
40
0
40
0.0312499999999889
40
0.0312499999999889
40
0.0624999999999777
40
0.0624999999999777
40
0.124999999999977
40
0.124999999999977
40
0.249999999999977
40
0.249999999999977
40
0.374999999999978
40
0.374999999999978
40
0.499999999999978
40
0.499999999999978
40
0.749999999999989
40
0.749999999999989
40
1
40
1
40
1
40
1
41
1
10
27.0228312996846
20
-3.05014417143266
30
0
41
1
10
27.0268749311151
20
-3.04698925089963
30
0
41
1
10
27.0303363965874
20
-3.04382353887431
30
0
41
1
10
27.036708327348
20
-3.03745865361839
30
0
41
1
10
27.0396025505525
20
-3.03425975910966
30
0
41
1
10
27.0477639639113
20
-3.02460620903383
30
0
41
1
10
27.0525211711784
20
-3.01809441430225
30
0
41
1
10
27.0658255185336
20
-2.99830538203707
30
0
41
1
10
27.0734097766577
20
-2.98476485124661
30
0
41
1
10
27.087546328554
20
-2.95709876967212
30
0
41
1
10
27.0940551251965
20
-2.94295317940865
30
0
41
1
10
27.1064544862949
20
-2.91399739764893
30
0
41
1
10
27.1123339256083
20
-2.89918808449335
30
0
41
1
10
27.1293130601789
20
-2.85373950064673
30
0
41
1
10
27.1397699482151
20
-2.8220625370252
30
0
41
1
10
27.1594182743278
20
-2.75614715403918
30
0
41
1
10
27.168602052758
20
-2.72188628446821
30
0
41
1
10
27.1771938541852
20
-2.6863050461568
30
0
0
SPLINE
5
16D
100
AcDbEntity
8
1
62
256
6
ByLayer
370
18
48
1
60
0
100
AcDbSpline
70
4
71
3
72
10
73
6
40
0
40
0
40
0
40
0
40
0.5
40
0.5
40
1
40
1
40
1
40
1
41
1
10
11.1248496308377
20
-2.94068547066291
30
0
41
1
10
11.206556445352
20
-2.92433033776177
30
0
41
1
10
11.2882844651592
20
-2.90405355467499
30
0
41
1
10
11.4529168903488
20
-2.85543995098288
30
0
41
1
10
11.5358179345107
20
-2.82710279508871
30
0
41
1
10
11.62
20
-2.79469174812385
30
0
0
SPLINE
5
16E
100
AcDbEntity
8
1
62
256
6
ByLayer
370
18
48
1
60
0
100
AcDbSpline
70
4
71
3
72
8
73
4
40
0
40
0
40
0
40
0
40
1
40
1
40
1
40
1
41
1
10
11.0850118737615
20
-2.94501146759751
30
0
41
1
10
11.0982679477033
20
-2.94360878548915
30
0
41
1
10
11.1115482257631
20
-2.94216598536468
30
0
41
1
10
11.1248496321389
20
-2.94068547052535
30
0
0
SPLINE
5
16F
100
AcDbEntity
8
1
62
256
6
ByLayer
370
18
48
1
60
0
100
AcDbSpline
70
4
71
3
72
10
73
6
40
0
40
0
40
0
40
0
40
0.0406044368846064
40
0.513976732536441
40
1
40
1
40
1
40
1
41
1
10
16.6618480306663
20
2.52868733355805
30
0
41
1
10
16.6631563837122
20
2.52956903308154
30
0
41
1
10
16.6797176967874
20
2.5407203948495
30
0
41
1
10
16.7119394748092
20
2.56218902362571
30
0
41
1
10
16.7428528251866
20
2.58221687340847
30
0
41
1
10
16.7585133182474
20
2.5923628458998
30
0
0
SPLINE
5
170
100
AcDbEntity
8
1
62
256
6
ByLayer
370
18
48
1
60
0
100
AcDbSpline
70
4
71
3
72
9
73
5
40
0
40
0
40
0
40
0
40
0.910688812812411
40
1
40
1
40
1
40
1
41
1
10
16.7585133182474
20
2.5923628458998
30
0
41
1
10
16.9750895761615
20
2.73158654477851
30
0
41
1
10
17.2129205109824
20
2.86015316371666
30
0
41
1
10
17.4507387054896
20
2.95736545459982
30
0
41
1
10
17.47197843139
20
2.96579684367208
30
0
0
SPLINE
5
171
100
AcDbEntity
8
1
62
256
6
ByLayer
370
18
48
1
60
0
100
AcDbSpline
70
4
71
3
72
8
73
4
40
0
40
0
40
0
40
0
40
1
40
1
40
1
40
1
41
1
10
27.2586266450723
20
-2.57753340997226
30
0
41
1
10
27.2345251963325
20
-2.61920693941892
30
0
41
1
10
27.2073594851259
20
-2.65544428450951
30
0
41
1
10
27.1771938541852
20
-2.68630504615677
30
0
0
SPLINE
5
172
100
AcDbEntity
8
1
62
256
6
ByLayer
370
13
48
1
60
0
100
AcDbSpline
70
4
71
3
72
11
73
7
40
0
40
0
40
0
40
0
40
0.40463119483279
40
0.634953702238118
40
0.865276209643446
40
1
40
1
40
1
40
1
41
1
10
27.2586266450712
20
-2.57753340997297
30
0
41
1
10
26.6774177633808
20
-2.32380053136649
30
0
41
1
10
25.7653755483571
20
-1.66411238078854
30
0
41
1
10
24.5225
20
-0.469831970562836
30
0
41
1
10
23.6673172017791
20
0.400361187023861
30
0
41
1
10
23.1429677368915
20
0.906539224996664
30
0
41
1
10
22.9494516053372
20
1.08590903653669
30
0
0
SPLINE
5
173
100
AcDbEntity
8
1
62
256
6
ByLayer
370
13
48
1
60
0
100
AcDbSpline
70
4
71
3
72
8
73
4
40
0
40
0
40
0
40
0
40
1
40
1
40
1
40
1
41
1
10
11.8797479601489
20
-2.57940785522967
30
0
41
1
10
11.7931653067659
20
-2.61717334704682
30
0
41
1
10
11.706582653383
20
-2.65122223346879
30
0
41
1
10
11.62
20
-2.68128906276465
30
0
0
SPLINE
5
174
100
AcDbEntity
8
1
62
256
6
ByLayer
370
18
48
1
60
0
100
AcDbSpline
70
4
71
3
72
62
73
58
40
0
40
0
40
0
40
0
40
0.0671727012827966
40
0.0671727012827966
40
0.100759051924195
40
0.100759051924195
40
0.134345402565595
40
0.134345402565595
40
0.151138577886294
40
0.151138577886294
40
0.159535165546644
40
0.159535165546644
40
0.167931753206993
40
0.201518103848387
40
0.201518103848387
40
0.268690805131175
40
0.268690805131175
40
0.335863506413963
40
0.335863506413963
40
0.352656681734661
40
0.352656681734661
40
0.369449857055359
40
0.369449857055359
40
0.403036207696753
40
0.403036207696753
40
0.436622558338147
40
0.436622558338147
40
0.470208908979541
40
0.470208908979541
40
0.53738161026233
40
0.53738161026233
40
0.554174785583026
40
0.554174785583026
40
0.570967960903722
40
0.570967960903722
40
0.604554311545114
40
0.604554311545114
40
0.671727012827898
40
0.671727012827898
40
0.70531336346929
40
0.70531336346929
40
0.722106538789986
40
0.722106538789986
40
0.738899714110682
40
0.738899714110682
40
0.806072415393465
40
0.806072415393465
40
0.873245116676248
40
0.873245116676248
40
0.906831467317639
40
0.906831467317639
40
0.915228054977986
40
0.915228054977986
40
0.923624642638334
40
0.940417817959028
40
0.940417817959028
40
1
40
1
40
1
40
1
41
1
10
27.1771938541852
20
-2.68630504615677
30
0
41
1
10
27.0152831640361
20
-2.61046835832408
30
0
41
1
10
26.8539034413246
20
-2.52343710739393
30
0
41
1
10
26.6117998572497
20
-2.37513584594041
30
0
41
1
10
26.5310839006467
20
-2.32273380362341
30
0
41
1
10
26.3693562532484
20
-2.21175801978544
30
0
41
1
10
26.2883478471282
20
-2.15313612977204
30
0
41
1
10
26.1663129348052
20
-2.06069367751766
30
0
41
1
10
26.1255469760044
20
-2.02913263798322
30
0
41
1
10
26.0642278835024
20
-1.98070350320324
30
0
41
1
10
26.04376229779
20
-1.96438072941535
30
0
41
1
10
26.0029252668305
20
-1.93150585510028
30
0
41
1
10
25.9009702719049
20
-1.84866675116976
30
0
41
1
10
25.7996059577854
20
-1.76269417987004
30
0
41
1
10
25.5568702317638
20
-1.55109653296475
30
0
41
1
10
25.3957221913996
20
-1.40308177299878
30
0
41
1
10
25.0725970833586
20
-1.09565604822063
30
0
41
1
10
24.910689842989
20
-0.936174597861765
30
0
41
1
10
24.7066062655294
20
-0.730034292126533
30
0
41
1
10
24.6656832185951
20
-0.688446390061785
30
0
41
1
10
24.5837013295273
20
-0.604680282656261
30
0
41
1
10
24.5428364939302
20
-0.562700762213126
30
0
41
1
10
24.4205687142432
20
-0.436523060657379
30
0
41
1
10
24.3394958994523
20
-0.352082407487131
30
0
41
1
10
24.1779548369302
20
-0.182825162777164
30
0
41
1
10
24.0974958582579
20
-0.0980009245317603
30
0
41
1
10
23.9367930419305
20
0.0716490274813566
30
0
41
1
10
23.856536205533
20
0.156463559485473
30
0
41
1
10
23.6153871992753
20
0.41025584952817
30
0
41
1
10
23.4540701004445
20
0.578539321023527
30
0
41
1
10
23.2500925358727
20
0.786212633636097
30
0
41
1
10
23.2091899724557
20
0.827608030856311
30
0
41
1
10
23.1276421376155
20
0.909586339072206
30
0
41
1
10
23.0869315029923
20
0.950236074682522
30
0
41
1
10
22.964935850029
20
1.07114742123113
30
0
41
1
10
22.8837838833086
20
1.15037749491722
30
0
41
1
10
22.640575132444
20
1.38362276760955
30
0
41
1
10
22.4787760240683
20
1.53323071000184
30
0
41
1
10
22.2353075648911
20
1.74681972085003
30
0
41
1
10
22.1540220884784
20
1.81620278854902
30
0
41
1
10
22.0316664642402
20
1.91717715685883
30
0
41
1
10
21.9907714501703
20
1.95034749880415
30
0
41
1
10
21.9089517197543
20
2.01544574834318
30
0
41
1
10
21.8681890665066
20
2.04724298375589
30
0
41
1
10
21.6649688016086
20
2.20243124758653
30
0
41
1
10
21.5041952428884
20
2.31449505014331
30
0
41
1
10
21.1827148768674
20
2.51505149168648
30
0
41
1
10
21.0220483037433
20
2.60356781187917
30
0
41
1
10
20.7792210006067
20
2.71862873865752
30
0
41
1
10
20.6979780685717
20
2.7540329489041
30
0
41
1
10
20.5958778809734
20
2.79446571161367
30
0
41
1
10
20.5754226782301
20
2.80236312752678
30
0
41
1
10
20.5345851662948
20
2.81772089034038
30
0
41
1
10
20.473391674532
20
2.84012075731266
30
0
41
1
10
20.4123728455447
20
2.86061122632822
30
0
41
1
10
20.2276589064156
20
2.91886258984656
30
0
41
1
10
20.084395576889
20
2.95363957155516
30
0
41
1
10
19.9412828088209
20
2.97712882942233
30
0
0
SPLINE
5
175
100
AcDbEntity
8
1
62
256
6
ByLayer
370
18
48
1
60
0
100
AcDbSpline
70
4
71
3
72
12
73
8
40
0
40
0
40
0
40
0
40
0.117387886194344
40
0.117387886194344
40
0.558693943097172
40
0.558693943097172
40
1
40
1
40
1
40
1
41
1
10
12.1718687058742
20
-2.52754308302545
30
0
41
1
10
12.1502760156565
20
-2.54000623639098
30
0
41
1
10
12.128690326269
20
-2.55224747708874
30
0
41
1
10
12.0259792077377
20
-2.60943520555381
30
0
41
1
10
11.9449157646652
20
-2.65140617849647
30
0
41
1
10
11.7826508366815
20
-2.72838004476497
30
0
41
1
10
11.7014534770315
20
-2.76333121644231
30
0
41
1
10
11.62
20
-2.79469174812385
30
0
0
SPLINE
5
176
100
AcDbEntity
8
1
62
256
6
ByLayer
370
18
48
1
60
0
100
AcDbSpline
70
4
71
3
72
135
73
131
40
0
40
0
40
0
40
0
40
0.0043575617263532
40
0.0087152474370029
40
0.0130730658387052
40
0.0174310242670271
40
0.0217891287394312
40
0.0261473840083916
40
0.0305057936145202
40
0.0348643599396651
40
0.0392230842600199
40
0.0435819667992259
40
0.0479410067814406
40
0.0523002024844166
40
0.056659551292541
40
0.0610190497498751
40
0.0653786936131613
40
0.0697384779048114
40
0.0740983969658826
40
0.0784584445090281
40
0.0828186136714179
40
0.0871788970676535
40
0.0915392868426634
40
0.0958997747245585
40
0.100260352077499
40
0.104621009954525
40
0.108981739150385
40
0.113342530254342
40
0.11770337370297
40
0.122064259832949
40
0.126425178933844
40
0.130786121300878
40
0.135147077287708
40
0.139508037359193
40
0.143868992144167
40
0.148229932488201
40
0.152590849506393
40
0.15695173463614
40
0.161312579689924
40
0.16567337690811
40
0.170034119011752
40
0.17439479925541
40
0.17875541169737
40
0.183115955953135
40
0.187476436573255
40
0.19183685791291
40
0.196197223947716
40
0.200557538321181
40
0.204917804392137
40
0.209278025282214
40
0.213638203923303
40
0.217998343105016
40
0.222358445522178
40
0.226718513822299
40
0.231078550653067
40
0.235438558709837
40
0.239798540783122
40
0.244158499806103
40
0.248518438902121
40
0.252878361432185
40
0.25723827104248
40
0.261598171711875
40
0.265958067799426
40
0.270317964091892
40
0.274677865851241
40
0.279037778862148
40
0.283397709479502
40
0.287757664675896
40
0.292117652089121
40
0.296477680069633
40
0.30083775772803
40
0.305197894982498
40
0.309558102606248
40
0.31391839227493
40
0.318278776614021
40
0.322639269246191
40
0.32699988483863
40
0.331360639150354
40
0.335721549079439
40
0.340082632710245
40
0.344443909360558
40
0.348805399628695
40
0.353167125440527
40
0.357529110096434
40
0.361891378318188
40
0.366253955651145
40
0.370616856763612
40
0.374980084936139
40
0.379343641513591
40
0.383707526308577
40
0.388071737659745
40
0.392436272490091
40
0.396801126365222
40
0.401166293551627
40
0.40553176707491
40
0.409897538778021
40
0.414263599379432
40
0.418629938531317
40
0.432299396792011
40
0.449830386464145
40
0.47122302113429
40
0.496475543452089
40
0.525583099055442
40
0.558536810203565
40
0.595328620478311
40
0.63595967028943
40
0.680435546613687
40
0.728769882155089
40
0.780990078159341
40
0.83710064610952
40
0.845658608636185
40
0.854210692204558
40
0.862756750359136
40
0.871296639516082
40
0.879830220596746
40
0.888357360645558
40
0.896877934432792
40
0.905391826042568
40
0.913898930446446
40
0.922399155062881
40
0.930892429224637
40
0.939378808162943
40
0.947858427143998
40
0.95633141111553
40
0.964797873780344
40
0.973257918915249
40
0.981711641678479
40
0.990159129905321
40
0.998600465391745
40
1
40
1
40
1
40
1
41
1
10
17.4719784314133
20
1.13682417662656
30
0
41
1
10
17.4806816075906
20
1.1277965120882
30
0
41
1
10
17.4980882075739
20
1.10974092615024
30
0
41
1
10
17.5241974976486
20
1.08253655198138
30
0
41
1
10
17.550306781941
20
1.0552462536113
30
0
41
1
10
17.5764159942333
20
1.02786364071096
30
0
41
1
10
17.6025251537908
20
1.00039353091779
30
0
41
1
10
17.6286342569429
20
0.972837738876649
30
0
41
1
10
17.6547433061369
20
0.945198884238607
30
0
41
1
10
17.680852302153
20
0.917479371262914
30
0
41
1
10
17.706961246192
20
0.889681662249075
30
0
41
1
10
17.7330701393164
20
0.861808204270091
30
0
41
1
10
17.7591789826016
20
0.833861448808136
30
0
41
1
10
17.7852877770964
20
0.805843846496231
30
0
41
1
10
17.8113965238344
20
0.777757848530058
30
0
41
1
10
17.8375052238321
20
0.749605906292743
30
0
41
1
10
17.8636138780907
20
0.72139047145842
30
0
41
1
10
17.8897224875963
20
0.693113995967479
30
0
41
1
10
17.9158310533211
20
0.664778932036285
30
0
41
1
10
17.9419395762241
20
0.636387732157402
30
0
41
1
10
17.968048057252
20
0.607942849102784
30
0
41
1
10
17.9941564973401
20
0.579446735925671
30
0
41
1
10
18.020264897413
20
0.550901845963324
30
0
41
1
10
18.0463732583855
20
0.522310632839066
30
0
41
1
10
18.0724815811635
20
0.493675550464928
30
0
41
1
10
18.0985898666447
20
0.464999053043812
30
0
41
1
10
18.1246981157196
20
0.436283595072012
30
0
41
1
10
18.1508063292725
20
0.407531631341442
30
0
41
1
10
18.1769145081817
20
0.378745616942041
30
0
41
1
10
18.2030226533212
20
0.349928007264253
30
0
41
1
10
18.2291307655609
20
0.321081258001186
30
0
41
1
10
18.2552388457678
20
0.292207825151166
30
0
41
1
10
18.2813468948067
20
0.263310165019959
30
0
41
1
10
18.3074549135411
20
0.234390734223211
30
0
41
1
10
18.3335629028341
20
0.205451989688925
30
0
41
1
10
18.3596708635484
20
0.176496388659046
30
0
41
1
10
18.3857787965508
20
0.147526388694985
30
0
41
1
10
18.4118867027004
20
0.118544447668228
30
0
41
1
10
18.4379945828954
20
0.0895530238062747
30
0
41
1
10
18.4641024379021
20
0.0605545755329331
30
0
41
1
10
18.4902102689977
20
0.0315515620748386
30
0
41
1
10
18.5163180760101
20
0.0025464407278548
30
0
41
1
10
18.5424258760694
20
-0.0264583356333503
30
0
41
1
10
18.568533671945
20
-0.0554603656336212
30
0
41
1
10
18.5946414555307
20
-0.084457304824781
30
0
41
1
10
18.6207492372415
20
-0.113446814334026
30
0
41
1
10
18.6468570260278
20
-0.142426557223018
30
0
41
1
10
18.6729648313742
20
-0.171394195735758
30
0
41
1
10
18.6990726626388
20
-0.200347391898873
30
0
41
1
10
18.725180529229
20
-0.229283807360503
30
0
41
1
10
18.7512884405532
20
-0.258201103433549
30
0
41
1
10
18.7773964060326
20
-0.287096941084172
30
0
41
1
10
18.8035044350966
20
-0.315968980934741
30
0
41
1
10
18.8296125371828
20
-0.344814883263211
30
0
41
1
10
18.8557207217361
20
-0.373632308003181
30
0
41
1
10
18.8818289982073
20
-0.402418914743919
30
0
41
1
10
18.9079373760524
20
-0.43117236273045
30
0
41
1
10
18.9340458647317
20
-0.459890310863386
30
0
41
1
10
18.9601544737084
20
-0.488570417699123
30
0
41
1
10
18.9862632124482
20
-0.517210341449783
30
0
41
1
10
19.0123720904179
20
-0.545807739983104
30
0
41
1
10
19.0384811170846
20
-0.574360270822638
30
0
41
1
10
19.0645903019147
20
-0.602865591147634
30
0
41
1
10
19.090699654373
20
-0.631321357793126
30
0
41
1
10
19.1168091839214
20
-0.659725227249766
30
0
41
1
10
19.1429189000183
20
-0.688074855664098
30
0
41
1
10
19.1690288121175
20
-0.716367898838286
30
0
41
1
10
19.1951389296671
20
-0.744602012230331
30
0
41
1
10
19.2212492621086
20
-0.772774850953908
30
0
41
1
10
19.2473598188761
20
-0.800884069778533
30
0
41
1
10
19.2734706093948
20
-0.828927323129363
30
0
41
1
10
19.2995816430807
20
-0.856902265087314
30
0
41
1
10
19.3256929293388
20
-0.88480654938914
30
0
41
1
10
19.351804477563
20
-0.912637829427183
30
0
41
1
10
19.3779162971344
20
-0.940393758249598
30
0
41
1
10
19.4040283974207
20
-0.968071988560126
30
0
41
1
10
19.4301407877749
20
-0.995670172718718
30
0
41
1
10
19.4562534775344
20
-1.02318596273923
30
0
41
1
10
19.4823664760214
20
-1.05061701029729
30
0
41
1
10
19.5084797925348
20
-1.07796096670219
30
0
41
1
10
19.5345934363757
20
-1.10521548300039
30
0
41
1
10
19.5607074167497
20
-1.13237820959026
30
0
41
1
10
19.586821743124
20
-1.15944679765889
30
0
41
1
10
19.6129364238915
20
-1.18641889381979
30
0
41
1
10
19.6390514700649
20
-1.21329215880382
30
0
41
1
10
19.6651668519572
20
-1.24006416743458
30
0
41
1
10
19.6912825608504
20
-1.26673273545117
30
0
41
1
10
19.7173986067362
20
-1.29329587207727
30
0
41
1
10
19.7435149667757
20
-1.31975151353981
30
0
41
1
10
19.7696316208221
20
-1.34609760900454
30
0
41
1
10
19.7957485479178
20
-1.37233210351295
30
0
41
1
10
19.8218657269733
20
-1.39845294304911
30
0
41
1
10
19.8479831382519
20
-1.42445807204663
30
0
41
1
10
19.8741007567543
20
-1.45034543830192
30
0
41
1
10
19.9002185772044
20
-1.4761129758194
30
0
41
1
10
19.9263365207184
20
-1.50175866853061
30
0
41
1
10
19.9524547831805
20
-1.52728031255722
30
0
41
1
10
19.9971212382173
20
-1.57071258670911
30
0
41
1
10
20.0680418831516
20
-1.63893295999347
30
0
41
1
10
20.17291636779
20
-1.73784521966212
30
0
41
1
10
20.3008868551136
20
-1.85539371872818
30
0
41
1
10
20.4519470086361
20
-1.98940435696204
30
0
41
1
10
20.6260861682145
20
-2.13703803524774
30
0
41
1
10
20.8233054278294
20
-2.29464455942696
30
0
41
1
10
21.0436174346936
20
-2.45768706501352
30
0
41
1
10
21.2870086555492
20
-2.62091141149699
30
0
41
1
10
21.5535073567138
20
-2.77799727965021
30
0
41
1
10
21.8431792034212
20
-2.92147757047218
30
0
41
1
10
22.1559260014916
20
-3.04229718381325
30
0
41
1
10
22.3892047894996
20
-3.1042996582118
30
0
41
1
10
22.5352503496857
20
-3.13240895999047
30
0
41
1
10
22.5864258996366
20
-3.14126210298358
30
0
41
1
10
22.6375656247257
20
-3.14911050034539
30
0
41
1
10
22.6886699658161
20
-3.15595297426165
30
0
41
1
10
22.7397385428065
20
-3.16178820216979
30
0
41
1
10
22.7907711962059
20
-3.16661491604941
30
0
41
1
10
22.8417677090765
20
-3.17043184346846
30
0
41
1
10
22.8927278787417
20
-3.1732377441476
30
0
41
1
10
22.9436515077244
20
-3.17503132255919
30
0
41
1
10
22.9945383842288
20
-3.17581154074148
30
0
41
1
10
23.0453886526017
20
-3.17557645383155
30
0
41
1
10
23.096202176699
20
-3.17432897771371
30
0
41
1
10
23.1469788761986
20
-3.17207513453417
30
0
41
1
10
23.1977189584873
20
-3.16882021220519
30
0
41
1
10
23.2484226088531
20
-3.16456967417093
30
0
41
1
10
23.2990900187151
20
-3.15932891624294
30
0
41
1
10
23.349721376862
20
-3.15310333181191
30
0
41
1
10
23.4003168717972
20
-3.14589829449716
30
0
41
1
10
23.4368297861835
20
-3.1399915500493
30
0
41
1
10
23.456477400815
20
-3.13659215502625
30
0
41
1
10
23.4592716207867
20
-3.13610423733314
30
0
0
SPLINE
5
177
100
AcDbEntity
8
1
62
256
6
ByLayer
370
18
48
1
60
0
100
AcDbSpline
70
4
71
3
72
9
73
5
40
0
40
0
40
0
40
0
40
0.91068881278744
40
1
40
1
40
1
40
1
41
1
10
16.7585133182069
20
1.83344491365602
30
0
41
1
10
16.9750895761345
20
1.63720909678409
30
0
41
1
10
17.2129205109767
20
1.40447464355088
30
0
41
1
10
17.4507387055053
20
1.15885733882254
30
0
41
1
10
17.4719784314135
20
1.13682417662636
30
0
0
SPLINE
5
178
100
AcDbEntity
8
1
62
256
6
ByLayer
370
18
48
1
60
0
100
AcDbSpline
70
4
71
3
72
80
73
76
40
0
40
0
40
0
40
0
40
0.0143216109706774
40
0.0286419805871909
40
0.0429610723430848
40
0.0572788524489265
40
0.0715952900276651
40
0.0859103573099078
40
0.100224029828972
40
0.114536286615831
40
0.128847110393809
40
0.143156487798325
40
0.157464426761102
40
0.171770983048531
40
0.186076216741724
40
0.200380183981493
40
0.214682937132754
40
0.228984524949286
40
0.243284992738738
40
0.257584382527838
40
0.271882733227888
40
0.286180080800429
40
0.300476458423139
40
0.314771896655884
40
0.329066423606947
40
0.343360065099437
40
0.357652844837832
40
0.371944784574647
40
0.386235904277275
40
0.400526222294909
40
0.414815755525632
40
0.429104519583526
40
0.443392528966009
40
0.457679797221184
40
0.471966337115293
40
0.486252160800297
40
0.50053727998152
40
0.501483424312814
40
0.503088672040964
40
0.505353025018675
40
0.508276485864414
40
0.511859058075599
40
0.516100746120372
40
0.521001555540211
40
0.526561493069396
40
0.532780566773932
40
0.539658786212243
40
0.54719616262069
40
0.555392709128045
40
0.564248441004666
40
0.573763375953902
40
0.583937534455441
40
0.594770940173189
40
0.60626362044305
40
0.618415606859718
40
0.631226935985651
40
0.644697650209804
40
0.658827798788965
40
0.673617439110231
40
0.68906663821947
40
0.70517547466762
40
0.721944040734348
40
0.739372445096993
40
0.757460811789562
40
0.776209229133632
40
0.795617747074983
40
0.81568640377583
40
0.836415224066623
40
0.857804217384395
40
0.87985337589165
40
0.902562672877847
40
0.925932061561587
40
0.949961474428131
40
0.974650823255307
40
1
40
1
40
1
40
1
41
1
10
14.9036750742249
20
3.02716682728459
30
0
41
1
10
14.9125276357996
20
3.0241794874363
30
0
41
1
10
14.9302319916355
20
3.01820506667335
30
0
41
1
10
14.9567890945605
20
3.00891289883711
30
0
41
1
10
14.9833451648944
20
2.99937997476255
30
0
41
1
10
15.00990030251
20
2.989583087569
30
0
41
1
10
15.0364544532919
20
2.97952919925436
30
0
41
1
10
15.0630076044074
20
2.96921718888086
30
0
41
1
10
15.0895597319111
20
2.95864810144383
30
0
41
1
10
15.1161108150811
20
2.9478223993847
30
0
41
1
10
15.1426608314762
20
2.93674070899562
30
0
41
1
10
15.1692097730818
20
2.92540357836398
30
0
41
1
10
15.1957576560148
20
2.91381167074431
30
0
41
1
10
15.2223044481294
20
2.9019665923025
30
0
41
1
10
15.2488501638333
20
2.88986985352713
30
0
41
1
10
15.2753948202944
20
2.87752298354258
30
0
41
1
10
15.3019384353323
20
2.86492750534137
30
0
41
1
10
15.3284810265873
20
2.85208494300071
30
0
41
1
10
15.3550226117421
20
2.83899681972102
30
0
41
1
10
15.3815632084612
20
2.82566465832312
30
0
41
1
10
15.4081028344063
20
2.81208998108701
30
0
41
1
10
15.4346415072307
20
2.7982743097669
30
0
41
1
10
15.4611792445805
20
2.78421916555911
30
0
41
1
10
15.4877160640923
20
2.76992606908243
30
0
41
1
10
15.5142519833954
20
2.75539654035589
30
0
41
1
10
15.5407870200998
20
2.74063209877392
30
0
41
1
10
15.567321191838
20
2.72563426309563
30
0
41
1
10
15.5938545161054
20
2.71040455137941
30
0
41
1
10
15.6203870108515
20
2.69494448112223
30
0
41
1
10
15.6469186922701
20
2.67925556863557
30
0
41
1
10
15.6734495830412
20
2.66333933126896
30
0
41
1
10
15.6999796815721
20
2.64719727900839
30
0
41
1
10
15.726509076778
20
2.63083094572332
30
0
41
1
10
15.7530375197434
20
2.61424177245738
30
0
41
1
10
15.7795660221773
20
2.59743154285354
30
0
41
1
10
15.8060908913475
20
2.58040075814554
30
0
41
1
10
15.824367220534
20
2.56852235461017
30
0
41
1
10
15.8347836103707
20
2.56169902938532
30
0
41
1
10
15.8377612274936
20
2.55974467427529
30
0
41
1
10
15.8419612206526
20
2.5569831326699
30
0
41
1
10
15.847383091548
20
2.55340948573598
30
0
41
1
10
15.8540270235036
20
2.54901762322564
30
0
41
1
10
15.8618929386789
20
2.54379999230528
30
0
41
1
10
15.870980861907
20
2.53774770977105
30
0
41
1
10
15.8812907852183
20
2.53085053836293
30
0
41
1
10
15.8928227139157
20
2.52309691541151
30
0
41
1
10
15.9055766509812
20
2.51447396657628
30
0
41
1
10
15.9195526022079
20
2.50496752745499
30
0
41
1
10
15.9347505747897
20
2.49456216552559
30
0
41
1
10
15.951170578072
20
2.48324120482775
30
0
41
1
10
15.9688126236956
20
2.47098675261961
30
0
41
1
10
15.9876767259791
20
2.45777972824322
30
0
41
1
10
16.0077629022768
20
2.44359989412715
30
0
41
1
10
16.0290711733858
20
2.42842588894723
30
0
41
1
10
16.0516015639801
20
2.41223526294016
30
0
41
1
10
16.0753541030777
20
2.3950045153691
30
0
41
1
10
16.1003288245398
20
2.37670913415727
30
0
41
1
10
16.1265257675948
20
2.35732363762247
30
0
41
1
10
16.1539449774198
20
2.33682161858985
30
0
41
1
10
16.1825865056558
20
2.3151757897744
30
0
41
1
10
16.2124504113438
20
2.29235803485992
30
0
41
1
10
16.2435367603559
20
2.26833944767407
30
0
41
1
10
16.2758456283419
20
2.2430904313141
30
0
41
1
10
16.3093770456924
20
2.21658060592296
30
0
41
1
10
16.3441310665277
20
2.18877991308469
30
0
41
1
10
16.3801077486999
20
2.15965844454053
30
0
41
1
10
16.4173071177607
20
2.12918600388994
30
0
41
1
10
16.4557291986573
20
2.09733233184164
30
0
41
1
10
16.4953740118118
20
2.06406708608807
30
0
41
1
10
16.5362415738038
20
2.0293602384406
30
0
41
1
10
16.5783318968446
20
1.99318103055489
30
0
41
1
10
16.6216449878106
20
1.95550251893224
30
0
41
1
10
16.666180850425
20
1.91628437165019
30
0
41
1
10
16.711939474771
20
1.8755403084524
30
0
41
1
10
16.7428528251469
20
1.84759952468727
30
0
41
1
10
16.7585133182069
20
1.83344491365602
30
0
0
SPLINE
5
179
100
AcDbEntity
8
1
62
256
6
ByLayer
370
18
48
1
60
0
100
AcDbSpline
70
4
71
3
72
26
73
22
40
0
40
0
40
0
40
0
40
0.0985237931499373
40
0.0985237931499373
40
0.248769827624959
40
0.248769827624959
40
0.286331336243712
40
0.286331336243712
40
0.323892844862465
40
0.399015862099967
40
0.399015862099967
40
0.549261896574976
40
0.549261896574976
40
0.699507931049984
40
0.699507931049984
40
0.737069439668738
40
0.737069439668738
40
0.774630948287491
40
0.849753965524995
40
0.849753965524995
40
1
40
1
40
1
40
1
41
1
10
12.1721029784121
20
2.52962538952269
30
0
41
1
10
12.2614344711027
20
2.5894920400101
30
0
41
1
10
12.3507060592584
20
2.64558500205013
30
0
41
1
10
12.5765301713277
20
2.77753665683426
30
0
41
1
10
12.7132936127713
20
2.84831799252424
30
0
41
1
10
12.8857708548099
20
2.92481088010257
30
0
41
1
10
12.9202773576463
20
2.93947669834259
30
0
41
1
10
12.9890985147194
20
2.96743897401177
30
0
41
1
10
13.0921511672528
20
3.00737895834069
30
0
41
1
10
13.1947829044779
20
3.04135973596919
30
0
41
1
10
13.3997617203311
20
3.10144383594107
30
0
41
1
10
13.5360392339958
20
3.13102573291991
30
0
41
1
10
13.8091083398704
20
3.16897143184607
30
0
41
1
10
13.9458848124653
20
3.17732889655409
30
0
41
1
10
14.1182294832452
20
3.17367470388896
30
0
41
1
10
14.1527602335414
20
3.17223725052261
30
0
41
1
10
14.2215726149599
20
3.16798291785045
30
0
41
1
10
14.3245732015852
20
3.15952973607625
30
0
41
1
10
14.4270475138464
20
3.14497754112048
30
0
41
1
10
14.6316160943019
20
3.10795202537392
30
0
41
1
10
14.7674885353892
20
3.07273713291824
30
0
41
1
10
14.903675076184
20
3.027166562681
30
0
0
SPLINE
5
17A
100
AcDbEntity
8
1
62
256
6
ByLayer
370
18
48
1
60
0
100
AcDbSpline
70
4
71
3
72
13
73
9
40
0
40
0
40
0
40
0
40
0.0746073436436881
40
0.250827662546595
40
0.427047981449502
40
0.603268300352409
40
0.779488619255315
40
1
40
1
40
1
40
1
41
1
10
17.995200059944
20
0.578427060359957
30
0
41
1
10
17.855133373296
20
0.72049166457208
30
0
41
1
10
17.3842333533147
20
1.19091789268424
30
0
41
1
10
16.5825
20
1.92000308179976
30
0
41
1
10
15.59
20
2.60064626540057
30
0
41
1
10
14.5975
20
2.96083016567386
30
0
41
1
10
13.5218486374488
20
2.98061485422022
30
0
41
1
10
12.7770306082309
20
2.68496779848229
30
0
41
1
10
12.3630459123463
20
2.44510771547186
30
0
0
SPLINE
5
17B
100
AcDbEntity
8
1
62
256
6
ByLayer
370
18
48
1
60
0
100
AcDbSpline
70
4
71
3
72
16
73
12
40
0
40
0
40
0
40
0
40
0.249999999999988
40
0.249999999999988
40
0.499999999999975
40
0.499999999999975
40
0.624999999999969
40
0.624999999999969
40
0.749999999999962
40
0.749999999999962
40
1
40
1
40
1
40
1
41
1
10
26.7123479526237
20
3.05443037063532
30
0
41
1
10
26.7415159067974
20
3.0524090213697
30
0
41
1
10
26.7702683769707
20
3.04754733125912
30
0
41
1
10
26.8272745064445
20
3.03289597871705
30
0
41
1
10
26.855534184331
20
3.02314781168874
30
0
41
1
10
26.8977204731516
20
3.00508575499677
30
0
41
1
10
26.9117477307213
20
2.99848645392351
30
0
41
1
10
26.939756282279
20
2.98414517340501
30
0
41
1
10
26.9537591643184
20
2.97639368210389
30
0
41
1
10
26.9954217348031
20
2.95161862783778
30
0
41
1
10
27.0228075621121
20
2.93300124019521
30
0
41
1
10
27.0498983086379
20
2.91237780705791
30
0
0
SPLINE
5
17C
100
AcDbEntity
8
1
62
256
6
ByLayer
370
18
48
1
60
0
100
AcDbSpline
70
4
71
3
72
22
73
18
40
0
40
0
40
0
40
0
40
0.0460987632304051
40
0.0908066381058098
40
0.134123222993509
40
0.176048168711177
40
0.216581182427468
40
0.255722028953699
40
0.293470529968762
40
0.329826561651984
40
0.364790051136017
40
0.398360972134651
40
0.430539340047615
40
0.657035774660379
40
0.829008395728955
40
0.9465075421588
40
1
40
1
40
1
40
1
41
1
10
26.711707090964
20
3.05411907143906
30
0
41
1
10
26.6950276524263
20
3.04896451850823
30
0
41
1
10
26.6621720260935
20
3.03881093542299
30
0
41
1
10
26.6136450336608
20
3.02269370530112
30
0
41
1
10
26.5666287086825
20
3.00631790832611
30
0
41
1
10
26.5211231737585
20
2.98968631219577
30
0
41
1
10
26.4771283963602
20
2.9728977305345
30
0
41
1
10
26.4346443820666
20
2.95602230122805
30
0
41
1
10
26.3936711379665
20
2.9391333754308
30
0
41
1
10
26.3542086357075
20
2.92229957765599
30
0
41
1
10
26.3162569829097
20
2.90558655128831
30
0
41
1
10
26.279815808595
20
2.88905784416022
30
0
41
1
10
26.1740723241374
20
2.83974995981509
30
0
41
1
10
26.0181680952539
20
2.75949108525163
30
0
41
1
10
25.8313350311583
20
2.64992284173857
30
0
41
1
10
25.707113366375
20
2.57076961137815
30
0
41
1
10
25.6451688773151
20
2.52956021555792
30
0
41
1
10
25.6257880334142
20
2.51650780329385
30
0
0
SPLINE
5
17D
100
AcDbEntity
8
1
62
256
6
ByLayer
370
18
48
1
60
0
100
AcDbSpline
70
4
71
3
72
33
73
29
40
0
40
0
40
0
40
0
40
0.15627018411557
40
0.224244398182977
40
0.317133107152543
40
0.434923094411019
40
0.577584942755501
40
0.600208246793815
40
0.62258018951266
40
0.644700817967387
40
0.666570189737321
40
0.688188372328057
40
0.709555442529099
40
0.730671485733722
40
0.751536595227316
40
0.772150871450445
40
0.792514421242151
40
0.812627357069002
40
0.832489796244873
40
0.85210186014627
40
0.871463673427509
40
0.890575363240067
40
0.909437058459808
40
0.928048888925782
40
0.946410984473474
40
0.964523467351886
40
0.982386442864239
40
1
40
1
40
1
40
1
41
1
10
18.9572550392525
20
-3.1387741600584
30
0
41
1
10
18.8798857470028
20
-3.15169305542943
30
0
41
1
10
18.7688747840006
20
-3.16534632951496
30
0
41
1
10
18.6119495885802
20
-3.17460770235181
30
0
41
1
10
18.4740677342373
20
-3.17636528558705
30
0
41
1
10
18.2992215357064
20
-3.16813546181595
30
0
41
1
10
18.1590921489849
20
-3.15117082158392
30
0
41
1
10
18.0661973638273
20
-3.1355769973419
30
0
41
1
10
18.0329701808813
20
-3.12958294597072
30
0
41
1
10
18.0001139411926
20
-3.12324699556754
30
0
41
1
10
17.9676284170161
20
-3.11658349346109
30
0
41
1
10
17.9355136688228
20
-3.10960605605581
30
0
41
1
10
17.9037696812022
20
-3.10232829218083
30
0
41
1
10
17.872396458762
20
-3.09476361275046
30
0
41
1
10
17.8413940008666
20
-3.08692528108793
30
0
41
1
10
17.8107623082844
20
-3.07882639984174
30
0
41
1
10
17.7805013814328
20
-3.07047991468849
30
0
41
1
10
17.7506112208354
20
-3.06189861326084
30
0
41
1
10
17.7210918269985
20
-3.05309512661714
30
0
41
1
10
17.6919432004375
20
-3.04408192531705
30
0
41
1
10
17.6631653416724
20
-3.03487133419949
30
0
41
1
10
17.6347582512045
20
-3.02547547895003
30
0
41
1
10
17.6067219295956
20
-3.01590648223481
30
0
41
1
10
17.5790563772752
20
-3.00617574668027
30
0
41
1
10
17.5517615991381
20
-2.99629657971349
30
0
41
1
10
17.5248376064111
20
-2.98627570857107
30
0
41
1
10
17.4982843859639
20
-2.97614950497601
30
0
41
1
10
17.4807058877373
20
-2.96923151848444
30
0
41
1
10
17.471978431592
20
-2.96579684375053
30
0
0
SPLINE
5
17E
100
AcDbEntity
8
1
62
256
6
ByLayer
370
18
48
1
60
0
100
AcDbSpline
70
4
71
3
72
30
73
26
40
0
40
0
40
0
40
0
40
0.051070927207238
40
0.101451872960976
40
0.151143005875549
40
0.200144426640585
40
0.248456177134283
40
0.296078248731358
40
0.343010589856666
40
0.389253112833354
40
0.434805700072156
40
0.479668209646742
40
0.523840480297626
40
0.567322335905366
40
0.610113589471754
40
0.652214046645764
40
0.693623508829174
40
0.734341775895023
40
0.774368648549981
40
0.813703930370541
40
0.852347429540779
40
0.890298960317943
40
0.927558344250817
40
0.964125411174007
40
1
40
1
40
1
40
1
41
1
10
17.4719784315915
20
-2.96579684375229
30
0
41
1
10
17.4598245876034
20
-2.96093226752433
30
0
41
1
10
17.4356811012071
20
-2.95126883675314
30
0
41
1
10
17.3997146493913
20
-2.93625530201931
30
0
41
1
10
17.3642427185676
20
-2.92101409816072
30
0
41
1
10
17.3292654670825
20
-2.90552413747292
30
0
41
1
10
17.2947828498752
20
-2.88981955899817
30
0
41
1
10
17.2607948755737
20
-2.87391928620184
30
0
41
1
10
17.2273015390119
20
-2.85784552463861
30
0
41
1
10
17.1943028389134
20
-2.84161892284027
30
0
41
1
10
17.1617987732357
20
-2.82525985443922
30
0
41
1
10
17.1297893403738
20
-2.80878809495147
30
0
41
1
10
17.0982745388274
20
-2.79222291917694
30
0
41
1
10
17.0672543672729
20
-2.77558308827744
30
0
41
1
10
17.0367288245298
20
-2.7588868652272
30
0
41
1
10
17.0066979095517
20
-2.74215202388146
30
0
41
1
10
16.9771616214283
20
-2.72539585502088
30
0
41
1
10
16.9481199593235
20
-2.70863518940246
30
0
41
1
10
16.9195729226568
20
-2.69188635647655
30
0
41
1
10
16.8915205103978
20
-2.67516537688096
30
0
41
1
10
16.8639627235912
20
-2.65848730414217
30
0
41
1
10
16.8368995561417
20
-2.64186865761596
30
0
41
1
10
16.8103310282464
20
-2.62531862618346
30
0
41
1
10
16.7842570649969
20
-2.60887103950796
30
0
41
1
10
16.7670397061729
20
-2.59783039745787
30
0
41
1
10
16.7585133181149
20
-2.59236284581476
30
0
0
SPLINE
5
17F
100
AcDbEntity
8
1
62
256
6
ByLayer
370
18
48
1
60
0
100
AcDbSpline
70
4
71
3
72
38
73
34
40
0
40
0
40
0
40
0
40
0.0275767527072907
40
0.0539370591688588
40
0.0790805763223688
40
0.103007032978078
40
0.125716226283108
40
0.147208016429193
40
0.167482320320232
40
0.186539104560374
40
0.204378378244274
40
0.221000185882704
40
0.236404600708944
40
0.25059171854407
40
0.311826020335782
40
0.373716414008132
40
0.436262026023624
40
0.499463258900382
40
0.559162084412663
40
0.620828229908735
40
0.684468847987265
40
0.750092817649671
40
0.781717599075141
40
0.811562859847347
40
0.839628094235016
40
0.865912716250044
40
0.890416112289741
40
0.913137678182265
40
0.934076844054531
40
0.953233089870863
40
0.970605953990873
40
0.986195036662777
40
1
40
1
40
1
40
1
41
1
10
16.7585133181149
20
-2.59236284581476
30
0
41
1
10
16.7414772195127
20
-2.58131955594055
30
0
41
1
10
16.708156506662
20
-2.55972010999832
30
0
41
1
10
16.6593050966599
20
-2.5270844967589
30
0
41
1
10
16.6127095640061
20
-2.49532647987789
30
0
41
1
10
16.5683700981838
20
-2.46448181777234
30
0
41
1
10
16.5262866553236
20
-2.43466435346485
30
0
41
1
10
16.4864592515631
20
-2.40596002139668
30
0
41
1
10
16.4488878865316
20
-2.37845359363138
30
0
41
1
10
16.4135725722653
20
-2.35222231398998
30
0
41
1
10
16.3805132899627
20
-2.32733800082659
30
0
41
1
10
16.3497101206493
20
-2.30386608387201
30
0
41
1
10
16.3211628091496
20
-2.28186859632979
30
0
41
1
10
16.2650588823664
20
-2.23817907095736
30
0
41
1
10
16.1802237135865
20
-2.1705132754457
30
0
41
1
10
16.0654755632043
20
-2.07566366503335
30
0
41
1
10
15.9494735004582
20
-1.97648734805278
30
0
41
1
10
15.8347919646956
20
-1.87526752369323
30
0
41
1
10
15.7206184697422
20
-1.77160463792552
30
0
41
1
10
15.6061378966339
20
-1.66496886729141
30
0
41
1
10
15.4879746064642
20
-1.55210521261321
30
0
41
1
10
15.3884001948497
20
-1.45473858345835
30
0
41
1
10
15.3097555246447
20
-1.376576674912
30
0
41
1
10
15.2543593903623
20
-1.32096253292417
30
0
41
1
10
15.2022740367061
20
-1.2682039431763
30
0
41
1
10
15.1534994746075
20
-1.21840323719616
30
0
41
1
10
15.10803565964
20
-1.17165239562178
30
0
41
1
10
15.0658825711365
20
-1.1280320485117
30
0
41
1
10
15.0270402014112
20
-1.08761255488068
30
0
41
1
10
14.9915085176542
20
-1.05045634799922
30
0
41
1
10
14.9592875930518
20
-1.01661380329719
30
0
41
1
10
14.9303771741343
20
-0.986140191421356
30
0
41
1
10
14.912208176539
20
-0.966909504423057
30
0
41
1
10
14.9036750761417
20
-0.957877779805131
30
0
0
SPLINE
5
180
100
AcDbEntity
8
1
62
256
6
ByLayer
370
18
48
1
60
0
100
AcDbSpline
70
4
71
3
72
28
73
24
40
0
40
0
40
0
40
0
40
0.124999999999993
40
0.124999999999993
40
0.18749999999999
40
0.21874999999999
40
0.21874999999999
40
0.249999999999989
40
0.249999999999989
40
0.374999999999991
40
0.374999999999991
40
0.499999999999993
40
0.499999999999993
40
0.562499999999994
40
0.593749999999994
40
0.593749999999994
40
0.624999999999994
40
0.624999999999994
40
0.749999999999996
40
0.749999999999996
40
0.874999999999998
40
0.874999999999998
40
1
40
1
40
1
40
1
41
1
10
14.9036750761418
20
-0.957877779805131
30
0
41
1
10
14.7674885353488
20
-0.813604144741618
30
0
41
1
10
14.6316160942632
20
-0.666294428031364
30
0
41
1
10
14.4270475138102
20
-0.441862442983705
30
0
41
1
10
14.3245732015502
20
-0.328776631605905
30
0
41
1
10
14.2215726149261
20
-0.214570836982404
30
0
41
1
10
14.1527602335084
20
-0.138204583245795
30
0
41
1
10
14.1182294832126
20
-0.0998492271089617
30
0
41
1
10
13.9458848124352
20
0.0916222109292164
30
0
41
1
10
13.8091083398421
20
0.243670036113087
30
0
41
1
10
13.536039233971
20
0.544174686135904
30
0
41
1
10
13.3997617203081
20
0.692646696866973
30
0
41
1
10
13.1947829044576
20
0.911846053507702
30
0
41
1
10
13.0921511672338
20
1.02056492555999
30
0
41
1
10
12.9890985147016
20
1.12776107172067
30
0
41
1
10
12.9202773576294
20
1.19886072223372
30
0
41
1
10
12.8857708547934
20
1.23426521187952
30
0
41
1
10
12.7132936127571
20
1.40988543220604
30
0
41
1
10
12.5765301713153
20
1.54485412308637
30
0
41
1
10
12.3037545083602
20
1.80282463187672
30
0
41
1
10
12.1677496757042
20
1.92583099101381
30
0
41
1
10
11.8949129941168
20
2.15841570250419
30
0
41
1
10
11.7580845029584
20
2.26793321000119
30
0
41
1
10
11.62
20
2.36982484356744
30
0
0
SPLINE
5
181
100
AcDbEntity
8
1
62
256
6
ByLayer
370
18
48
1
60
0
100
AcDbSpline
70
4
71
3
72
8
73
4
40
0
40
0
40
0
40
0
40
1
40
1
40
1
40
1
41
1
10
27.0498983086405
20
2.91237780711398
30
0
41
1
10
26.6301569104997
20
2.83708503978247
30
0
41
1
10
26.210415512359
20
2.66796048735674
30
0
41
1
10
25.7906741142182
20
2.41988181160687
30
0
0
SPLINE
5
182
100
AcDbEntity
8
1
62
256
6
ByLayer
370
18
48
1
60
0
100
AcDbSpline
70
4
71
3
72
8
73
4
40
0
40
0
40
0
40
0
40
1
40
1
40
1
40
1
41
1
10
13.5034122098141
20
0.579166291970949
30
0
41
1
10
12.875608139876
20
1.21467578479204
30
0
41
1
10
12.247804069938
20
1.80750656818455
30
0
41
1
10
11.62
20
2.23325068315842
30
0
0
SPLINE
5
183
100
AcDbEntity
8
1
62
256
6
ByLayer
370
18
48
1
60
0
100
AcDbSpline
70
4
71
1
72
4
73
2
40
0
40
0
40
1
40
1
41
1
10
27.1255698686222
20
1.69119925195227
30
0
41
1
10
26.8361392529531
20
1.88198744297986
30
0
0
SPLINE
5
184
100
AcDbEntity
8
1
62
256
6
ByLayer
370
18
48
1
60
0
100
AcDbSpline
70
4
71
3
72
9
73
5
40
0
40
0
40
0
40
0
40
0.799187877689516
40
1
40
1
40
1
40
1
41
1
10
16.0299864398182
20
-2.65390661685478
30
0
41
1
10
16.1872307075569
20
-2.60878139966459
30
0
41
1
10
16.3834256516768
20
-2.55547143751755
30
0
41
1
10
16.5797975615775
20
-2.50559240772134
30
0
41
1
10
16.6191967585967
20
-2.49573899042329
30
0
0
SPLINE
5
185
100
AcDbEntity
8
1
62
256
6
ByLayer
370
18
48
1
60
0
100
AcDbSpline
70
4
71
3
72
11
73
7
40
0
40
0
40
0
40
0
40
0.322842836344945
40
0.517465383073856
40
0.712630805136029
40
1
40
1
40
1
40
1
41
1
10
23.5804667252365
20
1.07889737175614
30
0
41
1
10
23.4555555041094
20
1.15716030906515
30
0
41
1
10
23.2553401606752
20
1.28446282957327
30
0
41
1
10
22.9796586270284
20
1.46441506628992
30
0
41
1
10
22.7175965925742
20
1.63733510242724
30
0
41
1
10
22.5308344833908
20
1.76078420605287
30
0
41
1
10
22.4195956884806
20
1.83453434571811
30
0
0
SPLINE
5
186
100
AcDbEntity
8
1
62
256
6
ByLayer
370
18
48
1
60
0
100
AcDbSpline
70
4
71
1
72
4
73
2
40
0
40
0
40
1
40
1
41
1
10
22.4195956884806
20
1.83453434571811
30
0
41
1
10
22.3739629015466
20
1.86471733558238
30
0
0
SPLINE
5
187
100
AcDbEntity
8
1
62
256
6
ByLayer
370
18
48
1
60
0
100
AcDbSpline
70
4
71
3
72
13
73
9
40
0
40
0
40
0
40
0
40
0.265892901089238
40
0.48087478901642
40
0.645012801539506
40
0.758827643815913
40
0.920808352341211
40
1
40
1
40
1
40
1
41
1
10
13.7076886887643
20
2.2064220253485
30
0
41
1
10
13.5817090878383
20
2.21974251274966
30
0
41
1
10
13.3534259239771
20
2.24839431247415
30
0
41
1
10
13.0463548133499
20
2.2979533895724
30
0
41
1
10
12.810745020032
20
2.34241028143529
30
0
41
1
10
12.5984540777591
20
2.38631594308609
30
0
41
1
10
12.4260062991333
20
2.42452027327408
30
0
41
1
10
12.309127013638
20
2.45172529877982
30
0
41
1
10
12.2707761906929
20
2.46076776058982
30
0
0
SPLINE
5
188
100
AcDbEntity
8
1
62
256
6
ByLayer
370
18
48
1
60
0
100
AcDbSpline
70
4
71
2
72
6
73
3
40
0
40
0
40
0
40
1
40
1
40
1
41
1
10
20.5210097577029
20
-2.65420634184565
30
0
41
1
10
20.7422892499247
20
-2.58841188082019
30
0
41
1
10
20.9622166425566
20
-2.53347725179665
30
0
0
SPLINE
5
189
100
AcDbEntity
8
1
62
256
6
ByLayer
370
18
48
1
60
0
100
AcDbSpline
70
4
71
3
72
9
73
5
40
0
40
0
40
0
40
0
40
0.84460905520671
40
1
40
1
40
1
40
1
41
1
10
11.62
20
-2.6223996143666
30
0
41
1
10
11.7636634151453
20
-2.58499113434482
30
0
41
1
10
11.9341876832536
20
-2.54210714944321
30
0
41
1
10
12.1051809235484
20
-2.50044354207358
30
0
41
1
10
12.1317638065747
20
-2.49400734750566
30
0
0
SPLINE
5
18A
100
AcDbEntity
8
1
62
256
6
ByLayer
370
18
48
1
60
0
100
AcDbSpline
70
4
71
3
72
12
73
8
40
0
40
0
40
0
40
0
40
0.28642522436264
40
0.509306774020884
40
0.668520568239698
40
0.775163046775288
40
1
40
1
40
1
40
1
41
1
10
18.1999887371125
20
2.20649844217562
30
0
41
1
10
18.06182085767
20
2.22140656224025
30
0
41
1
10
17.8161850682965
20
2.25288721416212
30
0
41
1
10
17.4939548749267
20
2.30610074153756
30
0
41
1
10
17.2583372737654
20
2.35100798818087
30
0
41
1
10
17.0217067190275
20
2.40020762676753
30
0
41
1
10
16.8618909869003
20
2.43683099538023
30
0
41
1
10
16.7534628209606
20
2.46289229656591
30
0
0
SPLINE
5
18B
100
AcDbEntity
8
1
62
256
6
ByLayer
370
18
48
1
60
0
100
AcDbSpline
70
4
71
2
72
6
73
3
40
0
40
0
40
0
40
1
40
1
40
1
41
1
10
25.0120522634521
20
-2.65373281190429
30
0
41
1
10
25.2293411988947
20
-2.58985401537686
30
0
41
1
10
25.4453873146173
20
-2.53561552923335
30
0
0
SPLINE
5
18C
100
AcDbEntity
8
1
62
256
6
ByLayer
370
18
48
1
60
0
100
AcDbSpline
70
4
71
1
72
4
73
2
40
0
40
0
40
1
40
1
41
1
10
11.2867238872057
20
-2.73225685308745
30
0
41
1
10
11.62
20
-2.6216279200147
30
0
0
SPLINE
5
18D
100
AcDbEntity
8
1
62
256
6
ByLayer
370
18
48
1
60
0
100
AcDbSpline
70
4
71
2
72
6
73
3
40
0
40
0
40
0
40
1
40
1
40
1
41
1
10
24.4601513777361
20
2.97173135735199
30
0
41
1
10
23.9582611182393
20
3.05144154466169
30
0
41
1
10
23.4561392924903
20
3.13664966066858
30
0
0
SPLINE
5
18E
100
AcDbEntity
8
1
62
256
6
ByLayer
370
18
48
1
60
0
100
AcDbSpline
70
4
71
2
72
6
73
3
40
0
40
0
40
0
40
1
40
1
40
1
41
1
10
14.4725731940339
20
-3.13663946096006
30
0
41
1
10
14.9837705286719
20
-3.04577361739442
30
0
41
1
10
15.4923426727111
20
-2.96326182606097
30
0
0
SPLINE
5
18F
100
AcDbEntity
8
1
62
256
6
ByLayer
370
18
48
1
60
0
100
AcDbSpline
70
4
71
2
72
6
73
3
40
0
40
0
40
0
40
1
40
1
40
1
41
1
10
22.4856582075234
20
0.577963970331695
30
0
41
1
10
22.4856653386127
20
0.577945654062319
30
0
41
1
10
22.485672469702
20
0.577926203576482
30
0
0
SPLINE
5
190
100
AcDbEntity
8
1
62
256
6
ByLayer
370
18
48
1
60
0
100
AcDbSpline
70
4
71
2
72
6
73
3
40
0
40
0
40
0
40
1
40
1
40
1
41
1
10
13.9682007518623
20
1.08583372843208
30
0
41
1
10
13.9681963118897
20
1.08584574227163
30
0
41
1
10
13.9681918719171
20
1.08585826415961
30
0
0
SPLINE
5
191
100
AcDbEntity
8
1
62
256
6
ByLayer
370
18
48
1
60
0
100
AcDbSpline
70
4
71
2
72
6
73
3
40
0
40
0
40
0
40
1
40
1
40
1
41
1
10
15.4923426727114
20
2.96326182606083
30
0
41
1
10
14.9824947578254
20
3.0453939720343
30
0
41
1
10
14.4725731940339
20
3.13663946095994
30
0
0
SPLINE
5
192
100
AcDbEntity
8
1
62
256
6
ByLayer
370
18
48
1
60
0
100
AcDbSpline
70
4
71
2
72
6
73
3
40
0
40
0
40
0
40
1
40
1
40
1
41
1
10
23.4561392924903
20
-3.13664966066872
30
0
41
1
10
23.9582611182393
20
-3.05144154466183
30
0
41
1
10
24.4601513777363
20
-2.97173135735213
30
0
0
SPLINE
5
193
100
AcDbEntity
8
1
62
256
6
ByLayer
370
18
48
1
60
0
100
AcDbSpline
70
4
71
1
72
4
73
2
40
0
40
0
40
1
40
1
41
1
10
11.2198644949639
20
2.92085233025426
30
0
41
1
10
11.0851187674271
20
2.9449743090384
30
0
0
SPLINE
5
194
100
AcDbEntity
8
1
62
256
6
ByLayer
370
18
48
1
60
0
100
AcDbSpline
70
4
71
2
72
6
73
3
40
0
40
0
40
0
40
1
40
1
40
1
41
1
10
18.9562599632035
20
-3.13883707579387
30
0
41
1
10
19.4636676450802
20
-3.05500402387238
30
0
41
1
10
19.9702437684075
20
-2.97237819105607
30
0
0
SPLINE
5
195
100
AcDbEntity
8
1
62
256
6
ByLayer
370
18
48
1
60
0
100
AcDbSpline
70
4
71
2
72
6
73
3
40
0
40
0
40
0
40
1
40
1
40
1
41
1
10
19.9702437684072
20
2.97237819105598
30
0
41
1
10
19.4637062224346
20
3.05527795258152
30
0
41
1
10
18.9562599632036
20
3.13883707579373
30
0
0
SPLINE
5
196
100
AcDbEntity
8
1
62
256
6
ByLayer
370
18
48
1
60
0
100
AcDbSpline
70
4
71
1
72
4
73
2
40
0
40
0
40
1
40
1
41
1
10
11.1492284281799
20
-2.93349749337381
30
0
41
1
10
11.2198644949637
20
-2.92085233025432
30
0
0
LINE
5
7F
100
AcDbEntity
8
SK4
62
256
6
ByLayer
370
18
48
0.05
60
0
100
AcDbLine
10
-36
20
0
30
0
11
27.5
21
0
31
0
39
0
210
0
220
0
230
1
0
LINE
5
81
100
AcDbEntity
8
81
62
256
6
ByLayer
370
18
48
1
60
0
100
AcDbLine
10
27.5
20
0
30
0
11
32.5
21
0
31
0
39
0
210
0
220
0
230
1
0
LINE
5
82
100
AcDbEntity
8
4
62
256
6
ByLayer
370
18
48
0.05
60
0
100
AcDbLine
10
0
20
0
30
0
11
27.5
21
0
31
0
39
0
210
0
220
0
230
1
0
LINE
5
84
100
AcDbEntity
8
80
62
256
6
ByLayer
370
18
48
1
60
0
100
AcDbLine
10
0
20
0
30
0
11
-5
21
0
31
0
39
0
210
0
220
0
230
1
0
LINE
5
85
100
AcDbEntity
8
1
62
256
6
ByLayer
370
18
48
1
60
0
100
AcDbLine
10
0
20
3.175
30
0
11
0
21
0
31
0
39
0
210
0
220
0
230
1
0
LINE
5
86
100
AcDbEntity
8
1
62
256
6
ByLayer
370
18
48
1
60
0
100
AcDbLine
10
0
20
0
30
0
11
0
21
-3.175
31
0
39
0
210
0
220
0
230
1
0
LINE
5
87
100
AcDbEntity
8
1
62
256
6
ByLayer
370
18
48
1
60
0
100
AcDbLine
10
27.473676
20
-0.155892
30
0
11
27.474082
21
-0.152708
31
0
39
0
210
0
220
0
230
1
0
LINE
5
88
100
AcDbEntity
8
1
62
256
6
ByLayer
370
18
48
1
60
0
100
AcDbLine
10
27.474082
20
-0.152708
30
0
11
27.44569
21
-0.022115
31
0
39
0
210
0
220
0
230
1
0
LINE
5
89
100
AcDbEntity
8
1
62
256
6
ByLayer
370
18
48
1
60
0
100
AcDbLine
10
27.444018
20
-0.014423
30
0
11
27.440989
21
-0.000493
31
0
39
0
210
0
220
0
230
1
0
LINE
5
8A
100
AcDbEntity
8
1
62
256
6
ByLayer
370
18
48
1
60
0
100
AcDbLine
10
27.43719
20
-0.011234
30
0
11
27.436902
21
-0.014244
31
0
39
0
210
0
220
0
230
1
0
LINE
5
8B
100
AcDbEntity
8
1
62
256
6
ByLayer
370
18
48
1
60
0
100
AcDbLine
10
27.436079
20
-0.022859
30
0
11
27.418255
21
-0.209303
31
0
39
0
210
0
220
0
230
1
0
LINE
5
8C
100
AcDbEntity
8
1
62
256
6
ByLayer
370
18
48
1
60
0
100
AcDbLine
10
27.5
20
0.016445
30
0
11
27.5
21
0.015267
31
0
39
0
210
0
220
0
230
1
0
LINE
5
8D
100
AcDbEntity
8
1
62
256
6
ByLayer
370
18
48
1
60
0
100
AcDbLine
10
27.444458
20
0.016445
30
0
11
27.5
21
0.016445
31
0
39
0
210
0
220
0
230
1
0
LINE
5
8E
100
AcDbEntity
8
1
62
256
6
ByLayer
370
18
48
1
60
0
100
AcDbLine
10
27.5
20
0.019687
30
0
11
27.5
21
0.016445
31
0
39
0
210
0
220
0
230
1
0
LINE
5
8F
100
AcDbEntity
8
1
62
256
6
ByLayer
370
18
48
1
60
0
100
AcDbLine
10
27.474082
20
2.294107
30
0
11
27.427864
21
0.59434
31
0
39
0
210
0
220
0
230
1
0
LINE
5
90
100
AcDbEntity
8
1
62
256
6
ByLayer
370
18
48
1
60
0
100
AcDbLine
10
27.457618
20
2.288413
30
0
11
27.474082
21
2.294107
31
0
39
0
210
0
220
0
230
1
0
LINE
5
91
100
AcDbEntity
8
1
62
256
6
ByLayer
370
18
48
1
60
0
100
AcDbLine
10
27.5
20
-0.015267
30
0
11
27.5
21
-0.019687
31
0
39
0
210
0
220
0
230
1
0
LINE
5
92
100
AcDbEntity
8
1
62
256
6
ByLayer
370
18
48
1
60
0
100
AcDbLine
10
27.473676
20
-2.29342
30
0
11
27.474082
21
-2.294107
31
0
39
0
210
0
220
0
230
1
0
LINE
5
93
100
AcDbEntity
8
1
62
256
6
ByLayer
370
18
48
1
60
0
100
AcDbLine
10
27.474082
20
-2.294107
30
0
11
27.420953
21
-0.340176
31
0
39
0
210
0
220
0
230
1
0
LINE
5
94
100
AcDbEntity
8
1
62
256
6
ByLayer
370
18
48
1
60
0
100
AcDbLine
10
27.396821
20
-0.037774
30
0
11
27.399928
21
-0.02845
31
0
39
0
210
0
220
0
230
1
0
LINE
5
95
100
AcDbEntity
8
1
62
256
6
ByLayer
370
18
48
1
60
0
100
AcDbLine
10
27.395823
20
-0.036713
30
0
11
27.396821
21
-0.037774
31
0
39
0
210
0
220
0
230
1
0
LINE
5
96
100
AcDbEntity
8
1
62
256
6
ByLayer
370
18
48
1
60
0
100
AcDbLine
10
27.395823
20
-0.031549
30
0
11
27.395823
21
-0.036713
31
0
39
0
210
0
220
0
230
1
0
LINE
5
97
100
AcDbEntity
8
1
62
256
6
ByLayer
370
13
48
1
60
0
100
AcDbLine
10
27.038746
20
-3.085123
30
0
11
27.022831
21
-3.050144
31
0
39
0
210
0
220
0
230
1
0
LINE
5
98
100
AcDbEntity
8
1
62
256
6
ByLayer
370
18
48
1
60
0
100
AcDbLine
10
27.357341
20
-0.611287
30
0
11
27.351558
21
-0.644018
31
0
39
0
210
0
220
0
230
1
0
LINE
5
99
100
AcDbEntity
8
1
62
256
6
ByLayer
370
18
48
1
60
0
100
AcDbLine
10
27.396171
20
-2.375087
30
0
11
27.351558
21
-0.644018
31
0
39
0
210
0
220
0
230
1
0
LINE
5
9A
100
AcDbEntity
8
1
62
256
6
ByLayer
370
18
48
1
60
0
100
AcDbLine
10
27.351558
20
-0.644018
30
0
11
27.095397
21
-0.866935
31
0
39
0
210
0
220
0
230
1
0
LINE
5
9B
100
AcDbEntity
8
1
62
256
6
ByLayer
370
13
48
1
60
0
100
AcDbLine
10
27.357341
20
-0.611287
30
0
11
26.725846
21
-0.314151
31
0
39
0
210
0
220
0
230
1
0
LINE
5
9C
100
AcDbEntity
8
1
62
256
6
ByLayer
370
18
48
1
60
0
100
AcDbLine
10
27.473676
20
0.155892
30
0
11
27.474082
21
0.152708
31
0
39
0
210
0
220
0
230
1
0
LINE
5
9D
100
AcDbEntity
8
1
62
256
6
ByLayer
370
18
48
1
60
0
100
AcDbLine
10
27.457618
20
0.155945
30
0
11
27.474082
21
0.152708
31
0
39
0
210
0
220
0
230
1
0
LINE
5
9E
100
AcDbEntity
8
1
62
256
6
ByLayer
370
13
48
1
60
0
100
AcDbLine
10
26.920804
20
0.245254
30
0
11
27.440989
21
0.000493
31
0
39
0
210
0
220
0
230
1
0
LINE
5
9F
100
AcDbEntity
8
1
62
256
6
ByLayer
370
18
48
1
60
0
100
AcDbLine
10
27.474082
20
0.152708
30
0
11
27.440989
21
0.000493
31
0
39
0
210
0
220
0
230
1
0
LINE
5
A0
100
AcDbEntity
8
1
62
256
6
ByLayer
370
18
48
1
60
0
100
AcDbLine
10
11.62
20
-2.630647
30
0
11
11.62
21
-2.633683
31
0
39
0
210
0
220
0
230
1
0
LINE
5
A1
100
AcDbEntity
8
1
62
256
6
ByLayer
370
13
48
1
60
0
100
AcDbLine
10
10.836163
20
2.722106
30
0
11
10.836163
21
3.001101
31
0
39
0
210
0
220
0
230
1
0
LINE
5
A2
100
AcDbEntity
8
1
62
256
6
ByLayer
370
13
48
1
60
0
100
AcDbLine
10
10.836163
20
-1.296289
30
0
11
10.836163
21
-0.289172
31
0
39
0
210
0
220
0
230
1
0
LINE
5
A3
100
AcDbEntity
8
1
62
256
6
ByLayer
370
13
48
1
60
0
100
AcDbLine
10
27.038746
20
0.613231
30
0
11
27.022831
21
0.739361
31
0
39
0
210
0
220
0
230
1
0
LINE
5
A4
100
AcDbEntity
8
1
62
256
6
ByLayer
370
13
48
1
60
0
100
AcDbLine
10
11.62
20
-1.008727
30
0
11
11.62
21
-1.114078
31
0
39
0
210
0
220
0
230
1
0
LINE
5
A5
100
AcDbEntity
8
1
62
256
6
ByLayer
370
13
48
1
60
0
100
AcDbLine
10
5.236168
20
-3.015
30
0
11
5.236168
21
0
31
0
39
0
210
0
220
0
230
1
0
LINE
5
A6
100
AcDbEntity
8
1
62
256
6
ByLayer
370
13
48
1
60
0
100
AcDbLine
10
5.236168
20
0
30
0
11
5.236168
21
3.015
31
0
39
0
210
0
220
0
230
1
0
LINE
5
A7
100
AcDbEntity
8
1
62
256
6
ByLayer
370
18
48
1
60
0
100
AcDbLine
10
4.452331
20
3.175
30
0
11
4.452331
21
0
31
0
39
0
210
0
220
0
230
1
0
LINE
5
A8
100
AcDbEntity
8
1
62
256
6
ByLayer
370
18
48
1
60
0
100
AcDbLine
10
4.452331
20
0
30
0
11
4.452331
21
-3.175
31
0
39
0
210
0
220
0
230
1
0
LINE
5
A9
100
AcDbEntity
8
1
62
256
6
ByLayer
370
13
48
1
60
0
100
AcDbLine
10
11.62
20
-2.681289
30
0
11
11.62
21
-2.794692
31
0
39
0
210
0
220
0
230
1
0
LINE
5
AA
100
AcDbEntity
8
1
62
256
6
ByLayer
370
18
48
1
60
0
100
AcDbLine
10
11.62
20
2.369369
30
0
11
11.62
21
2.369825
31
0
39
0
210
0
220
0
230
1
0
LINE
5
AB
100
AcDbEntity
8
1
62
256
6
ByLayer
370
13
48
1
60
0
100
AcDbLine
10
11.62
20
2.369369
30
0
11
11.62
21
2.233251
31
0
39
0
210
0
220
0
230
1
0
LINE
5
AC
100
AcDbEntity
8
SK1
62
256
6
ByLayer
370
18
48
1
60
0
100
AcDbLine
10
-36
20
-2.775
30
0
11
-36
21
2.775
31
0
39
0
210
0
220
0
230
1
0
LINE
5
AE
100
AcDbEntity
8
SK1
62
256
6
ByLayer
370
18
48
1
60
0
100
AcDbLine
10
0
20
3.175
30
0
11
0
21
0
31
0
39
0
210
0
220
0
230
1
0
LINE
5
AF
100
AcDbEntity
8
SK1
62
256
6
ByLayer
370
18
48
1
60
0
100
AcDbLine
10
0
20
0
30
0
11
0
21
-3.175
31
0
39
0
210
0
220
0
230
1
0
LINE
5
B0
100
AcDbEntity
8
SK1
62
256
6
ByLayer
370
18
48
1
60
0
100
AcDbLine
10
-35.6
20
3.175
30
0
11
-35.6
21
-3.175
31
0
39
0
210
0
220
0
230
1
0
LINE
5
B1
100
AcDbEntity
8
SK1
62
256
6
ByLayer
370
18
48
1
60
0
100
AcDbLine
10
-20.6
20
1.925
30
0
11
-21.85
21
3.175
31
0
39
0
210
0
220
0
230
1
0
LINE
5
B2
100
AcDbEntity
8
SK1
62
256
6
ByLayer
370
18
48
1
60
0
100
AcDbLine
10
-16.4
20
1.925
30
0
11
-15.15
21
3.175
31
0
39
0
210
0
220
0
230
1
0
LINE
5
B3
100
AcDbEntity
8
SK1
62
256
6
ByLayer
370
18
48
1
60
0
100
AcDbLine
10
-20.6
20
1.925
30
0
11
-16.4
21
1.925
31
0
39
0
210
0
220
0
230
1
0
LINE
5
B4
100
AcDbEntity
8
1
62
256
6
ByLayer
370
18
48
1
60
0
100
AcDbLine
10
4.452331
20
3.175
30
0
11
0
21
3.175
31
0
39
0
210
0
220
0
230
1
0
LINE
5
B5
100
AcDbEntity
8
1
62
256
6
ByLayer
370
18
48
1
60
0
100
AcDbLine
10
0
20
-3.175
30
0
11
4.452331
21
-3.175
31
0
39
0
210
0
220
0
230
1
0
LINE
5
B6
100
AcDbEntity
8
1
62
256
6
ByLayer
370
18
48
1
60
0
100
AcDbLine
10
10.575549
20
3.015
30
0
11
5.236168
21
3.015
31
0
39
0
210
0
220
0
230
1
0
LINE
5
B7
100
AcDbEntity
8
1
62
256
6
ByLayer
370
18
48
1
60
0
100
AcDbLine
10
5.236168
20
-3.015
30
0
11
10.575549
21
-3.015
31
0
39
0
210
0
220
0
230
1
0
LINE
5
B8
100
AcDbEntity
8
SK1
62
256
6
ByLayer
370
18
48
1
60
0
100
AcDbLine
10
-36
20
-2.775
30
0
11
-35.6
21
-3.175
31
0
39
0
210
0
220
0
230
1
0
LINE
5
B9
100
AcDbEntity
8
SK1
62
256
6
ByLayer
370
18
48
1
60
0
100
AcDbLine
10
-35.6
20
3.175
30
0
11
-36
21
2.775
31
0
39
0
210
0
220
0
230
1
0
LINE
5
BA
100
AcDbEntity
8
SK1
62
256
6
ByLayer
370
18
48
1
60
0
100
AcDbLine
10
0
20
3.175
30
0
11
-15.15
21
3.175
31
0
39
0
210
0
220
0
230
1
0
LINE
5
BB
100
AcDbEntity
8
SK1
62
256
6
ByLayer
370
18
48
1
60
0
100
AcDbLine
10
-21.85
20
3.175
30
0
11
-35.6
21
3.175
31
0
39
0
210
0
220
0
230
1
0
LINE
5
BC
100
AcDbEntity
8
SK1
62
256
6
ByLayer
370
18
48
1
60
0
100
AcDbLine
10
-35.6
20
-3.175
30
0
11
0
21
-3.175
31
0
39
0
210
0
220
0
230
1
0
LINE
5
BD
100
AcDbEntity
8
SK2
62
256
6
ByLayer
370
13
48
1
60
0
100
AcDbLine
10
-64.25
20
8.482199
30
0
11
-64.25
21
11.925
31
0
39
0
210
0
220
0
230
1
0
LINE
5
BF
100
AcDbEntity
8
SK2
62
256
6
ByLayer
370
13
48
1
60
0
100
AcDbLine
10
-37.5875
20
-3.175
30
0
11
-66.25
21
-3.175
31
0
39
0
210
0
220
0
230
1
0
LINE
5
C0
100
AcDbEntity
8
SK2
62
256
6
ByLayer
370
13
48
1
60
0
100
AcDbLine
10
-37.5875
20
3.175
30
0
11
-66.25
21
3.175
31
0
39
0
210
0
220
0
230
1
0
LINE
5
C1
100
AcDbEntity
8
1
62
256
6
ByLayer
370
18
48
1
60
1
100
AcDbLine
10
-64.25
20
-3.175
30
0
11
-63.789216
21
-6.674998
31
0
39
0
210
0
220
0
230
1
0
LINE
5
C2
100
AcDbEntity
8
1
62
256
6
ByLayer
370
18
48
1
60
1
100
AcDbLine
10
-63.789216
20
-6.674998
30
0
11
-64.710784
21
-6.675002
31
0
39
0
210
0
220
0
230
1
0
LINE
5
C3
100
AcDbEntity
8
1
62
256
6
ByLayer
370
18
48
1
60
1
100
AcDbLine
10
-64.710784
20
-6.675002
30
0
11
-64.25
21
-3.175
31
0
39
0
210
0
220
0
230
1
0
LINE
5
C4
100
AcDbEntity
8
1
62
256
6
ByLayer
370
18
48
1
60
1
100
AcDbLine
10
-64.25
20
3.175
30
0
11
-64.710784
21
6.674998
31
0
39
0
210
0
220
0
230
1
0
LINE
5
C5
100
AcDbEntity
8
1
62
256
6
ByLayer
370
18
48
1
60
1
100
AcDbLine
10
-64.710784
20
6.674998
30
0
11
-63.789216
21
6.675002
31
0
39
0
210
0
220
0
230
1
0
LINE
5
C6
100
AcDbEntity
8
1
62
256
6
ByLayer
370
18
48
1
60
1
100
AcDbLine
10
-63.789216
20
6.675002
30
0
11
-64.25
21
3.175
31
0
39
0
210
0
220
0
230
1
0
LINE
5
C7
100
AcDbEntity
8
SK2
62
256
6
ByLayer
370
13
48
1
60
0
100
AcDbLine
10
3.37
20
8.482199
30
0
11
3.37
21
11.765
31
0
39
0
210
0
220
0
230
1
0
LINE
5
C8
100
AcDbEntity
8
SK2
62
256
6
ByLayer
370
13
48
1
60
0
100
AcDbLine
10
10.0325
20
-3.015
30
0
11
1.37
21
-3.015
31
0
39
0
210
0
220
0
230
1
0
LINE
5
C9
100
AcDbEntity
8
SK2
62
256
6
ByLayer
370
13
48
1
60
0
100
AcDbLine
10
10.0325
20
3.015
30
0
11
1.37
21
3.015
31
0
39
0
210
0
220
0
230
1
0
LINE
5
CA
100
AcDbEntity
8
1
62
256
6
ByLayer
370
18
48
1
60
1
100
AcDbLine
10
3.37
20
-3.015
30
0
11
3.830784
21
-6.514998
31
0
39
0
210
0
220
0
230
1
0
LINE
5
CB
100
AcDbEntity
8
1
62
256
6
ByLayer
370
18
48
1
60
1
100
AcDbLine
10
3.830784
20
-6.514998
30
0
11
2.909216
21
-6.515002
31
0
39
0
210
0
220
0
230
1
0
LINE
5
CC
100
AcDbEntity
8
1
62
256
6
ByLayer
370
18
48
1
60
1
100
AcDbLine
10
2.909216
20
-6.515002
30
0
11
3.37
21
-3.015
31
0
39
0
210
0
220
0
230
1
0
LINE
5
CD
100
AcDbEntity
8
1
62
256
6
ByLayer
370
18
48
1
60
1
100
AcDbLine
10
3.37
20
3.015
30
0
11
2.909216
21
6.514998
31
0
39
0
210
0
220
0
230
1
0
LINE
5
CE
100
AcDbEntity
8
1
62
256
6
ByLayer
370
18
48
1
60
1
100
AcDbLine
10
2.909216
20
6.514998
30
0
11
3.830784
21
6.515002
31
0
39
0
210
0
220
0
230
1
0
LINE
5
CF
100
AcDbEntity
8
1
62
256
6
ByLayer
370
18
48
1
60
1
100
AcDbLine
10
3.830784
20
6.515002
30
0
11
3.37
21
3.015
31
0
39
0
210
0
220
0
230
1
0
LINE
5
D0
100
AcDbEntity
8
2
62
256
6
ByLayer
370
13
48
1
60
0
100
AcDbLine
10
44.5
20
8.482199
30
0
11
44.5
21
11.925
31
0
39
0
210
0
220
0
230
1
0
LINE
5
D2
100
AcDbEntity
8
2
62
256
6
ByLayer
370
13
48
1
60
0
100
AcDbLine
10
29.0875
20
-3.175
30
0
11
46.5
21
-3.175
31
0
39
0
210
0
220
0
230
1
0
LINE
5
D3
100
AcDbEntity
8
2
62
256
6
ByLayer
370
13
48
1
60
0
100
AcDbLine
10
29.0875
20
3.175
30
0
11
46.5
21
3.175
31
0
39
0
210
0
220
0
230
1
0
LINE
5
D4
100
AcDbEntity
8
1
62
256
6
ByLayer
370
18
48
1
60
1
100
AcDbLine
10
44.5
20
-3.175
30
0
11
44.960784
21
-6.674998
31
0
39
0
210
0
220
0
230
1
0
LINE
5
D5
100
AcDbEntity
8
1
62
256
6
ByLayer
370
18
48
1
60
1
100
AcDbLine
10
44.960784
20
-6.674998
30
0
11
44.039216
21
-6.675002
31
0
39
0
210
0
220
0
230
1
0
LINE
5
D6
100
AcDbEntity
8
1
62
256
6
ByLayer
370
18
48
1
60
1
100
AcDbLine
10
44.039216
20
-6.675002
30
0
11
44.5
21
-3.175
31
0
39
0
210
0
220
0
230
1
0
LINE
5
D7
100
AcDbEntity
8
1
62
256
6
ByLayer
370
18
48
1
60
1
100
AcDbLine
10
44.5
20
3.175
30
0
11
44.039216
21
6.674998
31
0
39
0
210
0
220
0
230
1
0
LINE
5
D8
100
AcDbEntity
8
1
62
256
6
ByLayer
370
18
48
1
60
1
100
AcDbLine
10
44.039216
20
6.674998
30
0
11
44.960784
21
6.675002
31
0
39
0
210
0
220
0
230
1
0
LINE
5
D9
100
AcDbEntity
8
1
62
256
6
ByLayer
370
18
48
1
60
1
100
AcDbLine
10
44.960784
20
6.675002
30
0
11
44.5
21
3.175
31
0
39
0
210
0
220
0
230
1
0
LINE
5
19B
100
AcDbEntity
8
1
62
256
6
ByLayer
370
18
48
1
60
1
100
AcDbLine
10
-64.25
20
-3.175
30
0
11
-63.789216
21
-6.674998
31
0
39
0
210
0
220
0
230
1
0
LINE
5
19C
100
AcDbEntity
8
1
62
256
6
ByLayer
370
18
48
1
60
1
100
AcDbLine
10
-63.789216
20
-6.674998
30
0
11
-64.710784
21
-6.675002
31
0
39
0
210
0
220
0
230
1
0
LINE
5
19D
100
AcDbEntity
8
1
62
256
6
ByLayer
370
18
48
1
60
1
100
AcDbLine
10
-64.710784
20
-6.675002
30
0
11
-64.25
21
-3.175
31
0
39
0
210
0
220
0
230
1
0
LINE
5
19F
100
AcDbEntity
8
1
62
256
6
ByLayer
370
18
48
1
60
1
100
AcDbLine
10
-64.25
20
3.175
30
0
11
-64.710784
21
6.674998
31
0
39
0
210
0
220
0
230
1
0
LINE
5
1A0
100
AcDbEntity
8
1
62
256
6
ByLayer
370
18
48
1
60
1
100
AcDbLine
10
-64.710784
20
6.674998
30
0
11
-63.789216
21
6.675002
31
0
39
0
210
0
220
0
230
1
0
LINE
5
1A1
100
AcDbEntity
8
1
62
256
6
ByLayer
370
18
48
1
60
1
100
AcDbLine
10
-63.789216
20
6.675002
30
0
11
-64.25
21
3.175
31
0
39
0
210
0
220
0
230
1
0
LINE
5
1A5
100
AcDbEntity
8
1
62
256
6
ByLayer
370
18
48
1
60
1
100
AcDbLine
10
3.37
20
-3.015
30
0
11
3.830784
21
-6.514998
31
0
39
0
210
0
220
0
230
1
0
LINE
5
1A6
100
AcDbEntity
8
1
62
256
6
ByLayer
370
18
48
1
60
1
100
AcDbLine
10
3.830784
20
-6.514998
30
0
11
2.909216
21
-6.515002
31
0
39
0
210
0
220
0
230
1
0
LINE
5
1A7
100
AcDbEntity
8
1
62
256
6
ByLayer
370
18
48
1
60
1
100
AcDbLine
10
2.909216
20
-6.515002
30
0
11
3.37
21
-3.015
31
0
39
0
210
0
220
0
230
1
0
LINE
5
1A9
100
AcDbEntity
8
1
62
256
6
ByLayer
370
18
48
1
60
1
100
AcDbLine
10
3.37
20
3.015
30
0
11
2.909216
21
6.514998
31
0
39
0
210
0
220
0
230
1
0
LINE
5
1AA
100
AcDbEntity
8
1
62
256
6
ByLayer
370
18
48
1
60
1
100
AcDbLine
10
2.909216
20
6.514998
30
0
11
3.830784
21
6.515002
31
0
39
0
210
0
220
0
230
1
0
LINE
5
1AB
100
AcDbEntity
8
1
62
256
6
ByLayer
370
18
48
1
60
1
100
AcDbLine
10
3.830784
20
6.515002
30
0
11
3.37
21
3.015
31
0
39
0
210
0
220
0
230
1
0
LINE
5
1AF
100
AcDbEntity
8
1
62
256
6
ByLayer
370
18
48
1
60
1
100
AcDbLine
10
44.5
20
-3.175
30
0
11
44.960784
21
-6.674998
31
0
39
0
210
0
220
0
230
1
0
LINE
5
1B0
100
AcDbEntity
8
1
62
256
6
ByLayer
370
18
48
1
60
1
100
AcDbLine
10
44.960784
20
-6.674998
30
0
11
44.039216
21
-6.675002
31
0
39
0
210
0
220
0
230
1
0
LINE
5
1B1
100
AcDbEntity
8
1
62
256
6
ByLayer
370
18
48
1
60
1
100
AcDbLine
10
44.039216
20
-6.675002
30
0
11
44.5
21
-3.175
31
0
39
0
210
0
220
0
230
1
0
LINE
5
1B3
100
AcDbEntity
8
1
62
256
6
ByLayer
370
18
48
1
60
1
100
AcDbLine
10
44.5
20
3.175
30
0
11
44.039216
21
6.674998
31
0
39
0
210
0
220
0
230
1
0
LINE
5
1B4
100
AcDbEntity
8
1
62
256
6
ByLayer
370
18
48
1
60
1
100
AcDbLine
10
44.039216
20
6.674998
30
0
11
44.960784
21
6.675002
31
0
39
0
210
0
220
0
230
1
0
LINE
5
1B5
100
AcDbEntity
8
1
62
256
6
ByLayer
370
18
48
1
60
1
100
AcDbLine
10
44.960784
20
6.675002
30
0
11
44.5
21
3.175
31
0
39
0
210
0
220
0
230
1
0
MTEXT
5
197
100
AcDbEntity
8
SK2
62
256
6
ByLayer
370
18
48
1
60
0
100
AcDbMText
10
-65.814634
20
-6.547355
30
0
210
0
220
0
230
1
1
%%c
40
3.5
41
0
44
1.084337
50
90
71
7
72
5
7
iso_b_vert
0
MTEXT
5
19A
100
AcDbEntity
8
SK2
62
256
6
ByLayer
370
18
48
1
60
0
100
AcDbMText
10
-65.814634
20
0.425301
30
0
210
0
220
0
230
1
1
\W0.7346;6.35
40
3.5
41
0
44
1.084337
50
90
71
7
72
5
7
iso_b_vert
0
MTEXT
5
1A3
100
AcDbEntity
8
SK2
62
256
6
ByLayer
370
18
48
1
60
0
100
AcDbMText
10
1.805366
20
-6.547355
30
0
210
0
220
0
230
1
1
%%c
40
3.5
41
0
44
1.084337
50
90
71
7
72
5
7
iso_b_vert
0
MTEXT
5
1A4
100
AcDbEntity
8
SK2
62
256
6
ByLayer
370
18
48
1
60
0
100
AcDbMText
10
1.805366
20
0.425301
30
0
210
0
220
0
230
1
1
\W0.7346;6.03
40
3.5
41
0
44
1.084337
50
90
71
7
72
5
7
iso_b_vert
0
MTEXT
5
1AD
100
AcDbEntity
8
2
62
256
6
ByLayer
370
18
48
1
60
0
100
AcDbMText
10
42.935366
20
-6.547355
30
0
210
0
220
0
230
1
1
%%c
40
3.5
41
0
44
1.084337
50
90
71
7
72
5
7
iso_b_vert
0
MTEXT
5
1AE
100
AcDbEntity
8
2
62
256
6
ByLayer
370
18
48
1
60
0
100
AcDbMText
10
42.935366
20
0.425301
30
0
210
0
220
0
230
1
1
\W0.7346;6.35
40
3.5
41
0
44
1.084337
50
90
71
7
72
5
7
iso_b_vert
0
MTEXT
5
1B7
100
AcDbEntity
8
SK6
62
256
6
ByLayer
370
18
48
1
60
0
100
AcDbMText
10
-30.286338
20
-62.111395
30
0
210
0
220
0
230
1
1
\W0.7352;2S440-0635-076-SD   1725
40
3
41
0
44
1.084337
50
0
71
7
72
5
7
iso_b_vert
0
HATCH
5
19E
100
AcDbEntity
8
SK2
62
256
6
ByLayer
370
13
48
1
60
0
100
AcDbHatch
10
0
20
0
30
0
210
0
220
0
230
1
2
ANSI31
70
0
71
0
91
1
92
5
93
3
72
1
10
-64.25
20
-3.17499999999987
11
-63.7892162584472
21
-6.67499830744669
72
1
10
-63.7892162584472
20
-6.67499830744669
11
-64.7107837415527
21
-6.67500169255305
72
1
10
-64.7107837415527
20
-6.67500169255305
11
-64.25
21
-3.17499999999987
97
0
75
0
76
1
52
0
41
0.0062
77
0
78
1
53
45
43
0
44
0
45
-0.0139193969876572
46
0.0139193969876572
79
0
47
0
98
1
10
0
20
0
0
HATCH
5
1A2
100
AcDbEntity
8
SK2
62
256
6
ByLayer
370
13
48
1
60
0
100
AcDbHatch
10
0
20
0
30
0
210
0
220
0
230
1
2
ANSI31
70
0
71
0
91
1
92
5
93
3
72
1
10
-64.25
20
3.17500000000013
11
-64.7107837415527
21
6.67499830744694
72
1
10
-64.7107837415527
20
6.67499830744694
11
-63.7892162584472
21
6.67500169255331
72
1
10
-63.7892162584472
20
6.67500169255331
11
-64.25
21
3.17500000000013
97
0
75
0
76
1
52
0
41
0.0062
77
0
78
1
53
45
43
0
44
0
45
-0.0139193969876572
46
0.0139193969876572
79
0
47
0
98
1
10
0
20
0
0
HATCH
5
1A8
100
AcDbEntity
8
SK2
62
256
6
ByLayer
370
13
48
1
60
0
100
AcDbHatch
10
0
20
0
30
0
210
0
220
0
230
1
2
ANSI31
70
0
71
0
91
1
92
5
93
3
72
1
10
3.37000000000003
20
-3.01500000000004
11
3.83078374155281
21
-6.51499830744686
72
1
10
3.83078374155281
20
-6.51499830744686
11
2.90921625844726
21
-6.51500169255323
72
1
10
2.90921625844726
20
-6.51500169255323
11
3.37000000000003
21
-3.01500000000004
97
0
75
0
76
1
52
0
41
0.0062
77
0
78
1
53
45
43
0
44
0
45
-0.0139193969876572
46
0.0139193969876572
79
0
47
0
98
1
10
0
20
0
0
HATCH
5
1AC
100
AcDbEntity
8
SK2
62
256
6
ByLayer
370
13
48
1
60
0
100
AcDbHatch
10
0
20
0
30
0
210
0
220
0
230
1
2
ANSI31
70
0
71
0
91
1
92
5
93
3
72
1
10
3.37000000000003
20
3.01499999999996
11
2.90921625844726
21
6.51499830744677
72
1
10
2.90921625844726
20
6.51499830744677
11
3.83078374155281
21
6.51500169255314
72
1
10
3.83078374155281
20
6.51500169255314
11
3.37000000000003
21
3.01499999999996
97
0
75
0
76
1
52
0
41
0.0062
77
0
78
1
53
45
43
0
44
0
45
-0.0139193969876572
46
0.0139193969876572
79
0
47
0
98
1
10
0
20
0
0
HATCH
5
1B2
100
AcDbEntity
8
2
62
256
6
ByLayer
370
13
48
1
60
0
100
AcDbHatch
10
0
20
0
30
0
210
0
220
0
230
1
2
ANSI31
70
0
71
0
91
1
92
5
93
3
72
1
10
44.5
20
-3.1750000000001
11
44.9607837415528
21
-6.67499830744691
72
1
10
44.9607837415528
20
-6.67499830744691
11
44.0392162584472
21
-6.67500169255328
72
1
10
44.0392162584472
20
-6.67500169255328
11
44.5
21
-3.1750000000001
97
0
75
0
76
1
52
0
41
0.0062
77
0
78
1
53
45
43
0
44
0
45
-0.0139193969876572
46
0.0139193969876572
79
0
47
0
98
1
10
0
20
0
0
HATCH
5
1B6
100
AcDbEntity
8
2
62
256
6
ByLayer
370
13
48
1
60
0
100
AcDbHatch
10
0
20
0
30
0
210
0
220
0
230
1
2
ANSI31
70
0
71
0
91
1
92
5
93
3
72
1
10
44.5
20
3.1749999999999
11
44.0392162584472
21
6.67499830744671
72
1
10
44.0392162584472
20
6.67499830744671
11
44.9607837415528
21
6.67500169255308
72
1
10
44.9607837415528
20
6.67500169255308
11
44.5
21
3.1749999999999
97
0
75
0
76
1
52
0
41
0.0062
77
0
78
1
53
45
43
0
44
0
45
-0.0139193969876572
46
0.0139193969876572
79
0
47
0
98
1
10
0
20
0
0
DIMENSION
5
1BA
100
AcDbEntity
8
SK2
62
256
6
ByLayer
370
18
48
1
60
0
100
AcDbDimension
2
_U0
10
11.62
20
-11.9862
30
0
11
19.56
21
-11.9862
31
0
70
32
71
1
72
1
41
1
210
0
220
0
230
1
3
Standard
100
AcDbAlignedDimension
13
27.5
23
-3.175
33
0
14
11.62
24
-3.175
34
0
50
0
100
AcDbRotatedDimension
1001
ACAD
1000
DSTYLE
1002
{
1070
   371
1070
    13
1070
   372
1070
    13
1070
   170
1070
     0
1070
   144
1040
1.0
1070
   277
1070
     2
1070
   284
1070
     8
1070
   278
1070
    46
1070
   146
1040
1.0
1070
   345
1005
16
1070
   347
1005
16
1070
   346
1005
16
1070
   344
1005
0
1070
   343
1005
0
1070
   172
1070
     1
1070
    76
1070
     0
1070
    75
1070
     0
1070
   282
1070
     0
1070
   281
1070
     0
1070
    71
1070
     0
1070
    74
1070
     0
1070
   279
1070
     0
1070
   173
1070
     1
1070
   340
1005
198
1070
   271
1070
     2
1070
   272
1070
     2
1070
    77
1070
     1
1070
    73
1070
     1
1070
   171
1070
     3
1070
   274
1070
     4
1070
   177
1070
     2
1070
   176
1070
     2
1070
   178
1070
     2
1070
    78
1070
     8
1070
    48
1040
-0.1
1070
    41
1040
3.5
1070
   147
1040
1.75
1070
    42
1040
1.5875
1070
    44
1040
2.0
1070
   140
1040
3.5
1002
}
1001
ACAD_DSTYLE_DIM_LINETYPE
1070
   380
1005
16
1001
ACAD_DSTYLE_DIM_EXT1_LINETYPE
1070
   381
1005
16
1001
ACAD_DSTYLE_DIM_EXT2_LINETYPE
1070
   382
1005
16
0
DIMENSION
5
1D4
100
AcDbEntity
8
SK2
62
256
6
ByLayer
370
18
48
1
60
0
100
AcDbDimension
2
_U1
10
5.27
20
-24.9862
30
0
11
16.385
21
-24.9862
31
0
70
32
71
1
72
1
41
1
210
0
220
0
230
1
3
Standard
100
AcDbAlignedDimension
13
27.5
23
-3.175
33
0
14
5.27
24
-3.175
34
0
50
0
100
AcDbRotatedDimension
1001
ACAD
1000
DSTYLE
1002
{
1070
   371
1070
    13
1070
   372
1070
    13
1070
   170
1070
     0
1070
   144
1040
1.0
1070
   277
1070
     2
1070
   284
1070
     8
1070
   278
1070
    46
1070
   146
1040
1.0
1070
   345
1005
16
1070
   347
1005
16
1070
   346
1005
16
1070
   344
1005
0
1070
   343
1005
0
1070
   172
1070
     1
1070
    76
1070
     0
1070
    75
1070
     0
1070
   282
1070
     0
1070
   281
1070
     0
1070
    71
1070
     0
1070
    74
1070
     0
1070
   279
1070
     0
1070
   173
1070
     1
1070
   340
1005
198
1070
   271
1070
     2
1070
   272
1070
     2
1070
    77
1070
     1
1070
    73
1070
     1
1070
   171
1070
     3
1070
   274
1070
     4
1070
   177
1070
     2
1070
   176
1070
     2
1070
   178
1070
     2
1070
    78
1070
     8
1070
    48
1040
-0.1
1070
    41
1040
3.5
1070
   147
1040
1.75
1070
    42
1040
1.5875
1070
    44
1040
2.0
1070
   140
1040
3.5
1002
}
1001
ACAD_DSTYLE_DIM_LINETYPE
1070
   380
1005
16
1001
ACAD_DSTYLE_DIM_EXT1_LINETYPE
1070
   381
1005
16
1001
ACAD_DSTYLE_DIM_EXT2_LINETYPE
1070
   382
1005
16
0
DIMENSION
5
1EC
100
AcDbEntity
8
SK2
62
256
6
ByLayer
370
18
48
1
60
0
100
AcDbDimension
2
_U2
10
21.15
20
13.493181
30
0
11
24.325
21
13.493181
31
0
70
32
71
1
72
1
41
1
210
0
220
0
230
1
3
Standard
100
AcDbAlignedDimension
13
27.5
23
3.175
33
0
14
21.15
24
3.175
34
0
50
0
100
AcDbRotatedDimension
1001
ACAD
1000
DSTYLE
1002
{
1070
   371
1070
    13
1070
   372
1070
    13
1070
   170
1070
     0
1070
   144
1040
1.0
1070
   277
1070
     2
1070
   284
1070
     8
1070
   278
1070
    46
1070
   146
1040
1.0
1070
   345
1005
16
1070
   347
1005
16
1070
   346
1005
16
1070
   344
1005
0
1070
   343
1005
0
1070
   172
1070
     1
1070
    76
1070
     0
1070
    75
1070
     0
1070
   282
1070
     0
1070
   281
1070
     0
1070
    47
1040
0.635
1070
    72
1070
     0
1070
    71
1070
     1
1070
    74
1070
     0
1070
   279
1070
     0
1070
   173
1070
     1
1070
   340
1005
198
1070
   271
1070
     2
1070
   272
1070
     2
1070
    77
1070
     1
1070
    73
1070
     1
1070
   171
1070
     3
1070
   274
1070
     4
1070
   177
1070
     2
1070
   176
1070
     2
1070
   178
1070
     2
1070
    78
1070
     8
1070
    48
1040
0.635
1070
    41
1040
3.5
1070
   147
1040
1.75
1070
    42
1040
1.5875
1070
    44
1040
2.0
1070
   140
1040
3.5
1002
}
1001
ACAD_DSTYLE_DIM_LINETYPE
1070
   380
1005
16
1001
ACAD_DSTYLE_DIM_EXT1_LINETYPE
1070
   381
1005
16
1001
ACAD_DSTYLE_DIM_EXT2_LINETYPE
1070
   382
1005
16
0
DIMENSION
5
207
100
AcDbEntity
8
2
62
256
6
ByLayer
370
18
48
1
60
0
100
AcDbDimension
2
_U3
10
27.5
20
-36.9862
30
0
11
-4.25
21
-36.9862
31
0
70
32
71
1
72
1
41
1
210
0
220
0
230
1
3
Standard
100
AcDbAlignedDimension
13
-36
23
-3.175
33
0
14
27.5
24
-3.175
34
0
50
0
100
AcDbRotatedDimension
1001
ACAD
1000
DSTYLE
1002
{
1070
   371
1070
    13
1070
   372
1070
    13
1070
   170
1070
     0
1070
   144
1040
1.0
1070
   277
1070
     2
1070
   284
1070
     8
1070
   278
1070
    46
1070
   146
1040
1.0
1070
   345
1005
16
1070
   347
1005
16
1070
   346
1005
16
1070
   344
1005
0
1070
   343
1005
0
1070
   172
1070
     1
1070
    76
1070
     0
1070
    75
1070
     0
1070
   282
1070
     0
1070
   281
1070
     0
1070
    71
1070
     0
1070
    74
1070
     0
1070
   279
1070
     0
1070
   173
1070
     1
1070
   340
1005
198
1070
   271
1070
     2
1070
   272
1070
     2
1070
    77
1070
     1
1070
    73
1070
     1
1070
   171
1070
     3
1070
   274
1070
     4
1070
   177
1070
     2
1070
   176
1070
     2
1070
   178
1070
     2
1070
    78
1070
     8
1070
    48
1040
-0.1
1070
    41
1040
3.5
1070
   147
1040
1.75
1070
    42
1040
1.5875
1070
    44
1040
2.0
1070
   140
1040
3.5
1002
}
1001
ACAD_DSTYLE_DIM_LINETYPE
1070
   380
1005
16
1001
ACAD_DSTYLE_DIM_EXT1_LINETYPE
1070
   381
1005
16
1001
ACAD_DSTYLE_DIM_EXT2_LINETYPE
1070
   382
1005
16
0
ENDSEC
0
SECTION
2
OBJECTS
0
DICTIONARY
5
28f
330
0
100
AcDbDictionary
280
0
281
1
3
ACAD_GROUP
350
290
3
ACAD_MLINESTYLE
350
291
0
DICTIONARY
5
290
330
0
100
AcDbDictionary
280
0
281
1
0
DICTIONARY
5
291
330
0
100
AcDbDictionary
280
0
281
1
3
Standard
350
18
0
MLINESTYLE
5
18
330
291
100
AcDbMlineStyle
2
Standard
70
0
3

62
256
51
90
52
90
71
2
49
-0.5
62
256
6
ByLayer
49
0.5
62
256
6
ByLayer
0
RASTERVARIABLES
5
27d
330

100
AcDbRasterVariables
90
0
70
1
71
1
72
1
0
ENDSEC
0
EOF
