0
SECTION
2
HEADER
9
$ACADVER
1
AC1015
9
$DWGCODEPAGE
3
ANSI_1252
9
$HANDSEED
5
287
9
$ANGBASE
50
0
9
$ANGDIR
70
0
9
$ATTMODE
70
1
9
$AUNITS
70
0
9
$AUPREC
70
0
9
$CECOLOR
62
256
9
$CELTSCALE
40
1
9
$CELTYPE
6
ByLayer
9
$CELWEIGHT
370
18
9
$CLAYER
8
0
9
$CMLJUST
70
0
9
$CMLSCALE
40
1
9
$CMLSTYLE
2
Standard
9
$DIMSTYLE
2
Standard
9
$TEXTSIZE
40
0.2
9
$TEXTSTYLE
7
Standard
9
$LUNITS
70
2
9
$LUPREC
70
4
9
$EXTNAMES
290
1
9
$INSUNITS
70
4
9
$LTSCALE
40
1
9
$LWDISPLAY
290
1
9
$PDMODE
70
0
9
$PDSIZE
40
0
9
$PLINEGEN
70
0
0
ENDSEC
0
SECTION
2
CLASSES
0
CLASS
1
RASTERVARIABLES
2
AcDbRasterVariables
3
ISM
90
0
280
0
281
0
0
ENDSEC
0
SECTION
2
TABLES
0
TABLE
2
VPORT
5
27d
100
AcDbSymbolTable
0
VPORT
5
1
100
AcDbSymbolTableRecord
100
AcDbViewportTableRecord
2
*Active
70
0
10
0
20
0
11
1
21
1
12
-1
22
1
13
0
23
0
14
0.5
24
0.5
15
10
25
10
16
0
26
0
36
1
17
0
27
0
37
0
0
ENDTAB
0
TABLE
2
LTYPE
5
27e
100
AcDbSymbolTable
0
LTYPE
5
14
100
AcDbSymbolTableRecord
100
AcDbLinetypeTableRecord
70
0
2
ByBlock
3

72
65
73
0
40
0
0
LTYPE
5
15
100
AcDbSymbolTableRecord
100
AcDbLinetypeTableRecord
70
0
2
ByLayer
3

72
65
73
0
40
0
0
LTYPE
5
16
100
AcDbSymbolTableRecord
100
AcDbLinetypeTableRecord
70
0
2
Continuous
3
Solid line
72
65
73
0
40
0
0
LTYPE
5
6E
100
AcDbSymbolTableRecord
100
AcDbLinetypeTableRecord
70
0
2
CENTER
3
____ _ ____ _ ____ _ ____
72
65
73
4
40
47.5
49
22
74
0
49
-8.5
74
0
49
8.5
74
0
49
-8.5
74
0
0
LTYPE
5
6F
100
AcDbSymbolTableRecord
100
AcDbLinetypeTableRecord
70
0
2
DASHED
3
__ __ __ __ __ __ __ __ __
72
65
73
2
40
25.72
49
12.86
74
0
49
-12.86
74
0
0
ENDTAB
0
TABLE
2
LAYER
5
27f
100
AcDbSymbolTable
0
LAYER
5
10
100
AcDbSymbolTableRecord
100
AcDbLayerTableRecord
2
0
70
0
62
7
6
Continuous
290
1
370
-3
390
0
0
LAYER
5
71
100
AcDbSymbolTableRecord
100
AcDbLayerTableRecord
2
80
70
0
62
-6
6
Continuous
290
1
370
-3
390
0
0
LAYER
5
73
100
AcDbSymbolTableRecord
100
AcDbLayerTableRecord
2
81
70
0
62
-3
6
Continuous
290
1
370
-3
390
0
0
LAYER
5
77
100
AcDbSymbolTableRecord
100
AcDbLayerTableRecord
2
1
70
0
62
4
6
Continuous
290
1
370
-3
390
0
0
LAYER
5
84
100
AcDbSymbolTableRecord
100
AcDbLayerTableRecord
2
4
70
0
62
-2
6
CENTER
290
1
370
-3
390
0
0
LAYER
5
C6
100
AcDbSymbolTableRecord
100
AcDbLayerTableRecord
2
2
70
0
62
7
6
Continuous
290
1
370
-3
390
0
0
LAYER
5
1AA
100
AcDbSymbolTableRecord
100
AcDbLayerTableRecord
2
Defpoints
70
0
62
7
6
Continuous
290
0
370
-3
390
0
0
LAYER
5
269
100
AcDbSymbolTableRecord
100
AcDbLayerTableRecord
2
SK4
70
0
62
2
6
CENTER
290
1
370
-3
390
0
0
LAYER
5
26a
100
AcDbSymbolTableRecord
100
AcDbLayerTableRecord
2
SK1
70
0
62
4
6
Continuous
290
1
370
-3
390
0
0
LAYER
5
26b
100
AcDbSymbolTableRecord
100
AcDbLayerTableRecord
2
SK2
70
0
62
7
6
Continuous
290
1
370
-3
390
0
0
LAYER
5
26c
100
AcDbSymbolTableRecord
100
AcDbLayerTableRecord
2
SK6
70
0
62
5
6
Continuous
290
1
370
-3
390
0
0
ENDTAB
0
TABLE
2
STYLE
5
280
100
AcDbSymbolTable
0
STYLE
5
11
100
AcDbSymbolTableRecord
100
AcDbTextStyleTableRecord
2
Standard
3
txt
70
0
71
0
40
0
41
1
42
0
50
0
0
STYLE
5
185
100
AcDbSymbolTableRecord
100
AcDbTextStyleTableRecord
2
iso_b_vert
3
simplex.shx
70
0
71
0
40
0
41
1
42
0
50
0
0
STYLE
5
186
100
AcDbSymbolTableRecord
100
AcDbTextStyleTableRecord
2
DWGDirectTextStyle
3
simplex
70
0
71
0
40
0
41
1
42
0
50
0
0
ENDTAB
0
TABLE
2
DIMSTYLE
5
281
100
AcDbSymbolTable
100
AcDbDimStyleTable
0
DIMSTYLE
105
27
100
AcDbSymbolTableRecord
100
AcDbDimStyleTableRecord
2
Standard
70
0
3
<>
41
0.18
42
0.0625
44
0.18
140
0.18
147
0.09
73
0
74
0
77
1
271
2
275
0
278
52
280
0
340
11
0
ENDTAB
0
TABLE
2
VIEW
5
282
100
AcDbSymbolTable
0
ENDTAB
0
TABLE
2
UCS
5
283
100
AcDbSymbolTable
0
ENDTAB
0
TABLE
2
APPID
5
284
100
AcDbSymbolTable
0
APPID
5
12
100
AcDbSymbolTableRecord
100
AcDbRegAppTableRecord
2
ACAD
70
0
0
APPID
5
1A6
100
AcDbSymbolTableRecord
100
AcDbRegAppTableRecord
2
ACAD_DSTYLE_DIMBREAK
70
0
0
APPID
5
228
100
AcDbSymbolTableRecord
100
AcDbRegAppTableRecord
2
ACAD_DSTYLE_DIM_LINETYPE
70
0
0
APPID
5
229
100
AcDbSymbolTableRecord
100
AcDbRegAppTableRecord
2
ACAD_DSTYLE_DIM_EXT1_LINETYPE
70
0
0
APPID
5
22A
100
AcDbSymbolTableRecord
100
AcDbRegAppTableRecord
2
ACAD_DSTYLE_DIM_EXT2_LINETYPE
70
0
0
APPID
5
265
100
AcDbSymbolTableRecord
100
AcDbRegAppTableRecord
2
ACAD_MLEADERVER
70
0
0
ENDTAB
0
TABLE
2
BLOCK_RECORD
5
285
100
AcDbSymbolTable
0
BLOCK_RECORD
5
1F
100
AcDbSymbolTableRecord
100
AcDbBlockTableRecord
2
*Model_Space
340
0
70
0
0
BLOCK_RECORD
5
1B
100
AcDbSymbolTableRecord
100
AcDbBlockTableRecord
2
*Paper_Space
340
0
70
0
0
BLOCK_RECORD
5
23
100
AcDbSymbolTableRecord
100
AcDbBlockTableRecord
2
*Paper_Space0
340
0
70
0
0
BLOCK_RECORD
5
1AB
100
AcDbSymbolTableRecord
100
AcDbBlockTableRecord
2
*D1
340
0
70
0
0
BLOCK_RECORD
5
1B7
100
AcDbSymbolTableRecord
100
AcDbBlockTableRecord
2
_U0
340
0
70
0
0
BLOCK_RECORD
5
1C3
100
AcDbSymbolTableRecord
100
AcDbBlockTableRecord
2
*D3
340
0
70
0
0
BLOCK_RECORD
5
1CF
100
AcDbSymbolTableRecord
100
AcDbBlockTableRecord
2
_U1
340
0
70
0
0
BLOCK_RECORD
5
1DB
100
AcDbSymbolTableRecord
100
AcDbBlockTableRecord
2
*D5
340
0
70
0
0
BLOCK_RECORD
5
1E8
100
AcDbSymbolTableRecord
100
AcDbBlockTableRecord
2
_U2
340
0
70
0
0
BLOCK_RECORD
5
1F5
100
AcDbSymbolTableRecord
100
AcDbBlockTableRecord
2
*D7
340
0
70
0
0
BLOCK_RECORD
5
201
100
AcDbSymbolTableRecord
100
AcDbBlockTableRecord
2
_U3
340
0
70
0
0
ENDTAB
0
ENDSEC
0
SECTION
2
BLOCKS
0
BLOCK
5
20
100
AcDbEntity
8
0
100
AcDbBlockBegin
2
*Model_Space
70
0
10
0
20
0
30
0
3
*Model_Space
0
ENDBLK
5
21
100
AcDbEntity
8
0
100
AcDbBlockEnd
0
BLOCK
5
1C
100
AcDbEntity
8
0
100
AcDbBlockBegin
2
*Paper_Space
70
0
10
0
20
0
30
0
3
*Paper_Space
0
ENDBLK
5
1D
100
AcDbEntity
8
0
100
AcDbBlockEnd
0
BLOCK
5
24
100
AcDbEntity
8
0
100
AcDbBlockBegin
2
*Paper_Space0
70
0
10
0
20
0
30
0
3
*Paper_Space0
0
ENDBLK
5
25
100
AcDbEntity
8
0
100
AcDbBlockEnd
0
BLOCK
5
1AC
100
AcDbEntity
8
0
100
AcDbBlockBegin
2
*D1
70
1
10
0
20
0
30
0
3
*D1
0
LINE
5
1AE
100
AcDbEntity
8
0
62
256
6
ByLayer
370
-2
48
1
60
0
100
AcDbLine
10
32
20
-6.5875
30
0
11
32
21
-16.222361
31
0
39
0
210
0
220
0
230
1
0
LINE
5
1AF
100
AcDbEntity
8
0
62
256
6
ByLayer
370
-2
48
1
60
0
100
AcDbLine
10
10
20
-6.5875
30
0
11
10
21
-16.222361
31
0
39
0
210
0
220
0
230
1
0
LINE
5
1B0
100
AcDbEntity
8
0
62
256
6
ByLayer
370
-2
48
1
60
0
100
AcDbLine
10
28.5
20
-14.222361
30
0
11
13.5
21
-14.222361
31
0
39
0
210
0
220
0
230
1
0
SOLID
5
1B1
100
AcDbEntity
8
0
62
256
6
ByLayer
370
-1
48
1
60
0
100
AcDbTrace
10
28.5
20
-14.805695
30
0
11
28.5
21
-13.639028
31
0
12
32
22
-14.222361
32
0
13
32
23
-14.222361
33
0
39
0
210
0
220
0
230
1
0
SOLID
5
1B2
100
AcDbEntity
8
0
62
256
6
ByLayer
370
-1
48
1
60
0
100
AcDbTrace
10
13.5
20
-13.639028
30
0
11
13.5
21
-14.805695
31
0
12
10
22
-14.222361
32
0
13
10
23
-14.222361
33
0
39
0
210
0
220
0
230
1
0
MTEXT
5
1B3
100
AcDbEntity
8
0
62
256
6
ByLayer
370
18
48
1
60
0
100
AcDbMText
10
21
20
-7.222361
30
0
210
0
220
0
230
1
1
\A1;22
40
3.5
41
0
44
1
50
0
71
5
72
5
7
iso_b_vert
0
POINT
5
1B4
100
AcDbEntity
8
Defpoints
62
0
6
ByLayer
370
-1
48
1
60
0
100
AcDbPoint
10
32
20
-5
30
0
39
0
210
0
220
0
230
1
50
360
0
POINT
5
1B5
100
AcDbEntity
8
Defpoints
62
0
6
ByLayer
370
-1
48
1
60
0
100
AcDbPoint
10
10
20
-5
30
0
39
0
210
0
220
0
230
1
50
360
0
POINT
5
1B6
100
AcDbEntity
8
Defpoints
62
0
6
ByLayer
370
-1
48
1
60
0
100
AcDbPoint
10
10
20
-14.222361
30
0
39
0
210
0
220
0
230
1
50
360
0
ENDBLK
5
1AD
100
AcDbEntity
8
0
100
AcDbBlockEnd
0
BLOCK
5
1BE
100
AcDbEntity
8
0
100
AcDbBlockBegin
2
_U0
70
0
10
0
20
0
30
0
3
_U0
0
MTEXT
5
1B8
100
AcDbEntity
8
SK2
62
256
6
ByLayer
370
18
48
1
60
0
100
AcDbMText
10
19.095034
20
-13.189728
30
0
210
0
220
0
230
1
1
\W0.6740;22
40
3.5
41
0
44
1.084337
50
0
71
7
72
5
7
iso_b_vert
0
LINE
5
1B9
100
AcDbEntity
8
SK2
62
256
6
ByLayer
370
13
48
1
60
0
100
AcDbLine
10
32
20
-6.5875
30
0
11
32
21
-16.222361
31
0
39
0
210
0
220
0
230
1
0
LINE
5
1BA
100
AcDbEntity
8
SK2
62
256
6
ByLayer
370
13
48
1
60
0
100
AcDbLine
10
10
20
-6.5875
30
0
11
10
21
-16.222361
31
0
39
0
210
0
220
0
230
1
0
LINE
5
1BB
100
AcDbEntity
8
SK2
62
256
6
ByLayer
370
13
48
1
60
0
100
AcDbLine
10
32
20
-14.222361
30
0
11
10
21
-14.222361
31
0
39
0
210
0
220
0
230
1
0
SOLID
5
1BC
100
AcDbEntity
8
SK2
62
256
6
ByLayer
370
18
48
1
60
0
100
AcDbTrace
10
32
20
-14.222361
30
0
11
28.500002
21
-14.683145
31
0
12
28.499998
22
-13.761577
32
0
13
28.499998
23
-13.761577
33
0
39
0
210
0
220
0
230
1
0
SOLID
5
1BD
100
AcDbEntity
8
SK2
62
256
6
ByLayer
370
18
48
1
60
0
100
AcDbTrace
10
10
20
-14.222361
30
0
11
13.499998
21
-13.761577
31
0
12
13.500002
22
-14.683145
32
0
13
13.500002
23
-14.683145
33
0
39
0
210
0
220
0
230
1
0
ENDBLK
5
1BF
100
AcDbEntity
8
0
100
AcDbBlockEnd
0
BLOCK
5
1C4
100
AcDbEntity
8
0
100
AcDbBlockBegin
2
*D3
70
1
10
0
20
0
30
0
3
*D3
0
LINE
5
1C6
100
AcDbEntity
8
0
62
256
6
ByLayer
370
-2
48
1
60
0
100
AcDbLine
10
32
20
-6.5875
30
0
11
32
21
-29.222361
31
0
39
0
210
0
220
0
230
1
0
LINE
5
1C7
100
AcDbEntity
8
0
62
256
6
ByLayer
370
-2
48
1
60
0
100
AcDbLine
10
2
20
-6.5875
30
0
11
2
21
-29.222361
31
0
39
0
210
0
220
0
230
1
0
LINE
5
1C8
100
AcDbEntity
8
0
62
256
6
ByLayer
370
-2
48
1
60
0
100
AcDbLine
10
28.5
20
-27.222361
30
0
11
5.5
21
-27.222361
31
0
39
0
210
0
220
0
230
1
0
SOLID
5
1C9
100
AcDbEntity
8
0
62
256
6
ByLayer
370
-1
48
1
60
0
100
AcDbTrace
10
28.5
20
-27.805695
30
0
11
28.5
21
-26.639028
31
0
12
32
22
-27.222361
32
0
13
32
23
-27.222361
33
0
39
0
210
0
220
0
230
1
0
SOLID
5
1CA
100
AcDbEntity
8
0
62
256
6
ByLayer
370
-1
48
1
60
0
100
AcDbTrace
10
5.5
20
-26.639028
30
0
11
5.5
21
-27.805695
31
0
12
2
22
-27.222361
32
0
13
2
23
-27.222361
33
0
39
0
210
0
220
0
230
1
0
MTEXT
5
1CB
100
AcDbEntity
8
0
62
256
6
ByLayer
370
18
48
1
60
0
100
AcDbMText
10
17
20
-20.222361
30
0
210
0
220
0
230
1
1
\A1;30
40
3.5
41
0
44
1
50
0
71
5
72
5
7
iso_b_vert
0
POINT
5
1CC
100
AcDbEntity
8
Defpoints
62
0
6
ByLayer
370
-1
48
1
60
0
100
AcDbPoint
10
32
20
-5
30
0
39
0
210
0
220
0
230
1
50
360
0
POINT
5
1CD
100
AcDbEntity
8
Defpoints
62
0
6
ByLayer
370
-1
48
1
60
0
100
AcDbPoint
10
2
20
-5
30
0
39
0
210
0
220
0
230
1
50
360
0
POINT
5
1CE
100
AcDbEntity
8
Defpoints
62
0
6
ByLayer
370
-1
48
1
60
0
100
AcDbPoint
10
2
20
-27.222361
30
0
39
0
210
0
220
0
230
1
50
360
0
ENDBLK
5
1C5
100
AcDbEntity
8
0
100
AcDbBlockEnd
0
BLOCK
5
1D6
100
AcDbEntity
8
0
100
AcDbBlockBegin
2
_U1
70
0
10
0
20
0
30
0
3
_U1
0
MTEXT
5
1D0
100
AcDbEntity
8
SK2
62
256
6
ByLayer
370
18
48
1
60
0
100
AcDbMText
10
15.095034
20
-26.189728
30
0
210
0
220
0
230
1
1
\W0.6740;30
40
3.5
41
0
44
1.084337
50
0
71
7
72
5
7
iso_b_vert
0
LINE
5
1D1
100
AcDbEntity
8
SK2
62
256
6
ByLayer
370
13
48
1
60
0
100
AcDbLine
10
32
20
-6.5875
30
0
11
32
21
-29.222361
31
0
39
0
210
0
220
0
230
1
0
LINE
5
1D2
100
AcDbEntity
8
SK2
62
256
6
ByLayer
370
13
48
1
60
0
100
AcDbLine
10
2
20
-6.5875
30
0
11
2
21
-29.222361
31
0
39
0
210
0
220
0
230
1
0
LINE
5
1D3
100
AcDbEntity
8
SK2
62
256
6
ByLayer
370
13
48
1
60
0
100
AcDbLine
10
32
20
-27.222361
30
0
11
2
21
-27.222361
31
0
39
0
210
0
220
0
230
1
0
SOLID
5
1D4
100
AcDbEntity
8
SK2
62
256
6
ByLayer
370
18
48
1
60
0
100
AcDbTrace
10
32
20
-27.222361
30
0
11
28.500002
21
-27.683145
31
0
12
28.499998
22
-26.761577
32
0
13
28.499998
23
-26.761577
33
0
39
0
210
0
220
0
230
1
0
SOLID
5
1D5
100
AcDbEntity
8
SK2
62
256
6
ByLayer
370
18
48
1
60
0
100
AcDbTrace
10
2
20
-27.222361
30
0
11
5.499998
21
-26.761577
31
0
12
5.500002
22
-27.683145
32
0
13
5.500002
23
-27.683145
33
0
39
0
210
0
220
0
230
1
0
ENDBLK
5
1D7
100
AcDbEntity
8
0
100
AcDbBlockEnd
0
BLOCK
5
1DC
100
AcDbEntity
8
0
100
AcDbBlockBegin
2
*D5
70
1
10
0
20
0
30
0
3
*D5
0
LINE
5
1DE
100
AcDbEntity
8
0
62
256
6
ByLayer
370
-2
48
1
60
0
100
AcDbLine
10
32
20
6.5875
30
0
11
32
21
17.645161
31
0
39
0
210
0
220
0
230
1
0
LINE
5
1DF
100
AcDbEntity
8
0
62
256
6
ByLayer
370
-2
48
1
60
0
100
AcDbLine
10
22
20
6.5875
30
0
11
22
21
17.645161
31
0
39
0
210
0
220
0
230
1
0
LINE
5
1E0
100
AcDbEntity
8
0
62
256
6
ByLayer
370
-2
48
1
60
0
100
AcDbLine
10
35.5
20
15.645161
30
0
11
39
21
15.645161
31
0
39
0
210
0
220
0
230
1
0
LINE
5
1E1
100
AcDbEntity
8
0
62
256
6
ByLayer
370
-2
48
1
60
0
100
AcDbLine
10
18.5
20
15.645161
30
0
11
15
21
15.645161
31
0
39
0
210
0
220
0
230
1
0
SOLID
5
1E2
100
AcDbEntity
8
0
62
256
6
ByLayer
370
-1
48
1
60
0
100
AcDbTrace
10
35.5
20
16.228495
30
0
11
35.5
21
15.061828
31
0
12
32
22
15.645161
32
0
13
32
23
15.645161
33
0
39
0
210
0
220
0
230
1
0
SOLID
5
1E3
100
AcDbEntity
8
0
62
256
6
ByLayer
370
-1
48
1
60
0
100
AcDbTrace
10
18.5
20
15.061828
30
0
11
18.5
21
16.228495
31
0
12
22
22
15.645161
32
0
13
22
23
15.645161
33
0
39
0
210
0
220
0
230
1
0
MTEXT
5
1E4
100
AcDbEntity
8
0
62
256
6
ByLayer
370
18
48
1
60
0
100
AcDbMText
10
27
20
22.645161
30
0
210
0
220
0
230
1
1
\A1;10
40
3.5
41
0
44
1
50
0
71
5
72
5
7
iso_b_vert
0
POINT
5
1E5
100
AcDbEntity
8
Defpoints
62
0
6
ByLayer
370
-1
48
1
60
0
100
AcDbPoint
10
32
20
5
30
0
39
0
210
0
220
0
230
1
50
360
0
POINT
5
1E6
100
AcDbEntity
8
Defpoints
62
0
6
ByLayer
370
-1
48
1
60
0
100
AcDbPoint
10
22
20
5
30
0
39
0
210
0
220
0
230
1
50
360
0
POINT
5
1E7
100
AcDbEntity
8
Defpoints
62
0
6
ByLayer
370
-1
48
1
60
0
100
AcDbPoint
10
22
20
15.645161
30
0
39
0
210
0
220
0
230
1
50
360
0
ENDBLK
5
1DD
100
AcDbEntity
8
0
100
AcDbBlockEnd
0
BLOCK
5
1F0
100
AcDbEntity
8
0
100
AcDbBlockBegin
2
_U2
70
0
10
0
20
0
30
0
3
_U2
0
MTEXT
5
1E9
100
AcDbEntity
8
SK2
62
256
6
ByLayer
370
18
48
1
60
0
100
AcDbMText
10
21.162167
20
16.677795
30
0
210
0
220
0
230
1
1
\W0.5321;10
40
3.5
41
0
44
1.084337
50
0
71
7
72
5
7
iso_b_vert
0
MTEXT
5
1EA
100
AcDbEntity
8
SK2
62
256
6
ByLayer
370
18
48
1
60
0
100
AcDbMText
10
27.968233
20
16.677795
30
0
210
0
220
0
230
1
1
\W0.8425;\W0.4212;%%p\W0.8425;1
40
3.5
41
0
44
1.084337
50
0
71
7
72
5
7
iso_b_vert
0
LINE
5
1EB
100
AcDbEntity
8
SK2
62
256
6
ByLayer
370
13
48
1
60
0
100
AcDbLine
10
32
20
6.5875
30
0
11
32
21
17.645161
31
0
39
0
210
0
220
0
230
1
0
LINE
5
1EC
100
AcDbEntity
8
SK2
62
256
6
ByLayer
370
13
48
1
60
0
100
AcDbLine
10
22
20
6.5875
30
0
11
22
21
17.645161
31
0
39
0
210
0
220
0
230
1
0
LINE
5
1ED
100
AcDbEntity
8
SK2
62
256
6
ByLayer
370
13
48
1
60
0
100
AcDbLine
10
20.976667
20
15.645161
30
0
11
33.023333
21
15.645161
31
0
39
0
210
0
220
0
230
1
0
SOLID
5
1EE
100
AcDbEntity
8
SK2
62
256
6
ByLayer
370
18
48
1
60
0
100
AcDbTrace
10
32
20
15.645161
30
0
11
28.500002
21
15.184377
31
0
12
28.499998
22
16.105945
32
0
13
28.499998
23
16.105945
33
0
39
0
210
0
220
0
230
1
0
SOLID
5
1EF
100
AcDbEntity
8
SK2
62
256
6
ByLayer
370
18
48
1
60
0
100
AcDbTrace
10
22
20
15.645161
30
0
11
25.499998
21
16.105945
31
0
12
25.500002
22
15.184377
32
0
13
25.500002
23
15.184377
33
0
39
0
210
0
220
0
230
1
0
ENDBLK
5
1F1
100
AcDbEntity
8
0
100
AcDbBlockEnd
0
BLOCK
5
1F6
100
AcDbEntity
8
0
100
AcDbBlockBegin
2
*D7
70
1
10
0
20
0
30
0
3
*D7
0
LINE
5
1F8
100
AcDbEntity
8
0
62
256
6
ByLayer
370
-2
48
1
60
0
100
AcDbLine
10
-40
20
-6.5875
30
0
11
-40
21
-41.222361
31
0
39
0
210
0
220
0
230
1
0
LINE
5
1F9
100
AcDbEntity
8
0
62
256
6
ByLayer
370
-2
48
1
60
0
100
AcDbLine
10
32
20
-6.5875
30
0
11
32
21
-41.222361
31
0
39
0
210
0
220
0
230
1
0
LINE
5
1FA
100
AcDbEntity
8
0
62
256
6
ByLayer
370
-2
48
1
60
0
100
AcDbLine
10
-36.5
20
-39.222361
30
0
11
28.5
21
-39.222361
31
0
39
0
210
0
220
0
230
1
0
SOLID
5
1FB
100
AcDbEntity
8
0
62
256
6
ByLayer
370
-1
48
1
60
0
100
AcDbTrace
10
-36.5
20
-38.639028
30
0
11
-36.5
21
-39.805695
31
0
12
-40
22
-39.222361
32
0
13
-40
23
-39.222361
33
0
39
0
210
0
220
0
230
1
0
SOLID
5
1FC
100
AcDbEntity
8
0
62
256
6
ByLayer
370
-1
48
1
60
0
100
AcDbTrace
10
28.5
20
-39.805695
30
0
11
28.5
21
-38.639028
31
0
12
32
22
-39.222361
32
0
13
32
23
-39.222361
33
0
39
0
210
0
220
0
230
1
0
MTEXT
5
1FD
100
AcDbEntity
8
0
62
256
6
ByLayer
370
18
48
1
60
0
100
AcDbMText
10
-4
20
-32.222361
30
0
210
0
220
0
230
1
1
\A1;72
40
3.5
41
0
44
1
50
0
71
5
72
5
7
iso_b_vert
0
POINT
5
1FE
100
AcDbEntity
8
Defpoints
62
0
6
ByLayer
370
-1
48
1
60
0
100
AcDbPoint
10
-40
20
-5
30
0
39
0
210
0
220
0
230
1
50
360
0
POINT
5
1FF
100
AcDbEntity
8
Defpoints
62
0
6
ByLayer
370
-1
48
1
60
0
100
AcDbPoint
10
32
20
-5
30
0
39
0
210
0
220
0
230
1
50
360
0
POINT
5
200
100
AcDbEntity
8
Defpoints
62
0
6
ByLayer
370
-1
48
1
60
0
100
AcDbPoint
10
32
20
-39.222361
30
0
39
0
210
0
220
0
230
1
50
360
0
ENDBLK
5
1F7
100
AcDbEntity
8
0
100
AcDbBlockEnd
0
BLOCK
5
208
100
AcDbEntity
8
0
100
AcDbBlockBegin
2
_U3
70
0
10
0
20
0
30
0
3
_U3
0
MTEXT
5
202
100
AcDbEntity
8
2
62
256
6
ByLayer
370
18
48
1
60
0
100
AcDbMText
10
-5.904966
20
-38.189728
30
0
210
0
220
0
230
1
1
\W0.6740;72
40
3.5
41
0
44
1.084337
50
0
71
7
72
5
7
iso_b_vert
0
LINE
5
203
100
AcDbEntity
8
2
62
256
6
ByLayer
370
13
48
1
60
0
100
AcDbLine
10
-40
20
-6.5875
30
0
11
-40
21
-41.222361
31
0
39
0
210
0
220
0
230
1
0
LINE
5
204
100
AcDbEntity
8
2
62
256
6
ByLayer
370
13
48
1
60
0
100
AcDbLine
10
32
20
-6.5875
30
0
11
32
21
-41.222361
31
0
39
0
210
0
220
0
230
1
0
LINE
5
205
100
AcDbEntity
8
2
62
256
6
ByLayer
370
13
48
1
60
0
100
AcDbLine
10
-40
20
-39.222361
30
0
11
32
21
-39.222361
31
0
39
0
210
0
220
0
230
1
0
SOLID
5
206
100
AcDbEntity
8
2
62
256
6
ByLayer
370
18
48
1
60
0
100
AcDbTrace
10
-40
20
-39.222361
30
0
11
-36.500002
21
-38.761577
31
0
12
-36.499998
22
-39.683145
32
0
13
-36.499998
23
-39.683145
33
0
39
0
210
0
220
0
230
1
0
SOLID
5
207
100
AcDbEntity
8
2
62
256
6
ByLayer
370
18
48
1
60
0
100
AcDbTrace
10
32
20
-39.222361
30
0
11
28.500002
21
-39.683145
31
0
12
28.499998
22
-38.761577
32
0
13
28.499998
23
-38.761577
33
0
39
0
210
0
220
0
230
1
0
ENDBLK
5
209
100
AcDbEntity
8
0
100
AcDbBlockEnd
0
ENDSEC
0
SECTION
2
ENTITIES
0
ARC
5
CF
100
AcDbEntity
8
1
62
256
6
ByLayer
370
18
48
1
60
0
100
AcDbCircle
39
0
10
1.994693
20
6.75
30
0
40
2
210
0
220
0
230
1
100
AcDbArc
50
241.044976
51
270
0
ARC
5
D0
100
AcDbEntity
8
1
62
256
6
ByLayer
370
18
48
1
60
0
100
AcDbCircle
39
0
10
1.994693
20
-6.75
30
0
40
2
210
0
220
0
230
1
100
AcDbArc
50
90
51
118.955024
0
ELLIPSE
5
D1
100
AcDbEntity
8
1
62
256
6
ByLayer
370
18
48
1
60
0
100
AcDbEllipse
10
31.508161
20
0.224644
30
0
11
0.150632320532611
21
0.559867929753054
31
0
210
0
220
0
230
1
40
0.506867
41
2.89297445241959
42
-2.86758379657732
0
ELLIPSE
5
D2
100
AcDbEntity
8
1
62
256
6
ByLayer
370
18
48
1
60
0
100
AcDbEllipse
10
31.049391
20
0
30
0
11
0.44276317353528
21
0.725132446884418
31
0
210
0
220
0
230
1
40
0.432574
41
-2.12413873989645
42
-1.72295175611383
0
ELLIPSE
5
D3
100
AcDbEntity
8
1
62
256
6
ByLayer
370
18
48
1
60
0
100
AcDbEllipse
10
31.496656
20
-0.669892
30
0
11
0.223241198923033
21
-0.633808867473418
31
0
210
0
220
0
230
1
40
0.354386
41
-1.68515017693516
42
-1.08929125386581
0
ELLIPSE
5
D4
100
AcDbEntity
8
1
62
256
6
ByLayer
370
18
48
1
60
0
100
AcDbEllipse
10
31.049391
20
0
30
0
11
0.472052930698321
21
-0.72975447400753
31
0
210
0
220
0
230
1
40
0.366664
41
-1.19664322142791
42
-0.680318182984735
0
POINT
5
70
100
AcDbEntity
8
80
62
256
6
ByLayer
370
18
48
1
60
0
100
AcDbPoint
10
0
20
0
30
0
39
0
210
0
220
0
230
1
50
360
0
POINT
5
72
100
AcDbEntity
8
81
62
256
6
ByLayer
370
18
48
1
60
0
100
AcDbPoint
10
-40
20
0
30
0
39
0
210
0
220
0
230
1
50
360
0
POINT
5
74
100
AcDbEntity
8
81
62
256
6
ByLayer
370
18
48
1
60
0
100
AcDbPoint
10
32
20
0
30
0
39
0
210
0
220
0
230
1
50
360
0
POINT
5
75
100
AcDbEntity
8
81
62
256
6
ByLayer
370
18
48
1
60
0
100
AcDbPoint
10
32
20
0
30
0
39
0
210
0
220
0
230
1
50
360
0
POINT
5
76
100
AcDbEntity
8
1
62
256
6
ByLayer
370
18
48
1
60
1
100
AcDbPoint
10
32
20
-5
30
0
39
0
210
0
220
0
230
1
50
360
0
POINT
5
78
100
AcDbEntity
8
1
62
256
6
ByLayer
370
18
48
1
60
1
100
AcDbPoint
10
10
20
-5
30
0
39
0
210
0
220
0
230
1
50
360
0
POINT
5
79
100
AcDbEntity
8
1
62
256
6
ByLayer
370
18
48
1
60
1
100
AcDbPoint
10
32
20
-5
30
0
39
0
210
0
220
0
230
1
50
360
0
POINT
5
7A
100
AcDbEntity
8
1
62
256
6
ByLayer
370
18
48
1
60
1
100
AcDbPoint
10
2
20
-5
30
0
39
0
210
0
220
0
230
1
50
360
0
POINT
5
7B
100
AcDbEntity
8
1
62
256
6
ByLayer
370
18
48
1
60
1
100
AcDbPoint
10
32
20
5
30
0
39
0
210
0
220
0
230
1
50
360
0
POINT
5
7C
100
AcDbEntity
8
1
62
256
6
ByLayer
370
18
48
1
60
1
100
AcDbPoint
10
22
20
5
30
0
39
0
210
0
220
0
230
1
50
360
0
POINT
5
7D
100
AcDbEntity
8
1
62
256
6
ByLayer
370
18
48
1
60
1
100
AcDbPoint
10
-40
20
-5
30
0
39
0
210
0
220
0
230
1
50
360
0
POINT
5
7E
100
AcDbEntity
8
1
62
256
6
ByLayer
370
18
48
1
60
1
100
AcDbPoint
10
32
20
-5
30
0
39
0
210
0
220
0
230
1
50
360
0
SPLINE
5
D5
100
AcDbEntity
8
1
62
256
6
ByLayer
370
18
48
1
60
0
100
AcDbSpline
70
4
71
3
72
26
73
22
40
0
40
0
40
0
40
0
40
0.0798690440316095
40
0.0798690440316095
40
0.159738088063219
40
0.159738088063219
40
0.239607132094828
40
0.239607132094828
40
0.319476176126438
40
0.319476176126438
40
0.399345220158047
40
0.399345220158047
40
0.479214264189657
40
0.479214264189657
40
0.638952352252877
40
0.638952352252877
40
0.798690440316097
40
0.798690440316097
40
0.958428528379317
40
0.958428528379317
40
1
40
1
40
1
40
1
41
1
10
31.892445709332
20
-0.803196497450926
30
0
41
1
10
31.8896679894112
20
-0.814330749660087
30
0
41
1
10
31.8863160259108
20
-0.827291684638254
30
0
41
1
10
31.8787246597486
20
-0.856036520119659
30
0
41
1
10
31.8744548371238
20
-0.871929734032761
30
0
41
1
10
31.865439156721
20
-0.905114384871723
30
0
41
1
10
31.8606738502075
20
-0.922481410803869
30
0
41
1
10
31.850752788874
20
-0.958390297934216
30
0
41
1
10
31.8455960979502
20
-0.976934975808376
30
0
41
1
10
31.8349700120695
20
-1.0149652390275
30
0
41
1
10
31.8294902689037
20
-1.03448729119285
30
0
41
1
10
31.8183180901062
20
-1.07414642536705
30
0
41
1
10
31.81264138039
20
-1.09422794823234
30
0
41
1
10
31.7953888677719
20
-1.15509081968383
30
0
41
1
10
31.7835931900368
20
-1.19648349623407
30
0
41
1
10
31.759577084403
20
-1.2804498015019
30
0
41
1
10
31.7473390649187
20
-1.3230833502937
30
0
41
1
10
31.7226054995034
20
-1.40901466233154
30
0
41
1
10
31.71013300118
20
-1.4522323575803
30
0
41
1
10
31.6943087053337
20
-1.5069497387141
30
0
41
1
10
31.6910352730399
20
-1.51826259208463
30
0
41
1
10
31.687756424252
20
-1.52958835905471
30
0
0
SPLINE
5
D6
100
AcDbEntity
8
1
62
256
6
ByLayer
370
18
48
1
60
0
100
AcDbSpline
70
4
71
3
72
8
73
4
40
0
40
0
40
0
40
0
40
1
40
1
40
1
40
1
41
1
10
31.9689437547093
20
-0.192319870276805
30
0
41
1
10
31.9434583971027
20
-0.396035853536546
30
0
41
1
10
31.9179565450426
20
-0.599645211914236
30
0
41
1
10
31.8924457093323
20
-0.803196497449306
30
0
0
SPLINE
5
D7
100
AcDbEntity
8
1
62
256
6
ByLayer
370
18
48
1
60
0
100
AcDbSpline
70
4
71
3
72
8
73
4
40
0
40
0
40
0
40
0
40
1
40
1
40
1
40
1
41
1
10
31.9557537416313
20
-0.194739798171099
30
0
41
1
10
31.9320913156179
20
-0.200378494536324
30
0
41
1
10
31.9077743809787
20
-0.20618753454221
30
0
41
1
10
31.8830521821579
20
-0.212102049362983
30
0
0
SPLINE
5
D8
100
AcDbEntity
8
1
62
256
6
ByLayer
370
18
48
1
60
0
100
AcDbSpline
70
4
71
3
72
20
73
16
40
0
40
0
40
0
40
0
40
0.0312500000000149
40
0.0312500000000149
40
0.0625000000000299
40
0.0625000000000299
40
0.12500000000006
40
0.12500000000006
40
0.25000000000004
40
0.25000000000004
40
0.37500000000002
40
0.37500000000002
40
0.5
40
0.5
40
1
40
1
40
1
40
1
41
1
10
31.8830521769825
20
-0.212102050096718
30
0
41
1
10
31.8787884691179
20
-0.213122095422165
30
0
41
1
10
31.8748250337982
20
-0.214066156370876
30
0
41
1
10
31.8671080299169
20
-0.215901169646315
30
0
41
1
10
31.8633690672835
20
-0.216788426470345
30
0
41
1
10
31.8523337459805
20
-0.219404250919638
30
0
41
1
10
31.8452936747695
20
-0.221069235459595
30
0
41
1
10
31.8245995121415
20
-0.225959551528206
30
0
41
1
10
31.8112947382654
20
-0.229098236320368
30
0
41
1
10
31.7847937578664
20
-0.235348753035737
30
0
41
1
10
31.7716351451889
20
-0.238451285934218
30
0
41
1
10
31.7452748536567
20
-0.244667005767525
30
0
41
1
10
31.7320791282506
20
-0.247778725224435
30
0
41
1
10
31.6658029468431
20
-0.263411036153173
30
0
41
1
10
31.6117161691213
20
-0.276180924987443
30
0
41
1
10
31.5561266436182
20
-0.289323091421039
30
0
0
SPLINE
5
D9
100
AcDbEntity
8
1
62
256
6
ByLayer
370
18
48
1
60
0
100
AcDbSpline
70
4
71
3
72
8
73
4
40
0
40
0
40
0
40
0
40
1
40
1
40
1
40
1
41
1
10
31.9689437547135
20
-0.192319870269756
30
0
41
1
10
31.9665957120492
20
-0.192633744655694
30
0
41
1
10
31.9622031478848
20
-0.193439361982371
30
0
41
1
10
31.9557537416375
20
-0.194739798169508
30
0
0
SPLINE
5
DA
100
AcDbEntity
8
1
62
256
6
ByLayer
370
18
48
1
60
0
100
AcDbSpline
70
4
71
3
72
14
73
10
40
0
40
0
40
0
40
0
40
0.25
40
0.25
40
0.5
40
0.5
40
0.75
40
0.75
40
1
40
1
40
1
40
1
41
1
10
10.0000000000001
20
4.96286885493674
30
0
41
1
10
9.9296521398033
20
4.91385367816972
30
0
41
1
10
9.85770786498094
20
4.86734458370279
30
0
41
1
10
9.7110126301491
20
4.77891039878025
30
0
41
1
10
9.63626031796994
20
4.73698722540362
30
0
41
1
10
9.4842638439566
20
4.65761800733915
30
0
41
1
10
9.4070185953214
20
4.62017260186727
30
0
41
1
10
9.25031914620428
20
4.54992971822406
30
0
41
1
10
9.17086396042944
20
4.51713192064574
30
0
41
1
10
9.09044505146753
20
4.48688031995857
30
0
0
SPLINE
5
DB
100
AcDbEntity
8
1
62
256
6
ByLayer
370
13
48
1
60
0
100
AcDbSpline
70
4
71
3
72
21
73
17
40
0
40
0
40
0
40
0
40
0.0400759891165834
40
0.148092494473201
40
0.257250498559075
40
0.330848482207035
40
0.366825679797369
40
0.418147022255677
40
0.434785920885564
40
0.505274584219243
40
0.578799363670942
40
0.687910188452107
40
0.741962667728229
40
0.850265565820714
40
0.941719828601349
40
1
40
1
40
1
40
1
41
1
10
31.8830521768356
20
4.12011564633349
30
0
41
1
10
31.8746887041645
20
4.13717167707748
30
0
41
1
10
31.8428166966128
20
4.19968731597274
30
0
41
1
10
31.7814885310208
20
4.30412611734741
30
0
41
1
10
31.7046670837967
20
4.41139943841279
30
0
41
1
10
31.6437208237883
20
4.48385581348532
30
0
41
1
10
31.5960446175607
20
4.53531640624766
30
0
41
1
10
31.5623453320332
20
4.56877978347026
30
0
41
1
10
31.5149851364769
20
4.61251224091254
30
0
41
1
10
31.4629506767231
20
4.6561443000937
30
0
41
1
10
31.3812649310632
20
4.71538716205447
30
0
41
1
10
31.3006032637595
20
4.76259144102733
30
0
41
1
10
31.2056113840037
20
4.8067272661267
30
0
41
1
10
31.1153374244451
20
4.83805554019614
30
0
41
1
10
31.0250129056328
20
4.85684609305048
30
0
41
1
10
30.9726525693376
20
4.8624211705544
30
0
41
1
10
30.9517736178768
20
4.86376030067362
30
0
0
SPLINE
5
DC
100
AcDbEntity
8
1
62
256
6
ByLayer
370
18
48
1
60
0
100
AcDbSpline
70
4
71
3
72
34
73
30
40
0
40
0
40
0
40
0
40
0.0625000000000076
40
0.0625000000000076
40
0.125000000000015
40
0.125000000000015
40
0.187500000000023
40
0.187500000000023
40
0.25000000000003
40
0.25000000000003
40
0.375000000000046
40
0.375000000000046
40
0.437500000000042
40
0.437500000000042
40
0.500000000000039
40
0.500000000000039
40
0.562500000000035
40
0.562500000000035
40
0.625000000000032
40
0.625000000000032
40
0.687500000000028
40
0.687500000000028
40
0.750000000000025
40
0.750000000000025
40
0.875000000000015
40
0.875000000000015
40
0.937500000000008
40
0.937500000000008
40
1
40
1
40
1
40
1
41
1
10
31.3791248998225
20
4.89066551856729
30
0
41
1
10
31.3988760990685
20
4.88726197135645
30
0
41
1
10
31.4182359836509
20
4.88255824289578
30
0
41
1
10
31.4562686981532
20
4.87073846864851
30
0
41
1
10
31.4749870043122
20
4.86359731891949
30
0
41
1
10
31.5114656782272
20
4.84715798875797
30
0
41
1
10
31.5292509369114
20
4.83785802247277
30
0
41
1
10
31.563989740508
20
4.81721945313276
30
0
41
1
10
31.5808651094611
20
4.80592019856036
30
0
41
1
10
31.629666866145
20
4.76965897768596
30
0
41
1
10
31.6600119409464
20
4.74220175205943
30
0
41
1
10
31.7027038775903
20
4.69652128748052
30
0
41
1
10
31.7164589824164
20
4.68053970879643
30
0
41
1
10
31.7430454990361
20
4.64711121919126
30
0
41
1
10
31.7558397358314
20
4.62970230173994
30
0
41
1
10
31.7802622098586
20
4.59386725004984
30
0
41
1
10
31.7919250574546
20
4.57539686038672
30
0
41
1
10
31.8142007123285
20
4.53737393707476
30
0
41
1
10
31.8247942394667
20
4.51784919191644
30
0
41
1
10
31.8448292694133
20
4.47802404778312
30
0
41
1
10
31.8542887524209
20
4.45769340510819
30
0
41
1
10
31.8721304695676
20
4.41621909712927
30
0
41
1
10
31.880525119021
20
4.39503991986126
30
0
41
1
10
31.9040238748775
20
4.33056769600503
30
0
41
1
10
31.9174281363745
20
4.28644256009073
30
0
41
1
10
31.934303190558
20
4.21861266829384
30
0
41
1
10
31.9393815602413
20
4.19573731358679
30
0
41
1
10
31.9483989101937
20
4.14980212374391
30
0
41
1
10
31.952349592007
20
4.12669819518044
30
0
41
1
10
31.9557537416435
20
4.10346103228676
30
0
0
SPLINE
5
DD
100
AcDbEntity
8
1
62
256
6
ByLayer
370
18
48
1
60
0
100
AcDbSpline
70
4
71
3
72
8
73
4
40
0
40
0
40
0
40
0
40
1
40
1
40
1
40
1
41
1
10
31.3548073521543
20
4.89481593256005
30
0
41
1
10
31.3628879188614
20
4.89345022825648
30
0
41
1
10
31.3709939062286
20
4.89206665984594
30
0
41
1
10
31.3791248998225
20
4.89066551856723
30
0
0
SPLINE
5
DE
100
AcDbEntity
8
1
62
256
6
ByLayer
370
18
48
1
60
0
100
AcDbSpline
70
4
71
3
72
8
73
4
40
0
40
0
40
0
40
0
40
1
40
1
40
1
40
1
41
1
10
31.9557537416477
20
4.10346103230333
30
0
41
1
10
31.9320959901595
20
4.11121810266252
30
0
41
1
10
31.9077785563481
20
4.1164496673708
30
0
41
1
10
31.8830521822329
20
4.120115658755
30
0
0
SPLINE
5
DF
100
AcDbEntity
8
1
62
256
6
ByLayer
370
18
48
1
60
0
100
AcDbSpline
70
4
71
3
72
20
73
16
40
0
40
0
40
0
40
0
40
0.0312500000000225
40
0.0312500000000225
40
0.062500000000045
40
0.062500000000045
40
0.12500000000009
40
0.12500000000009
40
0.2500000000001
40
0.2500000000001
40
0.37500000000011
40
0.37500000000011
40
0.500000000000121
40
0.500000000000121
40
1
40
1
40
1
40
1
41
1
10
31.8830521769824
20
4.12011564627429
30
0
41
1
10
31.8787884312595
20
4.12074779952741
30
0
41
1
10
31.8748249630603
20
4.12212678725317
30
0
41
1
10
31.8671078950921
20
4.12540673717007
30
0
41
1
10
31.8633689016804
20
4.12734402726542
30
0
41
1
10
31.8523334892772
20
4.13360748368351
30
0
41
1
10
31.8452933634741
20
4.13832854365631
30
0
41
1
10
31.8245990322465
20
4.15294546718889
30
0
41
1
10
31.8112941463183
20
4.16337642839588
30
0
41
1
10
31.784792937968
20
4.18439000312355
30
0
41
1
10
31.7716342096176
20
4.19502525047861
30
0
41
1
10
31.7452736827027
20
4.21623517474828
30
0
41
1
10
31.7320778376424
20
4.22681720320435
30
0
41
1
10
31.665801047519
20
4.27928937640561
30
0
41
1
10
31.6117137532895
20
4.31969833208353
30
0
41
1
10
31.556123682073
20
4.35789543435442
30
0
0
SPLINE
5
E0
100
AcDbEntity
8
1
62
256
6
ByLayer
370
18
48
1
60
0
100
AcDbSpline
70
4
71
3
72
8
73
4
40
0
40
0
40
0
40
0
40
1
40
1
40
1
40
1
41
1
10
31.9689437547146
20
3.96116426602353
30
0
41
1
10
31.9665957120513
20
4.00879955896036
30
0
41
1
10
31.9622031478884
20
4.05623936781507
30
0
41
1
10
31.9557537416433
20
4.10346103228659
30
0
0
SPLINE
5
E1
100
AcDbEntity
8
1
62
256
6
ByLayer
370
18
48
1
60
0
100
AcDbSpline
70
4
71
1
72
4
73
2
40
0
40
0
40
1
40
1
41
1
10
10.0000000000001
20
4.61352653137206
30
0
41
1
10
9.09044505146753
20
4.48688031995857
30
0
0
SPLINE
5
E2
100
AcDbEntity
8
1
62
256
6
ByLayer
370
18
48
1
60
0
100
AcDbSpline
70
4
71
3
72
8
73
4
40
0
40
0
40
0
40
0
40
1
40
1
40
1
40
1
41
1
10
9.09044505146753
20
4.48688031995857
30
0
41
1
10
9.07094201576993
20
4.47953971532067
30
0
41
1
10
9.05137645237627
20
4.47235802642822
30
0
41
1
10
9.03175416344814
20
4.46533999348048
30
0
0
SPLINE
5
E3
100
AcDbEntity
8
1
62
256
6
ByLayer
370
18
48
1
60
0
100
AcDbSpline
70
4
71
3
72
26
73
22
40
0
40
0
40
0
40
0
40
0.119271324263756
40
0.119271324263756
40
0.238542648527512
40
0.238542648527512
40
0.477085297055096
40
0.477085297055096
40
0.59635662131892
40
0.59635662131892
40
0.655992283450832
40
0.655992283450832
40
0.715627945582744
40
0.715627945582744
40
0.834899269846515
40
0.834899269846515
40
0.894534931978378
40
0.894534931978378
40
0.954170594110241
40
0.954170594110241
40
1
40
1
40
1
40
1
41
1
10
31.2923318857132
20
-0.299222718373528
30
0
41
1
10
31.2715939404065
20
-0.29492098820333
30
0
41
1
10
31.2510750496713
20
-0.289779172321886
30
0
41
1
10
31.2104717981875
20
-0.277782648580796
30
0
41
1
10
31.1903410428403
20
-0.270910236918581
30
0
41
1
10
31.130925119378
20
-0.24765388749023
30
0
41
1
10
31.0933607552784
20
-0.228999447464105
30
0
41
1
10
31.0403147103563
20
-0.195631305372501
30
0
41
1
10
31.0231891010263
20
-0.183600376302024
30
0
41
1
10
30.9984431647964
20
-0.163971607075609
30
0
41
1
10
30.9903522619232
20
-0.157163776781516
30
0
41
1
10
30.9745143567209
20
-0.142962823417292
30
0
41
1
10
30.9667427625492
20
-0.135542122683376
30
0
41
1
10
30.94432835062
20
-0.112642425848406
30
0
41
1
10
30.9304962099993
20
-0.0964670203687774
30
0
41
1
10
30.9116299560703
20
-0.0706424564292263
30
0
41
1
10
30.9056561147131
20
-0.0617729712259063
30
0
41
1
10
30.8943935165317
20
-0.0434619529142992
30
0
41
1
10
30.8890885161416
20
-0.0339796564384471
30
0
41
1
10
30.8805444946159
20
-0.0170113266916019
30
0
41
1
10
30.8770952426051
20
-0.0095502729362238
30
0
41
1
10
30.8739142061144
20
-0.0020003052152902
30
0
0
SPLINE
5
E4
100
AcDbEntity
8
1
62
256
6
ByLayer
370
18
48
1
60
0
100
AcDbSpline
70
4
71
3
72
8
73
4
40
0
40
0
40
0
40
0
40
1
40
1
40
1
40
1
41
1
10
31.3548073521543
20
-4.89481593256028
30
0
41
1
10
31.3628879188614
20
-4.89345022825674
30
0
41
1
10
31.3709939062286
20
-4.89206665984619
30
0
41
1
10
31.3791248998225
20
-4.89066551856749
30
0
0
SPLINE
5
E5
100
AcDbEntity
8
1
62
256
6
ByLayer
370
18
48
1
60
0
100
AcDbSpline
70
4
71
3
72
34
73
30
40
0
40
0
40
0
40
0
40
0.0624999999999929
40
0.0624999999999929
40
0.124999999999986
40
0.124999999999986
40
0.187499999999979
40
0.187499999999979
40
0.249999999999972
40
0.249999999999972
40
0.374999999999957
40
0.374999999999957
40
0.437499999999961
40
0.437499999999961
40
0.499999999999964
40
0.499999999999964
40
0.562499999999967
40
0.562499999999967
40
0.62499999999997
40
0.62499999999997
40
0.687499999999973
40
0.687499999999973
40
0.749999999999976
40
0.749999999999976
40
0.874999999999992
40
0.874999999999992
40
0.937499999999996
40
0.937499999999996
40
1
40
1
40
1
40
1
41
1
10
31.3791248998225
20
-4.89066551856754
30
0
41
1
10
31.3988760990685
20
-4.88726197135671
30
0
41
1
10
31.4182359836509
20
-4.88255824289604
30
0
41
1
10
31.4562686981532
20
-4.87073846864874
30
0
41
1
10
31.4749870043122
20
-4.86359731891972
30
0
41
1
10
31.5114656782272
20
-4.8471579887582
30
0
41
1
10
31.5292509369114
20
-4.837858022473
30
0
41
1
10
31.5639897405081
20
-4.81721945313296
30
0
41
1
10
31.5808651094612
20
-4.80592019856056
30
0
41
1
10
31.6296668661451
20
-4.76965897768616
30
0
41
1
10
31.6600119409464
20
-4.7422017520596
30
0
41
1
10
31.7027038775904
20
-4.69652128748069
30
0
41
1
10
31.7164589824164
20
-4.6805397087966
30
0
41
1
10
31.7430454990362
20
-4.64711121919143
30
0
41
1
10
31.7558397358315
20
-4.62970230174008
30
0
41
1
10
31.7802622098586
20
-4.59386725004995
30
0
41
1
10
31.7919250574547
20
-4.57539686038683
30
0
41
1
10
31.8142007123285
20
-4.53737393707488
30
0
41
1
10
31.8247942394668
20
-4.51784919191653
30
0
41
1
10
31.8448292694134
20
-4.47802404778321
30
0
41
1
10
31.854288752421
20
-4.45769340510827
30
0
41
1
10
31.8721304695677
20
-4.41621909712933
30
0
41
1
10
31.880525119021
20
-4.39503991986132
30
0
41
1
10
31.9040238748775
20
-4.33056769600506
30
0
41
1
10
31.9174281363746
20
-4.28644256009073
30
0
41
1
10
31.9343031905581
20
-4.21861266829382
30
0
41
1
10
31.9393815602414
20
-4.19573731358676
30
0
41
1
10
31.9483989101937
20
-4.14980212374385
30
0
41
1
10
31.952349592007
20
-4.12669819518038
30
0
41
1
10
31.9557537416436
20
-4.10346103228665
30
0
0
SPLINE
5
E6
100
AcDbEntity
8
1
62
256
6
ByLayer
370
18
48
1
60
0
100
AcDbSpline
70
4
71
3
72
8
73
4
40
0
40
0
40
0
40
0
40
1
40
1
40
1
40
1
41
1
10
31.9689437547135
20
-3.96116426604547
30
0
41
1
10
31.9665957120499
20
-4.00879955897491
30
0
41
1
10
31.9622031478874
20
-4.05623936782229
30
0
41
1
10
31.9557537416434
20
-4.1034610322865
30
0
0
SPLINE
5
E7
100
AcDbEntity
8
1
62
256
6
ByLayer
370
18
48
1
60
0
100
AcDbSpline
70
4
71
3
72
8
73
4
40
0
40
0
40
0
40
0
40
1
40
1
40
1
40
1
41
1
10
31.9689437547135
20
-3.96116426604547
30
0
41
1
10
31.9434584291201
20
-3.93312063871323
30
0
41
1
10
31.9179565713536
20
-3.90392526412015
30
0
41
1
10
31.8924457093324
20
-3.87410258991827
30
0
0
SPLINE
5
E8
100
AcDbEntity
8
1
62
256
6
ByLayer
370
18
48
1
60
0
100
AcDbSpline
70
4
71
3
72
8
73
4
40
0
40
0
40
0
40
0
40
1
40
1
40
1
40
1
41
1
10
31.5171362111614
20
4.41998770015047
30
0
41
1
10
31.5306871056926
20
4.39985683937741
30
0
41
1
10
31.5436962279261
20
4.37916404478801
30
0
41
1
10
31.556123682069
20
4.35789543435038
30
0
0
SPLINE
5
E9
100
AcDbEntity
8
1
62
256
6
ByLayer
370
18
48
1
60
0
100
AcDbSpline
70
4
71
3
72
27
73
23
40
0
40
0
40
0
40
0
40
0.151400468746948
40
0.151400468746948
40
0.189250585933684
40
0.189250585933684
40
0.227100703120419
40
0.302800937493884
40
0.302800937493884
40
0.454201406240822
40
0.454201406240822
40
0.492051523427564
40
0.492051523427564
40
0.529901640614305
40
0.605601874987804
40
0.681302109361302
40
0.681302109361302
40
0.757002343734801
40
0.757002343734801
40
0.908402812481798
40
0.908402812481798
40
1
40
1
40
1
40
1
41
1
10
31.5561236820625
20
4.3578954343505
30
0
41
1
10
31.5565720860004
20
4.27299174052473
30
0
41
1
10
31.5499907736006
20
4.1883960553603
30
0
41
1
10
31.531110559778
20
4.08311823770541
30
0
41
1
10
31.5267860044065
20
4.06203283384113
30
0
41
1
10
31.5170652421428
20
4.020163209233
30
0
41
1
10
31.5009412195066
20
3.95804938624474
30
0
41
1
10
31.4802041278122
20
3.89800043628557
30
0
41
1
10
31.4326253170283
20
3.78063505137638
30
0
41
1
10
31.3927579623235
20
3.70603868410231
30
0
41
1
10
31.3329776558703
20
3.61724524173618
30
0
41
1
10
31.3206036265931
20
3.59982787144435
30
0
41
1
10
31.2951660644454
20
3.56577385966744
30
0
41
1
10
31.2559275637895
20
3.5157944183307
30
0
41
1
10
31.1854591360236
20
3.43765727191607
30
0
41
1
10
31.1243017241485
20
3.38001604758992
30
0
41
1
10
31.0610222513719
20
3.32453496372491
30
0
41
1
10
31.0282869903876
20
3.29784864560125
30
0
41
1
10
30.9274623316864
20
3.22083794230935
30
0
41
1
10
30.8578379144209
20
3.17430773710251
30
0
41
1
10
30.7433021411127
20
3.10519745034134
30
0
41
1
10
30.699488902745
20
3.08042372945488
30
0
41
1
10
30.6551322865008
20
3.05673547974251
30
0
0
SPLINE
5
EA
100
AcDbEntity
8
1
62
256
6
ByLayer
370
18
48
1
60
0
100
AcDbSpline
70
4
71
3
72
15
73
11
40
0
40
0
40
0
40
0
40
0.423953262588808
40
0.423953262588808
40
0.529941578236017
40
0.529941578236017
40
0.635929893883225
40
0.847906525177637
40
0.847906525177637
40
1
40
1
40
1
40
1
41
1
10
31.5561266436098
20
-0.289323091423057
30
0
41
1
10
31.5565767515613
20
-0.289660237080113
30
0
41
1
10
31.5499929255927
20
-0.291683914260432
30
0
41
1
10
31.5311212311806
20
-0.296765129812229
30
0
41
1
10
31.5268011262702
20
-0.29791246898094
30
0
41
1
10
31.5170792161626
20
-0.300465433802344
30
0
41
1
10
31.5009527674027
20
-0.30466174016999
30
0
41
1
10
31.4802114875126
20
-0.309954840361826
30
0
41
1
10
31.4529669632299
20
-0.316846267438393
30
0
41
1
10
31.4405363942954
20
-0.319974517745095
30
0
41
1
10
31.4270658184358
20
-0.323349943547697
30
0
0
SPLINE
5
EB
100
AcDbEntity
8
1
62
256
6
ByLayer
370
18
48
1
60
0
100
AcDbSpline
70
4
71
3
72
24
73
20
40
0
40
0
40
0
40
0
40
0.0624999999999994
40
0.0624999999999994
40
0.124999999999999
40
0.124999999999999
40
0.187499999999998
40
0.187499999999998
40
0.249999999999997
40
0.249999999999997
40
0.374999999999998
40
0.374999999999998
40
0.499999999999998
40
0.499999999999998
40
0.624999999999998
40
0.624999999999998
40
0.749999999999999
40
0.749999999999999
40
1
40
1
40
1
40
1
41
1
10
31.8924457093326
20
-3.87410258991667
30
0
41
1
10
31.8896620009282
20
-3.89395788158362
30
0
41
1
10
31.8862823321199
20
-3.91255208820118
30
0
41
1
10
31.8785707164672
20
-3.94772542864649
30
0
41
1
10
31.8743217663257
20
-3.96392882893167
30
0
41
1
10
31.8652965882428
20
-3.99413153019333
30
0
41
1
10
31.8605098313439
20
-4.00816269925508
30
0
41
1
10
31.8505120077026
20
-4.03456879441683
30
0
41
1
10
31.8452873303027
20
-4.04696781553471
30
0
41
1
10
31.8291820917438
20
-4.08196364620719
30
0
41
1
10
31.8180104920681
20
-4.10215306099255
30
0
41
1
10
31.7951101986274
20
-4.13850701766404
30
0
41
1
10
31.7833765900365
20
-4.15463605109557
30
0
41
1
10
31.7595000978992
20
-4.18393720330457
30
0
41
1
10
31.7473555950739
20
-4.19709762319798
30
0
41
1
10
31.7227465055013
20
-4.22110593238361
30
0
41
1
10
31.7102695166722
20
-4.23195801771979
30
0
41
1
10
31.6725263145568
20
-4.26161457394281
30
0
41
1
10
31.6470443231334
20
-4.27750141423306
30
0
41
1
10
31.6213377036658
20
-4.29066047147759
30
0
0
SPLINE
5
EC
100
AcDbEntity
8
1
62
256
6
ByLayer
370
18
48
1
60
0
100
AcDbSpline
70
4
71
3
72
14
73
10
40
0
40
0
40
0
40
0
40
0.25
40
0.25
40
0.5
40
0.5
40
0.75
40
0.75
40
1
40
1
40
1
40
1
41
1
10
10
20
-4.96286885493683
30
0
41
1
10
9.92965213980307
20
-4.91385367816972
30
0
41
1
10
9.85770786498054
20
-4.8673445837027
30
0
41
1
10
9.71101263014842
20
-4.77891039878006
30
0
41
1
10
9.63626031796915
20
-4.7369872254034
30
0
41
1
10
9.48426384395552
20
-4.65761800733884
30
0
41
1
10
9.40701859532024
20
-4.62017260186698
30
0
41
1
10
9.25031914620268
20
-4.54992971822375
30
0
41
1
10
9.1708639604276
20
-4.51713192064545
30
0
41
1
10
9.09044505146531
20
-4.4868803199584
30
0
0
SPLINE
5
ED
100
AcDbEntity
8
1
62
256
6
ByLayer
370
18
48
1
60
0
100
AcDbSpline
70
4
71
3
72
42
73
38
40
0
40
0
40
0
40
0
40
0.0625000000000329
40
0.0625000000000329
40
0.125000000000066
40
0.125000000000066
40
0.250000000000094
40
0.250000000000094
40
0.312500000000109
40
0.312500000000109
40
0.343750000000116
40
0.343750000000116
40
0.375000000000123
40
0.375000000000123
40
0.437500000000109
40
0.437500000000109
40
0.468750000000114
40
0.468750000000114
40
0.500000000000119
40
0.500000000000119
40
0.562500000000111
40
0.562500000000111
40
0.593750000000107
40
0.593750000000107
40
0.625000000000103
40
0.625000000000103
40
0.687500000000095
40
0.687500000000095
40
0.71875000000009
40
0.71875000000009
40
0.750000000000084
40
0.750000000000084
40
0.812500000000063
40
0.812500000000063
40
0.875000000000042
40
0.875000000000042
40
1
40
1
40
1
40
1
41
1
10
31.2923318857132
20
0.299222718373301
30
0
41
1
10
31.2715939404065
20
0.294920988203131
30
0
41
1
10
31.2510750496713
20
0.289779172321659
30
0
41
1
10
31.2104717981876
20
0.277782648580597
30
0
41
1
10
31.1903410428403
20
0.270910236918383
30
0
41
1
10
31.130925119378
20
0.247653887490031
30
0
41
1
10
31.0933607552784
20
0.228999447463906
30
0
41
1
10
31.0403147103563
20
0.195631305372302
30
0
41
1
10
31.0231891010263
20
0.183600376301797
30
0
41
1
10
30.9984431647964
20
0.163971607075382
30
0
41
1
10
30.9903522619232
20
0.157163776781317
30
0
41
1
10
30.974514356721
20
0.142962823417093
30
0
41
1
10
30.9667427625492
20
0.135542122683148
30
0
41
1
10
30.94432835062
20
0.112642425848207
30
0
41
1
10
30.9304962099993
20
0.0964670203685785
30
0
41
1
10
30.9116299560702
20
0.0706424564290273
30
0
41
1
10
30.905656114713
20
0.0617729712257074
30
0
41
1
10
30.8943935165317
20
0.0434619529141003
30
0
41
1
10
30.8890885161416
20
0.0339796564382482
30
0
41
1
10
30.8745947584308
20
0.0051952181771355
30
0
41
1
10
30.8667170640446
20
-0.0145872973054395
30
0
41
1
10
30.8577019704374
20
-0.0451868191859148
30
0
41
1
10
30.8551650647054
20
-0.0555413566683853
30
0
41
1
10
30.8510644145402
20
-0.0765712479472427
30
0
41
1
10
30.8495002860061
20
-0.087301795840574
30
0
41
1
10
30.84638996599
20
-0.119194728824084
30
0
41
1
10
30.8463585505398
20
-0.140264101081044
30
0
41
1
10
30.849063833316
20
-0.171585438244648
30
0
41
1
10
30.8504302286298
20
-0.182002945246239
30
0
41
1
10
30.8540289741717
20
-0.202639251151822
30
0
41
1
10
30.8562400218185
20
-0.212752640970336
30
0
41
1
10
30.8639678929448
20
-0.242539518869165
30
0
41
1
10
30.8705729870351
20
-0.26166259928695
30
0
41
1
10
30.8861577018055
20
-0.29866927009661
30
0
41
1
10
30.8951982467466
20
-0.316639477246355
30
0
41
1
10
30.9247741443219
20
-0.367975060765815
30
0
41
1
10
30.9477441197803
20
-0.399027925747504
30
0
41
1
10
30.9728560275509
20
-0.4278243622189
30
0
0
SPLINE
5
EE
100
AcDbEntity
8
1
62
256
6
ByLayer
370
18
48
1
60
0
100
AcDbSpline
70
4
71
3
72
8
73
4
40
0
40
0
40
0
40
0
40
1
40
1
40
1
40
1
41
1
10
9.10697104897901
20
-3.82929184536857
30
0
41
1
10
9.07805520582687
20
-3.80665648902055
30
0
41
1
10
9.05257633861513
20
-3.78299192430555
30
0
41
1
10
9.03175416344808
20
-3.75733211718816
30
0
0
SPLINE
5
EF
100
AcDbEntity
8
1
62
256
6
ByLayer
370
18
48
1
60
0
100
AcDbSpline
70
4
71
3
72
9
73
5
40
0
40
0
40
0
40
0
40
0.57544743803099
40
1
40
1
40
1
40
1
41
1
10
31.3490954337423
20
2.5787660574652
30
0
41
1
10
31.3407657074827
20
2.59882864790967
30
0
41
1
10
31.3290728947458
20
2.62425056746017
30
0
41
1
10
31.3221247564475
20
2.63357087997059
30
0
41
1
10
31.3200349567637
20
2.63460916158201
30
0
0
SPLINE
5
F0
100
AcDbEntity
8
1
62
256
6
ByLayer
370
18
48
1
60
0
100
AcDbSpline
70
4
71
1
72
4
73
2
40
0
40
0
40
1
40
1
41
1
10
7.31084284651331
20
-3.74792759119137
30
0
41
1
10
5.85885284037886
20
-3.89278553985017
30
0
0
SPLINE
5
F1
100
AcDbEntity
8
1
62
256
6
ByLayer
370
18
48
1
60
0
100
AcDbSpline
70
4
71
3
72
8
73
4
40
0
40
0
40
0
40
0
40
1
40
1
40
1
40
1
41
1
10
9.09044505146531
20
-4.4868803199584
30
0
41
1
10
9.07094201576845
20
-4.47953971532078
30
0
41
1
10
9.05137645237554
20
-4.47235802642862
30
0
41
1
10
9.03175416344814
20
-4.46533999348117
30
0
0
SPLINE
5
F2
100
AcDbEntity
8
1
62
256
6
ByLayer
370
18
48
1
60
0
100
AcDbSpline
70
4
71
3
72
8
73
4
40
0
40
0
40
0
40
0
40
1
40
1
40
1
40
1
41
1
10
9.21363056945822
20
-3.75276267272753
30
0
41
1
10
9.13515540400587
20
-3.699679714772
30
0
41
1
10
9.05556326308675
20
-3.65537682171109
30
0
41
1
10
8.97559047730888
20
-3.61912027498778
30
0
0
SPLINE
5
F3
100
AcDbEntity
8
1
62
256
6
ByLayer
370
18
48
1
60
0
100
AcDbSpline
70
4
71
1
72
4
73
2
40
0
40
0
40
1
40
1
41
1
10
21.0943192345062
20
-3.48560121857108
30
0
41
1
10
18.9018366425138
20
-3.89649401507569
30
0
0
SPLINE
5
F4
100
AcDbEntity
8
1
62
256
6
ByLayer
370
18
48
1
60
0
100
AcDbSpline
70
4
71
1
72
4
73
2
40
0
40
0
40
1
40
1
41
1
10
10
20
3.47964352089502
30
0
41
1
10
9.91614129284241
20
3.48800969438435
30
0
0
SPLINE
5
F5
100
AcDbEntity
8
1
62
256
6
ByLayer
370
18
48
1
60
0
100
AcDbSpline
70
4
71
3
72
8
73
4
40
0
40
0
40
0
40
0
40
1
40
1
40
1
40
1
41
1
10
9.21363057078946
20
3.056028491143
30
0
41
1
10
9.13515539248073
20
3.12113049108086
30
0
41
1
10
9.05556325093124
20
3.18952945883515
30
0
41
1
10
8.97559047658874
20
3.26163159798557
30
0
0
SPLINE
5
F6
100
AcDbEntity
8
1
62
256
6
ByLayer
370
13
48
1
60
0
100
AcDbSpline
70
4
71
1
72
4
73
2
40
0
40
0
40
1
40
1
41
1
10
10
20
-3.98011562120445
30
0
41
1
10
8.49478267507902
20
-3.25648535205173
30
0
0
SPLINE
5
F7
100
AcDbEntity
8
1
62
256
6
ByLayer
370
18
48
1
60
0
100
AcDbSpline
70
4
71
1
72
4
73
2
40
0
40
0
40
1
40
1
41
1
10
10
20
2.38457609433473
30
0
41
1
10
9.69632617375174
20
2.63220644960592
30
0
0
SPLINE
5
F8
100
AcDbEntity
8
1
62
256
6
ByLayer
370
18
48
1
60
0
100
AcDbSpline
70
4
71
1
72
4
73
2
40
0
40
0
40
1
40
1
41
1
10
8.37554008847306
20
3.70923943455387
30
0
41
1
10
8.069996200611
20
3.95839472869616
30
0
0
SPLINE
5
F9
100
AcDbEntity
8
1
62
256
6
ByLayer
370
18
48
1
60
0
100
AcDbSpline
70
4
71
3
72
9
73
5
40
0
40
0
40
0
40
0
40
0.5
40
1
40
1
40
1
40
1
41
1
10
31.573888166117
20
1.88046347911754
30
0
41
1
10
31.5327620706899
20
2.01033650491092
30
0
41
1
10
31.4541961841962
20
2.25649871992303
30
0
41
1
10
31.3828938253558
20
2.4758952274556
30
0
41
1
10
31.3490954337422
20
2.57876605746526
30
0
0
SPLINE
5
FA
100
AcDbEntity
8
1
62
256
6
ByLayer
370
18
48
1
60
0
100
AcDbSpline
70
4
71
3
72
18
73
14
40
0
40
0
40
0
40
0
40
0.262209071425011
40
0.262209071425011
40
0.524418142850023
40
0.524418142850023
40
0.655522678562523
40
0.655522678562523
40
0.721074946418774
40
0.721074946418774
40
0.786627214275024
40
0.786627214275024
40
1
40
1
40
1
40
1
41
1
10
31.3490954337422
20
2.57876605746523
30
0
41
1
10
31.1546953869501
20
2.7184031034231
30
0
41
1
10
30.961001860165
20
2.85044985601894
30
0
41
1
10
30.5737538410909
20
3.09858388324272
30
0
41
1
10
30.3802022029069
20
3.21467039684978
30
0
41
1
10
30.0888492238868
20
3.37577488449188
30
0
41
1
10
29.9915585218176
20
3.42730069236396
30
0
41
1
10
29.8451992298654
20
3.50115010294493
30
0
41
1
10
29.796298631502
20
3.5252132925792
30
0
41
1
10
29.6986356790957
20
3.57201374855504
30
0
41
1
10
29.6498557150788
20
3.59476110371568
30
0
41
1
10
29.4424558176476
20
3.68874165921761
30
0
41
1
10
29.2842210709054
20
3.75361536599303
30
0
41
1
10
29.1258334770604
20
3.81124496933552
30
0
0
SPLINE
5
FB
100
AcDbEntity
8
1
62
256
6
ByLayer
370
18
48
1
60
0
100
AcDbSpline
70
4
71
3
72
18
73
14
40
0
40
0
40
0
40
0
40
0.249999999999998
40
0.249999999999998
40
0.374999999999991
40
0.374999999999991
40
0.499999999999985
40
0.499999999999985
40
0.624999999999978
40
0.624999999999978
40
0.749999999999972
40
0.749999999999972
40
1
40
1
40
1
40
1
41
1
10
31.6141115674434
20
1.76245598647074
30
0
41
1
10
31.6134795363467
20
1.76278090181185
30
0
41
1
10
31.611847275759
20
1.76655172763884
30
0
41
1
10
31.6082537988005
20
1.77615296910778
30
0
41
1
10
31.6068498874346
20
1.78005784953874
30
0
41
1
10
31.6037683003704
20
1.78886045520863
30
0
41
1
10
31.602085961547
20
1.7937690070197
30
0
41
1
10
31.5984775425297
20
1.80445959473653
30
0
41
1
10
31.5965512286477
20
1.81024246809903
30
0
41
1
10
31.5924791169479
20
1.8225947687298
30
0
41
1
10
31.5903258441503
20
1.82918755143737
30
0
41
1
10
31.5836500763823
20
1.84978365050736
30
0
41
1
10
31.5788965115652
20
1.86464732425017
30
0
41
1
10
31.5738881653354
20
1.88046347940036
30
0
0
SPLINE
5
FC
100
AcDbEntity
8
1
62
256
6
ByLayer
370
18
48
1
60
0
100
AcDbSpline
70
4
71
3
72
8
73
4
40
0
40
0
40
0
40
0
40
1
40
1
40
1
40
1
41
1
10
31.5738881648232
20
1.8804634810175
30
0
41
1
10
31.3310695298711
20
2.09346987096001
30
0
41
1
10
31.088250894919
20
2.29788266507623
30
0
41
1
10
30.8454322599669
20
2.4914439262642
30
0
0
SPLINE
5
FD
100
AcDbEntity
8
1
62
256
6
ByLayer
370
18
48
1
60
0
100
AcDbSpline
70
4
71
3
72
9
73
5
40
0
40
0
40
0
40
0
40
0.2569441378147
40
1
40
1
40
1
40
1
41
1
10
13.7009330522101
20
-4.17950420326267
30
0
41
1
10
13.3839553681401
20
-4.26951999848177
30
0
41
1
10
12.1503110174034
20
-4.49890936028459
30
0
41
1
10
10.9166666666667
20
-4.23859467612999
30
0
41
1
10
10
20
-3.7846818924387
30
0
0
SPLINE
5
FE
100
AcDbEntity
8
1
62
256
6
ByLayer
370
18
48
1
60
0
100
AcDbSpline
70
4
71
5
72
12
73
6
40
0
40
0
40
0
40
0
40
0
40
0
40
1
40
1
40
1
40
1
40
1
40
1
41
1
10
10
20
-3.7846818924387
30
0
41
0.982012219649945
10
10
20
-3.816151825959
30
0
41
0.973220554626118
10
10
20
-3.85333700183961
30
0
41
0.973220554626118
10
10
20
-3.89442308007104
30
0
41
0.982012219649945
10
10
20
-3.93739102752735
30
0
41
1
10
10
20
-3.98011562120445
30
0
0
SPLINE
5
FF
100
AcDbEntity
8
1
62
256
6
ByLayer
370
18
48
1
60
0
100
AcDbSpline
70
4
71
3
72
8
73
4
40
0
40
0
40
0
40
0
40
1
40
1
40
1
40
1
41
1
10
31.3977450240536
20
-3.29302819920352
30
0
41
1
10
31.3925509055367
20
-3.21567102039381
30
0
41
1
10
31.3888007659965
20
-3.13862013652866
30
0
41
1
10
31.386473687868
20
-3.06187111060274
30
0
0
SPLINE
5
100
100
AcDbEntity
8
1
62
256
6
ByLayer
370
18
48
1
60
0
100
AcDbSpline
70
4
71
3
72
18
73
14
40
0
40
0
40
0
40
0
40
0.125
40
0.125
40
0.25
40
0.25
40
0.375000000000001
40
0.375000000000001
40
0.500000000000001
40
0.500000000000001
40
0.75
40
0.75
40
1
40
1
40
1
40
1
41
1
10
30.7391778662232
20
-1.99608414697298
30
0
41
1
10
30.7597078300083
20
-2.04490280051505
30
0
41
1
10
30.7815479723373
20
-2.09314563020331
30
0
41
1
10
30.8273897045202
20
-2.18868122919261
30
0
41
1
10
30.8513938598575
20
-2.23597289928284
30
0
41
1
10
30.9012604639389
20
-2.32973947872088
30
0
41
1
10
30.9271242707826
20
-2.37621379115308
30
0
41
1
10
30.9804983476353
20
-2.46843875931398
30
0
41
1
10
31.00809372428
20
-2.51431429970057
30
0
41
1
10
31.0917566337564
20
-2.64881911115697
30
0
41
1
10
31.1490709086964
20
-2.7350596697282
30
0
41
1
10
31.2660735919183
20
-2.9022505708376
30
0
41
1
10
31.3257700722561
20
-2.98318292663572
30
0
41
1
10
31.3864736878677
20
-3.06187111060103
30
0
0
SPLINE
5
101
100
AcDbEntity
8
1
62
256
6
ByLayer
370
18
48
1
60
0
100
AcDbSpline
70
4
71
3
72
9
73
5
40
0
40
0
40
0
40
0
40
0.5
40
1
40
1
40
1
40
1
41
1
10
31.5739521762328
20
-3.84487541486635
30
0
41
1
10
31.5423752947807
20
-3.76040784759854
30
0
41
1
10
31.4814459315683
20
-3.5839134867536
30
0
41
1
10
31.4249071919543
20
-3.3924983800043
30
0
41
1
10
31.3977450240539
20
-3.2930281992007
30
0
0
SPLINE
5
102
100
AcDbEntity
8
1
62
256
6
ByLayer
370
18
48
1
60
0
100
AcDbSpline
70
4
71
3
72
57
73
53
40
0
40
0
40
0
40
0
40
0.032599307130313
40
0.032599307130313
40
0.0488989606954695
40
0.0488989606954695
40
0.0651986142606259
40
0.0651986142606259
40
0.130397228521257
40
0.130397228521257
40
0.162996535651572
40
0.162996535651572
40
0.179296189216731
40
0.179296189216731
40
0.19559584278189
40
0.19559584278189
40
0.260794457042529
40
0.260794457042529
40
0.325993071303167
40
0.325993071303167
40
0.358592378433488
40
0.358592378433488
40
0.391191685563808
40
0.391191685563808
40
0.407491339128967
40
0.407491339128967
40
0.423790992694126
40
0.423790992694126
40
0.456390299824441
40
0.456390299824441
40
0.521588914085072
40
0.521588914085072
40
0.554188221215388
40
0.554188221215388
40
0.586787528345703
40
0.586787528345703
40
0.651986142606334
40
0.651986142606334
40
0.717184756866965
40
0.717184756866965
40
0.782383371127595
40
0.782383371127595
40
0.847581985388226
40
0.847581985388226
40
0.88018129251854
40
0.896480946083698
40
0.896480946083698
40
0.912780599648855
40
0.912780599648855
40
0.97797921390948
40
0.97797921390948
40
1
40
1
40
1
40
1
41
1
10
31.3977450240647
20
-3.29302819920204
30
0
41
1
10
31.2993625826674
20
-3.23648247556747
30
0
41
1
10
31.2009967479144
20
-3.17749647610259
30
0
41
1
10
31.053343520356
20
-3.08546113648333
30
0
41
1
10
31.0041082507583
20
-3.05418976533409
30
0
41
1
10
30.9055795930905
20
-2.99047629158955
30
0
41
1
10
30.8563060052419
20
-2.95804624751611
30
0
41
1
10
30.6103330334539
20
-2.7934176287603
30
0
41
1
10
30.414371160317
20
-2.6535046364485
30
0
41
1
10
30.1204113715667
20
-2.43240576349189
30
0
41
1
10
30.0224209631509
20
-2.35683229249616
30
0
41
1
10
29.8752629389008
20
-2.24078060327543
30
0
41
1
10
29.8261413405817
20
-2.20161528492056
30
0
41
1
10
29.7281367120934
20
-2.12266999991277
30
0
41
1
10
29.6792275850407
20
-2.08287016989024
30
0
41
1
10
29.4350745981071
20
-1.88231305105947
30
0
41
1
10
29.2410314505163
20
-1.71684699418182
30
0
41
1
10
28.8534942196829
20
-1.37803608077959
30
0
41
1
10
28.6599375989088
20
-1.20478966891105
30
0
41
1
10
28.3683877095513
20
-0.940907858110108
30
0
41
1
10
28.2710017239438
20
-0.852278260794378
30
0
41
1
10
28.0756441993189
20
-0.673864560549731
30
0
41
1
10
27.9776877152616
20
-0.584062145192433
30
0
41
1
10
27.8302963986888
20
-0.448461795788091
30
0
41
1
10
27.7810895651707
20
-0.403112214570427
30
0
41
1
10
27.6825051048059
20
-0.312131172404577
30
0
41
1
10
27.6330960839648
20
-0.266470605266989
30
0
41
1
10
27.4851008164412
20
-0.129571615461685
30
0
41
1
10
27.3866013567082
20
-0.0382816755719659
30
0
41
1
10
27.0913577454566
20
0.235406681136936
30
0
41
1
10
26.8948764656832
20
0.417633505004318
30
0
41
1
10
26.5996111108246
20
0.689465441134303
30
0
41
1
10
26.500963489445
20
0.779942489678461
30
0
41
1
10
26.3046728838179
20
0.958899045671728
30
0
41
1
10
26.2068864423008
20
1.04751165030399
30
0
41
1
10
25.9142920567043
20
1.3104360620184
30
0
41
1
10
25.7202799877749
20
1.48182715677424
30
0
41
1
10
25.3323979400855
20
1.81504339455543
30
0
41
1
10
25.1385009890723
20
1.9768887473364
30
0
41
1
10
24.7490612403877
20
2.28954929558444
30
0
41
1
10
24.5534749175653
20
2.44039642529802
30
0
41
1
10
24.1594194413152
20
2.7293701928663
30
0
41
1
10
23.9631417915867
20
2.86597908097377
30
0
41
1
10
23.6690699753293
20
3.05811903941398
30
0
41
1
10
23.5221159575504
20
3.15097880077511
30
0
41
1
10
23.3749913007656
20
3.23886700734809
30
0
41
1
10
23.2768376445928
20
3.2963349639941
30
0
41
1
10
23.2277034277168
20
3.32451930058213
30
0
41
1
10
22.9820267466516
20
3.46243913278209
30
0
41
1
10
22.786211364459
20
3.56276917249434
30
0
41
1
10
22.5238708936018
20
3.68322850883018
30
0
41
1
10
22.4576033929461
20
3.71246896201771
30
0
41
1
10
22.3912674410919
20
3.74051819762985
30
0
0
SPLINE
5
103
100
AcDbEntity
8
1
62
256
6
ByLayer
370
13
48
1
60
0
100
AcDbSpline
70
4
71
3
72
14
73
10
40
0
40
0
40
0
40
0
40
0.25
40
0.25
40
0.5
40
0.5
40
0.75
40
0.75
40
1
40
1
40
1
40
1
41
1
10
22
20
-1.58941585450452
30
0
41
1
10
22
20
-1.48510345769282
30
0
41
1
10
22
20
-1.38286928241638
30
0
41
1
10
22
20
-1.18389774411378
30
0
41
1
10
22
20
-1.08716140087833
30
0
41
1
10
22.0000000000001
20
-0.900420586270542
30
0
41
1
10
22.0000000000001
20
-0.81041698399855
30
0
41
1
10
22
20
-0.63824065362806
30
0
41
1
10
22
20
-0.556068610834586
30
0
41
1
10
22
20
-0.478281759582472
30
0
0
SPLINE
5
104
100
AcDbEntity
8
1
62
256
6
ByLayer
370
18
48
1
60
0
100
AcDbSpline
70
4
71
1
72
4
73
2
40
0
40
0
40
1
40
1
41
1
10
22
20
-0.478281759582472
30
0
41
1
10
18.4437423051988
20
1.97201033350873
30
0
0
SPLINE
5
105
100
AcDbEntity
8
1
62
256
6
ByLayer
370
18
48
1
60
0
100
AcDbSpline
70
4
71
3
72
46
73
42
40
0
40
0
40
0
40
0
40
0.0280799772496044
40
0.0280799772496044
40
0.0703373695430979
40
0.0703373695430979
40
0.112594761836591
40
0.112594761836591
40
0.154852154130085
40
0.154852154130085
40
0.175980850276833
40
0.175980850276833
40
0.197109546423582
40
0.197109546423582
40
0.239366938717078
40
0.239366938717078
40
0.323881723304075
40
0.323881723304075
40
0.408396507891072
40
0.408396507891072
40
0.450653900184569
40
0.450653900184569
40
0.492911292478065
40
0.492911292478065
40
0.514039988624814
40
0.514039988624814
40
0.535168684771562
40
0.577426077065056
40
0.577426077065056
40
0.661940861652043
40
0.661940861652043
40
0.68306955779879
40
0.68306955779879
40
0.704198253945536
40
0.74645564623903
40
0.74645564623903
40
0.83097043082602
40
0.83097043082602
40
0.91548521541301
40
0.91548521541301
40
1
40
1
40
1
40
1
41
1
10
28.9189871354229
20
-3.88233133286218
30
0
41
1
10
28.8542120165505
20
-3.90328048568844
30
0
41
1
10
28.7893608363153
20
-3.92301813686163
30
0
41
1
10
28.6266146446091
20
-3.96941025614657
30
0
41
1
10
28.5288964228883
20
-3.99443163765923
30
0
41
1
10
28.3333612448181
20
-4.03882025099401
30
0
41
1
10
28.2355238412136
20
-4.05819489381852
30
0
41
1
10
28.0395614552374
20
-4.09130022452808
30
0
41
1
10
27.9414572385232
20
-4.10502465666573
30
0
41
1
10
27.7941135772362
20
-4.12126045614832
30
0
41
1
10
27.7449663348184
20
-4.12594843751108
30
0
41
1
10
27.6465907873565
20
-4.13387374084573
30
0
41
1
10
27.5973352926135
20
-4.13711128886922
30
0
41
1
10
27.4499366206984
20
-4.14461928041246
30
0
41
1
10
27.3520081240691
20
-4.14670241601107
30
0
41
1
10
27.0590090019228
20
-4.14433248584075
30
0
41
1
10
26.8647301591075
20
-4.13128023020724
30
0
41
1
10
26.4769892570974
20
-4.0824496164737
30
0
41
1
10
26.2835304722146
20
-4.04666558621304
30
0
41
1
10
25.9928337831212
20
-3.97566422837457
30
0
41
1
10
25.8958483196989
20
-3.94910522938602
30
0
41
1
10
25.7014886511276
20
-3.89011677573421
30
0
41
1
10
25.6041060920249
20
-3.85769856116846
30
0
41
1
10
25.4575248573212
20
-3.8047838833011
30
0
41
1
10
25.4085351559921
20
-3.78641261166584
30
0
41
1
10
25.310642520684
20
-3.74836550023252
30
0
41
1
10
25.1639116365737
20
-3.68933354928163
30
0
41
1
10
25.0173610156395
20
-3.6245616178432
30
0
41
1
10
24.7241630985796
20
-3.48766263999758
30
0
41
1
10
24.5285339233091
20
-3.38665344878279
30
0
41
1
10
24.2829794170755
20
-3.24859149381146
30
0
41
1
10
24.2338903106214
20
-3.22041960297887
30
0
41
1
10
24.1359446739665
20
-3.16307722957455
30
0
41
1
10
23.9892832255112
20
-3.07551451571177
30
0
41
1
10
23.8433437899475
20
-2.98333972738729
30
0
41
1
10
23.5522559694418
20
-2.79292591143977
30
0
41
1
10
23.359236787608
20
-2.65792000630986
30
0
41
1
10
22.9731696694755
20
-2.37410617743944
30
0
41
1
10
22.7801232753212
20
-2.2252974026128
30
0
41
1
10
22.3920306799193
20
-1.91583580870053
30
0
41
1
10
22.1969859644363
20
-1.75518510406877
30
0
41
1
10
22
20
-1.589402988974
30
0
0
SPLINE
5
106
100
AcDbEntity
8
1
62
256
6
ByLayer
370
18
48
1
60
0
100
AcDbSpline
70
4
71
3
72
26
73
22
40
0
40
0
40
0
40
0
40
0.124999999999999
40
0.124999999999999
40
0.249999999999998
40
0.249999999999998
40
0.374999999999997
40
0.374999999999997
40
0.499999999999996
40
0.499999999999996
40
0.562499999999996
40
0.562499999999996
40
0.593749999999995
40
0.593749999999995
40
0.624999999999995
40
0.624999999999995
40
0.749999999999997
40
0.749999999999997
40
0.874999999999998
40
0.874999999999998
40
1
40
1
40
1
40
1
41
1
10
18.4437423051986
20
1.97201033350876
30
0
41
1
10
18.6076540030596
20
1.84936643996031
30
0
41
1
10
18.7672809051268
20
1.72135270357737
30
0
41
1
10
19.0791802695058
20
1.45498282427616
30
0
41
1
10
19.2314536321042
20
1.31662632133507
30
0
41
1
10
19.5303841503551
20
1.03050275466009
30
0
41
1
10
19.6770554763135
20
0.882740086680656
30
0
41
1
10
19.9669598177316
20
0.579266788423837
30
0
41
1
10
20.1101692724845
20
0.423544964556925
30
0
41
1
10
20.3242773907379
20
0.185456157475329
30
0
41
1
10
20.3955338494891
20
0.105347042726066
30
0
41
1
10
20.502543969489
20
-0.0156942952457939
30
0
41
1
10
20.5382556527226
20
-0.0562103982405233
30
0
41
1
10
20.6094484016083
20
-0.13711296899902
30
0
41
1
10
20.6449679044989
20
-0.177542789287713
30
0
41
1
10
20.8223226891622
20
-0.379445719110208
30
0
41
1
10
20.9633843593001
20
-0.540220621853763
30
0
41
1
10
21.2481381522052
20
-0.856147149699808
30
0
41
1
10
21.391803009464
20
-1.01132298127402
30
0
41
1
10
21.6875788541624
20
-1.31055261503289
30
0
41
1
10
21.8397283040833
20
-1.45455580373022
30
0
41
1
10
22
20
-1.58943337141611
30
0
0
SPLINE
5
107
100
AcDbEntity
8
1
62
256
6
ByLayer
370
18
48
1
60
0
100
AcDbSpline
70
4
71
3
72
70
73
66
40
0
40
0
40
0
40
0
40
0.0625000000000026
40
0.0625000000000026
40
0.125000000000005
40
0.125000000000005
40
0.187500000000008
40
0.187500000000008
40
0.218750000000009
40
0.218750000000009
40
0.23437500000001
40
0.23437500000001
40
0.250000000000011
40
0.250000000000011
40
0.281250000000012
40
0.281250000000012
40
0.312500000000013
40
0.312500000000013
40
0.343750000000015
40
0.343750000000015
40
0.375000000000016
40
0.375000000000016
40
0.382812500000014
40
0.382812500000014
40
0.390625000000011
40
0.390625000000011
40
0.40625000000001
40
0.421875000000008
40
0.421875000000008
40
0.429687500000008
40
0.429687500000008
40
0.437500000000007
40
0.437500000000007
40
0.468750000000006
40
0.468750000000006
40
0.476562500000006
40
0.476562500000006
40
0.484375000000006
40
0.484375000000006
40
0.500000000000004
40
0.515625000000003
40
0.515625000000003
40
0.523437500000003
40
0.523437500000003
40
0.531250000000002
40
0.531250000000002
40
0.562499999999999
40
0.562499999999999
40
0.578124999999999
40
0.578124999999999
40
0.593749999999998
40
0.593749999999998
40
0.624999999999997
40
0.624999999999997
40
0.656249999999996
40
0.656249999999996
40
0.687499999999995
40
0.687499999999995
40
0.749999999999996
40
0.749999999999996
40
0.812499999999997
40
0.812499999999997
40
0.874999999999998
40
0.874999999999998
40
1
40
1
40
1
40
1
41
1
10
18.9012051363802
20
3.11634952866731
30
0
41
1
10
18.8141798017505
20
3.12810785131782
30
0
41
1
10
18.7272627813689
20
3.13887658338265
30
0
41
1
10
18.5537145914196
20
3.15867856546538
30
0
41
1
10
18.467083082531
20
3.16771773190786
30
0
41
1
10
18.2941726690817
20
3.18415800385264
30
0
41
1
10
18.2078930819181
20
3.19156067362047
30
0
41
1
10
18.0787953602467
20
3.20129241727298
30
0
41
1
10
18.035816546321
20
3.20430603941224
30
0
41
1
10
17.9714380341427
20
3.20842500866061
30
0
41
1
10
17.9499934972463
20
3.20973071641092
30
0
41
1
10
17.9071361315716
20
3.21219252949274
30
0
41
1
10
17.8857075241897
20
3.21334914809424
30
0
41
1
10
17.8219401228929
20
3.21654276540497
30
0
41
1
10
17.7799719255114
20
3.21831576206668
30
0
41
1
10
17.6972695182191
20
3.2209577641739
30
0
41
1
10
17.6565335112623
20
3.22182937774608
30
0
41
1
10
17.5765308297187
20
3.22234333924734
30
0
41
1
10
17.5376992254951
20
3.22198309457568
30
0
41
1
10
17.4629851782427
20
3.21957859532415
30
0
41
1
10
17.4270695677643
20
3.21754206227294
30
0
41
1
10
17.3844779789884
20
3.21346599682667
30
0
41
1
10
17.3760760370965
20
3.21257308289708
30
0
41
1
10
17.3595233219514
20
3.21061399798484
30
0
41
1
10
17.3513590054577
20
3.20954549094788
30
0
41
1
10
17.3274802743877
20
3.20608044992394
30
0
41
1
10
17.2971640955601
20
3.20075928134961
30
0
41
1
10
17.2702125557787
20
3.19378671517839
30
0
41
1
10
17.2514226703134
20
3.18781520452262
30
0
41
1
10
17.245397148795
20
3.18570068306536
30
0
41
1
10
17.2338555948879
20
3.18119822316902
30
0
41
1
10
17.2283491078915
20
3.17881175686134
30
0
41
1
10
17.2025392182423
20
3.16632319827488
30
0
41
1
10
17.1870529009928
20
3.15443732693444
30
0
41
1
10
17.1745756813988
20
3.13674470939463
30
0
41
1
10
17.1724257343843
20
3.13306378102061
30
0
41
1
10
17.1688281787712
20
3.12540451718249
30
0
41
1
10
17.1673937838702
20
3.12144945186515
30
0
41
1
10
17.1641717168121
20
3.10931639356721
30
0
41
1
10
17.1627135055919
20
3.09234135679986
30
0
41
1
10
17.1663746905978
20
3.07382535450333
30
0
41
1
10
17.1708700094022
20
3.05937737081382
30
0
41
1
10
17.1726575456929
20
3.05448099632886
30
0
41
1
10
17.1767357328667
20
3.04461409579807
30
0
41
1
10
17.1790299736881
20
3.03963159181265
30
0
41
1
10
17.19166893058
20
3.01448325685209
30
0
41
1
10
17.2054745941701
20
2.99361304280495
30
0
41
1
10
17.2302578639867
20
2.96131951213971
30
0
41
1
10
17.2392242292823
20
2.95036922385816
30
0
41
1
10
17.2582852844199
20
2.92824598341062
30
0
41
1
10
17.26832575285
20
2.91713307946066
30
0
41
1
10
17.2997349052667
20
2.88363771870155
30
0
41
1
10
17.3223796223194
20
2.86109835310316
30
0
41
1
10
17.3702066961633
20
2.81559858377673
30
0
41
1
10
17.3953956477986
20
2.79263842576992
30
0
41
1
10
17.4477672589709
20
2.74630116714778
30
0
41
1
10
17.4749694224556
20
2.72291036335579
30
0
41
1
10
17.558903135449
20
2.65220603057315
30
0
41
1
10
17.617185974155
20
2.60497352091178
30
0
41
1
10
17.7367262000813
20
2.5100133157031
30
0
41
1
10
17.7980057345009
20
2.46229039723306
30
0
41
1
10
17.9226832300903
20
2.36620246215875
30
0
41
1
10
17.9860893076109
20
2.31783907669691
30
0
41
1
10
18.1786953245185
20
2.17164236579407
30
0
41
1
10
18.3102484912772
20
2.07269502001992
30
0
41
1
10
18.4437423051988
20
1.97201033350871
30
0
0
SPLINE
5
108
100
AcDbEntity
8
1
62
256
6
ByLayer
370
18
48
1
60
0
100
AcDbSpline
70
4
71
3
72
24
73
20
40
0
40
0
40
0
40
0
40
0.135563365519223
40
0.135563365519223
40
0.271126731038445
40
0.271126731038445
40
0.406690096557668
40
0.406690096557668
40
0.542253462076891
40
0.542253462076891
40
0.677816827596114
40
0.677816827596114
40
0.745598510355725
40
0.745598510355725
40
0.813380193115336
40
0.813380193115336
40
0.948943558634559
40
0.948943558634559
40
1
40
1
40
1
40
1
41
1
10
18.9018366425137
20
-3.89649401507569
30
0
41
1
10
19.0437752732525
20
-3.93066311223893
30
0
41
1
10
19.1824922556171
20
-3.96303827845443
30
0
41
1
10
19.454234124774
20
-4.02190993949117
30
0
41
1
10
19.5872622224993
20
-4.04839257654811
30
0
41
1
10
19.8487700797856
20
-4.09329079776614
30
0
41
1
10
19.9772458797604
20
-4.11173648034713
30
0
41
1
10
20.2310039356573
20
-4.13896529447089
30
0
41
1
10
20.356283694752
20
-4.1477472678811
30
0
41
1
10
20.6053347673802
20
-4.15414502267441
30
0
41
1
10
20.7291012947705
20
-4.15175911115477
30
0
41
1
10
20.9152070120867
20
-4.13882315445989
30
0
41
1
10
20.9773220746594
20
-4.13295330197838
30
0
41
1
10
21.1020321066712
20
-4.11795839348278
30
0
41
1
10
21.164717328203
20
-4.10881513149579
30
0
41
1
10
21.3530540547597
20
-4.07650850892773
30
0
41
1
10
21.4791248796548
20
-4.04845232933968
30
0
41
1
10
21.6555825090092
20
-4.00096059905749
30
0
41
1
10
21.7041623914579
20
-3.98704846762351
30
0
41
1
10
21.7531382021805
20
-3.97224888238154
30
0
0
SPLINE
5
109
100
AcDbEntity
8
1
62
256
6
ByLayer
370
18
48
1
60
0
100
AcDbSpline
70
4
71
3
72
75
73
71
40
0
40
0
40
0
40
0
40
0.0625000000000119
40
0.0625000000000119
40
0.125000000000024
40
0.125000000000024
40
0.187500000000036
40
0.187500000000036
40
0.20312500000004
40
0.20312500000004
40
0.218750000000043
40
0.218750000000043
40
0.250000000000051
40
0.250000000000051
40
0.281250000000059
40
0.281250000000059
40
0.296875000000062
40
0.296875000000062
40
0.312500000000064
40
0.312500000000064
40
0.328125000000066
40
0.328125000000066
40
0.343750000000068
40
0.343750000000068
40
0.35937500000007
40
0.35937500000007
40
0.375000000000073
40
0.375000000000073
40
0.382812500000073
40
0.382812500000073
40
0.390625000000073
40
0.406250000000074
40
0.406250000000074
40
0.414062500000073
40
0.414062500000073
40
0.421875000000073
40
0.437500000000073
40
0.437500000000073
40
0.445312500000072
40
0.445312500000072
40
0.453125000000072
40
0.453125000000072
40
0.468750000000072
40
0.468750000000072
40
0.476562500000072
40
0.476562500000072
40
0.484375000000072
40
0.484375000000072
40
0.50000000000007
40
0.50000000000007
40
0.531250000000069
40
0.531250000000069
40
0.546875000000068
40
0.546875000000068
40
0.562500000000067
40
0.562500000000067
40
0.593750000000063
40
0.593750000000063
40
0.625000000000059
40
0.625000000000059
40
0.687500000000051
40
0.687500000000051
40
0.750000000000043
40
0.750000000000043
40
0.781250000000038
40
0.781250000000038
40
0.812500000000032
40
0.875000000000022
40
0.875000000000022
40
1
40
1
40
1
40
1
41
1
10
18.8235137064152
20
-1.75775998877421
30
0
41
1
10
18.7108580345378
20
-1.74586907049257
30
0
41
1
10
18.5982311131748
20
-1.73863884853489
30
0
41
1
10
18.3731617909013
20
-1.734798884871
30
0
41
1
10
18.2607190203269
20
-1.73821340047675
30
0
41
1
10
18.0361201090091
20
-1.75739924559613
30
0
41
1
10
17.9239660262752
20
-1.77310197770643
30
0
41
1
10
17.7840011256504
20
-1.80221112340746
30
0
41
1
10
17.7559681003273
20
-1.80852623450136
30
0
41
1
10
17.7002455623425
20
-1.82211317624868
30
0
41
1
10
17.6725509415215
20
-1.82938376140803
30
0
41
1
10
17.5899940377329
20
-1.85270906313502
30
0
41
1
10
17.5356549999856
20
-1.87026572891674
30
0
41
1
10
17.4285889050255
20
-1.91005009365747
30
0
41
1
10
17.3758580431749
20
-1.93226600206867
30
0
41
1
10
17.2982491659772
20
-1.96995389086751
30
0
41
1
10
17.2726080900607
20
-1.98326032884231
30
0
41
1
10
17.2219883014169
20
-2.01152563923611
30
0
41
1
10
17.1971861299851
20
-2.02638489641725
30
0
41
1
10
17.1487319224779
20
-2.05774944993792
30
0
41
1
10
17.1250790621226
20
-2.07425356618009
30
0
41
1
10
17.0791130669826
20
-2.10917927169717
30
0
41
1
10
17.056756074094
20
-2.127637504858
30
0
41
1
10
17.0138410318679
20
-2.16670579666885
30
0
41
1
10
16.9935080765715
20
-2.18710708069062
30
0
41
1
10
16.9554340630223
20
-2.22989412266807
30
0
41
1
10
16.937690627219
20
-2.25227813435222
30
0
41
1
10
16.9133884390222
20
-2.28761273625639
30
0
41
1
10
16.9056501675473
20
-2.29972743559938
30
0
41
1
10
16.8911457773325
20
-2.3244087778007
30
0
41
1
10
16.8709633378365
20
-2.36189490075816
30
0
41
1
10
16.8556341098718
20
-2.40079385679738
30
0
41
1
10
16.843782861145
20
-2.44067953038689
30
0
41
1
10
16.8404004021214
20
-2.45421156480882
30
0
41
1
10
16.8349253047793
20
-2.48118845743778
30
0
41
1
10
16.8286245719613
20
-2.52151145871881
30
0
41
1
10
16.8277814532028
20
-2.56140271358751
30
0
41
1
10
16.8302821488889
20
-2.60100018160026
30
0
41
1
10
16.831683669849
20
-2.61419515937487
30
0
41
1
10
16.8354877709554
20
-2.64006966029612
30
0
41
1
10
16.8378891030852
20
-2.65279248930736
30
0
41
1
10
16.8464376448336
20
-2.69037603251823
30
0
41
1
10
16.8539248493929
20
-2.71465352274484
30
0
41
1
10
16.8673613254973
20
-2.75008493522748
30
0
41
1
10
16.8722088420828
20
-2.76173085900996
30
0
41
1
10
16.8825768912091
20
-2.78471835510356
30
0
41
1
10
16.888111294012
20
-2.7960842053227
30
0
41
1
10
16.9054791192722
20
-2.82945858561385
30
0
41
1
10
16.9180985587294
20
-2.85082394466156
30
0
41
1
10
16.9584218480993
20
-2.91278157358144
30
0
41
1
10
16.9885571581646
20
-2.95126149853559
30
0
41
1
10
17.0370765402642
20
-3.00597605896002
30
0
41
1
10
17.0538131850295
20
-3.0237049957297
30
0
41
1
10
17.0882469390334
20
-3.05827660864196
30
0
41
1
10
17.1058960738731
20
-3.07506803258857
30
0
41
1
10
17.1596464667705
20
-3.12390365835751
30
0
41
1
10
17.1966644770285
20
-3.15454674872842
30
0
41
1
10
17.2724140796668
20
-3.21292255557577
30
0
41
1
10
17.3111509941259
20
-3.24064801044858
30
0
41
1
10
17.4293329129943
20
-3.32030297871552
30
0
41
1
10
17.5107175314358
20
-3.36875643370308
30
0
41
1
10
17.6768059039347
20
-3.45900045323467
30
0
41
1
10
17.7615334847456
20
-3.50075789398397
30
0
41
1
10
17.8903899908793
20
-3.55939491163554
30
0
41
1
10
17.9336137786861
20
-3.57825395436402
30
0
41
1
10
18.0202961645067
20
-3.6146312740926
30
0
41
1
10
18.1507748406667
20
-3.66723027630528
30
0
41
1
10
18.2823640689144
20
-3.71442303169911
30
0
41
1
10
18.5465328960927
20
-3.80252937448506
30
0
41
1
10
18.7239253162538
20
-3.85300283484602
30
0
41
1
10
18.9018366425138
20
-3.89649401507569
30
0
0
SPLINE
5
10A
100
AcDbEntity
8
1
62
256
6
ByLayer
370
18
48
1
60
0
100
AcDbSpline
70
4
71
5
72
12
73
6
40
0
40
0
40
0
40
0
40
0
40
0
40
1
40
1
40
1
40
1
40
1
40
1
41
0.999251629460914
10
10.0000000000648
20
3.48081693759161
30
0
41
0.997532758008588
10
10.0000000000648
20
3.48317147978084
30
0
41
0.995932453381073
10
10.0000000000648
20
3.48332676548175
30
0
41
0.99445021364091
10
10.0000000000648
20
3.48128092576778
30
0
41
0.993085605018127
10
10.0000000000648
20
3.47703363109624
30
0
41
0.991838261910234
10
10.0000000000648
20
3.47058609428183
30
0
0
SPLINE
5
10B
100
AcDbEntity
8
1
62
256
6
ByLayer
370
13
48
1
60
0
100
AcDbSpline
70
4
71
5
72
12
73
6
40
0
40
0
40
0
40
0
40
0
40
0
40
1
40
1
40
1
40
1
40
1
40
1
41
0.991838261910234
10
10.0000000000649
20
3.47058609428186
30
0
41
0.984086551792828
10
10.0000000000649
20
3.43015096721955
30
0
41
0.980863749673356
10
10.0000000000649
20
3.30399046052594
30
0
41
0.982082106199632
10
10.0000000000649
20
3.0951024187173
30
0
41
0.987755549233004
10
10.0000000000649
20
2.80871283429641
30
0
41
0.997999683848356
10
10.0000000000649
20
2.45214409428184
30
0
0
SPLINE
5
10C
100
AcDbEntity
8
1
62
256
6
ByLayer
370
13
48
1
60
0
100
AcDbSpline
70
4
71
3
72
9
73
5
40
0
40
0
40
0
40
0
40
0.513959146379122
40
1
40
1
40
1
40
1
41
1
10
30.739177888745
20
-1.99608416544896
30
0
41
1
10
29.90945192583
20
-1.48229602508505
30
0
41
1
10
28.2950707658479
20
-0.284342915559023
30
0
41
1
10
26.6806896058657
20
0.964259723038026
30
0
41
1
10
25.8960344087985
20
1.50095549784376
30
0
0
SPLINE
5
10D
100
AcDbEntity
8
1
62
256
6
ByLayer
370
18
48
1
60
0
100
AcDbSpline
70
4
71
3
72
18
73
14
40
0
40
0
40
0
40
0
40
0.25
40
0.25
40
0.5
40
0.5
40
0.625
40
0.625
40
0.75
40
0.75
40
0.875
40
0.875
40
1
40
1
40
1
40
1
41
1
10
29.8446119501811
20
-0.167483376491731
30
0
41
1
10
29.9234319452654
20
-0.318586171572406
30
0
41
1
10
30.0018016697863
20
-0.469970719139098
30
0
41
1
10
30.1570031112312
20
-0.773142272470523
30
0
41
1
10
30.2338475935336
20
-0.924928813313358
30
0
41
1
10
30.3472539477571
20
-1.15310251048402
30
0
41
1
10
30.3847415320617
20
-1.22924391113483
30
0
41
1
10
30.45888070501
20
-1.38174865035512
30
0
41
1
10
30.4955340518273
20
-1.45811152216925
30
0
41
1
10
30.5676980434949
20
-1.61114062729572
30
0
41
1
10
30.603212336111
20
-1.68780589220879
30
0
41
1
10
30.6726141390482
20
-1.84156829589918
30
0
41
1
10
30.7065104330456
20
-1.91866310280935
30
0
41
1
10
30.7391778785033
20
-1.99608414118211
30
0
0
SPLINE
5
10E
100
AcDbEntity
8
1
62
256
6
ByLayer
370
18
48
1
60
0
100
AcDbSpline
70
4
71
3
72
46
73
42
40
0
40
0
40
0
40
0
40
0.124999999999951
40
0.124999999999951
40
0.156249999999943
40
0.156249999999943
40
0.187499999999934
40
0.187499999999934
40
0.249999999999916
40
0.249999999999916
40
0.281249999999906
40
0.281249999999906
40
0.312499999999896
40
0.312499999999896
40
0.374999999999876
40
0.374999999999876
40
0.437499999999855
40
0.437499999999855
40
0.468749999999845
40
0.468749999999845
40
0.499999999999835
40
0.499999999999835
40
0.562499999999833
40
0.562499999999833
40
0.593749999999843
40
0.593749999999843
40
0.624999999999853
40
0.624999999999853
40
0.687499999999872
40
0.687499999999872
40
0.749999999999891
40
0.749999999999891
40
0.812499999999911
40
0.812499999999911
40
0.87499999999993
40
0.87499999999993
40
0.90624999999994
40
0.90624999999994
40
0.937499999999949
40
0.937499999999949
40
1
40
1
40
1
40
1
41
1
10
29.8446119501811
20
-0.167483376491788
30
0
41
1
10
29.821471368465
20
-0.123121453183614
30
0
41
1
10
29.8052218504467
20
-0.0765570905196
30
0
41
1
10
29.793305200802
20
-0.0156409204923023
30
0
41
1
10
29.791341018881
20
-0.0032719389490978
30
0
41
1
10
29.7883047677947
20
0.0214861238017079
30
0
41
1
10
29.7872311338016
20
0.0338524805957263
30
0
41
1
10
29.7852864269893
20
0.0709118294787459
30
0
41
1
10
29.7856859773991
20
0.0955652349226739
30
0
41
1
10
29.7887053852341
20
0.132457117212425
30
0
41
1
10
29.790116600732
20
0.144739675534964
30
0
41
1
10
29.7937451168739
20
0.169273367261695
30
0
41
1
10
29.795971363509
20
0.181553543540446
30
0
41
1
10
29.8037390479792
20
0.217796887961299
30
0
41
1
10
29.8103796863311
20
0.241331658863771
30
0
41
1
10
29.8263835737274
20
0.287178295077041
30
0
41
1
10
29.8357470366873
20
0.30949027746459
30
0
41
1
10
29.8518310341506
20
0.342013182358301
30
0
41
1
10
29.8575256457563
20
0.352672179075512
30
0
41
1
10
29.8694130290507
20
0.373347873665722
30
0
41
1
10
29.8756254823922
20
0.383405580857414
30
0
41
1
10
29.8950487290627
20
0.412753346591046
30
0
41
1
10
29.9090401348258
20
0.431222099168053
30
0
41
1
10
29.9316065263616
20
0.457267139327541
30
0
41
1
10
29.9393931729109
20
0.465671475384084
30
0
41
1
10
29.9555148556902
20
0.48191029633
30
0
41
1
10
29.9637958180568
20
0.489687543424537
30
0
41
1
10
29.9891181222526
20
0.511844742090744
30
0
41
1
10
30.0067085471437
20
0.525130747659148
30
0
41
1
10
30.0433873285554
20
0.548760464384856
30
0
41
1
10
30.0624843162736
20
0.559109173958404
30
0
41
1
10
30.1023577053509
20
0.576685093247789
30
0
41
1
10
30.1226601467224
20
0.583703968706629
30
0
41
1
10
30.1641324716203
20
0.594303286171225
30
0
41
1
10
30.1853016521461
20
0.59788364126689
30
0
41
1
10
30.2178641955629
20
0.600587260474157
30
0
41
1
10
30.2288877407727
20
0.60104196389733
30
0
41
1
10
30.2510825928458
20
0.601023633345164
30
0
41
1
10
30.2622005604987
20
0.600553641587169
30
0
41
1
10
30.2956463941931
20
0.597782857528813
30
0
41
1
10
30.3180657397294
20
0.59412718458978
30
0
41
1
10
30.3406909017539
20
0.588646924420544
30
0
0
SPLINE
5
10F
100
AcDbEntity
8
1
62
256
6
ByLayer
370
18
48
1
60
0
100
AcDbSpline
70
4
71
3
72
26
73
22
40
0
40
0
40
0
40
0
40
0.0091565732245735
40
0.0091565732245735
40
0.04585447791996
40
0.119250287310733
40
0.119250287310733
40
0.266041906092278
40
0.266041906092278
40
0.339437715483051
40
0.339437715483051
40
0.412833524873823
40
0.486229334264595
40
0.486229334264595
40
0.559625143655368
40
0.559625143655368
40
0.706416762436912
40
0.706416762436912
40
0.853208381218456
40
0.853208381218456
40
1
40
1
40
1
40
1
41
1
10
31.5254776829329
20
0.298257608047749
30
0
41
1
10
31.5243322346053
20
0.298559995623691
30
0
41
1
10
31.5231530385791
20
0.298870453516429
30
0
41
1
10
31.5170792161624
20
0.300465433802145
30
0
41
1
10
31.5009527674026
20
0.304661740169763
30
0
41
1
10
31.4802114875125
20
0.309954840361627
30
0
41
1
10
31.4326228304245
20
0.321992259572625
30
0
41
1
10
31.3927469869489
20
0.331954210227337
30
0
41
1
10
31.3209980114081
20
0.349733743793195
30
0
41
1
10
31.2954948899679
20
0.356033326048561
30
0
41
1
10
31.2418325316482
20
0.369255211820558
30
0
41
1
10
31.1854641734785
20
0.383112174331529
30
0
41
1
10
31.1243079406964
20
0.398092813099567
30
0
41
1
10
31.0610267076683
20
0.413572172597895
30
0
41
1
10
31.0282805634921
20
0.421571709338281
30
0
41
1
10
30.9274757267565
20
0.446170101263874
30
0
41
1
10
30.8578609634103
20
0.463122644288319
30
0
41
1
10
30.7151498017301
20
0.49782700653688
30
0
41
1
10
30.6420441569977
20
0.515580948449326
30
0
41
1
10
30.4932003482094
20
0.551693177660098
30
0
41
1
10
30.4174575799072
20
0.570052521951624
30
0
41
1
10
30.3406909017538
20
0.588646924420544
30
0
0
SPLINE
5
110
100
AcDbEntity
8
1
62
256
6
ByLayer
370
13
48
1
60
0
100
AcDbSpline
70
4
71
5
72
12
73
6
40
0
40
0
40
0
40
0
40
0
40
0
40
1
40
1
40
1
40
1
40
1
40
1
41
0.978288414955015
10
22.0000000000021
20
2.76455768495635
30
0
41
0.905067518425313
10
22.0000000000021
20
2.34527177095887
30
0
41
0.874041492501955
10
22.0000000000021
20
1.65700715025696
30
0
41
0.877955953964938
10
22.0000000000021
20
0.844588784989024
30
0
41
0.917238758360277
10
22.0000000000021
20
0.0790453930732682
30
0
41
1
10
22.0000000000021
20
-0.478281759583922
30
0
0
SPLINE
5
111
100
AcDbEntity
8
1
62
256
6
ByLayer
370
13
48
1
60
0
100
AcDbSpline
70
4
71
3
72
10
73
6
40
0
40
0
40
0
40
0
40
0.373637405967224
40
0.582424937311483
40
1
40
1
40
1
40
1
41
1
10
27.9869475535823
20
-3.1532173341005
30
0
41
1
10
27.2412983690548
20
-3.10491834843381
30
0
41
1
10
26.0789825178608
20
-2.81848068795719
30
0
41
1
10
24.0833333333334
20
-1.88841849461895
30
0
41
1
10
22.8333333333334
20
-1.05245558297017
30
0
41
1
10
22
20
-0.478281759582472
30
0
0
SPLINE
5
112
100
AcDbEntity
8
1
62
256
6
ByLayer
370
18
48
1
60
0
100
AcDbSpline
70
4
71
3
72
14
73
10
40
0
40
0
40
0
40
0
40
0.182871921995594
40
0.368107241404081
40
0.553342560812567
40
0.738577880221054
40
0.862068093160045
40
0.985558306099037
40
1
40
1
40
1
40
1
41
1
10
27.8486847854952
20
-4.17847902790359
30
0
41
1
10
27.1699565236635
20
-4.37236303722099
30
0
41
1
10
25.8037282618318
20
-4.47342002443486
30
0
41
1
10
23.75
20
-3.70686910867264
30
0
41
1
10
21.6875
20
-2.17472603556561
30
0
41
1
10
19.8541666666667
20
-0.41552091659571
30
0
41
1
10
18.2500000000001
20
1.15197424236169
30
0
41
1
10
17.2797330556508
20
2.02414149040754
30
0
41
1
10
16.7677994446349
20
2.43846567577151
30
0
41
1
10
16.7141991669524
20
2.4813184216757
30
0
0
SPLINE
5
113
100
AcDbEntity
8
1
62
256
6
ByLayer
370
18
48
1
60
0
100
AcDbSpline
70
4
71
3
72
18
73
14
40
0
40
0
40
0
40
0
40
0.250000000000017
40
0.250000000000017
40
0.375000000000016
40
0.375000000000016
40
0.500000000000016
40
0.500000000000016
40
0.625000000000015
40
0.625000000000015
40
0.75000000000001
40
0.75000000000001
40
1
40
1
40
1
40
1
41
1
10
31.6141096241507
20
-4.05609524491578
30
0
41
1
10
31.6134782950552
20
-4.03516620582022
30
0
41
1
10
31.611848911767
20
-4.01487557482017
30
0
41
1
10
31.6082621609235
20
-3.98517055112379
30
0
41
1
10
31.6068608323478
20
-3.97533592892043
30
0
41
1
10
31.6037844809366
20
-3.95641112239372
30
0
41
1
10
31.6021050033904
20
-3.94726484532043
30
0
41
1
10
31.5985027506002
20
-3.92951660661888
30
0
41
1
10
31.5965797420566
20
-3.92091516693816
30
0
41
1
10
31.5925146708917
20
-3.90420236421448
30
0
41
1
10
31.5903650218283
20
-3.89606761711894
30
0
41
1
10
31.5836994870033
20
-3.87264726849733
30
0
41
1
10
31.5789530634864
20
-3.8582501118787
30
0
41
1
10
31.5739521754307
20
-3.84487541532019
30
0
0
SPLINE
5
114
100
AcDbEntity
8
1
62
256
6
ByLayer
370
18
48
1
60
0
100
AcDbSpline
70
4
71
3
72
11
73
7
40
0
40
0
40
0
40
0
40
0.307580004344909
40
0.489564173615279
40
0.762540427520833
40
1
40
1
40
1
40
1
41
1
10
31.5739521749055
20
-3.84487541391584
30
0
41
1
10
30.7993014499371
20
-3.48663278504679
30
0
41
1
10
29.5663173916352
20
-2.63687924100753
30
0
41
0.999999999999999
10
27.6458333333334
20
-0.902402763581194
30
0
41
1
10
25.9019499727771
20
0.835478738334188
30
0
41
1
10
24.6163999455542
20
2.00548294921492
30
0
41
1
10
24.0183499183313
20
2.4836709827907
30
0
0
SPLINE
5
115
100
AcDbEntity
8
1
62
256
6
ByLayer
370
18
48
1
60
0
100
AcDbSpline
70
4
71
3
72
74
73
70
40
0
40
0
40
0
40
0
40
0.032021271668321
40
0.032021271668321
40
0.0486298081011136
40
0.0486298081011136
40
0.0652383445339062
40
0.0652383445339062
40
0.0984554173994891
40
0.0984554173994891
40
0.164889563130657
40
0.164889563130657
40
0.19810663599624
40
0.19810663599624
40
0.231323708861823
40
0.231323708861823
40
0.264540781727406
40
0.264540781727406
40
0.281149318160198
40
0.281149318160198
40
0.297757854592989
40
0.297757854592989
40
0.330974927458572
40
0.330974927458572
40
0.364192000324155
40
0.364192000324155
40
0.380800536756945
40
0.380800536756945
40
0.397409073189736
40
0.397409073189736
40
0.430626146055316
40
0.430626146055316
40
0.497060291786475
40
0.497060291786475
40
0.530277364652054
40
0.530277364652054
40
0.563494437517634
40
0.563494437517634
40
0.596711510383213
40
0.596711510383213
40
0.629928583248793
40
0.629928583248793
40
0.646537119681583
40
0.646537119681583
40
0.663145656114372
40
0.663145656114372
40
0.696362728979952
40
0.696362728979952
40
0.729579801845531
40
0.729579801845531
40
0.74618833827832
40
0.74618833827832
40
0.762796874711108
40
0.762796874711108
40
0.796013947576686
40
0.796013947576686
40
0.829231020442263
40
0.829231020442263
40
0.86244809330784
40
0.86244809330784
40
0.879056629740629
40
0.879056629740629
40
0.895665166173417
40
0.895665166173417
40
0.962099311904567
40
0.962099311904567
40
0.995316384770141
40
0.995316384770141
40
1
40
1
40
1
40
1
41
1
10
22.3092667929814
20
3.8040097287255
30
0
41
1
10
22.4051253963033
20
3.85321401892225
30
0
41
1
10
22.5009463734067
20
3.9000958452271
30
0
41
1
10
22.6465104055042
20
3.96758726330521
30
0
41
1
10
22.6962338819926
20
3.98998188736667
30
0
41
1
10
22.7957218685077
20
4.03343016080032
30
0
41
1
10
22.8454945597238
20
4.05448635253197
30
0
41
1
10
22.9946072858321
20
4.11548214747924
30
0
41
1
10
23.0938401686685
20
4.15329174788013
30
0
41
1
10
23.391298722007
20
4.25801460804928
30
0
41
1
10
23.5892955977213
20
4.3161849554119
30
0
41
1
10
23.8869006302549
20
4.38591909309093
30
0
41
1
10
23.98625939916
20
4.40627636153002
30
0
41
1
10
24.1844458567649
20
4.44082715099839
30
0
41
1
10
24.2833749113322
20
4.45505227428328
30
0
41
1
10
24.4811319150592
20
4.47675020523405
30
0
41
1
10
24.5799609099023
20
4.48416919177703
30
0
41
1
10
24.7283855276896
20
4.48957066883062
30
0
41
1
10
24.7778911167596
20
4.49042314497478
30
0
41
1
10
24.8770102757132
20
4.49018054049972
30
0
41
1
10
24.9266512739771
20
4.4890829530604
30
0
41
1
10
25.0753500035207
20
4.48285349616833
30
0
41
1
10
25.17431319076
20
4.47477855730813
30
0
41
1
10
25.3722404609288
20
4.45106781389873
30
0
41
1
10
25.4712058012317
20
4.43543726252003
30
0
41
1
10
25.6198636691535
20
4.40673547730964
30
0
41
1
10
25.6694506566037
20
4.39629369927238
30
0
41
1
10
25.7687198045836
20
4.37374170020991
30
0
41
1
10
25.818427371178
20
4.36162498446896
30
0
41
1
10
25.9675435846521
20
4.32293730298437
30
0
41
1
10
26.066802834227
20
4.29408664681807
30
0
41
1
10
26.3644025097574
20
4.19930558471927
30
0
41
1
10
26.5625745392404
20
4.12522937358551
30
0
41
1
10
26.8601965146735
20
3.9994850325306
30
0
41
1
10
26.9594606096469
20
3.95510878873444
30
0
41
1
10
27.1582035186498
20
3.86145869400994
30
0
41
1
10
27.2574143728886
20
3.8123109210041
30
0
41
1
10
27.4555380653013
20
3.70934592359185
30
0
41
1
10
27.5544627628235
20
3.65552431710756
30
0
41
1
10
27.7521792051144
20
3.54292738753497
30
0
41
1
10
27.8509672046907
20
3.48416129883643
30
0
41
1
10
27.9992306390124
20
3.39185709870233
30
0
41
1
10
28.0486669439151
20
3.36038955795755
30
0
41
1
10
28.1476283214468
20
3.29590422189386
30
0
41
1
10
28.1971514434238
20
3.26288537661083
30
0
41
1
10
28.3454560228887
20
3.16159094063977
30
0
41
1
10
28.4441326778234
20
3.09093381026003
30
0
41
1
10
28.6416040283824
20
2.94339893299434
30
0
41
1
10
28.7404044433853
20
2.86653312051257
30
0
41
1
10
28.8890196946507
20
2.74715187714489
30
0
41
1
10
28.9386701580148
20
2.70664521789274
30
0
41
1
10
29.0378910155211
20
2.62461252217702
30
0
41
1
10
29.0874558121889
20
2.58309290845136
30
0
41
1
10
29.2360836077749
20
2.45720387276245
30
0
41
1
10
29.3350843368075
20
2.37151351949638
30
0
41
1
10
29.5331777822571
20
2.19740189301467
30
0
41
1
10
29.6322681722679
20
2.1089773290075
30
0
41
1
10
29.8306967200269
20
1.92986372424969
30
0
41
1
10
29.9300338217568
20
1.83917113790295
30
0
41
1
10
30.0793055200011
20
1.70163691691803
30
0
41
1
10
30.1291341469657
20
1.65551622101594
30
0
41
1
10
30.2286875636908
20
1.56298568437984
30
0
41
1
10
30.2784259846294
20
1.51656347977527
30
0
41
1
10
30.5269576770388
20
1.28371167403131
30
0
41
1
10
30.72528179891
20
1.09509244907292
30
0
41
1
10
31.0224005930051
20
0.809044705993756
30
0
41
1
10
31.1213758630797
20
0.713168774666713
30
0
41
1
10
31.2342734241863
20
0.60317868375725
30
0
41
1
10
31.2482242292716
20
0.589576143700839
30
0
41
1
10
31.2621745998686
20
0.5759632104307
30
0
0
SPLINE
5
116
100
AcDbEntity
8
1
62
256
6
ByLayer
370
18
48
1
60
0
100
AcDbSpline
70
4
71
3
72
8
73
4
40
0
40
0
40
0
40
0
40
1
40
1
40
1
40
1
41
1
10
31.2847319363371
20
0.553942103050133
30
0
41
1
10
31.3621986713751
20
0.478284726795664
30
0
41
1
10
31.4396551464502
20
0.402307044398981
30
0
41
1
10
31.5171336993651
20
0.326011103200273
30
0
0
SPLINE
5
117
100
AcDbEntity
8
1
62
256
6
ByLayer
370
18
48
1
60
0
100
AcDbSpline
70
4
71
3
72
14
73
10
40
0
40
0
40
0
40
0
40
0.125965724196704
40
0.250827763597175
40
0.375689802997645
40
0.500551842398116
40
0.625413881798587
40
0.750275921199058
40
1
40
1
40
1
40
1
41
1
10
21.012153946885
20
-4.17825708145224
30
0
41
1
10
20.5497692979233
20
-4.31012165900165
30
0
41
1
10
19.6290513156283
20
-4.44183280195193
30
0
41
1
10
18.25
20
-4.22270696210805
30
0
41
1
10
16.875
20
-3.61427112601672
30
0
41
1
10
15.5000000000001
20
-2.67087163401729
30
0
41
1
10
14.125
20
-1.48051781762783
30
0
41
1
10
12.2916666666667
20
0.289741129309732
30
0
41
1
10
10.9166666666667
20
1.63708166869961
30
0
41
1
10
10
20
2.38457609433473
30
0
0
SPLINE
5
118
100
AcDbEntity
8
1
62
256
6
ByLayer
370
18
48
1
60
0
100
AcDbSpline
70
4
71
5
72
12
73
6
40
0
40
0
40
0
40
0
40
0
40
0
40
1
40
1
40
1
40
1
40
1
40
1
41
1
10
10.000000000072
20
4.61352653138209
30
0
41
0.946726386608894
10
10.0000000000719
20
4.32942883731419
30
0
41
0.915970384807396
10
10.0000000000719
20
4.04990333635055
30
0
41
0.904969249922141
10
10.0000000000719
20
3.8072645104506
30
0
41
0.913111766150463
10
10.0000000000719
20
3.62942736157892
30
0
41
0.941938246560387
10
10.0000000000719
20
3.53665453138209
30
0
0
SPLINE
5
119
100
AcDbEntity
8
1
62
256
6
ByLayer
370
18
48
1
60
0
100
AcDbSpline
70
4
71
3
72
13
73
9
40
0
40
0
40
0
40
0
40
0.0649983357531658
40
0.220831946460972
40
0.376665557168777
40
0.532499167876583
40
0.688332778584389
40
1
40
1
40
1
40
1
41
1
10
18.8235137064121
20
-1.75775998877214
30
0
41
1
10
18.6323424709414
20
-1.62888270772282
30
0
41
1
10
17.9828379021374
20
-1.17468119969234
30
0
41
1
10
16.875
20
-0.322790014377318
30
0
41
1
10
15.5000000000001
20
0.755548902610144
30
0
41
1
10
14.125
20
1.77240050667891
30
0
41
1
10
12.2916666666667
20
2.9009861252957
30
0
41
1
10
10.9166666666667
20
3.38819216628712
30
0
41
1
10
10
20
3.47964352089505
30
0
0
SPLINE
5
11A
100
AcDbEntity
8
1
62
256
6
ByLayer
370
18
48
1
60
0
100
AcDbSpline
70
4
71
3
72
14
73
10
40
0
40
0
40
0
40
0
40
0.112912932137906
40
0.112912932137906
40
0.239639656118199
40
0.239639656118199
40
0.493093104078785
40
0.493093104078785
40
1
40
1
40
1
40
1
41
1
10
19.3139580159917
20
-1.82271110532631
30
0
41
1
10
19.2956474672388
20
-1.8193945078819
30
0
41
1
10
19.2772666047296
20
-1.81621414685824
30
0
41
1
10
19.2381124779919
20
-1.80972360950872
30
0
41
1
10
19.2172923264873
20
-1.80644090709595
30
0
41
1
10
19.1548815562971
20
-1.79703648246297
30
0
41
1
10
19.1133086222859
20
-1.79134979377576
30
0
41
1
10
18.9887593773488
20
-1.7754810833882
30
0
41
1
10
18.9059562601233
20
-1.76647067429451
30
0
41
1
10
18.8235137064151
20
-1.75775998877418
30
0
0
SPLINE
5
11B
100
AcDbEntity
8
1
62
256
6
ByLayer
370
18
48
1
60
0
100
AcDbSpline
70
4
71
3
72
9
73
5
40
0
40
0
40
0
40
0
40
0.393163996438451
40
1
40
1
40
1
40
1
41
1
10
18.901205136377
20
3.11634952866848
30
0
41
1
10
18.6841367575847
20
3.19357355856681
30
0
41
1
10
18.1320303064379
20
3.36239746940314
30
0
41
1
10
17.5799238552911
20
3.45637594786052
30
0
41
1
10
17.2448857829367
20
3.48454884484465
30
0
0
SPLINE
5
11C
100
AcDbEntity
8
1
62
256
6
ByLayer
370
18
48
1
60
0
100
AcDbSpline
70
4
71
3
72
50
73
46
40
0
40
0
40
0
40
0
40
0.0625000000000012
40
0.0625000000000012
40
0.125000000000002
40
0.125000000000002
40
0.187500000000004
40
0.187500000000004
40
0.250000000000005
40
0.250000000000005
40
0.281250000000006
40
0.281250000000006
40
0.296875000000008
40
0.296875000000008
40
0.31250000000001
40
0.31250000000001
40
0.375000000000011
40
0.375000000000011
40
0.437500000000012
40
0.437500000000012
40
0.46875000000001
40
0.46875000000001
40
0.500000000000009
40
0.500000000000009
40
0.562500000000007
40
0.562500000000007
40
0.625000000000004
40
0.625000000000004
40
0.656250000000003
40
0.656250000000003
40
0.687500000000002
40
0.687500000000002
40
0.749999999999999
40
0.749999999999999
40
0.812499999999997
40
0.812499999999997
40
0.874999999999995
40
0.874999999999995
40
0.906249999999993
40
0.906249999999993
40
0.921874999999995
40
0.921874999999995
40
0.937499999999997
40
0.937499999999997
40
1
40
1
40
1
40
1
41
1
10
22
20
2.76441805159689
30
0
41
1
10
21.9422828193928
20
2.80958178212279
30
0
41
1
10
21.8845552279323
20
2.85492097316228
30
0
41
1
10
21.7692125624836
20
2.9449596645141
30
0
41
1
10
21.7115962495394
20
2.98968187690042
30
0
41
1
10
21.5965097855493
20
3.07717067317566
30
0
41
1
10
21.539044376797
20
3.1199701467709
30
0
41
1
10
21.424170810592
20
3.2010560291381
30
0
41
1
10
21.3667807523432
20
3.23932563171968
30
0
41
1
10
21.2803469144196
20
3.28998395412785
30
0
41
1
10
21.2514716093154
20
3.30573082765181
30
0
41
1
10
21.2079434179629
20
3.32726772610354
30
0
41
1
10
21.1933525563714
20
3.33411953821747
30
0
41
1
10
21.1643994661554
20
3.34695139874935
30
0
41
1
10
21.150017035009
20
3.35294412365619
30
0
41
1
10
21.0784915830381
20
3.38085403993989
30
0
41
1
10
21.0225007084922
20
3.39659661247657
30
0
41
1
10
20.9106199870759
20
3.41758382905724
30
0
41
1
10
20.8547256917228
20
3.42286911638882
30
0
41
1
10
20.7695836882676
20
3.4242585096041
30
0
41
1
10
20.7409903767666
20
3.42362137988758
30
0
41
1
10
20.6831776867716
20
3.42026290008599
30
0
41
1
10
20.654097412568
20
3.41754627615882
30
0
41
1
10
20.5664673152938
20
3.40656952390668
30
0
41
1
10
20.5073598153991
20
3.39547248620303
30
0
41
1
10
20.3863276721097
20
3.36690210841087
30
0
41
1
10
20.3244173977449
20
3.34936041867215
30
0
41
1
10
20.2281955115591
20
3.31948262607253
30
0
41
1
10
20.1955014479653
20
3.30895090786717
30
0
41
1
10
20.1289977520111
20
3.28729832044226
30
0
41
1
10
20.0952779517701
20
3.27620825106965
30
0
41
1
10
19.9924692825973
20
3.24281858455183
30
0
41
1
10
19.921720546607
20
3.22040204217311
30
0
41
1
10
19.7747818564909
20
3.17866696609238
30
0
41
1
10
19.6996903515451
20
3.15968666543742
30
0
41
1
10
19.5463999910489
20
3.12832451379467
30
0
41
1
10
19.4681685604562
20
3.1159349968573
30
0
41
1
10
19.3485898925289
20
3.1039101242423
30
0
41
1
10
19.3083605066953
20
3.10098948343273
30
0
41
1
10
19.2474979746589
20
3.09838738707416
30
0
41
1
10
19.2270982390024
20
3.09781616540465
30
0
41
1
10
19.1863207682167
20
3.09728604893871
30
0
41
1
10
19.1659316686202
20
3.09732580821236
30
0
41
1
10
19.0639992847932
20
3.09905141043538
30
0
41
1
10
18.9824993221119
20
3.10534388369018
30
0
41
1
10
18.9012051363802
20
3.11634952866734
30
0
0
SPLINE
5
11D
100
AcDbEntity
8
1
62
256
6
ByLayer
370
18
48
1
60
0
100
AcDbSpline
70
4
71
3
72
8
73
4
40
0
40
0
40
0
40
0
40
1
40
1
40
1
40
1
41
1
10
21.9999178764285
20
2.76449194705077
30
0
41
1
10
21.9999452523196
20
2.76482205296071
30
0
41
1
10
21.9999726282976
20
2.76515176101555
30
0
41
1
10
22.0000000043627
20
2.7654810708317
30
0
0
SPLINE
5
11E
100
AcDbEntity
8
1
62
256
6
ByLayer
370
18
48
1
60
0
100
AcDbSpline
70
4
71
3
72
22
73
18
40
0
40
0
40
0
40
0
40
0.267665989505083
40
0.267665989505083
40
0.334582486881356
40
0.334582486881356
40
0.40149898425763
40
0.40149898425763
40
0.535331979010176
40
0.535331979010176
40
0.802997968515279
40
0.802997968515279
40
0.869914465891557
40
0.869914465891557
40
0.936830963267835
40
0.936830963267835
40
1
40
1
40
1
40
1
41
1
10
22.0000000000024
20
2.76548101811537
30
0
41
1
10
22.1996439787251
20
2.6091485365678
30
0
41
1
10
22.3988187908454
20
2.44626025728232
30
0
41
1
10
22.6479468331629
20
2.23448938352706
30
0
41
1
10
22.6977817313473
20
2.19172928445289
30
0
41
1
10
22.7974933236486
20
2.10540562569435
30
0
41
1
10
22.8473733377949
20
2.06183869319003
30
0
41
1
10
22.9968064815619
20
1.93022139583133
30
0
41
1
10
23.0962538897582
20
1.84116682971296
30
0
41
1
10
23.3943606385264
20
1.57032524519877
30
0
41
1
10
23.5927959978573
20
1.38485805685076
30
0
41
1
10
23.8413603364513
20
1.14783091435902
30
0
41
1
10
23.891120563223
20
1.10014449537138
30
0
41
1
10
23.9906073945544
20
1.00437075436977
30
0
41
1
10
24.040299813757
20
0.956316443186381
30
0
41
1
10
24.1368243788592
20
0.862590574463496
30
0
41
1
10
24.1836600880615
20
0.816936142665384
30
0
41
1
10
24.2304716709635
20
0.771147036063525
30
0
0
SPLINE
5
11F
100
AcDbEntity
8
1
62
256
6
ByLayer
370
18
48
1
60
0
100
AcDbSpline
70
4
71
3
72
28
73
24
40
0
40
0
40
0
40
0
40
0.168442306677513
40
0.168442306677513
40
0.336884613355026
40
0.336884613355026
40
0.378995190024404
40
0.378995190024404
40
0.400050478359093
40
0.400050478359093
40
0.421105766693782
40
0.505326920032537
40
0.505326920032537
40
0.673769226710046
40
0.673769226710046
40
0.7579903800488
40
0.7579903800488
40
0.77904566838349
40
0.77904566838349
40
0.800100956718179
40
0.842211533387557
40
0.842211533387557
40
1
40
1
40
1
40
1
41
1
10
5.85885284036632
20
-3.89278553985144
30
0
41
1
10
5.9289083977676
20
-4.03418291730841
30
0
41
1
10
6.00239766919566
20
-4.15732949742878
30
0
41
1
10
6.15668247265165
20
-4.36958087634773
30
0
41
1
10
6.23746589988451
20
-4.45867542326175
30
0
41
1
10
6.34329392913926
20
-4.5488434522596
30
0
41
1
10
6.3647025475787
20
-4.56581163565181
30
0
41
1
10
6.39718783365944
20
-4.58965087974269
30
0
41
1
10
6.40808189249762
20
-4.59733008711129
30
0
41
1
10
6.42990749816613
20
-4.61209052482664
30
0
41
1
10
6.48461841536908
20
-4.647535433694
30
0
41
1
10
6.54006270554137
20
-4.67579557749309
30
0
41
1
10
6.67455167203732
20
-4.7302654608975
30
0
41
1
10
6.76608066639326
20
-4.74884187640171
30
0
41
1
10
6.90647927865555
20
-4.75050073914178
30
0
41
1
10
6.95382164510318
20
-4.74666763416124
30
0
41
1
10
7.01385076742446
20
-4.73631286580758
30
0
41
1
10
7.02591026160701
20
-4.73396093010371
30
0
41
1
10
7.05005988693569
20
-4.72871019309346
30
0
41
1
10
7.08631530536655
20
-4.72001874018235
30
0
41
1
10
7.12268032791573
20
-4.70890761641178
30
0
41
1
10
7.23806316571248
20
-4.6687325078951
30
0
41
1
10
7.33002354768891
20
-4.62225753331757
30
0
41
1
10
7.42361622114157
20
-4.5615650468215
30
0
0
SPLINE
5
120
100
AcDbEntity
8
1
62
256
6
ByLayer
370
18
48
1
60
0
100
AcDbSpline
70
4
71
3
72
70
73
66
40
0
40
0
40
0
40
0
40
0.125000000000006
40
0.125000000000006
40
0.187500000000009
40
0.187500000000009
40
0.250000000000013
40
0.250000000000013
40
0.375000000000019
40
0.375000000000019
40
0.437500000000021
40
0.437500000000021
40
0.500000000000022
40
0.500000000000022
40
0.531250000000021
40
0.531250000000021
40
0.562500000000019
40
0.562500000000019
40
0.625000000000016
40
0.625000000000016
40
0.656250000000015
40
0.656250000000015
40
0.687500000000013
40
0.687500000000013
40
0.718750000000012
40
0.718750000000012
40
0.75000000000001
40
0.75000000000001
40
0.76562500000001
40
0.76562500000001
40
0.781250000000009
40
0.781250000000009
40
0.812500000000008
40
0.812500000000008
40
0.820312500000011
40
0.820312500000011
40
0.828125000000014
40
0.828125000000014
40
0.843750000000021
40
0.843750000000021
40
0.851562500000024
40
0.851562500000024
40
0.859375000000027
40
0.859375000000027
40
0.875000000000029
40
0.875000000000029
40
0.882812500000028
40
0.882812500000028
40
0.890625000000027
40
0.890625000000027
40
0.906250000000023
40
0.906250000000023
40
0.91406250000002
40
0.91406250000002
40
0.921875000000018
40
0.921875000000018
40
0.937500000000014
40
0.937500000000014
40
0.945312500000012
40
0.945312500000012
40
0.95312500000001
40
0.95312500000001
40
0.968750000000007
40
0.968750000000007
40
1
40
1
40
1
40
1
41
1
10
9.03175416344814
20
-4.46533999348117
30
0
41
1
10
8.90919809055924
20
-4.42150705632352
30
0
41
1
10
8.7857471115683
20
-4.37319066067724
30
0
41
1
10
8.59750611158111
20
-4.29519209667029
30
0
41
1
10
8.53424674034062
20
-4.26827607345916
30
0
41
1
10
8.40638584003287
20
-4.21287041969089
30
0
41
1
10
8.34173821776417
20
-4.18435954294293
30
0
41
1
10
8.145588249366
20
-4.09708100282941
30
0
41
1
10
8.01217052544172
20
-4.03664097760452
30
0
41
1
10
7.80579248839985
20
-3.94528455040648
30
0
41
1
10
7.7359513519221
20
-3.91472536198958
30
0
41
1
10
7.59364227082037
20
-3.85401592236534
30
0
41
1
10
7.5211760083663
20
-3.82386397595056
30
0
41
1
10
7.41000772189531
20
-3.77952948921418
30
0
41
1
10
7.37256580672283
20
-3.76491368981431
30
0
41
1
10
7.29708504770051
20
-3.73623014427176
30
0
41
1
10
7.25901158324453
20
-3.72214817586547
30
0
41
1
10
7.14366511588261
20
-3.68090154380749
30
0
41
1
10
7.06528344603228
20
-3.65471215108147
30
0
41
1
10
6.94475166389489
20
-3.61858688388023
30
0
41
1
10
6.90407782446093
20
-3.60707630773464
30
0
41
1
10
6.82154265336604
20
-3.58541497461144
30
0
41
1
10
6.77959092913622
20
-3.57524533712225
30
0
41
1
10
6.69503443165607
20
-3.5568502209419
30
0
41
1
10
6.65236733568403
20
-3.54860583973991
30
0
41
1
10
6.56607267878584
20
-3.53455392923684
30
0
41
1
10
6.52244965821001
20
-3.5287348931011
30
0
41
1
10
6.45611136652317
20
-3.52234921777173
30
0
41
1
10
6.43390561885562
20
-3.52062139712407
30
0
41
1
10
6.38958173226965
20
-3.51808900807609
30
0
41
1
10
6.36742298443343
20
-3.51727996378943
30
0
41
1
10
6.30095758623011
20
-3.51640834571856
30
0
41
1
10
6.2566615014145
20
-3.51786396084958
30
0
41
1
10
6.20131623181894
20
-3.52323178230887
30
0
41
1
10
6.1902210815627
20
-3.52448986077658
30
0
41
1
10
6.16822950958877
20
-3.52737953509595
30
0
41
1
10
6.15732227001865
20
-3.52901118304172
30
0
41
1
10
6.12488632696244
20
-3.53450623550381
30
0
41
1
10
6.10364129265864
20
-3.53896580498315
30
0
41
1
10
6.07245303599407
20
-3.54706497283587
30
0
41
1
10
6.06217062682086
20
-3.55000052673228
30
0
41
1
10
6.04185925985632
20
-3.55639346831737
30
0
41
1
10
6.03186634630455
20
-3.5598422020945
30
0
41
1
10
6.00277389848281
20
-3.57086351813626
30
0
41
1
10
5.98442014383787
20
-3.57915245262151
30
0
41
1
10
5.95866054429581
20
-3.59314954291099
30
0
41
1
10
5.9503692759157
20
-3.59807576940182
30
0
41
1
10
5.9344206867485
20
-3.6084799482243
30
0
41
1
10
5.92688458031708
20
-3.61388011286351
30
0
41
1
10
5.90563740457313
20
-3.63059868524755
30
0
41
1
10
5.89325022858606
20
-3.64245634796319
30
0
41
1
10
5.87726750113322
20
-3.66123298717719
30
0
41
1
10
5.87236075854318
20
-3.66767662569649
30
0
41
1
10
5.86346962468971
20
-3.68079863430577
30
0
41
1
10
5.85952021264868
20
-3.68741954619
30
0
41
1
10
5.84903903967657
20
-3.7074348979157
30
0
41
1
10
5.84386901990487
20
-3.72098092081444
30
0
41
1
10
5.83847988825875
20
-3.7415195326349
30
0
41
1
10
5.83708090782227
20
-3.74841117886922
30
0
41
1
10
5.83504636994556
20
-3.76206464459943
30
0
41
1
10
5.834403046647
20
-3.76885123270546
30
0
41
1
10
5.83347723017275
20
-3.78909400886499
30
0
41
1
10
5.83419376992691
20
-3.80243335395565
30
0
41
1
10
5.83965220457856
20
-3.84200447446619
30
0
41
1
10
5.84773056971272
20
-3.86788261337398
30
0
41
1
10
5.85885284036615
20
-3.89278553985144
30
0
0
SPLINE
5
121
100
AcDbEntity
8
1
62
256
6
ByLayer
370
18
48
1
60
0
100
AcDbSpline
70
4
71
3
72
12
73
8
40
0
40
0
40
0
40
0
40
0.500000000000011
40
0.500000000000011
40
0.750000000000006
40
0.750000000000006
40
1
40
1
40
1
40
1
41
1
10
9.03175416344814
20
-3.75733211718813
30
0
41
1
10
9.01464295484547
20
-3.7362454483474
30
0
41
1
10
9.00205835906897
20
-3.71410446746074
30
0
41
1
10
8.98842081625006
20
-3.67948947565327
30
0
41
1
10
8.98475688687924
20
-3.66771600097488
30
0
41
1
10
8.97901510035047
20
-3.64371708530493
30
0
41
1
10
8.97693456945066
20
-3.6314370616781
30
0
41
1
10
8.9755904773267
20
-3.61912027498494
30
0
0
SPLINE
5
122
100
AcDbEntity
8
1
62
256
6
ByLayer
370
18
48
1
60
0
100
AcDbSpline
70
4
71
3
72
8
73
4
40
0
40
0
40
0
40
0
40
1
40
1
40
1
40
1
41
1
10
8.49478267507899
20
-3.25648535205173
30
0
41
1
10
8.65584296592883
20
-3.38394159630437
30
0
41
1
10
8.81569247224866
20
-3.50512175446721
30
0
41
1
10
8.97559047730996
20
-3.6191202749836
30
0
0
SPLINE
5
123
100
AcDbEntity
8
1
62
256
6
ByLayer
370
18
48
1
60
0
100
AcDbSpline
70
4
71
3
72
18
73
14
40
0
40
0
40
0
40
0
40
0.0624999999999978
40
0.0624999999999978
40
0.124999999999996
40
0.124999999999996
40
0.249999999999989
40
0.249999999999989
40
0.499999999999993
40
0.499999999999993
40
0.749999999999996
40
0.749999999999996
40
1
40
1
40
1
40
1
41
1
10
8.0699908587811
20
-2.82898463224922
30
0
41
1
10
8.07619754771682
20
-2.83969139865329
30
0
41
1
10
8.08291077543007
20
-2.85012516626929
30
0
41
1
10
8.09697749971301
20
-2.87062947301615
30
0
41
1
10
8.10433709379512
20
-2.88069705276018
30
0
41
1
10
8.1271163631676
20
-2.91048338848228
30
0
41
1
10
8.14323800025909
20
-2.92980706843045
30
0
41
1
10
8.19321851641701
20
-2.98654607906852
30
0
41
1
10
8.22859791461295
20
-3.0226780892865
30
0
41
1
10
8.30157186093101
20
-3.09281527328099
30
0
41
1
10
8.33923123295597
20
-3.12679479328079
30
0
41
1
10
8.41597751744641
20
-3.19292020690051
30
0
41
1
10
8.45509729554269
20
-3.22507986278251
30
0
41
1
10
8.49478267507902
20
-3.25648535205173
30
0
0
SPLINE
5
124
100
AcDbEntity
8
1
62
256
6
ByLayer
370
18
48
1
60
0
100
AcDbSpline
70
4
71
3
72
68
73
64
40
0
40
0
40
0
40
0
40
0.125000000000014
40
0.125000000000014
40
0.187500000000019
40
0.187500000000019
40
0.250000000000024
40
0.250000000000024
40
0.375000000000035
40
0.375000000000035
40
0.437500000000042
40
0.437500000000042
40
0.50000000000005
40
0.50000000000005
40
0.562500000000057
40
0.562500000000057
40
0.625000000000064
40
0.625000000000064
40
0.687500000000071
40
0.687500000000071
40
0.703125000000072
40
0.703125000000072
40
0.718750000000072
40
0.718750000000072
40
0.750000000000078
40
0.750000000000078
40
0.781250000000084
40
0.781250000000084
40
0.796875000000088
40
0.796875000000088
40
0.812500000000091
40
0.812500000000091
40
0.828125000000094
40
0.828125000000094
40
0.835937500000093
40
0.835937500000093
40
0.843750000000092
40
0.843750000000092
40
0.859375000000085
40
0.859375000000085
40
0.875000000000079
40
0.875000000000079
40
0.882812500000076
40
0.882812500000076
40
0.890625000000072
40
0.890625000000072
40
0.906250000000065
40
0.906250000000065
40
0.914062500000061
40
0.914062500000061
40
0.921875000000056
40
0.921875000000056
40
0.937500000000046
40
0.937500000000046
40
0.94531250000004
40
0.94531250000004
40
0.953125000000034
40
0.953125000000034
40
0.968750000000023
40
0.968750000000023
40
0.984375000000011
40
0.984375000000011
40
1
40
1
40
1
40
1
41
1
10
9.03175416344817
20
1.85112018655113
30
0
41
1
10
8.91141111385431
20
1.96737167988491
30
0
41
1
10
8.79020594949012
20
2.0805066139302
30
0
41
1
10
8.60547592345844
20
2.24431034408579
30
0
41
1
10
8.54341066395131
20
2.29792872916028
30
0
41
1
10
8.41800305492279
20
2.40299214651927
30
0
41
1
10
8.35462397040087
20
2.45446645878647
30
0
41
1
10
8.16232979927398
20
2.60510219762099
30
0
41
1
10
8.03159001909134
20
2.70026669419167
30
0
41
1
10
7.8295125809461
20
2.83370624178329
30
0
41
1
10
7.76115273891665
20
2.87663176317628
30
0
41
1
10
7.62193674645386
20
2.9590481173893
30
0
41
1
10
7.55105918021499
20
2.99855235187445
30
0
41
1
10
7.4062880790743
20
3.07367418954175
30
0
41
1
10
7.33279645458342
20
3.10908739258375
30
0
41
1
10
7.18305207587383
20
3.17509910003631
30
0
41
1
10
7.1068069784765
20
3.2057078512797
30
0
41
1
10
6.95072720991388
20
3.26124336270817
30
0
41
1
10
6.87091600804419
20
3.28620178570256
30
0
41
1
10
6.76795997458078
20
3.31274485352196
30
0
41
1
10
6.74717015673863
20
3.31782478188856
30
0
41
1
10
6.70542395142965
20
3.32741692818172
30
0
41
1
10
6.68447926361236
20
3.33192670583682
30
0
41
1
10
6.62141140517127
20
3.34453402024164
30
0
41
1
10
6.57905687696342
20
3.35171908605389
30
0
41
1
10
6.49360210412334
20
3.36321164288938
30
0
41
1
10
6.45050393100311
20
3.36752732297737
30
0
41
1
10
6.38514211104953
20
3.37127818368001
30
0
41
1
10
6.36323496139031
20
3.37207160994447
30
0
41
1
10
6.31913900189053
20
3.37258734327787
30
0
41
1
10
6.29707444243326
20
3.37230560527297
30
0
41
1
10
6.25320662133757
20
3.37050732521053
30
0
41
1
10
6.23136072913107
20
3.3689925566199
30
0
41
1
10
6.19874702278199
20
3.36563106771627
30
0
41
1
10
6.18790172701554
20
3.3643283818507
30
0
41
1
10
6.16626820696064
20
3.36132090418866
30
0
41
1
10
6.1554512814925
20
3.35961045219358
30
0
41
1
10
6.12339737435951
20
3.35386280896137
30
0
41
1
10
6.10251385811128
20
3.34921216830367
30
0
41
1
10
6.06186954337295
20
3.33799773465984
30
0
41
1
10
6.04210720941234
20
3.33143681707963
30
0
41
1
10
6.01347934407181
20
3.31984126524574
30
0
41
1
10
6.00410677925387
20
3.31568224856869
30
0
41
1
10
5.9857397180219
20
3.30670569786201
30
0
41
1
10
5.97686288889025
20
3.30194366866914
30
0
41
1
10
5.9513077413074
20
3.28687649698344
30
0
41
1
10
5.93564379150905
20
3.27576496737919
30
0
41
1
10
5.91434203907957
20
3.25735185362822
30
0
41
1
10
5.90757460908176
20
3.25088494282866
30
0
41
1
10
5.89499941678838
20
3.23754940359282
30
0
41
1
10
5.8891899086901
20
3.23068891651232
30
0
41
1
10
5.87312956529215
20
3.20954513519618
30
0
41
1
10
5.86424345244436
20
3.19470079773183
30
0
41
1
10
5.85345601480742
20
3.1713476801724
30
0
41
1
10
5.85029129874607
20
3.16338364200894
30
0
41
1
10
5.84486749222336
20
3.14739631987962
30
0
41
1
10
5.84258999716056
20
3.13933604287774
30
0
41
1
10
5.83694007177451
20
3.11496514087034
30
0
41
1
10
5.83474500034006
20
3.09846490767703
30
0
41
1
10
5.83302027024007
20
3.06499586264206
30
0
41
1
10
5.83350513041381
20
3.04797522772984
30
0
41
1
10
5.83673020773941
20
3.01402416106342
30
0
41
1
10
5.83946133383353
20
2.99703423087345
30
0
41
1
10
5.84313151569779
20
2.98001910004061
30
0
0
SPLINE
5
125
100
AcDbEntity
8
1
62
256
6
ByLayer
370
18
48
1
60
0
100
AcDbSpline
70
4
71
3
72
12
73
8
40
0
40
0
40
0
40
0
40
0.500000000000009
40
0.500000000000009
40
0.750000000000004
40
0.750000000000004
40
1
40
1
40
1
40
1
41
1
10
9.03175416344817
20
3.0986815060721
30
0
41
1
10
9.01464295406257
20
3.12480450868148
30
0
41
1
10
9.00205835791351
20
3.15161854992411
30
0
41
1
10
8.98842081495584
20
3.19248218712866
30
0
41
1
10
8.98475688561024
20
3.20621250992758
30
0
41
1
10
8.97901509925509
20
3.23384442371503
30
0
41
1
10
8.97693456850843
20
3.24780660141829
30
0
41
1
10
8.97559047658874
20
3.26163159798557
30
0
0
SPLINE
5
126
100
AcDbEntity
8
1
62
256
6
ByLayer
370
18
48
1
60
0
100
AcDbSpline
70
4
71
3
72
8
73
4
40
0
40
0
40
0
40
0
40
1
40
1
40
1
40
1
41
1
10
8.49458623275848
20
3.6238359440959
30
0
41
1
10
8.6557128648609
20
3.51060275426892
30
0
41
1
10
8.81562735171107
20
3.3896415274719
30
0
41
1
10
8.97559047658871
20
3.26163159798557
30
0
0
SPLINE
5
127
100
AcDbEntity
8
1
62
256
6
ByLayer
370
18
48
1
60
0
100
AcDbSpline
70
4
71
3
72
18
73
14
40
0
40
0
40
0
40
0
40
0.0624999999999968
40
0.0624999999999968
40
0.124999999999994
40
0.124999999999994
40
0.249999999999987
40
0.249999999999987
40
0.499999999999991
40
0.499999999999991
40
0.749999999999995
40
0.749999999999995
40
1
40
1
40
1
40
1
41
1
10
8.06999620060574
20
3.95839472870048
30
0
41
1
10
8.07620787777981
20
3.95103462650701
30
0
41
1
10
8.08292327832547
20
3.94379237046837
30
0
41
1
10
8.09699174102872
20
3.92943247152954
30
0
41
1
10
8.10435082416771
20
3.92231667755863
30
0
41
1
10
8.12712615835889
20
3.90107996461649
30
0
41
1
10
8.14324184344392
20
3.8870548996666
30
0
41
1
10
8.19320166256867
20
3.84518865157358
30
0
41
1
10
8.22856231536267
20
3.81760131789838
30
0
41
1
10
8.30149512244017
20
3.76239129580418
30
0
41
1
10
8.33913186513718
20
3.73478122043576
30
0
41
1
10
8.4158310331554
20
3.67944523272624
30
0
41
1
10
8.4549261878997
20
3.6517075476296
30
0
41
1
10
8.49458623275851
20
3.6238359440959
30
0
0
SPLINE
5
128
100
AcDbEntity
8
1
62
256
6
ByLayer
370
18
48
1
60
0
100
AcDbSpline
70
4
71
3
72
21
73
17
40
0
40
0
40
0
40
0
40
0.1178325587051
40
0.1178325587051
40
0.149338538751345
40
0.149338538751345
40
0.180844518797591
40
0.243856478890082
40
0.243856478890082
40
0.495904319260054
40
0.495904319260054
40
0.62192823944504
40
0.62192823944504
40
0.747952159630026
40
0.747952159630026
40
1
40
1
40
1
40
1
41
1
10
6.86881235360917
20
4.74999999999829
30
0
41
1
10
6.91263651784269
20
4.74998364389396
30
0
41
1
10
6.95694308579604
20
4.74612919891482
30
0
41
1
10
7.01385076742844
20
4.73631286580738
30
0
41
1
10
7.02591026161096
20
4.73396093010348
30
0
41
1
10
7.05005988693947
20
4.72871019309321
30
0
41
1
10
7.08631530537011
20
4.72001874018207
30
0
41
1
10
7.12268032791908
20
4.70890761641149
30
0
41
1
10
7.24421262136016
20
4.66659133116013
30
0
41
1
10
7.34244586440866
20
4.61591427078827
30
0
41
1
10
7.49267233029889
20
4.51565827189805
30
0
41
1
10
7.54322754157678
20
4.47818574088836
30
0
41
1
10
7.64554952441821
20
4.39514338642257
30
0
41
1
10
7.69733696315021
20
4.34955330532995
30
0
41
1
10
7.85482065278424
20
4.20062955192927
30
0
41
1
10
7.96113999700935
20
4.08658811892974
30
0
41
1
10
8.06999620060571
20
3.95839472870048
30
0
0
SPLINE
5
129
100
AcDbEntity
8
1
62
256
6
ByLayer
370
18
48
1
60
0
100
AcDbSpline
70
4
71
3
72
14
73
10
40
0
40
0
40
0
40
0
40
0.443704915154391
40
0.443704915154391
40
0.665557372731587
40
0.665557372731587
40
0.887409830308782
40
0.887409830308782
40
1
40
1
40
1
40
1
41
1
10
9.03175416344817
20
4.46533999348051
30
0
41
1
10
8.90919809055967
20
4.42150705632292
30
0
41
1
10
8.78574711156918
20
4.37319066067673
30
0
41
1
10
8.59750611158262
20
4.29519209666998
30
0
41
1
10
8.53424674034233
20
4.26827607345891
30
0
41
1
10
8.40638584003503
20
4.2128704196908
30
0
41
1
10
8.34173821776653
20
4.1843595429429
30
0
41
1
10
8.24317284465641
20
4.14050207031082
30
0
41
1
10
8.20982009375356
20
4.1255922899486
30
0
41
1
10
8.17627186364021
20
4.11056660268616
30
0
0
SPLINE
5
12A
100
AcDbEntity
8
1
62
256
6
ByLayer
370
18
48
1
60
0
100
AcDbSpline
70
4
71
3
72
39
73
35
40
0
40
0
40
0
40
0
40
0.0624999999999994
40
0.0624999999999994
40
0.124999999999999
40
0.187499999999998
40
0.187499999999998
40
0.218749999999997
40
0.218749999999997
40
0.249999999999996
40
0.249999999999996
40
0.312499999999995
40
0.312499999999995
40
0.374999999999993
40
0.437499999999992
40
0.437499999999992
40
0.468749999999992
40
0.468749999999992
40
0.484374999999992
40
0.484374999999992
40
0.499999999999992
40
0.499999999999992
40
0.624999999999995
40
0.624999999999995
40
0.749999999999999
40
0.749999999999999
40
0.765624999999998
40
0.765624999999998
40
0.781249999999998
40
0.812499999999998
40
0.812499999999998
40
0.874999999999999
40
0.874999999999999
40
1
40
1
40
1
40
1
41
1
10
5.84313151569791
20
2.98001910004061
30
0
41
1
10
5.87024111462426
20
2.87314964729035
30
0
41
1
10
5.8990744950035
20
2.76368967924813
30
0
41
1
10
5.96013687180792
20
2.53987607494454
30
0
41
1
10
6.02459317144817
20
2.31116699001777
30
0
41
1
10
6.09573324455786
20
2.07297081532477
30
0
41
1
10
6.1515713572953
20
1.8907926828696
30
0
41
1
10
6.17059821693604
20
1.82947733175772
30
0
41
1
10
6.20948008983862
20
1.70566239225116
30
0
41
1
10
6.22934373352888
20
1.64313589361274
30
0
41
1
10
6.29012801357857
20
1.45392698577305
30
0
41
1
10
6.33174828678162
20
1.32714494632651
30
0
41
1
10
6.41703763190225
20
1.07233973568103
30
0
41
1
10
6.50437586018384
20
0.816293010816935
30
0
41
1
10
6.59562213719158
20
0.557794799746546
30
0
41
1
10
6.66549176057882
20
0.362997302949793
30
0
41
1
10
6.68902121830317
20
0.29791067272177
30
0
41
1
10
6.72467508649572
20
0.200047630183946
30
0
41
1
10
6.73661930657104
20
0.167387626476909
30
0
41
1
10
6.76063102344907
20
0.101990480393113
30
0
41
1
10
6.77270898725115
20
0.0692257367859668
30
0
41
1
10
6.88177281404973
20
-0.225403189105975
30
0
41
1
10
6.98041632793698
20
-0.483135403811104
30
0
41
1
10
7.18313208026598
20
-0.989894058366588
30
0
41
1
10
7.28718206417921
20
-1.23892724114509
30
0
41
1
10
7.40853192904811
20
-1.51368352627247
30
0
41
1
10
7.42208833000703
20
-1.54416546473109
30
0
41
1
10
7.44924913494367
20
-1.60480364426084
30
0
41
1
10
7.49006072062636
20
-1.69527020544788
30
0
41
1
10
7.53110120223928
20
-1.78427201473931
30
0
41
1
10
7.6135363348796
20
-1.96033401735789
30
0
41
1
10
7.66896399531956
20
-2.07512268215797
30
0
41
1
10
7.83708664812417
20
-2.41171824767125
30
0
41
1
10
7.95157519452439
20
-2.6258035372434
30
0
41
1
10
8.06999085878107
20
-2.82898463224922
30
0
0
SPLINE
5
12B
100
AcDbEntity
8
1
62
256
6
ByLayer
370
13
48
1
60
0
100
AcDbSpline
70
4
71
1
72
4
73
2
40
0
40
0
40
1
40
1
41
1
10
10
20
-3.7846818924387
30
0
41
1
10
8.06999085878107
20
-2.82898463224922
30
0
0
SPLINE
5
12C
100
AcDbEntity
8
1
62
256
6
ByLayer
370
13
48
1
60
0
100
AcDbSpline
70
4
71
5
72
12
73
6
40
0
40
0
40
0
40
0
40
0
40
0
40
1
40
1
40
1
40
1
40
1
40
1
41
1
10
10.0000000000874
20
-0.24290937832032
30
0
41
0.984457904800667
10
10.0000000000874
20
-1.02439951124089
30
0
41
0.976837830152991
10
10.0000000000874
20
-1.80152514720158
30
0
41
0.976837830152991
10
10.0000000000874
20
-2.54104277730762
30
0
41
0.984457904800667
10
10.0000000000874
20
-3.21152410705957
30
0
41
1
10
10.0000000000874
20
-3.78468189248196
30
0
0
SPLINE
5
12D
100
AcDbEntity
8
1
62
256
6
ByLayer
370
18
48
1
60
0
100
AcDbSpline
70
4
71
1
72
4
73
2
40
0
40
0
40
1
40
1
41
1
10
10
20
-0.242909378252563
30
0
41
1
10
5.84313151569776
20
2.98001910004061
30
0
0
SPLINE
5
12E
100
AcDbEntity
8
1
62
256
6
ByLayer
370
18
48
1
60
0
100
AcDbSpline
70
4
71
3
72
10
73
6
40
0
40
0
40
0
40
0
40
0.5
40
0.5
40
1
40
1
40
1
40
1
41
1
10
31.3758208897331
20
4.60126765365433
30
0
41
1
10
31.403025853914
20
4.57488472703116
30
0
41
1
10
31.428481669069
20
4.54648125196869
30
0
41
1
10
31.4756507817217
20
4.48591930579272
30
0
41
1
10
31.4974127936011
20
4.45382789005598
30
0
41
1
10
31.5171362111614
20
4.41998770015047
30
0
0
SPLINE
5
12F
100
AcDbEntity
8
1
62
256
6
ByLayer
370
18
48
1
60
0
100
AcDbSpline
70
4
71
5
72
12
73
6
40
0
40
0
40
0
40
0
40
0
40
0
40
1
40
1
40
1
40
1
40
1
40
1
41
0.945919263646098
10
10.0000000000359
20
0.810329621719637
30
0
41
0.917822090535678
10
10.0000000000359
20
0.717797770864211
30
0
41
0.909628029214844
10
10.0000000000359
20
0.543958119323458
30
0
41
0.919897830972762
10
10.0000000000359
20
0.307810081753754
30
0
41
0.949177841322294
10
10.0000000000359
20
0.0354370305553262
30
0
41
1
10
10.0000000000359
20
-0.242909378280388
30
0
0
SPLINE
5
130
100
AcDbEntity
8
1
62
256
6
ByLayer
370
18
48
1
60
0
100
AcDbSpline
70
4
71
3
72
9
73
5
40
0
40
0
40
0
40
0
40
0.0654787470959395
40
1
40
1
40
1
40
1
41
1
10
12.9426832096695
20
-2.31867580502572
30
0
41
1
10
12.878455473113
20
-2.28120620554981
30
0
41
1
10
11.8975610698898
20
-1.69799342552238
30
0
41
1
10
10.9166666666667
20
-0.953624936432646
30
0
41
1
10
10
20
-0.242909378252563
30
0
0
SPLINE
5
131
100
AcDbEntity
8
1
62
256
6
ByLayer
370
18
48
1
60
0
100
AcDbSpline
70
4
71
3
72
22
73
18
40
0
40
0
40
0
40
0
40
0.0140846676301826
40
0.0140846676301826
40
0.154929715111576
40
0.154929715111576
40
0.225352238852274
40
0.225352238852274
40
0.29577476259297
40
0.29577476259297
40
0.436619810074374
40
0.436619810074374
40
0.718309905037193
40
0.718309905037193
40
0.859154952518596
40
0.859154952518596
40
1
40
1
40
1
40
1
41
1
10
29.4108232187808
20
3.71020611306179
30
0
41
1
10
29.4206968730734
20
3.71525616565455
30
0
41
1
10
29.430573167638
20
3.7202799715445
30
0
41
1
10
29.5392412467896
20
3.77525691784342
30
0
41
1
10
29.6383009481786
20
3.82265030894746
30
0
41
1
10
29.7873812334012
20
3.89020103349279
30
0
41
1
10
29.8370963711143
20
3.91209776786249
30
0
41
1
10
29.9363723057301
20
3.95460866276849
30
0
41
1
10
29.9859662751456
20
3.97523784237217
30
0
41
1
10
30.1346430482576
20
4.03531166525286
30
0
41
1
10
30.2336219915281
20
4.07294742793232
30
0
41
1
10
30.5302976486472
20
4.17893107149334
30
0
41
1
10
30.7277376685852
20
4.24043618793309
30
0
41
1
10
31.0237571967033
20
4.31882211111238
30
0
41
1
10
31.1224042727773
20
4.34262057641925
30
0
41
1
10
31.3197208009302
20
4.38521816655393
30
0
41
1
10
31.4183879713327
20
4.404022347162
30
0
41
1
10
31.5171362111614
20
4.41998770015081
30
0
0
SPLINE
5
132
100
AcDbEntity
8
1
62
256
6
ByLayer
370
18
48
1
60
0
100
AcDbSpline
70
4
71
3
72
10
73
6
40
0
40
0
40
0
40
0
40
0.694308423979827
40
0.694308423979827
40
1
40
1
40
1
40
1
41
1
10
31.375820889733
20
0.464726354781305
30
0
41
1
10
31.4030252173114
20
0.439723360141244
30
0
41
1
10
31.4284805054628
20
0.415874289744607
30
0
41
1
10
31.4624483110362
20
0.382749490507791
30
0
41
1
10
31.4724787081255
20
0.372779277171901
30
0
41
1
10
31.482137390715
20
0.36294106146849
30
0
0
SPLINE
5
133
100
AcDbEntity
8
1
62
256
6
ByLayer
370
18
48
1
60
0
100
AcDbSpline
70
4
71
3
72
8
73
4
40
0
40
0
40
0
40
0
40
1
40
1
40
1
40
1
41
1
10
31.5171336993651
20
0.326011103200273
30
0
41
1
10
31.5306878722648
20
0.313386317304463
30
0
41
1
10
31.5436987257782
20
0.301162245539842
30
0
41
1
10
31.5561266436149
20
0.289323091417856
30
0
0
SPLINE
5
134
100
AcDbEntity
8
1
62
256
6
ByLayer
370
18
48
1
60
0
100
AcDbSpline
70
4
71
3
72
20
73
16
40
0
40
0
40
0
40
0
40
0.0312500000000185
40
0.0312500000000185
40
0.0625000000000371
40
0.0625000000000371
40
0.125000000000074
40
0.125000000000074
40
0.250000000000065
40
0.250000000000065
40
0.375000000000055
40
0.375000000000055
40
0.500000000000046
40
0.500000000000046
40
1
40
1
40
1
40
1
41
1
10
31.8830521769823
20
0.212102050096547
30
0
41
1
10
31.8787884691177
20
0.213122095421994
30
0
41
1
10
31.874825033798
20
0.214066156370706
30
0
41
1
10
31.8671080299166
20
0.215901169646145
30
0
41
1
10
31.8633690672833
20
0.216788426470174
30
0
41
1
10
31.8523337459804
20
0.219404250919467
30
0
41
1
10
31.8452936747693
20
0.221069235459424
30
0
41
1
10
31.8245995121413
20
0.225959551528035
30
0
41
1
10
31.8112947382653
20
0.229098236320198
30
0
41
1
10
31.7847937578662
20
0.235348753035566
30
0
41
1
10
31.7716351451887
20
0.238451285934047
30
0
41
1
10
31.7452748536566
20
0.244667005767354
30
0
41
1
10
31.7320791282504
20
0.247778725224265
30
0
41
1
10
31.6658029468429
20
0.263411036153002
30
0
41
1
10
31.6117161691212
20
0.276180924987244
30
0
41
1
10
31.5561266436181
20
0.289323091420869
30
0
0
SPLINE
5
135
100
AcDbEntity
8
1
62
256
6
ByLayer
370
18
48
1
60
0
100
AcDbSpline
70
4
71
3
72
14
73
10
40
0
40
0
40
0
40
0
40
0.25
40
0.25
40
0.5
40
0.5
40
0.75
40
0.75
40
1
40
1
40
1
40
1
41
1
10
30.9517736178763
20
0.897397702148993
30
0
41
1
10
30.9887462118666
20
0.857059460045946
30
0
41
1
10
31.0252961701032
20
0.817622445913003
30
0
41
1
10
31.0975897309537
20
0.740777815194491
30
0
41
1
10
31.1333323737129
20
0.703372001362425
30
0
41
1
10
31.2041140561743
20
0.630764673908317
30
0
41
1
10
31.2391350673813
20
0.595585435969213
30
0
41
1
10
31.3085305277567
20
0.527689516644244
30
0
41
1
10
31.3425387893341
20
0.495331320090145
30
0
41
1
10
31.375820889734
20
0.464726354780368
30
0
0
SPLINE
5
136
100
AcDbEntity
8
1
62
256
6
ByLayer
370
18
48
1
60
0
100
AcDbSpline
70
4
71
3
72
12
73
8
40
0
40
0
40
0
40
0
40
0.205742412196344
40
0.359664530998311
40
0.590547709201263
40
0.821430887404214
40
1
40
1
40
1
40
1
41
1
10
31.0879152975015
20
0.759804689120671
30
0
41
1
10
30.475276865001
20
1.38484593955656
30
0
41
1
10
29.4043050991672
20
2.44093074963325
30
0
41
0.999999999999999
10
27.6458333333334
20
3.81436208659267
30
0
41
1
10
25.8125000000001
20
4.69317557113058
30
0
41
1
10
23.9057754028893
20
4.7002127283842
30
0
41
1
10
22.6865508057786
20
4.20125310042144
30
0
41
1
10
22.1548262086679
20
3.90176503556969
30
0
0
SPLINE
5
137
100
AcDbEntity
8
1
62
256
6
ByLayer
370
18
48
1
60
0
100
AcDbSpline
70
4
71
3
72
8
73
4
40
0
40
0
40
0
40
0
40
1
40
1
40
1
40
1
41
1
10
9.10697104896829
20
3.00946550773375
30
0
41
1
10
9.07805520581468
20
3.03721706702453
30
0
41
1
10
9.05257633861541
20
3.06689311964246
30
0
41
1
10
9.03175416344808
20
3.09868150607207
30
0
0
SPLINE
5
138
100
AcDbEntity
8
1
62
256
6
ByLayer
370
18
48
1
60
0
100
AcDbSpline
70
4
71
3
72
8
73
4
40
0
40
0
40
0
40
0
40
1
40
1
40
1
40
1
41
1
10
9.09044505146662
20
1.79428310682746
30
0
41
1
10
9.07094193079956
20
1.81322203129642
30
0
41
1
10
9.0513763757059
20
1.83216511199407
30
0
41
1
10
9.03175416344814
20
1.85112018655113
30
0
0
SPLINE
5
139
100
AcDbEntity
8
1
62
256
6
ByLayer
370
18
48
1
60
0
100
AcDbSpline
70
4
71
3
72
8
73
4
40
0
40
0
40
0
40
0
40
1
40
1
40
1
40
1
41
1
10
10
20
0.867123895399487
30
0
41
1
10
9.9869153192252
20
0.881502287645361
30
0
41
1
10
9.97377540906913
20
0.895875825973292
30
0
41
1
10
9.96058151191653
20
0.910244935110171
30
0
0
SPLINE
5
13A
100
AcDbEntity
8
1
62
256
6
ByLayer
370
18
48
1
60
0
100
AcDbSpline
70
4
71
3
72
14
73
10
40
0
40
0
40
0
40
0
40
0.172099570412358
40
0.172099570412358
40
0.448066380274906
40
0.448066380274906
40
0.724033190137453
40
0.724033190137453
40
1
40
1
40
1
40
1
41
1
10
9.91990015100734
20
0.954353082745826
30
0
41
1
10
9.87529717049713
20
1.00250126209735
30
0
41
1
10
9.83010159397656
20
1.05060453790551
30
0
41
1
10
9.71101263014887
20
1.17576762562766
30
0
41
1
10
9.63626031796971
20
1.25278180191873
30
0
41
1
10
9.48426384395631
20
1.40690262965381
30
0
41
1
10
9.40701859532109
20
1.48400859782811
30
0
41
1
10
9.25031914620379
20
1.63867662975028
30
0
41
1
10
9.17086396042876
20
1.71623757881579
30
0
41
1
10
9.09044505146662
20
1.79428310682746
30
0
0
SPLINE
5
13B
100
AcDbEntity
8
1
62
256
6
ByLayer
370
18
48
1
60
0
100
AcDbSpline
70
4
71
1
72
4
73
2
40
0
40
0
40
1
40
1
41
1
10
9.75284274364444
20
1.12134698399967
30
0
41
1
10
9.09044505146662
20
1.79428310682746
30
0
0
SPLINE
5
13C
100
AcDbEntity
8
1
62
256
6
ByLayer
370
18
48
1
60
0
100
AcDbSpline
70
4
71
3
72
8
73
4
40
0
40
0
40
0
40
0
40
1
40
1
40
1
40
1
41
1
10
31.9689437547139
20
0.192319870269472
30
0
41
1
10
31.9665957120498
20
0.192633744655353
30
0
41
1
10
31.9622031478856
20
0.19343936198203
30
0
41
1
10
31.9557537416384
20
0.19473979816911
30
0
0
SPLINE
5
13D
100
AcDbEntity
8
1
62
256
6
ByLayer
370
18
48
1
60
0
100
AcDbSpline
70
4
71
3
72
8
73
4
40
0
40
0
40
0
40
0
40
1
40
1
40
1
40
1
41
1
10
31.9689437547097
20
0.192319870276521
30
0
41
1
10
31.9434583971035
20
0.396035853536006
30
0
41
1
10
31.9179565450439
20
0.599645211913554
30
0
41
1
10
31.892445709334
20
0.803196497448567
30
0
0
SPLINE
5
13E
100
AcDbEntity
8
1
62
256
6
ByLayer
370
18
48
1
60
0
100
AcDbSpline
70
4
71
3
72
26
73
22
40
0
40
0
40
0
40
0
40
0.0624999999999991
40
0.0624999999999991
40
0.124999999999998
40
0.124999999999998
40
0.187499999999997
40
0.187499999999997
40
0.249999999999996
40
0.249999999999996
40
0.312499999999995
40
0.312499999999995
40
0.374999999999994
40
0.374999999999994
40
0.499999999999993
40
0.499999999999993
40
0.624999999999993
40
0.624999999999993
40
0.749999999999992
40
0.749999999999992
40
1
40
1
40
1
40
1
41
1
10
31.8924457093337
20
0.803196497450188
30
0
41
1
10
31.8896679894134
20
0.81433074965787
30
0
41
1
10
31.8863160259133
20
0.827291684634901
30
0
41
1
10
31.8787246597516
20
0.856036520114742
30
0
41
1
10
31.874454837127
20
0.871929734027276
30
0
41
1
10
31.8654391567247
20
0.905114384865044
30
0
41
1
10
31.8606738502113
20
0.92248141079682
30
0
41
1
10
31.8507527888779
20
0.958390297926655
30
0
41
1
10
31.8455960979542
20
0.976934975800731
30
0
41
1
10
31.8349700120734
20
1.01496523901997
30
0
41
1
10
31.8294902689075
20
1.03448729118574
30
0
41
1
10
31.8183180901101
20
1.07414642535969
30
0
41
1
10
31.8126413803939
20
1.0942279482249
30
0
41
1
10
31.7953888677757
20
1.15509081967644
30
0
41
1
10
31.7835931900405
20
1.19648349622702
30
0
41
1
10
31.7595770844066
20
1.28044980149588
30
0
41
1
10
31.7473390649218
20
1.32308335028875
30
0
41
1
10
31.7226054995064
20
1.4090146623268
30
0
41
1
10
31.710133001183
20
1.45223235757572
30
0
41
1
10
31.6724635119531
20
1.58248622917387
30
0
41
1
10
31.6470178481667
20
1.67011527275272
30
0
41
1
10
31.6213377135494
20
1.75830332408896
30
0
0
SPLINE
5
13F
100
AcDbEntity
8
1
62
256
6
ByLayer
370
18
48
1
60
0
100
AcDbSpline
70
4
71
3
72
8
73
4
40
0
40
0
40
0
40
0
40
1
40
1
40
1
40
1
41
1
10
30.9494434359086
20
0.899940589693585
30
0
41
1
10
30.950220348986
20
0.899092562900307
30
0
41
1
10
30.9509970778268
20
0.898244931329799
30
0
41
1
10
30.9517736178761
20
0.897397702149107
30
0
0
SPLINE
5
140
100
AcDbEntity
8
1
62
256
6
ByLayer
370
13
48
1
60
0
100
AcDbSpline
70
4
71
3
72
21
73
17
40
0
40
0
40
0
40
0
40
0.0400759891164486
40
0.148092494473008
40
0.257250498558823
40
0.330848482206743
40
0.366825679797059
40
0.418147022255339
40
0.434785920885217
40
0.505274584218858
40
0.578799363670517
40
0.687910188451624
40
0.741962667727716
40
0.850265565820144
40
0.941719828600729
40
1
40
1
40
1
40
1
41
1
10
31.8830521768355
20
0.212102049560229
30
0
41
1
10
31.8746887041645
20
0.215389873945696
30
0
41
1
10
31.8428166966128
20
0.228605028668909
30
0
41
1
10
31.7814885310208
20
0.258412896792493
30
0
41
1
10
31.7046670837967
20
0.302256145780689
30
0
41
1
10
31.6437208237883
20
0.340533106015357
30
0
41
1
10
31.5960446175607
20
0.371917666004663
30
0
41
1
10
31.5623453320332
20
0.394905471575583
30
0
41
1
10
31.5149851364769
20
0.428122495084296
30
0
41
1
10
31.4629506767231
20
0.465837890253368
30
0
41
1
10
31.3812649310631
20
0.527600770249251
30
0
41
1
10
31.3006032637595
20
0.591709547083298
30
0
41
1
10
31.2056113840037
20
0.670371854060534
30
0
41
1
10
31.1153374244451
20
0.748059539523211
30
0
41
1
10
31.0250129056325
20
0.829258819658662
30
0
41
1
10
30.9726525693371
20
0.877798202845554
30
0
41
1
10
30.9517736178762
20
0.897397702149107
30
0
0
SPLINE
5
141
100
AcDbEntity
8
1
62
256
6
ByLayer
370
18
48
1
60
0
100
AcDbSpline
70
4
71
3
72
8
73
4
40
0
40
0
40
0
40
0
40
1
40
1
40
1
40
1
41
1
10
31.9557537416344
20
0.194739798170161
30
0
41
1
10
31.93209131562
20
0.200378494535613
30
0
41
1
10
31.9077743809796
20
0.206187534541783
30
0
41
1
10
31.8830521821577
20
0.212102049362812
30
0
0
SPLINE
5
142
100
AcDbEntity
8
1
62
256
6
ByLayer
370
18
48
1
60
0
100
AcDbSpline
70
4
71
3
72
34
73
30
40
0
40
0
40
0
40
0
40
0.0624999999999976
40
0.0624999999999976
40
0.124999999999995
40
0.124999999999995
40
0.187499999999993
40
0.187499999999993
40
0.24999999999999
40
0.24999999999999
40
0.375000000000009
40
0.375000000000009
40
0.437500000000009
40
0.437500000000009
40
0.500000000000008
40
0.500000000000008
40
0.562500000000007
40
0.562500000000007
40
0.625000000000007
40
0.625000000000007
40
0.687500000000006
40
0.687500000000006
40
0.750000000000005
40
0.750000000000005
40
0.875000000000004
40
0.875000000000004
40
0.937500000000002
40
0.937500000000002
40
1
40
1
40
1
40
1
41
1
10
31.3791248998225
20
0.604126280436162
30
0
41
1
10
31.3988760990679
20
0.591210103593653
30
0
41
1
10
31.4182359836496
20
0.578325284555746
30
0
41
1
10
31.4562686981508
20
0.552670587076733
30
0
41
1
10
31.4749870043091
20
0.539868361506478
30
0
41
1
10
31.5114656782231
20
0.514657797282212
30
0
41
1
10
31.5292509369068
20
0.502234989444446
30
0
41
1
10
31.5639897405025
20
0.477768472284026
30
0
41
1
10
31.5808651094553
20
0.465775750474876
30
0
41
1
10
31.629666866138
20
0.430831481756286
30
0
41
1
10
31.6600119409386
20
0.408810773424847
30
0
41
1
10
31.7027038775817
20
0.377748132965451
30
0
41
1
10
31.7164589824076
20
0.367723117998651
30
0
41
1
10
31.7430454990269
20
0.348311633439124
30
0
41
1
10
31.755839735822
20
0.33895583338878
30
0
41
1
10
31.780262209849
20
0.321052867813904
30
0
41
1
10
31.7919250574449
20
0.312484561169015
30
0
41
1
10
31.8142007123187
20
0.29612661615505
30
0
41
1
10
31.824794239457
20
0.288350421600683
30
0
41
1
10
31.8448292694036
20
0.273664877280794
30
0
41
1
10
31.8542887524113
20
0.266742093784387
30
0
41
1
10
31.8721304695582
20
0.253722689295188
30
0
41
1
10
31.8805251190117
20
0.247617088974465
30
0
41
1
10
31.9040238748687
20
0.230614167923051
30
0
41
1
10
31.9174281363662
20
0.22103579613804
30
0
41
1
10
31.9343031905507
20
0.209209111085499
30
0
41
1
10
31.9393815602344
20
0.205698760490265
30
0
41
1
10
31.9483989101875
20
0.199569859566168
30
0
41
1
10
31.9523495920012
20
0.196942063115813
30
0
41
1
10
31.9557537416382
20
0.194739798170247
30
0
0
SPLINE
5
143
100
AcDbEntity
8
1
62
256
6
ByLayer
370
18
48
1
60
0
100
AcDbSpline
70
4
71
3
72
8
73
4
40
0
40
0
40
0
40
0
40
1
40
1
40
1
40
1
41
1
10
31.3548073521542
20
0.620205096477008
30
0
41
1
10
31.3628879188614
20
0.614802866781986
30
0
41
1
10
31.3709939062286
20
0.609443494335835
30
0
41
1
10
31.3791248998224
20
0.604126280436162
30
0
0
SPLINE
5
144
100
AcDbEntity
8
1
62
256
6
ByLayer
370
18
48
1
60
0
100
AcDbSpline
70
4
71
3
72
8
73
4
40
0
40
0
40
0
40
0
40
1
40
1
40
1
40
1
41
1
10
31.6213377135493
20
1.75830332408893
30
0
41
1
10
31.6212167242768
20
1.75842395472816
30
0
41
1
10
31.6210956758003
20
1.75854466030467
30
0
41
1
10
31.6209745681049
20
1.75866544084687
30
0
0
SPLINE
5
145
100
AcDbEntity
8
1
62
256
6
ByLayer
370
13
48
1
60
0
100
AcDbSpline
70
4
71
3
72
10
73
6
40
0
40
0
40
0
40
0
40
0.0370355197478507
40
0.3580236798319
40
1
40
1
40
1
40
1
41
1
10
14.2836470966405
20
-4.03932786434231
30
0
41
1
10
14.2307647310937
20
-4.06292539295117
30
0
41
1
10
13.7195490322135
20
-4.28288147161734
30
0
41
1
10
12.2916666666667
20
-4.67190443805629
30
0
41
1
10
10.9166666666667
20
-4.42080131870537
30
0
41
1
10
10
20
-3.98011562120445
30
0
0
SPLINE
5
146
100
AcDbEntity
8
1
62
256
6
ByLayer
370
18
48
1
60
0
100
AcDbSpline
70
4
71
3
72
9
73
5
40
0
40
0
40
0
40
0
40
0.428018384378311
40
1
40
1
40
1
40
1
41
1
10
30.9488642023403
20
0.900817560056083
30
0
41
1
10
30.8613193423311
20
0.996502853632308
30
0
41
1
10
30.6568373064803
20
1.2187949312308
30
0
41
1
10
30.4525586041906
20
1.43710365920822
30
0
41
1
10
30.3357480976772
20
1.56034691701228
30
0
0
SPLINE
5
147
100
AcDbEntity
8
1
62
256
6
ByLayer
370
18
48
1
60
0
100
AcDbSpline
70
4
71
3
72
12
73
8
40
0
40
0
40
0
40
0
40
0.5
40
0.5
40
0.75
40
0.75
40
1
40
1
40
1
40
1
41
1
10
30.9496237717584
20
0.899987348500673
30
0
41
1
10
31.0132721114037
20
0.84800926587036
30
0
41
1
10
31.0789829966556
20
0.798861726470335
30
0
41
1
10
31.1803742720926
20
0.729034782899419
30
0
41
1
10
31.2146397663307
20
0.706404739322153
30
0
41
1
10
31.2840660100706
20
0.662381155356002
30
0
41
1
10
31.3192625455769
20
0.64097520874526
30
0
41
1
10
31.3548073521542
20
0.620205096477008
30
0
0
SPLINE
5
148
100
AcDbEntity
8
1
62
256
6
ByLayer
370
18
48
1
60
0
100
AcDbSpline
70
4
71
3
72
8
73
4
40
0
40
0
40
0
40
0
40
1
40
1
40
1
40
1
41
1
10
31.3548073521543
20
0.62020509647698
30
0
41
1
10
31.3612606697582
20
0.627724018286614
30
0
41
1
10
31.3677972298823
20
0.635165469199848
30
0
41
1
10
31.3744124647704
20
0.642533700267251
30
0
0
SPLINE
5
149
100
AcDbEntity
8
1
62
256
6
ByLayer
370
18
48
1
60
0
100
AcDbSpline
70
4
71
3
72
28
73
24
40
0
40
0
40
0
40
0
40
0.0156249999999993
40
0.0156249999999993
40
0.0312499999999986
40
0.0312499999999986
40
0.0624999999999973
40
0.0624999999999973
40
0.124999999999995
40
0.124999999999995
40
0.187499999999992
40
0.187499999999992
40
0.249999999999989
40
0.249999999999989
40
0.374999999999991
40
0.374999999999991
40
0.499999999999993
40
0.499999999999993
40
0.624999999999995
40
0.624999999999995
40
0.749999999999997
40
0.749999999999997
40
1
40
1
40
1
40
1
41
1
10
31.3744124647704
20
0.642533700266881
30
0
41
1
10
31.3787100098305
20
0.647320424481592
30
0
41
1
10
31.3825465825006
20
0.652338699511944
30
0
41
1
10
31.389676384129
20
0.662644499967996
30
0
41
1
10
31.3929630881089
20
0.667935359145162
30
0
41
1
10
31.4022628016926
20
0.684081234303562
30
0
41
1
10
31.4077273163565
20
0.695203441469744
30
0
41
1
10
31.4229138677132
20
0.729131903233906
30
0
41
1
10
31.4314576177185
20
0.752520711323967
30
0
41
1
10
31.4471068689494
20
0.79972085953986
30
0
41
1
10
31.4541392539495
20
0.823483472290377
30
0
41
1
10
31.4673120910549
20
0.871124356821042
30
0
41
1
10
31.4734393198733
20
0.895006611660506
30
0
41
1
10
31.4909137598891
20
0.96669608254166
30
0
41
1
10
31.5013790480553
20
1.01456613830905
30
0
41
1
10
31.5209467724821
20
1.10995212329834
30
0
41
1
10
31.5300232258921
20
1.15746259999571
30
0
41
1
10
31.5471746350967
20
1.25201856782425
30
0
41
1
10
31.5552427048276
20
1.2990657101264
30
0
41
1
10
31.5705423972051
20
1.39265189143632
30
0
41
1
10
31.5777735556563
20
1.43920651890966
30
0
41
1
10
31.5982803342885
20
1.57782679415777
30
0
41
1
10
31.6103961382755
20
1.66891940422769
30
0
41
1
10
31.6209745681049
20
1.75866544084687
30
0
0
SPLINE
5
14A
100
AcDbEntity
8
1
62
256
6
ByLayer
370
18
48
1
60
0
100
AcDbSpline
70
4
71
3
72
35
73
31
40
0
40
0
40
0
40
0
40
0.0720616898465609
40
0.0720616898465609
40
0.144123379693122
40
0.144123379693122
40
0.216185069539683
40
0.216185069539683
40
0.288246759386244
40
0.360308449232804
40
0.360308449232804
40
0.396339294156083
40
0.396339294156083
40
0.414354716617722
40
0.414354716617722
40
0.432370139079361
40
0.432370139079361
40
0.504431828925927
40
0.504431828925927
40
0.576493518772492
40
0.576493518772492
40
0.720616898465627
40
0.720616898465627
40
0.864740278158763
40
0.864740278158763
40
0.900771123082045
40
0.900771123082045
40
0.936801968005328
40
0.936801968005328
40
1
40
1
40
1
40
1
41
1
10
31.6209745681049
20
1.75866544084687
30
0
41
1
10
31.5083651643441
20
1.86849698713297
30
0
41
1
10
31.3959481164804
20
1.97642629059382
30
0
41
1
10
31.1714498456987
20
2.18823196014122
30
0
41
1
10
31.0593693985923
20
2.29210832297664
30
0
41
1
10
30.8354062850218
20
2.49539848778369
30
0
41
1
10
30.7235271443877
20
2.5948049460651
30
0
41
1
10
30.4997048617632
20
2.78861703765284
30
0
41
1
10
30.2757851718431
20
2.97747034965138
30
0
41
1
10
30.0507970162828
20
3.15595265440328
30
0
41
1
10
29.8813478735088
20
3.28574339059477
30
0
41
1
10
29.824747020835
20
3.32832832078867
30
0
41
1
10
29.7396321888409
20
3.39116310307446
30
0
41
1
10
29.7112422456789
20
3.4119211610066
30
0
41
1
10
29.6545657568423
20
3.45295700264558
30
0
41
1
10
29.6262583119422
20
3.47325026639098
30
0
41
1
10
29.4848586868593
20
3.57359829505805
30
0
41
1
10
29.3721731658684
20
3.65030993048734
30
0
41
1
10
29.1473234582815
20
3.79661962617209
30
0
41
1
10
29.035169161347
20
3.86620011860785
30
0
41
1
10
28.6991539332472
20
4.06390721111572
30
0
41
1
10
28.4757608964786
20
4.18102332925372
30
0
41
1
10
28.0277678789229
20
4.38350960186648
30
0
41
1
10
27.8031456754287
20
4.46873927003156
30
0
41
1
10
27.5197305303085
20
4.55436903400883
30
0
41
1
10
27.4628561871403
20
4.57046107548007
30
0
41
1
10
27.3495130991362
20
4.60033291639465
30
0
41
1
10
27.2929669959647
20
4.61413845006078
30
0
41
1
10
27.1375257933073
20
4.64905698508082
30
0
41
1
10
27.0388465611188
20
4.66783606915632
30
0
41
1
10
26.9403784806785
20
4.68312412907852
30
0
0
SPLINE
5
14B
100
AcDbEntity
8
1
62
256
6
ByLayer
370
18
48
1
60
0
100
AcDbSpline
70
4
71
3
72
37
73
33
40
0
40
0
40
0
40
0
40
0.0180262278033433
40
0.0180262278033433
40
0.158308195260009
40
0.158308195260009
40
0.228449178988342
40
0.228449178988342
40
0.298590162716675
40
0.298590162716675
40
0.368731146445008
40
0.368731146445008
40
0.403801638309175
40
0.421336884241259
40
0.421336884241259
40
0.438872130173343
40
0.438872130173343
40
0.509013113901676
40
0.509013113901676
40
0.579154097630009
40
0.579154097630009
40
0.719436065086673
40
0.719436065086673
40
0.789577048815005
40
0.789577048815005
40
0.82464754067917
40
0.82464754067917
40
0.859718032543337
40
0.859718032543337
40
0.929859016271669
40
0.929859016271669
40
1
40
1
40
1
40
1
41
1
10
14.8208275057497
20
-3.90376147274913
30
0
41
1
10
14.7916459017381
20
-3.92110752454383
30
0
41
1
10
14.7624635311139
20
-3.93822455741298
30
0
41
1
10
14.5065743365244
20
-4.08626252297412
30
0
41
1
10
14.2813729321608
20
-4.20249445089294
30
0
41
1
10
13.9446501226542
20
-4.35201678353883
30
0
41
1
10
13.8325896463984
20
-4.39770732978675
30
0
41
1
10
13.6085723995798
20
-4.48023233537012
30
0
41
1
10
13.4966242069457
20
-4.5169987119697
30
0
41
1
10
13.2723866299167
20
-4.58161961493113
30
0
41
1
10
13.1600916858188
20
-4.60950099494639
30
0
41
1
10
12.9910532705522
20
-4.64483920012543
30
0
41
1
10
12.9063857206728
20
-4.66088674876912
30
0
41
1
10
12.8214391056787
20
-4.67452578922965
30
0
41
1
10
12.7647400980595
20
-4.68308540135536
30
0
41
1
10
12.736350700211
20
-4.68709902236714
30
0
41
1
10
12.5946324230382
20
-4.70578931881909
30
0
41
1
10
12.4816610821977
20
-4.71639088377333
30
0
41
1
10
12.2561667165943
20
-4.72937566269351
30
0
41
1
10
12.1436390965178
20
-4.73179175480789
30
0
41
1
10
11.806435794178
20
-4.72650245434423
30
0
41
1
10
11.5821782268401
20
-4.70626853485405
30
0
41
1
10
11.2450805245528
20
-4.64852373683141
30
0
41
1
10
11.1325887702817
20
-4.62469970811381
30
0
41
1
10
10.9633995637576
20
-4.58172292779659
30
0
41
1
10
10.9069275602433
20
-4.56618527967899
30
0
41
1
10
10.7937745026025
20
-4.53271458676116
30
0
41
1
10
10.7370668688112
20
-4.51477325642662
30
0
41
1
10
10.5667179566948
20
-4.45745179678039
30
0
41
1
10
10.4533757933238
20
-4.41476279328759
30
0
41
1
10
10.2267344876299
20
-4.32085042747124
30
0
41
1
10
10.1134360528541
20
-4.26962750663901
30
0
41
1
10
10
20
-4.21424865146838
30
0
0
SPLINE
5
14C
100
AcDbEntity
8
1
62
256
6
ByLayer
370
18
48
1
60
0
100
AcDbSpline
70
4
71
3
72
10
73
6
40
0
40
0
40
0
40
0
40
0.5
40
0.5
40
1
40
1
40
1
40
1
41
1
10
9.21363056967417
20
-3.75276267287109
30
0
41
1
10
9.34349342950262
20
-3.84060581009919
30
0
41
1
10
9.47337277792724
20
-3.92341660446775
30
0
41
1
10
9.73488004130786
20
-4.07766088967051
30
0
41
1
10
9.86651024159153
20
-4.1490797805767
30
0
41
1
10
10
20
-4.21424865146838
30
0
0
SPLINE
5
14D
100
AcDbEntity
8
1
62
256
6
ByLayer
370
13
48
1
60
0
100
AcDbSpline
70
4
71
3
72
8
73
4
40
0
40
0
40
0
40
0
40
1
40
1
40
1
40
1
41
1
10
9.10697104896826
20
-3.8292918453763
30
0
41
1
10
9.14236800561591
20
-3.80376982886924
30
0
41
1
10
9.1779255196044
20
-3.77825949697265
30
0
41
1
10
9.21363057299985
20
-3.75276267019819
30
0
0
SPLINE
5
14E
100
AcDbEntity
8
1
62
256
6
ByLayer
370
18
48
1
60
0
100
AcDbSpline
70
4
71
3
72
30
73
26
40
0
40
0
40
0
40
0
40
0.0624999999999988
40
0.0624999999999988
40
0.124999999999998
40
0.124999999999998
40
0.187499999999997
40
0.187499999999997
40
0.249999999999996
40
0.249999999999996
40
0.312499999999995
40
0.312499999999995
40
0.374999999999994
40
0.374999999999994
40
0.499999999999995
40
0.499999999999995
40
0.624999999999996
40
0.624999999999996
40
0.749999999999997
40
0.749999999999997
40
0.874999999999999
40
0.874999999999999
40
0.937499999999999
40
0.937499999999999
40
1
40
1
40
1
40
1
41
1
10
9.10697104896829
20
-3.8292918453763
30
0
41
1
10
9.14153174067974
20
-3.85634599587718
30
0
41
1
10
9.1731635622352
20
-3.88453831519988
30
0
41
1
10
9.23265758638595
20
-3.94185246490915
30
0
41
1
10
9.26049012272603
20
-3.97099265222161
30
0
41
1
10
9.31342413836737
20
-4.02951527064377
30
0
41
1
10
9.33851525625334
20
-4.0589042227588
30
0
41
1
10
9.38660689891719
20
-4.11749159584167
30
0
41
1
10
9.40960297889356
20
-4.14669286318741
30
0
41
1
10
9.45393056783601
20
-4.20460955402976
30
0
41
1
10
9.47526207003816
20
-4.23333213651264
30
0
41
1
10
9.51626611464818
20
-4.28966094631562
30
0
41
1
10
9.5359825133398
20
-4.31732624865146
30
0
41
1
10
9.59318522900193
20
-4.39865957595092
30
0
41
1
10
9.62874540847676
20
-4.4506575880693
30
0
41
1
10
9.69614203349673
20
-4.54962963829908
30
0
41
1
10
9.72796539134436
20
-4.59660929518148
30
0
41
1
10
9.78875087122927
20
-4.68517090817852
30
0
41
1
10
9.81770764170329
20
-4.7267556784343
30
0
41
1
10
9.87334447321871
20
-4.80421482679978
30
0
41
1
10
9.90002168735921
20
-4.84009078443705
30
0
41
1
10
9.93864284596609
20
-4.88938807335808
30
0
41
1
10
9.95126233829865
20
-4.90504043293041
30
0
41
1
10
9.97599106133038
20
-4.93470399383185
30
0
41
1
10
9.98810827992497
20
-4.94872552215608
30
0
41
1
10
10.0000000000005
20
-4.96192849185888
30
0
0
SPLINE
5
14F
100
AcDbEntity
8
1
62
256
6
ByLayer
370
18
48
1
60
0
100
AcDbSpline
70
4
71
3
72
8
73
4
40
0
40
0
40
0
40
0
40
1
40
1
40
1
40
1
41
1
10
9.99999999999997
20
-4.96192849186286
30
0
41
1
10
9.99999999999997
20
-4.96267386322236
30
0
41
1
10
9.99999999999997
20
-4.96341724810881
30
0
41
1
10
9.99999999999997
20
-4.96415864541021
30
0
0
SPLINE
5
150
100
AcDbEntity
8
1
62
256
6
ByLayer
370
18
48
1
60
0
100
AcDbSpline
70
4
71
3
72
12
73
8
40
0
40
0
40
0
40
0
40
0.350201429946852
40
0.350201429946852
40
0.700402859893703
40
0.700402859893703
40
1
40
1
40
1
40
1
41
1
10
10
20
-4.96415864541021
30
0
41
1
10
10.1476385844614
20
-4.98415661899239
30
0
41
1
10
10.2943972732236
20
-4.99586806336202
30
0
41
1
10
10.5869627687586
20
-5.00340692416896
30
0
41
1
10
10.7327678181827
20
-4.999232301056
30
0
41
1
10
11.0031496237038
20
-4.97701829293746
30
0
41
1
10
11.1277499771875
20
-4.96105908749041
30
0
41
1
10
11.2525340048132
20
-4.93941058168954
30
0
0
SPLINE
5
151
100
AcDbEntity
8
1
62
256
6
ByLayer
370
18
48
1
60
0
100
AcDbSpline
70
4
71
3
72
18
73
14
40
0
40
0
40
0
40
0
40
0.0880534436484694
40
0.0880534436484694
40
0.138717141223553
40
0.138717141223553
40
0.189380838798638
40
0.189380838798638
40
0.594690419399323
40
0.594690419399323
40
0.797345209699661
40
0.797345209699661
40
1
40
1
40
1
40
1
41
1
10
21.8765841955674
20
4.05220623359895
30
0
41
1
10
21.9404408429325
20
4.09361040035768
30
0
41
1
10
22.0044244683346
20
4.1338897144164
30
0
41
1
10
22.1054719324892
20
4.19553237618507
30
0
41
1
10
22.142378010374
20
4.21763275011873
30
0
41
1
10
22.216028883747
20
4.26090311829341
30
0
41
1
10
22.2528002626516
20
4.28208938774677
30
0
41
1
10
22.5833137858135
20
4.46873526631262
30
0
41
1
10
22.8740618112801
20
4.60612757674897
30
0
41
1
10
23.3104044983305
20
4.76828957958111
30
0
41
1
10
23.4558860239089
20
4.81501151389955
30
0
41
1
10
23.7477051883069
20
4.89331767355347
30
0
41
1
10
23.8940349220513
20
4.92490615245475
30
0
41
1
10
24.0412236764448
20
4.94854005312192
30
0
0
SPLINE
5
152
100
AcDbEntity
8
1
62
256
6
ByLayer
370
18
48
1
60
0
100
AcDbSpline
70
4
71
3
72
9
73
5
40
0
40
0
40
0
40
0
40
0.0660712482468241
40
1
40
1
40
1
40
1
41
1
10
24.0412236764453
20
4.94854005312197
30
0
41
1
10
24.0690249712163
20
4.9529853837075
30
0
41
1
10
24.4898073655066
20
5.01592315242917
30
0
41
1
10
24.9106749751545
20
5.01273752824014
30
0
41
1
10
25.3037292385077
20
4.95355597474219
30
0
0
SPLINE
5
153
100
AcDbEntity
8
1
62
256
6
ByLayer
370
18
48
1
60
0
100
AcDbSpline
70
4
71
3
72
139
73
135
40
0
40
0
40
0
40
0
40
0.0062468366867677
40
0.0125137224907507
40
0.0188006362026716
40
0.0251075565267703
40
0.0314344648670362
40
0.0377813645976371
40
0.0441482696482582
40
0.0505351940449938
40
0.0569421518584269
40
0.0633691572193128
40
0.0698162243352127
40
0.076283367508046
40
0.0827706011526297
40
0.0892779398162027
40
0.0958053981989654
40
0.102352991175649
40
0.108920733818145
40
0.115508641419222
40
0.12211672951735
40
0.128745013922629
40
0.135393510743907
40
0.142062236417044
40
0.148751207734397
40
0.155460441875508
40
0.162189956439081
40
0.168939769476179
40
0.17570989952478
40
0.182500365645609
40
0.189311187459366
40
0.196142385185286
40
0.202993979681138
40
0.209865992484646
40
0.21675844585634
40
0.223671362823941
40
0.230604767228189
40
0.237558683770267
40
0.24453313806075
40
0.251528156670157
40
0.258543767181117
40
0.265579998242168
40
0.272636879623265
40
0.279714442272919
40
0.28681271837712
40
0.293931734807957
40
0.301071488265206
40
0.308231965838886
40
0.315413153815446
40
0.322615037723633
40
0.329837602381831
40
0.337080831947845
40
0.344344709971182
40
0.351629219447924
40
0.358934342878187
40
0.366260062326285
40
0.373606359483589
40
0.380973215734198
40
0.388360612223415
40
0.39576852992916
40
0.403196949736311
40
0.410645852514069
40
0.418115219196387
40
0.425605030865565
40
0.433115268838998
40
0.440645914759215
40
0.448196950687228
40
0.455768359199265
40
0.463360123486946
40
0.470972227460984
40
0.478604655858454
40
0.486257394353703
40
0.493930429672971
40
0.501623749712783
40
0.509337343662183
40
0.517071202128874
40
0.524825317269317
40
0.532599682922894
40
0.540394294750133
40
0.548209150375156
40
0.556044250085094
40
0.563899596790092
40
0.571775192047596
40
0.579671035344287
40
0.587587124121809
40
0.595523453804949
40
0.603480017832373
40
0.611456807689877
40
0.619453812946318
40
0.627471021292159
40
0.635508418580754
40
0.643565988872424
40
0.651643714481313
40
0.659741576025172
40
0.667859552478051
40
0.675997621225986
40
0.684155758125772
40
0.692333937566786
40
0.700532132536047
40
0.708750314686468
40
0.716988454408427
40
0.725246520904682
40
0.733524482268744
40
0.741822305566712
40
0.750139956922691
40
0.758477401607844
40
0.76683460413313
40
0.775211528345842
40
0.783608137529967
40
0.792024394510501
40
0.800460261761717
40
0.808915701519558
40
0.817390692789434
40
0.825885284263395
40
0.83439954273208
40
0.842933535205765
40
0.851487328995214
40
0.860060991795819
40
0.868654591775005
40
0.877268197662971
40
0.885901878846775
40
0.89455570546787
40
0.903229748523092
40
0.911924079969149
40
0.920638772830674
40
0.929373901311885
40
0.938129540911878
40
0.946905768543616
40
0.955702662656658
40
0.964520303363668
40
0.97335877257073
40
0.982218154111558
40
0.991098533885584
40
1
40
1
40
1
40
1
41
1
10
25.3037292385077
20
4.95355597474222
30
0
41
1
10
25.3142123994254
20
4.95195420899734
30
0
41
1
10
25.3352123667894
20
4.94874553666739
30
0
41
1
10
25.3667641000484
20
4.94361993270743
30
0
41
1
10
25.3984177733591
20
4.93825333325998
30
0
41
1
10
25.4301734675541
20
4.93262161683606
30
0
41
1
10
25.4620312120955
20
4.92672846594388
30
0
41
1
10
25.4939909502487
20
4.92057031288951
30
0
41
1
10
25.5260526251469
20
4.9141456692544
30
0
41
1
10
25.5582162112425
20
4.90745248280479
30
0
41
1
10
25.590481678811
20
4.9004888530969
30
0
41
1
10
25.6228489986277
20
4.89325283981171
30
0
41
1
10
25.6553181406732
20
4.8857425144472
30
0
41
1
10
25.6878890744766
20
4.87795594649009
30
0
41
1
10
25.7205617690177
20
4.86989120722652
30
0
41
1
10
25.7533361927483
20
4.86154636880485
30
0
41
1
10
25.7862123135807
20
4.85291950457696
30
0
41
1
10
25.8191900988859
20
4.84400868909555
30
0
41
1
10
25.8522695154882
20
4.8348119982048
30
0
41
1
10
25.8854505296616
20
4.82532750910596
30
0
41
1
10
25.9187331071252
20
4.81555330043031
30
0
41
1
10
25.9521172130389
20
4.8054874523105
30
0
41
1
10
25.9856028119993
20
4.79512804645259
30
0
41
1
10
26.0191898680348
20
4.7844731662085
30
0
41
1
10
26.0528783446019
20
4.77352089664865
30
0
41
1
10
26.0866682045803
20
4.76226932463487
30
0
41
1
10
26.1205594102691
20
4.75071653889398
30
0
41
1
10
26.1545519233816
20
4.73886063009115
30
0
41
1
10
26.1886457050411
20
4.7266996909041
30
0
41
1
10
26.222840715777
20
4.71423181609723
30
0
41
1
10
26.2571369155196
20
4.7014551025965
30
0
41
1
10
26.291534263596
20
4.68836764956407
30
0
41
1
10
26.3260327187252
20
4.67496755847387
30
0
41
1
10
26.3606322390141
20
4.66125293318711
30
0
41
1
10
26.3953327819524
20
4.6472218800283
30
0
41
1
10
26.4301343044084
20
4.63287250786146
30
0
41
1
10
26.4650367626241
20
4.61820292816697
30
0
41
1
10
26.5000401122107
20
4.6032112551178
30
0
41
1
10
26.5351443081449
20
4.58789560565978
30
0
41
1
10
26.5703493047582
20
4.57225409957789
30
0
41
1
10
26.6056550557577
20
4.55628485961722
30
0
41
1
10
26.6410615141243
20
4.53998601140026
30
0
41
1
10
26.6765686324713
20
4.52335568410882
30
0
41
1
10
26.7121763616792
20
4.50639200830264
30
0
41
1
10
26.7478846449017
20
4.48909312984262
30
0
41
1
10
26.7836933455884
20
4.47145720473893
30
0
41
1
10
26.8196026403293
20
4.45348313379097
30
0
41
1
10
26.8556126617779
20
4.43516989548147
30
0
41
1
10
26.8917235252311
20
4.4165164852478
30
0
41
1
10
26.9279353493953
20
4.39752191856064
30
0
41
1
10
26.9642482547742
20
4.3781852283727
30
0
41
1
10
27.0006623641224
20
4.35850546603186
30
0
41
1
10
27.0371778023424
20
4.33848170126245
30
0
41
1
10
27.0737946965325
20
4.31811302239845
30
0
41
1
10
27.1105131759927
20
4.29739853654914
30
0
41
1
10
27.1473333722435
20
4.27633736978402
30
0
41
1
10
27.1842554190397
20
4.25492866731284
30
0
41
1
10
27.2212794523875
20
4.23317159366812
30
0
41
1
10
27.2584056105586
20
4.21106533288707
30
0
41
1
10
27.2956340341067
20
4.18860908869496
30
0
41
1
10
27.3329648658832
20
4.16580208468847
30
0
41
1
10
27.3703982510525
20
4.14264356451969
30
0
41
1
10
27.4079343371083
20
4.11913279208082
30
0
41
1
10
27.4455732738888
20
4.0952690516894
30
0
41
1
10
27.4833152135931
20
4.07105164827377
30
0
41
1
10
27.5211603107969
20
4.04647990755956
30
0
41
1
10
27.5591087224686
20
4.02155317625636
30
0
41
1
10
27.5971606079847
20
3.99627082224504
30
0
41
1
10
27.6353161291468
20
3.97063223476579
30
0
41
1
10
27.6735754501966
20
3.94463682460636
30
0
41
1
10
27.7119387378331
20
3.9182840242913
30
0
41
1
10
27.7504061612279
20
3.89157328827113
30
0
41
1
10
27.7889778920418
20
3.8645040931132
30
0
41
1
10
27.8276541044412
20
3.83707593769046
30
0
41
1
10
27.8664349751121
20
3.80928834337854
30
0
41
1
10
27.9053206832876
20
3.78114085422655
30
0
41
1
10
27.9443114107204
20
3.75263303722744
30
0
41
1
10
27.9834073418631
20
3.72376448221849
30
0
41
1
10
28.0226086632722
20
3.69453480317057
30
0
41
1
10
28.0619155668447
20
3.66494363357827
30
0
41
1
10
28.1013282418499
20
3.63499064154371
30
0
41
1
10
28.1408464563054
20
3.60467647659081
30
0
41
1
10
28.1804699901864
20
3.5740018085676
30
0
41
1
10
28.2201986192057
20
3.54296734856803
30
0
41
1
10
28.2600321157667
20
3.51157384621518
30
0
41
1
10
28.2999702483414
20
3.47982209101761
30
0
41
1
10
28.3400127816076
20
3.44771291237765
30
0
41
1
10
28.3801594763806
20
3.41524717996265
30
0
41
1
10
28.4204100896012
20
3.3824258039802
30
0
41
1
10
28.4607643743079
20
3.34924973547979
30
0
41
1
10
28.5012220796131
20
3.31571996664852
30
0
41
1
10
28.5417829506789
20
3.28183753110966
30
0
41
1
10
28.5824467286924
20
3.24760350422102
30
0
41
1
10
28.6232131508411
20
3.21301900337482
30
0
41
1
10
28.6640819502882
20
3.17808518829799
30
0
41
1
10
28.7050528561481
20
3.14280326135318
30
0
41
1
10
28.7461255934618
20
3.10717446784128
30
0
41
1
10
28.7872998831717
20
3.07120009630361
30
0
41
1
10
28.8285754420974
20
3.03488147882615
30
0
41
1
10
28.8699519829104
20
2.99821999134355
30
0
41
1
10
28.9114292141093
20
2.96121705394472
30
0
41
1
10
28.9530068399951
20
2.92387413117865
30
0
41
1
10
28.9946845606458
20
2.88619273236157
30
0
41
1
10
29.0364620718917
20
2.84817441188446
30
0
41
1
10
29.0783390652901
20
2.80982076952159
30
0
41
1
10
29.1203152281005
20
2.77113345074031
30
0
41
1
10
29.1623902432585
20
2.73211414700955
30
0
41
1
10
29.2045637893537
20
2.69276459611666
30
0
41
1
10
29.2468355405928
20
2.65308658245806
30
0
41
1
10
29.2892051668183
20
2.61308193743028
30
0
41
1
10
29.331672333317
20
2.57275253945028
30
0
41
1
10
29.3742367297616
20
2.53210028829724
30
0
41
1
10
29.4168981847744
20
2.4911269881832
30
0
41
1
10
29.4596568449382
20
2.44983469220759
30
0
41
1
10
29.5025130107906
20
2.40822536382311
30
0
41
1
10
29.5454670176235
20
2.36630098356366
30
0
41
1
10
29.588519206029
20
2.32406357943989
30
0
41
1
10
29.6316699217555
20
2.28151522694111
30
0
41
1
10
29.6749195157851
20
2.23865804942952
30
0
41
1
10
29.7182683443505
20
2.19549421842956
30
0
41
1
10
29.7617167689686
20
2.15202595394939
30
0
41
1
10
29.8052651564704
20
2.10825552478241
30
0
41
1
10
29.8489138790307
20
2.06418524886365
30
0
41
1
10
29.8926633141985
20
2.01981749342971
30
0
41
1
10
29.9365138449308
20
1.97515467591816
30
0
41
1
10
29.9804658596057
20
1.93019926210081
30
0
41
1
10
30.0245197521209
20
1.88495377458199
30
0
41
1
10
30.0686759216681
20
1.83942076248076
30
0
41
1
10
30.1129347737234
20
1.79360291649266
30
0
41
1
10
30.1572967164816
20
1.74750263947348
30
0
41
1
10
30.2017621743576
20
1.70112365624189
30
0
41
1
10
30.2463315375635
20
1.65446498592655
30
0
41
1
10
30.291005351106
20
1.60754351894681
30
0
41
1
10
30.3208220629171
20
1.57609154994205
30
0
41
1
10
30.3357480976772
20
1.56034691701228
30
0
0
SPLINE
5
154
100
AcDbEntity
8
1
62
256
6
ByLayer
370
18
48
1
60
0
100
AcDbSpline
70
4
71
3
72
12
73
8
40
0
40
0
40
0
40
0
40
0.499999999999966
40
0.499999999999966
40
0.749999999999983
40
0.749999999999983
40
1
40
1
40
1
40
1
41
1
10
30.9496237717584
20
-4.86484918883627
30
0
41
1
10
31.0132721114049
20
-4.87405861681455
30
0
41
1
10
31.0789829966573
20
-4.88089540836182
30
0
41
1
10
31.180374272094
20
-4.88819919509336
30
0
41
1
10
31.2146397663317
20
-4.89014242219392
30
0
41
1
10
31.2840660100707
20
-4.89313331510519
30
0
41
1
10
31.3192625455754
20
-4.89417855358045
30
0
41
1
10
31.3548073521542
20
-4.89481593256028
30
0
0
SPLINE
5
155
100
AcDbEntity
8
1
62
256
6
ByLayer
370
18
48
1
60
0
100
AcDbSpline
70
4
71
3
72
8
73
4
40
0
40
0
40
0
40
0
40
1
40
1
40
1
40
1
41
1
10
31.3548073521543
20
-4.89481593256031
30
0
41
1
10
31.3612606697582
20
-4.89104279730739
30
0
41
1
10
31.3677972298823
20
-4.88726053935636
30
0
41
1
10
31.3744124647704
20
-4.88346965929583
30
0
0
SPLINE
5
156
100
AcDbEntity
8
1
62
256
6
ByLayer
370
18
48
1
60
0
100
AcDbSpline
70
4
71
3
72
28
73
24
40
0
40
0
40
0
40
0
40
0.0156249999999991
40
0.0156249999999991
40
0.0312499999999981
40
0.0312499999999981
40
0.0624999999999969
40
0.0624999999999969
40
0.124999999999994
40
0.124999999999994
40
0.187499999999992
40
0.187499999999992
40
0.249999999999989
40
0.249999999999989
40
0.374999999999991
40
0.374999999999991
40
0.499999999999993
40
0.499999999999993
40
0.624999999999994
40
0.624999999999994
40
0.749999999999996
40
0.749999999999996
40
1
40
1
40
1
40
1
41
1
10
31.3744124647704
20
-4.88346965929594
30
0
41
1
10
31.3787100099163
20
-4.881006938247
30
0
41
1
10
31.3825465826542
20
-4.87853941879487
30
0
41
1
10
31.3896763844024
20
-4.87358982340527
30
0
41
1
10
31.3929630884337
20
-4.87110781559352
30
0
41
1
10
31.4022628021571
20
-4.86363611612657
30
0
41
1
10
31.4077273168958
20
-4.8586205642836
30
0
41
1
10
31.4229138684538
20
-4.84345374329584
30
0
41
1
10
31.4314576185651
20
-4.8331683302282
30
0
41
1
10
31.4471068699773
20
-4.81229888495531
30
0
41
1
10
31.4541392550576
20
-4.80174918813785
30
0
41
1
10
31.4673120923136
20
-4.78035838012408
30
0
41
1
10
31.4734393212021
20
-4.76951840524626
30
0
41
1
10
31.4909137614179
20
-4.73652179497773
30
0
41
1
10
31.5013790497046
20
-4.7138738372212
30
0
41
1
10
31.5209467743486
20
-4.66726815090067
30
0
41
1
10
31.5300232278575
20
-4.64331996582035
30
0
41
1
10
31.5471746372401
20
-4.59408496811682
30
0
41
1
10
31.5552427070502
20
-4.56879892524901
30
0
41
1
10
31.5705423995637
20
-4.51686247702483
30
0
41
1
10
31.5777735580707
20
-4.49020284925368
30
0
41
1
10
31.5982803368282
20
-4.40829634298319
30
0
41
1
10
31.6103961408474
20
-4.35108535764925
30
0
41
1
10
31.6209745706388
20
-4.2912284703751
30
0
0
SPLINE
5
157
100
AcDbEntity
8
1
62
256
6
ByLayer
370
13
48
1
60
0
100
AcDbSpline
70
4
71
3
72
14
73
10
40
0
40
0
40
0
40
0
40
0.182071344146228
40
0.307945967381231
40
0.433820590616234
40
0.559695213851237
40
0.68556983708624
40
0.811444460321243
40
1
40
1
40
1
40
1
41
1
10
21.6138686994016
20
-4.02899011898566
30
0
41
1
10
20.9509124662677
20
-4.32764949163322
30
0
41
1
10
19.8296228998006
20
-4.60758178096791
30
0
41
1
10
18.2500000000001
20
-4.40287690198412
30
0
41
1
10
16.875
20
-3.8180487638877
30
0
41
1
10
15.5000000000001
20
-2.87940161425482
30
0
41
1
10
14.125
20
-1.67449312067069
30
0
41
1
10
12.5217669167008
20
-0.0885337456787738
30
0
41
1
10
11.3768671667349
20
1.07321987613497
30
0
41
1
10
10.6903007501023
20
1.71088066944947
30
0
0
SPLINE
5
158
100
AcDbEntity
8
1
62
256
6
ByLayer
370
13
48
1
60
0
100
AcDbSpline
70
4
71
3
72
14
73
10
40
0
40
0
40
0
40
0
40
0.0566982101139831
40
0.244719549608042
40
0.432740889102101
40
0.62076222859616
40
0.808783568090219
40
0.934131127752925
40
1
40
1
40
1
40
1
41
1
10
28.4969509906416
20
-4.00742418278173
30
0
41
1
10
28.2896339937611
20
-4.10284501471102
30
0
41
1
10
27.3948169968805
20
-4.45976879492639
30
0
41
1
10
25.8125
20
-4.64073220168095
30
0
41
1
10
23.75
20
-3.91437059425888
30
0
41
1
10
21.6875000000001
20
-2.38300307447852
30
0
41
1
10
19.8541666666667
20
-0.586214350908591
30
0
41
1
10
18.4674838117221
20
0.816304265045972
30
0
41
1
10
17.7683009567774
20
1.48587812217315
30
0
41
1
10
17.5274514351661
20
1.70920894769333
30
0
0
SPLINE
5
159
100
AcDbEntity
8
1
62
256
6
ByLayer
370
18
48
1
60
0
100
AcDbSpline
70
4
71
3
72
12
73
8
40
0
40
0
40
0
40
0
40
0.499999999999965
40
0.499999999999965
40
0.749999999999982
40
0.749999999999982
40
1
40
1
40
1
40
1
41
1
10
30.9496237717584
20
4.86484918883602
30
0
41
1
10
31.013272111405
20
4.87405861681427
30
0
41
1
10
31.0789829966574
20
4.88089540836157
30
0
41
1
10
31.180374272094
20
4.88819919509311
30
0
41
1
10
31.2146397663318
20
4.89014242219366
30
0
41
1
10
31.2840660100707
20
4.89313331510496
30
0
41
1
10
31.3192625455755
20
4.89417855358022
30
0
41
1
10
31.3548073521542
20
4.89481593256005
30
0
0
SPLINE
5
15A
100
AcDbEntity
8
1
62
256
6
ByLayer
370
18
48
1
60
0
100
AcDbSpline
70
4
71
3
72
80
73
76
40
0
40
0
40
0
40
0
40
0.0319182244906224
40
0.0319182244906224
40
0.0461547211892904
40
0.0532729695386243
40
0.0532729695386243
40
0.0603912178879583
40
0.0603912178879583
40
0.0888642112852942
40
0.0888642112852942
40
0.145810198079966
40
0.145810198079966
40
0.202756184874638
40
0.202756184874638
40
0.231229178271974
40
0.231229178271974
40
0.245465674970642
40
0.245465674970642
40
0.25970217166931
40
0.25970217166931
40
0.31664815846398
40
0.31664815846398
40
0.345121151861315
40
0.345121151861315
40
0.37359414525865
40
0.37359414525865
40
0.402067138655985
40
0.402067138655985
40
0.409185387005319
40
0.409185387005319
40
0.416303635354653
40
0.416303635354653
40
0.430540132053319
40
0.430540132053319
40
0.459013125450652
40
0.459013125450652
40
0.487486118847985
40
0.487486118847985
40
0.54443210564265
40
0.54443210564265
40
0.572905099039982
40
0.572905099039982
40
0.587141595738648
40
0.587141595738648
40
0.601378092437314
40
0.601378092437314
40
0.658324079231979
40
0.658324079231979
40
0.686797072629312
40
0.686797072629312
40
0.715270066026645
40
0.715270066026645
40
0.743743059423977
40
0.743743059423977
40
0.757979556122644
40
0.765097804471978
40
0.765097804471978
40
0.772216052821312
40
0.772216052821312
40
0.800689046218648
40
0.800689046218648
40
0.829162039615984
40
0.829162039615984
40
0.886108026410657
40
0.886108026410657
40
0.914581019807993
40
0.914581019807993
40
0.92881751650666
40
0.92881751650666
40
0.943054013205328
40
0.943054013205328
40
0.971527006602664
40
0.971527006602664
40
1
40
1
40
1
40
1
41
1
10
21.8759293150596
20
-4.05143719921443
30
0
41
1
10
21.749740060001
20
-4.12074643972306
30
0
41
1
10
21.6233653663481
20
-4.18522417841689
30
0
41
1
10
21.4400402006
20
-4.27074703416898
30
0
41
1
10
21.3550967780171
20
-4.30871596776547
30
0
41
1
10
21.2699005772905
20
-4.34429278534688
30
0
41
1
10
21.2130396233215
20
-4.36748007175072
30
0
41
1
10
21.1845802991739
20
-4.37880664479937
30
0
41
1
10
21.0425731101893
20
-4.43394095239225
30
0
41
1
10
20.9295135830725
20
-4.47341159390942
30
0
41
1
10
20.5911782963183
20
-4.57880470957698
30
0
41
1
10
20.3666999596963
20
-4.63176680995014
30
0
41
1
10
19.9168182894386
20
-4.70676420025217
30
0
41
1
10
19.6915396551062
20
-4.72867151393959
30
0
41
1
10
19.3518532324182
20
-4.7347429702092
30
0
41
1
10
19.2383279809469
20
-4.73227975672469
30
0
41
1
10
19.0673476435201
20
-4.72123926861863
30
0
41
1
10
19.010437202543
20
-4.71634424134749
30
0
41
1
10
18.8970107088867
20
-4.70410238232731
30
0
41
1
10
18.8404552537762
20
-4.69674299634954
30
0
41
1
10
18.5583096113961
20
-4.65385675642693
30
0
41
1
10
18.3344972085776
20
-4.60027688717503
30
0
41
1
10
17.9985069308218
20
-4.49547568902767
30
0
41
1
10
17.886485462787
20
-4.45645334738876
30
0
41
1
10
17.6620431299067
20
-4.37078739986541
30
0
41
1
10
17.54961859293
20
-4.32417797220654
30
0
41
1
10
17.3241031472069
20
-4.2235960365212
30
0
41
1
10
17.2110235744707
20
-4.1695658112896
30
0
41
1
10
17.0691251394607
20
-4.09704751951782
30
0
41
1
10
17.0407178003473
20
-4.08229451343945
30
0
41
1
10
16.9838432922702
20
-4.05228086995319
30
0
41
1
10
16.9553541080833
20
-4.03700814250544
30
0
41
1
10
16.8699756302571
20
-3.99051634681814
30
0
41
1
10
16.8131941812095
20
-3.95863613082366
30
0
41
1
10
16.6432281139722
20
-3.86031160430989
30
0
41
1
10
16.5304251869084
20
-3.79118263400241
30
0
41
1
10
16.3055951067336
20
-3.64561664457068
30
0
41
1
10
16.193582107936
20
-3.56912026332958
30
0
41
1
10
15.8580850857843
20
-3.3289950785385
30
0
41
1
10
15.6350232265
20
-3.15503986318939
30
0
41
1
10
15.2985892368242
20
-2.87731589146443
30
0
41
1
10
15.186152610507
20
-2.78192525907173
30
0
41
1
10
15.0168142481051
20
-2.63497385325382
30
0
41
1
10
14.9602544827993
20
-2.58534604978169
30
0
41
1
10
14.846871440233
20
-2.48484512879372
30
0
41
1
10
14.790013998845
20
-2.43393442164441
30
0
41
1
10
14.5065746239307
20
-2.17762425802721
30
0
41
1
10
14.2813732931285
20
-1.96590970232546
30
0
41
1
10
13.9446505277187
20
-1.63880810827558
30
0
41
1
10
13.8325900549829
20
-1.52818107005399
30
0
41
1
10
13.608572791583
20
-1.30381735034655
30
0
41
1
10
13.496624578691
20
-1.19004874376128
30
0
41
1
10
13.2723869375353
20
-0.959841508127056
30
0
41
1
10
13.1600919496015
20
-0.84341771429618
30
0
41
1
10
12.9910534508308
20
-0.667197853470441
30
0
41
1
10
12.9063858547547
20
-0.578691003584453
30
0
41
1
10
12.821439186819
20
-0.489655136471384
30
0
41
1
10
12.7647401423942
20
-0.430187156576466
30
0
41
1
10
12.736350754619
20
-0.400391717101996
30
0
41
1
10
12.594632550919
20
-0.251587068139457
30
0
41
1
10
12.4816612572125
20
-0.13275456302199
30
0
41
1
10
12.256166964757
20
0.104209953107898
30
0
41
1
10
12.1436393707461
20
0.222342071601332
30
0
41
1
10
11.8064361148075
20
0.575377020835901
30
0
41
1
10
11.5821785362922
20
0.808956777690696
30
0
41
1
10
11.2450807477687
20
1.15486993119055
30
0
41
1
10
11.1325889531024
20
1.26942315991713
30
0
41
1
10
10.9633996669349
20
1.43982157286052
30
0
41
1
10
10.9069276336819
20
1.49638142121631
30
0
41
1
10
10.7937745100759
20
1.60897018556716
30
0
41
1
10
10.7370668015866
20
1.66502518323497
30
0
41
1
10
10.5667179224533
20
1.83215289474688
30
0
41
1
10
10.4533757746465
20
1.9416714726743
30
0
41
1
10
10.2267344876472
20
2.15669054020552
30
0
41
1
10
10.1134360559975
20
2.26219196729215
30
0
41
1
10
10.0000000000001
20
2.36557372256948
30
0
0
SPLINE
5
15B
100
AcDbEntity
8
1
62
256
6
ByLayer
370
18
48
1
60
0
100
AcDbSpline
70
4
71
3
72
10
73
6
40
0
40
0
40
0
40
0
40
0.5
40
0.5
40
1
40
1
40
1
40
1
41
1
10
9.21363057100547
20
3.05602849096448
30
0
41
1
10
9.34349328543922
20
2.94829605110849
30
0
41
1
10
9.47337255965815
20
2.83656693643914
30
0
41
1
10
9.73487982012648
20
2.60603929904653
30
0
41
1
10
9.86651009179349
20
2.48723175192484
30
0
41
1
10
10
20
2.36557372256948
30
0
0
SPLINE
5
15C
100
AcDbEntity
8
1
62
256
6
ByLayer
370
13
48
1
60
0
100
AcDbSpline
70
4
71
3
72
8
73
4
40
0
40
0
40
0
40
0
40
1
40
1
40
1
40
1
41
1
10
9.10697104896829
20
3.00946550773375
30
0
41
1
10
9.14236800605593
20
3.02529581210109
30
0
41
1
10
9.17792552048834
20
3.04080673510447
30
0
41
1
10
9.21363057433126
20
3.05602849265154
30
0
0
SPLINE
5
15D
100
AcDbEntity
8
1
62
256
6
ByLayer
370
18
48
1
60
0
100
AcDbSpline
70
4
71
3
72
30
73
26
40
0
40
0
40
0
40
0
40
0.0624999999999999
40
0.0624999999999999
40
0.125
40
0.125
40
0.1875
40
0.1875
40
0.25
40
0.25
40
0.3125
40
0.3125
40
0.375
40
0.375
40
0.499999999999999
40
0.499999999999999
40
0.624999999999999
40
0.624999999999999
40
0.749999999999999
40
0.749999999999999
40
0.874999999999999
40
0.874999999999999
40
0.937499999999999
40
0.937499999999999
40
1
40
1
40
1
40
1
41
1
10
9.10697104896829
20
3.00946550773375
30
0
41
1
10
9.14153174067982
20
2.97629638725999
30
0
41
1
10
9.17316356223537
20
2.9418947663813
30
0
41
1
10
9.2326575863863
20
2.87108006483541
30
0
41
1
10
9.26049012272642
20
2.83465992308535
30
0
41
1
10
9.31342413836785
20
2.76001993742932
30
0
41
1
10
9.33851525625383
20
2.72179771432863
30
0
41
1
10
9.38660689891776
20
2.64367704694837
30
0
41
1
10
9.40960297889416
20
2.60377762098042
30
0
41
1
10
9.45393056783666
20
2.52237877572614
30
0
41
1
10
9.47526207003884
20
2.48086439981395
30
0
41
1
10
9.51626611464897
20
2.39692649443322
30
0
41
1
10
9.53598251334057
20
2.3544227216064
30
0
41
1
10
9.59318522900278
20
2.2253585118566
30
0
41
1
10
9.6287454084777
20
2.13724814600343
30
0
41
1
10
9.69614203349775
20
1.957070864364
30
0
41
1
10
9.72796539134569
20
1.86500249015191
30
0
41
1
10
9.78875087123069
20
1.67700346365888
30
0
41
1
10
9.81770764170454
20
1.58107249130288
30
0
41
1
10
9.87334447321999
20
1.38538038607587
30
0
41
1
10
9.90002168736046
20
1.28561912703711
30
0
41
1
10
9.93864284596739
20
1.133086255134
30
0
41
1
10
9.95126233829996
20
1.08183985258901
30
0
41
1
10
9.97599106133168
20
0.978754762270853
30
0
41
1
10
9.98810827992494
20
0.926884467757105
30
0
41
1
10
10.0000000000006
20
0.874688746609223
30
0
0
SPLINE
5
15E
100
AcDbEntity
8
1
62
256
6
ByLayer
370
18
48
1
60
0
100
AcDbSpline
70
4
71
3
72
8
73
4
40
0
40
0
40
0
40
0
40
1
40
1
40
1
40
1
41
1
10
10
20
0.874688746590806
30
0
41
1
10
10
20
0.872164226906591
30
0
41
1
10
9.99999999999997
20
0.869638753458645
30
0
41
1
10
9.99999999999997
20
0.867112325691693
30
0
0
SPLINE
5
15F
100
AcDbEntity
8
1
62
256
6
ByLayer
370
18
48
1
60
0
100
AcDbSpline
70
4
71
3
72
98
73
94
40
0
40
0
40
0
40
0
40
0.0023629673042503
40
0.0023629673042503
40
0.0441855964808575
40
0.0441855964808575
40
0.0860082256574645
40
0.0860082256574645
40
0.0964638829516169
40
0.0964638829516169
40
0.106919540245769
40
0.106919540245769
40
0.127830854834073
40
0.127830854834073
40
0.148742169422376
40
0.148742169422376
40
0.16965348401068
40
0.16965348401068
40
0.211476113187288
40
0.211476113187288
40
0.22193177048144
40
0.22193177048144
40
0.232387427775592
40
0.232387427775592
40
0.253298742363895
40
0.253298742363895
40
0.295121371540503
40
0.295121371540503
40
0.33694400071711
40
0.33694400071711
40
0.347399658011262
40
0.347399658011262
40
0.357855315305414
40
0.357855315305414
40
0.378766629893719
40
0.378766629893719
40
0.420589259070329
40
0.420589259070329
40
0.462411888246938
40
0.462411888246938
40
0.472867545541091
40
0.478095374188167
40
0.478095374188167
40
0.483323202835243
40
0.483323202835243
40
0.504234517423548
40
0.504234517423548
40
0.546057146600159
40
0.546057146600159
40
0.58787977577677
40
0.58787977577677
40
0.608791090365076
40
0.608791090365076
40
0.619246747659229
40
0.619246747659229
40
0.629702404953382
40
0.629702404953382
40
0.671525034129993
40
0.671525034129993
40
0.692436348718299
40
0.692436348718299
40
0.713347663306605
40
0.713347663306605
40
0.73425897789491
40
0.73425897789491
40
0.739486806541987
40
0.739486806541987
40
0.744714635189063
40
0.744714635189063
40
0.755170292483216
40
0.755170292483216
40
0.776081607071523
40
0.776081607071523
40
0.796992921659829
40
0.796992921659829
40
0.838815550836441
40
0.838815550836441
40
0.859726865424748
40
0.859726865424748
40
0.870182522718902
40
0.870182522718902
40
0.880638180013055
40
0.880638180013055
40
0.922460809189671
40
0.922460809189671
40
0.943372123777978
40
0.943372123777978
40
0.964283438366286
40
0.964283438366286
40
0.985194752954594
40
0.985194752954594
40
0.995650410248747
40
1
40
1
40
1
40
1
41
1
10
28.9611395166336
20
-3.90962094064599
30
0
41
1
10
28.9484790174282
20
-3.91716165377505
30
0
41
1
10
28.9358205986791
20
-3.92465555106267
30
0
41
1
10
28.6991539332471
20
-4.063907211116
30
0
41
1
10
28.4757608964786
20
-4.18102332925395
30
0
41
1
10
28.0277678789229
20
-4.38350960186671
30
0
41
1
10
27.8031456754286
20
-4.46873927003179
30
0
41
1
10
27.5197305303084
20
-4.55436903400908
30
0
41
1
10
27.4628561871403
20
-4.5704610754803
30
0
41
1
10
27.3495130991362
20
-4.60033291639488
30
0
41
1
10
27.2929669959646
20
-4.61413845006101
30
0
41
1
10
27.1236409476934
20
-4.6521760967421
30
0
41
1
10
27.0111729121622
20
-4.67303561669249
30
0
41
1
10
26.7867462286878
20
-4.70566554387835
30
0
41
1
10
26.674796593989
20
-4.71739444007804
30
0
41
1
10
26.4510330343514
20
-4.73173306171438
30
0
41
1
10
26.3392112530047
20
-4.7343719530252
30
0
41
1
10
26.0033069415052
20
-4.72909804018562
30
0
41
1
10
25.778741901732
20
-4.70801812272083
30
0
41
1
10
25.4956109235955
20
-4.66087402959039
30
0
41
1
10
25.4388411428399
20
-4.6504008906501
30
0
41
1
10
25.3251403146515
20
-4.62740158385338
30
0
41
1
10
25.2683979028636
20
-4.61490907088861
30
0
41
1
10
25.0984628522044
20
-4.57444065912662
30
0
41
1
10
24.9855637593905
20
-4.54347752653089
30
0
41
1
10
24.6477469843425
20
-4.43838668475721
30
0
41
1
10
24.4237434022635
20
-4.35209882802241
30
0
41
1
10
23.9759461118131
20
-4.14452555782276
30
0
41
1
10
23.752115556392
20
-4.02285674827405
30
0
41
1
10
23.4700828883385
20
-3.85113847363976
30
0
41
1
10
23.4135680623948
20
-3.8158123817272
30
0
41
1
10
23.3002752752134
20
-3.74325559243195
30
0
41
1
10
23.2434445156328
20
-3.70598746606927
30
0
41
1
10
23.0734531125985
20
-3.59206858215768
30
0
41
1
10
22.9605039754167
20
-3.51313065523218
30
0
41
1
10
22.62219945412
20
-3.2683015113949
30
0
41
1
10
22.3973929436583
20
-3.09452875436747
30
0
41
1
10
21.9476782857701
20
-2.7251282125321
30
0
41
1
10
21.7227750841903
20
-2.5294927208441
30
0
41
1
10
21.4400405389523
20
-2.27033588078461
30
0
41
1
10
21.3550971635549
20
-2.19148923893982
30
0
41
1
10
21.2699010177432
20
-2.11108089839419
30
0
41
1
10
21.213040102118
20
-2.05713773306414
30
0
41
1
10
21.1845807577626
20
-2.02999980835074
30
0
41
1
10
21.0425734823015
20
-1.89393935066289
30
0
41
1
10
20.929513898421
20
-1.78355342965082
30
0
41
1
10
20.591178474797
20
-1.44874909827678
30
0
41
1
10
20.3667000912986
20
-1.22074136023335
30
0
41
1
10
19.9168184032722
20
-0.758907141925448
30
0
41
1
10
19.6915397984864
20
-0.524931762268466
30
0
41
1
10
19.3518534829678
20
-0.169867701165344
30
0
41
1
10
19.2383282776569
20
-0.0508263625679035
30
0
41
1
10
19.067348026699
20
0.128658571584339
30
0
41
1
10
19.0104374955931
20
0.188430569176887
30
0
41
1
10
18.8970109318443
20
0.307537776275581
30
0
41
1
10
18.8404554445292
20
0.366917170497032
30
0
41
1
10
18.5583096549482
20
0.662812410581381
30
0
41
1
10
18.3344971770598
20
0.896262961691519
30
0
41
1
10
17.9985068427052
20
1.23959502645661
30
0
41
1
10
17.886485365416
20
1.35291463506866
30
0
41
1
10
17.6620430331888
20
1.57710222174919
30
0
41
1
10
17.5496185060503
20
1.68797569461538
30
0
41
1
10
17.3241030992233
20
1.90707168499566
30
0
41
1
10
17.2110235556556
20
2.0152900925055
30
0
41
1
10
17.0691251699314
20
2.14867107162544
30
0
41
1
10
17.0407178413164
20
2.17525237426693
30
0
41
1
10
16.9838433555357
20
2.22821823423513
30
0
41
1
10
16.9553541862391
20
2.25462303718072
30
0
41
1
10
16.8699756518199
20
2.33335983769757
30
0
41
1
10
16.813194167905
20
2.38519760691827
30
0
41
1
10
16.6432280043804
20
2.53867859282786
30
0
41
1
10
16.530425024179
20
2.6382933761077
30
0
41
1
10
16.3055948593179
20
2.8316439879813
30
0
41
1
10
16.1935818291645
20
2.92534271990254
30
0
41
1
10
15.8580847443072
20
3.19708603612847
30
0
41
1
10
15.6350228837753
20
3.36590883171877
30
0
41
1
10
15.2985889531815
20
3.60071774627741
30
0
41
1
10
15.186152356837
20
3.67592017873915
30
0
41
1
10
15.0168140549085
20
3.78412992571449
30
0
41
1
10
14.9602543123425
20
3.81943477192158
30
0
41
1
10
14.8468713204634
20
3.88850565812342
30
0
41
1
10
14.7900138609988
20
3.92228603842528
30
0
41
1
10
14.5065743365243
20
4.08626252297404
30
0
41
1
10
14.2813729321607
20
4.20249445089286
30
0
41
1
10
13.9446501226541
20
4.35201678353874
30
0
41
1
10
13.8325896463984
20
4.39770732978667
30
0
41
1
10
13.6085723995797
20
4.48023233537003
30
0
41
1
10
13.4966242069456
20
4.51699871196962
30
0
41
1
10
13.2723866299166
20
4.58161961493104
30
0
41
1
10
13.1600916858187
20
4.6095009949463
30
0
41
1
10
12.9910532705521
20
4.64483920012535
30
0
41
1
10
12.9111269074087
20
4.65998812320487
30
0
41
1
10
12.8309518580752
20
4.67299072740641
30
0
41
1
10
12.8073742993088
20
4.67662609047858
30
0
0
SPLINE
5
160
100
AcDbEntity
8
1
62
256
6
ByLayer
370
18
48
1
60
0
100
AcDbSpline
70
4
71
3
72
8
73
4
40
0
40
0
40
0
40
0
40
1
40
1
40
1
40
1
41
1
10
31.6213377036666
20
-4.29066047147703
30
0
41
1
10
31.6212167185308
20
-4.2908498723271
30
0
41
1
10
31.6210956741931
20
-4.29103920530048
30
0
41
1
10
31.6209745706388
20
-4.2912284703751
30
0
0
SPLINE
5
161
100
AcDbEntity
8
1
62
256
6
ByLayer
370
18
48
1
60
0
100
AcDbSpline
70
4
71
3
72
8
73
4
40
0
40
0
40
0
40
0
40
1
40
1
40
1
40
1
41
1
10
31.6213377036673
20
-4.290660471477
30
0
41
1
10
31.6188763502377
20
-4.21246759608988
30
0
41
1
10
31.6164680766235
20
-4.13427928077971
30
0
41
1
10
31.6141096152788
20
-4.05609524475636
30
0
0
SPLINE
5
162
100
AcDbEntity
8
1
62
256
6
ByLayer
370
13
48
1
60
0
100
AcDbSpline
70
4
71
3
72
11
73
7
40
0
40
0
40
0
40
0
40
0.348702188626098
40
0.551512372875746
40
0.855727649250219
40
1
40
1
40
1
40
1
41
1
10
31.6141096285909
20
-4.0560952447336
30
0
41
1
10
30.8260730857273
20
-3.71057975246453
30
0
41
1
10
29.5797032095303
20
-2.86006122394949
30
0
41
1
10
27.6458333333334
20
-1.08550424142385
30
0
41
1
10
26.173957066448
20
0.42576077937369
30
0
41
1
10
25.160414132896
20
1.40694213570029
30
0
41
1
10
24.834371199344
20
1.70927679363541
30
0
0
SPLINE
5
163
100
AcDbEntity
8
1
62
256
6
ByLayer
370
18
48
1
60
0
100
AcDbSpline
70
4
71
3
72
71
73
67
40
0
40
0
40
0
40
0
40
0.0293651258226412
40
0.0293651258226412
40
0.0587302516452824
40
0.0587302516452824
40
0.0880953774679236
40
0.0880953774679236
40
0.117460503290565
40
0.146825629113206
40
0.146825629113206
40
0.161508192024526
40
0.161508192024526
40
0.168849473480186
40
0.168849473480186
40
0.176190754935846
40
0.205555880758485
40
0.205555880758485
40
0.234921006581124
40
0.234921006581124
40
0.293651258226405
40
0.293651258226405
40
0.352381509871685
40
0.352381509871685
40
0.367064072783007
40
0.367064072783007
40
0.381746635694327
40
0.381746635694327
40
0.411111761516968
40
0.411111761516968
40
0.440476887339608
40
0.440476887339608
40
0.469842013162248
40
0.469842013162248
40
0.528572264807529
40
0.528572264807529
40
0.543254827718848
40
0.543254827718848
40
0.557937390630168
40
0.557937390630168
40
0.587302516452807
40
0.587302516452807
40
0.646032768098086
40
0.646032768098086
40
0.704763019743364
40
0.704763019743364
40
0.719445582654684
40
0.719445582654684
40
0.734128145566004
40
0.734128145566004
40
0.763493271388641
40
0.763493271388641
40
0.822223523033916
40
0.822223523033916
40
0.880953774679191
40
0.880953774679191
40
0.89563633759051
40
0.90297761904617
40
0.90297761904617
40
0.910318900501829
40
0.910318900501829
40
0.939684026324469
40
0.939684026324469
40
0.998414277969749
40
0.998414277969749
40
1
40
1
40
1
40
1
41
1
10
31.6209745706388
20
-4.2912284703751
30
0
41
1
10
31.5083651711107
20
-4.24178664203981
30
0
41
1
10
31.3959481230407
20
-4.18894834742719
30
0
41
1
10
31.1714498449041
20
-4.07617256103973
30
0
41
1
10
31.0593693906624
20
-4.01623362429359
30
0
41
1
10
30.835406257219
20
-3.88885822061979
30
0
41
1
10
30.723527103842
20
-3.82140347628942
30
0
41
1
10
30.4997047906431
20
-3.67862221073656
30
0
41
1
10
30.2757850651104
20
-3.52809834561992
30
0
41
1
10
30.0507968646579
20
-3.36298607151605
30
0
41
1
10
29.8813476845992
20
-3.23396100701234
30
0
41
1
10
29.82474681889
20
-3.19008689985193
30
0
41
1
10
29.7396319663713
20
-3.12300611741432
30
0
41
1
10
29.7112420399397
20
-3.10044752118401
30
0
41
1
10
29.6545655718379
20
-3.05505802529132
30
0
41
1
10
29.5130299314379
20
-2.9408181729043
30
0
41
1
10
29.3721730673786
20
-2.82288762650495
30
0
41
1
10
29.1473234037472
20
-2.62987122950489
30
0
41
1
10
29.0351691209218
20
-2.53117903916035
30
0
41
1
10
28.6991539100495
20
-2.22879024171874
30
0
41
1
10
28.4757608511558
20
-2.01877156138085
30
0
41
1
10
28.0277677187933
20
-1.58334168864664
30
0
41
1
10
27.8031454226208
20
-1.35788110742874
30
0
41
1
10
27.5197301187503
20
-1.06796221933118
30
0
41
1
10
27.4628557844263
20
-1.0095084725578
30
0
41
1
10
27.3495127673487
20
-0.892553797219165
30
0
41
1
10
27.2929666968765
20
-0.833974228417304
30
0
41
1
10
27.1236407387337
20
-0.657989986777494
30
0
41
1
10
27.0111727527023
20
-0.540340014726922
30
0
41
1
10
26.7867461477454
20
-0.304696188204474
30
0
41
1
10
26.67479654196
20
-0.186694359200914
30
0
41
1
10
26.4510330197525
20
0.0492948321985125
30
0
41
1
10
26.3392112470046
20
0.16727513244274
30
0
41
1
10
26.0033069309432
20
0.520586708323179
30
0
41
1
10
25.7787418477221
20
0.755247330378722
30
0
41
1
10
25.4956107596508
20
1.04592161825002
30
0
41
1
10
25.4388409035553
20
1.10395298509565
30
0
41
1
10
25.3251401426263
20
1.21961687896345
30
0
41
1
10
25.2683977614268
20
1.2770588165566
30
0
41
1
10
25.0984627934514
20
1.44817480763891
30
0
41
1
10
24.9855637436563
20
1.56064232174475
30
0
41
1
10
24.6477470615306
20
1.89278089026666
30
0
41
1
10
24.4237434934826
20
2.10724435482138
30
0
41
1
10
23.9759461322076
20
2.51863084344834
30
0
41
1
10
23.7521154910283
20
2.71532043607303
30
0
41
1
10
23.4700826577417
20
2.94885215611765
30
0
41
1
10
23.4135677958283
20
2.9949457137661
30
0
41
1
10
23.3002749308858
20
3.08588875917235
30
0
41
1
10
23.2434441720826
20
3.13077734262112
30
0
41
1
10
23.0734528473389
20
3.26281352472753
30
0
41
1
10
22.9605037513657
20
3.34756893735508
30
0
41
1
10
22.622199324499
20
3.59236105640616
30
0
41
1
10
22.3973928390119
20
3.74310474454057
30
0
41
1
10
21.9476781469159
20
4.01634976832517
30
0
41
1
10
21.722774886208
20
4.13884873403805
30
0
41
1
10
21.4400402006
20
4.27074703416878
30
0
41
1
10
21.3550967780171
20
4.30871596776527
30
0
41
1
10
21.2699005772905
20
4.34429278534671
30
0
41
1
10
21.2130396233215
20
4.36748007175052
30
0
41
1
10
21.1845802991739
20
4.3788066447992
30
0
41
1
10
21.0425731101893
20
4.43394095239208
30
0
41
1
10
20.9295135830726
20
4.47341159390925
30
0
41
1
10
20.5911782963184
20
4.57880470957682
30
0
41
1
10
20.3666999596963
20
4.63176680994997
30
0
41
1
10
20.1356857019654
20
4.67027797321308
30
0
41
1
10
20.1296120331061
20
4.67127907513304
30
0
41
1
10
20.1235381014324
20
4.67226876621359
30
0
0
SPLINE
5
164
100
AcDbEntity
8
1
62
256
6
ByLayer
370
18
48
1
60
0
100
AcDbSpline
70
4
71
3
72
9
73
5
40
0
40
0
40
0
40
0
40
0.428018384325013
40
1
40
1
40
1
40
1
41
1
10
30.9488642023403
20
-4.86465438665275
30
0
41
1
10
30.861319342331
20
-4.84219432233698
30
0
41
1
10
30.6568373064548
20
-4.78330109052467
30
0
41
1
10
30.4525586041398
20
-4.70960798181204
30
0
41
1
10
30.3357480976009
20
-4.66277976426417
30
0
0
SPLINE
5
165
100
AcDbEntity
8
1
62
256
6
ByLayer
370
18
48
1
60
0
100
AcDbSpline
70
4
71
3
72
139
73
135
40
0
40
0
40
0
40
0
40
0.0062468366864697
40
0.0125137224901648
40
0.0188006362017981
40
0.0251075565256154
40
0.0314344648655989
40
0.0377813645959302
40
0.044148269646279
40
0.0505351940427539
40
0.0569421518559257
40
0.0633691572165561
40
0.0698162243322071
40
0.0762833675047939
40
0.0827706011491379
40
0.0892779398124723
40
0.0958053981950041
40
0.102352991171461
40
0.108920733813734
40
0.115508641414592
40
0.122116729512504
40
0.128745013917574
40
0.135393510738645
40
0.142062236411584
40
0.148751207728739
40
0.155460441869658
40
0.162189956433044
40
0.168939769469961
40
0.175709899518384
40
0.182500365639039
40
0.189311187452624
40
0.196142385178379
40
0.202993979674072
40
0.209865992477423
40
0.216758445848969
40
0.223671362816421
40
0.230604767220527
40
0.237558683762468
40
0.244533138052818
40
0.251528156662095
40
0.258543767172928
40
0.265579998233862
40
0.272636879614843
40
0.279714442264385
40
0.286812718368481
40
0.293931734799214
40
0.301071488256365
40
0.308231965829953
40
0.315413153806423
40
0.322615037714526
40
0.329837602372646
40
0.337080831938584
40
0.34434470996185
40
0.351629219438525
40
0.358934342868728
40
0.36626006231677
40
0.373606359474021
40
0.380973215724583
40
0.388360612213754
40
0.395768529919462
40
0.40319694972658
40
0.410645852504306
40
0.418115219186601
40
0.425605030855756
40
0.433115268829174
40
0.440645914749381
40
0.448196950677388
40
0.455768359189422
40
0.463360123477104
40
0.470972227451149
40
0.478604655848629
40
0.486257394343894
40
0.493930429663181
40
0.501623749703017
40
0.509337343652449
40
0.517071202119175
40
0.524825317259655
40
0.532599682913274
40
0.540394294740563
40
0.54820915036564
40
0.556044250075634
40
0.563899596780692
40
0.571775192038258
40
0.579671035335022
40
0.587587124112619
40
0.595523453795838
40
0.603480017823345
40
0.611456807680937
40
0.619453812937472
40
0.627471021283408
40
0.635508418572108
40
0.643565988863884
40
0.651643714472886
40
0.659741576016858
40
0.667859552469856
40
0.675997621217918
40
0.684155758117829
40
0.69233393755898
40
0.700532132528378
40
0.708750314678945
40
0.71698845440105
40
0.725246520897456
40
0.733524482261674
40
0.741822305559803
40
0.750139956915949
40
0.75847740160127
40
0.766834604126733
40
0.775211528339625
40
0.783608137523936
40
0.792024394504655
40
0.800460261756062
40
0.808915701514108
40
0.817390692784182
40
0.825885284258349
40
0.834399542727246
40
0.842933535201145
40
0.851487328990814
40
0.860060991791642
40
0.868654591771058
40
0.877268197659255
40
0.885901878843297
40
0.894555705464633
40
0.903229748520101
40
0.911924079966407
40
0.920638772828188
40
0.929373901309658
40
0.938129540909914
40
0.946905768541919
40
0.955702662655234
40
0.964520303362518
40
0.973358772569864
40
0.982218154110975
40
0.991098533885291
40
1
40
1
40
1
40
1
41
1
10
25.3037292385226
20
-0.417927329470388
30
0
41
1
10
25.3142123994396
20
-0.429517056719476
30
0
41
1
10
25.3352123668022
20
-0.452733708252197
30
0
41
1
10
25.3667641000591
20
-0.487585767412071
30
0
41
1
10
25.3984177733679
20
-0.522525804985207
30
0
41
1
10
25.4301734675608
20
-0.557549731700107
30
0
41
1
10
25.4620312121003
20
-0.592655898040022
30
0
41
1
10
25.4939909502515
20
-0.627842212846417
30
0
41
1
10
25.5260526251478
20
-0.663106843249437
30
0
41
1
10
25.5582162112415
20
-0.698447884343835
30
0
41
1
10
25.5904816788081
20
-0.733863416706726
30
0
41
1
10
25.6228489986229
20
-0.769351485235916
30
0
41
1
10
25.6553181406666
20
-0.804910104508167
30
0
41
1
10
25.6878890744681
20
-0.84053725702978
30
0
41
1
10
25.7205617690075
20
-0.876230893399566
30
0
41
1
10
25.7533361927362
20
-0.91198893195633
30
0
41
1
10
25.7862123135669
20
-0.947809258563609
30
0
41
1
10
25.8191900988703
20
-0.983689726357056
30
0
41
1
10
25.852269515471
20
-1.01962815550033
30
0
41
1
10
25.8854505296426
20
-1.05562233293804
30
0
41
1
10
25.9187331071046
20
-1.09167001214828
30
0
41
1
10
25.9521172130167
20
-1.12776891289443
30
0
41
1
10
25.9856028119753
20
-1.16391672097601
30
0
41
1
10
26.0191898680092
20
-1.20011108797868
30
0
41
1
10
26.0528783445747
20
-1.23634963102398
30
0
41
1
10
26.0866682045516
20
-1.27262993251745
30
0
41
1
10
26.1205594102389
20
-1.30894953989642
30
0
41
1
10
26.1545519233497
20
-1.34530596537726
30
0
41
1
10
26.1886457050078
20
-1.38169668570117
30
0
41
1
10
26.2228407157422
20
-1.4181191418798
30
0
41
1
10
26.2571369154833
20
-1.45457073893959
30
0
41
1
10
26.2915342635582
20
-1.49104884566557
30
0
41
1
10
26.326032718686
20
-1.52755079434448
30
0
41
1
10
26.3606322389734
20
-1.56407388050664
30
0
41
1
10
26.3953327819104
20
-1.60061536266758
30
0
41
1
10
26.430134304365
20
-1.63717246206841
30
0
41
1
10
26.4650367625794
20
-1.67374236241554
30
0
41
1
10
26.5000401121646
20
-1.71032220961985
30
0
41
1
10
26.5351443080976
20
-1.74690911153442
30
0
41
1
10
26.5703493047096
20
-1.78350013769307
30
0
41
1
10
26.6056550557078
20
-1.82009231904229
30
0
41
1
10
26.6410615140732
20
-1.85668264769461
30
0
41
1
10
26.6765686324189
20
-1.89326807659714
30
0
41
1
10
26.7121763616256
20
-1.9298455195146
30
0
41
1
10
26.7478846448469
20
-1.96641183847589
30
0
41
1
10
26.7836933455326
20
-2.00296379324234
30
0
41
1
10
26.8196026402722
20
-2.03949793617016
30
0
41
1
10
26.8556126617198
20
-2.07601070474379
30
0
41
1
10
26.8917235251718
20
-2.11249847598461
30
0
41
1
10
26.927935349335
20
-2.14895758003067
30
0
41
1
10
26.9642482547129
20
-2.18538430013143
30
0
41
1
10
27.00066236406
20
-2.22177487225889
30
0
41
1
10
27.037177802279
20
-2.25812548482094
30
0
41
1
10
27.0737946964681
20
-2.29443227834562
30
0
41
1
10
27.1105131759273
20
-2.33069134517294
30
0
41
1
10
27.1473333721771
20
-2.36689872914286
30
0
41
1
10
27.1842554189725
20
-2.40305042528379
30
0
41
1
10
27.2212794523194
20
-2.43914237949977
30
0
41
1
10
27.2584056104895
20
-2.47517048825705
30
0
41
1
10
27.2956340340368
20
-2.51113059826955
30
0
41
1
10
27.3329648658124
20
-2.54701850618406
30
0
41
1
10
27.3703982509809
20
-2.58282995826408
30
0
41
1
10
27.4079343370359
20
-2.61856065007313
30
0
41
1
10
27.4455732738155
20
-2.65420622615744
30
0
41
1
10
27.4833152135191
20
-2.68976227972715
30
0
41
1
10
27.5211603107223
20
-2.72522435233779
30
0
41
1
10
27.5591087223932
20
-2.76058793356978
30
0
41
1
10
27.5971606079086
20
-2.79584846070804
30
0
41
1
10
27.6353161290699
20
-2.83100131842036
30
0
41
1
10
27.6735754501192
20
-2.86604183843499
30
0
41
1
10
27.7119387377551
20
-2.9009652992176
30
0
41
1
10
27.7504061611492
20
-2.9357669256471
30
0
41
1
10
27.7889778919624
20
-2.97044188869157
30
0
41
1
10
27.8276541043613
20
-3.00498530508074
30
0
41
1
10
27.8664349750316
20
-3.03939223698609
30
0
41
1
10
27.9053206832066
20
-3.0736576916704
30
0
41
1
10
27.9443114106388
20
-3.10777662124636
30
0
41
1
10
27.983407341781
20
-3.14174392202435
30
0
41
1
10
28.0226086631897
20
-3.17555443539348
30
0
41
1
10
28.0619155667617
20
-3.20920294375026
30
0
41
1
10
28.1013282417666
20
-3.24268418764095
30
0
41
1
10
28.1408464562216
20
-3.2759942270495
30
0
41
1
10
28.1804699901021
20
-3.30912908147406
30
0
41
1
10
28.2201986191211
20
-3.34208473903846
30
0
41
1
10
28.2600321156818
20
-3.37485715089187
30
0
41
1
10
28.2999702482562
20
-3.40744223217783
30
0
41
1
10
28.3400127815221
20
-3.4398358615195
30
0
41
1
10
28.3801594762947
20
-3.47203388090372
30
0
41
1
10
28.4204100895151
20
-3.50403209545672
30
0
41
1
10
28.4607643742214
20
-3.53582627324875
30
0
41
1
10
28.5012220795265
20
-3.56741214508969
30
0
41
1
10
28.5417829505921
20
-3.598785404327
30
0
41
1
10
28.5824467286055
20
-3.62994170664194
30
0
41
1
10
28.623213150754
20
-3.66087666984592
30
0
41
1
10
28.6640819502009
20
-3.69158587367573
30
0
41
1
10
28.7050528560608
20
-3.72206485958893
30
0
41
1
10
28.7461255933742
20
-3.75230913055802
30
0
41
1
10
28.7872998830842
20
-3.78231415086452
30
0
41
1
10
28.8285754420097
20
-3.81207534589251
30
0
41
1
10
28.8699519828228
20
-3.84158810192122
30
0
41
1
10
28.9114292140217
20
-3.87084776591783
30
0
41
1
10
28.9530068399074
20
-3.89984964532883
30
0
41
1
10
28.9946845605582
20
-3.92858900787164
30
0
41
1
10
29.0364620718041
20
-3.95706108132526
30
0
41
1
10
29.0783390652026
20
-3.98526105332041
30
0
41
1
10
29.1203152280131
20
-4.01318407112978
30
0
41
1
10
29.1623902431713
20
-4.04082524145494
30
0
41
1
10
29.2045637892667
20
-4.06817963022314
30
0
41
1
10
29.2468355405059
20
-4.09524226234529
30
0
41
1
10
29.2892051667316
20
-4.12200812161564
30
0
41
1
10
29.3316723332304
20
-4.14847215007927
30
0
41
1
10
29.3742367296754
20
-4.17462926680727
30
0
41
1
10
29.4168981846883
20
-4.20047443127746
30
0
41
1
10
29.4596568448523
20
-4.22600302976244
30
0
41
1
10
29.5025130107051
20
-4.25121051245301
30
0
41
1
10
29.5454670175383
20
-4.27609231404557
30
0
41
1
10
29.5885192059441
20
-4.30064383696333
30
0
41
1
10
29.631669921671
20
-4.32486045077343
30
0
41
1
10
29.674919515701
20
-4.34873749215765
30
0
41
1
10
29.7182683442667
20
-4.37227026473144
30
0
41
1
10
29.7617167688853
20
-4.39545403891356
30
0
41
1
10
29.8052651563874
20
-4.41828405174351
30
0
41
1
10
29.8489138789483
20
-4.44075550685739
30
0
41
1
10
29.8926633141165
20
-4.462863573878
30
0
41
1
10
29.9365138448493
20
-4.48460338999638
30
0
41
1
10
29.9804658595247
20
-4.50597005334498
30
0
41
1
10
30.0245197520405
20
-4.52695864711242
30
0
41
1
10
30.0686759215882
20
-4.54756414852292
30
0
41
1
10
30.1129347736441
20
-4.56778176902301
30
0
41
1
10
30.1572967164028
20
-4.58760567949057
30
0
41
1
10
30.2017621742794
20
-4.60703378396286
30
0
41
1
10
30.246331537486
20
-4.6260498399264
30
0
41
1
10
30.2910053510291
20
-4.64469042272441
30
0
41
1
10
30.3208220628407
20
-4.65674521875007
30
0
41
1
10
30.335748097601
20
-4.66277976426417
30
0
0
SPLINE
5
166
100
AcDbEntity
8
1
62
256
6
ByLayer
370
18
48
1
60
0
100
AcDbSpline
70
4
71
3
72
9
73
5
40
0
40
0
40
0
40
0
40
0.0660712482701937
40
1
40
1
40
1
40
1
41
1
10
24.0412236764127
20
0.978166301891804
30
0
41
1
10
24.0690249711945
20
0.947895598250255
30
0
41
1
10
24.4898073655006
20
0.488842256273784
30
0
41
1
10
24.9106749751644
20
0.0171889182804534
30
0
41
1
10
25.3037292385226
20
-0.417927329470416
30
0
0
SPLINE
5
167
100
AcDbEntity
8
1
62
256
6
ByLayer
370
18
48
1
60
0
100
AcDbSpline
70
4
71
3
72
56
73
52
40
0
40
0
40
0
40
0
40
0.0501519775689036
40
0.0501519775689036
40
0.0976443786904609
40
0.0976443786904609
40
0.12139057925124
40
0.12139057925124
40
0.145136779812018
40
0.145136779812018
40
0.192629180933575
40
0.192629180933575
40
0.240121582055131
40
0.240121582055131
40
0.335106384298244
40
0.335106384298244
40
0.346979484578633
40
0.346979484578633
40
0.358852584859022
40
0.382598785419799
40
0.382598785419799
40
0.430091186541353
40
0.430091186541353
40
0.477583587662908
40
0.477583587662908
40
0.525075988784462
40
0.525075988784462
40
0.548822189345239
40
0.560695289625628
40
0.560695289625628
40
0.572568389906016
40
0.572568389906016
40
0.620060791027571
40
0.620060791027571
40
0.667553192149126
40
0.667553192149126
40
0.715045593270681
40
0.715045593270681
40
0.762537994392235
40
0.762537994392235
40
0.786284194953012
40
0.786284194953012
40
0.798157295233401
40
0.798157295233401
40
0.810030395513789
40
0.810030395513789
40
0.905015197756894
40
0.905015197756894
40
0.952507598878447
40
0.952507598878447
40
1
40
1
40
1
40
1
41
1
10
14.8050728406403
20
3.89542437417796
30
0
41
1
10
14.9588115365279
20
4.00252045174287
30
0
41
1
10
15.1124783477195
20
4.10268231486396
30
0
41
1
10
15.4123901530817
20
4.28366087023488
30
0
41
1
10
15.5585766820741
20
4.36526242078486
30
0
41
1
10
15.7788434473125
20
4.47763651617899
30
0
41
1
10
15.8524320177056
20
4.51341985085867
30
0
41
1
10
16.0000454251108
20
4.58153541362014
30
0
41
1
10
16.0736724832787
20
4.61368232567904
30
0
41
1
10
16.2939120254389
20
4.70428565404052
30
0
41
1
10
16.4400002974714
20
4.75693639753626
30
0
41
1
10
16.7315321418324
20
4.846985412208
30
0
41
1
10
16.8769743376521
20
4.88439294138411
30
0
41
1
10
17.3135114565823
20
4.97372143646032
30
0
41
1
10
17.6048149632057
20
5.00278102368856
30
0
41
1
10
17.9363876594743
20
4.9992890805386
30
0
41
1
10
17.9733181469459
20
4.99839725644966
30
0
41
1
10
18.0471093807846
20
4.99560902405244
30
0
41
1
10
18.1576307173542
20
4.98992524692304
30
0
41
1
10
18.2677053527509
20
4.97978239149813
30
0
41
1
10
18.487392409581
20
4.9536384419433
30
0
41
1
10
18.6332353453516
20
4.92840608146483
30
0
41
1
10
18.9244799838732
20
4.86254826900043
30
0
41
1
10
19.0698868645185
20
4.82188897973396
30
0
41
1
10
19.3610530445752
20
4.72549629508578
30
0
41
1
10
19.5068101599756
20
4.66977290053245
30
0
41
1
10
19.7262909394328
20
4.5749815840058
30
0
41
1
10
19.8362424884419
20
4.52478038981661
30
0
41
1
10
19.946625733901
20
4.47034991424238
30
0
41
1
10
20.0203242241308
20
4.4331181607605
30
0
41
1
10
20.0572500649244
20
4.41401764653008
30
0
41
1
10
20.2414511086818
20
4.31653775910331
30
0
41
1
10
20.3879788649165
20
4.2319603784795
30
0
41
1
10
20.6801926497003
20
4.05034784749361
30
0
41
1
10
20.8258777263266
20
3.95331594157557
30
0
41
1
10
21.1171630064602
20
3.7473066242074
30
0
41
1
10
21.262762226772
20
3.63832904318946
30
0
41
1
10
21.5545965404151
20
3.40869909917973
30
0
41
1
10
21.7008343578589
20
3.28801827311693
30
0
41
1
10
21.9211535288262
20
3.09851547561976
30
0
41
1
10
21.994755157602
20
3.03393476792331
30
0
41
1
10
22.1054719324609
20
2.9349738909948
30
0
41
1
10
22.1423780103457
20
2.90168451525804
30
0
41
1
10
22.2160288837186
20
2.83467146281163
30
0
41
1
10
22.2528002626231
20
2.80092406371438
30
0
41
1
10
22.5833137857846
20
2.49508932102984
30
0
41
1
10
22.8740618112506
20
2.20831432016831
30
0
41
1
10
23.3104044983
20
1.75990142690134
30
0
41
1
10
23.455886023878
20
1.60738139726297
30
0
41
1
10
23.7477051882752
20
1.29680500139654
30
0
41
1
10
23.8940349220191
20
1.13874279215045
30
0
41
1
10
24.0412236764122
20
0.978166301892344
30
0
0
SPLINE
5
168
100
AcDbEntity
8
1
62
256
6
ByLayer
370
18
48
1
60
0
100
AcDbSpline
70
4
71
3
72
14
73
10
40
0
40
0
40
0
40
0
40
0.0395787418053262
40
0.270807722779548
40
0.50203670375377
40
0.656189357736585
40
0.8103420117194
40
0.964494665702215
40
1
40
1
40
1
40
1
41
1
10
24.1030316772126
20
0.910648266239917
30
0
41
1
10
23.9853544514751
20
1.03018895551366
30
0
41
1
10
23.1801772257376
20
1.84179237867576
30
0
41
1
10
21.6875
20
3.23293738451727
30
0
41
1
10
19.8541666666667
20
4.33569451313164
30
0
41
1
10
18.25
20
4.71777258496769
30
0
41
1
10
16.875
20
4.59897189334296
30
0
41
1
10
15.8527673388509
20
4.20192748563002
30
0
41
1
10
15.288868011035
20
3.8855704954953
30
0
41
1
10
15.1833020165524
20
3.82314299054676
30
0
0
SPLINE
5
169
100
AcDbEntity
8
1
62
256
6
ByLayer
370
18
48
1
60
0
100
AcDbSpline
70
4
71
3
72
14
73
10
40
0
40
0
40
0
40
0
40
0.25
40
0.25
40
0.5
40
0.5
40
0.75
40
0.75
40
1
40
1
40
1
40
1
41
1
10
30.9517736178767
20
4.86376030067362
30
0
41
1
10
30.988746211867
20
4.85196041411842
30
0
41
1
10
31.0252961701036
20
4.83782383320064
30
0
41
1
10
31.097589730954
20
4.80453316701809
30
0
41
1
10
31.1333323737131
20
4.78537421523069
30
0
41
1
10
31.2041140561745
20
4.74189589798215
30
0
41
1
10
31.2391350673815
20
4.71750603188332
30
0
41
1
10
31.3085305277569
20
4.6631957269461
30
0
41
1
10
31.3425387893342
20
4.63356467515871
30
0
41
1
10
31.375820889734
20
4.60126765365448
30
0
0
SPLINE
5
16A
100
AcDbEntity
8
1
62
256
6
ByLayer
370
18
48
1
60
0
100
AcDbSpline
70
4
71
3
72
8
73
4
40
0
40
0
40
0
40
0
40
1
40
1
40
1
40
1
41
1
10
30.9494434359087
20
4.86449876700632
30
0
41
1
10
30.9502203489863
20
4.86425428962156
30
0
41
1
10
30.9509970778273
20
4.86400813517744
30
0
41
1
10
30.9517736178768
20
4.8637603006735
30
0
0
SPLINE
5
16B
100
AcDbEntity
8
1
62
256
6
ByLayer
370
18
48
1
60
0
100
AcDbSpline
70
4
71
3
72
9
73
5
40
0
40
0
40
0
40
0
40
0.428018384877132
40
1
40
1
40
1
40
1
41
1
10
30.9488642023407
20
4.8646543866526
30
0
41
1
10
30.8613193423313
20
4.84219432233681
30
0
41
1
10
30.6568373067186
20
4.78330109060042
30
0
41
1
10
30.4525586046665
20
4.70960798200178
30
0
41
1
10
30.3357480983907
20
4.66277976458053
30
0
0
SPLINE
5
16C
100
AcDbEntity
8
1
62
256
6
ByLayer
370
18
48
1
60
0
100
AcDbSpline
70
4
71
3
72
39
73
35
40
0
40
0
40
0
40
0
40
0.0243460098584084
40
0.0547270537857563
40
0.0851806947160339
40
0.115706805495612
40
0.146305256187516
40
0.176975914424856
40
0.207718645778308
40
0.238533314138024
40
0.269419782110065
40
0.300377911427872
40
0.331407625223359
40
0.362509101774058
40
0.393682585622355
40
0.424928322114747
40
0.456246557697961
40
0.487637540226958
40
0.519101519284993
40
0.550638746515741
40
0.58224947596795
40
0.613933964452401
40
0.645692471911714
40
0.677525261802918
40
0.709432601493095
40
0.741414762668125
40
0.773472021754884
40
0.805604660356864
40
0.837812965703575
40
0.870097231113657
40
0.902457756472071
40
0.934894848721439
40
0.967408822367668
40
1
40
1
40
1
40
1
41
1
10
28.9611723793543
20
3.90545112012649
30
0
41
1
10
28.9723319982358
20
3.9131733755348
30
0
41
1
10
28.9974175253503
20
3.93045156914025
30
0
41
1
10
29.0364620721594
20
3.95706108156571
30
0
41
1
10
29.0783390655702
20
3.98526105356623
30
0
41
1
10
29.1203152283932
20
4.01318407138078
30
0
41
1
10
29.1623902435639
20
4.04082524171102
30
0
41
1
10
29.2045637896721
20
4.06817963048411
30
0
41
1
10
29.2468355409242
20
4.09524226261104
30
0
41
1
10
29.2892051671629
20
4.12200812188598
30
0
41
1
10
29.331672333675
20
4.14847215035405
30
0
41
1
10
29.3742367301333
20
4.17462926708637
30
0
41
1
10
29.4168981851597
20
4.20047443156059
30
0
41
1
10
29.4596568453373
20
4.2260030300495
30
0
41
1
10
29.5025130112038
20
4.2512105127438
30
0
41
1
10
29.545467018051
20
4.27609231433988
30
0
41
1
10
29.5885192064708
20
4.30064383726096
30
0
41
1
10
29.631669922212
20
4.32486045107419
30
0
41
1
10
29.6749195162563
20
4.34873749246131
30
0
41
1
10
29.7182683448366
20
4.37227026503777
30
0
41
1
10
29.7617167694699
20
4.39545403922236
30
0
41
1
10
29.8052651569868
20
4.4182840520545
30
0
41
1
10
29.8489138795627
20
4.44075550717034
30
0
41
1
10
29.892663314746
20
4.46286357419265
30
0
41
1
10
29.9365138454941
20
4.48460339031251
30
0
41
1
10
29.980465860185
20
4.50597005366231
30
0
41
1
10
30.0245197527164
20
4.52695864743066
30
0
41
1
10
30.0686759222799
20
4.54756414884181
30
0
41
1
10
30.1129347743517
20
4.56778176934225
30
0
41
1
10
30.1572967171265
20
4.58760567980983
30
0
41
1
10
30.2017621750194
20
4.60703378428187
30
0
41
1
10
30.2463315382423
20
4.62604984024486
30
0
41
1
10
30.2910053518021
20
4.64469042304199
30
0
41
1
10
30.3208220636246
20
4.65674521906678
30
0
41
1
10
30.3357480983905
20
4.66277976458045
30
0
0
SPLINE
5
16D
100
AcDbEntity
8
1
62
256
6
ByLayer
370
18
48
1
60
0
100
AcDbSpline
70
4
71
3
72
55
73
51
40
0
40
0
40
0
40
0
40
0.0512767910318443
40
0.0512767910318443
40
0.102553582063689
40
0.102553582063689
40
0.153830373095533
40
0.153830373095533
40
0.205107164127377
40
0.205107164127377
40
0.217926361885339
40
0.217926361885339
40
0.2307455596433
40
0.2307455596433
40
0.256383955159223
40
0.256383955159223
40
0.307660746191069
40
0.307660746191069
40
0.358937537222916
40
0.358937537222916
40
0.410214328254763
40
0.410214328254763
40
0.435852723770686
40
0.435852723770686
40
0.448671921528647
40
0.448671921528647
40
0.461491119286608
40
0.461491119286608
40
0.512767910318451
40
0.512767910318451
40
0.615321492382138
40
0.615321492382138
40
0.666598283413982
40
0.666598283413982
40
0.692236678929903
40
0.692236678929903
40
0.717875074445825
40
0.717875074445825
40
0.769151865477667
40
0.769151865477667
40
0.82042865650951
40
0.82042865650951
40
0.922982238573196
40
0.922982238573196
40
0.935801436331156
40
0.935801436331156
40
0.948620634089116
40
0.974259029605037
40
0.974259029605037
40
1
40
1
40
1
40
1
41
1
10
10
20
0.867112325691693
30
0
41
1
10
10.1476385844627
20
0.70557725115728
30
0
41
1
10
10.2943972732261
20
0.543590957421088
30
0
41
1
10
10.5869627687638
20
0.219421842483086
30
0
41
1
10
10.7327678181893
20
0.0572375085875478
30
0
41
1
10
11.02420611704
20
-0.266630244832839
30
0
41
1
10
11.1698401395754
20
-0.428312359136442
30
0
41
1
10
11.4617236454594
20
-0.750462058040057
30
0
41
1
10
11.6079713821871
20
-0.910931453436319
30
0
41
1
10
11.7916717023827
20
-1.1102938467742
30
0
41
1
10
11.8284564305679
20
-1.15010495391721
30
0
41
1
10
11.9021285414403
20
-1.2295920310406
30
0
41
1
10
11.9390515737919
20
-1.26930614901903
30
0
41
1
10
12.0496976528015
20
-1.38790818394918
30
0
41
1
10
12.123260097272
20
-1.46621668742793
30
0
41
1
10
12.3434938488186
20
-1.69875161421879
30
0
41
1
10
12.4897174429694
20
-1.85056773797501
30
0
41
1
10
12.7816850987078
20
-2.14737573493579
30
0
41
1
10
12.927415446337
20
-2.29238727581418
30
0
41
1
10
13.2190676116103
20
-2.57511848604216
30
0
41
1
10
13.3649900845174
20
-2.71283686877663
30
0
41
1
10
13.5846121766559
20
-2.91339238483516
30
0
41
1
10
13.6579438797287
20
-2.97923711717132
30
0
41
1
10
13.7682070532144
20
-3.07641802545339
30
0
41
1
10
13.8050056307639
20
-3.10854762906607
30
0
41
1
10
13.8787042938974
20
-3.1722666718093
30
0
41
1
10
13.9156208053568
20
-3.20386937533553
30
0
41
1
10
14.0997662867287
20
-3.35989262264667
30
0
41
1
10
14.2462385145807
20
-3.47883401869288
30
0
41
1
10
14.6843723987904
20
-3.81768316909293
30
0
41
1
10
14.9747756600467
20
-4.01958710807648
30
0
41
1
10
15.4123901531456
20
-4.28366087027169
30
0
41
1
10
15.5585766821399
20
-4.36526242082073
30
0
41
1
10
15.7788434473811
20
-4.47763651621312
30
0
41
1
10
15.8524320177753
20
-4.51341985089218
30
0
41
1
10
16.0000454251825
20
-4.58153541365226
30
0
41
1
10
16.0736724833508
20
-4.61368232571016
30
0
41
1
10
16.2939120255132
20
-4.70428565406891
30
0
41
1
10
16.4400002975472
20
-4.75693639756264
30
0
41
1
10
16.7315321419113
20
-4.84698541223005
30
0
41
1
10
16.8769743377326
20
-4.88439294140383
30
0
41
1
10
17.313511456668
20
-4.97372143647243
30
0
41
1
10
17.6048149632952
20
-5.00278102369475
30
0
41
1
10
17.9363876595684
20
-4.99928908053704
30
0
41
1
10
17.9733181470406
20
-4.99839725644719
30
0
41
1
10
18.04710938088
20
-4.99560902404821
30
0
41
1
10
18.1576307174506
20
-4.98992524691613
30
0
41
1
10
18.2677053528484
20
-4.9797823914885
30
0
41
1
10
18.4144563676413
20
-4.96231822594319
30
0
41
1
10
18.48782335504
20
-4.95160230446984
30
0
41
1
10
18.5610852389116
20
-4.93893345203864
30
0
0
SPLINE
5
16E
100
AcDbEntity
8
1
62
256
6
ByLayer
370
18
48
1
60
0
100
AcDbSpline
70
4
71
3
72
9
73
5
40
0
40
0
40
0
40
0
40
0.999809196364463
40
1
40
1
40
1
40
1
41
1
10
31.3758208897331
20
4.60126765365433
30
0
41
1
10
30.6672139264887
20
4.48848979761431
30
0
41
1
10
29.9584717326571
20
4.20515675549538
30
0
41
1
10
29.2497295388256
20
3.77695368811294
30
0
41
1
10
29.2495943082383
20
3.77687198013726
30
0
0
SPLINE
5
16F
100
AcDbEntity
8
1
62
256
6
ByLayer
370
18
48
1
60
0
100
AcDbSpline
70
4
71
3
72
11
73
7
40
0
40
0
40
0
40
0
40
0.111527319061557
40
0.411052768572959
40
0.707210361337632
40
1
40
1
40
1
40
1
41
1
10
25.4066196066379
20
-4.93680773137197
30
0
41
1
10
25.4027944689255
20
-4.93747707045978
30
0
41
1
10
25.3886963219659
20
-4.93992460573986
30
0
41
1
10
25.3644409483167
20
-4.9440113683703
30
0
41
1
10
25.3339692568974
20
-4.94893971499312
30
0
41
1
10
25.3137707421612
20
-4.95202309904951
30
0
41
1
10
25.3037292384143
20
-4.95355597475645
30
0
0
SPLINE
5
170
100
AcDbEntity
8
1
62
256
6
ByLayer
370
18
48
1
60
0
100
AcDbSpline
70
4
71
3
72
29
73
25
40
0
40
0
40
0
40
0
40
0.021577189834826
40
0.0677407435721946
40
0.138496755980621
40
0.233854274517764
40
0.353824440889006
40
0.498418779487883
40
0.535338973766326
40
0.571517106239857
40
0.606952964748897
40
0.641646350832435
40
0.675597079844221
40
0.708804980897703
40
0.741269896665739
40
0.772991683058846
40
0.803970208803697
40
0.834205354941702
40
0.863697014265427
40
0.892445090709089
40
0.920449498707617
40
0.947710162537036
40
0.974227015647613
40
1
40
1
40
1
40
1
41
1
10
25.3037292384143
20
-4.95355597475643
30
0
41
1
10
25.2946417735012
20
-4.95490914691959
30
0
41
1
10
25.26611203283
20
-4.95915737800141
30
0
41
1
10
25.2077855141345
20
-4.96713822384311
30
0
41
1
10
25.1183963907426
20
-4.97780757088424
30
0
41
1
10
24.9979447096109
20
-4.98906508034929
30
0
41
1
10
24.8464328591476
20
-4.99818792232551
30
0
41
1
10
24.7195416611087
20
-5.00064104969272
30
0
41
1
10
24.627935248663
20
-4.9998400161322
30
0
41
1
10
24.5822658348278
20
-4.99891821777189
30
0
41
1
10
24.5375359224682
20
-4.99751532072145
30
0
41
1
10
24.4937454397076
20
-4.99566181903449
30
0
41
1
10
24.4508944051177
20
-4.99338806693393
30
0
41
1
10
24.4089828138984
20
-4.99072362792091
30
0
41
1
10
24.3680106674035
20
-4.98769744563549
30
0
41
1
10
24.3279779654816
20
-4.98433779497725
30
0
41
1
10
24.2888847083855
20
-4.98067231340295
30
0
41
1
10
24.2507308964852
20
-4.97672792790976
30
0
41
1
10
24.2135165295328
20
-4.97253110960662
30
0
41
1
10
24.1772416097085
20
-4.96810696278641
30
0
41
1
10
24.1419061305264
20
-4.96348249729456
30
0
41
1
10
24.1075101166295
20
-4.95867489021029
30
0
41
1
10
24.0740534811341
20
-4.95373355520837
30
0
41
1
10
24.0520626651991
20
-4.95025472402091
30
0
41
1
10
24.0412236765449
20
-4.94854005313817
30
0
0
SPLINE
5
171
100
AcDbEntity
8
1
62
256
6
ByLayer
370
18
48
1
60
0
100
AcDbSpline
70
4
71
3
72
84
73
80
40
0
40
0
40
0
40
0
40
0.0312499999999966
40
0.0312499999999966
40
0.0624999999999932
40
0.0624999999999932
40
0.124999999999986
40
0.124999999999986
40
0.132812499999986
40
0.132812499999986
40
0.140624999999985
40
0.140624999999985
40
0.156249999999983
40
0.156249999999983
40
0.18749999999998
40
0.18749999999998
40
0.218749999999977
40
0.218749999999977
40
0.249999999999974
40
0.249999999999974
40
0.281249999999971
40
0.281249999999971
40
0.289062499999971
40
0.289062499999971
40
0.29687499999997
40
0.31249999999997
40
0.31249999999997
40
0.34374999999997
40
0.34374999999997
40
0.374999999999971
40
0.374999999999971
40
0.406249999999971
40
0.406249999999971
40
0.421874999999971
40
0.429687499999972
40
0.429687499999972
40
0.437499999999972
40
0.437499999999972
40
0.499999999999975
40
0.499999999999975
40
0.531249999999976
40
0.531249999999976
40
0.562499999999977
40
0.562499999999977
40
0.578124999999978
40
0.578124999999978
40
0.593749999999978
40
0.593749999999978
40
0.624999999999979
40
0.624999999999979
40
0.687499999999981
40
0.687499999999981
40
0.718749999999983
40
0.718749999999983
40
0.726562499999983
40
0.726562499999983
40
0.734374999999983
40
0.734374999999983
40
0.749999999999984
40
0.749999999999984
40
0.781249999999985
40
0.781249999999985
40
0.812499999999986
40
0.812499999999986
40
0.843749999999987
40
0.843749999999987
40
0.859374999999988
40
0.859374999999988
40
0.867187499999989
40
0.867187499999989
40
0.874999999999989
40
0.874999999999989
40
0.906249999999992
40
0.906249999999992
40
0.937499999999995
40
0.937499999999995
40
0.968749999999997
40
0.968749999999997
40
1
40
1
40
1
40
1
41
1
10
24.0412236765449
20
-4.94854005313809
30
0
41
1
10
23.89403492215
20
-4.92490615247439
30
0
41
1
10
23.7477051884044
20
-4.89331767357632
30
0
41
1
10
23.4558860240039
20
-4.81501151392845
30
0
41
1
10
23.3104044984244
20
-4.76828957961288
30
0
41
1
10
22.8740618113708
20
-4.60612757678894
30
0
41
1
10
22.5833137859025
20
-4.4687352663575
30
0
41
1
10
22.2528002627389
20
-4.2820893877967
30
0
41
1
10
22.2160288838341
20
-4.26090311834392
30
0
41
1
10
22.1423780104607
20
-4.21763275017034
30
0
41
1
10
22.1054719325758
20
-4.19553237623725
30
0
41
1
10
21.9947551577155
20
-4.12799108005797
30
0
41
1
10
21.9211535289388
20
-4.08144013992856
30
0
41
1
10
21.7008343579689
20
-3.93733396294516
30
0
41
1
10
21.5545965405235
20
-3.83533078186571
30
0
41
1
10
21.2627622268773
20
-3.61984302779609
30
0
41
1
10
21.1171630065641
20
-3.50638771107486
30
0
41
1
10
20.8258777264277
20
-3.26867314355732
30
0
41
1
10
20.6801926498001
20
-3.14441286884608
30
0
41
1
10
20.3879788650139
20
-2.8855341762962
30
0
41
1
10
20.2414511087781
20
-2.75091165461629
30
0
41
1
10
20.0572500650194
20
-2.57635614796055
30
0
41
1
10
20.0203242242254
20
-2.54109926295806
30
0
41
1
10
19.9466257339948
20
-2.47022691700224
30
0
41
1
10
19.8362424885344
20
-2.36331980779903
30
0
41
1
10
19.726290939524
20
-2.25468179126537
30
0
41
1
10
19.5068101600644
20
-2.0352503372597
30
0
41
1
10
19.3610530446624
20
-1.88609184136772
30
0
41
1
10
19.0698868646028
20
-1.58272788365858
30
0
41
1
10
18.9244799839561
20
-1.42851723842651
30
0
41
1
10
18.633235345432
20
-1.11565164276288
30
0
41
1
10
18.4873924096602
20
-0.957012156954164
30
0
41
1
10
18.2677053528284
20
-0.716247492398537
30
0
41
1
10
18.1576307174308
20
-0.595163285253847
30
0
41
1
10
18.0471093808604
20
-0.473099537906506
30
0
41
1
10
17.9733181470212
20
-0.391513263209873
30
0
41
1
10
17.9363876595491
20
-0.350637462213854
30
0
41
1
10
17.6048149632768
20
0.0166538984502438
30
0
41
1
10
17.3135114566504
20
0.341495270898179
30
0
41
1
10
16.8769743377161
20
0.822302673076024
30
0
41
1
10
16.7315321418951
20
0.981495258269746
30
0
41
1
10
16.4400002975316
20
1.29700282887694
30
0
41
1
10
16.293912025498
20
1.45331770293188
30
0
41
1
10
16.073672483336
20
1.68502664268931
30
0
41
1
10
16.0000454251677
20
1.76183228275633
30
0
41
1
10
15.8524320177609
20
1.91430053406756
30
0
41
1
10
15.778843447367
20
1.98955241252548
30
0
41
1
10
15.5585766821263
20
2.21229247317117
30
0
41
1
10
15.4123901531324
20
2.35676625143563
30
0
41
1
10
14.9747756600346
20
2.77751449452677
30
0
41
1
10
14.684372398779
20
3.04109081473146
30
0
41
1
10
14.2462385145703
20
3.40787316039047
30
0
41
1
10
14.0997662867186
20
3.52536841291581
30
0
41
1
10
13.9156208053471
20
3.66578738931301
30
0
41
1
10
13.8787042938878
20
3.693573233374
30
0
41
1
10
13.8050056307545
20
3.748296439401
30
0
41
1
10
13.7682070532051
20
3.77524706669229
30
0
41
1
10
13.6579438797196
20
3.85486127266856
30
0
41
1
10
13.584612176647
20
3.90628531762297
30
0
41
1
10
13.3649900845091
20
4.05557311664765
30
0
41
1
10
13.2190676116023
20
4.148468400795
30
0
41
1
10
12.9274154463298
20
4.32081905444343
30
0
41
1
10
12.7816850987009
20
4.40027556033144
30
0
41
1
10
12.4897174429631
20
4.54532411713336
30
0
41
1
10
12.3434938488128
20
4.61090614193549
30
0
41
1
10
12.1232600972667
20
4.69837821338996
30
0
41
1
10
12.0496976527964
20
4.72572516849007
30
0
41
1
10
11.9390515737871
20
4.76398591230731
30
0
41
1
10
11.9021285414356
20
4.77627495967022
30
0
41
1
10
11.8284564305633
20
4.79983715557523
30
0
41
1
10
11.7916717023782
20
4.81112287119538
30
0
41
1
10
11.6079713821831
20
4.86509063619258
30
0
41
1
10
11.4617236454558
20
4.90040322677933
30
0
41
1
10
11.1698401395726
20
4.95550470910842
30
0
41
1
10
11.0242061170374
20
4.97528833513565
30
0
41
1
10
10.7327678181873
20
4.99923230105586
30
0
41
1
10
10.5869627687624
20
5.00340692416898
30
0
41
1
10
10.2943972732254
20
4.9958680633622
30
0
41
1
10
10.1476385844623
20
4.9841566189925
30
0
41
1
10
10.0000000000001
20
4.96415864541012
30
0
0
SPLINE
5
172
100
AcDbEntity
8
1
62
256
6
ByLayer
370
18
48
1
60
0
100
AcDbSpline
70
4
71
3
72
11
73
7
40
0
40
0
40
0
40
0
40
0.190721234281792
40
0.393040925711344
40
0.595360617140896
40
1
40
1
40
1
40
1
41
1
10
16.7961748571506
20
0.910412778695018
30
0
41
1
10
16.3641165714338
20
1.34881332210776
30
0
41
1
10
15.4737249523836
20
2.22672968249825
30
0
41
1
10
14.125
20
3.35728285743971
30
0
41
1
10
12.2916666666667
20
4.4898478906521
30
0
41
1
10
10.9166666666667
20
4.74116297670136
30
0
41
1
10
10
20
4.61352653137206
30
0
0
SPLINE
5
173
100
AcDbEntity
8
1
62
256
6
ByLayer
370
18
48
1
60
0
100
AcDbSpline
70
4
71
3
72
11
73
7
40
0
40
0
40
0
40
0
40
0.303136655583709
40
0.495388019007116
40
0.686037473404164
40
1
40
1
40
1
40
1
41
1
10
20.1277193047124
20
4.67175138757685
30
0
41
1
10
19.9693356257597
20
4.69793058009944
30
0
41
1
10
19.7105113726385
20
4.74128060228372
30
0
41
1
10
19.3521365481609
20
4.80339324740382
30
0
41
1
10
18.9880372517671
20
4.86588778982286
30
0
41
1
10
18.7242453970664
20
4.91107266075042
30
0
41
1
10
18.5600712635148
20
4.93910617478329
30
0
0
SPLINE
5
174
100
AcDbEntity
8
1
62
256
6
ByLayer
370
18
48
1
60
0
100
AcDbSpline
70
4
71
3
72
11
73
7
40
0
40
0
40
0
40
0
40
0.313962526596148
40
0.504611980993387
40
0.696863344416954
40
1
40
1
40
1
40
1
41
1
10
18.5600712635148
20
-4.93910617478346
30
0
41
1
10
18.7242453970665
20
-4.91107266075056
30
0
41
1
10
18.9880372517674
20
-4.86588778982295
30
0
41
1
10
19.3521365481616
20
-4.80339324740385
30
0
41
1
10
19.710511372639
20
-4.74128060228378
30
0
41
1
10
19.96933562576
20
-4.69793058009955
30
0
41
1
10
20.1277193047124
20
-4.67175138757705
30
0
0
SPLINE
5
175
100
AcDbEntity
8
1
62
256
6
ByLayer
370
18
48
1
60
0
100
AcDbSpline
70
4
71
3
72
11
73
7
40
0
40
0
40
0
40
0
40
0.262419278435962
40
0.557326979779739
40
0.844075724105826
40
1
40
1
40
1
40
1
41
1
10
7.42894031600002
20
-4.55953143925356
30
0
41
1
10
7.49106800923104
20
-4.51721939379263
30
0
41
1
10
7.62496983048644
20
-4.42881503119892
30
0
41
1
10
7.83696360384008
20
-4.29847680029093
30
0
41
1
10
8.02292808140754
20
-4.19082365229986
30
0
41
1
10
8.13479356450674
20
-4.12956496581603
30
0
41
1
10
8.17436232648512
20
-4.10835143796902
30
0
0
SPLINE
5
176
100
AcDbEntity
8
1
62
256
6
ByLayer
370
18
48
1
60
0
100
AcDbSpline
70
4
71
1
72
4
73
2
40
0
40
0
40
1
40
1
41
1
10
31.3251255610844
20
2.63193453784066
30
0
41
1
10
30.6562050806696
20
3.04480713626117
30
0
0
SPLINE
5
177
100
AcDbEntity
8
1
62
256
6
ByLayer
370
18
48
1
60
0
100
AcDbSpline
70
4
71
3
72
17
73
13
40
0
40
0
40
0
40
0
40
0.182173951120057
40
0.33212354211257
40
0.450144555699625
40
0.536149887934683
40
0.603355183321378
40
0.664628921153361
40
0.71985629786759
40
0.777772518102954
40
0.874575581577572
40
1
40
1
40
1
40
1
41
1
10
10
20
3.47028618408052
30
0
41
1
10
9.82968298816144
20
3.49768179222741
30
0
41
1
10
9.52314678476208
20
3.56232369322652
30
0
41
1
10
9.11594383105614
20
3.68782250291037
30
0
41
1
10
8.80413884276805
20
3.80734206474113
30
0
41
1
10
8.57252583322102
20
3.90903499784253
30
0
41
1
10
8.39632719928719
20
3.9933164963733
30
0
41
1
10
8.24774257601649
20
4.06893662118011
30
0
41
1
10
8.10993727082845
20
4.14275405113554
30
0
41
1
10
7.94560034406567
20
4.23481985940464
30
0
41
1
10
7.72321378505529
20
4.36690009898785
30
0
41
1
10
7.5525521868386
20
4.47638103434281
30
0
41
1
10
7.45716540698356
20
4.54023269710302
30
0
0
SPLINE
5
178
100
AcDbEntity
8
1
62
256
6
ByLayer
370
18
48
1
60
0
100
AcDbSpline
70
4
71
3
72
10
73
6
40
0
40
0
40
0
40
0
40
0.485611753811862
40
0.84575924574917
40
1
40
1
40
1
40
1
41
1
10
13.7004176482039
20
-4.17965054107398
30
0
41
1
10
13.876238517066
20
-4.1294604418743
30
0
41
1
10
14.1850500288511
20
-4.0448816209036
30
0
41
1
10
14.5525453386043
20
-3.95050949058563
30
0
41
1
10
14.7454410930553
20
-3.9039419037282
30
0
41
1
10
14.803358494115
20
-3.89021482666178
30
0
0
SPLINE
5
179
100
AcDbEntity
8
1
62
256
6
ByLayer
370
18
48
1
60
0
100
AcDbSpline
70
4
71
3
72
14
73
10
40
0
40
0
40
0
40
0
40
0.225694913024265
40
0.395238424323624
40
0.508637473358779
40
0.588405536516041
40
0.700324956567613
40
0.84439342923206
40
1
40
1
40
1
40
1
41
1
10
25.9391054424467
20
1.47142539154805
30
0
41
1
10
25.80506126693
20
1.56374584819693
30
0
41
1
10
25.5703114963208
20
1.72666844242607
30
0
41
1
10
25.2681949793435
20
1.93960942842014
30
0
41
1
10
25.0527304933492
20
2.09235427439711
30
0
41
1
10
24.8714818261433
20
2.22119179065916
30
0
41
1
10
24.6720047569743
20
2.36316980187826
30
0
41
1
10
24.4274518880222
20
2.53722772665756
30
0
41
1
10
24.2494050306129
20
2.66324191068082
30
0
41
1
10
24.1569540470979
20
2.72854561285698
30
0
0
SPLINE
5
17A
100
AcDbEntity
8
1
62
256
6
ByLayer
370
18
48
1
60
0
100
AcDbSpline
70
4
71
3
72
14
73
10
40
0
40
0
40
0
40
0
40
0.254802889018257
40
0.435210053881954
40
0.556140795450537
40
0.668864975241011
40
0.779552357338263
40
0.940560880472368
40
1
40
1
40
1
40
1
41
1
10
17.2581854589955
20
3.48341533895729
30
0
41
1
10
17.0566507762004
20
3.50093098049601
30
0
41
1
10
16.7108535523991
20
3.53803116812404
30
0
41
1
10
16.268013878797
20
3.60075481301038
30
0
41
1
10
15.9334666859481
20
3.65598820891697
30
0
41
1
10
15.6569622287235
20
3.7064740721224
30
0
41
1
10
15.3497796016754
20
3.76742500643368
30
0
41
1
10
15.0852469364837
20
3.8247561687385
30
0
41
1
10
14.9090864321031
20
3.86550194903424
30
0
41
1
10
14.8615841224512
20
3.87666351609934
30
0
0
SPLINE
5
17B
100
AcDbEntity
8
1
62
256
6
ByLayer
370
18
48
1
60
0
100
AcDbSpline
70
4
71
2
72
6
73
3
40
0
40
0
40
0
40
1
40
1
40
1
41
1
10
27.8442016190755
20
-4.17975758965019
30
0
41
1
10
28.2021222805283
20
-4.07551654423401
30
0
41
1
10
28.5627855318272
20
-3.98593634919709
30
0
0
SPLINE
5
17C
100
AcDbEntity
8
1
62
256
6
ByLayer
370
18
48
1
60
0
100
AcDbSpline
70
4
71
2
72
6
73
3
40
0
40
0
40
0
40
1
40
1
40
1
41
1
10
10.4030094111289
20
3.42463433416631
30
0
41
1
10
10.2012825816348
20
3.45165835887798
30
0
41
1
10
10
20
3.48080794954743
30
0
0
SPLINE
5
17D
100
AcDbEntity
8
1
62
256
6
ByLayer
370
18
48
1
60
0
100
AcDbSpline
70
4
71
1
72
4
73
2
40
0
40
0
40
1
40
1
41
1
10
21.0121515820487
20
-4.17825775586451
30
0
41
1
10
21.6050510868255
20
-4.01555620582172
30
0
0
SPLINE
5
17E
100
AcDbEntity
8
1
62
256
6
ByLayer
370
18
48
1
60
0
100
AcDbSpline
70
4
71
2
72
6
73
3
40
0
40
0
40
0
40
1
40
1
40
1
41
1
10
26.9764387986682
20
4.67753488275926
30
0
41
1
10
26.1905137660201
20
4.79794453177286
30
0
41
1
10
25.4060358888491
20
4.9368834421816
30
0
0
SPLINE
5
17F
100
AcDbEntity
8
1
62
256
6
ByLayer
370
18
48
1
60
0
100
AcDbSpline
70
4
71
2
72
6
73
3
40
0
40
0
40
0
40
1
40
1
40
1
41
1
10
11.2492235523771
20
-4.93998321139787
30
0
41
1
10
12.0459874203199
20
-4.79916178621903
30
0
41
1
10
12.8426571529253
20
-4.67119867408766
30
0
0
SPLINE
5
180
100
AcDbEntity
8
1
62
256
6
ByLayer
370
18
48
1
60
0
100
AcDbSpline
70
4
71
2
72
6
73
3
40
0
40
0
40
0
40
1
40
1
40
1
41
1
10
10.6880840189833
20
1.71293929282834
30
0
41
1
10
10.6880842095016
20
1.71301147828518
30
0
41
1
10
10.68808440002
20
1.71308364276462
30
0
0
SPLINE
5
181
100
AcDbEntity
8
1
62
256
6
ByLayer
370
18
48
1
60
0
100
AcDbSpline
70
4
71
2
72
6
73
3
40
0
40
0
40
0
40
1
40
1
40
1
41
1
10
12.8426571529261
20
4.67119867408746
30
0
41
1
10
12.0459066525283
20
4.79801425908062
30
0
41
1
10
11.2492235523772
20
4.93998321139779
30
0
0
SPLINE
5
182
100
AcDbEntity
8
1
62
256
6
ByLayer
370
18
48
1
60
0
100
AcDbSpline
70
4
71
2
72
6
73
3
40
0
40
0
40
0
40
1
40
1
40
1
41
1
10
25.4060358888491
20
-4.9368834421818
30
0
41
1
10
26.1910256490567
20
-4.79779272939371
30
0
41
1
10
26.976438798669
20
-4.67753488275937
30
0
0
SPLINE
5
183
100
AcDbEntity
8
1
62
256
6
ByLayer
370
18
48
1
60
0
100
AcDbSpline
70
4
71
1
72
4
73
2
40
0
40
0
40
1
40
1
41
1
10
24.8334849350281
20
1.71009858031076
30
0
41
1
10
24.8334812918282
20
1.71010796232483
30
0
0
LINE
5
7F
100
AcDbEntity
8
80
62
256
6
ByLayer
370
18
48
1
60
0
100
AcDbLine
10
0
20
0
30
0
11
-5
21
0
31
0
39
0
210
0
220
0
230
1
0
LINE
5
80
100
AcDbEntity
8
SK4
62
256
6
ByLayer
370
18
48
0.05
60
0
100
AcDbLine
10
-40
20
0
30
0
11
32
21
0
31
0
39
0
210
0
220
0
230
1
0
LINE
5
82
100
AcDbEntity
8
81
62
256
6
ByLayer
370
18
48
1
60
0
100
AcDbLine
10
32
20
0
30
0
11
37
21
0
31
0
39
0
210
0
220
0
230
1
0
LINE
5
83
100
AcDbEntity
8
4
62
256
6
ByLayer
370
18
48
0.05
60
0
100
AcDbLine
10
0
20
0
30
0
11
32
21
0
31
0
39
0
210
0
220
0
230
1
0
LINE
5
85
100
AcDbEntity
8
1
62
256
6
ByLayer
370
18
48
1
60
0
100
AcDbLine
10
0
20
5
30
0
11
0
21
0
31
0
39
0
210
0
220
0
230
1
0
LINE
5
86
100
AcDbEntity
8
1
62
256
6
ByLayer
370
18
48
1
60
0
100
AcDbLine
10
0
20
0
30
0
11
0
21
-5
31
0
39
0
210
0
220
0
230
1
0
LINE
5
87
100
AcDbEntity
8
1
62
256
6
ByLayer
370
18
48
1
60
0
100
AcDbLine
10
31.892446
20
-0.803196
30
0
11
31.846099
21
-0.80306
31
0
39
0
210
0
220
0
230
1
0
LINE
5
88
100
AcDbEntity
8
1
62
256
6
ByLayer
370
18
48
1
60
0
100
AcDbLine
10
31.968944
20
-0.19232
30
0
11
31.908323
21
-0.218637
31
0
39
0
210
0
220
0
230
1
0
LINE
5
89
100
AcDbEntity
8
1
62
256
6
ByLayer
370
18
48
1
60
0
100
AcDbLine
10
31.687087
20
1.531228
30
0
11
31.913986
21
1.925906
31
0
39
0
210
0
220
0
230
1
0
LINE
5
8A
100
AcDbEntity
8
1
62
256
6
ByLayer
370
18
48
1
60
0
100
AcDbLine
10
31.968944
20
3.961164
30
0
11
31.913986
21
1.925906
31
0
39
0
210
0
220
0
230
1
0
LINE
5
8B
100
AcDbEntity
8
1
62
256
6
ByLayer
370
18
48
1
60
0
100
AcDbLine
10
31.846099
20
-0.80306
30
0
11
31.653185
21
-1.472291
31
0
39
0
210
0
220
0
230
1
0
LINE
5
8C
100
AcDbEntity
8
1
62
256
6
ByLayer
370
18
48
1
60
0
100
AcDbLine
10
31.908323
20
-0.218637
30
0
11
31.846099
21
-0.80306
31
0
39
0
210
0
220
0
230
1
0
LINE
5
8D
100
AcDbEntity
8
1
62
256
6
ByLayer
370
18
48
1
60
0
100
AcDbLine
10
31.439936
20
-0.334997
30
0
11
31.908323
21
-0.218637
31
0
39
0
210
0
220
0
230
1
0
LINE
5
8E
100
AcDbEntity
8
1
62
256
6
ByLayer
370
18
48
1
60
0
100
AcDbLine
10
31.968944
20
-3.961164
30
0
11
31.913986
21
-1.925906
31
0
39
0
210
0
220
0
230
1
0
LINE
5
8F
100
AcDbEntity
8
1
62
256
6
ByLayer
370
13
48
1
60
0
100
AcDbLine
10
31.379125
20
-4.890666
30
0
11
31.374412
21
-4.88347
31
0
39
0
210
0
220
0
230
1
0
LINE
5
90
100
AcDbEntity
8
1
62
256
6
ByLayer
370
18
48
1
60
0
100
AcDbLine
10
31.892446
20
-3.874103
30
0
11
31.854278
21
-2.381364
31
0
39
0
210
0
220
0
230
1
0
LINE
5
91
100
AcDbEntity
8
1
62
256
6
ByLayer
370
13
48
1
60
0
100
AcDbLine
10
30.972856
20
-0.427824
30
0
11
29.844612
21
-0.167483
31
0
39
0
210
0
220
0
230
1
0
LINE
5
92
100
AcDbEntity
8
1
62
256
6
ByLayer
370
18
48
1
60
0
100
AcDbLine
10
31.854278
20
-2.381364
30
0
11
31.386474
21
-3.061871
31
0
39
0
210
0
220
0
230
1
0
LINE
5
93
100
AcDbEntity
8
1
62
256
6
ByLayer
370
18
48
1
60
0
100
AcDbLine
10
31.913986
20
-1.925906
30
0
11
31.854278
21
-2.381364
31
0
39
0
210
0
220
0
230
1
0
LINE
5
94
100
AcDbEntity
8
1
62
256
6
ByLayer
370
18
48
1
60
0
100
AcDbLine
10
31.400968
20
-1.033536
30
0
11
31.913986
21
-1.925906
31
0
39
0
210
0
220
0
230
1
0
LINE
5
95
100
AcDbEntity
8
1
62
256
6
ByLayer
370
18
48
1
60
0
100
AcDbLine
10
10
20
2.329906
30
0
11
10
21
2.329508
31
0
39
0
210
0
220
0
230
1
0
LINE
5
96
100
AcDbEntity
8
1
62
256
6
ByLayer
370
13
48
1
60
0
100
AcDbLine
10
9.031754
20
-4.46534
30
0
11
9.031754
21
-3.757332
31
0
39
0
210
0
220
0
230
1
0
LINE
5
97
100
AcDbEntity
8
1
62
256
6
ByLayer
370
13
48
1
60
0
100
AcDbLine
10
9.031754
20
1.85112
30
0
11
9.031754
21
3.098682
31
0
39
0
210
0
220
0
230
1
0
LINE
5
98
100
AcDbEntity
8
1
62
256
6
ByLayer
370
13
48
1
60
0
100
AcDbLine
10
31.379125
20
0.604126
30
0
11
31.374412
21
0.642534
31
0
39
0
210
0
220
0
230
1
0
LINE
5
99
100
AcDbEntity
8
1
62
256
6
ByLayer
370
13
48
1
60
0
100
AcDbLine
10
10
20
-3.980116
30
0
11
10
21
-4.214249
31
0
39
0
210
0
220
0
230
1
0
LINE
5
9A
100
AcDbEntity
8
1
62
256
6
ByLayer
370
13
48
1
60
0
100
AcDbLine
10
1.994693
20
-4.75
30
0
11
1.994693
21
0
31
0
39
0
210
0
220
0
230
1
0
LINE
5
9B
100
AcDbEntity
8
1
62
256
6
ByLayer
370
13
48
1
60
0
100
AcDbLine
10
1.994693
20
0
30
0
11
1.994693
21
4.75
31
0
39
0
210
0
220
0
230
1
0
LINE
5
9C
100
AcDbEntity
8
1
62
256
6
ByLayer
370
18
48
1
60
0
100
AcDbLine
10
1.026447
20
5
30
0
11
1.026447
21
0
31
0
39
0
210
0
220
0
230
1
0
LINE
5
9D
100
AcDbEntity
8
1
62
256
6
ByLayer
370
18
48
1
60
0
100
AcDbLine
10
1.026447
20
0
30
0
11
1.026447
21
-5
31
0
39
0
210
0
220
0
230
1
0
LINE
5
9E
100
AcDbEntity
8
1
62
256
6
ByLayer
370
18
48
1
60
0
100
AcDbLine
10
10
20
4.962869
30
0
11
10
21
4.964159
31
0
39
0
210
0
220
0
230
1
0
LINE
5
9F
100
AcDbEntity
8
1
62
256
6
ByLayer
370
13
48
1
60
0
100
AcDbLine
10
10
20
4.962869
30
0
11
10
21
4.613527
31
0
39
0
210
0
220
0
230
1
0
LINE
5
A0
100
AcDbEntity
8
SK1
62
256
6
ByLayer
370
18
48
1
60
0
100
AcDbLine
10
-40
20
-4.4
30
0
11
-40
21
4.4
31
0
39
0
210
0
220
0
230
1
0
LINE
5
A2
100
AcDbEntity
8
SK1
62
256
6
ByLayer
370
18
48
1
60
0
100
AcDbLine
10
0
20
5
30
0
11
0
21
0
31
0
39
0
210
0
220
0
230
1
0
LINE
5
A3
100
AcDbEntity
8
SK1
62
256
6
ByLayer
370
18
48
1
60
0
100
AcDbLine
10
0
20
0
30
0
11
0
21
-5
31
0
39
0
210
0
220
0
230
1
0
LINE
5
A4
100
AcDbEntity
8
SK1
62
256
6
ByLayer
370
18
48
1
60
0
100
AcDbLine
10
-39.4
20
5
30
0
11
-39.4
21
-5
31
0
39
0
210
0
220
0
230
1
0
LINE
5
A5
100
AcDbEntity
8
SK1
62
256
6
ByLayer
370
18
48
1
60
0
100
AcDbLine
10
-25
20
5
30
0
11
-23.5
21
3.5
31
0
39
0
210
0
220
0
230
1
0
LINE
5
A6
100
AcDbEntity
8
SK1
62
256
6
ByLayer
370
18
48
1
60
0
100
AcDbLine
10
-16.5
20
3.5
30
0
11
-15
21
5
31
0
39
0
210
0
220
0
230
1
0
LINE
5
A7
100
AcDbEntity
8
SK1
62
256
6
ByLayer
370
18
48
1
60
0
100
AcDbLine
10
-23.5
20
3.5
30
0
11
-16.5
21
3.5
31
0
39
0
210
0
220
0
230
1
0
LINE
5
A8
100
AcDbEntity
8
1
62
256
6
ByLayer
370
18
48
1
60
0
100
AcDbLine
10
1.026447
20
5
30
0
11
0
21
5
31
0
39
0
210
0
220
0
230
1
0
LINE
5
A9
100
AcDbEntity
8
1
62
256
6
ByLayer
370
18
48
1
60
0
100
AcDbLine
10
0
20
-5
30
0
11
1.026447
21
-5
31
0
39
0
210
0
220
0
230
1
0
LINE
5
AA
100
AcDbEntity
8
1
62
256
6
ByLayer
370
18
48
1
60
0
100
AcDbLine
10
6.870521
20
4.75
30
0
11
1.994693
21
4.75
31
0
39
0
210
0
220
0
230
1
0
LINE
5
AB
100
AcDbEntity
8
1
62
256
6
ByLayer
370
18
48
1
60
0
100
AcDbLine
10
1.994693
20
-4.75
30
0
11
6.870521
21
-4.75
31
0
39
0
210
0
220
0
230
1
0
LINE
5
AC
100
AcDbEntity
8
1
62
256
6
ByLayer
370
18
48
1
60
0
100
AcDbLine
10
24.102997
20
0.910685
30
0
11
24.103013
21
0.910668
31
0
39
0
210
0
220
0
230
1
0
LINE
5
AD
100
AcDbEntity
8
SK1
62
256
6
ByLayer
370
18
48
1
60
0
100
AcDbLine
10
-40
20
-4.4
30
0
11
-39.4
21
-5
31
0
39
0
210
0
220
0
230
1
0
LINE
5
AE
100
AcDbEntity
8
SK1
62
256
6
ByLayer
370
18
48
1
60
0
100
AcDbLine
10
-39.4
20
5
30
0
11
-40
21
4.4
31
0
39
0
210
0
220
0
230
1
0
LINE
5
AF
100
AcDbEntity
8
SK1
62
256
6
ByLayer
370
18
48
1
60
0
100
AcDbLine
10
0
20
5
30
0
11
-15
21
5
31
0
39
0
210
0
220
0
230
1
0
LINE
5
B0
100
AcDbEntity
8
SK1
62
256
6
ByLayer
370
18
48
1
60
0
100
AcDbLine
10
-25
20
5
30
0
11
-39.4
21
5
31
0
39
0
210
0
220
0
230
1
0
LINE
5
B1
100
AcDbEntity
8
SK1
62
256
6
ByLayer
370
18
48
1
60
0
100
AcDbLine
10
-39.4
20
-5
30
0
11
0
21
-5
31
0
39
0
210
0
220
0
230
1
0
LINE
5
B2
100
AcDbEntity
8
SK2
62
256
6
ByLayer
370
13
48
1
60
0
100
AcDbLine
10
-68.25
20
-6.028033
30
0
11
-68.25
21
6.028033
31
0
39
0
210
0
220
0
230
1
0
LINE
5
B4
100
AcDbEntity
8
SK2
62
256
6
ByLayer
370
13
48
1
60
0
100
AcDbLine
10
-41.5875
20
-5
30
0
11
-70.25
21
-5
31
0
39
0
210
0
220
0
230
1
0
LINE
5
B5
100
AcDbEntity
8
SK2
62
256
6
ByLayer
370
13
48
1
60
0
100
AcDbLine
10
-41.5875
20
5
30
0
11
-70.25
21
5
31
0
39
0
210
0
220
0
230
1
0
LINE
5
B6
100
AcDbEntity
8
1
62
256
6
ByLayer
370
18
48
1
60
1
100
AcDbLine
10
-68.25
20
-5
30
0
11
-68.710784
21
-1.500002
31
0
39
0
210
0
220
0
230
1
0
LINE
5
B7
100
AcDbEntity
8
1
62
256
6
ByLayer
370
18
48
1
60
1
100
AcDbLine
10
-68.710784
20
-1.500002
30
0
11
-67.789216
21
-1.499998
31
0
39
0
210
0
220
0
230
1
0
LINE
5
B8
100
AcDbEntity
8
1
62
256
6
ByLayer
370
18
48
1
60
1
100
AcDbLine
10
-67.789216
20
-1.499998
30
0
11
-68.25
21
-5
31
0
39
0
210
0
220
0
230
1
0
LINE
5
B9
100
AcDbEntity
8
1
62
256
6
ByLayer
370
18
48
1
60
1
100
AcDbLine
10
-68.25
20
5
30
0
11
-67.789216
21
1.500002
31
0
39
0
210
0
220
0
230
1
0
LINE
5
BA
100
AcDbEntity
8
1
62
256
6
ByLayer
370
18
48
1
60
1
100
AcDbLine
10
-67.789216
20
1.500002
30
0
11
-68.710784
21
1.499998
31
0
39
0
210
0
220
0
230
1
0
LINE
5
BB
100
AcDbEntity
8
1
62
256
6
ByLayer
370
18
48
1
60
1
100
AcDbLine
10
-68.710784
20
1.499998
30
0
11
-68.25
21
5
31
0
39
0
210
0
220
0
230
1
0
LINE
5
BC
100
AcDbEntity
8
SK2
62
256
6
ByLayer
370
13
48
1
60
0
100
AcDbLine
10
1.75
20
-7.174466
30
0
11
1.75
21
7.174466
31
0
39
0
210
0
220
0
230
1
0
LINE
5
BD
100
AcDbEntity
8
SK2
62
256
6
ByLayer
370
13
48
1
60
0
100
AcDbLine
10
8.4125
20
-4.75
30
0
11
-0.25
21
-4.75
31
0
39
0
210
0
220
0
230
1
0
LINE
5
BE
100
AcDbEntity
8
SK2
62
256
6
ByLayer
370
13
48
1
60
0
100
AcDbLine
10
8.4125
20
4.75
30
0
11
-0.25
21
4.75
31
0
39
0
210
0
220
0
230
1
0
LINE
5
BF
100
AcDbEntity
8
1
62
256
6
ByLayer
370
18
48
1
60
1
100
AcDbLine
10
1.75
20
-4.75
30
0
11
1.289216
21
-1.250002
31
0
39
0
210
0
220
0
230
1
0
LINE
5
C0
100
AcDbEntity
8
1
62
256
6
ByLayer
370
18
48
1
60
1
100
AcDbLine
10
1.289216
20
-1.250002
30
0
11
2.210784
21
-1.249998
31
0
39
0
210
0
220
0
230
1
0
LINE
5
C1
100
AcDbEntity
8
1
62
256
6
ByLayer
370
18
48
1
60
1
100
AcDbLine
10
2.210784
20
-1.249998
30
0
11
1.75
21
-4.75
31
0
39
0
210
0
220
0
230
1
0
LINE
5
C2
100
AcDbEntity
8
1
62
256
6
ByLayer
370
18
48
1
60
1
100
AcDbLine
10
1.75
20
4.75
30
0
11
2.210784
21
1.250002
31
0
39
0
210
0
220
0
230
1
0
LINE
5
C3
100
AcDbEntity
8
1
62
256
6
ByLayer
370
18
48
1
60
1
100
AcDbLine
10
2.210784
20
1.250002
30
0
11
1.289216
21
1.249998
31
0
39
0
210
0
220
0
230
1
0
LINE
5
C4
100
AcDbEntity
8
1
62
256
6
ByLayer
370
18
48
1
60
1
100
AcDbLine
10
1.289216
20
1.249998
30
0
11
1.75
21
4.75
31
0
39
0
210
0
220
0
230
1
0
LINE
5
C5
100
AcDbEntity
8
2
62
256
6
ByLayer
370
13
48
1
60
0
100
AcDbLine
10
49
20
-6.028033
30
0
11
49
21
6.028033
31
0
39
0
210
0
220
0
230
1
0
LINE
5
C7
100
AcDbEntity
8
2
62
256
6
ByLayer
370
13
48
1
60
0
100
AcDbLine
10
33.5875
20
-5
30
0
11
51
21
-5
31
0
39
0
210
0
220
0
230
1
0
LINE
5
C8
100
AcDbEntity
8
2
62
256
6
ByLayer
370
13
48
1
60
0
100
AcDbLine
10
33.5875
20
5
30
0
11
51
21
5
31
0
39
0
210
0
220
0
230
1
0
LINE
5
C9
100
AcDbEntity
8
1
62
256
6
ByLayer
370
18
48
1
60
1
100
AcDbLine
10
49
20
-5
30
0
11
48.539216
21
-1.500002
31
0
39
0
210
0
220
0
230
1
0
LINE
5
CA
100
AcDbEntity
8
1
62
256
6
ByLayer
370
18
48
1
60
1
100
AcDbLine
10
48.539216
20
-1.500002
30
0
11
49.460784
21
-1.499998
31
0
39
0
210
0
220
0
230
1
0
LINE
5
CB
100
AcDbEntity
8
1
62
256
6
ByLayer
370
18
48
1
60
1
100
AcDbLine
10
49.460784
20
-1.499998
30
0
11
49
21
-5
31
0
39
0
210
0
220
0
230
1
0
LINE
5
CC
100
AcDbEntity
8
1
62
256
6
ByLayer
370
18
48
1
60
1
100
AcDbLine
10
49
20
5
30
0
11
49.460784
21
1.500002
31
0
39
0
210
0
220
0
230
1
0
LINE
5
CD
100
AcDbEntity
8
1
62
256
6
ByLayer
370
18
48
1
60
1
100
AcDbLine
10
49.460784
20
1.500002
30
0
11
48.539216
21
1.499998
31
0
39
0
210
0
220
0
230
1
0
LINE
5
CE
100
AcDbEntity
8
1
62
256
6
ByLayer
370
18
48
1
60
1
100
AcDbLine
10
48.539216
20
1.499998
30
0
11
49
21
5
31
0
39
0
210
0
220
0
230
1
0
LINE
5
188
100
AcDbEntity
8
1
62
256
6
ByLayer
370
18
48
1
60
1
100
AcDbLine
10
-68.25
20
-5
30
0
11
-68.710784
21
-1.500002
31
0
39
0
210
0
220
0
230
1
0
LINE
5
189
100
AcDbEntity
8
1
62
256
6
ByLayer
370
18
48
1
60
1
100
AcDbLine
10
-68.710784
20
-1.500002
30
0
11
-67.789216
21
-1.499998
31
0
39
0
210
0
220
0
230
1
0
LINE
5
18A
100
AcDbEntity
8
1
62
256
6
ByLayer
370
18
48
1
60
1
100
AcDbLine
10
-67.789216
20
-1.499998
30
0
11
-68.25
21
-5
31
0
39
0
210
0
220
0
230
1
0
LINE
5
18C
100
AcDbEntity
8
1
62
256
6
ByLayer
370
18
48
1
60
1
100
AcDbLine
10
-68.25
20
5
30
0
11
-67.789216
21
1.500002
31
0
39
0
210
0
220
0
230
1
0
LINE
5
18D
100
AcDbEntity
8
1
62
256
6
ByLayer
370
18
48
1
60
1
100
AcDbLine
10
-67.789216
20
1.500002
30
0
11
-68.710784
21
1.499998
31
0
39
0
210
0
220
0
230
1
0
LINE
5
18E
100
AcDbEntity
8
1
62
256
6
ByLayer
370
18
48
1
60
1
100
AcDbLine
10
-68.710784
20
1.499998
30
0
11
-68.25
21
5
31
0
39
0
210
0
220
0
230
1
0
LINE
5
192
100
AcDbEntity
8
1
62
256
6
ByLayer
370
18
48
1
60
1
100
AcDbLine
10
1.75
20
-4.75
30
0
11
1.289216
21
-1.250002
31
0
39
0
210
0
220
0
230
1
0
LINE
5
193
100
AcDbEntity
8
1
62
256
6
ByLayer
370
18
48
1
60
1
100
AcDbLine
10
1.289216
20
-1.250002
30
0
11
2.210784
21
-1.249998
31
0
39
0
210
0
220
0
230
1
0
LINE
5
194
100
AcDbEntity
8
1
62
256
6
ByLayer
370
18
48
1
60
1
100
AcDbLine
10
2.210784
20
-1.249998
30
0
11
1.75
21
-4.75
31
0
39
0
210
0
220
0
230
1
0
LINE
5
196
100
AcDbEntity
8
1
62
256
6
ByLayer
370
18
48
1
60
1
100
AcDbLine
10
1.75
20
4.75
30
0
11
2.210784
21
1.250002
31
0
39
0
210
0
220
0
230
1
0
LINE
5
197
100
AcDbEntity
8
1
62
256
6
ByLayer
370
18
48
1
60
1
100
AcDbLine
10
2.210784
20
1.250002
30
0
11
1.289216
21
1.249998
31
0
39
0
210
0
220
0
230
1
0
LINE
5
198
100
AcDbEntity
8
1
62
256
6
ByLayer
370
18
48
1
60
1
100
AcDbLine
10
1.289216
20
1.249998
30
0
11
1.75
21
4.75
31
0
39
0
210
0
220
0
230
1
0
LINE
5
19C
100
AcDbEntity
8
1
62
256
6
ByLayer
370
18
48
1
60
1
100
AcDbLine
10
49
20
-5
30
0
11
48.539216
21
-1.500002
31
0
39
0
210
0
220
0
230
1
0
LINE
5
19D
100
AcDbEntity
8
1
62
256
6
ByLayer
370
18
48
1
60
1
100
AcDbLine
10
48.539216
20
-1.500002
30
0
11
49.460784
21
-1.499998
31
0
39
0
210
0
220
0
230
1
0
LINE
5
19E
100
AcDbEntity
8
1
62
256
6
ByLayer
370
18
48
1
60
1
100
AcDbLine
10
49.460784
20
-1.499998
30
0
11
49
21
-5
31
0
39
0
210
0
220
0
230
1
0
LINE
5
1A0
100
AcDbEntity
8
1
62
256
6
ByLayer
370
18
48
1
60
1
100
AcDbLine
10
49
20
5
30
0
11
49.460784
21
1.500002
31
0
39
0
210
0
220
0
230
1
0
LINE
5
1A1
100
AcDbEntity
8
1
62
256
6
ByLayer
370
18
48
1
60
1
100
AcDbLine
10
49.460784
20
1.500002
30
0
11
48.539216
21
1.499998
31
0
39
0
210
0
220
0
230
1
0
LINE
5
1A2
100
AcDbEntity
8
1
62
256
6
ByLayer
370
18
48
1
60
1
100
AcDbLine
10
48.539216
20
1.499998
30
0
11
49
21
5
31
0
39
0
210
0
220
0
230
1
0
MTEXT
5
184
100
AcDbEntity
8
SK2
62
256
6
ByLayer
370
18
48
1
60
0
100
AcDbMText
10
-69.814634
20
-4.093189
30
0
210
0
220
0
230
1
1
%%c
40
3.5
41
0
44
1.084337
50
90
71
7
72
5
7
iso_b_vert
0
MTEXT
5
187
100
AcDbEntity
8
SK2
62
256
6
ByLayer
370
18
48
1
60
0
100
AcDbMText
10
-69.814634
20
2.879467
30
0
210
0
220
0
230
1
1
\W0.5321;10
40
3.5
41
0
44
1.084337
50
90
71
7
72
5
7
iso_b_vert
0
MTEXT
5
190
100
AcDbEntity
8
SK2
62
256
6
ByLayer
370
18
48
1
60
0
100
AcDbMText
10
0.185366
20
-5.239622
30
0
210
0
220
0
230
1
1
%%c
40
3.5
41
0
44
1.084337
50
90
71
7
72
5
7
iso_b_vert
0
MTEXT
5
191
100
AcDbEntity
8
SK2
62
256
6
ByLayer
370
18
48
1
60
0
100
AcDbMText
10
0.185366
20
1.733034
30
0
210
0
220
0
230
1
1
\W0.7121;9.5
40
3.5
41
0
44
1.084337
50
90
71
7
72
5
7
iso_b_vert
0
MTEXT
5
19A
100
AcDbEntity
8
2
62
256
6
ByLayer
370
18
48
1
60
0
100
AcDbMText
10
47.435366
20
-4.093189
30
0
210
0
220
0
230
1
1
%%c
40
3.5
41
0
44
1.084337
50
90
71
7
72
5
7
iso_b_vert
0
MTEXT
5
19B
100
AcDbEntity
8
2
62
256
6
ByLayer
370
18
48
1
60
0
100
AcDbMText
10
47.435366
20
2.879467
30
0
210
0
220
0
230
1
1
\W0.5321;10
40
3.5
41
0
44
1.084337
50
90
71
7
72
5
7
iso_b_vert
0
MTEXT
5
1A4
100
AcDbEntity
8
SK6
62
256
6
ByLayer
370
18
48
1
60
0
100
AcDbMText
10
-29.379045
20
-62.153486
30
0
210
0
220
0
230
1
1
\W0.7341;2F440-1000-100ASD   1725
40
3
41
0
44
1.084337
50
0
71
7
72
5
7
iso_b_vert
0
HATCH
5
18B
100
AcDbEntity
8
SK2
62
256
6
ByLayer
370
13
48
1
60
0
100
AcDbHatch
10
0
20
0
30
0
210
0
220
0
230
1
2
ANSI31
70
0
71
0
91
1
92
5
93
3
72
1
10
-68.25
20
-4.99999999999986
11
-68.7107837415527
21
-1.50000169255304
72
1
10
-68.7107837415527
20
-1.50000169255304
11
-67.7892162584472
21
-1.49999830744667
72
1
10
-67.7892162584472
20
-1.49999830744667
11
-68.25
21
-4.99999999999986
97
0
75
0
76
1
52
0
41
0.0062
77
0
78
1
53
45
43
0
44
0
45
-0.0139193969876572
46
0.0139193969876572
79
0
47
0
98
1
10
0
20
0
0
HATCH
5
18F
100
AcDbEntity
8
SK2
62
256
6
ByLayer
370
13
48
1
60
0
100
AcDbHatch
10
0
20
0
30
0
210
0
220
0
230
1
2
ANSI31
70
0
71
0
91
1
92
5
93
3
72
1
10
-68.25
20
5.00000000000014
11
-67.7892162584472
21
1.50000169255333
72
1
10
-67.7892162584472
20
1.50000169255333
11
-68.7107837415527
21
1.49999830744696
72
1
10
-68.7107837415527
20
1.49999830744696
11
-68.25
21
5.00000000000014
97
0
75
0
76
1
52
0
41
0.0062
77
0
78
1
53
45
43
0
44
0
45
-0.0139193969876572
46
0.0139193969876572
79
0
47
0
98
1
10
0
20
0
0
HATCH
5
195
100
AcDbEntity
8
SK2
62
256
6
ByLayer
370
13
48
1
60
0
100
AcDbHatch
10
0
20
0
30
0
210
0
220
0
230
1
2
ANSI31
70
0
71
0
91
1
92
5
93
3
72
1
10
1.75000000000003
20
-4.75000000000006
11
1.28921625844725
21
-1.25000169255324
72
1
10
1.28921625844725
20
-1.25000169255324
11
2.2107837415528
21
-1.24999830744687
72
1
10
2.2107837415528
20
-1.24999830744687
11
1.75000000000003
21
-4.75000000000006
97
0
75
0
76
1
52
0
41
0.0062
77
0
78
1
53
45
43
0
44
0
45
-0.0139193969876572
46
0.0139193969876572
79
0
47
0
98
1
10
0
20
0
0
HATCH
5
199
100
AcDbEntity
8
SK2
62
256
6
ByLayer
370
13
48
1
60
0
100
AcDbHatch
10
0
20
0
30
0
210
0
220
0
230
1
2
ANSI31
70
0
71
0
91
1
92
5
93
3
72
1
10
1.75000000000003
20
4.74999999999994
11
2.2107837415528
21
1.25000169255313
72
1
10
2.2107837415528
20
1.25000169255313
11
1.28921625844725
21
1.24999830744676
72
1
10
1.28921625844725
20
1.24999830744676
11
1.75000000000003
21
4.74999999999994
97
0
75
0
76
1
52
0
41
0.0062
77
0
78
1
53
45
43
0
44
0
45
-0.0139193969876572
46
0.0139193969876572
79
0
47
0
98
1
10
0
20
0
0
HATCH
5
19F
100
AcDbEntity
8
2
62
256
6
ByLayer
370
13
48
1
60
0
100
AcDbHatch
10
0
20
0
30
0
210
0
220
0
230
1
2
ANSI31
70
0
71
0
91
1
92
5
93
3
72
1
10
49
20
-5.00000000000014
11
48.5392162584472
21
-1.50000169255333
72
1
10
48.5392162584472
20
-1.50000169255333
11
49.4607837415528
21
-1.49999830744696
72
1
10
49.4607837415528
20
-1.49999830744696
11
49
21
-5.00000000000014
97
0
75
0
76
1
52
0
41
0.0062
77
0
78
1
53
45
43
0
44
0
45
-0.0139193969876572
46
0.0139193969876572
79
0
47
0
98
1
10
0
20
0
0
HATCH
5
1A3
100
AcDbEntity
8
2
62
256
6
ByLayer
370
13
48
1
60
0
100
AcDbHatch
10
0
20
0
30
0
210
0
220
0
230
1
2
ANSI31
70
0
71
0
91
1
92
5
93
3
72
1
10
49
20
4.99999999999986
11
49.4607837415528
21
1.50000169255304
72
1
10
49.4607837415528
20
1.50000169255304
11
48.5392162584472
21
1.49999830744667
72
1
10
48.5392162584472
20
1.49999830744667
11
49
21
4.99999999999986
97
0
75
0
76
1
52
0
41
0.0062
77
0
78
1
53
45
43
0
44
0
45
-0.0139193969876572
46
0.0139193969876572
79
0
47
0
98
1
10
0
20
0
0
DIMENSION
5
1A7
100
AcDbEntity
8
SK2
62
256
6
ByLayer
370
18
48
1
60
0
100
AcDbDimension
2
_U0
10
10
20
-14.222361
30
0
11
21
21
-14.222361
31
0
70
32
71
1
72
1
41
1
210
0
220
0
230
1
3
Standard
100
AcDbAlignedDimension
13
32
23
-5
33
0
14
10
24
-5
34
0
50
0
100
AcDbRotatedDimension
1001
ACAD
1000
DSTYLE
1002
{
1070
   371
1070
    13
1070
   372
1070
    13
1070
   170
1070
     0
1070
   144
1040
1.0
1070
   277
1070
     2
1070
   284
1070
     8
1070
   278
1070
    46
1070
   146
1040
1.0
1070
   345
1005
16
1070
   347
1005
16
1070
   346
1005
16
1070
   344
1005
0
1070
   343
1005
0
1070
   172
1070
     1
1070
    76
1070
     0
1070
    75
1070
     0
1070
   282
1070
     0
1070
   281
1070
     0
1070
    71
1070
     0
1070
    74
1070
     0
1070
   279
1070
     0
1070
   173
1070
     1
1070
   340
1005
185
1070
   271
1070
     2
1070
   272
1070
     2
1070
    77
1070
     1
1070
    73
1070
     1
1070
   171
1070
     3
1070
   274
1070
     4
1070
   177
1070
     2
1070
   176
1070
     2
1070
   178
1070
     2
1070
    78
1070
     8
1070
    48
1040
-0.1
1070
    41
1040
3.5
1070
   147
1040
1.75
1070
    42
1040
1.5875
1070
    44
1040
2.0
1070
   140
1040
3.5
1002
}
1001
ACAD_DSTYLE_DIM_LINETYPE
1070
   380
1005
16
1001
ACAD_DSTYLE_DIM_EXT1_LINETYPE
1070
   381
1005
16
1001
ACAD_DSTYLE_DIM_EXT2_LINETYPE
1070
   382
1005
16
0
DIMENSION
5
1C0
100
AcDbEntity
8
SK2
62
256
6
ByLayer
370
18
48
1
60
0
100
AcDbDimension
2
_U1
10
2
20
-27.222361
30
0
11
17
21
-27.222361
31
0
70
32
71
1
72
1
41
1
210
0
220
0
230
1
3
Standard
100
AcDbAlignedDimension
13
32
23
-5
33
0
14
2
24
-5
34
0
50
0
100
AcDbRotatedDimension
1001
ACAD
1000
DSTYLE
1002
{
1070
   371
1070
    13
1070
   372
1070
    13
1070
   170
1070
     0
1070
   144
1040
1.0
1070
   277
1070
     2
1070
   284
1070
     8
1070
   278
1070
    46
1070
   146
1040
1.0
1070
   345
1005
16
1070
   347
1005
16
1070
   346
1005
16
1070
   344
1005
0
1070
   343
1005
0
1070
   172
1070
     1
1070
    76
1070
     0
1070
    75
1070
     0
1070
   282
1070
     0
1070
   281
1070
     0
1070
    71
1070
     0
1070
    74
1070
     0
1070
   279
1070
     0
1070
   173
1070
     1
1070
   340
1005
185
1070
   271
1070
     2
1070
   272
1070
     2
1070
    77
1070
     1
1070
    73
1070
     1
1070
   171
1070
     3
1070
   274
1070
     4
1070
   177
1070
     2
1070
   176
1070
     2
1070
   178
1070
     2
1070
    78
1070
     8
1070
    48
1040
-0.1
1070
    41
1040
3.5
1070
   147
1040
1.75
1070
    42
1040
1.5875
1070
    44
1040
2.0
1070
   140
1040
3.5
1002
}
1001
ACAD_DSTYLE_DIM_LINETYPE
1070
   380
1005
16
1001
ACAD_DSTYLE_DIM_EXT1_LINETYPE
1070
   381
1005
16
1001
ACAD_DSTYLE_DIM_EXT2_LINETYPE
1070
   382
1005
16
0
DIMENSION
5
1D8
100
AcDbEntity
8
SK2
62
256
6
ByLayer
370
18
48
1
60
0
100
AcDbDimension
2
_U2
10
22
20
15.645161
30
0
11
27
21
15.645161
31
0
70
32
71
1
72
1
41
1
210
0
220
0
230
1
3
Standard
100
AcDbAlignedDimension
13
32
23
5
33
0
14
22
24
5
34
0
50
0
100
AcDbRotatedDimension
1001
ACAD
1000
DSTYLE
1002
{
1070
   371
1070
    13
1070
   372
1070
    13
1070
   170
1070
     0
1070
   144
1040
1.0
1070
   277
1070
     2
1070
   284
1070
     8
1070
   278
1070
    46
1070
   146
1040
1.0
1070
   345
1005
16
1070
   347
1005
16
1070
   346
1005
16
1070
   344
1005
0
1070
   343
1005
0
1070
   172
1070
     1
1070
    76
1070
     0
1070
    75
1070
     0
1070
   282
1070
     0
1070
   281
1070
     0
1070
    47
1040
1.0
1070
    72
1070
     0
1070
    71
1070
     1
1070
    74
1070
     0
1070
   279
1070
     0
1070
   173
1070
     1
1070
   340
1005
185
1070
   271
1070
     2
1070
   272
1070
     2
1070
    77
1070
     1
1070
    73
1070
     1
1070
   171
1070
     3
1070
   274
1070
     4
1070
   177
1070
     2
1070
   176
1070
     2
1070
   178
1070
     2
1070
    78
1070
     8
1070
    48
1040
1.0
1070
    41
1040
3.5
1070
   147
1040
1.75
1070
    42
1040
1.5875
1070
    44
1040
2.0
1070
   140
1040
3.5
1002
}
1001
ACAD_DSTYLE_DIM_LINETYPE
1070
   380
1005
16
1001
ACAD_DSTYLE_DIM_EXT1_LINETYPE
1070
   381
1005
16
1001
ACAD_DSTYLE_DIM_EXT2_LINETYPE
1070
   382
1005
16
0
DIMENSION
5
1F2
100
AcDbEntity
8
2
62
256
6
ByLayer
370
18
48
1
60
0
100
AcDbDimension
2
_U3
10
32
20
-39.222361
30
0
11
-4
21
-39.222361
31
0
70
32
71
1
72
1
41
1
210
0
220
0
230
1
3
Standard
100
AcDbAlignedDimension
13
-40
23
-5
33
0
14
32
24
-5
34
0
50
0
100
AcDbRotatedDimension
1001
ACAD
1000
DSTYLE
1002
{
1070
   371
1070
    13
1070
   372
1070
    13
1070
   170
1070
     0
1070
   144
1040
1.0
1070
   277
1070
     2
1070
   284
1070
     8
1070
   278
1070
    46
1070
   146
1040
1.0
1070
   345
1005
16
1070
   347
1005
16
1070
   346
1005
16
1070
   344
1005
0
1070
   343
1005
0
1070
   172
1070
     1
1070
    76
1070
     0
1070
    75
1070
     0
1070
   282
1070
     0
1070
   281
1070
     0
1070
    71
1070
     0
1070
    74
1070
     0
1070
   279
1070
     0
1070
   173
1070
     1
1070
   340
1005
185
1070
   271
1070
     2
1070
   272
1070
     2
1070
    77
1070
     1
1070
    73
1070
     1
1070
   171
1070
     3
1070
   274
1070
     4
1070
   177
1070
     2
1070
   176
1070
     2
1070
   178
1070
     2
1070
    78
1070
     8
1070
    48
1040
-0.1
1070
    41
1040
3.5
1070
   147
1040
1.75
1070
    42
1040
1.5875
1070
    44
1040
2.0
1070
   140
1040
3.5
1002
}
1001
ACAD_DSTYLE_DIM_LINETYPE
1070
   380
1005
16
1001
ACAD_DSTYLE_DIM_EXT1_LINETYPE
1070
   381
1005
16
1001
ACAD_DSTYLE_DIM_EXT2_LINETYPE
1070
   382
1005
16
0
ENDSEC
0
SECTION
2
OBJECTS
0
DICTIONARY
5
27a
330
0
100
AcDbDictionary
280
0
281
1
3
ACAD_GROUP
350
27b
3
ACAD_MLINESTYLE
350
27c
0
DICTIONARY
5
27b
330
0
100
AcDbDictionary
280
0
281
1
0
DICTIONARY
5
27c
330
0
100
AcDbDictionary
280
0
281
1
3
Standard
350
18
0
MLINESTYLE
5
18
330
27c
100
AcDbMlineStyle
2
Standard
70
0
3

62
256
51
90
52
90
71
2
49
-0.5
62
256
6
ByLayer
49
0.5
62
256
6
ByLayer
0
RASTERVARIABLES
5
268
330

100
AcDbRasterVariables
90
0
70
1
71
1
72
1
0
ENDSEC
0
EOF
