0
SECTION
2
HEADER
9
$ACADVER
1
AC1015
9
$DWGCODEPAGE
3
ANSI_1252
9
$HANDSEED
5
26f
9
$ANGBASE
50
0
9
$ANGDIR
70
0
9
$ATTMODE
70
1
9
$AUNITS
70
0
9
$AUPREC
70
0
9
$CECOLOR
62
256
9
$CELTSCALE
40
1
9
$CELTYPE
6
ByLayer
9
$CELWEIGHT
370
18
9
$CLAYER
8
0
9
$CMLJUST
70
0
9
$CMLSCALE
40
1
9
$CMLSTYLE
2
Standard
9
$DIMSTYLE
2
Standard
9
$TEXTSIZE
40
0.2
9
$TEXTSTYLE
7
Standard
9
$LUNITS
70
2
9
$LUPREC
70
4
9
$EXTNAMES
290
1
9
$INSUNITS
70
4
9
$LTSCALE
40
1
9
$LWDISPLAY
290
1
9
$PDMODE
70
0
9
$PDSIZE
40
0
9
$PLINEGEN
70
0
0
ENDSEC
0
SECTION
2
CLASSES
0
CLASS
1
RASTERVARIABLES
2
AcDbRasterVariables
3
ISM
90
0
280
0
281
0
0
ENDSEC
0
SECTION
2
TABLES
0
TABLE
2
VPORT
5
265
100
AcDbSymbolTable
0
VPORT
5
1
100
AcDbSymbolTableRecord
100
AcDbViewportTableRecord
2
*Active
70
0
10
0
20
0
11
1
21
1
12
-1
22
1
13
0
23
0
14
0.5
24
0.5
15
10
25
10
16
0
26
0
36
1
17
0
27
0
37
0
0
ENDTAB
0
TABLE
2
LTYPE
5
266
100
AcDbSymbolTable
0
LTYPE
5
14
100
AcDbSymbolTableRecord
100
AcDbLinetypeTableRecord
70
0
2
ByBlock
3

72
65
73
0
40
0
0
LTYPE
5
15
100
AcDbSymbolTableRecord
100
AcDbLinetypeTableRecord
70
0
2
ByLayer
3

72
65
73
0
40
0
0
LTYPE
5
16
100
AcDbSymbolTableRecord
100
AcDbLinetypeTableRecord
70
0
2
Continuous
3
Solid line
72
65
73
0
40
0
0
LTYPE
5
6E
100
AcDbSymbolTableRecord
100
AcDbLinetypeTableRecord
70
0
2
CENTER
3
____ _ ____ _ ____ _ ____
72
65
73
4
40
47.5
49
22
74
0
49
-8.5
74
0
49
8.5
74
0
49
-8.5
74
0
0
LTYPE
5
6F
100
AcDbSymbolTableRecord
100
AcDbLinetypeTableRecord
70
0
2
DASHED
3
__ __ __ __ __ __ __ __ __
72
65
73
2
40
25.72
49
12.86
74
0
49
-12.86
74
0
0
ENDTAB
0
TABLE
2
LAYER
5
267
100
AcDbSymbolTable
0
LAYER
5
10
100
AcDbSymbolTableRecord
100
AcDbLayerTableRecord
2
0
70
0
62
7
6
Continuous
290
1
370
-3
390
0
0
LAYER
5
71
100
AcDbSymbolTableRecord
100
AcDbLayerTableRecord
2
81
70
0
62
-3
6
Continuous
290
1
370
-3
390
0
0
LAYER
5
73
100
AcDbSymbolTableRecord
100
AcDbLayerTableRecord
2
80
70
0
62
-6
6
Continuous
290
1
370
-3
390
0
0
LAYER
5
77
100
AcDbSymbolTableRecord
100
AcDbLayerTableRecord
2
1
70
0
62
4
6
Continuous
290
1
370
-3
390
0
0
LAYER
5
81
100
AcDbSymbolTableRecord
100
AcDbLayerTableRecord
2
4
70
0
62
-2
6
CENTER
290
1
370
-3
390
0
0
LAYER
5
D0
100
AcDbSymbolTableRecord
100
AcDbLayerTableRecord
2
2
70
0
62
7
6
Continuous
290
1
370
-3
390
0
0
LAYER
5
193
100
AcDbSymbolTableRecord
100
AcDbLayerTableRecord
2
Defpoints
70
0
62
7
6
Continuous
290
0
370
-3
390
0
0
LAYER
5
251
100
AcDbSymbolTableRecord
100
AcDbLayerTableRecord
2
SK4
70
0
62
2
6
CENTER
290
1
370
-3
390
0
0
LAYER
5
252
100
AcDbSymbolTableRecord
100
AcDbLayerTableRecord
2
SK1
70
0
62
4
6
Continuous
290
1
370
-3
390
0
0
LAYER
5
253
100
AcDbSymbolTableRecord
100
AcDbLayerTableRecord
2
SK2
70
0
62
7
6
Continuous
290
1
370
-3
390
0
0
LAYER
5
254
100
AcDbSymbolTableRecord
100
AcDbLayerTableRecord
2
SK6
70
0
62
5
6
Continuous
290
1
370
-3
390
0
0
ENDTAB
0
TABLE
2
STYLE
5
268
100
AcDbSymbolTable
0
STYLE
5
11
100
AcDbSymbolTableRecord
100
AcDbTextStyleTableRecord
2
Standard
3
txt
70
0
71
0
40
0
41
1
42
0
50
0
0
STYLE
5
16E
100
AcDbSymbolTableRecord
100
AcDbTextStyleTableRecord
2
iso_b_vert
3
simplex.shx
70
0
71
0
40
0
41
1
42
0
50
0
0
STYLE
5
16F
100
AcDbSymbolTableRecord
100
AcDbTextStyleTableRecord
2
DWGDirectTextStyle
3
simplex
70
0
71
0
40
0
41
1
42
0
50
0
0
ENDTAB
0
TABLE
2
DIMSTYLE
5
269
100
AcDbSymbolTable
100
AcDbDimStyleTable
0
DIMSTYLE
105
27
100
AcDbSymbolTableRecord
100
AcDbDimStyleTableRecord
2
Standard
70
0
3
<>
41
0.18
42
0.0625
44
0.18
140
0.18
147
0.09
73
0
74
0
77
1
271
2
275
0
278
52
280
0
340
11
0
ENDTAB
0
TABLE
2
VIEW
5
26a
100
AcDbSymbolTable
0
ENDTAB
0
TABLE
2
UCS
5
26b
100
AcDbSymbolTable
0
ENDTAB
0
TABLE
2
APPID
5
26c
100
AcDbSymbolTable
0
APPID
5
12
100
AcDbSymbolTableRecord
100
AcDbRegAppTableRecord
2
ACAD
70
0
0
APPID
5
18F
100
AcDbSymbolTableRecord
100
AcDbRegAppTableRecord
2
ACAD_DSTYLE_DIMBREAK
70
0
0
APPID
5
210
100
AcDbSymbolTableRecord
100
AcDbRegAppTableRecord
2
ACAD_DSTYLE_DIM_LINETYPE
70
0
0
APPID
5
211
100
AcDbSymbolTableRecord
100
AcDbRegAppTableRecord
2
ACAD_DSTYLE_DIM_EXT1_LINETYPE
70
0
0
APPID
5
212
100
AcDbSymbolTableRecord
100
AcDbRegAppTableRecord
2
ACAD_DSTYLE_DIM_EXT2_LINETYPE
70
0
0
APPID
5
24D
100
AcDbSymbolTableRecord
100
AcDbRegAppTableRecord
2
ACAD_MLEADERVER
70
0
0
ENDTAB
0
TABLE
2
BLOCK_RECORD
5
26d
100
AcDbSymbolTable
0
BLOCK_RECORD
5
1F
100
AcDbSymbolTableRecord
100
AcDbBlockTableRecord
2
*Model_Space
340
0
70
0
0
BLOCK_RECORD
5
1B
100
AcDbSymbolTableRecord
100
AcDbBlockTableRecord
2
*Paper_Space
340
0
70
0
0
BLOCK_RECORD
5
23
100
AcDbSymbolTableRecord
100
AcDbBlockTableRecord
2
*Paper_Space0
340
0
70
0
0
BLOCK_RECORD
5
194
100
AcDbSymbolTableRecord
100
AcDbBlockTableRecord
2
*D1
340
0
70
0
0
BLOCK_RECORD
5
1A0
100
AcDbSymbolTableRecord
100
AcDbBlockTableRecord
2
_U0
340
0
70
0
0
BLOCK_RECORD
5
1AC
100
AcDbSymbolTableRecord
100
AcDbBlockTableRecord
2
*D3
340
0
70
0
0
BLOCK_RECORD
5
1B8
100
AcDbSymbolTableRecord
100
AcDbBlockTableRecord
2
_U1
340
0
70
0
0
BLOCK_RECORD
5
1C4
100
AcDbSymbolTableRecord
100
AcDbBlockTableRecord
2
*D5
340
0
70
0
0
BLOCK_RECORD
5
1D0
100
AcDbSymbolTableRecord
100
AcDbBlockTableRecord
2
_U2
340
0
70
0
0
BLOCK_RECORD
5
1DD
100
AcDbSymbolTableRecord
100
AcDbBlockTableRecord
2
*D7
340
0
70
0
0
BLOCK_RECORD
5
1E9
100
AcDbSymbolTableRecord
100
AcDbBlockTableRecord
2
_U3
340
0
70
0
0
ENDTAB
0
ENDSEC
0
SECTION
2
BLOCKS
0
BLOCK
5
20
100
AcDbEntity
8
0
100
AcDbBlockBegin
2
*Model_Space
70
0
10
0
20
0
30
0
3
*Model_Space
0
ENDBLK
5
21
100
AcDbEntity
8
0
100
AcDbBlockEnd
0
BLOCK
5
1C
100
AcDbEntity
8
0
100
AcDbBlockBegin
2
*Paper_Space
70
0
10
0
20
0
30
0
3
*Paper_Space
0
ENDBLK
5
1D
100
AcDbEntity
8
0
100
AcDbBlockEnd
0
BLOCK
5
24
100
AcDbEntity
8
0
100
AcDbBlockBegin
2
*Paper_Space0
70
0
10
0
20
0
30
0
3
*Paper_Space0
0
ENDBLK
5
25
100
AcDbEntity
8
0
100
AcDbBlockEnd
0
BLOCK
5
195
100
AcDbEntity
8
0
100
AcDbBlockBegin
2
*D1
70
1
10
0
20
0
30
0
3
*D1
0
LINE
5
197
100
AcDbEntity
8
0
62
256
6
ByLayer
370
-2
48
1
60
0
100
AcDbLine
10
54
20
-11.5875
30
0
11
54
21
-22.245967
31
0
39
0
210
0
220
0
230
1
0
LINE
5
198
100
AcDbEntity
8
0
62
256
6
ByLayer
370
-2
48
1
60
0
100
AcDbLine
10
16
20
-11.5875
30
0
11
16
21
-22.245967
31
0
39
0
210
0
220
0
230
1
0
LINE
5
199
100
AcDbEntity
8
0
62
256
6
ByLayer
370
-2
48
1
60
0
100
AcDbLine
10
50.5
20
-20.245967
30
0
11
19.5
21
-20.245967
31
0
39
0
210
0
220
0
230
1
0
SOLID
5
19A
100
AcDbEntity
8
0
62
256
6
ByLayer
370
-1
48
1
60
0
100
AcDbTrace
10
50.5
20
-20.8293
30
0
11
50.5
21
-19.662633
31
0
12
54
22
-20.245967
32
0
13
54
23
-20.245967
33
0
39
0
210
0
220
0
230
1
0
SOLID
5
19B
100
AcDbEntity
8
0
62
256
6
ByLayer
370
-1
48
1
60
0
100
AcDbTrace
10
19.5
20
-19.662633
30
0
11
19.5
21
-20.8293
31
0
12
16
22
-20.245967
32
0
13
16
23
-20.245967
33
0
39
0
210
0
220
0
230
1
0
MTEXT
5
19C
100
AcDbEntity
8
0
62
256
6
ByLayer
370
18
48
1
60
0
100
AcDbMText
10
35
20
-13.245967
30
0
210
0
220
0
230
1
1
\A1;38
40
3.5
41
0
44
1
50
0
71
5
72
5
7
iso_b_vert
0
POINT
5
19D
100
AcDbEntity
8
Defpoints
62
0
6
ByLayer
370
-1
48
1
60
0
100
AcDbPoint
10
54
20
-10
30
0
39
0
210
0
220
0
230
1
50
360
0
POINT
5
19E
100
AcDbEntity
8
Defpoints
62
0
6
ByLayer
370
-1
48
1
60
0
100
AcDbPoint
10
16
20
-10
30
0
39
0
210
0
220
0
230
1
50
360
0
POINT
5
19F
100
AcDbEntity
8
Defpoints
62
0
6
ByLayer
370
-1
48
1
60
0
100
AcDbPoint
10
16
20
-20.245967
30
0
39
0
210
0
220
0
230
1
50
360
0
ENDBLK
5
196
100
AcDbEntity
8
0
100
AcDbBlockEnd
0
BLOCK
5
1A7
100
AcDbEntity
8
0
100
AcDbBlockBegin
2
_U0
70
0
10
0
20
0
30
0
3
_U0
0
MTEXT
5
1A1
100
AcDbEntity
8
SK2
62
256
6
ByLayer
370
18
48
1
60
0
100
AcDbMText
10
33.095034
20
-19.213333
30
0
210
0
220
0
230
1
1
\W0.6740;38
40
3.5
41
0
44
1.084337
50
0
71
7
72
5
7
iso_b_vert
0
LINE
5
1A2
100
AcDbEntity
8
SK2
62
256
6
ByLayer
370
13
48
1
60
0
100
AcDbLine
10
54
20
-11.5875
30
0
11
54
21
-22.245967
31
0
39
0
210
0
220
0
230
1
0
LINE
5
1A3
100
AcDbEntity
8
SK2
62
256
6
ByLayer
370
13
48
1
60
0
100
AcDbLine
10
16
20
-11.5875
30
0
11
16
21
-22.245967
31
0
39
0
210
0
220
0
230
1
0
LINE
5
1A4
100
AcDbEntity
8
SK2
62
256
6
ByLayer
370
13
48
1
60
0
100
AcDbLine
10
54
20
-20.245967
30
0
11
16
21
-20.245967
31
0
39
0
210
0
220
0
230
1
0
SOLID
5
1A5
100
AcDbEntity
8
SK2
62
256
6
ByLayer
370
18
48
1
60
0
100
AcDbTrace
10
54
20
-20.245967
30
0
11
50.500002
21
-20.70675
31
0
12
50.499998
22
-19.785183
32
0
13
50.499998
23
-19.785183
33
0
39
0
210
0
220
0
230
1
0
SOLID
5
1A6
100
AcDbEntity
8
SK2
62
256
6
ByLayer
370
18
48
1
60
0
100
AcDbTrace
10
16
20
-20.245967
30
0
11
19.499998
21
-19.785183
31
0
12
19.500002
22
-20.70675
32
0
13
19.500002
23
-20.70675
33
0
39
0
210
0
220
0
230
1
0
ENDBLK
5
1A8
100
AcDbEntity
8
0
100
AcDbBlockEnd
0
BLOCK
5
1AD
100
AcDbEntity
8
0
100
AcDbBlockBegin
2
*D3
70
1
10
0
20
0
30
0
3
*D3
0
LINE
5
1AF
100
AcDbEntity
8
0
62
256
6
ByLayer
370
-2
48
1
60
0
100
AcDbLine
10
54
20
-11.5875
30
0
11
54
21
-35.245967
31
0
39
0
210
0
220
0
230
1
0
LINE
5
1B0
100
AcDbEntity
8
0
62
256
6
ByLayer
370
-2
48
1
60
0
100
AcDbLine
10
2
20
-11.5875
30
0
11
2
21
-35.245967
31
0
39
0
210
0
220
0
230
1
0
LINE
5
1B1
100
AcDbEntity
8
0
62
256
6
ByLayer
370
-2
48
1
60
0
100
AcDbLine
10
50.5
20
-33.245967
30
0
11
5.5
21
-33.245967
31
0
39
0
210
0
220
0
230
1
0
SOLID
5
1B2
100
AcDbEntity
8
0
62
256
6
ByLayer
370
-1
48
1
60
0
100
AcDbTrace
10
50.5
20
-33.8293
30
0
11
50.5
21
-32.662633
31
0
12
54
22
-33.245967
32
0
13
54
23
-33.245967
33
0
39
0
210
0
220
0
230
1
0
SOLID
5
1B3
100
AcDbEntity
8
0
62
256
6
ByLayer
370
-1
48
1
60
0
100
AcDbTrace
10
5.5
20
-32.662633
30
0
11
5.5
21
-33.8293
31
0
12
2
22
-33.245967
32
0
13
2
23
-33.245967
33
0
39
0
210
0
220
0
230
1
0
MTEXT
5
1B4
100
AcDbEntity
8
0
62
256
6
ByLayer
370
18
48
1
60
0
100
AcDbMText
10
28
20
-26.245967
30
0
210
0
220
0
230
1
1
\A1;52
40
3.5
41
0
44
1
50
0
71
5
72
5
7
iso_b_vert
0
POINT
5
1B5
100
AcDbEntity
8
Defpoints
62
0
6
ByLayer
370
-1
48
1
60
0
100
AcDbPoint
10
54
20
-10
30
0
39
0
210
0
220
0
230
1
50
360
0
POINT
5
1B6
100
AcDbEntity
8
Defpoints
62
0
6
ByLayer
370
-1
48
1
60
0
100
AcDbPoint
10
2
20
-10
30
0
39
0
210
0
220
0
230
1
50
360
0
POINT
5
1B7
100
AcDbEntity
8
Defpoints
62
0
6
ByLayer
370
-1
48
1
60
0
100
AcDbPoint
10
2
20
-33.245967
30
0
39
0
210
0
220
0
230
1
50
360
0
ENDBLK
5
1AE
100
AcDbEntity
8
0
100
AcDbBlockEnd
0
BLOCK
5
1BF
100
AcDbEntity
8
0
100
AcDbBlockBegin
2
_U1
70
0
10
0
20
0
30
0
3
_U1
0
MTEXT
5
1B9
100
AcDbEntity
8
SK2
62
256
6
ByLayer
370
18
48
1
60
0
100
AcDbMText
10
26.095034
20
-32.213333
30
0
210
0
220
0
230
1
1
\W0.6740;52
40
3.5
41
0
44
1.084337
50
0
71
7
72
5
7
iso_b_vert
0
LINE
5
1BA
100
AcDbEntity
8
SK2
62
256
6
ByLayer
370
13
48
1
60
0
100
AcDbLine
10
54
20
-11.5875
30
0
11
54
21
-35.245967
31
0
39
0
210
0
220
0
230
1
0
LINE
5
1BB
100
AcDbEntity
8
SK2
62
256
6
ByLayer
370
13
48
1
60
0
100
AcDbLine
10
2
20
-11.5875
30
0
11
2
21
-35.245967
31
0
39
0
210
0
220
0
230
1
0
LINE
5
1BC
100
AcDbEntity
8
SK2
62
256
6
ByLayer
370
13
48
1
60
0
100
AcDbLine
10
54
20
-33.245967
30
0
11
2
21
-33.245967
31
0
39
0
210
0
220
0
230
1
0
SOLID
5
1BD
100
AcDbEntity
8
SK2
62
256
6
ByLayer
370
18
48
1
60
0
100
AcDbTrace
10
54
20
-33.245967
30
0
11
50.500002
21
-33.70675
31
0
12
50.499998
22
-32.785183
32
0
13
50.499998
23
-32.785183
33
0
39
0
210
0
220
0
230
1
0
SOLID
5
1BE
100
AcDbEntity
8
SK2
62
256
6
ByLayer
370
18
48
1
60
0
100
AcDbTrace
10
2
20
-33.245967
30
0
11
5.499998
21
-32.785183
31
0
12
5.500002
22
-33.70675
32
0
13
5.500002
23
-33.70675
33
0
39
0
210
0
220
0
230
1
0
ENDBLK
5
1C0
100
AcDbEntity
8
0
100
AcDbBlockEnd
0
BLOCK
5
1C5
100
AcDbEntity
8
0
100
AcDbBlockBegin
2
*D5
70
1
10
0
20
0
30
0
3
*D5
0
LINE
5
1C7
100
AcDbEntity
8
0
62
256
6
ByLayer
370
-2
48
1
60
0
100
AcDbLine
10
54
20
11.5875
30
0
11
54
21
22.022297
31
0
39
0
210
0
220
0
230
1
0
LINE
5
1C8
100
AcDbEntity
8
0
62
256
6
ByLayer
370
-2
48
1
60
0
100
AcDbLine
10
34
20
11.5875
30
0
11
34
21
22.022297
31
0
39
0
210
0
220
0
230
1
0
LINE
5
1C9
100
AcDbEntity
8
0
62
256
6
ByLayer
370
-2
48
1
60
0
100
AcDbLine
10
50.5
20
20.022297
30
0
11
37.5
21
20.022297
31
0
39
0
210
0
220
0
230
1
0
SOLID
5
1CA
100
AcDbEntity
8
0
62
256
6
ByLayer
370
-1
48
1
60
0
100
AcDbTrace
10
50.5
20
19.438963
30
0
11
50.5
21
20.60563
31
0
12
54
22
20.022297
32
0
13
54
23
20.022297
33
0
39
0
210
0
220
0
230
1
0
SOLID
5
1CB
100
AcDbEntity
8
0
62
256
6
ByLayer
370
-1
48
1
60
0
100
AcDbTrace
10
37.5
20
20.60563
30
0
11
37.5
21
19.438963
31
0
12
34
22
20.022297
32
0
13
34
23
20.022297
33
0
39
0
210
0
220
0
230
1
0
MTEXT
5
1CC
100
AcDbEntity
8
0
62
256
6
ByLayer
370
18
48
1
60
0
100
AcDbMText
10
44
20
27.022297
30
0
210
0
220
0
230
1
1
\A1;20
40
3.5
41
0
44
1
50
0
71
5
72
5
7
iso_b_vert
0
POINT
5
1CD
100
AcDbEntity
8
Defpoints
62
0
6
ByLayer
370
-1
48
1
60
0
100
AcDbPoint
10
54
20
10
30
0
39
0
210
0
220
0
230
1
50
360
0
POINT
5
1CE
100
AcDbEntity
8
Defpoints
62
0
6
ByLayer
370
-1
48
1
60
0
100
AcDbPoint
10
34
20
10
30
0
39
0
210
0
220
0
230
1
50
360
0
POINT
5
1CF
100
AcDbEntity
8
Defpoints
62
0
6
ByLayer
370
-1
48
1
60
0
100
AcDbPoint
10
34
20
20.022297
30
0
39
0
210
0
220
0
230
1
50
360
0
ENDBLK
5
1C6
100
AcDbEntity
8
0
100
AcDbBlockEnd
0
BLOCK
5
1D8
100
AcDbEntity
8
0
100
AcDbBlockBegin
2
_U2
70
0
10
0
20
0
30
0
3
_U2
0
MTEXT
5
1D1
100
AcDbEntity
8
SK2
62
256
6
ByLayer
370
18
48
1
60
0
100
AcDbMText
10
37.287301
20
21.05493
30
0
210
0
220
0
230
1
1
\W0.6740;20
40
3.5
41
0
44
1.084337
50
0
71
7
72
5
7
iso_b_vert
0
MTEXT
5
1D2
100
AcDbEntity
8
SK2
62
256
6
ByLayer
370
18
48
1
60
0
100
AcDbMText
10
44.968233
20
21.05493
30
0
210
0
220
0
230
1
1
\W0.8470;\W0.4235;%%p\W0.8470;2
40
3.5
41
0
44
1.084337
50
0
71
7
72
5
7
iso_b_vert
0
LINE
5
1D3
100
AcDbEntity
8
SK2
62
256
6
ByLayer
370
13
48
1
60
0
100
AcDbLine
10
54
20
11.5875
30
0
11
54
21
22.022297
31
0
39
0
210
0
220
0
230
1
0
LINE
5
1D4
100
AcDbEntity
8
SK2
62
256
6
ByLayer
370
13
48
1
60
0
100
AcDbLine
10
34
20
11.5875
30
0
11
34
21
22.022297
31
0
39
0
210
0
220
0
230
1
0
LINE
5
1D5
100
AcDbEntity
8
SK2
62
256
6
ByLayer
370
13
48
1
60
0
100
AcDbLine
10
54
20
20.022297
30
0
11
34
21
20.022297
31
0
39
0
210
0
220
0
230
1
0
SOLID
5
1D6
100
AcDbEntity
8
SK2
62
256
6
ByLayer
370
18
48
1
60
0
100
AcDbTrace
10
54
20
20.022297
30
0
11
50.500002
21
19.561513
31
0
12
50.499998
22
20.48308
32
0
13
50.499998
23
20.48308
33
0
39
0
210
0
220
0
230
1
0
SOLID
5
1D7
100
AcDbEntity
8
SK2
62
256
6
ByLayer
370
18
48
1
60
0
100
AcDbTrace
10
34
20
20.022297
30
0
11
37.499998
21
20.48308
31
0
12
37.500002
22
19.561513
32
0
13
37.500002
23
19.561513
33
0
39
0
210
0
220
0
230
1
0
ENDBLK
5
1D9
100
AcDbEntity
8
0
100
AcDbBlockEnd
0
BLOCK
5
1DE
100
AcDbEntity
8
0
100
AcDbBlockBegin
2
*D7
70
1
10
0
20
0
30
0
3
*D7
0
LINE
5
1E0
100
AcDbEntity
8
0
62
256
6
ByLayer
370
-2
48
1
60
0
100
AcDbLine
10
-50
20
-11.5875
30
0
11
-50
21
-47.245967
31
0
39
0
210
0
220
0
230
1
0
LINE
5
1E1
100
AcDbEntity
8
0
62
256
6
ByLayer
370
-2
48
1
60
0
100
AcDbLine
10
54
20
-11.5875
30
0
11
54
21
-47.245967
31
0
39
0
210
0
220
0
230
1
0
LINE
5
1E2
100
AcDbEntity
8
0
62
256
6
ByLayer
370
-2
48
1
60
0
100
AcDbLine
10
-46.5
20
-45.245967
30
0
11
50.5
21
-45.245967
31
0
39
0
210
0
220
0
230
1
0
SOLID
5
1E3
100
AcDbEntity
8
0
62
256
6
ByLayer
370
-1
48
1
60
0
100
AcDbTrace
10
-46.5
20
-44.662633
30
0
11
-46.5
21
-45.8293
31
0
12
-50
22
-45.245967
32
0
13
-50
23
-45.245967
33
0
39
0
210
0
220
0
230
1
0
SOLID
5
1E4
100
AcDbEntity
8
0
62
256
6
ByLayer
370
-1
48
1
60
0
100
AcDbTrace
10
50.5
20
-45.8293
30
0
11
50.5
21
-44.662633
31
0
12
54
22
-45.245967
32
0
13
54
23
-45.245967
33
0
39
0
210
0
220
0
230
1
0
MTEXT
5
1E5
100
AcDbEntity
8
0
62
256
6
ByLayer
370
18
48
1
60
0
100
AcDbMText
10
2
20
-38.245967
30
0
210
0
220
0
230
1
1
\A1;104
40
3.5
41
0
44
1
50
0
71
5
72
5
7
iso_b_vert
0
POINT
5
1E6
100
AcDbEntity
8
Defpoints
62
0
6
ByLayer
370
-1
48
1
60
0
100
AcDbPoint
10
-50
20
-10
30
0
39
0
210
0
220
0
230
1
50
360
0
POINT
5
1E7
100
AcDbEntity
8
Defpoints
62
0
6
ByLayer
370
-1
48
1
60
0
100
AcDbPoint
10
54
20
-10
30
0
39
0
210
0
220
0
230
1
50
360
0
POINT
5
1E8
100
AcDbEntity
8
Defpoints
62
0
6
ByLayer
370
-1
48
1
60
0
100
AcDbPoint
10
54
20
-45.245967
30
0
39
0
210
0
220
0
230
1
50
360
0
ENDBLK
5
1DF
100
AcDbEntity
8
0
100
AcDbBlockEnd
0
BLOCK
5
1F0
100
AcDbEntity
8
0
100
AcDbBlockBegin
2
_U3
70
0
10
0
20
0
30
0
3
_U3
0
MTEXT
5
1EA
100
AcDbEntity
8
2
62
256
6
ByLayer
370
18
48
1
60
0
100
AcDbMText
10
-0.959533
20
-44.213333
30
0
210
0
220
0
230
1
1
\W0.6506;104
40
3.5
41
0
44
1.084337
50
0
71
7
72
5
7
iso_b_vert
0
LINE
5
1EB
100
AcDbEntity
8
2
62
256
6
ByLayer
370
13
48
1
60
0
100
AcDbLine
10
-50
20
-11.5875
30
0
11
-50
21
-47.245967
31
0
39
0
210
0
220
0
230
1
0
LINE
5
1EC
100
AcDbEntity
8
2
62
256
6
ByLayer
370
13
48
1
60
0
100
AcDbLine
10
54
20
-11.5875
30
0
11
54
21
-47.245967
31
0
39
0
210
0
220
0
230
1
0
LINE
5
1ED
100
AcDbEntity
8
2
62
256
6
ByLayer
370
13
48
1
60
0
100
AcDbLine
10
-50
20
-45.245967
30
0
11
54
21
-45.245967
31
0
39
0
210
0
220
0
230
1
0
SOLID
5
1EE
100
AcDbEntity
8
2
62
256
6
ByLayer
370
18
48
1
60
0
100
AcDbTrace
10
-50
20
-45.245967
30
0
11
-46.500002
21
-44.785183
31
0
12
-46.499998
22
-45.70675
32
0
13
-46.499998
23
-45.70675
33
0
39
0
210
0
220
0
230
1
0
SOLID
5
1EF
100
AcDbEntity
8
2
62
256
6
ByLayer
370
18
48
1
60
0
100
AcDbTrace
10
54
20
-45.245967
30
0
11
50.500002
21
-45.70675
31
0
12
50.499998
22
-44.785183
32
0
13
50.499998
23
-44.785183
33
0
39
0
210
0
220
0
230
1
0
ENDBLK
5
1F1
100
AcDbEntity
8
0
100
AcDbBlockEnd
0
ENDSEC
0
SECTION
2
ENTITIES
0
ARC
5
D9
100
AcDbEntity
8
1
62
256
6
ByLayer
370
18
48
1
60
0
100
AcDbCircle
39
0
10
1.995358
20
11.5
30
0
40
2
210
0
220
0
230
1
100
AcDbArc
50
240
51
270
0
ARC
5
DA
100
AcDbEntity
8
1
62
256
6
ByLayer
370
18
48
1
60
0
100
AcDbCircle
39
0
10
1.995358
20
-11.5
30
0
40
2
210
0
220
0
230
1
100
AcDbArc
50
90
51
120
0
ELLIPSE
5
DB
100
AcDbEntity
8
1
62
256
6
ByLayer
370
18
48
1
60
0
100
AcDbEllipse
10
53.86349
20
-0.306429
30
0
11
0.020513869222351
21
-1.9665255048654
31
0
210
0
220
0
230
1
40
0.062483
41
-1.61345894511225
42
-1.31013652252925
0
ELLIPSE
5
DC
100
AcDbEntity
8
1
62
256
6
ByLayer
370
18
48
1
60
0
100
AcDbEllipse
10
53.503141
20
0.93628
30
0
11
0.0474899046664639
21
-2.08552181065549
31
0
210
0
220
0
230
1
40
0.057473
41
0.214748037059598
42
0.953581019302739
0
ELLIPSE
5
DD
100
AcDbEntity
8
1
62
256
6
ByLayer
370
18
48
1
60
0
100
AcDbEllipse
10
53.926597
20
-1.298141
30
0
11
0.109620896108282
21
-1.08756736501263
31
0
210
0
220
0
230
1
40
0.054415
41
-3.07264848547059
42
-3.0165739421913
0
ELLIPSE
5
DE
100
AcDbEntity
8
1
62
256
6
ByLayer
370
18
48
1
60
0
100
AcDbEllipse
10
53.285712
20
-1.088695
30
0
11
0.174503893677795
21
-1.10021019206592
31
0
210
0
220
0
230
1
40
0.255201
41
0.693382731642752
42
1.51938741181055
0
ELLIPSE
5
DF
100
AcDbEntity
8
1
62
256
6
ByLayer
370
18
48
1
60
0
100
AcDbEllipse
10
53.972173
20
-1.313035
30
0
11
0.245170272086638
21
-1.08660234232327
31
0
210
0
220
0
230
1
40
0.510209
41
-2.36277200199906
42
-2.33244113393488
0
ELLIPSE
5
E0
100
AcDbEntity
8
1
62
256
6
ByLayer
370
18
48
1
60
0
100
AcDbEllipse
10
52.555359
20
-0.84996
30
0
11
1.19980879492835
21
-1.13859013414931
31
0
210
0
220
0
230
1
40
0.47155
41
1.28548881901972
42
1.3007132522379
0
ELLIPSE
5
E1
100
AcDbEntity
8
1
62
256
6
ByLayer
370
18
48
1
60
0
100
AcDbEllipse
10
53.376692
20
-1.118447
30
0
11
1.49707183009654
21
0.478545557129451
31
0
210
0
220
0
230
1
40
0.307735
41
1.4471585534114
42
1.46195495914095
0
ELLIPSE
5
E2
100
AcDbEntity
8
1
62
256
6
ByLayer
370
18
48
1
60
0
100
AcDbEllipse
10
53.972174
20
-1.313036
30
0
11
0.245171311631083
21
-1.08660369168121
31
0
210
0
220
0
230
1
40
0.510209
41
2.99527331404763
42
-2.39279311749122
0
POINT
5
70
100
AcDbEntity
8
81
62
256
6
ByLayer
370
18
48
1
60
0
100
AcDbPoint
10
54
20
0
30
0
39
0
210
0
220
0
230
1
50
360
0
POINT
5
72
100
AcDbEntity
8
80
62
256
6
ByLayer
370
18
48
1
60
0
100
AcDbPoint
10
0
20
0
30
0
39
0
210
0
220
0
230
1
50
360
0
POINT
5
74
100
AcDbEntity
8
81
62
256
6
ByLayer
370
18
48
1
60
0
100
AcDbPoint
10
-50
20
0
30
0
39
0
210
0
220
0
230
1
50
360
0
POINT
5
75
100
AcDbEntity
8
81
62
256
6
ByLayer
370
18
48
1
60
0
100
AcDbPoint
10
54
20
0
30
0
39
0
210
0
220
0
230
1
50
360
0
POINT
5
76
100
AcDbEntity
8
1
62
256
6
ByLayer
370
18
48
1
60
1
100
AcDbPoint
10
54
20
-10
30
0
39
0
210
0
220
0
230
1
50
360
0
POINT
5
78
100
AcDbEntity
8
1
62
256
6
ByLayer
370
18
48
1
60
1
100
AcDbPoint
10
16
20
-10
30
0
39
0
210
0
220
0
230
1
50
360
0
POINT
5
79
100
AcDbEntity
8
1
62
256
6
ByLayer
370
18
48
1
60
1
100
AcDbPoint
10
54
20
-10
30
0
39
0
210
0
220
0
230
1
50
360
0
POINT
5
7A
100
AcDbEntity
8
1
62
256
6
ByLayer
370
18
48
1
60
1
100
AcDbPoint
10
2
20
-10
30
0
39
0
210
0
220
0
230
1
50
360
0
POINT
5
7B
100
AcDbEntity
8
1
62
256
6
ByLayer
370
18
48
1
60
1
100
AcDbPoint
10
54
20
10
30
0
39
0
210
0
220
0
230
1
50
360
0
POINT
5
7C
100
AcDbEntity
8
1
62
256
6
ByLayer
370
18
48
1
60
1
100
AcDbPoint
10
34
20
10
30
0
39
0
210
0
220
0
230
1
50
360
0
POINT
5
7D
100
AcDbEntity
8
1
62
256
6
ByLayer
370
18
48
1
60
1
100
AcDbPoint
10
-50
20
-10
30
0
39
0
210
0
220
0
230
1
50
360
0
POINT
5
7E
100
AcDbEntity
8
1
62
256
6
ByLayer
370
18
48
1
60
1
100
AcDbPoint
10
54
20
-10
30
0
39
0
210
0
220
0
230
1
50
360
0
SPLINE
5
E3
100
AcDbEntity
8
1
62
256
6
ByLayer
370
18
48
1
60
0
100
AcDbSpline
70
4
71
3
72
8
73
4
40
0
40
0
40
0
40
0
40
1
40
1
40
1
40
1
41
1
10
14.4016850913972
20
-9.46411730969641
30
0
41
1
10
14.2821294359508
20
-9.46502920450988
30
0
41
1
10
14.1613088371809
20
-9.47594394431164
30
0
41
1
10
14.0398757409103
20
-9.49656519571221
30
0
0
SPLINE
5
E4
100
AcDbEntity
8
1
62
256
6
ByLayer
370
13
48
1
60
0
100
AcDbSpline
70
4
71
1
72
4
73
2
40
0
40
0
40
1
40
1
41
1
10
16
20
-8.88289639922016
30
0
41
1
10
13.0172063930416
20
-9.40119059142702
30
0
0
SPLINE
5
E5
100
AcDbEntity
8
1
62
256
6
ByLayer
370
18
48
1
60
0
100
AcDbSpline
70
4
71
3
72
43
73
39
40
0
40
0
40
0
40
0
40
0.0739603989753071
40
0.0739603989753071
40
0.147920797950614
40
0.147920797950614
40
0.221881196925921
40
0.221881196925921
40
0.258861396413574
40
0.258861396413574
40
0.277351496157402
40
0.277351496157402
40
0.29584159590123
40
0.443762393851856
40
0.443762393851856
40
0.462252493595684
40
0.462252493595684
40
0.480742593339512
40
0.517722792827173
40
0.591683191802501
40
0.591683191802501
40
0.610173291546333
40
0.610173291546333
40
0.628663391290164
40
0.628663391290164
40
0.66564359077782
40
0.66564359077782
40
0.739603989753124
40
0.739603989753124
40
0.813564388728428
40
0.813564388728428
40
0.85054458821608
40
0.85054458821608
40
0.887524787703732
40
0.887524787703732
40
0.961485186679045
40
0.961485186679045
40
1
40
1
40
1
40
1
41
1
10
53.5607873102691
20
8.926364248422
30
0
41
1
10
53.5800044175987
20
8.83030899110554
30
0
41
1
10
53.5955380064594
20
8.73401874651719
30
0
41
1
10
53.6182695425361
20
8.54090649139275
30
0
41
1
10
53.6254712245943
20
8.44408471911811
30
0
41
1
10
53.6302169812133
20
8.24982507481039
30
0
41
1
10
53.6277669599312
20
8.15238757942848
30
0
41
1
10
53.6154830433253
20
8.00568213907528
30
0
41
1
10
53.6099491557677
20
7.95668850984379
30
0
41
1
10
53.5992693650061
20
7.88304630208114
30
0
41
1
10
53.595304867174
20
7.85843134832473
30
0
41
1
10
53.5865770071392
20
7.80934985304685
30
0
41
1
10
53.5438090003997
20
7.58966078877432
30
0
41
1
10
53.4692041888061
20
7.38070661583015
30
0
41
1
10
53.3630601950046
20
7.18238698033818
30
0
41
1
10
53.3508661469986
20
7.16057250469296
30
0
41
1
10
53.3258019226085
20
7.11756970812772
30
0
41
1
10
53.28714258267
20
7.0539131149028
30
0
41
1
10
53.1896881754156
20
6.91116138646149
30
0
41
1
10
53.0943718554648
20
6.79819888751132
30
0
41
1
10
53.0090606851318
20
6.70875269825024
30
0
41
1
10
52.9917042018895
20
6.69109808437932
30
0
41
1
10
52.9564185665448
20
6.6562454827183
30
0
41
1
10
52.9384729208135
20
6.63903351982097
30
0
41
1
10
52.8841384004745
20
6.58837087187717
30
0
41
1
10
52.8471526707799
20
6.55578953842357
30
0
41
1
10
52.7341426367281
20
6.46125854840841
30
0
41
1
10
52.656073985173
20
6.40250860190781
30
0
41
1
10
52.4954854728492
20
6.29197551910278
30
0
41
1
10
52.4129626814897
20
6.24019696961287
30
0
41
1
10
52.2864100150353
20
6.16686223099413
30
0
41
1
10
52.243762782486
20
6.14314199885536
30
0
41
1
10
52.1576213719554
20
6.09702713123886
30
0
41
1
10
52.1140816272488
20
6.07461011388469
30
0
41
1
10
51.9826056794408
20
6.00933544818307
30
0
41
1
10
51.8942346208446
20
5.96864207902627
30
0
41
1
10
51.7589611032273
20
5.9102190140182
30
0
41
1
10
51.7124817000026
20
5.89083152556762
30
0
41
1
10
51.6658590686489
20
5.87200529294722
30
0
0
SPLINE
5
E6
100
AcDbEntity
8
1
62
256
6
ByLayer
370
18
48
1
60
0
100
AcDbSpline
70
4
71
3
72
8
73
4
40
0
40
0
40
0
40
0
40
1
40
1
40
1
40
1
41
1
10
16.0000000000001
20
8.55427155299034
30
0
41
1
10
15.8664508896338
20
8.5725375929791
30
0
41
1
10
15.7325596778349
20
8.58599737964153
30
0
41
1
10
15.5980762113534
20
8.59447249430119
30
0
0
SPLINE
5
E7
100
AcDbEntity
8
1
62
256
6
ByLayer
370
18
48
1
60
0
100
AcDbSpline
70
4
71
3
72
14
73
10
40
0
40
0
40
0
40
0
40
0.25
40
0.25
40
0.5
40
0.5
40
0.75
40
0.75
40
1
40
1
40
1
40
1
41
1
10
15.5980762113534
20
8.59447249430119
30
0
41
1
10
15.5206929393627
20
8.59934916888446
30
0
41
1
10
15.4415436799456
20
8.60811082758067
30
0
41
1
10
15.2801895075183
20
8.63284695609102
30
0
41
1
10
15.1979827838119
20
8.64882549044953
30
0
41
1
10
15.0308748457076
20
8.68791207434145
30
0
41
1
10
14.945972655778
20
8.71102089049552
30
0
41
1
10
14.7737658080928
20
8.76467400463577
30
0
41
1
10
14.6864606510256
20
8.79521630843936
30
0
41
1
10
14.5980762113533
20
8.82983351525269
30
0
0
SPLINE
5
E8
100
AcDbEntity
8
1
62
256
6
ByLayer
370
18
48
1
60
0
100
AcDbSpline
70
4
71
1
72
4
73
2
40
0
40
0
40
1
40
1
41
1
10
16.0000000000001
20
8.03156828631327
30
0
41
1
10
14.1882172898083
20
8.98060650282974
30
0
0
SPLINE
5
E9
100
AcDbEntity
8
1
62
256
6
ByLayer
370
18
48
1
60
0
100
AcDbSpline
70
4
71
3
72
20
73
16
40
0
40
0
40
0
40
0
40
0.125
40
0.125
40
0.25
40
0.25
40
0.375
40
0.375
40
0.5
40
0.5
40
0.75
40
0.75
40
0.875
40
0.875
40
1
40
1
40
1
40
1
41
1
10
53.4017619874667
20
-0.653683057948314
30
0
41
1
10
53.3961116464374
20
-0.677717733758954
30
0
41
1
10
53.3926189527054
20
-0.701586455859626
30
0
41
1
10
53.3893138643642
20
-0.748741425044699
30
0
41
1
10
53.3895048909748
20
-0.77202886635834
30
0
41
1
10
53.3931785165118
20
-0.817753818648896
30
0
41
1
10
53.3966625180296
20
-0.840192553886709
30
0
41
1
10
53.4066986807137
20
-0.883897910053093
30
0
41
1
10
53.4132930367513
20
-0.905238369859376
30
0
41
1
10
53.4370311877997
20
-0.965735093930164
30
0
41
1
10
53.4580932319474
20
-1.00179110443716
30
0
41
1
10
53.4967910935539
20
-1.04688814153141
30
0
41
1
10
53.5108921943726
20
-1.06040937181058
30
0
41
1
10
53.5416067036115
20
-1.08378523079639
30
0
41
1
10
53.557892619467
20
-1.0933822930923
30
0
41
1
10
53.5750825312601
20
-1.10075645795649
30
0
0
SPLINE
5
EA
100
AcDbEntity
8
1
62
256
6
ByLayer
370
18
48
1
60
0
100
AcDbSpline
70
4
71
3
72
10
73
6
40
0
40
0
40
0
40
0
40
0.706443368080455
40
0.706443368080455
40
1
40
1
40
1
40
1
41
1
10
52.7201685610316
20
5.1443133363563
30
0
41
1
10
52.6945173446459
20
5.19836757789233
30
0
41
1
10
52.673837029642
20
5.23533559679993
30
0
41
1
10
52.6515178689047
20
5.26376038307967
30
0
41
1
10
52.6458142519712
20
5.26918877859885
30
0
41
1
10
52.6409700292145
20
5.27166322289213
30
0
0
SPLINE
5
EB
100
AcDbEntity
8
1
62
256
6
ByLayer
370
13
48
1
60
0
100
AcDbSpline
70
4
71
1
72
4
73
2
40
0
40
0
40
1
40
1
41
1
10
32.1953547100673
20
-6.96786216901288
30
0
41
1
10
27.8571786822091
20
-7.77646326300018
30
0
0
SPLINE
5
EC
100
AcDbEntity
8
1
62
256
6
ByLayer
370
18
48
1
60
0
100
AcDbSpline
70
4
71
3
72
9
73
5
40
0
40
0
40
0
40
0
40
0.5
40
1
40
1
40
1
40
1
41
1
10
53.1998862505101
20
3.71454291684782
30
0
41
1
10
53.1129300758043
20
3.98048049371374
30
0
41
1
10
52.9460639081843
20
4.48454357728079
30
0
41
1
10
52.793097586811
20
4.93374245728137
30
0
41
1
10
52.7201685610316
20
5.14431333635639
30
0
0
SPLINE
5
ED
100
AcDbEntity
8
1
62
256
6
ByLayer
370
18
48
1
60
0
100
AcDbSpline
70
4
71
3
72
20
73
16
40
0
40
0
40
0
40
0
40
0.259352927349406
40
0.259352927349406
40
0.518705854698811
40
0.518705854698811
40
0.648382318373514
40
0.648382318373514
40
0.68080143429219
40
0.68080143429219
40
0.713220550210865
40
0.713220550210865
40
0.778058782048212
40
0.778058782048212
40
1
40
1
40
1
40
1
41
1
10
52.7201685610315
20
5.1443133363563
30
0
41
1
10
52.33120011892
20
5.42540349078396
30
0
41
1
10
51.9436206005388
20
5.69120000300819
30
0
41
1
10
51.1677106742136
20
6.19020741446516
30
0
41
1
10
50.779387157045
20
6.42342809309574
30
0
41
1
10
50.1939006545443
20
6.74682116013432
30
0
41
1
10
49.9982397372711
20
6.85020633575695
30
0
41
1
10
49.7527895156968
20
6.97365389089558
30
0
41
1
10
49.7036557619238
20
6.99805402085238
30
0
41
1
10
49.6052945275905
20
7.04626803194606
30
0
41
1
10
49.5560996611629
20
7.07006556885767
30
0
41
1
10
49.4087092293371
20
7.14040743671603
30
0
41
1
10
49.3106111818846
20
7.18594856164887
30
0
41
1
10
48.8773392789878
20
7.38136766284424
30
0
41
1
10
48.5435349753109
20
7.51675719619925
30
0
41
1
10
48.2105556554226
20
7.6363464654473
30
0
0
SPLINE
5
EE
100
AcDbEntity
8
1
62
256
6
ByLayer
370
18
48
1
60
0
100
AcDbSpline
70
4
71
3
72
10
73
6
40
0
40
0
40
0
40
0
40
0.5
40
0.5
40
1
40
1
40
1
40
1
41
1
10
53.491639943712
20
9.28920177622729
30
0
41
1
10
53.5091108817703
20
9.22969013775261
30
0
41
1
10
53.523765572636
20
9.16972322847886
30
0
41
1
10
53.546999569626
20
9.04880727257827
30
0
41
1
10
53.555580990926
20
8.98785856757149
30
0
41
1
10
53.560787310269
20
8.926364248422
30
0
0
SPLINE
5
EF
100
AcDbEntity
8
1
62
256
6
ByLayer
370
18
48
1
60
0
100
AcDbSpline
70
4
71
3
72
20
73
16
40
0
40
0
40
0
40
0
40
0.104286634365923
40
0.104286634365923
40
0.232245686599361
40
0.232245686599361
40
0.296225212716082
40
0.296225212716082
40
0.360204738832804
40
0.360204738832804
40
0.488163791066241
40
0.488163791066241
40
0.744081895533121
40
0.744081895533121
40
1
40
1
40
1
40
1
41
1
10
48.8015112836271
20
7.40590222236136
30
0
41
1
10
48.9675899173797
20
7.49904072275271
30
0
41
1
10
49.1336069435901
20
7.58820685864134
30
0
41
1
10
49.5034971625166
20
7.77761547149407
30
0
41
1
10
49.7074080239993
20
7.87584566760202
30
0
41
1
10
50.0138046540291
20
8.01400629237475
30
0
41
1
10
50.1160812443592
20
8.05854890200382
30
0
41
1
10
50.3201096043366
20
8.14425134144795
30
0
41
1
10
50.4219484647087
20
8.18545228530354
30
0
41
1
10
50.727035815942
20
8.30416022325824
30
0
41
1
10
50.9298561756097
20
8.376777213352
30
0
41
1
10
51.5373276434185
20
8.57533028229489
30
0
41
1
10
51.9409925733688
20
8.6820444477205
30
0
41
1
10
52.7492783582623
20
8.84373591181784
30
0
41
1
10
53.1538813515872
20
8.89872024445927
30
0
41
1
10
53.5607873102763
20
8.9263642484232
30
0
0
SPLINE
5
F0
100
AcDbEntity
8
1
62
256
6
ByLayer
370
18
48
1
60
0
100
AcDbSpline
70
4
71
3
72
20
73
16
40
0
40
0
40
0
40
0
40
0.125000000000002
40
0.125000000000002
40
0.250000000000005
40
0.250000000000005
40
0.375000000000007
40
0.375000000000007
40
0.500000000000009
40
0.500000000000009
40
0.625000000000012
40
0.625000000000012
40
0.750000000000014
40
0.750000000000014
40
1
40
1
40
1
40
1
41
1
10
53.2898573365696
20
3.46736870683498
30
0
41
1
10
53.2886898521939
20
3.46833249417688
30
0
41
1
10
53.2870283764421
20
3.47103967293344
30
0
41
1
10
53.2828717787019
20
3.47939616973898
30
0
41
1
10
53.2803755083382
20
3.48504952981227
30
0
41
1
10
53.2746377248031
20
3.49898637277897
30
0
41
1
10
53.2713740907113
20
3.5073321867805
30
0
41
1
10
53.2643536377107
20
3.52592907053125
30
0
41
1
10
53.2605825159858
20
3.53621134773115
30
0
41
1
10
53.2525905949339
20
3.5584716353888
30
0
41
1
10
53.2483693708594
20
3.57045124756837
30
0
41
1
10
53.2395217768166
20
3.59593827621208
30
0
41
1
10
53.2348787017074
20
3.60949566831943
30
0
41
1
10
53.2205479594057
20
3.65181407854212
30
0
41
1
10
53.2104481572173
20
3.68224118690287
30
0
41
1
10
53.1998862459186
20
3.71454291839484
30
0
0
SPLINE
5
F1
100
AcDbEntity
8
1
62
256
6
ByLayer
370
13
48
1
60
0
100
AcDbSpline
70
4
71
3
72
8
73
4
40
0
40
0
40
0
40
0
40
1
40
1
40
1
40
1
41
1
10
53.1998862426718
20
3.71454292832448
30
0
41
1
10
52.6680442160984
20
4.18224159523621
30
0
41
1
10
52.136202189525
20
4.62990146349105
30
0
41
1
10
51.6043601629515
20
5.05128281944167
30
0
0
SPLINE
5
F2
100
AcDbEntity
8
1
62
256
6
ByLayer
370
13
48
1
60
0
100
AcDbSpline
70
4
71
3
72
8
73
4
40
0
40
0
40
0
40
0
40
1
40
1
40
1
40
1
41
1
10
17.3816274940978
20
-8.36585545140088
30
0
41
1
10
16.9210849960652
20
-8.49659940670895
30
0
41
1
10
16.4605424980326
20
-8.59434453231549
30
0
41
1
10
16
20
-8.65673281389229
30
0
0
SPLINE
5
F3
100
AcDbEntity
8
1
62
256
6
ByLayer
370
18
48
1
60
0
100
AcDbSpline
70
4
71
5
72
12
73
6
40
0
40
0
40
0
40
0
40
0
40
0
40
1
40
1
40
1
40
1
40
1
40
1
41
1
10
16
20
-8.65673281389229
30
0
41
0.982012158910336
10
16.0000000000001
20
-8.67005910057538
30
0
41
0.973220464882422
10
16
20
-8.70122634493298
30
0
41
0.973220464882422
10
16
20
-8.7487727761307
30
0
41
0.982012158910337
10
16.0000000000001
20
-8.81036188151643
30
0
41
1
10
16
20
-8.88289639922013
30
0
0
SPLINE
5
F4
100
AcDbEntity
8
1
62
256
6
ByLayer
370
18
48
1
60
0
100
AcDbSpline
70
4
71
3
72
15
73
11
40
0
40
0
40
0
40
0
40
0.25
40
0.500000000000001
40
0.500000000000001
40
0.625000000000001
40
0.625000000000001
40
0.750000000000001
40
0.750000000000001
40
1
40
1
40
1
40
1
41
1
10
52.8241577800445
20
-6.59669693717487
30
0
41
1
10
52.8103508803492
20
-6.44029218617098
30
0
41
1
10
52.7885464180833
20
-6.12821414447768
30
0
41
1
10
52.7782885066584
20
-5.81758994227178
30
0
41
1
10
52.7750351412181
20
-5.58518084469875
30
0
41
1
10
52.7746921264472
20
-5.5078045011177
30
0
41
1
10
52.7755257142382
20
-5.35324315072049
30
0
41
1
10
52.7767001845701
20
-5.27665335353018
30
0
41
1
10
52.7824446169244
20
-5.04939003416627
30
0
41
1
10
52.7892312471463
20
-4.90100543631547
30
0
41
1
10
52.7989130416491
20
-4.75567977738714
30
0
0
SPLINE
5
F5
100
AcDbEntity
8
1
62
256
6
ByLayer
370
18
48
1
60
0
100
AcDbSpline
70
4
71
3
72
26
73
22
40
0
40
0
40
0
40
0
40
0.135894949738847
40
0.135894949738847
40
0.271789899477695
40
0.271789899477695
40
0.407684849216542
40
0.407684849216542
40
0.543579798955389
40
0.543579798955389
40
0.679474748694237
40
0.679474748694237
40
0.747422223563661
40
0.747422223563661
40
0.781395960998372
40
0.781395960998372
40
0.815369698433084
40
0.815369698433084
40
0.951264648171935
40
0.951264648171935
40
1
40
1
40
1
40
1
41
1
10
27.8571786822091
20
-7.77646326300018
30
0
41
1
10
28.137853122389
20
-7.84673501958125
30
0
41
1
10
28.4121627650675
20
-7.91302368048881
30
0
41
1
10
28.9496015850859
20
-8.03352835027067
30
0
41
1
10
29.212731472553
20
-8.08773658913898
30
0
41
1
10
29.7300460735074
20
-8.18003740503747
30
0
41
1
10
29.9842296817703
20
-8.21812555792283
30
0
41
1
10
30.4865686298218
20
-8.27441368669528
30
0
41
1
10
30.7347277682602
20
-8.29260630014994
30
0
41
1
10
31.2284536057053
20
-8.30624376843872
30
0
41
1
10
31.4740106929464
20
-8.30168649045132
30
0
41
1
10
31.843574954498
20
-8.27596291099519
30
0
41
1
10
31.9669751006834
20
-8.26424380454961
30
0
41
1
10
32.152870058159
20
-8.24175589808203
30
0
41
1
10
32.2149779709117
20
-8.23344054526746
30
0
41
1
10
32.3395067516532
20
-8.21515158105609
30
0
41
1
10
32.4018041229742
20
-8.20519634390652
30
0
41
1
10
32.7136729295356
20
-8.15136111912551
30
0
41
1
10
32.9643657223048
20
-8.09523580222634
30
0
41
1
10
33.310675865737
20
-8.00182422156465
30
0
41
1
10
33.4026300805982
20
-7.97554273302529
30
0
41
1
10
33.4952832257404
20
-7.94768429032359
30
0
0
SPLINE
5
F6
100
AcDbEntity
8
1
62
256
6
ByLayer
370
18
48
1
60
0
100
AcDbSpline
70
4
71
3
72
92
73
88
40
0
40
0
40
0
40
0
40
0.0625000000000226
40
0.0625000000000226
40
0.125000000000045
40
0.125000000000045
40
0.156250000000057
40
0.156250000000057
40
0.187500000000068
40
0.187500000000068
40
0.195312500000073
40
0.195312500000073
40
0.203125000000079
40
0.203125000000079
40
0.21875000000009
40
0.21875000000009
40
0.250000000000109
40
0.250000000000109
40
0.281250000000128
40
0.281250000000128
40
0.296875000000139
40
0.296875000000139
40
0.304687500000145
40
0.304687500000145
40
0.31250000000015
40
0.31250000000015
40
0.328125000000158
40
0.328125000000158
40
0.335937500000161
40
0.335937500000161
40
0.343750000000163
40
0.343750000000163
40
0.359375000000169
40
0.359375000000169
40
0.375000000000174
40
0.375000000000174
40
0.382812500000176
40
0.382812500000176
40
0.386718750000176
40
0.386718750000176
40
0.390625000000177
40
0.406250000000178
40
0.406250000000178
40
0.414062500000179
40
0.414062500000179
40
0.417968750000179
40
0.417968750000179
40
0.421875000000179
40
0.437500000000179
40
0.437500000000179
40
0.445312500000179
40
0.445312500000179
40
0.453125000000179
40
0.453125000000179
40
0.468750000000179
40
0.468750000000179
40
0.484375000000179
40
0.484375000000179
40
0.492187500000178
40
0.492187500000178
40
0.500000000000177
40
0.500000000000177
40
0.53125000000017
40
0.53125000000017
40
0.562500000000162
40
0.562500000000162
40
0.570312500000161
40
0.570312500000161
40
0.578125000000159
40
0.578125000000159
40
0.593750000000153
40
0.593750000000153
40
0.625000000000141
40
0.625000000000141
40
0.656250000000129
40
0.656250000000129
40
0.687500000000118
40
0.687500000000118
40
0.750000000000094
40
0.750000000000094
40
0.812500000000071
40
0.812500000000071
40
0.875000000000047
40
0.875000000000047
40
0.937500000000024
40
0.937500000000024
40
1
40
1
40
1
40
1
41
1
10
27.6519176751834
20
-3.51810210331007
30
0
41
1
10
27.4304058374162
20
-3.49599954133103
30
0
41
1
10
27.2090312580356
20
-3.48316599652725
30
0
41
1
10
26.766823188583
20
-3.47832427593173
30
0
41
1
10
26.5459902402525
20
-3.48632640674074
30
0
41
1
10
26.2153099785063
20
-3.51629778881693
30
0
41
1
10
26.105177642731
20
-3.52929009247632
30
0
41
1
10
25.8851240574012
20
-3.56189237799634
30
0
41
1
10
25.7752027978263
20
-3.58149657525757
30
0
41
1
10
25.6379452723098
20
-3.61070878233602
30
0
41
1
10
25.6105009631391
20
-3.61678760238533
30
0
41
1
10
25.5556270144329
20
-3.62943716242529
30
0
41
1
10
25.5281713402771
20
-3.63601449886855
30
0
41
1
10
25.4460440987069
20
-3.65646197228202
30
0
41
1
10
25.3916399901752
20
-3.67103732962113
30
0
41
1
10
25.2295293391081
20
-3.71776387702573
30
0
41
1
10
25.1229159069937
20
-3.75289054723294
30
0
41
1
10
24.9130877272989
20
-3.83246835448711
30
0
41
1
10
24.8098637134894
20
-3.87689261229255
30
0
41
1
10
24.6582103991959
20
-3.95235414328809
30
0
41
1
10
24.6081933263693
20
-3.97898926601334
30
0
41
1
10
24.5341023271757
20
-4.02155094472278
30
0
41
1
10
24.5095761224878
20
-4.03616839591172
30
0
41
1
10
24.4611873752566
20
-4.06615027125537
30
0
41
1
10
24.43728639287
20
-4.08153664510772
30
0
41
1
10
24.3665250328383
20
-4.12896438432281
30
0
41
1
10
24.3206010126094
20
-4.16226735562509
30
0
41
1
10
24.2539091676722
20
-4.21517588356306
30
0
41
1
10
24.2320453833639
20
-4.233305923659
30
0
41
1
10
24.1891220958558
20
-4.27064838505993
30
0
41
1
10
24.1680090408005
20
-4.28991285066391
30
0
41
1
10
24.1064101063223
20
-4.34911023814306
30
0
41
1
10
24.0678274838468
20
-4.39025792973749
30
0
41
1
10
23.996301911911
20
-4.47634055495467
30
0
41
1
10
23.9633550460575
20
-4.52127300863191
30
0
41
1
10
23.9188742811015
20
-4.59195917486824
30
0
41
1
10
23.9048731307669
20
-4.61607074744396
30
0
41
1
10
23.8852282682102
20
-4.6531370213728
30
0
41
1
10
23.8788908820264
20
-4.66567533923629
30
0
41
1
10
23.866773774423
20
-4.69089273946545
30
0
41
1
10
23.8379096000789
20
-4.75419970955971
30
0
41
1
10
23.8161902832145
20
-4.81880958482691
30
0
41
1
10
23.7970978342327
20
-4.89755606230602
30
0
41
1
10
23.7918963919755
20
-4.92400749424473
30
0
41
1
10
23.7858605042504
20
-4.96398546133236
30
0
41
1
10
23.7841440961249
20
-4.977367870526
30
0
41
1
10
23.7813253707953
20
-5.00396855399862
30
0
41
1
10
23.7757889548835
20
-5.07022477658489
30
0
41
1
10
23.777505257713
20
-5.13528188285864
30
0
41
1
10
23.7856751120422
20
-5.2122811269123
30
0
41
1
10
23.7894208692832
20
-5.2377775248849
30
0
41
1
10
23.798831674662
20
-5.28839061234413
30
0
41
1
10
23.8044441025297
20
-5.31323537022277
30
0
41
1
10
23.8236944764366
20
-5.38652592940605
30
0
41
1
10
23.8397343335647
20
-5.43373311860705
30
0
41
1
10
23.8769864825029
20
-5.52541499712515
30
0
41
1
10
23.8982014209662
20
-5.56988846192965
30
0
41
1
10
23.9332363017972
20
-5.63485986904357
30
0
41
1
10
23.9454780519034
20
-5.6562677864049
30
0
41
1
10
23.9708112683215
20
-5.69831888212047
30
0
41
1
10
23.9838904340649
20
-5.71894767446312
30
0
41
1
10
24.0511234601344
20
-5.82030623153665
30
0
41
1
10
24.1106880912556
20
-5.89576757217282
30
0
41
1
10
24.2376109319561
20
-6.0387703184843
30
0
41
1
10
24.3050138430532
20
-6.10627313743623
30
0
41
1
10
24.3928797241912
20
-6.18682728576988
30
0
41
1
10
24.4106360325012
20
-6.20274467319885
30
0
41
1
10
24.4464908501331
20
-6.23421412471805
30
0
41
1
10
24.4646025385727
20
-6.24977692560373
30
0
41
1
10
24.5192486199118
20
-6.29580507113005
30
0
41
1
10
24.5561331225725
20
-6.32564882739774
30
0
41
1
10
24.6679515892762
20
-6.41296112380428
30
0
41
1
10
24.7440414545903
20
-6.46822479940494
30
0
41
1
10
24.8985660825875
20
-6.57402564394283
30
0
41
1
10
24.9770053972166
20
-6.62455586655244
30
0
41
1
10
25.1357405596522
20
-6.72165404813092
30
0
41
1
10
25.2160387377957
20
-6.76821842421103
30
0
41
1
10
25.4591983275748
20
-6.90277709701897
30
0
41
1
10
25.6243052638149
20
-6.98566481001924
30
0
41
1
10
25.9586680734917
20
-7.14068118454765
30
0
41
1
10
26.1279346202425
20
-7.21279639582454
30
0
41
1
10
26.4694774128188
20
-7.34799789077221
30
0
41
1
10
26.6418949416263
20
-7.41111126708759
30
0
41
1
10
26.9875794538613
20
-7.52890148119542
30
0
41
1
10
27.1610066885734
20
-7.58364149991834
30
0
41
1
10
27.5086044369006
20
-7.68559497493879
30
0
41
1
10
27.682776585843
20
-7.73280430857102
30
0
41
1
10
27.8571786822091
20
-7.77646326300018
30
0
0
SPLINE
5
F7
100
AcDbEntity
8
1
62
256
6
ByLayer
370
13
48
1
60
0
100
AcDbSpline
70
4
71
3
72
14
73
10
40
0
40
0
40
0
40
0
40
0.25
40
0.25
40
0.5
40
0.5
40
0.75
40
0.75
40
1
40
1
40
1
40
1
41
1
10
34
20
-3.17961572751395
30
0
41
1
10
34
20
-2.97090214056306
30
0
41
1
10
34
20
-2.76634545395118
30
0
41
1
10
34
20
-2.36822921024694
30
0
41
1
10
34
20
-2.17467169585603
30
0
41
1
10
34
20
-1.80102634013315
30
0
41
1
10
34
20
-1.62094023969885
30
0
41
1
10
34.0000000000001
20
-1.27643788000191
30
0
41
1
10
34
20
-1.11202299348165
30
0
41
1
10
34
20
-0.956383451313002
30
0
0
SPLINE
5
F8
100
AcDbEntity
8
1
62
256
6
ByLayer
370
13
48
1
60
0
100
AcDbSpline
70
4
71
1
72
4
73
2
40
0
40
0
40
1
40
1
41
1
10
34
20
-0.956383451313002
30
0
41
1
10
26.9563163744212
20
3.93317425400531
30
0
0
SPLINE
5
F9
100
AcDbEntity
8
1
62
256
6
ByLayer
370
18
48
1
60
0
100
AcDbSpline
70
4
71
3
72
9
73
5
40
0
40
0
40
0
40
0
40
0.5
40
1
40
1
40
1
40
1
41
1
10
53.2000181208784
20
-7.71306543160088
30
0
41
1
10
53.1331371003245
20
-7.54265837985312
30
0
41
1
10
53.003639896486
20
-7.18608939480052
30
0
41
1
10
52.8825667868093
20
-6.79840071715472
30
0
41
1
10
52.8241577800444
20
-6.59669693717487
30
0
0
SPLINE
5
FA
100
AcDbEntity
8
1
62
256
6
ByLayer
370
18
48
1
60
0
100
AcDbSpline
70
4
71
3
72
57
73
53
40
0
40
0
40
0
40
0
40
0.0653125210098409
40
0.0653125210098409
40
0.130625042019682
40
0.130625042019682
40
0.163281302524602
40
0.163281302524602
40
0.179609432777062
40
0.179609432777062
40
0.195937563029521
40
0.195937563029521
40
0.261250084039361
40
0.261250084039361
40
0.3265626050492
40
0.3265626050492
40
0.39187512605904
40
0.39187512605904
40
0.424531386563959
40
0.424531386563959
40
0.43269545169019
40
0.43269545169019
40
0.44085951681642
40
0.457187647068881
40
0.457187647068881
40
0.489843907573802
40
0.489843907573802
40
0.522500168078724
40
0.522500168078724
40
0.587812689088567
40
0.587812689088567
40
0.65312521009841
40
0.65312521009841
40
0.669453340350871
40
0.669453340350871
40
0.677617405477101
40
0.677617405477101
40
0.685781470603331
40
0.718437731108251
40
0.718437731108251
40
0.783750252118092
40
0.783750252118092
40
0.849062773127933
40
0.849062773127933
40
0.914375294137775
40
0.914375294137775
40
0.930703424390236
40
0.930703424390236
40
0.947031554642697
40
0.979687815147617
40
0.979687815147617
40
1
40
1
40
1
40
1
41
1
10
52.8241577800444
20
-6.59669693717487
30
0
41
1
10
52.4328757117822
20
-6.37066652582314
30
0
41
1
10
52.0431376268408
20
-6.12632108332201
30
0
41
1
10
51.263149108514
20
-5.6046765402518
30
0
41
1
10
50.8729066496598
20
-5.32737599061008
30
0
41
1
10
50.2847155634689
20
-4.8885281998887
30
0
41
1
10
50.088182480855
20
-4.73841985131975
30
0
41
1
10
49.7923796440768
20
-4.50765778313195
30
0
41
1
10
49.6936115021488
20
-4.4298032092413
30
0
41
1
10
49.4956905879434
20
-4.27224177003794
30
0
41
1
10
49.3968813529197
20
-4.19280828176147
30
0
41
1
10
48.9036860928544
20
-3.79266290252298
30
0
41
1
10
48.5115378921959
20
-3.46296235738296
30
0
41
1
10
47.729468968207
20
-2.78741346893412
30
0
41
1
10
47.3395995314057
20
-2.44150205726498
30
0
41
1
10
46.5592670865956
20
-1.7362993811025
30
0
41
1
10
46.1687572435433
20
-1.3770483163614
30
0
41
1
10
45.5796536410974
20
-0.831134775132625
30
0
41
1
10
45.3827365560259
20
-0.647979336866342
30
0
41
1
10
45.1356368252336
20
-0.417800622814127
30
0
41
1
10
45.0861881020919
20
-0.371720599505949
30
0
41
1
10
44.987434738824
20
-0.279671915656593
30
0
41
1
10
44.8394337620658
20
-0.141684753318401
30
0
41
1
10
44.6917927571959
20
-0.0039830041578455
30
0
41
1
10
44.3969235911269
20
0.270969631833594
30
0
41
1
10
44.2009013632011
20
0.453674373091445
30
0
41
1
10
43.8094993494962
20
0.817439251142901
30
0
41
1
10
43.6141235266591
20
0.998504185175591
30
0
41
1
10
43.0285272865353
20
1.53880350312448
30
0
41
1
10
42.6388636213826
20
1.89517605253425
30
0
41
1
10
41.8580623813868
20
2.59710170181142
30
0
41
1
10
41.4668849613294
20
2.94260595969848
30
0
41
1
10
40.9745869863288
20
3.36515183353478
30
0
41
1
10
40.8759652230837
20
3.44919746587459
30
0
41
1
10
40.7277524607757
20
3.57452783424983
30
0
41
1
10
40.6782709929531
20
3.61620710780801
30
0
41
1
10
40.5794111483017
20
3.69914256067693
30
0
41
1
10
40.3324796797155
20
3.90545803479992
30
0
41
1
10
40.0865631663873
20
4.10661195301878
30
0
41
1
10
39.4977951351498
20
4.57905423013699
30
0
41
1
10
39.1071920204203
20
4.88021015241713
30
0
41
1
10
38.3264749113861
20
5.45300912004976
30
0
41
1
10
37.9364783965577
20
5.72473148202093
30
0
41
1
10
37.1546562861796
20
6.23622647689763
30
0
41
1
10
36.762853632374
20
6.47594726401431
30
0
41
1
10
36.2697084260257
20
6.75347536322911
30
0
41
1
10
36.1708261914974
20
6.80791563714067
30
0
41
1
10
35.9733292133458
20
6.91416291587393
30
0
41
1
10
35.6773238156763
20
7.0696800907325
30
0
41
1
10
35.3817746930689
20
7.21353179273157
30
0
41
1
10
35.0621462975147
20
7.36048047781662
30
0
41
1
10
34.9395687442158
20
7.41477230815133
30
0
41
1
10
34.8169194937941
20
7.46699160423194
30
0
0
SPLINE
5
FB
100
AcDbEntity
8
1
62
256
6
ByLayer
370
18
48
1
60
0
100
AcDbSpline
70
4
71
3
72
49
73
45
40
0
40
0
40
0
40
0
40
0.0699837239654903
40
0.0699837239654903
40
0.15453065815044
40
0.15453065815044
40
0.175667391696678
40
0.186235758469797
40
0.186235758469797
40
0.196804125242916
40
0.196804125242916
40
0.239077592335391
40
0.239077592335391
40
0.281351059427867
40
0.281351059427867
40
0.323624526520343
40
0.323624526520343
40
0.408171460705296
40
0.408171460705296
40
0.492718394890249
40
0.492718394890249
40
0.513855128436486
40
0.513855128436486
40
0.524423495209605
40
0.524423495209605
40
0.534991861982724
40
0.577265329075203
40
0.577265329075203
40
0.619538796167683
40
0.619538796167683
40
0.661812263260163
40
0.661812263260163
40
0.746359197445122
40
0.746359197445122
40
0.830906131630082
40
0.830906131630082
40
0.841474498403202
40
0.841474498403202
40
0.852042865176322
40
0.852042865176322
40
0.873179598722561
40
0.915453065815041
40
0.915453065815041
40
1
40
1
40
1
40
1
41
1
10
47.8414038262157
20
-7.7625497926411
30
0
41
1
10
47.5198262224693
20
-7.86690148414184
30
0
41
1
10
47.1987873419478
20
-7.95637326089459
30
0
41
1
10
46.489445231792
20
-8.12009083682557
30
0
41
1
10
46.100985397056
20
-8.18728080872231
30
0
41
1
10
45.6125887938007
20
-8.24249308620912
30
0
41
1
10
45.4658604288608
20
-8.2568938851324
30
0
41
1
10
45.3187563898229
20
-8.26801242947823
30
0
41
1
10
45.2205968137803
20
-8.27469041337787
30
0
41
1
10
45.1714425511768
20
-8.27766370673766
30
0
41
1
10
44.9258182095166
20
-8.29066153902116
30
0
41
1
10
44.7300153876497
20
-8.29508117962152
30
0
41
1
10
44.3394280517924
20
-8.29208766594198
30
0
41
1
10
44.144646479412
20
-8.28466499269186
30
0
41
1
10
43.7555874148421
20
-8.25836166323472
30
0
41
1
10
43.5613255781593
20
-8.23947453605643
30
0
41
1
10
42.978966776615
20
-8.16580343496844
30
0
41
1
10
42.5913252678957
20
-8.0940376092754
30
0
41
1
10
41.8145919906005
20
-7.90536308241963
30
0
41
1
10
41.4254509314611
20
-7.78844388898969
30
0
41
1
10
40.9357554897122
20
-7.61446241217558
30
0
41
1
10
40.837657003921
20
-7.5782676610757
30
0
41
1
10
40.6902338519724
20
-7.5218675610829
30
0
41
1
10
40.6410269343704
20
-7.50270788951079
30
0
41
1
10
40.5427497500485
20
-7.46377771850658
30
0
41
1
10
40.2972715918531
20
-7.3648769363688
30
0
41
1
10
40.0527931910694
20
-7.25817016392165
30
0
41
1
10
39.6625713412608
20
-7.0776882133535
30
0
41
1
10
39.4679443619563
20
-6.9825462942151
30
0
41
1
10
39.0791610313935
20
-6.78298636039057
30
0
41
1
10
38.8849907682007
20
-6.67858728546571
30
0
41
1
10
38.3026495596643
20
-6.35199784358039
30
0
41
1
10
37.9147180660634
20
-6.11638890075437
30
0
41
1
10
37.1372044928299
20
-5.61030888761758
30
0
41
1
10
36.7476535285516
20
-5.33972480132411
30
0
41
1
10
36.3064872373861
20
-5.01680423267217
30
0
41
1
10
36.2574278429676
20
-4.98066696435336
30
0
41
1
10
36.1592196610993
20
-4.90788193216417
30
0
41
1
10
36.1100717937947
20
-4.87123458472263
30
0
41
1
10
35.9627565800963
20
-4.76073964488214
30
0
41
1
10
35.668366220495
20
-4.53733584448295
30
0
41
1
10
35.3744308877688
20
-4.30696050593204
30
0
41
1
10
34.7864756413368
20
-3.83757693894381
30
0
41
1
10
34.3944327188925
20
-3.51304600218316
30
0
41
1
10
34
20
-3.1795902662771
30
0
0
SPLINE
5
FC
100
AcDbEntity
8
1
62
256
6
ByLayer
370
18
48
1
60
0
100
AcDbSpline
70
4
71
3
72
31
73
27
40
0
40
0
40
0
40
0
40
0.124999999999996
40
0.124999999999996
40
0.249999999999993
40
0.249999999999993
40
0.374999999999989
40
0.374999999999989
40
0.499999999999985
40
0.499999999999985
40
0.562499999999984
40
0.562499999999984
40
0.578124999999985
40
0.578124999999985
40
0.593749999999986
40
0.624999999999987
40
0.624999999999987
40
0.749999999999991
40
0.749999999999991
40
0.812499999999993
40
0.812499999999993
40
0.874999999999995
40
0.874999999999995
40
0.937499999999998
40
0.937499999999998
40
1
40
1
40
1
40
1
41
1
10
26.9563163744212
20
3.93317425400534
30
0
41
1
10
27.2799331264863
20
3.68720951769586
30
0
41
1
10
27.5950599952108
20
3.43054478098858
30
0
41
1
10
28.2110273519431
20
2.89675908760412
30
0
41
1
10
28.5118719804773
20
2.61964819221441
30
0
41
1
10
29.1026357505261
20
2.04688103037853
30
0
41
1
10
29.3925492857038
20
1.75121823939131
30
0
41
1
10
29.9657386328631
20
1.14418018016815
30
0
41
1
10
30.2490150551713
20
0.832796595417932
30
0
41
1
10
30.6730386851079
20
0.35698330146397
30
0
41
1
10
30.8142341117777
20
0.196929884597154
30
0
41
1
10
30.9910407849637
20
-0.0045443379628693
30
0
41
1
10
31.0264361878679
20
-0.0449300108117257
30
0
41
1
10
31.0971197731612
20
-0.125655611983205
30
0
41
1
10
31.203023059982
20
-0.246719186846889
30
0
41
1
10
31.3086202340308
20
-0.367649670155515
30
0
41
1
10
31.6602118268779
20
-0.770182962072056
30
0
41
1
10
31.9401218842805
20
-1.09046749314129
30
0
41
1
10
32.3642669528556
20
-1.56223313431229
30
0
41
1
10
32.5063787488416
20
-1.71802992502015
30
0
41
1
10
32.7933791792107
20
-2.02546595143829
30
0
41
1
10
32.9382658703216
20
-2.17710719802864
30
0
41
1
10
33.2322965879071
20
-2.47486565574161
30
0
41
1
10
33.3814393339495
20
-2.62098382959468
30
0
41
1
10
33.6857189558356
20
-2.90610809318812
30
0
41
1
10
33.840855182743
20
-3.04511449772178
30
0
41
1
10
34.0000000000001
20
-3.17965037953144
30
0
0
SPLINE
5
FD
100
AcDbEntity
8
1
62
256
6
ByLayer
370
18
48
1
60
0
100
AcDbSpline
70
4
71
3
72
80
73
76
40
0
40
0
40
0
40
0
40
0.0624999999999889
40
0.0624999999999889
40
0.124999999999978
40
0.124999999999978
40
0.187499999999967
40
0.187499999999967
40
0.218749999999961
40
0.218749999999961
40
0.234374999999956
40
0.234374999999956
40
0.249999999999951
40
0.249999999999951
40
0.281249999999945
40
0.281249999999945
40
0.296874999999942
40
0.296874999999942
40
0.312499999999939
40
0.312499999999939
40
0.343749999999938
40
0.343749999999938
40
0.374999999999936
40
0.374999999999936
40
0.382812499999935
40
0.382812499999935
40
0.390624999999934
40
0.406249999999931
40
0.406249999999931
40
0.421874999999929
40
0.421874999999929
40
0.429687499999929
40
0.429687499999929
40
0.437499999999929
40
0.437499999999929
40
0.468749999999929
40
0.468749999999929
40
0.476562499999929
40
0.476562499999929
40
0.484374999999929
40
0.49999999999993
40
0.49999999999993
40
0.50781249999993
40
0.50781249999993
40
0.515624999999931
40
0.515624999999931
40
0.531249999999932
40
0.531249999999932
40
0.562499999999933
40
0.562499999999933
40
0.570312499999934
40
0.570312499999934
40
0.578124999999935
40
0.578124999999935
40
0.593749999999934
40
0.593749999999934
40
0.624999999999936
40
0.624999999999936
40
0.656249999999938
40
0.656249999999938
40
0.68749999999994
40
0.68749999999994
40
0.703124999999941
40
0.703124999999941
40
0.718749999999942
40
0.718749999999942
40
0.749999999999947
40
0.749999999999947
40
0.81249999999996
40
0.81249999999996
40
0.874999999999973
40
0.874999999999973
40
0.937499999999987
40
0.937499999999987
40
1
40
1
40
1
40
1
41
1
10
27.8066937693464
20
6.23105230399597
30
0
41
1
10
27.6349127092334
20
6.2540878900673
30
0
41
1
10
27.4633769574212
20
6.27516805217331
30
0
41
1
10
27.1209354080065
20
6.31391881068365
30
0
41
1
10
26.9500288795864
20
6.33159936718482
30
0
41
1
10
26.6089856759682
20
6.36373334746114
30
0
41
1
10
26.4388477932316
20
6.37820209649928
30
0
41
1
10
26.1843435262538
20
6.39712439484555
30
0
41
1
10
26.09962615635
20
6.40296220105284
30
0
41
1
10
25.9727473298897
20
6.41087626655445
30
0
41
1
10
25.9304873097731
20
6.41337303725686
30
0
41
1
10
25.8460374653256
20
6.41804830529142
30
0
41
1
10
25.8037864762064
20
6.42022929236589
30
0
41
1
10
25.6780657965645
20
6.42618293367082
30
0
41
1
10
25.5953859855858
20
6.42938904928471
30
0
41
1
10
25.4733364137532
20
6.43271240475002
30
0
41
1
10
25.4329831464085
20
6.43357037458537
30
0
41
1
10
25.3529962906034
20
6.43470807679174
30
0
41
1
10
25.3133264172851
20
6.43498807789015
30
0
41
1
10
25.1957417326988
20
6.4348066978497
30
0
41
1
10
25.1199466587797
20
6.4333426743521
30
0
41
1
10
24.9745530586167
20
6.42675846562773
30
0
41
1
10
24.9049367189847
20
6.42165540604256
30
0
41
1
10
24.8228783986959
20
6.41194547365507
30
0
41
1
10
24.806684539539
20
6.40982933692896
30
0
41
1
10
24.7750058844114
20
6.40524394152536
30
0
41
1
10
24.7286339658998
20
6.39784970855001
30
0
41
1
10
24.6858401479693
20
6.38879366533936
30
0
41
1
10
24.6322916811357
20
6.37498370907034
30
0
41
1
10
24.6072712259204
20
6.3672119996213
30
0
41
1
10
24.5727010428292
20
6.3540021972417
30
0
41
1
10
24.5616357327033
20
6.34932087003571
30
0
41
1
10
24.5408007422168
20
6.3395060619109
30
0
41
1
10
24.5310186347373
20
6.33437177162884
30
0
41
1
10
24.4853017826184
20
6.30752299614036
30
0
41
1
10
24.4589175017849
20
6.2822896811561
30
0
41
1
10
24.4392499528119
20
6.24524323399444
30
0
41
1
10
24.435978032758
20
6.23752870367866
30
0
41
1
10
24.430844701699
20
6.22174823967535
30
0
41
1
10
24.4252216429303
20
6.19750902794777
30
0
41
1
10
24.4254845867783
20
6.17159698825577
30
0
41
1
10
24.4292941062729
20
6.14460607614646
30
0
41
1
10
24.4311559010753
20
6.13542921707381
30
0
41
1
10
24.4360096405299
20
6.11672095646387
30
0
41
1
10
24.439011479561
20
6.1071639408863
30
0
41
1
10
24.4495615295742
20
6.0781723286907
30
0
41
1
10
24.4586164657191
20
6.05846721336485
30
0
41
1
10
24.490883254085
20
5.99830034774243
30
0
41
1
10
24.5191501880899
20
5.95679050958421
30
0
41
1
10
24.5607925642512
20
5.90335259923992
30
0
41
1
10
24.5694404974403
20
5.89258720068787
30
0
41
1
10
24.587335938295
20
5.87090468304928
30
0
41
1
10
24.5965979917892
20
5.85997112015218
30
0
41
1
10
24.6250905683433
20
5.82710796489886
30
0
41
1
10
24.6450335836341
20
5.80510130226116
30
0
41
1
10
24.7072760413
20
5.73878171890129
30
0
41
1
10
24.7519683225204
20
5.69416869940008
30
0
41
1
10
24.8461726181305
20
5.6041338266366
30
0
41
1
10
24.8956958516756
20
5.55871242954709
30
0
41
1
10
24.9985652904007
20
5.46706519838347
30
0
41
1
10
25.0519169853747
20
5.42083955820519
30
0
41
1
10
25.1342922204442
20
5.35090313061471
30
0
41
1
10
25.1621023147387
20
5.32752691504837
30
0
41
1
10
25.2181852359105
20
5.28078431325761
30
0
41
1
10
25.2464844788242
20
5.2573955432039
30
0
41
1
10
25.3320750159064
20
5.18716203504783
30
0
41
1
10
25.3900559940147
20
5.14024951838274
30
0
41
1
10
25.5662578664086
20
4.9991502921618
30
0
41
1
10
25.6867143418362
20
4.90459693009899
30
0
41
1
10
25.9318266536181
20
4.71421162794761
30
0
41
1
10
26.056497359528
20
4.61838286136435
30
0
41
1
10
26.3089756251879
20
4.42526356409655
30
0
41
1
10
26.436790021258
20
4.32797432093037
30
0
41
1
10
26.6948493215164
20
4.13179910708837
30
0
41
1
10
26.825097673042
20
4.03291373418782
30
0
41
1
10
26.9563163744212
20
3.93317425400531
30
0
0
SPLINE
5
FE
100
AcDbEntity
8
1
62
256
6
ByLayer
370
18
48
1
60
0
100
AcDbSpline
70
4
71
3
72
8
73
4
40
0
40
0
40
0
40
0
40
1
40
1
40
1
40
1
41
1
10
53.3094411061395
20
9.97120063482529
30
0
41
1
10
53.365132131213
20
9.74234558357145
30
0
41
1
10
53.4254486494175
20
9.51488691587593
30
0
41
1
10
53.491639937681
20
9.28920177417734
30
0
0
SPLINE
5
FF
100
AcDbEntity
8
1
62
256
6
ByLayer
370
13
48
1
60
0
100
AcDbSpline
70
4
71
3
72
9
73
5
40
0
40
0
40
0
40
0
40
0.846071452168018
40
1
40
1
40
1
40
1
41
1
10
53.4916399371431
20
9.28920177601111
30
0
41
1
10
52.0777599580954
20
9.18486605714344
30
0
41
1
10
50.4066481679213
20
8.65235408735688
30
0
41
1
10
48.7355363777473
20
7.697319247069
30
0
41
1
10
48.4783045666209
20
7.54102087896433
30
0
0
SPLINE
5
100
100
AcDbEntity
8
1
62
256
6
ByLayer
370
13
48
1
60
0
100
AcDbSpline
70
4
71
3
72
13
73
9
40
0
40
0
40
0
40
0
40
0.110832859295667
40
0.259027382746389
40
0.407221906197112
40
0.555416429647834
40
0.703610953098556
40
1
40
1
40
1
40
1
41
1
10
32.0262332554398
20
-8.35666638796909
30
0
41
1
10
31.4341555036266
20
-8.52598260255605
30
0
41
1
10
30.0504110851466
20
-8.79526851700732
30
0
41
1
10
27.875
20
-8.73095865312723
30
0
41
1
10
25.5
20
-8.05757725451071
30
0
41
1
10
23.1250000000001
20
-6.82539968519649
30
0
41
1
10
19.9583333333333
20
-4.55522305297308
30
0
41
1
10
17.5833333333334
20
-2.31928496843761
30
0
41
1
10
16
20
-0.784283334950459
30
0
0
SPLINE
5
101
100
AcDbEntity
8
1
62
256
6
ByLayer
370
13
48
1
60
0
100
AcDbSpline
70
4
71
3
72
11
73
7
40
0
40
0
40
0
40
0
40
0.34677223591122
40
0.574977140912635
40
0.80318204591405
40
1
40
1
40
1
40
1
41
1
10
52.7989130416486
20
-4.75567977738689
30
0
41
1
10
51.5326086944324
20
-4.06077009721343
30
0
41
1
10
49.4329710138829
20
-2.69070348190979
30
0
41
1
10
46.5000000000001
20
-0.473176916004661
30
0
41
1
10
44.1146153823004
20
1.34407763295846
30
0
41
1
10
42.5625640979341
20
2.47286063147516
30
0
41
1
10
41.8438461469011
20
2.96628587522608
30
0
0
SPLINE
5
102
100
AcDbEntity
8
1
62
256
6
ByLayer
370
18
48
1
60
0
100
AcDbSpline
70
4
71
3
72
18
73
14
40
0
40
0
40
0
40
0
40
0.25
40
0.25
40
0.5
40
0.5
40
0.624999999999999
40
0.624999999999999
40
0.6875
40
0.6875
40
0.75
40
0.75
40
1
40
1
40
1
40
1
41
1
10
52.7989130416501
20
-4.75567977738825
30
0
41
1
10
52.8070559017959
20
-4.63306737842299
30
0
41
1
10
52.8125766431088
20
-4.50849816713117
30
0
41
1
10
52.8189641055616
20
-4.25588658233477
30
0
41
1
10
52.8198279496593
20
-4.12784206177651
30
0
41
1
10
52.8179155529784
20
-3.93338112073178
30
0
41
1
10
52.8167420438181
20
-3.86816077303516
30
0
41
1
10
52.8142029925602
20
-3.76974906462922
30
0
41
1
10
52.8132267792253
20
-3.73684824884577
30
0
41
1
10
52.8110181051851
20
-3.67085538719138
30
0
41
1
10
52.8097844592859
20
-3.63773477718027
30
0
41
1
10
52.8029962301136
20
-3.47197446238931
30
0
41
1
10
52.7956507493951
20
-3.34026253632484
30
0
41
1
10
52.7866330602428
20
-3.20933333811004
30
0
0
SPLINE
5
103
100
AcDbEntity
8
1
62
256
6
ByLayer
370
18
48
1
60
0
100
AcDbSpline
70
4
71
3
72
10
73
6
40
0
40
0
40
0
40
0
40
0.5
40
0.5
40
1
40
1
40
1
40
1
41
1
10
51.4660232657206
20
-1.20919730982763
30
0
41
1
10
51.6843381369066
20
-1.54550295563661
30
0
41
1
10
51.9034869671849
20
-1.88043187580217
30
0
41
1
10
52.3436458852144
20
-2.54721709432687
30
0
41
1
10
52.5646574213359
20
-2.87907100167109
30
0
41
1
10
52.7866330602428
20
-3.20933333811004
30
0
0
SPLINE
5
104
100
AcDbEntity
8
1
62
256
6
ByLayer
370
18
48
1
60
0
100
AcDbSpline
70
4
71
3
72
52
73
48
40
0
40
0
40
0
40
0
40
0.12500000000002
40
0.12500000000002
40
0.15625000000002
40
0.15625000000002
40
0.187500000000021
40
0.187500000000021
40
0.250000000000018
40
0.250000000000018
40
0.312500000000015
40
0.312500000000015
40
0.343750000000014
40
0.343750000000014
40
0.375000000000013
40
0.375000000000013
40
0.43750000000001
40
0.43750000000001
40
0.500000000000007
40
0.500000000000007
40
0.515625000000005
40
0.515625000000005
40
0.531250000000003
40
0.531250000000003
40
0.562499999999999
40
0.562499999999999
40
0.624999999999991
40
0.624999999999991
40
0.656249999999992
40
0.656249999999992
40
0.687499999999992
40
0.687499999999992
40
0.749999999999994
40
0.749999999999994
40
0.812499999999995
40
0.812499999999995
40
0.843749999999995
40
0.843749999999995
40
0.874999999999996
40
0.874999999999996
40
0.937499999999997
40
0.937499999999997
40
0.953124999999998
40
0.953124999999998
40
0.968749999999999
40
0.968749999999999
40
1
40
1
40
1
40
1
41
1
10
51.4660232657206
20
-1.2091973098276
30
0
41
1
10
51.4123159490365
20
-1.12646325820762
30
0
41
1
10
51.3690993414882
20
-1.03921512031539
30
0
41
1
10
51.3286810531191
20
-0.924801041890191
30
0
41
1
10
51.3212823069744
20
-0.901649454100465
30
0
41
1
10
51.307887476105
20
-0.854811485452103
30
0
41
1
10
51.3018742059218
20
-0.831038093134225
30
0
41
1
10
51.2861681379345
20
-0.759721232686161
30
0
41
1
10
51.2787680188586
20
-0.712159369348512
30
0
41
1
10
51.2698229411892
20
-0.617182978775503
30
0
41
1
10
51.2682773378183
20
-0.569768162575684
30
0
41
1
10
51.2702760600812
20
-0.498893046687499
30
0
41
1
10
51.2716633326571
20
-0.475309223626539
30
0
41
1
10
51.2758883390707
20
-0.428247739287428
30
0
41
1
10
51.2787326829577
20
-0.404776626187811
30
0
41
1
10
51.2892716980901
20
-0.335615814113965
30
0
41
1
10
51.2989885893329
20
-0.290813745505744
30
0
41
1
10
51.3234522602228
20
-0.203888755139246
30
0
41
1
10
51.338198268345
20
-0.16176484452177
30
0
41
1
10
51.3597443854679
20
-0.110885492090176
30
0
41
1
10
51.36421008606
20
-0.100798678063654
30
0
41
1
10
51.3734570790667
20
-0.0808069502266449
30
0
41
1
10
51.3782418981546
20
-0.0708967849940905
30
0
41
1
10
51.3929589940417
20
-0.0416675378868376
30
0
41
1
10
51.4032869446095
20
-0.0227732945792241
30
0
41
1
10
51.4357738209239
20
0.0321604162830056
30
0
41
1
10
51.4594247211177
20
0.0664588145239975
30
0
41
1
10
51.4979014927644
20
0.114388818904615
30
0
41
1
10
51.5112298414477
20
0.129777308642986
30
0
41
1
10
51.5389295946136
20
0.159346759020337
30
0
41
1
10
51.5533274590361
20
0.173551890738196
30
0
41
1
10
51.5980139698285
20
0.214123380196014
30
0
41
1
10
51.6292578121033
20
0.237996809198592
30
0
41
1
10
51.6948713694269
20
0.279460534752474
30
0
41
1
10
51.7292371826783
20
0.297053919915982
30
0
41
1
10
51.7835816541188
20
0.318426266611482
30
0
41
1
10
51.8021668698697
20
0.32471050763408
30
0
41
1
10
51.840399291727
20
0.33548673607396
30
0
41
1
10
51.8597735519047
20
0.339901101055972
30
0
41
1
10
51.9187636749717
20
0.350223142409789
30
0
41
1
10
51.9592361015135
20
0.353230193055197
30
0
41
1
10
52.0117067022107
20
0.351856930323748
30
0
41
1
10
52.0222956727578
20
0.351324055107256
30
0
41
1
10
52.0436782948373
20
0.349727694198293
30
0
41
1
10
52.0544784308558
20
0.348662293761066
30
0
41
1
10
52.0869584179574
20
0.344681770296603
30
0
41
1
10
52.1087965679578
20
0.340979248299106
30
0
41
1
10
52.1308546768657
20
0.336220091353255
30
0
0
SPLINE
5
105
100
AcDbEntity
8
1
62
256
6
ByLayer
370
13
48
1
60
0
100
AcDbSpline
70
4
71
5
72
12
73
6
40
0
40
0
40
0
40
0
40
0
40
0
40
1
40
1
40
1
40
1
40
1
40
1
41
1
10
16.0000000000803
20
4.88496240896171
30
0
41
0.986734859160823
10
16.0000000000803
20
4.06266007450156
30
0
41
0.980212266217162
10
16.0000000000803
20
3.04514807666434
30
0
41
0.980212266217162
10
16.0000000000802
20
1.86890592448613
30
0
41
0.986734859160823
10
16.0000000000802
20
0.576634332047444
30
0
41
1
10
16.0000000000803
20
-0.784283335028221
30
0
0
SPLINE
5
106
100
AcDbEntity
8
1
62
256
6
ByLayer
370
18
48
1
60
0
100
AcDbSpline
70
4
71
1
72
4
73
2
40
0
40
0
40
1
40
1
41
1
10
16
20
4.88496240900633
30
0
41
1
10
9.45315867918509
20
8.52727971684288
30
0
0
SPLINE
5
107
100
AcDbEntity
8
1
62
256
6
ByLayer
370
18
48
1
60
0
100
AcDbSpline
70
4
71
3
72
20
73
16
40
0
40
0
40
0
40
0
40
0.124999999999998
40
0.124999999999998
40
0.249999999999997
40
0.249999999999997
40
0.374999999999993
40
0.374999999999993
40
0.49999999999999
40
0.49999999999999
40
0.624999999999987
40
0.624999999999987
40
0.749999999999984
40
0.749999999999984
40
1
40
1
40
1
40
1
41
1
10
53.2898502341124
20
-8.13836061178066
30
0
41
1
10
53.2886840412191
20
-8.11709355258554
30
0
41
1
10
53.287024945895
20
-8.0962034552272
30
0
41
1
10
53.2828748674808
20
-8.05505947889324
30
0
41
1
10
53.2803827407886
20
-8.03480647251959
30
0
41
1
10
53.2746548224111
20
-7.99486920278574
30
0
41
1
10
53.2713966666941
20
-7.97508936541749
30
0
41
1
10
53.264387298563
20
-7.93705831465425
30
0
41
1
10
53.2606221740422
20
-7.9186847175414
30
0
41
1
10
53.2526430729277
20
-7.88304384465647
30
0
41
1
10
53.2484286723338
20
-7.86577761395134
30
0
41
1
10
53.2395955223989
20
-7.83224178300293
30
0
41
1
10
53.234960033937
20
-7.81592151570493
30
0
41
1
10
53.2206502156082
20
-7.76886749205966
30
0
41
1
10
53.2105649336724
20
-7.73993527682487
30
0
41
1
10
53.2000181162665
20
-7.71306543428292
30
0
0
SPLINE
5
108
100
AcDbEntity
8
1
62
256
6
ByLayer
370
13
48
1
60
0
100
AcDbSpline
70
4
71
3
72
13
73
9
40
0
40
0
40
0
40
0
40
0.258934150176106
40
0.41462169111248
40
0.570309232048855
40
0.725996772985229
40
0.881684313921603
40
1
40
1
40
1
40
1
41
1
10
53.2000181130074
20
-7.71306542597998
30
0
41
1
10
51.8833454086716
20
-7.11035316291222
30
0
41
1
10
49.7750060376691
20
-5.74105225384068
30
0
41
1
10
46.875
20
-3.26026170124115
30
0
41
1
10
44.5000000000001
20
-1.00290802522164
30
0
41
1
10
42.1250000000001
20
1.32248163835823
30
0
41
1
10
39.9400348067971
20
3.37953884559485
30
0
41
1
10
38.546736280261
20
4.56323731558365
30
0
41
1
10
37.9451044203914
20
5.04071383163739
30
0
0
SPLINE
5
109
100
AcDbEntity
8
1
62
256
6
ByLayer
370
13
48
1
60
0
100
AcDbSpline
70
4
71
5
72
12
73
6
40
0
40
0
40
0
40
0
40
0
40
0
40
1
40
1
40
1
40
1
40
1
40
1
41
0.979997494516001
10
34.000000000017
20
5.54699664108144
30
0
41
0.905653775633702
10
34.000000000017
20
4.7152067396787
30
0
41
0.873996937079623
10
34.000000000017
20
3.33683769877348
30
0
41
0.87759979359449
10
34.000000000017
20
1.70420618253123
30
0
41
0.916859989760237
10
34.000000000017
20
0.16393960645203
30
0
41
1
10
34.0000000000171
20
-0.956383451324768
30
0
0
SPLINE
5
10A
100
AcDbEntity
8
1
62
256
6
ByLayer
370
13
48
1
60
0
100
AcDbSpline
70
4
71
3
72
11
73
7
40
0
40
0
40
0
40
0
40
0.164159520615997
40
0.373119640461998
40
0.582079760307999
40
1
40
1
40
1
40
1
41
1
10
45.9640053893654
20
-6.29609242993433
30
0
41
1
10
45.3093369262437
20
-6.25547731591061
30
0
41
1
10
43.8213351297885
20
-6.05163388169402
30
0
41
1
10
41.5
20
-5.33018786527211
30
0
41
1
10
38.1666666666668
20
-3.77464159037802
30
0
41
1
10
35.6666666666667
20
-2.11334382537117
30
0
41
1
10
34
20
-0.956383451313002
30
0
0
SPLINE
5
10B
100
AcDbEntity
8
1
62
256
6
ByLayer
370
13
48
1
60
0
100
AcDbSpline
70
4
71
3
72
17
73
13
40
0
40
0
40
0
40
0
40
0.053294959636837
40
0.159646702670166
40
0.265998445703494
40
0.372350188736823
40
0.478701931770152
40
0.58505367480348
40
0.691405417836809
40
0.797757160870138
40
0.904108903903466
40
1
40
1
40
1
40
1
41
1
10
45.6901594231307
20
-8.3593261050261
30
0
41
1
10
45.2934396154205
20
-8.47255788077032
30
0
41
1
10
44.1050531410436
20
-8.73888649276611
30
0
41
1
10
42.1250000000001
20
-8.80260995487964
30
0
41
1
10
39.75
20
-8.27520879762829
30
0
41
1
10
37.375
20
-7.1723644973581
30
0
41
1
10
35
20
-5.5750880116519
30
0
41
1
10
32.625
20
-3.59039260166986
30
0
41
1
10
30.2500000000001
20
-1.35825746484824
30
0
41
1
10
27.875
20
0.967870048428807
30
0
41
1
10
25.5778675107284
20
3.15371053920021
30
0
41
1
10
24.0724016881235
20
4.4505450741525
30
0
41
1
10
23.3586025321852
20
5.01825998530035
30
0
0
SPLINE
5
10C
100
AcDbEntity
8
1
62
256
6
ByLayer
370
18
48
1
60
0
100
AcDbSpline
70
4
71
3
72
80
73
76
40
0
40
0
40
0
40
0
40
0.0022434023733476
40
0.0022434023733476
40
0.0370248013583102
40
0.0370248013583102
40
0.0544155008507922
40
0.0544155008507922
40
0.0718062003432741
40
0.0718062003432741
40
0.106587599328238
40
0.106587599328238
40
0.141368998313202
40
0.141368998313202
40
0.176150397298166
40
0.176150397298166
40
0.193541096790647
40
0.193541096790647
40
0.210931796283129
40
0.210931796283129
40
0.245713195268092
40
0.245713195268092
40
0.280494594253055
40
0.280494594253055
40
0.297885293745536
40
0.297885293745536
40
0.315275993238018
40
0.315275993238018
40
0.350057392222979
40
0.350057392222979
40
0.384838791207941
40
0.384838791207941
40
0.402229490700421
40
0.402229490700421
40
0.419620190192902
40
0.419620190192902
40
0.454401589177864
40
0.454401589177864
40
0.489182988162825
40
0.489182988162825
40
0.523964387147787
40
0.523964387147787
40
0.541355086640268
40
0.541355086640268
40
0.558745786132749
40
0.558745786132749
40
0.59352718511771
40
0.59352718511771
40
0.628308584102672
40
0.628308584102672
40
0.645699283595152
40
0.645699283595152
40
0.663089983087632
40
0.663089983087632
40
0.697871382072593
40
0.697871382072593
40
0.732652781057554
40
0.732652781057554
40
0.750043480550034
40
0.750043480550034
40
0.767434180042514
40
0.767434180042514
40
0.802215579027473
40
0.802215579027473
40
0.836996978012433
40
0.836996978012433
40
0.871778376997392
40
0.871778376997392
40
0.889169076489872
40
0.889169076489872
40
0.906559775982351
40
0.906559775982351
40
0.941341174967311
40
0.941341174967311
40
1
40
1
40
1
40
1
41
1
10
34.5730050376587
20
7.6168557597257
30
0
41
1
10
34.5861657256288
20
7.62367946164204
30
0
41
1
10
34.5993261191067
20
7.63047800670051
30
0
41
1
10
34.8165195224091
20
7.74226299028516
30
0
41
1
10
35.0205020018524
20
7.8412111624649
30
0
41
1
10
35.3267262565032
20
7.98059574938037
30
0
41
1
10
35.4288423307657
20
8.02555379343073
30
0
41
1
10
35.6332092963954
20
8.11246837696606
30
0
41
1
10
35.7354299179954
20
8.15441008536263
30
0
41
1
10
36.0416913182431
20
8.27547061469056
30
0
41
1
10
36.2455511140281
20
8.34992609556056
30
0
41
1
10
36.6530700255586
20
8.48637640585076
30
0
41
1
10
36.8567282156985
20
8.54837149746109
30
0
41
1
10
37.2642712896536
20
8.65972621645221
30
0
41
1
10
37.4681550818565
20
8.70908723687771
30
0
41
1
10
37.7744938716287
20
8.77334445208535
30
0
41
1
10
37.8766915723133
20
8.79312753132507
30
0
41
1
10
38.0807909376603
20
8.82926557803523
30
0
41
1
10
38.1827583182578
20
8.845635021589
30
0
41
1
10
38.4885032201928
20
8.88955378674999
30
0
41
1
10
38.6921211191612
20
8.91192201252568
30
0
41
1
10
39.0994561451492
20
8.94214079298953
30
0
41
1
10
39.3031786325516
20
8.94991642074496
30
0
41
1
10
39.609257836801
20
8.95049670302004
30
0
41
1
10
39.7113663535848
20
8.94885339540042
30
0
41
1
10
39.9158040585102
20
8.94198424414068
30
0
41
1
10
40.017943517658
20
8.93676638528964
30
0
41
1
10
40.3241381248593
20
8.91593986698584
30
0
41
1
10
40.528006082558
20
8.89516988177184
30
0
41
1
10
40.9356646182679
20
8.84046114278462
30
0
41
1
10
41.139453382975
20
8.80652121777382
30
0
41
1
10
41.4453903554131
20
8.7458880919269
30
0
41
1
10
41.5474116908018
20
8.72405225511184
30
0
41
1
10
41.7515926332055
20
8.67713160205926
30
0
41
1
10
41.8538121449826
20
8.65203179850027
30
0
41
1
10
42.1602613200669
20
8.5719858513323
30
0
41
1
10
42.3642138947712
20
8.51232973840797
30
0
41
1
10
42.7718608014052
20
8.38045214353397
30
0
41
1
10
42.9755535498081
20
8.30823037391446
30
0
41
1
10
43.3831497836882
20
8.1509377626852
30
0
41
1
10
43.5870517155334
20
8.06586608431704
30
0
41
1
10
43.8934774353168
20
7.92819435016796
30
0
41
1
10
43.9957422113465
20
7.88060531359079
30
0
41
1
10
44.1999596036091
20
7.78228296620546
30
0
41
1
10
44.3019824749643
20
7.73152434454281
30
0
41
1
10
44.6078990962386
20
7.57460246750895
30
0
41
1
10
44.8116432447303
20
7.46381737319891
30
0
41
1
10
45.2192261670178
20
7.23083930097573
30
0
41
1
10
45.4230638162487
20
7.10864445174042
30
0
41
1
10
45.7292178213351
20
6.91729654461201
30
0
41
1
10
45.8313350694413
20
6.85216939630368
30
0
41
1
10
46.035753307769
20
6.71928820414564
30
0
41
1
10
46.1379326403375
20
6.65161255374349
30
0
41
1
10
46.4441898711837
20
6.44516649393719
30
0
41
1
10
46.6481028795394
20
6.30291550419332
30
0
41
1
10
47.0558243475732
20
6.00953291759771
30
0
41
1
10
47.2596313823706
20
5.85839529210264
30
0
41
1
10
47.5655798288055
20
5.62514137445319
30
0
41
1
10
47.667602504853
20
5.54629767899854
30
0
41
1
10
47.8717845778281
20
5.38643279570471
30
0
41
1
10
47.9740011499828
20
5.30536546364846
30
0
41
1
10
48.2805179858855
20
5.05924187967941
30
0
41
1
10
48.4844841387085
20
4.89143209360412
30
0
41
1
10
48.8921283089536
20
4.54850784937202
30
0
41
1
10
49.0958078315538
20
4.37336452885492
30
0
41
1
10
49.5033935202349
20
4.01601896076437
30
0
41
1
10
49.7072984891807
20
3.83385545733091
30
0
41
1
10
50.013682429585
20
3.55580836625401
30
0
41
1
10
50.1159614140737
20
3.46226555618037
30
0
41
1
10
50.3200031245057
20
3.27433797196795
30
0
41
1
10
50.4218483713121
20
3.17987918334941
30
0
41
1
10
50.7269540080638
20
2.89512922175038
30
0
41
1
10
50.9297853937846
20
2.70346652912613
30
0
41
1
10
51.473802400398
20
2.18437075544483
30
0
41
1
10
51.8143797489982
20
1.85407124405674
30
0
41
1
10
52.1550934639233
20
1.52044027501518
30
0
0
SPLINE
5
10D
100
AcDbEntity
8
1
62
256
6
ByLayer
370
18
48
1
60
0
100
AcDbSpline
70
4
71
3
72
8
73
4
40
0
40
0
40
0
40
0
40
1
40
1
40
1
40
1
41
1
10
16
20
-4.72443749088762
30
0
41
1
10
15.8664508896338
20
-4.54468511068995
30
0
41
1
10
15.7325596778348
20
-4.36508070677593
30
0
41
1
10
15.5980762113533
20
-4.18580716694456
30
0
0
SPLINE
5
10E
100
AcDbEntity
8
1
62
256
6
ByLayer
370
18
48
1
60
0
100
AcDbSpline
70
4
71
5
72
12
73
6
40
0
40
0
40
0
40
0
40
0
40
0
40
1
40
1
40
1
40
1
40
1
40
1
41
1
10
16
20
-0.784283334950459
30
0
41
0.982046544621805
10
16
20
-0.868223599464085
30
0
41
0.973271271032717
10
16.0000000000001
20
-0.947042757899796
30
0
41
0.973271271032717
10
16.0000000000001
20
-1.01682470573163
30
0
41
0.982046544621805
10
16
20
-1.07414675099707
30
0
41
1
10
16
20
-1.11624628143909
30
0
0
SPLINE
5
10F
100
AcDbEntity
8
1
62
256
6
ByLayer
370
13
48
1
60
0
100
AcDbSpline
70
4
71
1
72
4
73
2
40
0
40
0
40
1
40
1
41
1
10
16
20
-0.784283334950459
30
0
41
1
10
12.1637574328882
20
2.93485683787233
30
0
0
SPLINE
5
110
100
AcDbEntity
8
1
62
256
6
ByLayer
370
13
48
1
60
0
100
AcDbSpline
70
4
71
3
72
9
73
5
40
0
40
0
40
0
40
0
40
0.699238762351721
40
1
40
1
40
1
40
1
41
1
10
27.8066937693428
20
6.23105230399727
30
0
41
1
10
27.0377958462286
20
6.50546846203537
30
0
41
1
10
25.9381744228849
20
6.79906659466181
30
0
41
1
10
24.8385529995413
20
6.93933571903676
30
0
41
1
10
24.5078294993118
20
6.96750233724012
30
0
0
SPLINE
5
111
100
AcDbEntity
8
1
62
256
6
ByLayer
370
18
48
1
60
0
100
AcDbSpline
70
4
71
3
72
57
73
53
40
0
40
0
40
0
40
0
40
0.062500000000013
40
0.062500000000013
40
0.125000000000026
40
0.125000000000026
40
0.156250000000032
40
0.156250000000032
40
0.187500000000039
40
0.187500000000039
40
0.250000000000048
40
0.250000000000048
40
0.281250000000053
40
0.281250000000053
40
0.296875000000055
40
0.296875000000055
40
0.312500000000058
40
0.312500000000058
40
0.375000000000064
40
0.375000000000064
40
0.43750000000007
40
0.43750000000007
40
0.468750000000071
40
0.468750000000071
40
0.484375000000072
40
0.484375000000072
40
0.500000000000072
40
0.562500000000078
40
0.562500000000078
40
0.593750000000079
40
0.593750000000079
40
0.62500000000008
40
0.62500000000008
40
0.656250000000081
40
0.656250000000081
40
0.671875000000079
40
0.671875000000079
40
0.687500000000078
40
0.687500000000078
40
0.750000000000071
40
0.750000000000071
40
0.812500000000065
40
0.812500000000065
40
0.828125000000059
40
0.828125000000059
40
0.843750000000054
40
0.843750000000054
40
0.875000000000043
40
0.875000000000043
40
0.937500000000022
40
0.937500000000022
40
1
40
1
40
1
40
1
41
1
10
34
20
5.54674958163562
30
0
41
1
10
33.8846760528402
20
5.63690162071316
30
0
41
1
10
33.7692869947451
20
5.72758003857155
30
0
41
1
10
33.5387254562578
20
5.90782310620889
30
0
41
1
10
33.4235488165102
20
5.99744054339607
30
0
41
1
10
33.2510393980817
20
6.12892549377901
30
0
41
1
10
33.1935777406062
20
6.17225336952998
30
0
41
1
10
33.0787343329512
20
6.2573182288327
30
0
41
1
10
33.0213532744947
20
6.29905761328473
30
0
41
1
10
32.8492860367048
20
6.42063068987295
30
0
41
1
10
32.7347332144136
20
6.49686706879697
30
0
41
1
10
32.5622995857055
20
6.59692948149555
30
0
41
1
10
32.5047072552185
20
6.62787872940208
30
0
41
1
10
32.4178971249988
20
6.67004023053562
30
0
41
1
10
32.3887993086947
20
6.68342420600945
30
0
41
1
10
32.3310652381478
20
6.70845225351931
30
0
41
1
10
32.3023863788351
20
6.72012266587171
30
0
41
1
10
32.1597388342034
20
6.77445321821352
30
0
41
1
10
32.0479617949605
20
6.80510452243803
30
0
41
1
10
31.8243158608978
20
6.84650965647151
30
0
41
1
10
31.7124634821727
20
6.85728204042118
30
0
41
1
10
31.542065587637
20
6.86077394600289
30
0
41
1
10
31.4848377543148
20
6.85980551904643
30
0
41
1
10
31.3980683517988
20
6.85529562455542
30
0
41
1
10
31.3689608514051
20
6.85327863033507
30
0
41
1
10
31.3106763542851
20
6.84827010618136
30
0
41
1
10
31.1646515764369
20
6.83330925528017
30
0
41
1
10
31.0165355341474
20
6.80662716223867
30
0
41
1
10
30.8347305541268
20
6.76498812111854
30
0
41
1
10
30.77345029128
20
6.7495040092642
30
0
41
1
10
30.6491565837217
20
6.71563357804061
30
0
41
1
10
30.5861459192647
20
6.69722749687188
30
0
41
1
10
30.4579635192135
20
6.65798636178169
30
0
41
1
10
30.392785894457
20
6.63718158204193
30
0
41
1
10
30.2930498069858
20
6.60478811533059
30
0
41
1
10
30.2594955156737
20
6.59379870092911
30
0
41
1
10
30.1920567498487
20
6.57165070715394
30
0
41
1
10
30.1581280034009
20
6.56047798062144
30
0
41
1
10
29.9873500502189
20
6.50439259195204
30
0
41
1
10
29.8470760145194
20
6.45881997411001
30
0
41
1
10
29.55736149948
20
6.37305282903731
30
0
41
1
10
29.4079156784441
20
6.33281993435349
30
0
41
1
10
29.2145878494293
20
6.29026683875642
30
0
41
1
10
29.1755982540228
20
6.28214584621796
30
0
41
1
10
29.0969609254663
20
6.26679518214789
30
0
41
1
10
29.0573070796014
20
6.25956731523473
30
0
41
1
10
28.9382985271304
20
6.23952460892139
30
0
41
1
10
28.8585886490434
20
6.228293495244
30
0
41
1
10
28.6185085546288
20
6.20164359349846
30
0
41
1
10
28.4571882526777
20
6.19334293398941
30
0
41
1
10
28.1329319671861
20
6.19711155456301
30
0
41
1
10
27.9700001782068
20
6.20915090086925
30
0
41
1
10
27.8066937693464
20
6.23105230399599
30
0
0
SPLINE
5
112
100
AcDbEntity
8
1
62
256
6
ByLayer
370
18
48
1
60
0
100
AcDbSpline
70
4
71
3
72
8
73
4
40
0
40
0
40
0
40
0
40
1
40
1
40
1
40
1
41
1
10
33.999855281432
20
5.54687964439415
30
0
41
1
10
33.9999035232078
20
5.54752035700963
30
0
41
1
10
33.9999517649711
20
5.54816028157245
30
0
41
1
10
34.0000000067218
20
5.5487994173773
30
0
0
SPLINE
5
113
100
AcDbEntity
8
1
62
256
6
ByLayer
370
18
48
1
60
0
100
AcDbSpline
70
4
71
3
72
26
73
22
40
0
40
0
40
0
40
0
40
0.136537406744779
40
0.136537406744779
40
0.273074813489558
40
0.273074813489558
40
0.341343516861947
40
0.341343516861947
40
0.409612220234337
40
0.409612220234337
40
0.546149626979115
40
0.546149626979115
40
0.682687033723894
40
0.682687033723894
40
0.819224440468672
40
0.819224440468672
40
0.887493143841059
40
0.887493143841059
40
0.955761847213445
40
0.955761847213445
40
1
40
1
40
1
40
1
41
1
10
34.0000000000171
20
5.54879932786449
30
0
41
1
10
34.2043642125369
20
5.38890299237266
30
0
41
1
10
34.408457052653
20
5.22516467528499
30
0
41
1
10
34.8165321553386
20
4.88991688042336
30
0
41
1
10
35.020520510643
20
4.71842304235435
30
0
41
1
10
35.3267558663425
20
4.45579349701089
30
0
41
1
10
35.4288760198696
20
4.36735344052784
30
0
41
1
10
35.6332518801068
20
4.18874367495198
30
0
41
1
10
35.7354661536843
20
4.09860924826987
30
0
41
1
10
36.0417179728345
20
3.82630284614271
30
0
41
1
10
36.2455740268575
20
3.64204838460549
30
0
41
1
10
36.6530904552832
20
3.26857562854553
30
0
41
1
10
36.8567498995728
20
3.07935644924186
30
0
41
1
10
37.264300411201
20
2.69634020237857
30
0
41
1
10
37.4681903815703
20
2.50254250359333
30
0
41
1
10
37.7745423649623
20
2.2086585306759
30
0
41
1
10
37.8767361891592
20
2.1101744839261
30
0
41
1
10
38.0808298292962
20
1.91269628988175
30
0
41
1
10
38.1827949902589
20
1.81363954007921
30
0
41
1
10
38.3507483336637
20
1.64991336848021
30
0
41
1
10
38.416766288138
20
1.58541298716401
30
0
41
1
10
38.4827711661172
20
1.52079738338509
30
0
0
SPLINE
5
114
100
AcDbEntity
8
1
62
256
6
ByLayer
370
18
48
1
60
0
100
AcDbSpline
70
4
71
5
72
12
73
6
40
0
40
0
40
0
40
0
40
0
40
0
40
1
40
1
40
1
40
1
40
1
40
1
41
1
10
16.0000000001476
20
8.03156828623597
30
0
41
0.93160221957584
10
16.0000000001477
20
7.47690576495355
30
0
41
0.900327239593104
10
16.0000000001476
20
6.7504799362647
30
0
41
0.900327239593104
10
16.0000000001476
20
5.98613933829315
30
0
41
0.93160221957584
10
16.0000000001476
20
5.3240185619402
30
0
41
1
10
16.0000000001476
20
4.88496240892422
30
0
0
SPLINE
5
115
100
AcDbEntity
8
1
62
256
6
ByLayer
370
13
48
1
60
0
100
AcDbSpline
70
4
71
3
72
11
73
7
40
0
40
0
40
0
40
0
40
0.184683563270004
40
0.388512672452503
40
0.592341781635002
40
1
40
1
40
1
40
1
41
1
10
27.6519176751812
20
-3.51810210330862
30
0
41
1
10
26.9346117834542
20
-3.03423579835501
30
0
41
1
10
25.4256392250604
20
-1.94777485763794
30
0
41
1
10
23.1250000000001
20
-0.153693060049136
30
0
41
1
10
19.9583333333333
20
2.31612288781594
30
0
41
1
10
17.5833333333334
20
4.00407922863366
30
0
41
1
10
16.0000000000001
20
4.88496240900633
30
0
0
SPLINE
5
116
100
AcDbEntity
8
1
62
256
6
ByLayer
370
18
48
1
60
0
100
AcDbSpline
70
4
71
3
72
10
73
6
40
0
40
0
40
0
40
0
40
0.47943754845879
40
0.47943754845879
40
1
40
1
40
1
40
1
41
1
10
28.6031504452693
20
-3.63671278933592
30
0
41
1
10
28.4521196556685
20
-3.61080552900305
30
0
41
1
10
28.3003621757219
20
-3.58987872205009
30
0
41
1
10
27.9830905536106
20
-3.55156784265643
30
0
41
1
10
27.8175147982277
20
-3.53462858601381
30
0
41
1
10
27.6519176751834
20
-3.51810210331007
30
0
0
SPLINE
5
117
100
AcDbEntity
8
1
62
256
6
ByLayer
370
13
48
1
60
0
100
AcDbSpline
70
4
71
1
72
4
73
2
40
0
40
0
40
1
40
1
41
1
10
16
20
-8.65673281389229
30
0
41
1
10
12.1637531927749
20
-9.17641741852654
30
0
0
SPLINE
5
118
100
AcDbEntity
8
1
62
256
6
ByLayer
370
13
48
1
60
0
100
AcDbSpline
70
4
71
5
72
12
73
6
40
0
40
0
40
0
40
0
40
0
40
0
40
1
40
1
40
1
40
1
40
1
40
1
41
0.998960200527676
10
16.0000000001075
20
-4.78884381387768
30
0
41
0.984046473444812
10
16.0000000001075
20
-6.03067047245199
30
0
41
0.97683271953676
10
16.0000000001075
20
-7.07705849764171
30
0
41
0.977036745496606
10
16.0000000001076
20
-7.88372166009135
30
0
41
0.98466248525897
10
16.0000000001075
20
-8.41730108709061
30
0
41
1
10
16.0000000001075
20
-8.65673281387774
30
0
0
SPLINE
5
119
100
AcDbEntity
8
1
62
256
6
ByLayer
370
18
48
1
60
0
100
AcDbSpline
70
4
71
1
72
4
73
2
40
0
40
0
40
1
40
1
41
1
10
15.9736800265964
20
-4.68922833787775
30
0
41
1
10
7.702154850216
20
0.0921451541248643
30
0
0
SPLINE
5
11A
100
AcDbEntity
8
1
62
256
6
ByLayer
370
18
48
1
60
0
100
AcDbSpline
70
4
71
3
72
52
73
48
40
0
40
0
40
0
40
0
40
0.0205708068107805
40
0.0205708068107805
40
0.190928654849532
40
0.190928654849532
40
0.276107578868911
40
0.276107578868911
40
0.361286502888289
40
0.361286502888289
40
0.446465426907668
40
0.446465426907668
40
0.531644350927047
40
0.531644350927047
40
0.552939081931891
40
0.552939081931891
40
0.574233812936736
40
0.574233812936736
40
0.616823274946419
40
0.616823274946419
40
0.659412736956101
40
0.659412736956101
40
0.702002198965784
40
0.702002198965784
40
0.723296929970626
40
0.723296929970626
40
0.744591660975467
40
0.744591660975467
40
0.787181122985144
40
0.787181122985144
40
0.808475853989979
40
0.808475853989979
40
0.829770584994814
40
0.829770584994814
40
0.87236004700449
40
0.87236004700449
40
0.893654778009328
40
0.893654778009328
40
0.914949509014166
40
0.914949509014166
40
0.957538971023842
40
0.957538971023842
40
0.968186336526262
40
0.968186336526262
40
0.978833702028682
40
0.978833702028682
40
1
40
1
40
1
40
1
41
1
10
10.5657646304472
20
-9.49999759717991
30
0
41
1
10
10.5469890115383
20
-9.49998973942434
30
0
41
1
10
10.5281693649324
20
-9.49996217112175
30
0
41
1
10
10.353074130544
20
-9.49953131597013
30
0
41
1
10
10.1937749951793
20
-9.49784539747381
30
0
41
1
10
9.94872249367236
20
-9.49422107993698
30
0
41
1
10
9.86601426157108
20
-9.49283223434691
30
0
41
1
10
9.69815496283974
20
-9.48986738762915
30
0
41
1
10
9.61285117908415
20
-9.48828818830853
30
0
41
1
10
9.44090361229104
20
-9.48518039347917
30
0
41
1
10
9.35411312108033
20
-9.48364900099992
30
0
41
1
10
9.17850205536814
20
-9.4808818270669
30
0
41
1
10
9.08968907194193
20
-9.47964505503998
30
0
41
1
10
8.97707748842475
20
-9.47845467511317
30
0
41
1
10
8.95445754439012
20
-9.47823438955442
30
0
41
1
10
8.90925601614191
20
-9.47783614782347
30
0
41
1
10
8.886652142331
20
-9.47765792771486
30
0
41
1
10
8.81883067139614
20
-9.47719219093457
30
0
41
1
10
8.77360325948001
20
-9.47697356118823
30
0
41
1
10
8.68311876365311
20
-9.47675390583598
30
0
41
1
10
8.63786170084919
20
-9.47675285741889
30
0
41
1
10
8.54731310089494
20
-9.47700365165352
30
0
41
1
10
8.5020216038061
20
-9.4772554634641
30
0
41
1
10
8.43405323594462
20
-9.47785099215773
30
0
41
1
10
8.41133940723086
20
-9.47808656956576
30
0
41
1
10
8.36630716193127
20
-9.4786299991612
30
0
41
1
10
8.34396041959948
20
-9.47893793207277
30
0
41
1
10
8.27746830542517
20
-9.47997161246241
30
0
41
1
10
8.23386675264558
20
-9.48080773846104
30
0
41
1
10
8.1697756502582
20
-9.48228016275277
30
0
41
1
10
8.14863142166507
20
-9.48280723564949
30
0
41
1
10
8.10683443233648
20
-9.48393171047081
30
0
41
1
10
8.08628701098021
20
-9.48452656993422
30
0
41
1
10
8.02639960908283
20
-9.48637804975007
30
0
41
1
10
7.98856085279351
20
-9.48770987685128
30
0
41
1
10
7.93540351045414
20
-9.48977141477999
30
0
41
1
10
7.91824563370244
20
-9.49047038784735
30
0
41
1
10
7.88539242454485
20
-9.49186142546978
30
0
41
1
10
7.86990235646266
20
-9.49254451016702
30
0
41
1
10
7.82618429237789
20
-9.49452352964187
30
0
41
1
10
7.80070205466677
20
-9.49574974302362
30
0
41
1
10
7.77334028481653
20
-9.49705020446729
30
0
41
1
10
7.7680929879381
20
-9.49729864181788
30
0
41
1
10
7.75804829171423
20
-9.49776913342117
30
0
41
1
10
7.75324664599768
20
-9.49799135676744
30
0
41
1
10
7.73970520241156
20
-9.49860533939386
30
0
41
1
10
7.73170820655707
20
-9.49895012721279
30
0
41
1
10
7.72464265092108
20
-9.49922513760401
30
0
0
SPLINE
5
11B
100
AcDbEntity
8
1
62
256
6
ByLayer
370
18
48
1
60
0
100
AcDbSpline
70
4
71
3
72
14
73
10
40
0
40
0
40
0
40
0
40
0.500000000000005
40
0.500000000000005
40
0.624999999999998
40
0.624999999999998
40
0.749999999999991
40
0.749999999999991
40
1
40
1
40
1
40
1
41
1
10
14.2800791980978
20
-9.49724475678806
30
0
41
1
10
14.2165416746056
20
-9.49885566082958
30
0
41
1
10
14.1653165896949
20
-9.49995968423124
30
0
41
1
10
14.1152764231898
20
-9.50000873223809
30
0
41
1
10
14.1059452200155
20
-9.49995101723314
30
0
41
1
10
14.0888780628619
20
-9.49968865164115
30
0
41
1
10
14.081114577825
20
-9.4994845104064
30
0
41
1
10
14.0599562592395
20
-9.49864134199072
30
0
41
1
10
14.0486869402555
20
-9.49777133337017
30
0
41
1
10
14.0398757409098
20
-9.49656519571221
30
0
0
SPLINE
5
11C
100
AcDbEntity
8
1
62
256
6
ByLayer
370
18
48
1
60
0
100
AcDbSpline
70
4
71
3
72
8
73
4
40
0
40
0
40
0
40
0
40
1
40
1
40
1
40
1
41
1
10
13.0172063930417
20
-9.40119059142702
30
0
41
1
10
13.3601560898737
20
-9.45458967618401
30
0
41
1
10
13.7000384051303
20
-9.48654513993122
30
0
41
1
10
14.0398757409103
20
-9.49656519571221
30
0
0
SPLINE
5
11D
100
AcDbEntity
8
1
62
256
6
ByLayer
370
18
48
1
60
0
100
AcDbSpline
70
4
71
3
72
20
73
16
40
0
40
0
40
0
40
0
40
0.0625000000000031
40
0.0625000000000031
40
0.125000000000006
40
0.125000000000006
40
0.250000000000005
40
0.250000000000005
40
0.375000000000005
40
0.375000000000005
40
0.500000000000004
40
0.500000000000004
40
0.750000000000002
40
0.750000000000002
40
1
40
1
40
1
40
1
41
1
10
12.1637531927618
20
-9.17641741852833
30
0
41
1
10
12.1762538723731
20
-9.18331821074034
30
0
41
1
10
12.18976620609
20
-9.18995593711622
30
0
41
1
10
12.218069765253
20
-9.20284091280072
30
0
41
1
10
12.2328731586682
20
-9.20908604057738
30
0
41
1
10
12.2786825207025
20
-9.22733356795945
30
0
41
1
10
12.3110897613478
20
-9.2388611814763
30
0
41
1
10
12.3780608485869
20
-9.26085875198959
30
0
41
1
10
12.4126108949633
20
-9.27131322324678
30
0
41
1
10
12.4832149265922
20
-9.29130095132993
30
0
41
1
10
12.5192765543209
20
-9.30083239681247
30
0
41
1
10
12.6292181022511
20
-9.32818826042606
30
0
41
1
10
12.704853706582
20
-9.34478382084862
30
0
41
1
10
12.8589750638041
20
-9.37507877738307
30
0
41
1
10
12.9375262489654
20
-9.38878396776551
30
0
41
1
10
13.0172063930416
20
-9.40119059142702
30
0
0
SPLINE
5
11E
100
AcDbEntity
8
1
62
256
6
ByLayer
370
18
48
1
60
0
100
AcDbSpline
70
4
71
3
72
49
73
45
40
0
40
0
40
0
40
0
40
0.0624999999999996
40
0.0624999999999996
40
0.124999999999999
40
0.124999999999999
40
0.187499999999999
40
0.187499999999999
40
0.218749999999998
40
0.218749999999998
40
0.234374999999998
40
0.234374999999998
40
0.249999999999998
40
0.249999999999998
40
0.312499999999997
40
0.312499999999997
40
0.374999999999996
40
0.374999999999996
40
0.437499999999995
40
0.437499999999995
40
0.468749999999995
40
0.468749999999995
40
0.484374999999995
40
0.484374999999995
40
0.499999999999994
40
0.499999999999994
40
0.562499999999994
40
0.562499999999994
40
0.624999999999993
40
0.624999999999993
40
0.687499999999992
40
0.687499999999992
40
0.749999999999992
40
0.749999999999992
40
0.765624999999992
40
0.765624999999992
40
0.781249999999992
40
0.812499999999993
40
0.812499999999993
40
0.874999999999995
40
0.874999999999995
40
0.937499999999998
40
0.937499999999998
40
1
40
1
40
1
40
1
41
1
10
7.70215485021595
20
0.0921451541248928
30
0
41
1
10
7.75561673586955
20
-0.183059610532922
30
0
41
1
10
7.81263053317923
20
-0.455445198130974
30
0
41
1
10
7.93363685871486
20
-0.994805149608823
30
0
41
1
10
7.99762773271885
20
-1.26177944699802
30
0
41
1
10
8.13246527001385
20
-1.79045354076357
30
0
41
1
10
8.20331067724976
20
-2.05215346216559
30
0
41
1
10
8.31466533511437
20
-2.44078196476627
30
0
41
1
10
8.35263180669364
20
-2.56967051495411
30
0
41
1
10
8.41085277447951
20
-2.76201941704386
30
0
41
1
10
8.43047168502912
20
-2.82597168176221
30
0
41
1
10
8.47013374544096
20
-2.95354711872159
30
0
41
1
10
8.49019211151591
20
-3.01721785974928
30
0
41
1
10
8.59137508580534
20
-3.33420890370621
30
0
41
1
10
8.6745859372059
20
-3.58164898694235
30
0
41
1
10
8.84522702090774
20
-4.06482241882935
30
0
41
1
10
8.93265724185892
20
-4.30055436650318
30
0
41
1
10
9.11153461979967
20
-4.76062734741848
30
0
41
1
10
9.20298153013647
20
-4.98496788562994
30
0
41
1
10
9.34309554041522
20
-5.31298465930982
30
0
41
1
10
9.39029170277229
20
-5.42090599602435
30
0
41
1
10
9.46182305466868
20
-5.58065045315723
30
0
41
1
10
9.4857889863753
20
-5.63354243510423
30
0
41
1
10
9.53397315546272
20
-5.73860871488526
30
0
41
1
10
9.55821746327524
20
-5.79083698056962
30
0
41
1
10
9.67972043992233
20
-6.04936122928601
30
0
41
1
10
9.77780841650269
20
-6.24781130293161
30
0
41
1
10
9.97626709796046
20
-6.62845053663622
30
0
41
1
10
10.076636515453
20
-6.81063874747267
30
0
41
1
10
10.2801567112969
20
-7.1589488844879
30
0
41
1
10
10.383306129042
20
-7.32507063222417
30
0
41
1
10
10.5929138879954
20
-7.64117942158944
30
0
41
1
10
10.6993706094669
20
-7.79116697602001
30
0
41
1
10
10.8348848448412
20
-7.96835681151077
30
0
41
1
10
10.8621277264994
20
-8.00330043350877
30
0
41
1
10
10.9166667257345
20
-8.07189887177688
30
0
41
1
10
10.9986196200861
20
-8.17294995858333
30
0
41
1
10
11.0810410979801
20
-8.26851123211372
30
0
41
1
10
11.246606619648
20
-8.4524164180865
30
0
41
1
10
11.3579443491982
20
-8.56540625829908
30
0
41
1
10
11.5831111586432
20
-8.77246079947838
30
0
41
1
10
11.6969383015761
20
-8.86652470462332
30
0
41
1
10
11.9277599010684
20
-9.03573126392769
30
0
41
1
10
12.0447517510939
20
-9.11087363758116
30
0
41
1
10
12.1637531927618
20
-9.17641741852833
30
0
0
SPLINE
5
11F
100
AcDbEntity
8
1
62
256
6
ByLayer
370
18
48
1
60
0
100
AcDbSpline
70
4
71
3
72
80
73
76
40
0
40
0
40
0
40
0
40
0.125000000000002
40
0.125000000000002
40
0.187500000000004
40
0.187500000000004
40
0.218750000000004
40
0.218750000000004
40
0.250000000000005
40
0.250000000000005
40
0.312500000000003
40
0.312500000000003
40
0.375000000000001
40
0.375000000000001
40
0.40625
40
0.40625
40
0.437499999999998
40
0.437499999999998
40
0.499999999999996
40
0.499999999999996
40
0.562499999999994
40
0.562499999999994
40
0.624999999999992
40
0.624999999999992
40
0.640624999999991
40
0.640624999999991
40
0.656249999999991
40
0.656249999999991
40
0.687499999999987
40
0.687499999999987
40
0.718749999999984
40
0.718749999999984
40
0.749999999999981
40
0.749999999999981
40
0.76562499999998
40
0.76562499999998
40
0.78124999999998
40
0.78124999999998
40
0.812499999999979
40
0.812499999999979
40
0.820312499999979
40
0.820312499999979
40
0.82812499999998
40
0.82812499999998
40
0.843749999999978
40
0.843749999999978
40
0.859374999999976
40
0.859374999999976
40
0.867187499999976
40
0.867187499999976
40
0.874999999999977
40
0.874999999999977
40
0.890624999999979
40
0.890624999999979
40
0.89453124999998
40
0.89453124999998
40
0.898437499999981
40
0.898437499999981
40
0.906249999999982
40
0.906249999999982
40
0.921874999999985
40
0.921874999999985
40
0.929687499999987
40
0.929687499999987
40
0.937499999999988
40
0.937499999999988
40
0.953124999999991
40
0.953124999999991
40
0.968749999999994
40
0.968749999999994
40
0.984374999999997
40
0.984374999999997
40
0.992187499999999
40
0.992187499999999
40
1
40
1
40
1
40
1
41
1
10
14.1882172898082
20
-2.62392341313174
30
0
41
1
10
13.9431413468436
20
-2.3754776626885
30
0
41
1
10
13.6965570304051
20
-2.12631665443593
30
0
41
1
10
13.3209837898961
20
-1.75504146271686
30
0
41
1
10
13.1948400253702
20
-1.6316987967607
30
0
41
1
10
13.0037223656062
20
-1.44780874739718
30
0
41
1
10
12.939699091989
20
-1.38669987915799
30
0
41
1
10
12.8109331835709
20
-1.26494826232246
30
0
41
1
10
12.7461727104607
20
-1.20428918205218
30
0
41
1
10
12.5509075434973
20
-1.02336710591607
30
0
41
1
10
12.419371724828
20
-0.90410589804199
30
0
41
1
10
12.15285845947
20
-0.669145316157568
30
0
41
1
10
12.0178833129098
20
-0.553443261339282
30
0
41
1
10
11.8121972302592
20
-0.383321806350295
30
0
41
1
10
11.7430658347759
20
-0.327163611813262
30
0
41
1
10
11.6037402510951
20
-0.216257328446971
30
0
41
1
10
11.5336081055716
20
-0.161557575051603
30
0
41
1
10
11.3216384181746
20
2.51291476445E-05
30
0
41
1
10
11.1782313110152
20
0.104397191078959
30
0
41
1
10
10.8862334246592
20
0.304896958208246
30
0
41
1
10
10.7376515082914
20
0.401038551792169
30
0
41
1
10
10.433968511306
20
0.583002667458857
30
0
41
1
10
10.2788874688477
20
0.668856581798252
30
0
41
1
10
10.079666985414
20
0.767708726820757
30
0
41
1
10
10.0395515776214
20
0.787051431269276
30
0
41
1
10
9.95873104610536
20
0.824807948071509
30
0
41
1
10
9.91798873584622
20
0.843238031002102
30
0
41
1
10
9.79505061801433
20
0.896892848535146
30
0
41
1
10
9.7124364432504
20
0.93036853187445
30
0
41
1
10
9.54566792918496
20
0.991953441720739
30
0
41
1
10
9.46151539671735
20
1.02006892033981
30
0
41
1
10
9.29133646848817
20
1.06979478958945
30
0
41
1
10
9.20531468806851
20
1.0914212007491
30
0
41
1
10
9.07455902247617
20
1.1178951462777
30
0
41
1
10
9.03068524942981
20
1.12572071882974
30
0
41
1
10
8.94228153798377
20
1.13910203744967
30
0
41
1
10
8.8977033833072
20
1.14466365846613
30
0
41
1
10
8.76313522355065
20
1.15736715064105
30
0
41
1
10
8.6733915906556
20
1.160504766092
30
0
41
1
10
8.56115992018877
20
1.15561399801561
30
0
41
1
10
8.53871094459345
20
1.15418923945359
30
0
41
1
10
8.49380721666282
20
1.15036287912184
30
0
41
1
10
8.47134752153801
20
1.14795815862135
30
0
41
1
10
8.40448771481741
20
1.13920996460519
30
0
41
1
10
8.36043609456976
20
1.13132986820583
30
0
41
1
10
8.27355262165574
20
1.11077643644168
30
0
41
1
10
8.23071894991133
20
1.09811032042461
30
0
41
1
10
8.16758442520825
20
1.07472055858383
30
0
41
1
10
8.14668547778737
20
1.06616993316481
30
0
41
1
10
8.10548768343972
20
1.04748561549295
30
0
41
1
10
8.08535359981846
20
1.0374292046705
30
0
41
1
10
8.02643593273348
20
1.00497673060519
30
0
41
1
10
7.98913332942013
20
0.980303183484779
30
0
41
1
10
7.94532648492603
20
0.945113366273716
30
0
41
1
10
7.93670676286644
20
0.937857106368654
30
0
41
1
10
7.91976204607994
20
0.922890115545755
30
0
41
1
10
7.91143678115281
20
0.915176342088728
30
0
41
1
10
7.8871910499856
20
0.891601491889105
30
0
41
1
10
7.87190340736305
20
0.875224532596008
30
0
41
1
10
7.82863976652709
20
0.82413176160378
30
0
41
1
10
7.80325705457525
20
0.787458631829651
30
0
41
1
10
7.77036771925731
20
0.728523863938591
30
0
41
1
10
7.76024794087749
20
0.708149456290073
30
0
41
1
10
7.74209362121647
20
0.666933383281844
30
0
41
1
10
7.73400238436409
20
0.646005265732413
30
0
41
1
10
7.71247252417231
20
0.58232803106506
30
0
41
1
10
7.70175935227041
20
0.538635140386077
30
0
41
1
10
7.68681927221385
20
0.449360529637062
30
0
41
1
10
7.68272752723297
20
0.404715682072748
30
0
41
1
10
7.67995383723101
20
0.315409736642294
30
0
41
1
10
7.68128077675252
20
0.270748646554551
30
0
41
1
10
7.68667466084548
20
0.203744251606395
30
0
41
1
10
7.68904259691072
20
0.181407328944772
30
0
41
1
10
7.69483382051871
20
0.136729159735239
30
0
41
1
10
7.69825908290451
20
0.114385622155311
30
0
41
1
10
7.702154850216
20
0.0921451541248643
30
0
0
SPLINE
5
120
100
AcDbEntity
8
1
62
256
6
ByLayer
370
18
48
1
60
0
100
AcDbSpline
70
4
71
3
72
8
73
4
40
0
40
0
40
0
40
0
40
1
40
1
40
1
40
1
41
1
10
14.5980762113531
20
-3.03793842826829
30
0
41
1
10
14.4616676428468
20
-2.90072839781564
30
0
41
1
10
14.3251173657894
20
-2.76265766528328
30
0
41
1
10
14.1882172898082
20
-2.62392341313171
30
0
0
SPLINE
5
121
100
AcDbEntity
8
1
62
256
6
ByLayer
370
18
48
1
60
0
100
AcDbSpline
70
4
71
3
72
20
73
16
40
0
40
0
40
0
40
0
40
0.0625000000000059
40
0.0625000000000059
40
0.125000000000012
40
0.125000000000012
40
0.250000000000015
40
0.250000000000015
40
0.375000000000019
40
0.375000000000019
40
0.500000000000022
40
0.500000000000022
40
0.750000000000011
40
0.750000000000011
40
1
40
1
40
1
40
1
41
1
10
12.1637574328751
20
2.93485683788506
30
0
41
1
10
12.1762682439603
20
2.90951866105678
30
0
41
1
10
12.1897850669566
20
2.88471397484429
30
0
41
1
10
12.2180923773411
20
2.83576248390003
30
0
41
1
10
12.2328948794432
20
2.81162236499517
30
0
41
1
10
12.2786967494637
20
2.73990384291574
30
0
41
1
10
12.3110923122944
20
2.69297812908252
30
0
41
1
10
12.3780362301354
20
2.60037196769269
30
0
41
1
10
12.4125700451113
20
2.55475610469455
30
0
41
1
10
12.4831385611652
20
2.46445547580174
30
0
41
1
10
12.5191808622856
20
2.4197761819255
30
0
41
1
10
12.6290612492946
20
2.28678311693503
30
0
41
1
10
12.7046519324843
20
2.19947297762329
30
0
41
1
10
12.858679698506
20
2.02694979885723
30
0
41
1
10
12.9371819403697
20
1.94170111232344
30
0
41
1
10
13.0168117052148
20
1.85717458980557
30
0
0
SPLINE
5
122
100
AcDbEntity
8
1
62
256
6
ByLayer
370
18
48
1
60
0
100
AcDbSpline
70
4
71
3
72
46
73
42
40
0
40
0
40
0
40
0
40
0.0625000000000009
40
0.0625000000000009
40
0.125000000000002
40
0.125000000000002
40
0.187500000000003
40
0.250000000000004
40
0.250000000000004
40
0.281250000000004
40
0.281250000000004
40
0.296875000000004
40
0.296875000000004
40
0.312500000000004
40
0.375000000000003
40
0.375000000000003
40
0.437500000000002
40
0.437500000000002
40
0.500000000000001
40
0.500000000000001
40
0.5625
40
0.5625
40
0.578125
40
0.578125
40
0.59375
40
0.624999999999999
40
0.624999999999999
40
0.687499999999999
40
0.687499999999999
40
0.749999999999999
40
0.749999999999999
40
0.8125
40
0.8125
40
0.84375
40
0.859375
40
0.859375
40
0.875
40
0.875
40
0.9375
40
0.9375
40
1
40
1
40
1
40
1
41
1
10
7.73378578039308
20
9.48384813831726
30
0
41
1
10
7.80325344391628
20
9.46942259099961
30
0
41
1
10
7.87451847528194
20
9.44549265243492
30
0
41
1
10
8.020746266034
20
9.37949593080884
30
0
41
1
10
8.09570817209746
20
9.33742735564419
30
0
41
1
10
8.24941577514704
20
9.23567307226034
30
0
41
1
10
8.40690642167726
20
9.11630001119113
30
0
41
1
10
8.57215156842173
20
8.962117041336
30
0
41
1
10
8.69908695273276
20
8.83336513756228
30
0
41
1
10
8.74189929297239
20
8.78825976567472
30
0
41
1
10
8.80688368761238
20
8.71729082960391
30
0
41
1
10
8.82867033757157
20
8.69308419749149
30
0
41
1
10
8.87232361172704
20
8.64376642544028
30
0
41
1
10
8.98176641121282
20
8.51808980474863
30
0
41
1
10
9.09275214114626
20
8.38066387792674
30
0
41
1
10
9.27231228139789
20
8.1462412811988
30
0
41
1
10
9.36308347722303
20
8.02175831272962
30
0
41
1
10
9.54665276951079
20
7.75849195123555
30
0
41
1
10
9.63943803856699
20
7.61970507933756
30
0
41
1
10
9.82718717274975
20
7.32785651303081
30
0
41
1
10
9.92218218629574
20
7.17480121126655
30
0
41
1
10
10.042671650349
20
6.97451236935257
30
0
41
1
10
10.0668783715612
20
6.93396916403395
30
0
41
1
10
10.1153153756448
20
6.85225316392263
30
0
41
1
10
10.1880382482692
20
6.72868307790628
30
0
41
1
10
10.2609962214947
20
6.60216640562751
30
0
41
1
10
10.407311362575
20
6.34530029372348
30
0
41
1
10
10.5053869895807
20
6.16895028252745
30
0
41
1
10
10.7030516877498
20
5.80643380044174
30
0
41
1
10
10.8026397955829
20
5.62026659581093
30
0
41
1
10
11.0037899622405
20
5.23837651591907
30
0
41
1
10
11.1053509273379
20
5.04265311341334
30
0
41
1
10
11.2595510224735
20
4.74201133339037
30
0
41
1
10
11.3371163953408
20
4.58992500803717
30
0
41
1
10
11.415458852663
20
4.43520047845473
30
0
41
1
10
11.4678693379465
20
4.33146492826333
30
0
41
1
10
11.4941830750199
20
4.27926956126723
30
0
41
1
10
11.6259776422347
20
4.01733380945549
30
0
41
1
10
11.7321061632726
20
3.80477601359883
30
0
41
1
10
11.9463101015247
20
3.37399117904784
30
0
41
1
10
12.0543838978108
20
3.15576312856714
30
0
41
1
10
12.1637574328751
20
2.93485683788509
30
0
0
SPLINE
5
123
100
AcDbEntity
8
1
62
256
6
ByLayer
370
18
48
1
60
0
100
AcDbSpline
70
4
71
3
72
69
73
65
40
0
40
0
40
0
40
0
40
0.137091921630335
40
0.137091921630335
40
0.205637882445505
40
0.205637882445505
40
0.239910862853091
40
0.239910862853091
40
0.274183843260678
40
0.274183843260678
40
0.342729804075847
40
0.342729804075847
40
0.411275764891017
40
0.411275764891017
40
0.479821725706186
40
0.479821725706186
40
0.548367686521356
40
0.548367686521356
40
0.565504176725148
40
0.565504176725148
40
0.582640666928941
40
0.616913647336525
40
0.616913647336525
40
0.685459608151694
40
0.685459608151694
40
0.719732588559279
40
0.719732588559279
40
0.754005568966864
40
0.754005568966864
40
0.788278549374449
40
0.788278549374449
40
0.822551529782033
40
0.822551529782033
40
0.83111977488393
40
0.83111977488393
40
0.839688019985827
40
0.839688019985827
40
0.85682451018962
40
0.85682451018962
40
0.873961000393414
40
0.873961000393414
40
0.891097490597208
40
0.891097490597208
40
0.899665735699103
40
0.899665735699103
40
0.908233980800999
40
0.908233980800999
40
0.925370471004787
40
0.925370471004787
40
0.933938716106682
40
0.933938716106682
40
0.942506961208576
40
0.942506961208576
40
0.959643451412364
40
0.959643451412364
40
0.968211696514259
40
0.968211696514259
40
0.976779941616153
40
0.976779941616153
40
0.993916431819941
40
0.993916431819941
40
0.998200554370889
40
0.998200554370889
40
1
40
1
40
1
40
1
41
1
10
14.1882172898083
20
8.98060650282974
30
0
41
1
10
13.9386744176076
20
9.06644700260301
30
0
41
1
10
13.6875670658625
20
9.14112250602494
30
0
41
1
10
13.3049302651318
20
9.23647355744427
30
0
41
1
10
13.1763853175509
20
9.26548724827182
30
0
41
1
10
12.9815685294278
20
9.304930735098
30
0
41
1
10
12.9162959580058
20
9.31739954371812
30
0
41
1
10
12.7849938993488
20
9.34099823090935
30
0
41
1
10
12.7189449991126
20
9.35213062635856
30
0
41
1
10
12.5198599274821
20
9.38350433494912
30
0
41
1
10
12.3857950607053
20
9.40173821594152
30
0
41
1
10
12.1142526367857
20
9.43316272196213
30
0
41
1
10
11.9767774482775
20
9.44635290429875
30
0
41
1
10
11.6975523385196
20
9.46809465071664
30
0
41
1
10
11.5558067407261
20
9.47664540149765
30
0
41
1
10
11.2669480505201
20
9.48961555251918
30
0
41
1
10
11.1198326621083
20
9.4940335337522
30
0
41
1
10
10.9317123351714
20
9.49737707303353
30
0
41
1
10
10.8938670987405
20
9.49793719561328
30
0
41
1
10
10.8178874811002
20
9.49885051138673
30
0
41
1
10
10.7034284760384
20
9.4999114305289
30
0
41
1
10
10.5874196300896
20
9.50010796767677
30
0
41
1
10
10.3530741305433
20
9.49953131597005
30
0
41
1
10
10.1937749951786
20
9.49784539747372
30
0
41
1
10
9.94872249367137
20
9.49422107993689
30
0
41
1
10
9.86601426157009
20
9.49283223434682
30
0
41
1
10
9.6981549628386
20
9.48986738762903
30
0
41
1
10
9.61285117908287
20
9.48828818830845
30
0
41
1
10
9.44090361228962
20
9.48518039347908
30
0
41
1
10
9.35411312107885
20
9.48364900099983
30
0
41
1
10
9.17850205536652
20
9.48088182706681
30
0
41
1
10
9.08968907194031
20
9.4796450550399
30
0
41
1
10
8.97707748842299
20
9.47845467511311
30
0
41
1
10
8.95445754438833
20
9.47823438955436
30
0
41
1
10
8.90925601614009
20
9.47783614782341
30
0
41
1
10
8.88665214232921
20
9.4776579277148
30
0
41
1
10
8.81883067139432
20
9.47719219093452
30
0
41
1
10
8.77360325947819
20
9.4769735611882
30
0
41
1
10
8.68311876365121
20
9.47675390583592
30
0
41
1
10
8.63786170084731
20
9.47675285741886
30
0
41
1
10
8.54731310089304
20
9.47700365165346
30
0
41
1
10
8.5020216038042
20
9.47725546346408
30
0
41
1
10
8.43405323594268
20
9.4778509921577
30
0
41
1
10
8.41133940722892
20
9.47808656956573
30
0
41
1
10
8.36630716192934
20
9.47862999916117
30
0
41
1
10
8.34396041959749
20
9.47893793207274
30
0
41
1
10
8.27746830542316
20
9.47997161246238
30
0
41
1
10
8.23386675264351
20
9.48080773846098
30
0
41
1
10
8.1697756502561
20
9.48228016275272
30
0
41
1
10
8.14863142166297
20
9.48280723564946
30
0
41
1
10
8.10683443233438
20
9.48393171047078
30
0
41
1
10
8.08628701097803
20
9.48452656993419
30
0
41
1
10
8.02639960908056
20
9.48637804975002
30
0
41
1
10
7.98856085279118
20
9.48770987685123
30
0
41
1
10
7.93540351045172
20
9.48977141477994
30
0
41
1
10
7.9182456337
20
9.4904703878473
30
0
41
1
10
7.88539242454237
20
9.49186142546975
30
0
41
1
10
7.86990235646016
20
9.49254451016697
30
0
41
1
10
7.82618429237536
20
9.49452352964181
30
0
41
1
10
7.80070205466424
20
9.49574974302359
30
0
41
1
10
7.77334028481405
20
9.49705020446726
30
0
41
1
10
7.76809298793569
20
9.49729864181785
30
0
41
1
10
7.76096111978774
20
9.49763269712471
30
0
41
1
10
7.75889053659446
20
9.49772920917732
30
0
41
1
10
7.75686251430676
20
9.49782314857757
30
0
0
SPLINE
5
124
100
AcDbEntity
8
1
62
256
6
ByLayer
370
18
48
1
60
0
100
AcDbSpline
70
4
71
3
72
20
73
16
40
0
40
0
40
0
40
0
40
0.0229580113775676
40
0.0229580113775676
40
0.145088259955372
40
0.145088259955372
40
0.267218508533177
40
0.267218508533177
40
0.511479005688783
40
0.511479005688783
40
0.633609254266588
40
0.633609254266588
40
0.755739502844392
40
0.755739502844392
40
1
40
1
40
1
40
1
41
1
10
7.69482634033812
20
9.49999997205208
30
0
41
1
10
7.69409469446578
20
9.50000023518888
30
0
41
1
10
7.69339234792335
20
9.49999764681726
30
0
41
1
10
7.68913631912417
20
9.49996303791181
30
0
41
1
10
7.68639855800683
20
9.49985201762144
30
0
41
1
10
7.68247420588904
20
9.49946734176649
30
0
41
1
10
7.68127848538404
20
9.49919364773928
30
0
41
1
10
7.67975185438746
20
9.49812959955864
30
0
41
1
10
7.68147106816738
20
9.49709632332971
30
0
41
1
10
7.68745293992981
20
9.49506398929233
30
0
41
1
10
7.6900170213205
20
9.49430612941779
30
0
41
1
10
7.69619697218749
20
9.49263002907105
30
0
41
1
10
7.69981896541924
20
9.49171035635757
30
0
41
1
10
7.71209992075936
20
9.48872352671813
30
0
41
1
10
7.72215744448667
20
9.48643052304772
30
0
41
1
10
7.73378578039311
20
9.48384813831726
30
0
0
SPLINE
5
125
100
AcDbEntity
8
1
62
256
6
ByLayer
370
18
48
1
60
0
100
AcDbSpline
70
4
71
3
72
8
73
4
40
0
40
0
40
0
40
0
40
1
40
1
40
1
40
1
41
1
10
14.5980762113533
20
8.82983351525272
30
0
41
1
10
14.4616676428469
20
8.88326015510705
30
0
41
1
10
14.3251173657895
20
8.93353065865702
30
0
41
1
10
14.1882172898083
20
8.98060650282974
30
0
0
SPLINE
5
126
100
AcDbEntity
8
1
62
256
6
ByLayer
370
18
48
1
60
0
100
AcDbSpline
70
4
71
3
72
10
73
6
40
0
40
0
40
0
40
0
40
0.991416924436345
40
0.991416924436345
40
1
40
1
40
1
40
1
41
1
10
14.2800791980981
20
9.49724475678792
30
0
41
1
10
14.2165416746058
20
9.49885566082946
30
0
41
1
10
14.1653165896949
20
9.49995968423116
30
0
41
1
10
14.124937883
20
9.49999926233849
30
0
41
1
10
14.124592121167
20
9.49999952106458
30
0
41
1
10
14.1242471760079
20
9.49999969856808
30
0
0
SPLINE
5
127
100
AcDbEntity
8
1
62
256
6
ByLayer
370
18
48
1
60
0
100
AcDbSpline
70
4
71
3
72
14
73
10
40
0
40
0
40
0
40
0
40
0.499999999999984
40
0.499999999999984
40
0.624999999999988
40
0.624999999999988
40
0.749999999999992
40
0.749999999999992
40
1
40
1
40
1
40
1
41
1
10
14.2800791980979
20
0.268577120598508
30
0
41
1
10
14.2165416158825
20
0.335441492635681
30
0
41
1
10
14.1653164949289
20
0.410393880602243
30
0
41
1
10
14.1152763081358
20
0.513243516054615
30
0
41
1
10
14.105945102473
20
0.534345581457501
30
0
41
1
10
14.0888779437952
20
0.5768737090429
30
0
41
1
10
14.0811144591219
20
0.598342964389559
30
0
41
1
10
14.059956144654
20
0.66331679270553
30
0
41
1
10
14.0486868324352
20
0.707385602031309
30
0
41
1
10
14.0398756431872
20
0.752102029793974
30
0
0
SPLINE
5
128
100
AcDbEntity
8
1
62
256
6
ByLayer
370
18
48
1
60
0
100
AcDbSpline
70
4
71
3
72
8
73
4
40
0
40
0
40
0
40
0
40
1
40
1
40
1
40
1
41
1
10
14.4016852483
20
0.368443388161978
30
0
41
1
10
14.2821294971288
20
0.499271257406548
30
0
41
1
10
14.1613088134665
20
0.626922311254589
30
0
41
1
10
14.0398756431877
20
0.752102029794088
30
0
0
SPLINE
5
129
100
AcDbEntity
8
1
62
256
6
ByLayer
370
13
48
1
60
0
100
AcDbSpline
70
4
71
1
72
4
73
2
40
0
40
0
40
1
40
1
41
1
10
16
20
-1.11624628143909
30
0
41
1
10
13.0168117052148
20
1.85717458980557
30
0
0
SPLINE
5
12A
100
AcDbEntity
8
1
62
256
6
ByLayer
370
18
48
1
60
0
100
AcDbSpline
70
4
71
3
72
8
73
4
40
0
40
0
40
0
40
0
40
1
40
1
40
1
40
1
41
1
10
13.0168117052148
20
1.85717458980559
30
0
41
1
10
13.3598949817241
20
1.49299303225169
30
0
41
1
10
13.6999076980063
20
1.12372876123052
30
0
41
1
10
14.0398756431877
20
0.752102029794088
30
0
0
SPLINE
5
12B
100
AcDbEntity
8
1
62
256
6
ByLayer
370
18
48
1
60
0
100
AcDbSpline
70
4
71
3
72
14
73
10
40
0
40
0
40
0
40
0
40
0.25
40
0.25
40
0.5
40
0.5
40
0.75
40
0.75
40
1
40
1
40
1
40
1
41
1
10
15.5980762113533
20
-4.18580716694456
30
0
41
1
10
15.5206929393627
20
-4.08265119203958
30
0
41
1
10
15.4415436799456
20
-3.98164583359605
30
0
41
1
10
15.2801895075183
20
-3.78343203181305
30
0
41
1
10
15.1979827838119
20
-3.68622580607135
30
0
41
1
10
15.0308748457075
20
-3.49528023227185
30
0
41
1
10
14.9459726557778
20
-3.40154185928057
30
0
41
1
10
14.7737658080925
20
-3.21732276102622
30
0
41
1
10
14.6864606510253
20
-3.12684216644104
30
0
41
1
10
14.5980762113529
20
-3.03793842826846
30
0
0
SPLINE
5
12C
100
AcDbEntity
8
1
62
256
6
ByLayer
370
18
48
1
60
0
100
AcDbSpline
70
4
71
3
72
8
73
4
40
0
40
0
40
0
40
0
40
1
40
1
40
1
40
1
41
1
10
53.3090605623964
20
9.97121302669734
30
0
41
1
10
53.5023022180088
20
9.94795266891751
30
0
41
1
10
53.6955016729443
20
9.92438894966276
30
0
41
1
10
53.8886819516538
20
9.90068738481764
30
0
0
SPLINE
5
12D
100
AcDbEntity
8
1
62
256
6
ByLayer
370
18
48
1
60
0
100
AcDbSpline
70
4
71
3
72
10
73
6
40
0
40
0
40
0
40
0
40
0.5
40
0.5
40
1
40
1
40
1
40
1
41
1
10
14.401685248574
20
0.368443387862101
30
0
41
1
10
14.6654947256979
20
0.0797610665137256
30
0
41
1
10
14.9294050601024
20
-0.209157080123106
30
0
41
1
10
15.4609197006548
20
-0.784237708303579
30
0
41
1
10
15.7285163547809
20
-1.07040737340421
30
0
41
1
10
16.0000000000001
20
-1.35331065215766
30
0
0
SPLINE
5
12E
100
AcDbEntity
8
1
62
256
6
ByLayer
370
13
48
1
60
0
100
AcDbSpline
70
4
71
3
72
8
73
4
40
0
40
0
40
0
40
0
40
1
40
1
40
1
40
1
41
1
10
14.2800791981118
20
0.268577120610018
30
0
41
1
10
14.3205043537434
20
0.302047240650779
30
0
41
1
10
14.3610415399558
20
0.33533292333189
30
0
41
1
10
14.4016852536614
20
0.368443392529599
30
0
0
SPLINE
5
12F
100
AcDbEntity
8
1
62
256
6
ByLayer
370
18
48
1
60
0
100
AcDbSpline
70
4
71
3
72
8
73
4
40
0
40
0
40
0
40
0
40
1
40
1
40
1
40
1
41
1
10
14.2800791981118
20
0.268577120609962
30
0
41
1
10
14.3860355462571
20
0.157072961416958
30
0
41
1
10
14.4920158055684
20
0.0453688742022678
30
0
41
1
10
14.5980762113534
20
-0.0664830716450808
30
0
0
SPLINE
5
130
100
AcDbEntity
8
1
62
256
6
ByLayer
370
18
48
1
60
0
100
AcDbSpline
70
4
71
3
72
28
73
24
40
0
40
0
40
0
40
0
40
0.031249999999997
40
0.031249999999997
40
0.0624999999999939
40
0.0624999999999939
40
0.124999999999996
40
0.124999999999996
40
0.187499999999998
40
0.187499999999998
40
0.249999999999999
40
0.249999999999999
40
0.312500000000001
40
0.312500000000001
40
0.375000000000003
40
0.375000000000003
40
0.500000000000002
40
0.500000000000002
40
0.625000000000001
40
0.625000000000001
40
0.75
40
0.75
40
1
40
1
40
1
40
1
41
1
10
14.5980762113529
20
-0.066483071642466
30
0
41
1
10
14.6201768901448
20
-0.0897905812556985
30
0
41
1
10
14.6408230674109
20
-0.113920163141898
30
0
41
1
10
14.6800765116488
20
-0.163332931353921
30
0
41
1
10
14.6986748479953
20
-0.188621154264041
30
0
41
1
10
14.7521501009267
20
-0.26579988574349
30
0
41
1
10
14.7847453626179
20
-0.31898297785844
30
0
41
1
10
14.8460293151749
20
-0.427568665877771
30
0
41
1
10
14.8746858245694
20
-0.482989407403153
30
0
41
1
10
14.929172451867
20
-0.595441821479795
30
0
41
1
10
14.9549914781179
20
-0.652479747157685
30
0
41
1
10
15.0044640951701
20
-0.767794243404666
30
0
41
1
10
15.028144411149
20
-0.826158460444731
30
0
41
1
10
15.0735535012944
20
-0.943289363519597
30
0
41
1
10
15.0952995243944
20
-1.00209358324091
30
0
41
1
10
15.1582190538379
20
-1.17905543276987
30
0
41
1
10
15.1971023258781
20
-1.29775377106515
30
0
41
1
10
15.270566286223
20
-1.53605082745622
30
0
41
1
10
15.305127803764
20
-1.65565531067895
30
0
41
1
10
15.3709712287892
20
-1.89545722318081
30
0
41
1
10
15.4022452929005
20
-2.01565701487135
30
0
41
1
10
15.4921456566712
20
-2.37684447022602
30
0
41
1
10
15.5469026169375
20
-2.61840511415806
30
0
41
1
10
15.5980762113533
20
-2.86024448909581
30
0
0
SPLINE
5
131
100
AcDbEntity
8
1
62
256
6
ByLayer
370
18
48
1
60
0
100
AcDbSpline
70
4
71
3
72
10
73
6
40
0
40
0
40
0
40
0
40
0.5
40
0.5
40
1
40
1
40
1
40
1
41
1
10
15.5980762113533
20
-2.86024448909572
30
0
41
1
10
15.6653939931402
20
-3.17837907501632
30
0
41
1
10
15.7324206970166
20
-3.49225359867612
30
0
41
1
10
15.866270639677
20
-4.11158219060053
30
0
41
1
10
15.9330930158479
20
-4.41703611230233
30
0
41
1
10
16.0000000000001
20
-4.71821222293357
30
0
0
SPLINE
5
132
100
AcDbEntity
8
1
62
256
6
ByLayer
370
18
48
1
60
0
100
AcDbSpline
70
4
71
3
72
8
73
4
40
0
40
0
40
0
40
0
40
1
40
1
40
1
40
1
41
1
10
16
20
-4.71821222295503
30
0
41
1
10
16
20
-4.72052952825527
30
0
41
1
10
16
20
-4.7228466041617
30
0
41
1
10
16
20
-4.72516345063551
30
0
0
SPLINE
5
133
100
AcDbEntity
8
1
62
256
6
ByLayer
370
18
48
1
60
0
100
AcDbSpline
70
4
71
3
72
26
73
22
40
0
40
0
40
0
40
0
40
0.125000000000001
40
0.125000000000001
40
0.250000000000002
40
0.250000000000002
40
0.375000000000003
40
0.375000000000003
40
0.500000000000004
40
0.500000000000004
40
0.531250000000003
40
0.531250000000003
40
0.562500000000002
40
0.562500000000002
40
0.625000000000003
40
0.625000000000003
40
0.750000000000002
40
0.750000000000002
40
0.875000000000001
40
0.875000000000001
40
1
40
1
40
1
40
1
41
1
10
16.0000000000001
20
-4.72516345063551
30
0
41
1
10
16.30365519989
20
-5.02219174475735
30
0
41
1
10
16.6054969380927
20
-5.30949684157096
30
0
41
1
10
17.2072423615182
20
-5.86388320304024
30
0
41
1
10
17.5071429831285
20
-6.13096263454889
30
0
41
1
10
18.1067445001191
20
-6.64357491571732
30
0
41
1
10
18.406448129857
20
-6.88912422302647
30
0
41
1
10
19.0073618982876
20
-7.35759105131558
30
0
41
1
10
19.3085688634679
20
-7.5805115396499
30
0
41
1
10
19.6871062813343
20
-7.8439981435526
30
0
41
1
10
19.7629153164017
20
-7.89593645654253
30
0
41
1
10
19.9147630660384
20
-7.99827047488569
30
0
41
1
10
19.9906219784638
20
-8.04854445570598
30
0
41
1
10
20.2178355505616
20
-8.19655293390201
30
0
41
1
10
20.3689174901272
20
-8.2915357548074
30
0
41
1
10
20.821278662921
20
-8.56542265474297
30
0
41
1
10
21.1216562043589
20
-8.73329898356349
30
0
41
1
10
21.7216525643943
20
-9.03904592374346
30
0
41
1
10
22.0212781461075
20
-9.17692191858421
30
0
41
1
10
22.621478049159
20
-9.42217526658374
30
0
41
1
10
22.9220504156398
20
-9.52955320683404
30
0
41
1
10
23.2239811791255
20
-9.62114675589265
30
0
0
SPLINE
5
134
100
AcDbEntity
8
1
62
256
6
ByLayer
370
18
48
1
60
0
100
AcDbSpline
70
4
71
3
72
57
73
53
40
0
40
0
40
0
40
0
40
0.0117834762995833
40
0.0235675246020482
40
0.0353521078779666
40
0.0471371890386183
40
0.0589227309533151
40
0.0707086964668166
40
0.0824950484166663
40
0.0942817496505343
40
0.106068763043561
40
0.117856051515701
40
0.129643578049045
40
0.141431305705116
40
0.153219197642233
40
0.165007217132776
40
0.176795327580522
40
0.188583492537953
40
0.200371675723543
40
0.21215984103909
40
0.223947952586989
40
0.23573597468756
40
0.247523871896361
40
0.259311609021466
40
0.271099151140823
40
0.282886463619533
40
0.294673512127181
40
0.306460262655184
40
0.318246681534088
40
0.330032735450941
40
0.341818391466621
40
0.353603617033196
40
0.365388380011276
40
0.37717264868741
40
0.388956391791438
40
0.40073957851392
40
0.412522178523485
40
0.424304161984299
40
0.436085499573469
40
0.447866162498468
40
0.459646123107967
40
0.471425377449892
40
0.483203951736352
40
0.494981873809113
40
0.506759171107826
40
0.518535870680754
40
0.530311999195481
40
0.542087582949676
40
0.676936481413445
40
0.811796516575894
40
0.946700411578356
40
1
40
1
40
1
40
1
41
1
10
23.2239811791256
20
-9.62114675589265
30
0
41
1
10
23.2393089715561
20
-9.62577251091702
30
0
41
1
10
23.269965300471
20
-9.63502424551285
30
0
41
1
10
23.3159504640056
20
-9.64858446988433
30
0
41
1
10
23.361937499191
20
-9.66191233156144
30
0
41
1
10
23.4079262881426
20
-9.67498466143729
30
0
41
1
10
23.4539167545728
20
-9.68780718615602
30
0
41
1
10
23.4999088110495
20
-9.70037788932137
30
0
41
1
10
23.5459023731287
20
-9.71269682946527
30
0
41
1
10
23.5918973555674
20
-9.72476350917387
30
0
41
1
10
23.6378936733384
20
-9.73657758006709
30
0
41
1
10
23.6838912413582
20
-9.74813865389072
30
0
41
1
10
23.7298899745601
20
-9.75944635313647
30
0
41
1
10
23.7758897878743
20
-9.77050029747809
30
0
41
1
10
23.8218905962332
20
-9.78130010740603
30
0
41
1
10
23.86789231457
20
-9.79184540325383
30
0
41
1
10
23.9138948578188
20
-9.80213580545905
30
0
41
1
10
23.9598981409148
20
-9.81217093449357
30
0
41
1
10
24.0059020787938
20
-9.82195041088255
30
0
41
1
10
24.0519065863929
20
-9.83147385519942
30
0
41
1
10
24.0979115786493
20
-9.84074088806736
30
0
41
1
10
24.1439169705014
20
-9.84975113015929
30
0
41
1
10
24.189922676888
20
-9.85850420219785
30
0
41
1
10
24.2359286127486
20
-9.86699972495566
30
0
41
1
10
24.2819346930232
20
-9.87523731925549
30
0
41
1
10
24.3279408326522
20
-9.88321660597035
30
0
41
1
10
24.3739469465764
20
-9.89093720602355
30
0
41
1
10
24.419952949737
20
-9.8983987403891
30
0
41
1
10
24.4659587570756
20
-9.90560083009154
30
0
41
1
10
24.5119642835338
20
-9.91254309620635
30
0
41
1
10
24.5579694440536
20
-9.91922515985985
30
0
41
1
10
24.6039741535771
20
-9.92564664222982
30
0
41
1
10
24.6499783270464
20
-9.93180716454393
30
0
41
1
10
24.6959818794031
20
-9.93770634808664
30
0
41
1
10
24.741984725592
20
-9.94334381417357
30
0
41
1
10
24.7879867805439
20
-9.9487191842482
30
0
41
1
10
24.8339879592432
20
-9.95383207952159
30
0
41
1
10
24.8799881764722
20
-9.95868212231755
30
0
41
1
10
24.9259873477666
20
-9.96326893105336
30
0
41
1
10
24.9719853866219
20
-9.96759213904411
30
0
41
1
10
25.017982247909
20
-9.9716513272337
30
0
41
1
10
25.0639779105812
20
-9.97544631961702
30
0
41
1
10
25.1099723563597
20
-9.97897731953131
30
0
41
1
10
25.1559656230862
20
-9.98224446363483
30
0
41
1
10
25.2019577465766
20
-9.9852479107048
30
0
41
1
10
25.247948767732
20
-9.98798780236567
30
0
41
1
10
25.2939387117949
20
-9.99046432688763
30
0
41
1
10
25.500147098344
20
-10.0003879169169
30
0
41
1
10
25.8666327170497
20
-10.0049948031152
30
0
41
1
10
26.3932573818649
20
-9.97733638072748
30
0
41
1
10
26.8136310828451
20
-9.92801635045311
30
0
41
1
10
27.0583904877529
20
-9.88831306928702
30
0
41
1
10
27.127704717995
20
-9.87619405194928
30
0
0
SPLINE
5
135
100
AcDbEntity
8
1
62
256
6
ByLayer
370
18
48
1
60
0
100
AcDbSpline
70
4
71
3
72
59
73
55
40
0
40
0
40
0
40
0
40
0.0327796171867787
40
0.141992307126461
40
0.251194489668688
40
0.360392778653593
40
0.469593069876443
40
0.578801188756357
40
0.581953334804982
40
0.585372335985574
40
0.589058194692247
40
0.593010913429275
40
0.59723049478985
40
0.601716941432322
40
0.606470256053789
40
0.611490441360941
40
0.6167775000381
40
0.622331434712363
40
0.62815224791581
40
0.634239942044825
40
0.64059451931651
40
0.647215981722301
40
0.65410433097891
40
0.661259568476793
40
0.668681695226412
40
0.676370711802573
40
0.684326618287308
40
0.692549414211751
40
0.701039098497639
40
0.709795669399057
40
0.718819124445347
40
0.728109460385998
40
0.73766667313863
40
0.747490757741252
40
0.757581708310141
40
0.767939518004843
40
0.778564179001922
40
0.789455682479425
40
0.80061401861395
40
0.812039176592658
40
0.823731144642669
40
0.835689910080479
40
0.847915459384352
40
0.86040777829283
40
0.873166851932793
40
0.886192664980746
40
0.899485201861347
40
0.913044446987426
40
0.926870385046145
40
0.940963001336141
40
0.95532228216101
40
0.96994821528468
40
0.984840790454732
40
1
40
1
40
1
40
1
41
1
10
47.9163680888378
20
7.80320087698166
30
0
41
1
10
47.9752976459133
20
7.84417448695706
30
0
41
1
10
48.2305662276117
20
8.01949625394266
30
0
41
1
10
48.6821672571994
20
8.31276071644723
30
0
41
1
10
49.271164373954
20
8.65944021141576
30
0
41
1
10
49.8601543459921
20
8.96898185480552
30
0
41
1
10
50.449164904759
20
9.23999427263348
30
0
41
1
10
50.8475659358879
20
9.39634750420325
30
0
41
1
10
51.055718430755
20
9.47068908608918
30
0
41
1
10
51.0741579221116
20
9.47723757974225
30
0
41
1
10
51.0940360041231
20
9.48425310409377
30
0
41
1
10
51.115352616663
20
9.49172567503535
30
0
41
1
10
51.1381077967385
20
9.49964449277326
30
0
41
1
10
51.1623015537405
20
9.5079980403292
30
0
41
1
10
51.1879339065162
20
9.51677405119293
30
0
41
1
10
51.2150048723329
20
9.52595951568145
30
0
41
1
10
51.2435144700601
20
9.53554067566446
30
0
41
1
10
51.2734627191814
20
9.54550302250726
30
0
41
1
10
51.3048496400264
20
9.55583129387693
30
0
41
1
10
51.3376752536498
20
9.56650947068286
30
0
41
1
10
51.3719395818123
20
9.57752077378319
30
0
41
1
10
51.407642646932
20
9.5888476605642
30
0
41
1
10
51.4447844720436
20
9.60047182136162
30
0
41
1
10
51.4833650807539
20
9.61237417573349
30
0
41
1
10
51.523384497197
20
9.62453486858152
30
0
41
1
10
51.5648427459891
20
9.63693326612221
30
0
41
1
10
51.6077398521803
20
9.64954795170709
30
0
41
1
10
51.6520758412072
20
9.66235672149264
30
0
41
1
10
51.6978507388426
20
9.67533657995949
30
0
41
1
10
51.7450645711447
20
9.68846373528118
30
0
41
1
10
51.7937173644048
20
9.70171359454235
30
0
41
1
10
51.8438091450935
20
9.71506075880629
30
0
41
1
10
51.8953399398063
20
9.72847901803186
30
0
41
1
10
51.9483097752065
20
9.74194134584019
30
0
41
1
10
52.0027186779684
20
9.75541989413006
30
0
41
1
10
52.0585666747182
20
9.76888598754323
30
0
41
1
10
52.1158537919738
20
9.78231011777893
30
0
41
1
10
52.1745800560837
20
9.79566193775705
30
0
41
1
10
52.2347454931642
20
9.8089102556319
30
0
41
1
10
52.2963501290359
20
9.82202302865136
30
0
41
1
10
52.3593939891585
20
9.83496735687896
30
0
41
1
10
52.4238770985651
20
9.84770947671146
30
0
41
1
10
52.4897994817943
20
9.8602147544517
30
0
41
1
10
52.5571611628229
20
9.87244767893543
30
0
41
1
10
52.625962164993
20
9.88437185707051
30
0
41
1
10
52.6962025109573
20
9.89594999742326
30
0
41
1
10
52.7678822225436
20
9.90714393908732
30
0
41
1
10
52.84100132093
20
9.91791450559919
30
0
41
1
10
52.9155598256189
20
9.92822203082372
30
0
41
1
10
52.9915577580237
20
9.93802430185784
30
0
41
1
10
53.0689951273335
20
9.94728442151964
30
0
41
1
10
53.1478719843998
20
9.9559405930348
30
0
41
1
10
53.2281882146515
20
9.96402199256408
30
0
41
1
10
53.2822129635641
20
9.96876818313464
30
0
41
1
10
53.3094650052365
20
9.97116233370116
30
0
0
SPLINE
5
136
100
AcDbEntity
8
1
62
256
6
ByLayer
370
13
48
1
60
0
100
AcDbSpline
70
4
71
3
72
8
73
4
40
0
40
0
40
0
40
0
40
1
40
1
40
1
40
1
41
1
10
18.7705201844689
20
-7.98498944896193
30
0
41
1
10
17.8470134563126
20
-8.41615053250024
30
0
41
1
10
16.9235067281563
20
-8.72242663941151
30
0
41
1
10
16
20
-8.88289639922016
30
0
0
SPLINE
5
137
100
AcDbEntity
8
1
62
256
6
ByLayer
370
18
48
1
60
0
100
AcDbSpline
70
4
71
3
72
10
73
6
40
0
40
0
40
0
40
0
40
0.5
40
0.5
40
1
40
1
40
1
40
1
41
1
10
53.4916399437119
20
0.165700511637482
30
0
41
1
10
53.5091115369714
20
0.158567970285446
30
0
41
1
10
53.5237659804019
20
0.152092081928231
30
0
41
1
10
53.5469991065671
20
0.140556501998645
30
0
41
1
10
53.5555798920756
20
0.135496322674697
30
0
41
1
10
53.5607863511112
20
0.131222666493358
30
0
0
SPLINE
5
138
100
AcDbEntity
8
1
62
256
6
ByLayer
370
18
48
1
60
0
100
AcDbSpline
70
4
71
3
72
35
73
31
40
0
40
0
40
0
40
0
40
0.125000000000008
40
0.125000000000008
40
0.250000000000017
40
0.250000000000017
40
0.281250000000019
40
0.281250000000019
40
0.312500000000022
40
0.375000000000026
40
0.43750000000003
40
0.43750000000003
40
0.468750000000029
40
0.468750000000029
40
0.500000000000029
40
0.500000000000029
40
0.62500000000001
40
0.656250000000007
40
0.656250000000007
40
0.687500000000005
40
0.687500000000005
40
0.750000000000007
40
0.750000000000007
40
0.875000000000003
40
0.875000000000003
40
0.937500000000002
40
0.937500000000002
40
0.968750000000001
40
0.968750000000001
40
1
40
1
40
1
40
1
41
1
10
53.5607863511111
20
0.131222666493386
30
0
41
1
10
53.5890848599746
20
0.117458438685475
30
0
41
1
10
53.6094848531581
20
0.105561138921473
30
0
41
1
10
53.6309446067855
20
0.0863378822053278
30
0
41
1
10
53.6320432115327
20
0.0790027438420964
30
0
41
1
10
53.6177787645194
20
0.0735300174087286
30
0
41
1
10
53.6141237028364
20
0.0726209091792498
30
0
41
1
10
53.605203429062
20
0.0712153078067672
30
0
41
1
10
53.5894079125944
20
0.0697190572577426
30
0
41
1
10
53.5506453093531
20
0.0703776198587036
30
0
41
1
10
53.5055134151779
20
0.0744838941864714
30
0
41
1
10
53.4660178647781
20
0.0789948386503738
30
0
41
1
10
53.4519112851403
20
0.0807371004035531
30
0
41
1
10
53.4217537628232
20
0.0847144572958598
30
0
41
1
10
53.4058376141718
20
0.0869318627689779
30
0
41
1
10
53.3222536683725
20
0.099123051472219
30
0
41
1
10
53.2225557705369
20
0.115744109511553
30
0
41
1
10
53.1048313139061
20
0.137320829567301
30
0
41
1
10
53.0563415991074
20
0.146336371440071
30
0
41
1
10
53.0313484673894
20
0.15104601415058
30
0
41
1
10
52.9550952416159
20
0.165587946928127
30
0
41
1
10
52.9023669289751
20
0.175868036985662
30
0
41
1
10
52.7392888581947
20
0.208221795186347
30
0
41
1
10
52.6240796465134
20
0.231798534055656
30
0
41
1
10
52.4438777615476
20
0.269448835088042
30
0
41
1
10
52.3825697022161
20
0.282382714502347
30
0
41
1
10
52.2889701603009
20
0.302290011878057
30
0
41
1
10
52.257490486648
20
0.309011792957676
30
0
41
1
10
52.1943608174008
20
0.322540344736296
30
0
41
1
10
52.1626670636158
20
0.329356395919774
30
0
41
1
10
52.130854676866
20
0.33622009135243
30
0
0
SPLINE
5
139
100
AcDbEntity
8
1
62
256
6
ByLayer
370
18
48
1
60
0
100
AcDbSpline
70
4
71
3
72
8
73
4
40
0
40
0
40
0
40
0
40
1
40
1
40
1
40
1
41
1
10
53.3094411061377
20
0.243094326586714
30
0
41
1
10
53.3651321312117
20
0.218436671547408
30
0
41
1
10
53.4254486494167
20
0.192732913443052
30
0
41
1
10
53.4916399376809
20
0.165700515390512
30
0
0
SPLINE
5
13A
100
AcDbEntity
8
1
62
256
6
ByLayer
370
13
48
1
60
0
100
AcDbSpline
70
4
71
3
72
15
73
11
40
0
40
0
40
0
40
0
40
0.149537906232487
40
0.284602608819425
40
0.419667311406363
40
0.554732013993301
40
0.68979671658024
40
0.824861419167178
40
0.959926121754116
40
1
40
1
40
1
40
1
41
1
10
51.8794991992712
20
1.82119712534674
30
0
41
1
10
51.0029994661809
20
2.71028218313108
30
0
41
1
10
49.3348330664238
20
4.35355528673912
30
0
41
1
10
46.8750000000001
20
6.43717932779919
30
0
41
1
10
44.5000000000001
20
8.01195297131738
30
0
41
1
10
42.1250000000001
20
9.02205150796641
30
0
41
1
10
39.7500000000001
20
9.41959376675788
30
0
41
1
10
37.375
20
9.15373322084414
30
0
41
1
10
35.5567781058238
20
8.47451973372503
30
0
41
1
10
34.5302228783142
20
7.92775064404512
30
0
41
1
10
34.2953343174713
20
7.79462221905072
30
0
0
SPLINE
5
13B
100
AcDbEntity
8
1
62
256
6
ByLayer
370
13
48
1
60
0
100
AcDbSpline
70
4
71
3
72
16
73
12
40
0
40
0
40
0
40
0
40
0.0465140885013154
40
0.179422465583393
40
0.31233084266547
40
0.445239219747547
40
0.578147596829624
40
0.711055973911701
40
0.843964350993779
40
0.976872728075856
40
1
40
1
40
1
40
1
41
1
10
38.206181319161
20
1.82193440076557
30
0
41
1
10
37.9291208794407
20
2.10291146908904
30
0
41
1
10
36.8603937730537
20
3.1769422681314
30
0
41
1
10
35.0000000000001
20
4.95003358489487
30
0
41
1
10
32.625
20
6.86473997102758
30
0
41
1
10
30.2500000000001
20
8.31330375614382
30
0
41
1
10
27.875
20
9.1764887225853
30
0
41
1
10
25.5000000000001
20
9.41670752371192
30
0
41
1
10
23.1250000000001
20
8.99328047689042
30
0
41
1
10
21.4039094336371
20
8.24403922507588
30
0
41
1
10
20.4744855339409
20
7.71067566268377
30
0
41
1
10
20.3367283009112
20
7.62890513262835
30
0
0
SPLINE
5
13C
100
AcDbEntity
8
1
62
256
6
ByLayer
370
13
48
1
60
0
100
AcDbSpline
70
4
71
3
72
18
73
14
40
0
40
0
40
0
40
0
40
0.0096971989375487
40
0.117484053511434
40
0.225270908085319
40
0.333057762659205
40
0.44084461723309
40
0.548631471806975
40
0.65641832638086
40
0.764205180954746
40
0.871992035528631
40
0.979778890102516
40
1
40
1
40
1
40
1
41
1
10
47.0886702807382
20
-7.97089801366897
30
0
41
1
10
47.0174468538254
20
-8.00435732133531
30
0
41
1
10
46.1545567602461
20
-8.4006506480417
30
0
41
1
10
44.5000000000001
20
-8.94661270351585
30
0
41
1
10
42.1250000000001
20
-9.1077026491734
30
0
41
1
10
39.7500000000001
20
-8.64390573576623
30
0
41
1
10
37.375
20
-7.5791268333119
30
0
41
1
10
35.0000000000001
20
-5.99178999170437
30
0
41
1
10
32.6250000000001
20
-3.98821100400446
30
0
41
1
10
30.2500000000001
20
-1.70967057187244
30
0
41
1
10
27.875
20
0.687163290711624
30
0
41
1
10
26.1431478261075
20
2.40084779555195
30
0
41
1
10
25.2029623188816
20
3.28133414646419
30
0
41
1
10
25.0544434783223
20
3.41902104288098
30
0
0
SPLINE
5
13D
100
AcDbEntity
8
1
62
256
6
ByLayer
370
18
48
1
60
0
100
AcDbSpline
70
4
71
3
72
69
73
65
40
0
40
0
40
0
40
0
40
0.0144870287329532
40
0.0473374611085177
40
0.0473374611085177
40
0.0637626772962994
40
0.0637626772962994
40
0.0719752853901911
40
0.0719752853901911
40
0.0801878934840826
40
0.145888758235215
40
0.145888758235215
40
0.178739190610782
40
0.178739190610782
40
0.211589622986348
40
0.211589622986348
40
0.27729048773748
40
0.27729048773748
40
0.293715703925263
40
0.293715703925263
40
0.301928312019155
40
0.301928312019155
40
0.310140920113046
40
0.310140920113046
40
0.342991352488616
40
0.342991352488616
40
0.375841784864185
40
0.375841784864185
40
0.408692217239755
40
0.408692217239755
40
0.474393081990895
40
0.474393081990895
40
0.507243514366465
40
0.507243514366465
40
0.540093946742034
40
0.540093946742034
40
0.548306554835927
40
0.548306554835927
40
0.55651916292982
40
0.572944379117603
40
0.572944379117603
40
0.605794811493171
40
0.605794811493171
40
0.671495676244306
40
0.671495676244306
40
0.704346108619874
40
0.704346108619874
40
0.737196540995442
40
0.737196540995442
40
0.77004697337101
40
0.77004697337101
40
0.778259581464902
40
0.778259581464902
40
0.786472189558795
40
0.786472189558795
40
0.80289740574658
40
0.80289740574658
40
0.868598270497719
40
0.868598270497719
40
0.901448702873289
40
0.901448702873289
40
0.934299135248859
40
0.934299135248859
40
1
40
1
40
1
40
1
41
1
10
33.7424212872665
20
-8.09893480831713
30
0
41
1
10
33.6567144833991
20
-8.14553175658801
30
0
41
1
10
33.3764239751492
20
-8.29450274799609
30
0
41
1
10
33.0952285562655
20
-8.43246134879621
30
0
41
1
10
32.8015921733022
20
-8.56756983472584
30
0
41
1
10
32.7035580413271
20
-8.61118849401245
30
0
41
1
10
32.5562332450961
20
-8.67441264741865
30
0
41
1
10
32.5070924357849
20
-8.69511375308628
30
0
41
1
10
32.4089790174915
20
-8.73566095774893
30
0
41
1
10
31.9679340839513
20
-8.91440093616075
30
0
41
1
10
31.530894962088
20
-9.05943993620949
30
0
41
1
10
30.9500535087784
20
-9.21302847002664
30
0
41
1
10
30.7567559909204
20
-9.25757444289528
30
0
41
1
10
30.3703371455604
20
-9.3331735758581
30
0
41
1
10
30.1772219899768
20
-9.3641663136313
30
0
41
1
10
29.5973132914449
20
-9.43738425123129
30
0
41
1
10
29.2099278045312
20
-9.4599494017499
30
0
41
1
10
28.7224094606991
20
-9.45759270917671
30
0
41
1
10
28.6247433458745
20
-9.45559606754941
30
0
41
1
10
28.4779665107039
20
-9.45031470958082
30
0
41
1
10
28.4289948956915
20
-9.44817021208141
30
0
41
1
10
28.3309548986157
20
-9.4430975697525
30
0
41
1
10
28.2818662262732
20
-9.44016763203638
30
0
41
1
10
28.0367594692526
20
-9.42356187106034
30
0
41
1
10
27.8413469983136
20
-9.4040065134237
30
0
41
1
10
27.4516861147498
20
-9.35180664424695
30
0
41
1
10
27.2574411257099
20
-9.3191599624667
30
0
41
1
10
26.8698582253
20
-9.24013986135128
30
0
41
1
10
26.6765423237611
20
-9.19365131960294
30
0
41
1
10
26.0971640789228
20
-9.03370341126697
30
0
41
1
10
25.7115304777835
20
-8.90015780213781
30
0
41
1
10
25.1305284033645
20
-8.66458718864007
30
0
41
1
10
24.936450927446
20
-8.58022719544977
30
0
41
1
10
24.5471186536453
20
-8.40011488594706
30
0
41
1
10
24.3518747869476
20
-8.30429725909127
30
0
41
1
10
24.1068862681844
20
-8.17703740691314
30
0
41
1
10
24.0578482165355
20
-8.15121342980535
30
0
41
1
10
23.9599266936891
20
-8.09894546921871
30
0
41
1
10
23.8131821180109
20
-8.01956490365797
30
0
41
1
10
23.6668307743475
20
-7.93724844084915
30
0
41
1
10
23.374596698271
20
-7.76869302609239
30
0
41
1
10
23.1804047511727
20
-7.65107726983615
30
0
41
1
10
22.5991843157095
20
-7.28252776084096
30
0
41
1
10
22.2134801502213
20
-7.01605259454129
30
0
41
1
10
21.6348200673574
20
-6.58675470904063
30
0
41
1
10
21.4419168509161
20
-6.43870468277157
30
0
41
1
10
21.0555754018286
20
-6.13297564294891
30
0
41
1
10
20.8621238694141
20
-5.97534718212441
30
0
41
1
10
20.4740998218441
20
-5.65136954979005
30
0
41
1
10
20.2795330906362
20
-5.48501573121831
30
0
41
1
10
20.0353663873121
20
-5.2720104265662
30
0
41
1
10
19.9864852381162
20
-5.22915596788309
30
0
41
1
10
19.8886211105163
20
-5.14294907829384
30
0
41
1
10
19.8396581370084
20
-5.09961402457023
30
0
41
1
10
19.6929460863562
20
-4.96917808573255
30
0
41
1
10
19.595267109631
20
-4.88155491738485
30
0
41
1
10
19.1073837340147
20
-4.44029109907564
30
0
41
1
10
18.7187970178782
20
-4.07711148527522
30
0
41
1
10
18.1370978049971
20
-3.51733861594295
30
0
41
1
10
17.9433866952202
20
-3.32824926290454
30
0
41
1
10
17.5560008128918
20
-2.94515809215773
30
0
41
1
10
17.3623212657058
20
-2.75116045176344
30
0
41
1
10
16.7805468598302
20
-2.16259546117394
30
0
41
1
10
16.391703702609
20
-1.76149136835281
30
0
41
1
10
16
20
-1.35331065215763
30
0
0
SPLINE
5
13E
100
AcDbEntity
8
1
62
256
6
ByLayer
370
13
48
1
60
0
100
AcDbSpline
70
4
71
3
72
14
73
10
40
0
40
0
40
0
40
0
40
0.0437603971787105
40
0.180366054724609
40
0.316971712270508
40
0.453577369816406
40
0.590183027362305
40
0.726788684908203
40
1
40
1
40
1
40
1
41
1
10
33.3858099486255
20
-7.98532009813144
30
0
41
1
10
33.132206632417
20
-8.10361457159971
30
0
41
1
10
32.0869366495418
20
-8.55208846157765
30
0
41
1
10
30.2500000000001
20
-9.04376877725124
30
0
41
1
10
27.875
20
-9.05349483290738
30
0
41
1
10
25.5000000000001
20
-8.43774352542803
30
0
41
1
10
23.1250000000001
20
-7.23688622568312
30
0
41
1
10
19.9583333333333
20
-4.97054472390934
30
0
41
1
10
17.5833333333334
20
-2.69439553460575
30
0
41
1
10
16.0000000000001
20
-1.11624628143909
30
0
0
SPLINE
5
13F
100
AcDbEntity
8
1
62
256
6
ByLayer
370
18
48
1
60
0
100
AcDbSpline
70
4
71
3
72
8
73
4
40
0
40
0
40
0
40
0
40
1
40
1
40
1
40
1
41
1
10
53.3090605623963
20
0.243186638337221
30
0
41
1
10
53.5023022180088
20
0.195476496515852
30
0
41
1
10
53.6955016729442
20
0.147761630394257
30
0
41
1
10
53.8886819516538
20
0.10004461562113
30
0
0
SPLINE
5
140
100
AcDbEntity
8
1
62
256
6
ByLayer
370
18
48
1
60
0
100
AcDbSpline
70
4
71
3
72
9
73
5
40
0
40
0
40
0
40
0
40
0.5
40
1
40
1
40
1
40
1
41
1
10
53.316659697093
20
3.44377679746214
30
0
41
1
10
53.3782657310687
20
3.24896170374893
30
0
41
1
10
53.5025043409811
20
2.85384427144652
30
0
41
1
10
53.628754507743
20
2.44797432689259
30
0
41
1
10
53.6923794767682
20
2.24236728173
30
0
0
SPLINE
5
141
100
AcDbEntity
8
1
62
256
6
ByLayer
370
18
48
1
60
0
100
AcDbSpline
70
4
71
3
72
38
73
34
40
0
40
0
40
0
40
0
40
0.123954130445288
40
0.123954130445288
40
0.247908260890576
40
0.247908260890576
40
0.30988532611322
40
0.30988532611322
40
0.371862391335864
40
0.371862391335864
40
0.387356657641524
40
0.387356657641524
40
0.402850923947184
40
0.402850923947184
40
0.433839456558502
40
0.433839456558502
40
0.495816521781139
40
0.495816521781139
40
0.619770652226412
40
0.619770652226412
40
0.743724782671685
40
0.743724782671685
40
0.805701847894322
40
0.805701847894322
40
0.836690380505639
40
0.852184646811298
40
0.852184646811298
40
0.867678913116957
40
0.867678913116957
40
0.929655978339599
40
0.929655978339599
40
0.99163304356224
40
1
40
1
40
1
40
1
41
1
10
53.316659697093
20
3.44377679746216
30
0
41
1
10
52.92734280703
20
3.82473849117667
30
0
41
1
10
52.539619886601
20
4.19426396148842
30
0
41
1
10
51.7654540575365
20
4.90792745291404
30
0
41
1
10
51.3790233529415
20
5.25206631492361
30
0
41
1
10
50.7981741028079
20
5.74594329868043
30
0
41
1
10
50.6043482349345
20
5.90683242745331
30
0
41
1
10
50.2157943710355
20
6.22040701630348
30
0
41
1
10
50.0210631720956
20
6.37306872587004
30
0
41
1
10
49.7766777235141
20
6.55862718481191
30
0
41
1
10
49.7277522800581
20
6.59547558738765
30
0
41
1
10
49.6297955022252
20
6.66864338139746
30
0
41
1
10
49.5807528774558
20
6.70497058983079
30
0
41
1
10
49.433863006388
20
6.81285681509266
30
0
41
1
10
49.3361188501007
20
6.88342189193233
30
0
41
1
10
49.0433052307349
20
7.09112605227787
30
0
41
1
10
48.84865192781
20
7.22427835411045
30
0
41
1
10
48.2655740352211
20
7.60838880710733
30
0
41
1
10
47.8780217775839
20
7.84420310788968
30
0
41
1
10
47.1030217575333
20
8.27254563319016
30
0
41
1
10
46.7155753530768
20
8.46501022614396
30
0
41
1
10
46.1322620202945
20
8.71833036852598
30
0
41
1
10
45.9374609795558
20
8.79688424651917
30
0
41
1
10
45.6443798098861
20
8.90543565448718
30
0
41
1
10
45.4976186852135
20
8.95738928442071
30
0
41
1
10
45.3504570934575
20
9.00575417241527
30
0
41
1
10
45.2522520615715
20
9.03718662725001
30
0
41
1
10
45.2030904459627
20
9.05249998408152
30
0
41
1
10
44.9577341020927
20
9.12679563889785
30
0
41
1
10
44.7623531001207
20
9.17908688040163
30
0
41
1
10
44.3727822722843
20
9.26970452588662
30
0
41
1
10
44.1523603089781
20
9.31324721057408
30
0
41
1
10
43.9323234710591
20
9.34822449197227
30
0
41
1
10
43.9061563558651
20
9.35226436603003
30
0
0
SPLINE
5
142
100
AcDbEntity
8
1
62
256
6
ByLayer
370
18
48
1
60
0
100
AcDbSpline
70
4
71
3
72
16
73
12
40
0
40
0
40
0
40
0
40
0.0381532016557942
40
0.0381532016557942
40
0.358768801103867
40
0.358768801103867
40
0.5190766008279
40
0.5190766008279
40
0.679384400551933
40
0.679384400551933
40
1
40
1
40
1
40
1
41
1
10
19.6371024198818
20
-7.80952040501163
30
0
41
1
10
19.5906067363353
20
-7.83705341349943
30
0
41
1
10
19.5441371176446
20
-7.86427926432685
30
0
41
1
10
19.107383905379
20
-8.11742735621314
30
0
41
1
10
18.7187971358732
20
-8.3221055403618
30
0
41
1
10
18.1370978677606
20
-8.59366776532406
30
0
41
1
10
17.9433867436335
20
-8.67826287047228
30
0
41
1
10
17.5560008394073
20
-8.83489940061736
30
0
41
1
10
17.3623212846777
20
-8.90693870490915
30
0
41
1
10
16.7805468630918
20
-9.10414608916059
30
0
41
1
10
16.3917037046744
20
-9.21046081188601
30
0
41
1
10
16
20
-9.29083421057481
30
0
0
SPLINE
5
143
100
AcDbEntity
8
1
62
256
6
ByLayer
370
18
48
1
60
0
100
AcDbSpline
70
4
71
3
72
10
73
6
40
0
40
0
40
0
40
0
40
0.5
40
0.5
40
1
40
1
40
1
40
1
41
1
10
14.4016850916712
20
-9.46411730969433
30
0
41
1
10
14.6654949199476
20
-9.46210513541152
30
0
41
1
10
14.9294054405198
20
-9.44666956970281
30
0
41
1
10
15.4609201339925
20
-9.38888905192539
30
0
41
1
10
15.7285166550807
20
-9.34653966641369
30
0
41
1
10
16
20
-9.29083421057484
30
0
0
SPLINE
5
144
100
AcDbEntity
8
1
62
256
6
ByLayer
370
13
48
1
60
0
100
AcDbSpline
70
4
71
3
72
8
73
4
40
0
40
0
40
0
40
0
40
1
40
1
40
1
40
1
41
1
10
14.2800791981118
20
-9.49724475678431
30
0
41
1
10
14.3205043017236
20
-9.48633786845943
30
0
41
1
10
14.3610414356279
20
-9.47529297940409
30
0
41
1
10
14.4016850967582
20
-9.46411730822228
30
0
0
SPLINE
5
145
100
AcDbEntity
8
1
62
256
6
ByLayer
370
18
48
1
60
0
100
AcDbSpline
70
4
71
3
72
8
73
4
40
0
40
0
40
0
40
0
40
1
40
1
40
1
40
1
41
1
10
14.2800791981118
20
-9.49724475678428
30
0
41
1
10
14.3860355462572
20
-9.49455838344042
30
0
41
1
10
14.4920158055682
20
-9.4899043987354
30
0
41
1
10
14.5980762113534
20
-9.48326880949236
30
0
0
SPLINE
5
146
100
AcDbEntity
8
1
62
256
6
ByLayer
370
18
48
1
60
0
100
AcDbSpline
70
4
71
3
72
20
73
16
40
0
40
0
40
0
40
0
40
0.0904568313102483
40
0.0904568313102483
40
0.180913662620497
40
0.180913662620497
40
0.36182732524097
40
0.36182732524097
40
0.542740987861444
40
0.542740987861444
40
0.723654650481917
40
0.723654650481917
40
0.90456831310239
40
0.90456831310239
40
1
40
1
40
1
40
1
41
1
10
14.5980762113533
20
-9.4832688094923
30
0
41
1
10
14.6201768901452
20
-9.48188609720333
30
0
41
1
10
14.6408230674113
20
-9.4807283879787
30
0
41
1
10
14.6800765116491
20
-9.47864550072998
30
0
41
1
10
14.6986748479956
20
-9.47772244128623
30
0
41
1
10
14.7521501009269
20
-9.47511282362797
30
0
41
1
10
14.7847453626181
20
-9.47357620412743
30
0
41
1
10
14.846029315175
20
-9.47032904732512
30
0
41
1
10
14.874685824574
20
-9.46862639311001
30
0
41
1
10
14.9291724518714
20
-9.4647495533051
30
0
41
1
10
14.9549914781181
20
-9.46257814776942
30
0
41
1
10
15.0044640951702
20
-9.45757520185066
30
0
41
1
10
15.0281444111491
20
-9.45473968910457
30
0
41
1
10
15.0628255698459
20
-9.44983184797889
30
0
41
1
10
15.0745354702503
20
-9.44803202546666
30
0
41
1
10
15.0860059106639
20
-9.44612146903788
30
0
0
SPLINE
5
147
100
AcDbEntity
8
1
62
256
6
ByLayer
370
18
48
1
60
0
100
AcDbSpline
70
4
71
3
72
24
73
20
40
0
40
0
40
0
40
0
40
0.0476839112171391
40
0.158331855777138
40
0.262157283755728
40
0.359158207919216
40
0.449339962473197
40
0.532720116788325
40
0.609311132397451
40
0.679115008361946
40
0.742106229057506
40
0.798262395982728
40
0.847574123324106
40
0.890041271514048
40
0.925669928217365
40
0.954472437862823
40
0.976458864562203
40
0.991634066706505
40
1
40
1
40
1
40
1
41
1
10
33.7418840717533
20
8.09993047169428
30
0
41
1
10
33.8432095084418
20
8.16594231870241
30
0
41
1
10
34.1796671906182
20
8.37999578933318
30
0
41
1
10
34.7368195214516
20
8.70533537851816
30
0
41
1
10
35.3987361229385
20
9.04333481371054
30
0
41
1
10
36.0170419868213
20
9.31527669841714
30
0
41
1
10
36.5917737252001
20
9.52899853614517
30
0
41
1
10
37.1230700117931
20
9.69223563949703
30
0
41
1
10
37.6110306037912
20
9.81245720037563
30
0
41
1
10
38.0556350519376
20
9.89675234298261
30
0
41
1
10
38.456869405783
20
9.95197227438672
30
0
41
1
10
38.8146635971226
20
9.98439552268161
30
0
41
1
10
39.1289594502758
20
9.99969046124576
30
0
41
1
10
39.3997324492789
20
10.0029110482398
30
0
41
1
10
39.626994625664
20
9.99843821151501
30
0
41
1
10
39.8107538520255
20
9.99006455634472
30
0
41
1
10
39.9510261800958
20
9.98080360972349
30
0
41
1
10
40.0478429945502
20
9.97304347335714
30
0
41
1
10
40.097889301951
20
9.96848025976843
30
0
41
1
10
40.1156745133061
20
9.96685860729596
30
0
0
SPLINE
5
148
100
AcDbEntity
8
1
62
256
6
ByLayer
370
18
48
1
60
0
100
AcDbSpline
70
4
71
3
72
9
73
5
40
0
40
0
40
0
40
0
40
0.573479996708922
40
1
40
1
40
1
40
1
41
1
10
40.1156745133061
20
9.96685860729596
30
0
41
1
10
40.5142415244583
20
9.92969352505452
30
0
41
1
10
41.2090898977216
20
9.8135978049296
30
0
41
1
10
41.9047571431669
20
9.61299331669028
30
0
41
1
10
42.2015046891739
20
9.51217979794831
30
0
0
SPLINE
5
149
100
AcDbEntity
8
1
62
256
6
ByLayer
370
18
48
1
60
0
100
AcDbSpline
70
4
71
3
72
88
73
84
40
0
40
0
40
0
40
0
40
0.0042338769272175
40
0.0090641332325125
40
0.0144907438851649
40
0.0205136538815615
40
0.0271327697445105
40
0.0343479506312423
40
0.042158999259214
40
0.0505656528982863
40
0.0595675747231401
40
0.0691643458713307
40
0.079355458610962
40
0.0901403348109563
40
0.10151862889735
40
0.113490226792652
40
0.126055078537115
40
0.139213202558622
40
0.15296469410561
40
0.167309734116003
40
0.182248598685024
40
0.197781669337908
40
0.213909444361378
40
0.230632551500179
40
0.247951762269116
40
0.265867813109757
40
0.284380921605216
40
0.303491122942601
40
0.360221268653568
40
0.416956937118351
40
0.473689020584205
40
0.530414478460438
40
0.583437242326274
40
0.636454904850366
40
0.689470677052275
40
0.742487421340761
40
0.79550796595696
40
0.797038332946392
40
0.798698258109519
40
0.800487742608683
40
0.802406787659708
40
0.804455394521589
40
0.806633564484959
40
0.808941298859255
40
0.811378598958576
40
0.813945466086162
40
0.816641901517467
40
0.819467906481815
40
0.822423482142654
40
0.825508629576384
40
0.828723349749847
40
0.832067643496508
40
0.835541511491434
40
0.839144954225204
40
0.842877971976885
40
0.846740564786305
40
0.85073273242583
40
0.85485447437196
40
0.859105789777056
40
0.863486677441614
40
0.86799713578751
40
0.872637162832746
40
0.87740675616828
40
0.882305912937563
40
0.887334629819547
40
0.892492903015965
40
0.897780728243751
40
0.903198100733648
40
0.908745015236019
40
0.914421466035129
40
0.920227446973141
40
0.926162951485248
40
0.932227972647517
40
0.938422503239039
40
0.944746535820265
40
0.95120006282936
40
0.957783076698759
40
0.964495569994075
40
0.971337535577796
40
0.978308966800316
40
0.985409857721023
40
0.992640203362371
40
1
40
1
40
1
40
1
41
1
10
42.2015046891736
20
9.51217979794839
30
0
41
1
10
42.2171760320888
20
9.50683443623495
30
0
41
1
10
42.25072616653
20
9.49539077087113
30
0
41
1
10
42.3043546206115
20
9.47670776611369
30
0
41
1
10
42.364600091222
20
9.4553483108887
30
0
41
1
10
42.4314615874586
20
9.43114478234693
30
0
41
1
10
42.5049390865689
20
9.40395411653714
30
0
41
1
10
42.5850320237224
20
9.37360585392204
30
0
41
1
10
42.6717397031976
20
9.33991851297745
30
0
41
1
10
42.7650611061459
20
9.30269459092497
30
0
41
1
10
42.8649948706227
20
9.2617221926827
30
0
41
1
10
42.9715392507289
20
9.21677450698456
30
0
41
1
10
43.0846920142682
20
9.16761047165323
30
0
41
1
10
43.2044521279142
20
9.11397222251242
30
0
41
1
10
43.3308177678215
20
9.05559639387945
30
0
41
1
10
43.4637874089066
20
8.99221287377884
30
0
41
1
10
43.6033607682907
20
8.92353963522618
30
0
41
1
10
43.7495377575279
20
8.84928521108247
30
0
41
1
10
43.9023186348133
20
8.76914885572231
30
0
41
1
10
44.0617040148934
20
8.68282132368054
30
0
41
1
10
44.2276949271471
20
8.58998550246554
30
0
41
1
10
44.4002928618772
20
8.49031713937276
30
0
41
1
10
44.5794998262314
20
8.38348552050294
30
0
41
1
10
44.7653183866678
20
8.26915443095967
30
0
41
1
10
44.9577510464038
20
8.1469826253927
30
0
41
1
10
45.1567975461326
20
8.01662950520097
30
0
41
1
10
45.3624618023575
20
7.8777779635405
30
0
41
1
10
45.7118209503172
20
7.63476574281742
30
0
41
1
10
46.2027220746156
20
7.27352240898327
30
0
41
1
10
46.8328360852702
20
6.77451676936144
30
0
41
1
10
47.4629911556048
20
6.24278281084071
30
0
41
1
10
48.0794426271888
20
5.69303395586746
30
0
41
1
10
48.6821672572551
20
5.12984395059618
30
0
41
1
10
49.2711643740034
20
4.55736526308283
30
0
41
1
10
49.8601543460352
20
3.9653670372775
30
0
41
1
10
50.4491649047956
20
3.35635099070225
30
0
41
1
10
50.8475659359178
20
2.93467758432314
30
0
41
1
10
51.0557184307757
20
2.7122487173713
30
0
41
1
10
51.0741579221228
20
2.69253178027978
30
0
41
1
10
51.0940360041251
20
2.67126283397522
30
0
41
1
10
51.1153526166563
20
2.64843904795538
30
0
41
1
10
51.1381077967235
20
2.62405755496496
30
0
41
1
10
51.1623015537176
20
2.59811530659025
30
0
41
1
10
51.1879339064858
20
2.57060912864733
30
0
41
1
10
51.2150048722954
20
2.54153571796638
30
0
41
1
10
51.2435144700159
20
2.5108916572886
30
0
41
1
10
51.273462719131
20
2.47867342564453
30
0
41
1
10
51.3048496399702
20
2.44487741084896
30
0
41
1
10
51.3376752535881
20
2.40949992217565
30
0
41
1
10
51.3719395817457
20
2.37253720377328
30
0
41
1
10
51.4076426468608
20
2.33398544865995
30
0
41
1
10
51.4447844719682
20
2.29384081334263
30
0
41
1
10
51.4833650806747
20
2.25209943304799
30
0
41
1
10
51.5233844971145
20
2.20875743756855
30
0
41
1
10
51.5648427459036
20
2.16381096772221
30
0
41
1
10
51.6077398520923
20
2.11725619242637
30
0
41
1
10
51.6520758411171
20
2.06908932638561
30
0
41
1
10
51.6978507387508
20
2.01930664839352
30
0
41
1
10
51.7450645710516
20
1.96790452024808
30
0
41
1
10
51.7937173643108
20
1.91487940628116
30
0
41
1
10
51.8438091449991
20
1.86022789350119
30
0
41
1
10
51.8953399397117
20
1.8039467123501
30
0
41
1
10
51.9483097751124
20
1.74603275807365
30
0
41
1
10
52.0027186778751
20
1.68648311270499
30
0
41
1
10
52.058566674626
20
1.62529506766231
30
0
41
1
10
52.1158537918832
20
1.56246614695999
30
0
41
1
10
52.1745800559951
20
1.49799413103241
30
0
41
1
10
52.2347454930781
20
1.43187708117245
30
0
41
1
10
52.2963501289526
20
1.36411336458204
30
0
41
1
10
52.3593939890785
20
1.29470168003735
30
0
41
1
10
52.4238770984888
20
1.22364108416579
30
0
41
1
10
52.4897994817219
20
1.15093101834032
30
0
41
1
10
52.5571611627552
20
1.07657133617045
30
0
41
1
10
52.6259621649301
20
1.00056233167393
30
0
41
1
10
52.6962025108998
20
0.922904767796354
30
0
41
1
10
52.7678822224918
20
0.843599906571598
30
0
41
1
10
52.8410013208843
20
0.762649535935026
30
0
41
1
10
52.9155598255799
20
0.680056012383091
30
0
41
1
10
52.9915577579915
20
0.595822245703545
30
0
41
1
10
53.0689951273087
20
0.509951909162822
30
0
41
1
10
53.1478719843829
20
0.422448787223544
30
0
41
1
10
53.2281882146429
20
0.333319435163816
30
0
41
1
10
53.2822129635609
20
0.273347335893334
30
0
41
1
10
53.3094650052363
20
0.243095235117153
30
0
0
SPLINE
5
14A
100
AcDbEntity
8
1
62
256
6
ByLayer
370
18
48
1
60
0
100
AcDbSpline
70
4
71
3
72
8
73
4
40
0
40
0
40
0
40
0
40
1
40
1
40
1
40
1
41
1
10
53.3090605623963
20
-9.97121302669774
30
0
41
1
10
53.5023022180088
20
-9.94795266891791
30
0
41
1
10
53.6955016729442
20
-9.92438894966315
30
0
41
1
10
53.8886819516537
20
-9.90068738481801
30
0
0
SPLINE
5
14B
100
AcDbEntity
8
1
62
256
6
ByLayer
370
18
48
1
60
0
100
AcDbSpline
70
4
71
3
72
10
73
6
40
0
40
0
40
0
40
0
40
0.5
40
0.5
40
1
40
1
40
1
40
1
41
1
10
53.8886819516537
20
-9.90068738481804
30
0
41
1
10
53.8312826109776
20
-9.82933666055783
30
0
41
1
10
53.7861193541651
20
-9.73590516124099
30
0
41
1
10
53.7204521853392
20
-9.5045428398158
30
0
41
1
10
53.6999463989071
20
-9.36661540021302
30
0
41
1
10
53.6923794767691
20
-9.20533897451656
30
0
0
SPLINE
5
14C
100
AcDbEntity
8
1
62
256
6
ByLayer
370
18
48
1
60
0
100
AcDbSpline
70
4
71
3
72
9
73
5
40
0
40
0
40
0
40
0
40
0.5
40
1
40
1
40
1
40
1
41
1
10
53.3166596857106
20
-8.61695838632079
30
0
41
1
10
53.3783614651162
20
-8.72891140594342
30
0
41
1
10
53.5026974834765
20
-8.93871193449857
30
0
41
1
10
53.6288522144443
20
-9.12100041693878
30
0
41
1
10
53.6923794767691
20
-9.20533897451656
30
0
0
SPLINE
5
14D
100
AcDbEntity
8
1
62
256
6
ByLayer
370
18
48
1
60
0
100
AcDbSpline
70
4
71
3
72
18
73
14
40
0
40
0
40
0
40
0
40
0.0558913256822766
40
0.0558913256822766
40
0.118831903970127
40
0.118831903970127
40
0.244713060545823
40
0.244713060545823
40
0.496475373697215
40
0.496475373697215
40
0.748237686848608
40
0.748237686848608
40
1
40
1
40
1
40
1
41
1
10
19.6368400198355
20
7.8089783115619
30
0
41
1
10
19.704088723701
20
7.85562249858302
30
0
41
1
10
19.7714186792186
20
7.90166708665424
30
0
41
1
10
19.9147630660499
20
7.99827047489316
30
0
41
1
10
19.9906219784755
20
8.04854445571351
30
0
41
1
10
20.2178355505739
20
8.19655293390969
30
0
41
1
10
20.36891749014
20
8.29153575481516
30
0
41
1
10
20.821278662935
20
8.56542265475085
30
0
41
1
10
21.1216562043737
20
8.73329898357139
30
0
41
1
10
21.7216525644108
20
9.03904592375119
30
0
41
1
10
22.0212781461249
20
9.1769219185918
30
0
41
1
10
22.6214780491782
20
9.42217526659078
30
0
41
1
10
22.92205041566
20
9.52955320684072
30
0
41
1
10
23.2239811791466
20
9.62114675589888
30
0
0
SPLINE
5
14E
100
AcDbEntity
8
1
62
256
6
ByLayer
370
18
48
1
60
0
100
AcDbSpline
70
4
71
3
72
87
73
83
40
0
40
0
40
0
40
0
40
0.0027230879649741
40
0.0054463081162501
40
0.0081696518965612
40
0.0108931107349294
40
0.0136166760506887
40
0.0163403392574931
40
0.0190640917673284
40
0.0217879249945258
40
0.0245118303597595
40
0.0272357992940639
40
0.0299598232428271
40
0.0326838936698025
40
0.0354080020611013
40
0.0381321399292039
40
0.0408562988169493
40
0.0435804703015429
40
0.0463046459985517
40
0.0490288175659033
40
0.0517529767078871
40
0.0544771151791509
40
0.0572012247887047
40
0.0599252974039138
40
0.0626493249545089
40
0.0653732994365803
40
0.0680972129165854
40
0.0708210575353487
40
0.0735448255120727
40
0.0762685091483413
40
0.078992100832126
40
0.081715593041804
40
0.0844389783501642
40
0.0871622494284226
40
0.089885399050243
40
0.0926084200957518
40
0.0953313055555618
40
0.0980540485347975
40
0.100776642257119
40
0.103499080068753
40
0.106221355579651
40
0.108943467876512
40
0.111665423016791
40
0.114387227434548
40
0.117108887470915
40
0.119830409376577
40
0.122551799314246
40
0.125273063361148
40
0.156435803724085
40
0.187601117708708
40
0.218776567429122
40
0.249966550478845
40
0.266618138767417
40
0.312810258846905
40
0.328471428681432
40
0.344084146847695
40
0.359648388905706
40
0.375164203366559
40
0.390046331750096
40
0.409965347328477
40
0.434921412680109
40
0.46491625316689
40
0.499951419940823
40
0.549432060425963
40
0.5963373855581
40
0.640664376181773
40
0.682414955270593
40
0.721591207115953
40
0.758192381878731
40
0.792220492304612
40
0.823682167810902
40
0.852582110484164
40
0.87892107462643
40
0.902689432475571
40
0.923878732447528
40
0.942485433011091
40
0.958509481503484
40
0.971953174971725
40
0.982821171315713
40
0.99111726800766
40
0.996843298255027
40
1
40
1
40
1
40
1
41
1
10
23.2239811791466
20
9.62114675589888
30
0
41
1
10
23.239308971577
20
9.62577251092318
30
0
41
1
10
23.2699653004917
20
9.63502424551885
30
0
41
1
10
23.3159504640258
20
9.64858446989012
30
0
41
1
10
23.361937499211
20
9.66191233156701
30
0
41
1
10
23.4079262881622
20
9.67498466144272
30
0
41
1
10
23.4539167545922
20
9.68780718616125
30
0
41
1
10
23.4999088110686
20
9.7003778893264
30
0
41
1
10
23.5459023731474
20
9.7126968294701
30
0
41
1
10
23.5918973555858
20
9.7247635091785
30
0
41
1
10
23.6378936733564
20
9.73657758007155
30
0
41
1
10
23.683891241376
20
9.74813865389501
30
0
41
1
10
23.7298899745776
20
9.75944635314059
30
0
41
1
10
23.7758897878915
20
9.77050029748202
30
0
41
1
10
23.8218905962501
20
9.78130010740981
30
0
41
1
10
23.8678923145865
20
9.79184540325741
30
0
41
1
10
23.913894857835
20
9.80213580546246
30
0
41
1
10
23.9598981409306
20
9.81217093449683
30
0
41
1
10
24.0059020788094
20
9.82195041088568
30
0
41
1
10
24.0519065864081
20
9.83147385520238
30
0
41
1
10
24.0979115786642
20
9.84074088807017
30
0
41
1
10
24.143916970516
20
9.84975113016196
30
0
41
1
10
24.1899226769023
20
9.85850420220038
30
0
41
1
10
24.2359286127626
20
9.86699972495805
30
0
41
1
10
24.2819346930369
20
9.87523731925776
30
0
41
1
10
24.3279408326655
20
9.88321660597245
30
0
41
1
10
24.3739469465894
20
9.89093720602557
30
0
41
1
10
24.4199529497497
20
9.89839874039097
30
0
41
1
10
24.465958757088
20
9.90560083009331
30
0
41
1
10
24.5119642835459
20
9.91254309620797
30
0
41
1
10
24.5579694440654
20
9.91922515986136
30
0
41
1
10
24.6039741535885
20
9.92564664223121
30
0
41
1
10
24.6499783270576
20
9.93180716454523
30
0
41
1
10
24.6959818794138
20
9.93770634808783
30
0
41
1
10
24.7419847256025
20
9.94334381417465
30
0
41
1
10
24.787986780554
20
9.9487191842492
30
0
41
1
10
24.833987959253
20
9.95383207952247
30
0
41
1
10
24.8799881764817
20
9.95868212231838
30
0
41
1
10
24.9259873477758
20
9.9632689310541
30
0
41
1
10
24.9719853866308
20
9.96759213904477
30
0
41
1
10
25.0179822479175
20
9.97165132723427
30
0
41
1
10
25.0639779105894
20
9.97544631961753
30
0
41
1
10
25.1099723563676
20
9.97897731953171
30
0
41
1
10
25.1559656230938
20
9.9822444636352
30
0
41
1
10
25.2019577465838
20
9.98524791070508
30
0
41
1
10
25.247948767739
20
9.98798780236589
30
0
41
1
10
25.2939387118016
20
9.9904643268878
30
0
41
1
10
25.5001470983492
20
10.0003879169168
30
0
41
1
10
25.8666327170524
20
10.0049948031149
30
0
41
1
10
26.393257381864
20
9.97733638072731
30
0
41
1
10
26.9198973104179
20
9.91554874472786
30
0
41
1
10
27.3644689422272
20
9.83476674844891
30
0
41
1
10
27.8938551155705
20
9.71291345195013
30
0
41
1
10
28.3359130307651
20
9.58324395836732
30
0
41
1
10
28.7720130957358
20
9.42887355878807
30
0
41
1
10
29.0357148803327
20
9.32750797764172
30
0
41
1
10
29.2986073766637
20
9.21854557170644
30
0
41
1
10
29.5574008479434
20
9.10358600992859
30
0
41
1
10
29.8407186468875
20
8.96955495409682
30
0
41
1
10
30.177206761875
20
8.79934729782048
30
0
41
1
10
30.5988047578123
20
8.56844029000791
30
0
41
1
10
31.1055021230732
20
8.2654976859441
30
0
41
1
10
31.7502161191141
20
7.84359613824995
30
0
41
1
10
32.4901842935374
20
7.30804375270628
30
0
41
1
10
33.2824530453369
20
6.67720594547356
30
0
41
1
10
34.0313409034763
20
6.03383419087717
30
0
41
1
10
34.7368195214915
20
5.3895407421592
30
0
41
1
10
35.3987361229735
20
4.75505240019467
30
0
41
1
10
36.0170419868522
20
4.13919394622249
30
0
41
1
10
36.5917737252279
20
3.54916713903628
30
0
41
1
10
37.1230700118185
20
2.99081962814233
30
0
41
1
10
37.6110306038153
20
2.46876377001155
30
0
41
1
10
38.0556350519608
20
1.98665412246967
30
0
41
1
10
38.4568694058066
20
1.54745999645937
30
0
41
1
10
38.8146635971472
20
1.15337877328619
30
0
41
1
10
39.1289594503023
20
0.805898470466104
30
0
41
1
10
39.3997324493081
20
0.505937958657881
30
0
41
1
10
39.6269946256968
20
0.253993370004167
30
0
41
1
10
39.8107538520626
20
0.0502520825505712
30
0
41
1
10
39.9510261801382
20
-0.105262611161407
30
0
41
1
10
40.0478429945987
20
-0.212574143235628
30
0
41
1
10
40.0978893020038
20
-0.268060894734163
30
0
41
1
10
40.1156745133613
20
-0.287779504439982
30
0
0
SPLINE
5
14F
100
AcDbEntity
8
1
62
256
6
ByLayer
370
18
48
1
60
0
100
AcDbSpline
70
4
71
3
72
9
73
5
40
0
40
0
40
0
40
0
40
0.573479996704412
40
1
40
1
40
1
40
1
41
1
10
40.1156745133613
20
-0.287779504439982
30
0
41
1
10
40.514241524495
20
-0.72925482056479
30
0
41
1
10
41.2090898977318
20
-1.497276929143
30
0
41
1
10
41.9047571431503
20
-2.25518214020664
30
0
41
1
10
42.2015046891491
20
-2.57442788514754
30
0
0
SPLINE
5
150
100
AcDbEntity
8
1
62
256
6
ByLayer
370
18
48
1
60
0
100
AcDbSpline
70
4
71
3
72
88
73
84
40
0
40
0
40
0
40
0
40
0.0042338769269176
40
0.0090641332319355
40
0.0144907438843379
40
0.0205136538805044
40
0.0271327697432493
40
0.0343479506298009
40
0.042158999257614
40
0.0505656528965538
40
0.0595675747213002
40
0.0691643458694063
40
0.0793554586089762
40
0.0901403348089329
40
0.101518628895316
40
0.113490226790627
40
0.126055078535125
40
0.139213202556691
40
0.15296469410376
40
0.16730973411426
40
0.18224859868341
40
0.197781669336447
40
0.213909444360096
40
0.230632551499098
40
0.247951762268258
40
0.265867813109147
40
0.284380921604878
40
0.30349112294256
40
0.360221268653516
40
0.416956937118291
40
0.473689020584132
40
0.530414478460356
40
0.583437242326187
40
0.636454904850275
40
0.68947067705218
40
0.742487421340661
40
0.795507965956855
40
0.797038332945846
40
0.79869825810855
40
0.800487742607311
40
0.802406787657955
40
0.804455394519475
40
0.806633564482501
40
0.808941298856473
40
0.811378598955491
40
0.813945466082793
40
0.816641901513835
40
0.819467906477938
40
0.822423482138552
40
0.825508629572077
40
0.828723349745355
40
0.83206764349185
40
0.835541511486631
40
0.839144954220274
40
0.842877971971849
40
0.846740564781183
40
0.850732732420641
40
0.854854474366724
40
0.859105789771794
40
0.863486677436343
40
0.86799713578225
40
0.872637162827518
40
0.877406756163105
40
0.882305912932458
40
0.887334629814535
40
0.892492903011062
40
0.89778072823898
40
0.903198100729026
40
0.908745015231567
40
0.914421466030867
40
0.920227446969089
40
0.926162951481427
40
0.932227972643942
40
0.938422503235734
40
0.944746535817248
40
0.951200062826652
40
0.957783076696378
40
0.964495569992041
40
0.97133753557613
40
0.978308966799037
40
0.98540985772015
40
0.992640203361925
40
1
40
1
40
1
40
1
41
1
10
42.2015046891488
20
-2.5744278851472
30
0
41
1
10
42.2171760320629
20
-2.59125897316881
30
0
41
1
10
42.2507261665021
20
-2.62729195827905
30
0
41
1
10
42.3043546205806
20
-2.68479917549882
30
0
41
1
10
42.3646000911885
20
-2.7493061361817
30
0
41
1
10
42.4314615874227
20
-2.82076226882353
30
0
41
1
10
42.504939086531
20
-2.89911918632876
30
0
41
1
10
42.5850320236825
20
-2.98431732221366
30
0
41
1
10
42.6717397031561
20
-3.0762889824511
30
0
41
1
10
42.7650611061032
20
-3.17495615174934
30
0
41
1
10
42.8649948705791
20
-3.28022983367478
30
0
41
1
10
42.9715392506845
20
-3.39200872748276
30
0
41
1
10
43.0846920142234
20
-3.51017846716559
30
0
41
1
10
43.2044521278692
20
-3.63461025792367
30
0
41
1
10
43.3308177677767
20
-3.76516848395164
30
0
41
1
10
43.4637874088622
20
-3.90170953908012
30
0
41
1
10
43.6033607682469
20
-4.04407632892512
30
0
41
1
10
43.7495377574852
20
-4.19209772099165
30
0
41
1
10
43.9023186347718
20
-4.34558728621553
30
0
41
1
10
44.0617040148535
20
-4.50434239770121
30
0
41
1
10
44.2276949271089
20
-4.66814317275595
30
0
41
1
10
44.4002928618411
20
-4.83675140469833
30
0
41
1
10
44.5794998261978
20
-5.00990943123079
30
0
41
1
10
44.7653183866368
20
-5.18733899827927
30
0
41
1
10
44.9577510463757
20
-5.36873924655177
30
0
41
1
10
45.1567975461076
20
-5.55378357999899
30
0
41
1
10
45.362461802336
20
-5.74212914776342
30
0
41
1
10
45.7118209502987
20
-6.05691689536064
30
0
41
1
10
46.2027220745991
20
-6.48419362293319
30
0
41
1
10
46.832836085255
20
-7.00121223632576
30
0
41
1
10
47.4629911555909
20
-7.48431315395808
30
0
41
1
10
48.0794426271763
20
-7.92135834337779
30
0
41
1
10
48.6821672572438
20
-8.31276071647494
30
0
41
1
10
49.2711643739934
20
-8.65944021143795
30
0
41
1
10
49.8601543460265
20
-8.96898185482277
30
0
41
1
10
50.4491649047881
20
-9.23999427264621
30
0
41
1
10
50.8475659359095
20
-9.39634750421183
30
0
41
1
10
51.0557184307647
20
-9.47068908609307
30
0
41
1
10
51.0741579221071
20
-9.47723757974111
30
0
41
1
10
51.0940360041051
20
-9.48425310408786
30
0
41
1
10
51.115352616632
20
-9.49172567502498
30
0
41
1
10
51.1381077966952
20
-9.4996444927587
30
0
41
1
10
51.1623015536856
20
-9.50799804031075
30
0
41
1
10
51.1879339064502
20
-9.5167740511709
30
0
41
1
10
51.2150048722565
20
-9.52595951565613
30
0
41
1
10
51.243514469974
20
-9.53554067563616
30
0
41
1
10
51.2734627190862
20
-9.54550302247623
30
0
41
1
10
51.3048496399227
20
-9.55583129384348
30
0
41
1
10
51.3376752535383
20
-9.56650947064728
30
0
41
1
10
51.3719395816935
20
-9.57752077374576
30
0
41
1
10
51.4076426468067
20
-9.5888476605252
30
0
41
1
10
51.4447844719124
20
-9.60047182132132
30
0
41
1
10
51.4833650806173
20
-9.61237417569214
30
0
41
1
10
51.5233844970559
20
-9.62453486853946
30
0
41
1
10
51.5648427458439
20
-9.63693326607964
30
0
41
1
10
51.6077398520317
20
-9.64954795166426
30
0
41
1
10
51.6520758410558
20
-9.66235672144978
30
0
41
1
10
51.6978507386891
20
-9.67533657991686
30
0
41
1
10
51.7450645709898
20
-9.68846373523903
30
0
41
1
10
51.7937173642489
20
-9.70171359450089
30
0
41
1
10
51.8438091449375
20
-9.71506075876565
30
0
41
1
10
51.8953399396506
20
-9.72847901799233
30
0
41
1
10
51.9483097750519
20
-9.74194134580188
30
0
41
1
10
52.0027186778156
20
-9.75541989409317
30
0
41
1
10
52.0585666745677
20
-9.76888598750796
30
0
41
1
10
52.1158537918262
20
-9.78231011774534
30
0
41
1
10
52.1745800559397
20
-9.7956619377253
30
0
41
1
10
52.2347454930244
20
-9.80891025560211
30
0
41
1
10
52.296350128901
20
-9.82202302862365
30
0
41
1
10
52.3593939890291
20
-9.83496735685338
30
0
41
1
10
52.4238770984418
20
-9.84770947668807
30
0
41
1
10
52.4897994816778
20
-9.86021475443056
30
0
41
1
10
52.5571611627138
20
-9.87244767891656
30
0
41
1
10
52.625962164892
20
-9.88437185705391
30
0
41
1
10
52.696202510865
20
-9.89594999740891
30
0
41
1
10
52.7678822224605
20
-9.90714393907521
30
0
41
1
10
52.8410013208569
20
-9.91791450558924
30
0
41
1
10
52.9155598255564
20
-9.92822203081582
30
0
41
1
10
52.9915577579724
20
-9.93802430185193
30
0
41
1
10
53.0689951272941
20
-9.9472844215156
30
0
41
1
10
53.1478719843728
20
-9.95594059303241
30
0
41
1
10
53.2281882146378
20
-9.96402199256326
30
0
41
1
10
53.2822129635593
20
-9.96876818313464
30
0
41
1
10
53.3094650052363
20
-9.97116233370156
30
0
0
SPLINE
5
151
100
AcDbEntity
8
1
62
256
6
ByLayer
370
18
48
1
60
0
100
AcDbSpline
70
4
71
3
72
121
73
117
40
0
40
0
40
0
40
0
40
0.0133742650364753
40
0.0133742650364753
40
0.0499159589240109
40
0.0499159589240109
40
0.0681868058677787
40
0.0681868058677787
40
0.0773222293396623
40
0.0818899410756041
40
0.0818899410756041
40
0.086457652811546
40
0.086457652811546
40
0.104728499755314
40
0.104728499755314
40
0.122999346699082
40
0.14127019364285
40
0.14127019364285
40
0.159541040586617
40
0.159541040586617
40
0.177811887530385
40
0.177811887530385
40
0.196082734474153
40
0.196082734474153
40
0.214353581417921
40
0.214353581417921
40
0.218921293153863
40
0.218921293153863
40
0.223489004889806
40
0.232624428361691
40
0.232624428361691
40
0.26916612224923
40
0.26916612224923
40
0.287436969192999
40
0.287436969192999
40
0.305707816136769
40
0.305707816136769
40
0.323978663080538
40
0.323978663080538
40
0.342249510024307
40
0.342249510024307
40
0.34681722176025
40
0.34681722176025
40
0.351384933496192
40
0.351384933496192
40
0.360520356968077
40
0.378791203911848
40
0.378791203911848
40
0.397062050855618
40
0.397062050855618
40
0.415332897799388
40
0.415332897799388
40
0.433603744743158
40
0.433603744743158
40
0.451874591686928
40
0.470145438630698
40
0.470145438630698
40
0.479280862102583
40
0.479280862102583
40
0.483848573838526
40
0.483848573838526
40
0.488416285574469
40
0.524957979462011
40
0.524957979462011
40
0.543228826405782
40
0.543228826405782
40
0.561499673349554
40
0.561499673349554
40
0.598041367237096
40
0.598041367237096
40
0.607176790708981
40
0.607176790708981
40
0.611744502444924
40
0.611744502444924
40
0.616312214180867
40
0.616312214180867
40
0.634583061124638
40
0.634583061124638
40
0.652853908068408
40
0.652853908068408
40
0.671124755012179
40
0.671124755012179
40
0.707666448899721
40
0.707666448899721
40
0.725937295843492
40
0.725937295843492
40
0.744208142787263
40
0.744208142787263
40
0.748775854523205
40
0.748775854523205
40
0.753343566259148
40
0.762478989731032
40
0.762478989731032
40
0.780749836674799
40
0.780749836674799
40
0.817291530562335
40
0.817291530562335
40
0.835562377506102
40
0.835562377506102
40
0.85383322444987
40
0.85383322444987
40
0.872104071393637
40
0.872104071393637
40
0.876671783129579
40
0.876671783129579
40
0.881239494865521
40
0.881239494865521
40
0.890374918337404
40
0.890374918337404
40
0.926916612224937
40
0.926916612224937
40
0.945187459168703
40
0.945187459168703
40
0.963458306112468
40
0.963458306112468
40
1
40
1
40
1
40
1
41
1
10
47.9160725581605
20
-7.81458442405415
30
0
41
1
10
47.7741788813745
20
-7.89870172979937
30
0
41
1
10
47.6323468250164
20
-7.97998765868147
30
0
41
1
10
47.1030217575196
20
-8.27254563319752
30
0
41
1
10
46.7155753530632
20
-8.4650102261507
30
0
41
1
10
46.1322620202812
20
-8.71833036853181
30
0
41
1
10
45.9374609795425
20
-8.79688424652468
30
0
41
1
10
45.6443798098729
20
-8.90543565449224
30
0
41
1
10
45.4976186852003
20
-8.95738928442552
30
0
41
1
10
45.3504570934443
20
-9.00575417241987
30
0
41
1
10
45.2522520615583
20
-9.03718662725444
30
0
41
1
10
45.2030904459496
20
-9.05249998408584
30
0
41
1
10
44.9577341020798
20
-9.12679563890174
30
0
41
1
10
44.7623531001079
20
-9.17908688040521
30
0
41
1
10
44.3727822722717
20
-9.26970452588955
30
0
41
1
10
43.9843738169727
20
-9.34643166616732
30
0
41
1
10
43.5971611925597
20
-9.39656286094902
30
0
41
1
10
43.2100293121548
20
-9.43399510149044
30
0
41
1
10
43.0164977402604
20
-9.44639566364776
30
0
41
1
10
42.6290876315078
20
-9.45889784249817
30
0
41
1
10
42.4352158305752
20
-9.45897813240927
30
0
41
1
10
42.046807811147
20
-9.4465685374702
30
0
41
1
10
41.8522733873352
20
-9.43407969444303
30
0
41
1
10
41.4622081128716
20
-9.39589734195988
30
0
41
1
10
41.2666823542122
20
-9.37016283878251
30
0
41
1
10
41.0213826976384
20
-9.32921179485223
30
0
41
1
10
40.9722442210345
20
-9.3205792161705
30
0
41
1
10
40.8740545868543
20
-9.30247279542542
30
0
41
1
10
40.7269271637908
20
-9.27405845213411
30
0
41
1
10
40.580232199259
20
-9.24191155179193
30
0
41
1
10
40.092034389154
20
-9.12662552216864
30
0
41
1
10
39.7039445024787
20
-9.00835176255191
30
0
41
1
10
39.1223457993707
20
-8.79590154082922
30
0
41
1
10
38.9285959508878
20
-8.71920311270765
30
0
41
1
10
38.5409902615258
20
-8.55407205615404
30
0
41
1
10
38.3471354773741
20
-8.46563885409753
30
0
41
1
10
37.9589692827469
20
-8.27684447642662
30
0
41
1
10
37.7646598886115
20
-8.17647469034762
30
0
41
1
10
37.3751843134443
20
-7.96344164131992
30
0
41
1
10
37.1800108391649
20
-7.85081076886019
30
0
41
1
10
36.9352000231565
20
-7.70236101042778
30
0
41
1
10
36.8861956256352
20
-7.67228767736185
30
0
41
1
10
36.7880945394777
20
-7.61137262311115
30
0
41
1
10
36.7389661049354
20
-7.58051046727954
30
0
41
1
10
36.5917860859496
20
-7.48699596045171
30
0
41
1
10
36.2980557406949
20
-7.29614310856525
30
0
41
1
10
36.0059435884164
20
-7.09404814737007
30
0
41
1
10
35.6174163502451
20
-6.81496034835959
30
0
41
1
10
35.4236177842539
20
-6.67063277079953
30
0
41
1
10
35.0363301108223
20
-6.3733051814522
30
0
41
1
10
34.8428380119742
20
-6.2203082340593
30
0
41
1
10
34.4556666459155
20
-5.90638221728187
30
0
41
1
10
34.2619904858114
20
-5.74545059203075
30
0
41
1
10
33.8740423242705
20
-5.41625997445834
30
0
41
1
10
33.4855068950229
20
-5.07974303622478
30
0
41
1
10
33.0952290403717
20
-4.7283136087971
30
0
41
1
10
32.8015927120241
20
-4.45904267994038
30
0
41
1
10
32.703558600194
20
-4.36833585058511
30
0
41
1
10
32.556233837034
20
-4.23083727128011
30
0
41
1
10
32.5070930074932
20
-4.18477648370185
30
0
41
1
10
32.4089795594459
20
-4.09242463823867
30
0
41
1
10
31.9679344964166
20
-3.67553600606922
30
0
41
1
10
31.5308952824763
20
-3.24703232177237
30
0
41
1
10
30.9500537449305
20
-2.66475660105266
30
0
41
1
10
30.7567562055703
20
-2.46883448259902
30
0
41
1
10
30.3703373311814
20
-2.07373027289205
30
0
41
1
10
30.1772221681635
20
-1.87452834075137
30
0
41
1
10
29.5973134700622
20
-1.27294811465762
30
0
41
1
10
29.2099280140729
20
-0.866646293913249
30
0
41
1
10
28.7224097484227
20
-0.354974039137431
30
0
41
1
10
28.6247436511819
20
-0.252448663230552
30
0
41
1
10
28.4779668452719
20
-0.0984076749644203
30
0
41
1
10
28.4289952404968
20
-0.0470175762462475
30
0
41
1
10
28.3309552648729
20
0.0558477512914521
30
0
41
1
10
28.2818665890383
20
0.107344265916822
30
0
41
1
10
28.0367597656791
20
0.364416008833075
30
0
41
1
10
27.8413472499131
20
0.569186880651472
30
0
41
1
10
27.4516862916774
20
0.97663707604741
30
0
41
1
10
27.257441272725
20
1.17931929000798
30
0
41
1
10
26.869858326633
20
1.58217595901473
30
0
41
1
10
26.6765424094587
20
1.78234381427893
30
0
41
1
10
26.0971641385314
20
2.37831979448103
30
0
41
1
10
25.7115305466198
20
2.76955790382925
30
0
41
1
10
25.1305285294614
20
3.3450835713933
30
0
41
1
10
24.9364510800641
20
3.53506175558459
30
0
41
1
10
24.5471188757015
20
3.91100273489667
30
0
41
1
10
24.3518750519924
20
4.09696022735812
30
0
41
1
10
24.1068865981699
20
4.32660770603292
30
0
41
1
10
24.0578485294835
20
4.37239052204791
30
0
41
1
10
23.9599269792952
20
4.46343213004246
30
0
41
1
10
23.8131823643516
20
4.59929682673837
30
0
41
1
10
23.6668309865902
20
4.73304200543132
30
0
41
1
10
23.3745968489367
20
4.99762540280776
30
0
41
1
10
23.1804048696446
20
5.17013234138699
30
0
41
1
10
22.5991843610778
20
5.67532675054696
30
0
41
1
10
22.2134801770791
20
5.99579128063149
30
0
41
1
10
21.6348201069366
20
6.44974321281487
30
0
41
1
10
21.44191690167
20
6.59658620987233
30
0
41
1
10
21.0555754898625
20
6.88090371678487
30
0
41
1
10
20.8621239834948
20
7.01840607423637
30
0
41
1
10
20.4741000042724
20
7.28408298957373
30
0
41
1
10
20.2795333153945
20
7.41226102956477
30
0
41
1
10
20.0353666758887
20
7.56666080838522
30
0
41
1
10
19.9864855400007
20
7.59724954450837
30
0
41
1
10
19.8886214401188
20
7.65784428408926
30
0
41
1
10
19.8396584487668
20
7.68783751270135
30
0
41
1
10
19.6929463674288
20
7.77674116881627
30
0
41
1
10
19.5952673714515
20
7.83464347499455
30
0
41
1
10
19.1073839053778
20
8.11742735621374
30
0
41
1
10
18.718797135872
20
8.32210554036226
30
0
41
1
10
18.1370978677597
20
8.59366776532434
30
0
41
1
10
17.9433867436327
20
8.67826287047251
30
0
41
1
10
17.5560008394066
20
8.8348994006175
30
0
41
1
10
17.3623212846772
20
8.90693870490924
30
0
41
1
10
16.7805468630916
20
9.10414608916057
30
0
41
1
10
16.3917037046743
20
9.21046081188592
30
0
41
1
10
16.0000000000001
20
9.29083421057473
30
0
0
SPLINE
5
152
100
AcDbEntity
8
1
62
256
6
ByLayer
370
18
48
1
60
0
100
AcDbSpline
70
4
71
3
72
8
73
4
40
0
40
0
40
0
40
0
40
1
40
1
40
1
40
1
41
1
10
15.6043828633369
20
9.36294500465652
30
0
41
1
10
15.7354857934486
20
9.34210819264104
30
0
41
1
10
15.8672784225753
20
9.31806724754907
30
0
41
1
10
16.0000000000001
20
9.29083421057476
30
0
0
SPLINE
5
153
100
AcDbEntity
8
1
62
256
6
ByLayer
370
18
48
1
60
0
100
AcDbSpline
70
4
71
3
72
8
73
4
40
0
40
0
40
0
40
0
40
1
40
1
40
1
40
1
41
1
10
14.2800791981118
20
9.4972447567842
30
0
41
1
10
14.3860355462572
20
9.49455838344036
30
0
41
1
10
14.4920158055683
20
9.48990439873529
30
0
41
1
10
14.5980762113535
20
9.48326880949224
30
0
0
SPLINE
5
154
100
AcDbEntity
8
1
62
256
6
ByLayer
370
18
48
1
60
0
100
AcDbSpline
70
4
71
3
72
28
73
24
40
0
40
0
40
0
40
0
40
0.0312499999999963
40
0.0312499999999963
40
0.0624999999999925
40
0.0624999999999925
40
0.124999999999993
40
0.124999999999993
40
0.187499999999994
40
0.187499999999994
40
0.249999999999994
40
0.249999999999994
40
0.312499999999995
40
0.312499999999995
40
0.374999999999995
40
0.374999999999995
40
0.499999999999996
40
0.499999999999996
40
0.624999999999997
40
0.624999999999997
40
0.749999999999998
40
0.749999999999998
40
1
40
1
40
1
40
1
41
1
10
14.5980762113533
20
9.48326880949224
30
0
41
1
10
14.6201768901452
20
9.48188609720324
30
0
41
1
10
14.6408230674113
20
9.48072838797862
30
0
41
1
10
14.6800765116491
20
9.4786455007299
30
0
41
1
10
14.6986748479957
20
9.47772244128615
30
0
41
1
10
14.752150100927
20
9.47511282362788
30
0
41
1
10
14.7847453626182
20
9.47357620412734
30
0
41
1
10
14.8460293151751
20
9.47032904732504
30
0
41
1
10
14.874685824574
20
9.46862639310993
30
0
41
1
10
14.9291724518714
20
9.46474955330501
30
0
41
1
10
14.9549914781181
20
9.46257814776936
30
0
41
1
10
15.0044640951703
20
9.45757520185057
30
0
41
1
10
15.0281444111492
20
9.45473968910449
30
0
41
1
10
15.0735535012945
20
9.44831370426229
30
0
41
1
10
15.0952995243946
20
9.44472345382118
30
0
41
1
10
15.158219053838
20
9.43270319813925
30
0
41
1
10
15.1971023258783
20
9.42301782617244
30
0
41
1
10
15.2705662862231
20
9.39991709391683
30
0
41
1
10
15.3051278037641
20
9.38650594799989
30
0
41
1
10
15.3709712287893
20
9.35573116019356
30
0
41
1
10
15.4022452929006
20
9.33836928666338
30
0
41
1
10
15.4921456566712
20
9.28011970137982
30
0
41
1
10
15.5469026169376
20
9.23306462289071
30
0
41
1
10
15.5980762113534
20
9.17730483288645
30
0
0
SPLINE
5
155
100
AcDbEntity
8
1
62
256
6
ByLayer
370
18
48
1
60
0
100
AcDbSpline
70
4
71
3
72
10
73
6
40
0
40
0
40
0
40
0
40
0.5
40
0.5
40
1
40
1
40
1
40
1
41
1
10
15.5980762113534
20
9.17730483288648
30
0
41
1
10
15.6653939931395
20
9.10395400774314
30
0
41
1
10
15.7324206970151
20
9.01548531112223
30
0
41
1
10
15.866270639674
20
8.80895135118462
30
0
41
1
10
15.9330930158487
20
8.69088491332738
30
0
41
1
10
16.0000000000001
20
8.55792694603917
30
0
0
SPLINE
5
156
100
AcDbEntity
8
1
62
256
6
ByLayer
370
18
48
1
60
0
100
AcDbSpline
70
4
71
3
72
8
73
4
40
0
40
0
40
0
40
0
40
1
40
1
40
1
40
1
41
1
10
16
20
8.5579269460392
30
0
41
1
10
16
20
8.55699838944557
30
0
41
1
10
16
20
8.55606897029801
30
0
41
1
10
16
20
8.55513868845199
30
0
0
SPLINE
5
157
100
AcDbEntity
8
1
62
256
6
ByLayer
370
18
48
1
60
0
100
AcDbSpline
70
4
71
3
72
10
73
6
40
0
40
0
40
0
40
0
40
0.5
40
0.5
40
1
40
1
40
1
40
1
41
1
10
53.8886819516538
20
0.10004461562113
30
0
41
1
10
53.8312826109766
20
0.465276082768099
30
0
41
1
10
53.7861193541636
20
0.826453509163827
30
0
41
1
10
53.7204521853374
20
1.54063826522923
30
0
41
1
10
53.6999463989053
20
1.89364621592855
30
0
41
1
10
53.6923794767682
20
2.24236728173
30
0
0
SPLINE
5
158
100
AcDbEntity
8
1
62
256
6
ByLayer
370
18
48
1
60
0
100
AcDbSpline
70
4
71
3
72
88
73
84
40
0
40
0
40
0
40
0
40
0.0505331251753696
40
0.0505331251753696
40
0.101066250350739
40
0.101066250350739
40
0.126332812938424
40
0.126332812938424
40
0.151599375526109
40
0.151599375526109
40
0.15791601617303
40
0.15791601617303
40
0.164232656819952
40
0.164232656819952
40
0.176865938113795
40
0.176865938113795
40
0.202132500701479
40
0.202132500701479
40
0.252665625876847
40
0.252665625876847
40
0.303198751052215
40
0.303198751052215
40
0.328465313639899
40
0.328465313639899
40
0.341098594933741
40
0.347415235580662
40
0.347415235580662
40
0.353731876227583
40
0.353731876227583
40
0.378998438815267
40
0.378998438815267
40
0.404265001402951
40
0.429531563990635
40
0.429531563990635
40
0.454798126578319
40
0.454798126578319
40
0.480064689166003
40
0.480064689166003
40
0.505331251753688
40
0.505331251753688
40
0.530597814341372
40
0.530597814341372
40
0.536914454988293
40
0.536914454988293
40
0.543231095635214
40
0.555864376929057
40
0.555864376929057
40
0.606397502104428
40
0.606397502104428
40
0.631664064692114
40
0.631664064692114
40
0.6569306272798
40
0.6569306272798
40
0.682197189867486
40
0.682197189867486
40
0.707463752455171
40
0.707463752455171
40
0.713780393102093
40
0.713780393102093
40
0.720097033749015
40
0.720097033749015
40
0.73273031504286
40
0.757996877630549
40
0.757996877630549
40
0.783263440218238
40
0.783263440218238
40
0.808530002805927
40
0.808530002805927
40
0.833796565393616
40
0.833796565393616
40
0.859063127981305
40
0.884329690568994
40
0.884329690568994
40
0.896962971862838
40
0.896962971862838
40
0.903279612509761
40
0.903279612509761
40
0.909596253156684
40
0.960129378332069
40
0.960129378332069
40
0.985395940919761
40
0.985395940919761
40
1
40
1
40
1
40
1
41
1
10
53.3166596857108
20
-8.61695838632079
30
0
41
1
10
52.9273427766418
20
-8.44875031712834
30
0
41
1
10
52.5396198226813
20
-8.25904290231932
30
0
41
1
10
51.765453911401
20
-7.83612896563395
30
0
41
1
10
51.3790231581656
20
-7.60290096021112
30
0
41
1
10
50.7981738266624
20
-7.2191561461598
30
0
41
1
10
50.6043479301832
20
-7.08558372105452
30
0
41
1
10
50.2157940056827
20
-6.80684557965114
30
0
41
1
10
50.0210627746952
20
-6.66164740638089
30
0
41
1
10
49.7766772835538
20
-6.47343800252847
30
0
41
1
10
49.7277518314601
20
-6.43546036215773
30
0
41
1
10
49.6297950360875
20
-6.35884681411838
30
0
41
1
10
49.5807524145499
20
-6.32020152695083
30
0
41
1
10
49.4338625600107
20
-6.20362530846407
30
0
41
1
10
49.3361184133285
20
-6.12495002078586
30
0
41
1
10
49.043304818593
20
-5.88624261973016
30
0
41
1
10
48.8486515264943
20
-5.7235343632756
30
0
41
1
10
48.2655736488552
20
-5.22591633092534
30
0
41
1
10
47.8780213778351
20
-4.88163642073815
30
0
41
1
10
47.1030212813421
20
-4.16897521251761
30
0
41
1
10
46.7155748136403
20
-3.80055713331643
30
0
41
1
10
46.1322613544531
20
-3.23073463922697
30
0
41
1
10
45.93746026643
20
-3.03794013513831
30
0
41
1
10
45.6443790180467
20
-2.74459415705474
30
0
41
1
10
45.4976178520529
20
-2.59688209728478
30
0
41
1
10
45.3504562158547
20
-2.44763109239435
30
0
41
1
10
45.2522511536164
20
-2.34779039162712
30
0
41
1
10
45.2030895482938
20
-2.29768917521537
30
0
41
1
10
44.9577332771983
20
-2.04707134466293
30
0
41
1
10
44.7623523258899
20
-1.84563365112169
30
0
41
1
10
44.372781583642
20
-1.44146742149823
30
0
41
1
10
43.9843731984132
20
-1.03603879570275
30
0
41
1
10
43.5971606103032
20
-0.629182141393159
30
0
41
1
10
43.2100287491028
20
-0.222114504508852
30
0
41
1
10
43.0164971782829
20
-0.0184813176694547
30
0
41
1
10
42.629087055589
20
0.388581026943314
30
0
41
1
10
42.4352152396111
20
0.592016878571144
30
0
41
1
10
42.0468071755311
20
0.998382495134024
30
0
41
1
10
41.8522727222218
20
1.2013139729979
30
0
41
1
10
41.4622073758535
20
1.60635862032856
30
0
41
1
10
41.2666815747572
20
1.80847711134268
30
0
41
1
10
41.0213818565936
20
2.06036031601829
30
0
41
1
10
40.9722433639537
20
2.11073231076799
30
0
41
1
10
40.8740537578323
20
2.21120058618439
30
0
41
1
10
40.7269263755805
20
2.3614633333666
30
0
41
1
10
40.5802314480864
20
2.51038195060485
30
0
41
1
10
40.0920337530827
20
3.00368636881913
30
0
41
1
10
39.7039439321283
20
3.38837749253534
30
0
41
1
10
39.1223452804556
20
3.94911759932859
30
0
41
1
10
38.928595441231
20
4.13332300342191
30
0
41
1
10
38.5409897537623
20
4.4959782618904
30
0
41
1
10
38.3471349622495
20
4.67442894350083
30
0
41
1
10
37.9589687362837
20
5.0251154940718
30
0
41
1
10
37.7646593181777
20
5.19734932579786
30
0
41
1
10
37.3751836791326
20
5.53500859760618
30
0
41
1
10
37.1800101650553
20
5.70044200587495
30
0
41
1
10
36.9351992902334
20
5.9026671876826
30
0
41
1
10
36.8861948804916
20
5.94288370250791
30
0
41
1
10
36.7880937689797
20
6.02285074087368
30
0
41
1
10
36.738965328874
20
6.06262657462437
30
0
41
1
10
36.5917853534883
20
6.18095617776888
30
0
41
1
10
36.2980550900156
20
6.41378457566339
30
0
41
1
10
36.0059430042554
20
6.63500199037412
30
0
41
1
10
35.6174158413875
20
6.919371840971
30
0
41
1
10
35.423617306343
20
7.05628208794977
30
0
41
1
10
35.0363296811828
20
7.31974246345845
30
0
41
1
10
34.842837599582
20
7.44629194544075
30
0
41
1
10
34.4556662531317
20
7.68921243658784
30
0
41
1
10
34.2619900953806
20
7.80558489979583
30
0
41
1
10
33.8740419232429
20
8.02829528114049
30
0
41
1
10
33.4855064681898
20
8.24098523621893
30
0
41
1
10
33.0952285562708
20
8.43246134879348
30
0
41
1
10
32.8015921733075
20
8.56756983472332
30
0
41
1
10
32.7035580413324
20
8.61118849400998
30
0
41
1
10
32.5562332451014
20
8.67441264741626
30
0
41
1
10
32.5070924357902
20
8.69511375308394
30
0
41
1
10
32.4089790174966
20
8.73566095774666
30
0
41
1
10
31.9679340839563
20
8.91440093615878
30
0
41
1
10
31.5308949620928
20
9.05943993620781
30
0
41
1
10
30.950053508783
20
9.21302847002534
30
0
41
1
10
30.7567559909249
20
9.25757444289408
30
0
41
1
10
30.4518716297214
20
9.31722213771468
30
0
41
1
10
30.3402281842658
20
9.33679621788136
30
0
41
1
10
30.2285617755515
20
9.35413874541706
30
0
0
SPLINE
5
159
100
AcDbEntity
8
1
62
256
6
ByLayer
370
18
48
1
60
0
100
AcDbSpline
70
4
71
3
72
8
73
4
40
0
40
0
40
0
40
0
40
1
40
1
40
1
40
1
41
1
10
53.3166596857108
20
-8.61695838632087
30
0
41
1
10
53.307531334433
20
-8.45743469499288
30
0
41
1
10
53.2985987994193
20
-8.29790192035856
30
0
41
1
10
53.2898502285067
20
-8.13836061211541
30
0
0
SPLINE
5
15A
100
AcDbEntity
8
1
62
256
6
ByLayer
370
13
48
1
60
0
100
AcDbSpline
70
4
71
3
72
13
73
9
40
0
40
0
40
0
40
0
40
0.29657099368203
40
0.470923028703794
40
0.645275063725557
40
0.81962709874732
40
0.993979133769083
40
1
40
1
40
1
40
1
41
1
10
53.2898502369468
20
-8.13836061161933
30
0
41
1
10
51.9432334912979
20
-7.55583203861579
30
0
41
1
10
49.8049500789823
20
-6.18739891313891
30
0
41
1
10
46.8750000000001
20
-3.65226786102485
30
0
41
1
10
44.5000000000001
20
-1.3445149223198
30
0
41
1
10
42.1250000000001
20
1.05485355560131
30
0
41
1
10
40.514328189666
20
2.6340162882839
30
0
41
1
10
39.6953230459986
20
3.39490717650514
30
0
41
1
10
39.6679845689979
20
3.42025792681193
30
0
0
SPLINE
5
15B
100
AcDbEntity
8
1
62
256
6
ByLayer
370
18
48
1
60
0
100
AcDbSpline
70
4
71
3
72
8
73
4
40
0
40
0
40
0
40
0
40
1
40
1
40
1
40
1
41
1
10
40.1156745132682
20
-9.96685860729977
30
0
41
1
10
40.348303252012
20
-9.94516673124181
30
0
41
1
10
40.5809029089838
20
-9.91345478867186
30
0
41
1
10
40.813544005572
20
-9.87204494807867
30
0
0
SPLINE
5
15C
100
AcDbEntity
8
1
62
256
6
ByLayer
370
18
48
1
60
0
100
AcDbSpline
70
4
71
3
72
87
73
83
40
0
40
0
40
0
40
0
40
0.0027230879649746
40
0.0054463081162512
40
0.0081696518965615
40
0.0108931107349306
40
0.0136166760506901
40
0.0163403392574956
40
0.0190640917673307
40
0.0217879249945285
40
0.0245118303597628
40
0.0272357992940666
40
0.0299598232428308
40
0.0326838936698057
40
0.0354080020611051
40
0.0381321399292073
40
0.0408562988169535
40
0.0435804703015474
40
0.0463046459985562
40
0.0490288175659085
40
0.0517529767078922
40
0.0544771151791561
40
0.0572012247887095
40
0.0599252974039195
40
0.0626493249545153
40
0.0653732994365863
40
0.0680972129165922
40
0.0708210575353554
40
0.0735448255120799
40
0.0762685091483482
40
0.0789921008321341
40
0.0817155930418115
40
0.0844389783501722
40
0.0871622494284311
40
0.0898853990502511
40
0.0926084200957615
40
0.095331305555571
40
0.0980540485348078
40
0.100776642257129
40
0.103499080068764
40
0.106221355579662
40
0.108943467876524
40
0.111665423016803
40
0.114387227434561
40
0.117108887470928
40
0.119830409376589
40
0.122551799314259
40
0.125273063361162
40
0.156435803724097
40
0.187601117708719
40
0.218776567429132
40
0.249966550478852
40
0.266618138766033
40
0.31281025884692
40
0.328471428685736
40
0.344084146853432
40
0.359648388910016
40
0.37516420336659
40
0.39004633175293
40
0.409965347332711
40
0.434921412684339
40
0.464916253169711
40
0.499951419940831
40
0.549432060425683
40
0.596337385557564
40
0.640664376181013
40
0.682414955269641
40
0.72159120711484
40
0.758192381877491
40
0.792220492303274
40
0.823682167809498
40
0.852582110482724
40
0.878921074624986
40
0.902689432474159
40
0.923878732446181
40
0.942485433009842
40
0.958509481502365
40
0.971953174970769
40
0.982821171314949
40
0.991117268007119
40
0.996843298254741
40
1
40
1
40
1
40
1
41
1
10
23.2239811791424
20
2.22156189861906
30
0
41
1
10
23.2393089715727
20
2.20495192937889
30
0
41
1
10
23.2699653004872
20
2.17173118460423
30
0
41
1
10
23.3159504640212
20
2.12182649811027
30
0
41
1
10
23.3619374992061
20
2.07186825715834
30
0
41
1
10
23.4079262881571
20
2.02185267422826
30
0
41
1
10
23.4539167545868
20
1.97178267797614
30
0
41
1
10
23.499908811063
20
1.92165939719283
30
0
41
1
10
23.5459023731416
20
1.87148444281732
30
0
41
1
10
23.5918973555798
20
1.8212592964374
30
0
41
1
10
23.6378936733501
20
1.77098547414906
30
0
41
1
10
23.6838912413695
20
1.72066448264894
30
0
41
1
10
23.7298899745708
20
1.67029783099989
30
0
41
1
10
23.7758897878845
20
1.61988702747848
30
0
41
1
10
23.8218905962428
20
1.56943358042017
30
0
41
1
10
23.867892314579
20
1.51893899799271
30
0
41
1
10
23.9138948578272
20
1.46840478825752
30
0
41
1
10
23.9598981409226
20
1.41783245915306
30
0
41
1
10
24.0059020788012
20
1.3672235184998
30
0
41
1
10
24.0519065863996
20
1.31657947399898
30
0
41
1
10
24.0979115786556
20
1.26590183323322
30
0
41
1
10
24.1439169705071
20
1.21519210366654
30
0
41
1
10
24.1899226768931
20
1.16445179264463
30
0
41
1
10
24.2359286127532
20
1.11368240739497
30
0
41
1
10
24.2819346930272
20
1.0628854550271
30
0
41
1
10
24.3279408326556
20
1.01206244253254
30
0
41
1
10
24.3739469465792
20
0.961214876785476
30
0
41
1
10
24.4199529497394
20
0.91034426454226
30
0
41
1
10
24.4659587570773
20
0.859452112442284
30
0
41
1
10
24.511964283535
20
0.808539927007615
30
0
41
1
10
24.5579694440543
20
0.757609214643537
30
0
41
1
10
24.6039741535771
20
0.706661481638378
30
0
41
1
10
24.649978327046
20
0.655698234164305
30
0
41
1
10
24.695981879402
20
0.604720978276106
30
0
41
1
10
24.7419847255904
20
0.55373121991542
30
0
41
1
10
24.7879867805418
20
0.502730464896985
30
0
41
1
10
24.8339879592405
20
0.451720218960105
30
0
41
1
10
24.879988176469
20
0.400701987577349
30
0
41
1
10
24.9259873477628
20
0.349677276670036
30
0
41
1
10
24.9719853866176
20
0.298647589081412
30
0
41
1
10
25.017982247904
20
0.24761440113457
30
0
41
1
10
25.0639779105758
20
0.196579078035171
30
0
41
1
10
25.1099723563537
20
0.14554284831658
30
0
41
1
10
25.1559656230797
20
0.0945069079637619
30
0
41
1
10
25.2019577465695
20
0.0434724296528373
30
0
41
1
10
25.2479487677243
20
-0.0075593478200346
30
0
41
1
10
25.2939387117868
20
-0.0585874305063783
30
0
41
1
10
25.5001470983331
20
-0.287365509597464
30
0
41
1
10
25.8666327170345
20
-0.693821779044015
30
0
41
1
10
26.3932573818433
20
-1.27574569134336
30
0
41
1
10
26.9198973103945
20
-1.85356676801672
30
0
41
1
10
27.3644689421935
20
-2.33670867737283
30
0
41
1
10
27.8938551155341
20
-2.9048403170049
30
0
41
1
10
28.3359130307505
20
-3.37159051410362
30
0
41
1
10
28.7720130957591
20
-3.8220933262364
30
0
41
1
10
29.0357148803788
20
-4.09124058625767
30
0
41
1
10
29.2986073766843
20
-4.35607671449978
30
0
41
1
10
29.5574008479463
20
-4.613130876551
30
0
41
1
10
29.8407186468885
20
-4.89039576134431
30
0
41
1
10
30.1772067618978
20
-5.21372678062161
30
0
41
1
10
30.5988047578328
20
-5.60846601377798
30
0
41
1
10
31.1055021230673
20
-6.066428698442
30
0
41
1
10
31.7502161190794
20
-6.62268220270366
30
0
41
1
10
32.4901842934799
20
-7.21865192341295
30
0
41
1
10
33.282453045271
20
-7.7996870621341
30
0
41
1
10
34.0313409034026
20
-8.29338318685774
30
0
41
1
10
34.7368195214108
20
-8.70533537849573
30
0
41
1
10
35.3987361228867
20
-9.04333481368587
30
0
41
1
10
36.01704198676
20
-9.31527669839224
30
0
41
1
10
36.591773725131
20
-9.52899853612172
30
0
41
1
10
37.1230700117177
20
-9.69223563947625
30
0
41
1
10
37.6110306037114
20
-9.81245720035832
30
0
41
1
10
38.0556350518546
20
-9.89675234296919
30
0
41
1
10
38.4568694056987
20
-9.95197227437728
30
0
41
1
10
38.8146635970385
20
-9.98439552267598
30
0
41
1
10
39.1289594501936
20
-9.99969046124352
30
0
41
1
10
39.3997324492001
20
-10.0029110482403
30
0
41
1
10
39.6269946255903
20
-9.99843821151771
30
0
41
1
10
39.8107538519585
20
-9.99006455634876
30
0
41
1
10
39.9510261800369
20
-9.98080360972807
30
0
41
1
10
40.0478429945014
20
-9.9730434733616
30
0
41
1
10
40.0978893019093
20
-9.96848025977249
30
0
41
1
10
40.1156745132682
20
-9.96685860729977
30
0
0
SPLINE
5
15D
100
AcDbEntity
8
1
62
256
6
ByLayer
370
18
48
1
60
0
100
AcDbSpline
70
4
71
3
72
26
73
22
40
0
40
0
40
0
40
0
40
0.124999999999996
40
0.124999999999996
40
0.249999999999993
40
0.249999999999993
40
0.374999999999989
40
0.374999999999989
40
0.499999999999985
40
0.499999999999985
40
0.531249999999985
40
0.531249999999985
40
0.562499999999985
40
0.562499999999985
40
0.624999999999987
40
0.624999999999987
40
0.749999999999991
40
0.749999999999991
40
0.874999999999996
40
0.874999999999996
40
1
40
1
40
1
40
1
41
1
10
16.0000000000001
20
8.55513868845199
30
0
41
1
10
16.3036551998907
20
8.38014473674841
30
0
41
1
10
16.6054969380941
20
8.19174365768683
30
0
41
1
10
17.2072423615211
20
7.7896151993146
30
0
41
1
10
17.507142983132
20
7.57588149299789
30
0
41
1
10
18.1067445001241
20
7.1240348252262
30
0
41
1
10
18.4064481298627
20
6.88594408907411
30
0
41
1
10
19.0073618982947
20
6.38655131018785
30
0
41
1
10
19.3085688634757
20
6.12524815653026
30
0
41
1
10
19.687106281343
20
5.78448978412789
30
0
41
1
10
19.7629153164106
20
5.71563089678114
30
0
41
1
10
19.9147630660476
20
5.57650828833306
30
0
41
1
10
19.9906219784731
20
5.50640900017109
30
0
41
1
10
20.2178355505715
20
5.29473018087717
30
0
41
1
10
20.3689174901374
20
5.15168843785986
30
0
41
1
10
20.8212786629322
20
4.71709519846451
30
0
41
1
10
21.1216562043707
20
4.42007265419832
30
0
41
1
10
21.7216525644075
20
3.81283611685311
30
0
41
1
10
22.0212781461215
20
3.50263111815209
30
0
41
1
10
22.6214780491744
20
2.87053306032217
30
0
41
1
10
22.922050415656
20
2.54863828940353
30
0
41
1
10
23.2239811791424
20
2.22156189861906
30
0
0
SPLINE
5
15E
100
AcDbEntity
8
1
62
256
6
ByLayer
370
13
48
1
60
0
100
AcDbSpline
70
4
71
3
72
10
73
6
40
0
40
0
40
0
40
0
40
0.0615191684258858
40
0.374346112283924
40
1
40
1
40
1
40
1
41
1
10
23.5920570354637
20
1.82115949715788
30
0
41
1
10
23.4363713569758
20
1.97906837619829
30
0
41
1
10
22.4890190118213
20
2.93505839607914
30
0
41
1
10
19.9583333333334
20
5.38827736543857
30
0
41
1
10
17.5833333333334
20
7.20219518634656
30
0
41
1
10
16.0000000000001
20
8.03156828631327
30
0
0
SPLINE
5
15F
100
AcDbEntity
8
1
62
256
6
ByLayer
370
18
48
1
60
0
100
AcDbSpline
70
4
71
2
72
6
73
3
40
0
40
0
40
0
40
1
40
1
40
1
41
1
10
52.6496980331601
20
5.26685676849965
30
0
41
1
10
51.946273276214
20
5.69892821205951
30
0
41
1
10
51.2484521851781
20
6.13481660355248
30
0
0
SPLINE
5
160
100
AcDbEntity
8
1
62
256
6
ByLayer
370
18
48
1
60
0
100
AcDbSpline
70
4
71
3
72
15
73
11
40
0
40
0
40
0
40
0
40
0.155922205669862
40
0.28661259399821
40
0.39722989302866
40
0.496736395728352
40
0.597569532022661
40
0.70429802176651
40
0.879984469754108
40
1
40
1
40
1
40
1
41
1
10
17.3814178809172
20
-8.36591495645635
30
0
41
1
10
17.4562213443276
20
-8.34367184390752
30
0
41
1
10
17.6106824736035
20
-8.29749261172211
30
0
41
1
10
17.8606618861565
20
-8.21943495682527
30
0
41
1
10
18.1179140939701
20
-8.14363062387258
30
0
41
1
10
18.3836408991064
20
-8.07274478629424
30
0
41
1
10
18.6412678535871
20
-8.01135632565232
30
0
41
1
10
18.9217029658997
20
-7.94697529715299
30
0
41
1
10
19.2564822905689
20
-7.86430269115391
30
0
41
1
10
19.5076398849799
20
-7.80374025377608
30
0
41
1
10
19.6084996811014
20
-7.77980214325009
30
0
0
SPLINE
5
161
100
AcDbEntity
8
1
62
256
6
ByLayer
370
18
48
1
60
0
100
AcDbSpline
70
4
71
3
72
17
73
13
40
0
40
0
40
0
40
0
40
0.150068525612834
40
0.265912827650736
40
0.347481708939544
40
0.398253772174
40
0.442370943077069
40
0.48444827510433
40
0.545838928315887
40
0.644599143012923
40
0.795985171526389
40
1
40
1
40
1
40
1
41
1
10
41.8796993544264
20
2.94164717059974
30
0
41
1
10
41.6977947104792
20
3.06691413692718
30
0
41
1
10
41.3756345878034
20
3.29004344867965
30
0
41
1
10
40.95507039238
20
3.58457141813525
30
0
41
1
10
40.6548426272307
20
3.796047293187
30
0
41
1
10
40.4419885500741
20
3.94649277930262
30
0
41
1
10
40.276630719355
20
4.06358431080466
30
0
41
1
10
40.0982783217928
20
4.19006136156762
30
0
41
1
10
39.8536530677452
20
4.36379188545854
30
0
41
1
10
39.4767878480852
20
4.63182813814677
30
0
41
1
10
38.9273328879821
20
5.02294700641392
30
0
41
1
10
38.497368126626
20
5.32734560737768
30
0
41
1
10
38.2505459930823
20
5.5017382074804
30
0
0
SPLINE
5
162
100
AcDbEntity
8
1
62
256
6
ByLayer
370
18
48
1
60
0
100
AcDbSpline
70
4
71
2
72
6
73
3
40
0
40
0
40
0
40
1
40
1
40
1
41
1
10
32.0230651086001
20
-8.35757186523969
30
0
41
1
10
32.5133810022071
20
-8.21560571389162
30
0
41
1
10
33.0470955552015
20
-8.07156746089242
30
0
0
SPLINE
5
163
100
AcDbEntity
8
1
62
256
6
ByLayer
370
18
48
1
60
0
100
AcDbSpline
70
4
71
3
72
18
73
14
40
0
40
0
40
0
40
0
40
0.138835914973706
40
0.254891343668117
40
0.355192846639963
40
0.442595866516507
40
0.513215776252181
40
0.568822366804768
40
0.631839337121682
40
0.723703493048636
40
0.831854952318375
40
0.929625416889622
40
1
40
1
40
1
40
1
41
1
10
24.5150521968331
20
6.96688497515612
30
0
41
1
10
24.3304781960081
20
6.98142129152734
30
0
41
1
10
23.9695260833169
20
7.01535402529635
30
0
41
1
10
23.4103965233755
20
7.07681782182866
30
0
41
1
10
22.8906136073795
20
7.14978442235426
30
0
41
1
10
22.4571336795503
20
7.21581591637343
30
0
41
1
10
22.0943327746956
20
7.27408605084162
30
0
41
1
10
21.789852375361
20
7.32656393943819
30
0
41
1
10
21.464595508623
20
7.38537133894513
30
0
41
1
10
21.0370115321549
20
7.4671223590322
30
0
41
1
10
20.5547635342134
20
7.5661347844169
30
0
41
1
10
20.1050310448408
20
7.66457826103021
30
0
41
1
10
19.8345565608182
20
7.72665936200789
30
0
41
1
10
19.7198540682632
20
7.75353825139268
30
0
0
SPLINE
5
164
100
AcDbEntity
8
1
62
256
6
ByLayer
370
18
48
1
60
0
100
AcDbSpline
70
4
71
3
72
10
73
6
40
0
40
0
40
0
40
0
40
0.429648904945158
40
0.800892572083951
40
1
40
1
40
1
40
1
41
1
10
45.6878860504501
20
-8.35997470485711
30
0
41
1
10
45.8616429449131
20
-8.30999115265394
30
0
41
1
10
46.1934163364638
20
-8.21680195493849
30
0
41
1
10
46.6216266378667
20
-8.0987211057946
30
0
41
1
10
46.8771472934506
20
-8.0328344745086
30
0
41
1
10
46.9674544093287
20
-8.00990789238159
30
0
0
SPLINE
5
165
100
AcDbEntity
8
1
62
256
6
ByLayer
370
18
48
1
60
0
100
AcDbSpline
70
4
71
2
72
6
73
3
40
0
40
0
40
0
40
1
40
1
40
1
41
1
10
9.45308838825608
20
8.52731882300944
30
0
41
1
10
8.80826146555629
20
8.88545671115082
30
0
41
1
10
8.22910734233449
20
9.25249279678906
30
0
0
SPLINE
5
166
100
AcDbEntity
8
1
62
256
6
ByLayer
370
18
48
1
60
0
100
AcDbSpline
70
4
71
3
72
15
73
11
40
0
40
0
40
0
40
0
40
0.193939823183312
40
0.338167033254155
40
0.433616508142105
40
0.511783228063141
40
0.590081263958978
40
0.68518213740126
40
0.828578472081388
40
1
40
1
40
1
40
1
41
1
10
27.126719993904
20
-9.87636666674538
30
0
41
1
10
27.3273419354076
20
-9.84124643909522
30
0
41
1
10
27.6772065577728
20
-9.78011562306321
30
0
41
1
10
28.1265327268755
20
-9.70156483866575
30
0
41
1
10
28.4552055165962
20
-9.64460495473713
30
0
41
1
10
28.7144946564552
20
-9.60013259117986
30
0
41
1
10
28.9732088601535
20
-9.55631536692133
30
0
41
1
10
29.3002850409417
20
-9.50183126255186
30
0
41
1
10
29.7254711011449
20
-9.43289100039371
30
0
41
1
10
30.0521092501063
20
-9.38152511306771
30
0
41
1
10
30.2301711543184
20
-9.35402448770287
30
0
0
SPLINE
5
167
100
AcDbEntity
8
1
62
256
6
ByLayer
370
18
48
1
60
0
100
AcDbSpline
70
4
71
2
72
6
73
3
40
0
40
0
40
0
40
1
40
1
40
1
41
1
10
25.0531718350631
20
3.4201999069652
30
0
41
1
10
25.0531567086568
20
3.42021434049499
30
0
41
1
10
25.0531718350636
20
3.42019990695616
30
0
0
SPLINE
5
168
100
AcDbEntity
8
1
62
256
6
ByLayer
370
18
48
1
60
0
100
AcDbSpline
70
4
71
3
72
15
73
11
40
0
40
0
40
0
40
0
40
0.161521196970009
40
0.298962127832346
40
0.392634999310043
40
0.471067905842259
40
0.549494330832579
40
0.646650611991009
40
0.79649351191502
40
1
40
1
40
1
40
1
41
1
10
43.9081188310157
20
9.35212746107931
30
0
41
1
10
43.7407986173938
20
9.37788087868643
30
0
41
1
10
43.4313598994349
20
9.42638092711434
30
0
41
1
10
43.0252149084171
20
9.49231711475005
30
0
41
1
10
42.705895286278
20
9.54524764610403
30
0
41
1
10
42.4482206112771
20
9.58849998594687
30
0
41
1
10
42.1874586309008
20
9.6326594263117
30
0
41
1
10
41.8518691005021
20
9.69002328904776
30
0
41
1
10
41.3859660098861
20
9.77079188254066
30
0
41
1
10
41.0212608968271
20
9.83506946355041
30
0
41
1
10
40.8112351380123
20
9.8724556056022
30
0
0
SPLINE
5
169
100
AcDbEntity
8
1
62
256
6
ByLayer
370
18
48
1
60
0
100
AcDbSpline
70
4
71
1
72
4
73
2
40
0
40
0
40
1
40
1
41
1
10
15.0784471155205
20
-9.44769053414964
30
0
41
1
10
15.6593973744883
20
-9.35424363641295
30
0
0
SPLINE
5
16A
100
AcDbEntity
8
1
62
256
6
ByLayer
370
18
48
1
60
0
100
AcDbSpline
70
4
71
3
72
15
73
11
40
0
40
0
40
0
40
0
40
0.171421527919063
40
0.314817862598852
40
0.409918736041041
40
0.488216771936871
40
0.566383491857916
40
0.661832966745876
40
0.806060176816713
40
1
40
1
40
1
40
1
41
1
10
30.2301711543186
20
9.35402448770265
30
0
41
1
10
30.052109250106
20
9.38152511306757
30
0
41
1
10
29.7254711011444
20
9.4328910003936
30
0
41
1
10
29.3002850409412
20
9.50183126255175
30
0
41
1
10
28.9732088601534
20
9.55631536692115
30
0
41
1
10
28.7144946564553
20
9.60013259117966
30
0
41
1
10
28.4552055165963
20
9.64460495473696
30
0
41
1
10
28.1265327268755
20
9.70156483866558
30
0
41
1
10
27.6772065577728
20
9.78011562306304
30
0
41
1
10
27.3273419354076
20
9.84124643909504
30
0
41
1
10
27.126719993904
20
9.87636666674521
30
0
0
SPLINE
5
16B
100
AcDbEntity
8
1
62
256
6
ByLayer
370
18
48
1
60
0
100
AcDbSpline
70
4
71
1
72
4
73
2
40
0
40
0
40
1
40
1
41
1
10
15.6593973744887
20
9.3542436364128
30
0
41
1
10
15.0784471155205
20
9.44769053414956
30
0
0
SPLINE
5
16C
100
AcDbEntity
8
1
62
256
6
ByLayer
370
18
48
1
60
0
100
AcDbSpline
70
4
71
3
72
15
73
11
40
0
40
0
40
0
40
0
40
0.203506488084979
40
0.353349388008996
40
0.450505669167425
40
0.52893209415774
40
0.607365000689957
40
0.701037872167673
40
0.838478803030038
40
1
40
1
40
1
40
1
41
1
10
40.8112351380122
20
-9.87245560560248
30
0
41
1
10
41.021260896827
20
-9.8350694635507
30
0
41
1
10
41.385966009886
20
-9.77079188254095
30
0
41
1
10
41.8518691005021
20
-9.69002328904804
30
0
41
1
10
42.1874586309008
20
-9.63265942631199
30
0
41
1
10
42.4482206112771
20
-9.58849998594718
30
0
41
1
10
42.7058952862779
20
-9.54524764610431
30
0
41
1
10
43.0252149084172
20
-9.49231711475036
30
0
41
1
10
43.4313598994349
20
-9.42638092711462
30
0
41
1
10
43.7407986173938
20
-9.37788087868671
30
0
41
1
10
43.9081188310157
20
-9.35212746107962
30
0
0
LINE
5
7F
100
AcDbEntity
8
81
62
256
6
ByLayer
370
18
48
1
60
0
100
AcDbLine
10
54
20
0
30
0
11
59
21
0
31
0
39
0
210
0
220
0
230
1
0
LINE
5
80
100
AcDbEntity
8
4
62
256
6
ByLayer
370
18
48
0.05
60
0
100
AcDbLine
10
0
20
0
30
0
11
54
21
0
31
0
39
0
210
0
220
0
230
1
0
LINE
5
82
100
AcDbEntity
8
80
62
256
6
ByLayer
370
18
48
1
60
0
100
AcDbLine
10
0
20
0
30
0
11
-5
21
0
31
0
39
0
210
0
220
0
230
1
0
LINE
5
83
100
AcDbEntity
8
SK4
62
256
6
ByLayer
370
18
48
0.05
60
0
100
AcDbLine
10
-50
20
0
30
0
11
54
21
0
31
0
39
0
210
0
220
0
230
1
0
LINE
5
85
100
AcDbEntity
8
1
62
256
6
ByLayer
370
18
48
1
60
0
100
AcDbLine
10
0
20
10
30
0
11
0
21
0
31
0
39
0
210
0
220
0
230
1
0
LINE
5
86
100
AcDbEntity
8
1
62
256
6
ByLayer
370
18
48
1
60
0
100
AcDbLine
10
0
20
0
30
0
11
0
21
-10
31
0
39
0
210
0
220
0
230
1
0
LINE
5
87
100
AcDbEntity
8
1
62
256
6
ByLayer
370
18
48
1
60
0
100
AcDbLine
10
53.991289
20
-0.066222
30
0
11
53.775525
21
-1.754177
31
0
39
0
210
0
220
0
230
1
0
LINE
5
88
100
AcDbEntity
8
1
62
256
6
ByLayer
370
18
48
1
60
0
100
AcDbLine
10
53.991289
20
-0.066222
30
0
11
53.949128
21
1E-06
31
0
39
0
210
0
220
0
230
1
0
LINE
5
89
100
AcDbEntity
8
1
62
256
6
ByLayer
370
18
48
1
60
0
100
AcDbLine
10
53.76509
20
-0.220468
30
0
11
53.742298
21
-0.441681
31
0
39
0
210
0
220
0
230
1
0
LINE
5
8A
100
AcDbEntity
8
1
62
256
6
ByLayer
370
18
48
1
60
0
100
AcDbLine
10
53.991289
20
9.715439
30
0
11
53.775522
21
1.754224
31
0
39
0
210
0
220
0
230
1
0
LINE
5
8B
100
AcDbEntity
8
1
62
256
6
ByLayer
370
18
48
1
60
0
100
AcDbLine
10
53.991289
20
9.715439
30
0
11
53.888682
21
9.900687
31
0
39
0
210
0
220
0
230
1
0
LINE
5
8C
100
AcDbEntity
8
1
62
256
6
ByLayer
370
18
48
1
60
0
100
AcDbLine
10
53.408246
20
-0.627521
30
0
11
53.404183
21
-0.605316
31
0
39
0
210
0
220
0
230
1
0
LINE
5
8D
100
AcDbEntity
8
1
62
256
6
ByLayer
370
18
48
1
60
0
100
AcDbLine
10
53.991289
20
-9.715439
30
0
11
53.750053
21
-0.814477
31
0
39
0
210
0
220
0
230
1
0
LINE
5
8E
100
AcDbEntity
8
1
62
256
6
ByLayer
370
18
48
1
60
0
100
AcDbLine
10
53.991289
20
-9.715439
30
0
11
53.888682
21
-9.900687
31
0
39
0
210
0
220
0
230
1
0
LINE
5
8F
100
AcDbEntity
8
1
62
256
6
ByLayer
370
18
48
1
60
0
100
AcDbLine
10
53.991289
20
-9.715439
30
0
11
53.729508
21
-9.196897
31
0
39
0
210
0
220
0
230
1
0
LINE
5
90
100
AcDbEntity
8
1
62
256
6
ByLayer
370
18
48
1
60
0
100
AcDbLine
10
53.599376
20
-1.906391
30
0
11
53.551059
21
-2.247659
31
0
39
0
210
0
220
0
230
1
0
LINE
5
91
100
AcDbEntity
8
1
62
256
6
ByLayer
370
13
48
1
60
0
100
AcDbLine
10
15.598076
20
9.177305
30
0
11
15.598076
21
8.594472
31
0
39
0
210
0
220
0
230
1
0
LINE
5
92
100
AcDbEntity
8
1
62
256
6
ByLayer
370
18
48
1
60
0
100
AcDbLine
10
53.729508
20
-9.196897
30
0
11
53.692379
21
-9.205339
31
0
39
0
210
0
220
0
230
1
0
LINE
5
93
100
AcDbEntity
8
1
62
256
6
ByLayer
370
18
48
1
60
0
100
AcDbLine
10
53.729508
20
-9.196897
30
0
11
53.551059
21
-2.247659
31
0
39
0
210
0
220
0
230
1
0
LINE
5
94
100
AcDbEntity
8
1
62
256
6
ByLayer
370
18
48
1
60
0
100
AcDbLine
10
53.551059
20
-2.247659
30
0
11
52.786633
21
-3.209333
31
0
39
0
210
0
220
0
230
1
0
LINE
5
95
100
AcDbEntity
8
1
62
256
6
ByLayer
370
13
48
1
60
0
100
AcDbLine
10
53.599376
20
-1.906391
30
0
11
51.466023
21
-1.209197
31
0
39
0
210
0
220
0
230
1
0
LINE
5
96
100
AcDbEntity
8
1
62
256
6
ByLayer
370
13
48
1
60
0
100
AcDbLine
10
14.598076
20
8.829834
30
0
11
14.598076
21
9.483269
31
0
39
0
210
0
220
0
230
1
0
LINE
5
97
100
AcDbEntity
8
1
62
256
6
ByLayer
370
13
48
1
60
0
100
AcDbLine
10
14.598076
20
-3.037938
30
0
11
14.598076
21
-0.066483
31
0
39
0
210
0
220
0
230
1
0
LINE
5
98
100
AcDbEntity
8
1
62
256
6
ByLayer
370
13
48
1
60
0
100
AcDbLine
10
15.598076
20
-2.860244
30
0
11
15.598076
21
-4.185807
31
0
39
0
210
0
220
0
230
1
0
LINE
5
99
100
AcDbEntity
8
1
62
256
6
ByLayer
370
13
48
1
60
0
100
AcDbLine
10
1.995358
20
-9.5
30
0
11
1.995358
21
0
31
0
39
0
210
0
220
0
230
1
0
LINE
5
9A
100
AcDbEntity
8
1
62
256
6
ByLayer
370
13
48
1
60
0
100
AcDbLine
10
1.995358
20
0
30
0
11
1.995358
21
9.5
31
0
39
0
210
0
220
0
230
1
0
LINE
5
9B
100
AcDbEntity
8
1
62
256
6
ByLayer
370
13
48
1
60
0
100
AcDbLine
10
16
20
-8.882896
30
0
11
16
21
-9.290834
31
0
39
0
210
0
220
0
230
1
0
LINE
5
9C
100
AcDbEntity
8
1
62
256
6
ByLayer
370
13
48
1
60
0
100
AcDbLine
10
0.995358
20
9.767949
30
0
11
0.995358
21
0
31
0
39
0
210
0
220
0
230
1
0
LINE
5
9D
100
AcDbEntity
8
1
62
256
6
ByLayer
370
13
48
1
60
0
100
AcDbLine
10
0.995358
20
0
30
0
11
0.995358
21
-9.767949
31
0
39
0
210
0
220
0
230
1
0
LINE
5
9E
100
AcDbEntity
8
1
62
256
6
ByLayer
370
18
48
1
60
0
100
AcDbLine
10
0.593434
20
10
30
0
11
0.593434
21
0
31
0
39
0
210
0
220
0
230
1
0
LINE
5
9F
100
AcDbEntity
8
1
62
256
6
ByLayer
370
18
48
1
60
0
100
AcDbLine
10
0.593434
20
0
30
0
11
0.593434
21
-10
31
0
39
0
210
0
220
0
230
1
0
LINE
5
A0
100
AcDbEntity
8
1
62
256
6
ByLayer
370
18
48
1
60
0
100
AcDbLine
10
53.991289
20
0.066222
30
0
11
53.81316
21
-0.213568
31
0
39
0
210
0
220
0
230
1
0
LINE
5
A1
100
AcDbEntity
8
1
62
256
6
ByLayer
370
13
48
1
60
0
100
AcDbLine
10
52.130855
20
0.33622
30
0
11
53.81316
21
-0.213568
31
0
39
0
210
0
220
0
230
1
0
LINE
5
A2
100
AcDbEntity
8
1
62
256
6
ByLayer
370
13
48
1
60
0
100
AcDbLine
10
16
20
-1.116246
30
0
11
16
21
-1.353311
31
0
39
0
210
0
220
0
230
1
0
LINE
5
A3
100
AcDbEntity
8
1
62
256
6
ByLayer
370
18
48
1
60
0
100
AcDbLine
10
53.991289
20
0.066222
30
0
11
53.888682
21
0.100045
31
0
39
0
210
0
220
0
230
1
0
LINE
5
A4
100
AcDbEntity
8
1
62
256
6
ByLayer
370
18
48
1
60
0
100
AcDbLine
10
53.991289
20
0.066222
30
0
11
53.729508
21
2.114168
31
0
39
0
210
0
220
0
230
1
0
LINE
5
A5
100
AcDbEntity
8
1
62
256
6
ByLayer
370
18
48
1
60
0
100
AcDbLine
10
53.729508
20
2.114168
30
0
11
53.692379
21
2.242367
31
0
39
0
210
0
220
0
230
1
0
LINE
5
A6
100
AcDbEntity
8
1
62
256
6
ByLayer
370
13
48
1
60
0
100
AcDbLine
10
16
20
8.554272
30
0
11
16
21
8.031568
31
0
39
0
210
0
220
0
230
1
0
LINE
5
A7
100
AcDbEntity
8
SK1
62
256
6
ByLayer
370
18
48
1
60
0
100
AcDbLine
10
-50
20
-9
30
0
11
-50
21
9
31
0
39
0
210
0
220
0
230
1
0
LINE
5
A9
100
AcDbEntity
8
SK1
62
256
6
ByLayer
370
18
48
1
60
0
100
AcDbLine
10
0
20
10
30
0
11
0
21
0
31
0
39
0
210
0
220
0
230
1
0
LINE
5
AA
100
AcDbEntity
8
SK1
62
256
6
ByLayer
370
18
48
1
60
0
100
AcDbLine
10
0
20
0
30
0
11
0
21
-10
31
0
39
0
210
0
220
0
230
1
0
LINE
5
AB
100
AcDbEntity
8
SK1
62
256
6
ByLayer
370
18
48
1
60
0
100
AcDbLine
10
-49
20
10
30
0
11
-49
21
-10
31
0
39
0
210
0
220
0
230
1
0
LINE
5
AC
100
AcDbEntity
8
SK1
62
256
6
ByLayer
370
18
48
1
60
0
100
AcDbLine
10
-30.5
20
8.2
30
0
11
-32.3
21
10
31
0
39
0
210
0
220
0
230
1
0
LINE
5
AD
100
AcDbEntity
8
SK1
62
256
6
ByLayer
370
18
48
1
60
0
100
AcDbLine
10
-17.7
20
10
30
0
11
-19.5
21
8.2
31
0
39
0
210
0
220
0
230
1
0
LINE
5
AE
100
AcDbEntity
8
SK1
62
256
6
ByLayer
370
18
48
1
60
0
100
AcDbLine
10
-30.5
20
8.2
30
0
11
-19.5
21
8.2
31
0
39
0
210
0
220
0
230
1
0
LINE
5
AF
100
AcDbEntity
8
1
62
256
6
ByLayer
370
18
48
1
60
0
100
AcDbLine
10
0.593434
20
10
30
0
11
0
21
10
31
0
39
0
210
0
220
0
230
1
0
LINE
5
B0
100
AcDbEntity
8
1
62
256
6
ByLayer
370
18
48
1
60
0
100
AcDbLine
10
0
20
-10
30
0
11
0.593434
21
-10
31
0
39
0
210
0
220
0
230
1
0
LINE
5
B1
100
AcDbEntity
8
1
62
256
6
ByLayer
370
18
48
1
60
0
100
AcDbLine
10
14.129188
20
9.5
30
0
11
10.561646
21
9.5
31
0
39
0
210
0
220
0
230
1
0
LINE
5
B2
100
AcDbEntity
8
1
62
256
6
ByLayer
370
18
48
1
60
0
100
AcDbLine
10
7.697607
20
9.5
30
0
11
1.995358
21
9.5
31
0
39
0
210
0
220
0
230
1
0
LINE
5
B3
100
AcDbEntity
8
1
62
256
6
ByLayer
370
18
48
1
60
0
100
AcDbLine
10
1.995358
20
-9.5
30
0
11
7.697607
21
-9.5
31
0
39
0
210
0
220
0
230
1
0
LINE
5
B4
100
AcDbEntity
8
1
62
256
6
ByLayer
370
18
48
1
60
0
100
AcDbLine
10
10.561646
20
-9.5
30
0
11
14.129188
21
-9.5
31
0
39
0
210
0
220
0
230
1
0
LINE
5
B5
100
AcDbEntity
8
1
62
256
6
ByLayer
370
18
48
1
60
0
100
AcDbLine
10
0.995358
20
9.767949
30
0
11
0.593434
21
10
31
0
39
0
210
0
220
0
230
1
0
LINE
5
B6
100
AcDbEntity
8
1
62
256
6
ByLayer
370
18
48
1
60
0
100
AcDbLine
10
0.593434
20
-10
30
0
11
0.995358
21
-9.767949
31
0
39
0
210
0
220
0
230
1
0
LINE
5
B7
100
AcDbEntity
8
SK1
62
256
6
ByLayer
370
18
48
1
60
0
100
AcDbLine
10
-50
20
-9
30
0
11
-49
21
-10
31
0
39
0
210
0
220
0
230
1
0
LINE
5
B8
100
AcDbEntity
8
SK1
62
256
6
ByLayer
370
18
48
1
60
0
100
AcDbLine
10
-49
20
10
30
0
11
-50
21
9
31
0
39
0
210
0
220
0
230
1
0
LINE
5
B9
100
AcDbEntity
8
SK1
62
256
6
ByLayer
370
18
48
1
60
0
100
AcDbLine
10
0
20
10
30
0
11
-17.7
21
10
31
0
39
0
210
0
220
0
230
1
0
LINE
5
BA
100
AcDbEntity
8
SK1
62
256
6
ByLayer
370
18
48
1
60
0
100
AcDbLine
10
-32.3
20
10
30
0
11
-49
21
10
31
0
39
0
210
0
220
0
230
1
0
LINE
5
BB
100
AcDbEntity
8
SK1
62
256
6
ByLayer
370
18
48
1
60
0
100
AcDbLine
10
-49
20
-10
30
0
11
0
21
-10
31
0
39
0
210
0
220
0
230
1
0
LINE
5
BC
100
AcDbEntity
8
SK2
62
256
6
ByLayer
370
13
48
1
60
0
100
AcDbLine
10
-78.25
20
10
30
0
11
-78.25
21
-10
31
0
39
0
210
0
220
0
230
1
0
LINE
5
BE
100
AcDbEntity
8
SK2
62
256
6
ByLayer
370
13
48
1
60
0
100
AcDbLine
10
-51.5875
20
-10
30
0
11
-80.25
21
-10
31
0
39
0
210
0
220
0
230
1
0
LINE
5
BF
100
AcDbEntity
8
SK2
62
256
6
ByLayer
370
13
48
1
60
0
100
AcDbLine
10
-51.5875
20
10
30
0
11
-80.25
21
10
31
0
39
0
210
0
220
0
230
1
0
LINE
5
C0
100
AcDbEntity
8
1
62
256
6
ByLayer
370
18
48
1
60
1
100
AcDbLine
10
-78.25
20
-10
30
0
11
-78.710784
21
-6.500002
31
0
39
0
210
0
220
0
230
1
0
LINE
5
C1
100
AcDbEntity
8
1
62
256
6
ByLayer
370
18
48
1
60
1
100
AcDbLine
10
-78.710784
20
-6.500002
30
0
11
-77.789216
21
-6.499998
31
0
39
0
210
0
220
0
230
1
0
LINE
5
C2
100
AcDbEntity
8
1
62
256
6
ByLayer
370
18
48
1
60
1
100
AcDbLine
10
-77.789216
20
-6.499998
30
0
11
-78.25
21
-10
31
0
39
0
210
0
220
0
230
1
0
LINE
5
C3
100
AcDbEntity
8
1
62
256
6
ByLayer
370
18
48
1
60
1
100
AcDbLine
10
-78.25
20
10
30
0
11
-77.789216
21
6.500002
31
0
39
0
210
0
220
0
230
1
0
LINE
5
C4
100
AcDbEntity
8
1
62
256
6
ByLayer
370
18
48
1
60
1
100
AcDbLine
10
-77.789216
20
6.500002
30
0
11
-78.710784
21
6.499998
31
0
39
0
210
0
220
0
230
1
0
LINE
5
C5
100
AcDbEntity
8
1
62
256
6
ByLayer
370
18
48
1
60
1
100
AcDbLine
10
-78.710784
20
6.499998
30
0
11
-78.25
21
10
31
0
39
0
210
0
220
0
230
1
0
LINE
5
C6
100
AcDbEntity
8
SK2
62
256
6
ByLayer
370
13
48
1
60
0
100
AcDbLine
10
7.75
20
9.5
30
0
11
7.75
21
-9.5
31
0
39
0
210
0
220
0
230
1
0
LINE
5
C7
100
AcDbEntity
8
SK2
62
256
6
ByLayer
370
13
48
1
60
0
100
AcDbLine
10
14.4125
20
-9.5
30
0
11
5.75
21
-9.5
31
0
39
0
210
0
220
0
230
1
0
LINE
5
C8
100
AcDbEntity
8
SK2
62
256
6
ByLayer
370
13
48
1
60
0
100
AcDbLine
10
14.4125
20
9.5
30
0
11
5.75
21
9.5
31
0
39
0
210
0
220
0
230
1
0
LINE
5
C9
100
AcDbEntity
8
1
62
256
6
ByLayer
370
18
48
1
60
1
100
AcDbLine
10
7.75
20
-9.5
30
0
11
7.289216
21
-6.000002
31
0
39
0
210
0
220
0
230
1
0
LINE
5
CA
100
AcDbEntity
8
1
62
256
6
ByLayer
370
18
48
1
60
1
100
AcDbLine
10
7.289216
20
-6.000002
30
0
11
8.210784
21
-5.999998
31
0
39
0
210
0
220
0
230
1
0
LINE
5
CB
100
AcDbEntity
8
1
62
256
6
ByLayer
370
18
48
1
60
1
100
AcDbLine
10
8.210784
20
-5.999998
30
0
11
7.75
21
-9.5
31
0
39
0
210
0
220
0
230
1
0
LINE
5
CC
100
AcDbEntity
8
1
62
256
6
ByLayer
370
18
48
1
60
1
100
AcDbLine
10
7.75
20
9.5
30
0
11
8.210784
21
6.000002
31
0
39
0
210
0
220
0
230
1
0
LINE
5
CD
100
AcDbEntity
8
1
62
256
6
ByLayer
370
18
48
1
60
1
100
AcDbLine
10
8.210784
20
6.000002
30
0
11
7.289216
21
5.999998
31
0
39
0
210
0
220
0
230
1
0
LINE
5
CE
100
AcDbEntity
8
1
62
256
6
ByLayer
370
18
48
1
60
1
100
AcDbLine
10
7.289216
20
5.999998
30
0
11
7.75
21
9.5
31
0
39
0
210
0
220
0
230
1
0
LINE
5
CF
100
AcDbEntity
8
2
62
256
6
ByLayer
370
13
48
1
60
0
100
AcDbLine
10
71
20
10
30
0
11
71
21
-10
31
0
39
0
210
0
220
0
230
1
0
LINE
5
D1
100
AcDbEntity
8
2
62
256
6
ByLayer
370
13
48
1
60
0
100
AcDbLine
10
55.5875
20
-10
30
0
11
73
21
-10
31
0
39
0
210
0
220
0
230
1
0
LINE
5
D2
100
AcDbEntity
8
2
62
256
6
ByLayer
370
13
48
1
60
0
100
AcDbLine
10
55.5875
20
10
30
0
11
73
21
10
31
0
39
0
210
0
220
0
230
1
0
LINE
5
D3
100
AcDbEntity
8
1
62
256
6
ByLayer
370
18
48
1
60
1
100
AcDbLine
10
71
20
-10
30
0
11
70.539216
21
-6.500002
31
0
39
0
210
0
220
0
230
1
0
LINE
5
D4
100
AcDbEntity
8
1
62
256
6
ByLayer
370
18
48
1
60
1
100
AcDbLine
10
70.539216
20
-6.500002
30
0
11
71.460784
21
-6.499998
31
0
39
0
210
0
220
0
230
1
0
LINE
5
D5
100
AcDbEntity
8
1
62
256
6
ByLayer
370
18
48
1
60
1
100
AcDbLine
10
71.460784
20
-6.499998
30
0
11
71
21
-10
31
0
39
0
210
0
220
0
230
1
0
LINE
5
D6
100
AcDbEntity
8
1
62
256
6
ByLayer
370
18
48
1
60
1
100
AcDbLine
10
71
20
10
30
0
11
71.460784
21
6.500002
31
0
39
0
210
0
220
0
230
1
0
LINE
5
D7
100
AcDbEntity
8
1
62
256
6
ByLayer
370
18
48
1
60
1
100
AcDbLine
10
71.460784
20
6.500002
30
0
11
70.539216
21
6.499998
31
0
39
0
210
0
220
0
230
1
0
LINE
5
D8
100
AcDbEntity
8
1
62
256
6
ByLayer
370
18
48
1
60
1
100
AcDbLine
10
70.539216
20
6.499998
30
0
11
71
21
10
31
0
39
0
210
0
220
0
230
1
0
LINE
5
171
100
AcDbEntity
8
1
62
256
6
ByLayer
370
18
48
1
60
1
100
AcDbLine
10
-78.25
20
-10
30
0
11
-78.710784
21
-6.500002
31
0
39
0
210
0
220
0
230
1
0
LINE
5
172
100
AcDbEntity
8
1
62
256
6
ByLayer
370
18
48
1
60
1
100
AcDbLine
10
-78.710784
20
-6.500002
30
0
11
-77.789216
21
-6.499998
31
0
39
0
210
0
220
0
230
1
0
LINE
5
173
100
AcDbEntity
8
1
62
256
6
ByLayer
370
18
48
1
60
1
100
AcDbLine
10
-77.789216
20
-6.499998
30
0
11
-78.25
21
-10
31
0
39
0
210
0
220
0
230
1
0
LINE
5
175
100
AcDbEntity
8
1
62
256
6
ByLayer
370
18
48
1
60
1
100
AcDbLine
10
-78.25
20
10
30
0
11
-77.789216
21
6.500002
31
0
39
0
210
0
220
0
230
1
0
LINE
5
176
100
AcDbEntity
8
1
62
256
6
ByLayer
370
18
48
1
60
1
100
AcDbLine
10
-77.789216
20
6.500002
30
0
11
-78.710784
21
6.499998
31
0
39
0
210
0
220
0
230
1
0
LINE
5
177
100
AcDbEntity
8
1
62
256
6
ByLayer
370
18
48
1
60
1
100
AcDbLine
10
-78.710784
20
6.499998
30
0
11
-78.25
21
10
31
0
39
0
210
0
220
0
230
1
0
LINE
5
17B
100
AcDbEntity
8
1
62
256
6
ByLayer
370
18
48
1
60
1
100
AcDbLine
10
7.75
20
-9.5
30
0
11
7.289216
21
-6.000002
31
0
39
0
210
0
220
0
230
1
0
LINE
5
17C
100
AcDbEntity
8
1
62
256
6
ByLayer
370
18
48
1
60
1
100
AcDbLine
10
7.289216
20
-6.000002
30
0
11
8.210784
21
-5.999998
31
0
39
0
210
0
220
0
230
1
0
LINE
5
17D
100
AcDbEntity
8
1
62
256
6
ByLayer
370
18
48
1
60
1
100
AcDbLine
10
8.210784
20
-5.999998
30
0
11
7.75
21
-9.5
31
0
39
0
210
0
220
0
230
1
0
LINE
5
17F
100
AcDbEntity
8
1
62
256
6
ByLayer
370
18
48
1
60
1
100
AcDbLine
10
7.75
20
9.5
30
0
11
8.210784
21
6.000002
31
0
39
0
210
0
220
0
230
1
0
LINE
5
180
100
AcDbEntity
8
1
62
256
6
ByLayer
370
18
48
1
60
1
100
AcDbLine
10
8.210784
20
6.000002
30
0
11
7.289216
21
5.999998
31
0
39
0
210
0
220
0
230
1
0
LINE
5
181
100
AcDbEntity
8
1
62
256
6
ByLayer
370
18
48
1
60
1
100
AcDbLine
10
7.289216
20
5.999998
30
0
11
7.75
21
9.5
31
0
39
0
210
0
220
0
230
1
0
LINE
5
185
100
AcDbEntity
8
1
62
256
6
ByLayer
370
18
48
1
60
1
100
AcDbLine
10
71
20
-10
30
0
11
70.539216
21
-6.500002
31
0
39
0
210
0
220
0
230
1
0
LINE
5
186
100
AcDbEntity
8
1
62
256
6
ByLayer
370
18
48
1
60
1
100
AcDbLine
10
70.539216
20
-6.500002
30
0
11
71.460784
21
-6.499998
31
0
39
0
210
0
220
0
230
1
0
LINE
5
187
100
AcDbEntity
8
1
62
256
6
ByLayer
370
18
48
1
60
1
100
AcDbLine
10
71.460784
20
-6.499998
30
0
11
71
21
-10
31
0
39
0
210
0
220
0
230
1
0
LINE
5
189
100
AcDbEntity
8
1
62
256
6
ByLayer
370
18
48
1
60
1
100
AcDbLine
10
71
20
10
30
0
11
71.460784
21
6.500002
31
0
39
0
210
0
220
0
230
1
0
LINE
5
18A
100
AcDbEntity
8
1
62
256
6
ByLayer
370
18
48
1
60
1
100
AcDbLine
10
71.460784
20
6.500002
30
0
11
70.539216
21
6.499998
31
0
39
0
210
0
220
0
230
1
0
LINE
5
18B
100
AcDbEntity
8
1
62
256
6
ByLayer
370
18
48
1
60
1
100
AcDbLine
10
70.539216
20
6.499998
30
0
11
71
21
10
31
0
39
0
210
0
220
0
230
1
0
MTEXT
5
16D
100
AcDbEntity
8
SK2
62
256
6
ByLayer
370
18
48
1
60
0
100
AcDbMText
10
-79.814634
20
-4.530622
30
0
210
0
220
0
230
1
1
%%c
40
3.5
41
0
44
1.084337
50
90
71
7
72
5
7
iso_b_vert
0
MTEXT
5
170
100
AcDbEntity
8
SK2
62
256
6
ByLayer
370
18
48
1
60
0
100
AcDbMText
10
-79.814634
20
2.442034
30
0
210
0
220
0
230
1
1
\W0.6740;20
40
3.5
41
0
44
1.084337
50
90
71
7
72
5
7
iso_b_vert
0
MTEXT
5
179
100
AcDbEntity
8
SK2
62
256
6
ByLayer
370
18
48
1
60
0
100
AcDbMText
10
6.185366
20
-4.093189
30
0
210
0
220
0
230
1
1
%%c
40
3.5
41
0
44
1.084337
50
90
71
7
72
5
7
iso_b_vert
0
MTEXT
5
17A
100
AcDbEntity
8
SK2
62
256
6
ByLayer
370
18
48
1
60
0
100
AcDbMText
10
6.185366
20
2.879467
30
0
210
0
220
0
230
1
1
\W0.5469;19
40
3.5
41
0
44
1.084337
50
90
71
7
72
5
7
iso_b_vert
0
MTEXT
5
183
100
AcDbEntity
8
2
62
256
6
ByLayer
370
18
48
1
60
0
100
AcDbMText
10
69.435366
20
-4.530622
30
0
210
0
220
0
230
1
1
%%c
40
3.5
41
0
44
1.084337
50
90
71
7
72
5
7
iso_b_vert
0
MTEXT
5
184
100
AcDbEntity
8
2
62
256
6
ByLayer
370
18
48
1
60
0
100
AcDbMText
10
69.435366
20
2.442034
30
0
210
0
220
0
230
1
1
\W0.6740;20
40
3.5
41
0
44
1.084337
50
90
71
7
72
5
7
iso_b_vert
0
MTEXT
5
18D
100
AcDbEntity
8
SK6
62
256
6
ByLayer
370
18
48
1
60
0
100
AcDbMText
10
-22.978921
20
-62.976721
30
0
210
0
220
0
230
1
1
\W0.7123;2P440-2000-SD       1725
40
3
41
0
44
1.084337
50
0
71
7
72
5
7
iso_b_vert
0
HATCH
5
174
100
AcDbEntity
8
SK2
62
256
6
ByLayer
370
13
48
1
60
0
100
AcDbHatch
10
0
20
0
30
0
210
0
220
0
230
1
2
ANSI31
70
0
71
0
91
1
92
5
93
3
72
1
10
-78.25
20
-9.9999999999998
11
-78.7107837415527
21
-6.50000169255298
72
1
10
-78.7107837415527
20
-6.50000169255298
11
-77.7892162584472
21
-6.49999830744662
72
1
10
-77.7892162584472
20
-6.49999830744662
11
-78.25
21
-9.9999999999998
97
0
75
0
76
1
52
0
41
0.0062
77
0
78
1
53
45
43
0
44
0
45
-0.0139193969876572
46
0.0139193969876572
79
0
47
0
98
1
10
0
20
0
0
HATCH
5
178
100
AcDbEntity
8
SK2
62
256
6
ByLayer
370
13
48
1
60
0
100
AcDbHatch
10
0
20
0
30
0
210
0
220
0
230
1
2
ANSI31
70
0
71
0
91
1
92
5
93
3
72
1
10
-78.25
20
10.0000000000002
11
-77.7892162584472
21
6.50000169255338
72
1
10
-77.7892162584472
20
6.50000169255338
11
-78.7107837415527
21
6.49999830744702
72
1
10
-78.7107837415527
20
6.49999830744702
11
-78.25
21
10.0000000000002
97
0
75
0
76
1
52
0
41
0.0062
77
0
78
1
53
45
43
0
44
0
45
-0.0139193969876572
46
0.0139193969876572
79
0
47
0
98
1
10
0
20
0
0
HATCH
5
17E
100
AcDbEntity
8
SK2
62
256
6
ByLayer
370
13
48
1
60
0
100
AcDbHatch
10
0
20
0
30
0
210
0
220
0
230
1
2
ANSI31
70
0
71
0
91
1
92
5
93
3
72
1
10
7.75000000000003
20
-9.50000000000006
11
7.28921625844725
21
-6.00000169255324
72
1
10
7.28921625844725
20
-6.00000169255324
11
8.2107837415528
21
-5.99999830744687
72
1
10
8.2107837415528
20
-5.99999830744687
11
7.75000000000003
21
-9.50000000000006
97
0
75
0
76
1
52
0
41
0.0062
77
0
78
1
53
45
43
0
44
0
45
-0.0139193969876572
46
0.0139193969876572
79
0
47
0
98
1
10
0
20
0
0
HATCH
5
182
100
AcDbEntity
8
SK2
62
256
6
ByLayer
370
13
48
1
60
0
100
AcDbHatch
10
0
20
0
30
0
210
0
220
0
230
1
2
ANSI31
70
0
71
0
91
1
92
5
93
3
72
1
10
7.75000000000003
20
9.49999999999994
11
8.2107837415528
21
6.00000169255313
72
1
10
8.2107837415528
20
6.00000169255313
11
7.28921625844725
21
5.99999830744676
72
1
10
7.28921625844725
20
5.99999830744676
11
7.75000000000003
21
9.49999999999994
97
0
75
0
76
1
52
0
41
0.0062
77
0
78
1
53
45
43
0
44
0
45
-0.0139193969876572
46
0.0139193969876572
79
0
47
0
98
1
10
0
20
0
0
HATCH
5
188
100
AcDbEntity
8
2
62
256
6
ByLayer
370
13
48
1
60
0
100
AcDbHatch
10
0
20
0
30
0
210
0
220
0
230
1
2
ANSI31
70
0
71
0
91
1
92
5
93
3
72
1
10
71.0000000000001
20
-10.0000000000002
11
70.5392162584473
21
-6.50000169255338
72
1
10
70.5392162584473
20
-6.50000169255338
11
71.4607837415529
21
-6.49999830744702
72
1
10
71.4607837415529
20
-6.49999830744702
11
71.0000000000001
21
-10.0000000000002
97
0
75
0
76
1
52
0
41
0.0062
77
0
78
1
53
45
43
0
44
0
45
-0.0139193969876572
46
0.0139193969876572
79
0
47
0
98
1
10
0
20
0
0
HATCH
5
18C
100
AcDbEntity
8
2
62
256
6
ByLayer
370
13
48
1
60
0
100
AcDbHatch
10
0
20
0
30
0
210
0
220
0
230
1
2
ANSI31
70
0
71
0
91
1
92
5
93
3
72
1
10
71.0000000000001
20
9.9999999999998
11
71.4607837415529
21
6.50000169255298
72
1
10
71.4607837415529
20
6.50000169255298
11
70.5392162584473
21
6.49999830744662
72
1
10
70.5392162584473
20
6.49999830744662
11
71.0000000000001
21
9.9999999999998
97
0
75
0
76
1
52
0
41
0.0062
77
0
78
1
53
45
43
0
44
0
45
-0.0139193969876572
46
0.0139193969876572
79
0
47
0
98
1
10
0
20
0
0
DIMENSION
5
190
100
AcDbEntity
8
SK2
62
256
6
ByLayer
370
18
48
1
60
0
100
AcDbDimension
2
_U0
10
16
20
-20.245967
30
0
11
35
21
-20.245967
31
0
70
32
71
1
72
1
41
1
210
0
220
0
230
1
3
Standard
100
AcDbAlignedDimension
13
54
23
-10
33
0
14
16
24
-10
34
0
50
0
100
AcDbRotatedDimension
1001
ACAD
1000
DSTYLE
1002
{
1070
   371
1070
    13
1070
   372
1070
    13
1070
   170
1070
     0
1070
   144
1040
1.0
1070
   277
1070
     2
1070
   284
1070
     8
1070
   278
1070
    46
1070
   146
1040
1.0
1070
   345
1005
16
1070
   347
1005
16
1070
   346
1005
16
1070
   344
1005
0
1070
   343
1005
0
1070
   172
1070
     1
1070
    76
1070
     0
1070
    75
1070
     0
1070
   282
1070
     0
1070
   281
1070
     0
1070
    71
1070
     0
1070
    74
1070
     0
1070
   279
1070
     0
1070
   173
1070
     1
1070
   340
1005
16E
1070
   271
1070
     2
1070
   272
1070
     2
1070
    77
1070
     1
1070
    73
1070
     1
1070
   171
1070
     3
1070
   274
1070
     4
1070
   177
1070
     2
1070
   176
1070
     2
1070
   178
1070
     2
1070
    78
1070
     8
1070
    48
1040
-0.1
1070
    41
1040
3.5
1070
   147
1040
1.75
1070
    42
1040
1.5875
1070
    44
1040
2.0
1070
   140
1040
3.5
1002
}
1001
ACAD_DSTYLE_DIM_LINETYPE
1070
   380
1005
16
1001
ACAD_DSTYLE_DIM_EXT1_LINETYPE
1070
   381
1005
16
1001
ACAD_DSTYLE_DIM_EXT2_LINETYPE
1070
   382
1005
16
0
DIMENSION
5
1A9
100
AcDbEntity
8
SK2
62
256
6
ByLayer
370
18
48
1
60
0
100
AcDbDimension
2
_U1
10
2
20
-33.245967
30
0
11
28
21
-33.245967
31
0
70
32
71
1
72
1
41
1
210
0
220
0
230
1
3
Standard
100
AcDbAlignedDimension
13
54
23
-10
33
0
14
2
24
-10
34
0
50
0
100
AcDbRotatedDimension
1001
ACAD
1000
DSTYLE
1002
{
1070
   371
1070
    13
1070
   372
1070
    13
1070
   170
1070
     0
1070
   144
1040
1.0
1070
   277
1070
     2
1070
   284
1070
     8
1070
   278
1070
    46
1070
   146
1040
1.0
1070
   345
1005
16
1070
   347
1005
16
1070
   346
1005
16
1070
   344
1005
0
1070
   343
1005
0
1070
   172
1070
     1
1070
    76
1070
     0
1070
    75
1070
     0
1070
   282
1070
     0
1070
   281
1070
     0
1070
    71
1070
     0
1070
    74
1070
     0
1070
   279
1070
     0
1070
   173
1070
     1
1070
   340
1005
16E
1070
   271
1070
     2
1070
   272
1070
     2
1070
    77
1070
     1
1070
    73
1070
     1
1070
   171
1070
     3
1070
   274
1070
     4
1070
   177
1070
     2
1070
   176
1070
     2
1070
   178
1070
     2
1070
    78
1070
     8
1070
    48
1040
-0.1
1070
    41
1040
3.5
1070
   147
1040
1.75
1070
    42
1040
1.5875
1070
    44
1040
2.0
1070
   140
1040
3.5
1002
}
1001
ACAD_DSTYLE_DIM_LINETYPE
1070
   380
1005
16
1001
ACAD_DSTYLE_DIM_EXT1_LINETYPE
1070
   381
1005
16
1001
ACAD_DSTYLE_DIM_EXT2_LINETYPE
1070
   382
1005
16
0
DIMENSION
5
1C1
100
AcDbEntity
8
SK2
62
256
6
ByLayer
370
18
48
1
60
0
100
AcDbDimension
2
_U2
10
34
20
20.022297
30
0
11
44
21
20.022297
31
0
70
32
71
1
72
1
41
1
210
0
220
0
230
1
3
Standard
100
AcDbAlignedDimension
13
54
23
10
33
0
14
34
24
10
34
0
50
0
100
AcDbRotatedDimension
1001
ACAD
1000
DSTYLE
1002
{
1070
   371
1070
    13
1070
   372
1070
    13
1070
   170
1070
     0
1070
   144
1040
1.0
1070
   277
1070
     2
1070
   284
1070
     8
1070
   278
1070
    46
1070
   146
1040
1.0
1070
   345
1005
16
1070
   347
1005
16
1070
   346
1005
16
1070
   344
1005
0
1070
   343
1005
0
1070
   172
1070
     1
1070
    76
1070
     0
1070
    75
1070
     0
1070
   282
1070
     0
1070
   281
1070
     0
1070
    47
1040
2.0
1070
    72
1070
     0
1070
    71
1070
     1
1070
    74
1070
     0
1070
   279
1070
     0
1070
   173
1070
     1
1070
   340
1005
16E
1070
   271
1070
     2
1070
   272
1070
     2
1070
    77
1070
     1
1070
    73
1070
     1
1070
   171
1070
     3
1070
   274
1070
     4
1070
   177
1070
     2
1070
   176
1070
     2
1070
   178
1070
     2
1070
    78
1070
     8
1070
    48
1040
2.0
1070
    41
1040
3.5
1070
   147
1040
1.75
1070
    42
1040
1.5875
1070
    44
1040
2.0
1070
   140
1040
3.5
1002
}
1001
ACAD_DSTYLE_DIM_LINETYPE
1070
   380
1005
16
1001
ACAD_DSTYLE_DIM_EXT1_LINETYPE
1070
   381
1005
16
1001
ACAD_DSTYLE_DIM_EXT2_LINETYPE
1070
   382
1005
16
0
DIMENSION
5
1DA
100
AcDbEntity
8
2
62
256
6
ByLayer
370
18
48
1
60
0
100
AcDbDimension
2
_U3
10
54
20
-45.245967
30
0
11
2
21
-45.245967
31
0
70
32
71
1
72
1
41
1
210
0
220
0
230
1
3
Standard
100
AcDbAlignedDimension
13
-50
23
-10
33
0
14
54
24
-10
34
0
50
0
100
AcDbRotatedDimension
1001
ACAD
1000
DSTYLE
1002
{
1070
   371
1070
    13
1070
   372
1070
    13
1070
   170
1070
     0
1070
   144
1040
1.0
1070
   277
1070
     2
1070
   284
1070
     8
1070
   278
1070
    46
1070
   146
1040
1.0
1070
   345
1005
16
1070
   347
1005
16
1070
   346
1005
16
1070
   344
1005
0
1070
   343
1005
0
1070
   172
1070
     1
1070
    76
1070
     0
1070
    75
1070
     0
1070
   282
1070
     0
1070
   281
1070
     0
1070
    71
1070
     0
1070
    74
1070
     0
1070
   279
1070
     0
1070
   173
1070
     1
1070
   340
1005
16E
1070
   271
1070
     2
1070
   272
1070
     2
1070
    77
1070
     1
1070
    73
1070
     1
1070
   171
1070
     3
1070
   274
1070
     4
1070
   177
1070
     2
1070
   176
1070
     2
1070
   178
1070
     2
1070
    78
1070
     8
1070
    48
1040
-0.1
1070
    41
1040
3.5
1070
   147
1040
1.75
1070
    42
1040
1.5875
1070
    44
1040
2.0
1070
   140
1040
3.5
1002
}
1001
ACAD_DSTYLE_DIM_LINETYPE
1070
   380
1005
16
1001
ACAD_DSTYLE_DIM_EXT1_LINETYPE
1070
   381
1005
16
1001
ACAD_DSTYLE_DIM_EXT2_LINETYPE
1070
   382
1005
16
0
ENDSEC
0
SECTION
2
OBJECTS
0
DICTIONARY
5
262
330
0
100
AcDbDictionary
280
0
281
1
3
ACAD_GROUP
350
263
3
ACAD_MLINESTYLE
350
264
0
DICTIONARY
5
263
330
0
100
AcDbDictionary
280
0
281
1
0
DICTIONARY
5
264
330
0
100
AcDbDictionary
280
0
281
1
3
Standard
350
18
0
MLINESTYLE
5
18
330
264
100
AcDbMlineStyle
2
Standard
70
0
3

62
256
51
90
52
90
71
2
49
-0.5
62
256
6
ByLayer
49
0.5
62
256
6
ByLayer
0
RASTERVARIABLES
5
250
330

100
AcDbRasterVariables
90
0
70
1
71
1
72
1
0
ENDSEC
0
EOF
