0
SECTION
2
HEADER
9
$ACADVER
1
AC1015
9
$DWGCODEPAGE
3
ANSI_1252
9
$HANDSEED
5
273
9
$ANGBASE
50
0
9
$ANGDIR
70
0
9
$ATTMODE
70
1
9
$AUNITS
70
0
9
$AUPREC
70
0
9
$CECOLOR
62
256
9
$CELTSCALE
40
1
9
$CELTYPE
6
ByLayer
9
$CELWEIGHT
370
18
9
$CLAYER
8
0
9
$CMLJUST
70
0
9
$CMLSCALE
40
1
9
$CMLSTYLE
2
Standard
9
$DIMSTYLE
2
Standard
9
$TEXTSIZE
40
0.2
9
$TEXTSTYLE
7
Standard
9
$LUNITS
70
2
9
$LUPREC
70
4
9
$EXTNAMES
290
1
9
$INSUNITS
70
4
9
$LTSCALE
40
1
9
$LWDISPLAY
290
1
9
$PDMODE
70
0
9
$PDSIZE
40
0
9
$PLINEGEN
70
0
0
ENDSEC
0
SECTION
2
CLASSES
0
CLASS
1
RASTERVARIABLES
2
AcDbRasterVariables
3
ISM
90
0
280
0
281
0
0
ENDSEC
0
SECTION
2
TABLES
0
TABLE
2
VPORT
5
269
100
AcDbSymbolTable
0
VPORT
5
1
100
AcDbSymbolTableRecord
100
AcDbViewportTableRecord
2
*Active
70
0
10
0
20
0
11
1
21
1
12
-1
22
1
13
0
23
0
14
0.5
24
0.5
15
10
25
10
16
0
26
0
36
1
17
0
27
0
37
0
0
ENDTAB
0
TABLE
2
LTYPE
5
26a
100
AcDbSymbolTable
0
LTYPE
5
14
100
AcDbSymbolTableRecord
100
AcDbLinetypeTableRecord
70
0
2
ByBlock
3

72
65
73
0
40
0
0
LTYPE
5
15
100
AcDbSymbolTableRecord
100
AcDbLinetypeTableRecord
70
0
2
ByLayer
3

72
65
73
0
40
0
0
LTYPE
5
16
100
AcDbSymbolTableRecord
100
AcDbLinetypeTableRecord
70
0
2
Continuous
3
Solid line
72
65
73
0
40
0
0
LTYPE
5
6E
100
AcDbSymbolTableRecord
100
AcDbLinetypeTableRecord
70
0
2
CENTER
3
____ _ ____ _ ____ _ ____
72
65
73
4
40
47.5
49
22
74
0
49
-8.5
74
0
49
8.5
74
0
49
-8.5
74
0
0
LTYPE
5
6F
100
AcDbSymbolTableRecord
100
AcDbLinetypeTableRecord
70
0
2
DASHED
3
__ __ __ __ __ __ __ __ __
72
65
73
2
40
25.72
49
12.86
74
0
49
-12.86
74
0
0
ENDTAB
0
TABLE
2
LAYER
5
26b
100
AcDbSymbolTable
0
LAYER
5
10
100
AcDbSymbolTableRecord
100
AcDbLayerTableRecord
2
0
70
0
62
7
6
Continuous
290
1
370
-3
390
0
0
LAYER
5
71
100
AcDbSymbolTableRecord
100
AcDbLayerTableRecord
2
81
70
0
62
-3
6
Continuous
290
1
370
-3
390
0
0
LAYER
5
73
100
AcDbSymbolTableRecord
100
AcDbLayerTableRecord
2
80
70
0
62
-6
6
Continuous
290
1
370
-3
390
0
0
LAYER
5
77
100
AcDbSymbolTableRecord
100
AcDbLayerTableRecord
2
1
70
0
62
4
6
Continuous
290
1
370
-3
390
0
0
LAYER
5
81
100
AcDbSymbolTableRecord
100
AcDbLayerTableRecord
2
4
70
0
62
-2
6
CENTER
290
1
370
-3
390
0
0
LAYER
5
CB
100
AcDbSymbolTableRecord
100
AcDbLayerTableRecord
2
2
70
0
62
7
6
Continuous
290
1
370
-3
390
0
0
LAYER
5
193
100
AcDbSymbolTableRecord
100
AcDbLayerTableRecord
2
Defpoints
70
0
62
7
6
Continuous
290
0
370
-3
390
0
0
LAYER
5
255
100
AcDbSymbolTableRecord
100
AcDbLayerTableRecord
2
SK4
70
0
62
2
6
CENTER
290
1
370
-3
390
0
0
LAYER
5
256
100
AcDbSymbolTableRecord
100
AcDbLayerTableRecord
2
SK1
70
0
62
4
6
Continuous
290
1
370
-3
390
0
0
LAYER
5
257
100
AcDbSymbolTableRecord
100
AcDbLayerTableRecord
2
SK2
70
0
62
7
6
Continuous
290
1
370
-3
390
0
0
LAYER
5
258
100
AcDbSymbolTableRecord
100
AcDbLayerTableRecord
2
SK6
70
0
62
5
6
Continuous
290
1
370
-3
390
0
0
ENDTAB
0
TABLE
2
STYLE
5
26c
100
AcDbSymbolTable
0
STYLE
5
11
100
AcDbSymbolTableRecord
100
AcDbTextStyleTableRecord
2
Standard
3
txt
70
0
71
0
40
0
41
1
42
0
50
0
0
STYLE
5
16E
100
AcDbSymbolTableRecord
100
AcDbTextStyleTableRecord
2
iso_b_vert
3
simplex.shx
70
0
71
0
40
0
41
1
42
0
50
0
0
STYLE
5
16F
100
AcDbSymbolTableRecord
100
AcDbTextStyleTableRecord
2
DWGDirectTextStyle
3
simplex
70
0
71
0
40
0
41
1
42
0
50
0
0
ENDTAB
0
TABLE
2
DIMSTYLE
5
26d
100
AcDbSymbolTable
100
AcDbDimStyleTable
0
DIMSTYLE
105
27
100
AcDbSymbolTableRecord
100
AcDbDimStyleTableRecord
2
Standard
70
0
3
<>
41
0.18
42
0.0625
44
0.18
140
0.18
147
0.09
73
0
74
0
77
1
271
2
275
0
278
52
280
0
340
11
0
ENDTAB
0
TABLE
2
VIEW
5
26e
100
AcDbSymbolTable
0
ENDTAB
0
TABLE
2
UCS
5
26f
100
AcDbSymbolTable
0
ENDTAB
0
TABLE
2
APPID
5
270
100
AcDbSymbolTable
0
APPID
5
12
100
AcDbSymbolTableRecord
100
AcDbRegAppTableRecord
2
ACAD
70
0
0
APPID
5
18F
100
AcDbSymbolTableRecord
100
AcDbRegAppTableRecord
2
ACAD_DSTYLE_DIMBREAK
70
0
0
APPID
5
214
100
AcDbSymbolTableRecord
100
AcDbRegAppTableRecord
2
ACAD_DSTYLE_DIM_LINETYPE
70
0
0
APPID
5
215
100
AcDbSymbolTableRecord
100
AcDbRegAppTableRecord
2
ACAD_DSTYLE_DIM_EXT1_LINETYPE
70
0
0
APPID
5
216
100
AcDbSymbolTableRecord
100
AcDbRegAppTableRecord
2
ACAD_DSTYLE_DIM_EXT2_LINETYPE
70
0
0
APPID
5
251
100
AcDbSymbolTableRecord
100
AcDbRegAppTableRecord
2
ACAD_MLEADERVER
70
0
0
ENDTAB
0
TABLE
2
BLOCK_RECORD
5
271
100
AcDbSymbolTable
0
BLOCK_RECORD
5
1F
100
AcDbSymbolTableRecord
100
AcDbBlockTableRecord
2
*Model_Space
340
0
70
0
0
BLOCK_RECORD
5
1B
100
AcDbSymbolTableRecord
100
AcDbBlockTableRecord
2
*Paper_Space
340
0
70
0
0
BLOCK_RECORD
5
23
100
AcDbSymbolTableRecord
100
AcDbBlockTableRecord
2
*Paper_Space0
340
0
70
0
0
BLOCK_RECORD
5
194
100
AcDbSymbolTableRecord
100
AcDbBlockTableRecord
2
*D1
340
0
70
0
0
BLOCK_RECORD
5
1A1
100
AcDbSymbolTableRecord
100
AcDbBlockTableRecord
2
_U0
340
0
70
0
0
BLOCK_RECORD
5
1AD
100
AcDbSymbolTableRecord
100
AcDbBlockTableRecord
2
*D3
340
0
70
0
0
BLOCK_RECORD
5
1BA
100
AcDbSymbolTableRecord
100
AcDbBlockTableRecord
2
_U1
340
0
70
0
0
BLOCK_RECORD
5
1C6
100
AcDbSymbolTableRecord
100
AcDbBlockTableRecord
2
*D5
340
0
70
0
0
BLOCK_RECORD
5
1D3
100
AcDbSymbolTableRecord
100
AcDbBlockTableRecord
2
_U2
340
0
70
0
0
BLOCK_RECORD
5
1E1
100
AcDbSymbolTableRecord
100
AcDbBlockTableRecord
2
*D7
340
0
70
0
0
BLOCK_RECORD
5
1ED
100
AcDbSymbolTableRecord
100
AcDbBlockTableRecord
2
_U3
340
0
70
0
0
ENDTAB
0
ENDSEC
0
SECTION
2
BLOCKS
0
BLOCK
5
20
100
AcDbEntity
8
0
100
AcDbBlockBegin
2
*Model_Space
70
0
10
0
20
0
30
0
3
*Model_Space
0
ENDBLK
5
21
100
AcDbEntity
8
0
100
AcDbBlockEnd
0
BLOCK
5
1C
100
AcDbEntity
8
0
100
AcDbBlockBegin
2
*Paper_Space
70
0
10
0
20
0
30
0
3
*Paper_Space
0
ENDBLK
5
1D
100
AcDbEntity
8
0
100
AcDbBlockEnd
0
BLOCK
5
24
100
AcDbEntity
8
0
100
AcDbBlockBegin
2
*Paper_Space0
70
0
10
0
20
0
30
0
3
*Paper_Space0
0
ENDBLK
5
25
100
AcDbEntity
8
0
100
AcDbBlockEnd
0
BLOCK
5
195
100
AcDbEntity
8
0
100
AcDbBlockBegin
2
*D1
70
1
10
0
20
0
30
0
3
*D1
0
LINE
5
197
100
AcDbEntity
8
0
62
256
6
ByLayer
370
-2
48
1
60
0
100
AcDbLine
10
21
20
-4.0875
30
0
11
21
21
-13.212392
31
0
39
0
210
0
220
0
230
1
0
LINE
5
198
100
AcDbEntity
8
0
62
256
6
ByLayer
370
-2
48
1
60
0
100
AcDbLine
10
8
20
-4.0875
30
0
11
8
21
-13.212392
31
0
39
0
210
0
220
0
230
1
0
LINE
5
199
100
AcDbEntity
8
0
62
256
6
ByLayer
370
-2
48
1
60
0
100
AcDbLine
10
24.5
20
-11.212392
30
0
11
28
21
-11.212392
31
0
39
0
210
0
220
0
230
1
0
LINE
5
19A
100
AcDbEntity
8
0
62
256
6
ByLayer
370
-2
48
1
60
0
100
AcDbLine
10
4.5
20
-11.212392
30
0
11
1
21
-11.212392
31
0
39
0
210
0
220
0
230
1
0
SOLID
5
19B
100
AcDbEntity
8
0
62
256
6
ByLayer
370
-1
48
1
60
0
100
AcDbTrace
10
24.5
20
-10.629059
30
0
11
24.5
21
-11.795726
31
0
12
21
22
-11.212392
32
0
13
21
23
-11.212392
33
0
39
0
210
0
220
0
230
1
0
SOLID
5
19C
100
AcDbEntity
8
0
62
256
6
ByLayer
370
-1
48
1
60
0
100
AcDbTrace
10
4.5
20
-11.795726
30
0
11
4.5
21
-10.629059
31
0
12
8
22
-11.212392
32
0
13
8
23
-11.212392
33
0
39
0
210
0
220
0
230
1
0
MTEXT
5
19D
100
AcDbEntity
8
0
62
256
6
ByLayer
370
18
48
1
60
0
100
AcDbMText
10
14.5
20
-4.212392
30
0
210
0
220
0
230
1
1
\A1;13
40
3.5
41
0
44
1
50
0
71
5
72
5
7
iso_b_vert
0
POINT
5
19E
100
AcDbEntity
8
Defpoints
62
0
6
ByLayer
370
-1
48
1
60
0
100
AcDbPoint
10
21
20
-2.5
30
0
39
0
210
0
220
0
230
1
50
360
0
POINT
5
19F
100
AcDbEntity
8
Defpoints
62
0
6
ByLayer
370
-1
48
1
60
0
100
AcDbPoint
10
8
20
-2.5
30
0
39
0
210
0
220
0
230
1
50
360
0
POINT
5
1A0
100
AcDbEntity
8
Defpoints
62
0
6
ByLayer
370
-1
48
1
60
0
100
AcDbPoint
10
8
20
-11.212392
30
0
39
0
210
0
220
0
230
1
50
360
0
ENDBLK
5
196
100
AcDbEntity
8
0
100
AcDbBlockEnd
0
BLOCK
5
1A8
100
AcDbEntity
8
0
100
AcDbBlockBegin
2
_U0
70
0
10
0
20
0
30
0
3
_U0
0
MTEXT
5
1A2
100
AcDbEntity
8
SK2
62
256
6
ByLayer
370
18
48
1
60
0
100
AcDbMText
10
13.032467
20
-10.179759
30
0
210
0
220
0
230
1
1
\W0.5321;13
40
3.5
41
0
44
1.084337
50
0
71
7
72
5
7
iso_b_vert
0
LINE
5
1A3
100
AcDbEntity
8
SK2
62
256
6
ByLayer
370
13
48
1
60
0
100
AcDbLine
10
21
20
-4.0875
30
0
11
21
21
-13.212392
31
0
39
0
210
0
220
0
230
1
0
LINE
5
1A4
100
AcDbEntity
8
SK2
62
256
6
ByLayer
370
13
48
1
60
0
100
AcDbLine
10
8
20
-4.0875
30
0
11
8
21
-13.212392
31
0
39
0
210
0
220
0
230
1
0
LINE
5
1A5
100
AcDbEntity
8
SK2
62
256
6
ByLayer
370
13
48
1
60
0
100
AcDbLine
10
21
20
-11.212392
30
0
11
8
21
-11.212392
31
0
39
0
210
0
220
0
230
1
0
SOLID
5
1A6
100
AcDbEntity
8
SK2
62
256
6
ByLayer
370
18
48
1
60
0
100
AcDbTrace
10
21
20
-11.212392
30
0
11
17.500002
21
-11.673176
31
0
12
17.499998
22
-10.751609
32
0
13
17.499998
23
-10.751609
33
0
39
0
210
0
220
0
230
1
0
SOLID
5
1A7
100
AcDbEntity
8
SK2
62
256
6
ByLayer
370
18
48
1
60
0
100
AcDbTrace
10
8
20
-11.212392
30
0
11
11.499998
21
-10.751609
31
0
12
11.500002
22
-11.673176
32
0
13
11.500002
23
-11.673176
33
0
39
0
210
0
220
0
230
1
0
ENDBLK
5
1A9
100
AcDbEntity
8
0
100
AcDbBlockEnd
0
BLOCK
5
1AE
100
AcDbEntity
8
0
100
AcDbBlockBegin
2
*D3
70
1
10
0
20
0
30
0
3
*D3
0
LINE
5
1B0
100
AcDbEntity
8
0
62
256
6
ByLayer
370
-2
48
1
60
0
100
AcDbLine
10
21
20
-4.0875
30
0
11
21
21
-26.212392
31
0
39
0
210
0
220
0
230
1
0
LINE
5
1B1
100
AcDbEntity
8
0
62
256
6
ByLayer
370
-2
48
1
60
0
100
AcDbLine
10
5
20
-4.0875
30
0
11
5
21
-26.212392
31
0
39
0
210
0
220
0
230
1
0
LINE
5
1B2
100
AcDbEntity
8
0
62
256
6
ByLayer
370
-2
48
1
60
0
100
AcDbLine
10
24.5
20
-24.212392
30
0
11
28
21
-24.212392
31
0
39
0
210
0
220
0
230
1
0
LINE
5
1B3
100
AcDbEntity
8
0
62
256
6
ByLayer
370
-2
48
1
60
0
100
AcDbLine
10
1.5
20
-24.212392
30
0
11
-2
21
-24.212392
31
0
39
0
210
0
220
0
230
1
0
SOLID
5
1B4
100
AcDbEntity
8
0
62
256
6
ByLayer
370
-1
48
1
60
0
100
AcDbTrace
10
24.5
20
-23.629059
30
0
11
24.5
21
-24.795726
31
0
12
21
22
-24.212392
32
0
13
21
23
-24.212392
33
0
39
0
210
0
220
0
230
1
0
SOLID
5
1B5
100
AcDbEntity
8
0
62
256
6
ByLayer
370
-1
48
1
60
0
100
AcDbTrace
10
1.5
20
-24.795726
30
0
11
1.5
21
-23.629059
31
0
12
5
22
-24.212392
32
0
13
5
23
-24.212392
33
0
39
0
210
0
220
0
230
1
0
MTEXT
5
1B6
100
AcDbEntity
8
0
62
256
6
ByLayer
370
18
48
1
60
0
100
AcDbMText
10
13
20
-17.212392
30
0
210
0
220
0
230
1
1
\A1;16
40
3.5
41
0
44
1
50
0
71
5
72
5
7
iso_b_vert
0
POINT
5
1B7
100
AcDbEntity
8
Defpoints
62
0
6
ByLayer
370
-1
48
1
60
0
100
AcDbPoint
10
21
20
-2.5
30
0
39
0
210
0
220
0
230
1
50
360
0
POINT
5
1B8
100
AcDbEntity
8
Defpoints
62
0
6
ByLayer
370
-1
48
1
60
0
100
AcDbPoint
10
5
20
-2.5
30
0
39
0
210
0
220
0
230
1
50
360
0
POINT
5
1B9
100
AcDbEntity
8
Defpoints
62
0
6
ByLayer
370
-1
48
1
60
0
100
AcDbPoint
10
5
20
-24.212392
30
0
39
0
210
0
220
0
230
1
50
360
0
ENDBLK
5
1AF
100
AcDbEntity
8
0
100
AcDbBlockEnd
0
BLOCK
5
1C1
100
AcDbEntity
8
0
100
AcDbBlockBegin
2
_U1
70
0
10
0
20
0
30
0
3
_U1
0
MTEXT
5
1BB
100
AcDbEntity
8
SK2
62
256
6
ByLayer
370
18
48
1
60
0
100
AcDbMText
10
11.532467
20
-23.179759
30
0
210
0
220
0
230
1
1
\W0.5321;16
40
3.5
41
0
44
1.084337
50
0
71
7
72
5
7
iso_b_vert
0
LINE
5
1BC
100
AcDbEntity
8
SK2
62
256
6
ByLayer
370
13
48
1
60
0
100
AcDbLine
10
21
20
-4.0875
30
0
11
21
21
-26.212392
31
0
39
0
210
0
220
0
230
1
0
LINE
5
1BD
100
AcDbEntity
8
SK2
62
256
6
ByLayer
370
13
48
1
60
0
100
AcDbLine
10
5
20
-4.0875
30
0
11
5
21
-26.212392
31
0
39
0
210
0
220
0
230
1
0
LINE
5
1BE
100
AcDbEntity
8
SK2
62
256
6
ByLayer
370
13
48
1
60
0
100
AcDbLine
10
21
20
-24.212392
30
0
11
5
21
-24.212392
31
0
39
0
210
0
220
0
230
1
0
SOLID
5
1BF
100
AcDbEntity
8
SK2
62
256
6
ByLayer
370
18
48
1
60
0
100
AcDbTrace
10
21
20
-24.212392
30
0
11
17.500002
21
-24.673176
31
0
12
17.499998
22
-23.751609
32
0
13
17.499998
23
-23.751609
33
0
39
0
210
0
220
0
230
1
0
SOLID
5
1C0
100
AcDbEntity
8
SK2
62
256
6
ByLayer
370
18
48
1
60
0
100
AcDbTrace
10
5
20
-24.212392
30
0
11
8.499998
21
-23.751609
31
0
12
8.500002
22
-24.673176
32
0
13
8.500002
23
-24.673176
33
0
39
0
210
0
220
0
230
1
0
ENDBLK
5
1C2
100
AcDbEntity
8
0
100
AcDbBlockEnd
0
BLOCK
5
1C7
100
AcDbEntity
8
0
100
AcDbBlockBegin
2
*D5
70
1
10
0
20
0
30
0
3
*D5
0
LINE
5
1C9
100
AcDbEntity
8
0
62
256
6
ByLayer
370
-2
48
1
60
0
100
AcDbLine
10
21
20
4.0875
30
0
11
21
21
14.765853
31
0
39
0
210
0
220
0
230
1
0
LINE
5
1CA
100
AcDbEntity
8
0
62
256
6
ByLayer
370
-2
48
1
60
0
100
AcDbLine
10
16
20
4.0875
30
0
11
16
21
14.765853
31
0
39
0
210
0
220
0
230
1
0
LINE
5
1CB
100
AcDbEntity
8
0
62
256
6
ByLayer
370
-2
48
1
60
0
100
AcDbLine
10
24.5
20
12.765853
30
0
11
28
21
12.765853
31
0
39
0
210
0
220
0
230
1
0
LINE
5
1CC
100
AcDbEntity
8
0
62
256
6
ByLayer
370
-2
48
1
60
0
100
AcDbLine
10
12.5
20
12.765853
30
0
11
9
21
12.765853
31
0
39
0
210
0
220
0
230
1
0
SOLID
5
1CD
100
AcDbEntity
8
0
62
256
6
ByLayer
370
-1
48
1
60
0
100
AcDbTrace
10
24.5
20
13.349186
30
0
11
24.5
21
12.18252
31
0
12
21
22
12.765853
32
0
13
21
23
12.765853
33
0
39
0
210
0
220
0
230
1
0
SOLID
5
1CE
100
AcDbEntity
8
0
62
256
6
ByLayer
370
-1
48
1
60
0
100
AcDbTrace
10
12.5
20
12.18252
30
0
11
12.5
21
13.349186
31
0
12
16
22
12.765853
32
0
13
16
23
12.765853
33
0
39
0
210
0
220
0
230
1
0
MTEXT
5
1CF
100
AcDbEntity
8
0
62
256
6
ByLayer
370
18
48
1
60
0
100
AcDbMText
10
18.5
20
19.765853
30
0
210
0
220
0
230
1
1
\A1;5
40
3.5
41
0
44
1
50
0
71
5
72
5
7
iso_b_vert
0
POINT
5
1D0
100
AcDbEntity
8
Defpoints
62
0
6
ByLayer
370
-1
48
1
60
0
100
AcDbPoint
10
21
20
2.5
30
0
39
0
210
0
220
0
230
1
50
360
0
POINT
5
1D1
100
AcDbEntity
8
Defpoints
62
0
6
ByLayer
370
-1
48
1
60
0
100
AcDbPoint
10
16
20
2.5
30
0
39
0
210
0
220
0
230
1
50
360
0
POINT
5
1D2
100
AcDbEntity
8
Defpoints
62
0
6
ByLayer
370
-1
48
1
60
0
100
AcDbPoint
10
16
20
12.765853
30
0
39
0
210
0
220
0
230
1
50
360
0
ENDBLK
5
1C8
100
AcDbEntity
8
0
100
AcDbBlockEnd
0
BLOCK
5
1DC
100
AcDbEntity
8
0
100
AcDbBlockBegin
2
_U2
70
0
10
0
20
0
30
0
3
_U2
0
MTEXT
5
1D4
100
AcDbEntity
8
SK2
62
256
6
ByLayer
370
18
48
1
60
0
100
AcDbMText
10
11.078301
20
13.798487
30
0
210
0
220
0
230
1
1
\W0.5404;5
40
3.5
41
0
44
1.084337
50
0
71
7
72
5
7
iso_b_vert
0
MTEXT
5
1D5
100
AcDbEntity
8
SK2
62
256
6
ByLayer
370
18
48
1
60
0
100
AcDbMText
10
16.143767
20
13.798487
30
0
210
0
220
0
230
1
1
\W0.8315;\W0.4158;%%p\W0.8315;0.5
40
3.5
41
0
44
1.084337
50
0
71
7
72
5
7
iso_b_vert
0
LINE
5
1D6
100
AcDbEntity
8
SK2
62
256
6
ByLayer
370
13
48
1
60
0
100
AcDbLine
10
21
20
4.0875
30
0
11
21
21
14.765853
31
0
39
0
210
0
220
0
230
1
0
LINE
5
1D7
100
AcDbEntity
8
SK2
62
256
6
ByLayer
370
13
48
1
60
0
100
AcDbLine
10
16
20
4.0875
30
0
11
16
21
14.765853
31
0
39
0
210
0
220
0
230
1
0
LINE
5
1D8
100
AcDbEntity
8
SK2
62
256
6
ByLayer
370
13
48
1
60
0
100
AcDbLine
10
21
20
12.765853
30
0
11
26.107199
21
12.765853
31
0
39
0
210
0
220
0
230
1
0
LINE
5
1D9
100
AcDbEntity
8
SK2
62
256
6
ByLayer
370
13
48
1
60
0
100
AcDbLine
10
16
20
12.765853
30
0
11
7.25
21
12.765853
31
0
39
0
210
0
220
0
230
1
0
SOLID
5
1DA
100
AcDbEntity
8
SK2
62
256
6
ByLayer
370
18
48
1
60
0
100
AcDbTrace
10
21
20
12.765853
30
0
11
24.499998
21
13.226637
31
0
12
24.500002
22
12.305069
32
0
13
24.500002
23
12.305069
33
0
39
0
210
0
220
0
230
1
0
SOLID
5
1DB
100
AcDbEntity
8
SK2
62
256
6
ByLayer
370
18
48
1
60
0
100
AcDbTrace
10
16
20
12.765853
30
0
11
12.500002
21
12.305069
31
0
12
12.499998
22
13.226637
32
0
13
12.499998
23
13.226637
33
0
39
0
210
0
220
0
230
1
0
ENDBLK
5
1DD
100
AcDbEntity
8
0
100
AcDbBlockEnd
0
BLOCK
5
1E2
100
AcDbEntity
8
0
100
AcDbBlockBegin
2
*D7
70
1
10
0
20
0
30
0
3
*D7
0
LINE
5
1E4
100
AcDbEntity
8
0
62
256
6
ByLayer
370
-2
48
1
60
0
100
AcDbLine
10
-36
20
-4.5875
30
0
11
-36
21
-38.212392
31
0
39
0
210
0
220
0
230
1
0
LINE
5
1E5
100
AcDbEntity
8
0
62
256
6
ByLayer
370
-2
48
1
60
0
100
AcDbLine
10
21
20
-4.0875
30
0
11
21
21
-38.212392
31
0
39
0
210
0
220
0
230
1
0
LINE
5
1E6
100
AcDbEntity
8
0
62
256
6
ByLayer
370
-2
48
1
60
0
100
AcDbLine
10
-32.5
20
-36.212392
30
0
11
17.5
21
-36.212392
31
0
39
0
210
0
220
0
230
1
0
SOLID
5
1E7
100
AcDbEntity
8
0
62
256
6
ByLayer
370
-1
48
1
60
0
100
AcDbTrace
10
-32.5
20
-35.629059
30
0
11
-32.5
21
-36.795726
31
0
12
-36
22
-36.212392
32
0
13
-36
23
-36.212392
33
0
39
0
210
0
220
0
230
1
0
SOLID
5
1E8
100
AcDbEntity
8
0
62
256
6
ByLayer
370
-1
48
1
60
0
100
AcDbTrace
10
17.5
20
-36.795726
30
0
11
17.5
21
-35.629059
31
0
12
21
22
-36.212392
32
0
13
21
23
-36.212392
33
0
39
0
210
0
220
0
230
1
0
MTEXT
5
1E9
100
AcDbEntity
8
0
62
256
6
ByLayer
370
18
48
1
60
0
100
AcDbMText
10
-7.5
20
-29.212392
30
0
210
0
220
0
230
1
1
\A1;57
40
3.5
41
0
44
1
50
0
71
5
72
5
7
iso_b_vert
0
POINT
5
1EA
100
AcDbEntity
8
Defpoints
62
0
6
ByLayer
370
-1
48
1
60
0
100
AcDbPoint
10
-36
20
-3
30
0
39
0
210
0
220
0
230
1
50
360
0
POINT
5
1EB
100
AcDbEntity
8
Defpoints
62
0
6
ByLayer
370
-1
48
1
60
0
100
AcDbPoint
10
21
20
-2.5
30
0
39
0
210
0
220
0
230
1
50
360
0
POINT
5
1EC
100
AcDbEntity
8
Defpoints
62
0
6
ByLayer
370
-1
48
1
60
0
100
AcDbPoint
10
21
20
-36.212392
30
0
39
0
210
0
220
0
230
1
50
360
0
ENDBLK
5
1E3
100
AcDbEntity
8
0
100
AcDbBlockEnd
0
BLOCK
5
1F4
100
AcDbEntity
8
0
100
AcDbBlockBegin
2
_U3
70
0
10
0
20
0
30
0
3
_U3
0
MTEXT
5
1EE
100
AcDbEntity
8
2
62
256
6
ByLayer
370
18
48
1
60
0
100
AcDbMText
10
-9.404966
20
-35.179759
30
0
210
0
220
0
230
1
1
\W0.6740;57
40
3.5
41
0
44
1.084337
50
0
71
7
72
5
7
iso_b_vert
0
LINE
5
1EF
100
AcDbEntity
8
2
62
256
6
ByLayer
370
13
48
1
60
0
100
AcDbLine
10
-36
20
-4.5875
30
0
11
-36
21
-38.212392
31
0
39
0
210
0
220
0
230
1
0
LINE
5
1F0
100
AcDbEntity
8
2
62
256
6
ByLayer
370
13
48
1
60
0
100
AcDbLine
10
21
20
-4.0875
30
0
11
21
21
-38.212392
31
0
39
0
210
0
220
0
230
1
0
LINE
5
1F1
100
AcDbEntity
8
2
62
256
6
ByLayer
370
13
48
1
60
0
100
AcDbLine
10
-36
20
-36.212392
30
0
11
21
21
-36.212392
31
0
39
0
210
0
220
0
230
1
0
SOLID
5
1F2
100
AcDbEntity
8
2
62
256
6
ByLayer
370
18
48
1
60
0
100
AcDbTrace
10
-36
20
-36.212392
30
0
11
-32.500002
21
-35.751609
31
0
12
-32.499998
22
-36.673176
32
0
13
-32.499998
23
-36.673176
33
0
39
0
210
0
220
0
230
1
0
SOLID
5
1F3
100
AcDbEntity
8
2
62
256
6
ByLayer
370
18
48
1
60
0
100
AcDbTrace
10
21
20
-36.212392
30
0
11
17.500002
21
-36.673176
31
0
12
17.499998
22
-35.751609
32
0
13
17.499998
23
-35.751609
33
0
39
0
210
0
220
0
230
1
0
ENDBLK
5
1F5
100
AcDbEntity
8
0
100
AcDbBlockEnd
0
ENDSEC
0
SECTION
2
ENTITIES
0
ARC
5
D5
100
AcDbEntity
8
1
62
256
6
ByLayer
370
18
48
1
60
0
100
AcDbCircle
39
0
10
7.304029
20
4.375
30
0
40
2
210
0
220
0
230
1
100
AcDbArc
50
270
51
275.993154
0
ARC
5
D6
100
AcDbEntity
8
1
62
256
6
ByLayer
370
18
48
1
60
0
100
AcDbCircle
39
0
10
4.995358
20
4.375
30
0
40
2
210
0
220
0
230
1
100
AcDbArc
50
240
51
270
0
ARC
5
D7
100
AcDbEntity
8
1
62
256
6
ByLayer
370
18
48
1
60
0
100
AcDbCircle
39
0
10
4.995358
20
-4.375
30
0
40
2
210
0
220
0
230
1
100
AcDbArc
50
90
51
120
0
ELLIPSE
5
D8
100
AcDbEntity
8
1
62
256
6
ByLayer
370
18
48
1
60
0
100
AcDbEllipse
10
20.964121
20
-0.205341
30
0
11
0.00706863891683163
21
0.614938118760614
31
0
210
0
220
0
230
1
40
0.062769
41
1.32583404889501
42
1.35048547756563
0
POINT
5
70
100
AcDbEntity
8
81
62
256
6
ByLayer
370
18
48
1
60
0
100
AcDbPoint
10
21
20
0
30
0
39
0
210
0
220
0
230
1
50
360
0
POINT
5
72
100
AcDbEntity
8
80
62
256
6
ByLayer
370
18
48
1
60
0
100
AcDbPoint
10
0
20
0
30
0
39
0
210
0
220
0
230
1
50
360
0
POINT
5
74
100
AcDbEntity
8
81
62
256
6
ByLayer
370
18
48
1
60
0
100
AcDbPoint
10
-36
20
0
30
0
39
0
210
0
220
0
230
1
50
360
0
POINT
5
75
100
AcDbEntity
8
81
62
256
6
ByLayer
370
18
48
1
60
0
100
AcDbPoint
10
21
20
0
30
0
39
0
210
0
220
0
230
1
50
360
0
POINT
5
76
100
AcDbEntity
8
1
62
256
6
ByLayer
370
18
48
1
60
1
100
AcDbPoint
10
21
20
-2.5
30
0
39
0
210
0
220
0
230
1
50
360
0
POINT
5
78
100
AcDbEntity
8
1
62
256
6
ByLayer
370
18
48
1
60
1
100
AcDbPoint
10
8
20
-2.5
30
0
39
0
210
0
220
0
230
1
50
360
0
POINT
5
79
100
AcDbEntity
8
1
62
256
6
ByLayer
370
18
48
1
60
1
100
AcDbPoint
10
21
20
-2.5
30
0
39
0
210
0
220
0
230
1
50
360
0
POINT
5
7A
100
AcDbEntity
8
1
62
256
6
ByLayer
370
18
48
1
60
1
100
AcDbPoint
10
5
20
-2.5
30
0
39
0
210
0
220
0
230
1
50
360
0
POINT
5
7B
100
AcDbEntity
8
1
62
256
6
ByLayer
370
18
48
1
60
1
100
AcDbPoint
10
21
20
2.5
30
0
39
0
210
0
220
0
230
1
50
360
0
POINT
5
7C
100
AcDbEntity
8
1
62
256
6
ByLayer
370
18
48
1
60
1
100
AcDbPoint
10
16
20
2.5
30
0
39
0
210
0
220
0
230
1
50
360
0
POINT
5
7D
100
AcDbEntity
8
1
62
256
6
ByLayer
370
18
48
1
60
1
100
AcDbPoint
10
-36
20
-3
30
0
39
0
210
0
220
0
230
1
50
360
0
POINT
5
7E
100
AcDbEntity
8
1
62
256
6
ByLayer
370
18
48
1
60
1
100
AcDbPoint
10
21
20
-2.5
30
0
39
0
210
0
220
0
230
1
50
360
0
SPLINE
5
D9
100
AcDbEntity
8
1
62
256
6
ByLayer
370
18
48
1
60
0
100
AcDbSpline
70
4
71
3
72
8
73
4
40
0
40
0
40
0
40
0
40
1
40
1
40
1
40
1
41
1
10
20.9812673008846
20
-1.11781880527516
30
0
41
1
10
20.9819011941878
20
-1.13003188690479
30
0
41
1
10
20.9824915177381
20
-1.14253412285925
30
0
41
1
10
20.9830994757868
20
-1.1549193256696
30
0
0
SPLINE
5
DA
100
AcDbEntity
8
1
62
256
6
ByLayer
370
18
48
1
60
0
100
AcDbSpline
70
4
71
3
72
8
73
4
40
0
40
0
40
0
40
0
40
1
40
1
40
1
40
1
41
1
10
20.9852618805891
20
-1.20805074624448
30
0
41
1
10
20.962149435322
20
-1.34099550844766
30
0
41
1
10
20.9390336815161
20
-1.47374839880993
30
0
41
1
10
20.9159156193365
20
-1.60636054682146
30
0
0
SPLINE
5
DB
100
AcDbEntity
8
1
62
256
6
ByLayer
370
18
48
1
60
0
100
AcDbSpline
70
4
71
3
72
8
73
4
40
0
40
0
40
0
40
0
40
1
40
1
40
1
40
1
41
1
10
20.9830994733832
20
-1.15491932640992
30
0
41
1
10
20.9839333153232
20
-1.17190619191686
30
0
41
1
10
20.9846507535559
20
-1.18963821048263
30
0
41
1
10
20.9852618805894
20
-1.20805074625304
30
0
0
SPLINE
5
DC
100
AcDbEntity
8
1
62
256
6
ByLayer
370
18
48
1
60
0
100
AcDbSpline
70
4
71
3
72
8
73
4
40
0
40
0
40
0
40
0
40
1
40
1
40
1
40
1
41
1
10
20.981267300884
20
1.89879405638865
30
0
41
1
10
20.9819011941872
20
1.91966872013822
30
0
41
1
10
20.9824915177375
20
1.94050652421822
30
0
41
1
10
20.9830994757862
20
1.96135924655533
30
0
0
SPLINE
5
DD
100
AcDbEntity
8
1
62
256
6
ByLayer
370
18
48
1
60
0
100
AcDbSpline
70
4
71
3
72
8
73
4
40
0
40
0
40
0
40
0
40
1
40
1
40
1
40
1
41
1
10
20.9830994733827
20
1.96135924654351
30
0
41
1
10
20.9839333528861
20
1.98996098620469
30
0
41
1
10
20.9846507802636
20
2.0184289889948
30
0
41
1
10
20.9852618805887
20
2.04677488672453
30
0
0
SPLINE
5
DE
100
AcDbEntity
8
1
62
256
6
ByLayer
370
13
48
1
60
0
100
AcDbSpline
70
4
71
3
72
8
73
4
40
0
40
0
40
0
40
0
40
1
40
1
40
1
40
1
41
1
10
20.983099471334
20
1.96135924595276
30
0
41
1
10
20.980551801306
20
1.96942572461251
30
0
41
1
10
20.9779257462492
20
1.97735176971307
30
0
41
1
10
20.9752044705783
20
1.98518599938129
30
0
0
SPLINE
5
DF
100
AcDbEntity
8
1
62
256
6
ByLayer
370
18
48
1
60
0
100
AcDbSpline
70
4
71
3
72
24
73
20
40
0
40
0
40
0
40
0
40
0.125
40
0.125
40
0.25
40
0.25
40
0.375
40
0.375
40
0.5
40
0.5
40
0.5625
40
0.5625
40
0.625
40
0.625
40
0.75
40
0.75
40
0.875
40
0.875
40
1
40
1
40
1
40
1
41
1
10
20.6990923241359
20
2.44131232510259
30
0
41
1
10
20.7197770799464
20
2.43824912457674
30
0
41
1
10
20.7392922308794
20
2.43239423913767
30
0
41
1
10
20.7765604373082
20
2.41611058610371
30
0
41
1
10
20.7943864861252
20
2.40556944399771
30
0
41
1
10
20.8275413620347
20
2.38097034570038
30
0
41
1
10
20.843039493851
20
2.36679240007331
30
0
41
1
10
20.8714102540472
20
2.33589792921393
30
0
41
1
10
20.884391441385
20
2.3191142051999
30
0
41
1
10
20.9022656297997
20
2.29214694184722
30
0
41
1
10
20.9079685014119
20
2.28283176026133
30
0
41
1
10
20.9187819677097
20
2.2637373498406
30
0
41
1
10
20.9238913709166
20
2.25396598871998
30
0
41
1
10
20.9383731398449
20
2.22400769144536
30
0
41
1
10
20.9469088313265
20
2.20314237939451
30
0
41
1
10
20.9616872034607
20
2.16022269485637
30
0
41
1
10
20.9679670231136
20
2.13805896513517
30
0
41
1
10
20.9782649807196
20
2.09301910669416
30
0
41
1
10
20.9823050383138
20
2.07009547461303
30
0
41
1
10
20.9852618805887
20
2.04677488672453
30
0
0
SPLINE
5
E0
100
AcDbEntity
8
1
62
256
6
ByLayer
370
18
48
1
60
0
100
AcDbSpline
70
4
71
3
72
8
73
4
40
0
40
0
40
0
40
0
40
1
40
1
40
1
40
1
41
1
10
20.6968910627529
20
2.44163752903151
30
0
41
1
10
20.6976244969731
20
2.44152943550574
30
0
41
1
10
20.6983582517908
20
2.44142103370004
30
0
41
1
10
20.6990923241418
20
2.44131232510171
30
0
0
SPLINE
5
E1
100
AcDbEntity
8
1
62
256
6
ByLayer
370
13
48
1
60
0
100
AcDbSpline
70
4
71
3
72
19
73
15
40
0
40
0
40
0
40
0
40
0.133569241953593
40
0.244325494928406
40
0.319017389511129
40
0.35551321717922
40
0.407662505384298
40
0.42459087764764
40
0.496213192905712
40
0.570774432764026
40
0.681502231558214
40
0.846289093584146
40
0.939068883874439
40
1
40
1
40
1
40
1
41
1
10
20.940435712695
20
2.07019140042402
30
0
41
1
10
20.9271902426661
20
2.09816851776654
30
0
41
1
10
20.9002514551821
20
2.14780083921696
30
0
41
1
10
20.8596853049946
20
2.20603325724355
30
0
41
1
10
20.8297148328439
20
2.24241982617443
30
0
41
1
10
20.8060136261422
20
2.26826762438802
30
0
41
1
10
20.7892309524149
20
2.28505173562326
30
0
41
1
10
20.7655393635479
20
2.30693356421091
30
0
41
1
10
20.7393921650755
20
2.32877559911094
30
0
41
1
10
20.6979290404886
20
2.35841952409078
30
0
41
1
10
20.6380148886138
20
2.39281707698021
30
0
41
1
10
20.571215891811
20
2.41756330461368
30
0
41
1
10
20.5139091571202
20
2.4286563108457
30
0
41
1
10
20.4861400665477
20
2.43134185962472
30
0
41
1
10
20.4748306487244
20
2.4319392089979
30
0
0
SPLINE
5
E2
100
AcDbEntity
8
1
62
256
6
ByLayer
370
18
48
1
60
0
100
AcDbSpline
70
4
71
3
72
8
73
4
40
0
40
0
40
0
40
0
40
1
40
1
40
1
40
1
41
1
10
20.9739492817438
20
1.8970682970072
30
0
41
1
10
20.9757088917929
20
1.92645852443672
30
0
41
1
10
20.9754371358529
20
1.95582149722367
30
0
41
1
10
20.9752046589665
20
1.98518600453454
30
0
0
SPLINE
5
E3
100
AcDbEntity
8
1
62
256
6
ByLayer
370
18
48
1
60
0
100
AcDbSpline
70
4
71
3
72
15
73
11
40
0
40
0
40
0
40
0
40
0.250000000000016
40
0.375000000000044
40
0.375000000000044
40
0.500000000000072
40
0.500000000000072
40
0.750000000000036
40
0.750000000000036
40
1
40
1
40
1
40
1
41
1
10
20.9752044728056
20
1.9851859984241
30
0
41
1
10
20.9751409911344
20
1.99320401358477
30
0
41
1
10
20.9740137857497
20
2.00501380600315
30
0
41
1
10
20.9712159430237
20
2.01647193893987
30
0
41
1
10
20.9689654786736
20
2.0240296031788
30
0
41
1
10
20.9676383967249
20
2.02778638069151
30
0
41
1
10
20.9631509115307
20
2.03869979071109
30
0
41
1
10
20.959478763272
20
2.0455555049472
30
0
41
1
10
20.9508677229646
20
2.05848529812297
30
0
41
1
10
20.9458946742525
20
2.06458625650245
30
0
41
1
10
20.9404360879306
20
2.07019170940973
30
0
0
SPLINE
5
E4
100
AcDbEntity
8
1
62
256
6
ByLayer
370
18
48
1
60
0
100
AcDbSpline
70
4
71
3
72
16
73
12
40
0
40
0
40
0
40
0
40
0.125000000000021
40
0.125000000000021
40
0.250000000000042
40
0.250000000000042
40
0.500000000000028
40
0.500000000000028
40
0.750000000000014
40
0.750000000000014
40
1
40
1
40
1
40
1
41
1
10
20.9404357189837
20
2.07019139645942
30
0
41
1
10
20.9331164945389
20
2.07770756222189
30
0
41
1
10
20.9258207220328
20
2.08525293109545
30
0
41
1
10
20.9110093466558
20
2.10006985966237
30
0
41
1
10
20.9035108621917
20
2.10736273315956
30
0
41
1
10
20.8806732079845
20
2.12881509713733
30
0
41
1
10
20.8649738340074
20
2.14252590524791
30
0
41
1
10
20.8326742585367
20
2.16882542088982
30
0
41
1
10
20.8161104569928
20
2.1814594694207
30
0
41
1
10
20.7821870537725
20
2.20573629145579
30
0
41
1
10
20.7647580682836
20
2.21733348521244
30
0
41
1
10
20.7469909741205
20
2.22841806359014
30
0
0
SPLINE
5
E5
100
AcDbEntity
8
1
62
256
6
ByLayer
370
18
48
1
60
0
100
AcDbSpline
70
4
71
3
72
18
73
14
40
0
40
0
40
0
40
0
40
0.250000000000007
40
0.250000000000007
40
0.37500000000001
40
0.37500000000001
40
0.500000000000012
40
0.500000000000012
40
0.625000000000015
40
0.625000000000015
40
0.750000000000017
40
0.750000000000017
40
1
40
1
40
1
40
1
41
1
10
20.9159156193365
20
-1.60636054682152
30
0
41
1
10
20.9113016602528
20
-1.62912760243626
30
0
41
1
10
20.9055042919409
20
-1.65257158163757
30
0
41
1
10
20.8954373458292
20
-1.68852171725274
30
0
41
1
10
20.8918502917372
20
-1.70063746231483
30
0
41
1
10
20.8842547804685
20
-1.72510999981316
30
0
41
1
10
20.8802587691379
20
-1.73742363439959
30
0
41
1
10
20.8719870832881
20
-1.76196814928517
30
0
41
1
10
20.8677005099888
20
-1.77423409492675
30
0
41
1
10
20.8588578465162
20
-1.7987547002503
30
0
41
1
10
20.854293429695
20
-1.8110303137515
30
0
41
1
10
20.8403199557669
20
-1.84761430272764
30
0
41
1
10
20.8306197080716
20
-1.87172352430321
30
0
41
1
10
20.8206043558168
20
-1.89560325409201
30
0
0
SPLINE
5
E6
100
AcDbEntity
8
1
62
256
6
ByLayer
370
18
48
1
60
0
100
AcDbSpline
70
4
71
3
72
34
73
30
40
0
40
0
40
0
40
0
40
0.124999999999996
40
0.124999999999996
40
0.187499999999993
40
0.187499999999993
40
0.218749999999993
40
0.218749999999993
40
0.249999999999993
40
0.249999999999993
40
0.374999999999995
40
0.374999999999995
40
0.406249999999993
40
0.406249999999993
40
0.437499999999992
40
0.499999999999979
40
0.531249999999973
40
0.531249999999973
40
0.562499999999966
40
0.562499999999966
40
0.624999999999967
40
0.624999999999967
40
0.749999999999967
40
0.749999999999967
40
0.812499999999976
40
0.812499999999976
40
0.874999999999984
40
0.874999999999984
40
1
40
1
40
1
40
1
41
1
10
20.7477651150589
20
2.21246740398084
30
0
41
1
10
20.7554275573142
20
2.16458800728247
30
0
41
1
10
20.7595566246313
20
2.11650292082433
30
0
41
1
10
20.7588517300428
20
2.04397370627157
30
0
41
1
10
20.7574584237426
20
2.01972987042984
30
0
41
1
10
20.7533255895957
20
1.98324519399054
30
0
41
1
10
20.7516066121971
20
1.97106376310199
30
0
41
1
10
20.747422511175
20
1.94665746561768
30
0
41
1
10
20.7449610016191
20
1.93447291800837
30
0
41
1
10
20.7308853471201
20
1.87437991469741
30
0
41
1
10
20.7138548307551
20
1.82829514285893
30
0
41
1
10
20.6847444167476
20
1.77338648239831
30
0
41
1
10
20.6785274235865
20
1.76254041080853
30
0
41
1
10
20.6655123474286
20
1.74143731241776
30
0
41
1
10
20.6450532857468
20
1.71053785695028
30
0
41
1
10
20.6142235855861
20
1.67220222516707
30
0
41
1
10
20.5887088225201
20
1.64537990810044
30
0
41
1
10
20.5711951061963
20
1.62790470961451
30
0
41
1
10
20.5621712740956
20
1.6193585270446
30
0
41
1
10
20.5346795936826
20
1.59455042603952
30
0
41
1
10
20.5157086367843
20
1.57902502854631
30
0
41
1
10
20.4572127529282
20
1.53494292805033
30
0
41
1
10
20.4161217996369
20
1.50885355369704
30
0
41
1
10
20.352290910273
20
1.47317693888954
30
0
41
1
10
20.3306008412528
20
1.46184817941329
30
0
41
1
10
20.2867886604882
20
1.44028010796637
30
0
41
1
10
20.2647347600678
20
1.43007082649126
30
0
41
1
10
20.1982079790099
20
1.40086258229613
30
0
41
1
10
20.1533738571365
20
1.38326829369441
30
0
41
1
10
20.1081984827052
20
1.36700095392484
30
0
0
SPLINE
5
E7
100
AcDbEntity
8
1
62
256
6
ByLayer
370
18
48
1
60
0
100
AcDbSpline
70
4
71
3
72
17
73
13
40
0
40
0
40
0
40
0
40
0.0085700651802684
40
0.0085700651802684
40
0.150202913011624
40
0.433468608674461
40
0.433468608674461
40
0.575101456505877
40
0.575101456505877
40
0.716734304337295
40
0.716734304337295
40
1
40
1
40
1
40
1
41
1
10
19.97277744575
20
1.30876808641406
30
0
41
1
10
19.9731458544359
20
1.30893878267167
30
0
41
1
10
19.9735143449086
20
1.3091095342437
30
0
41
1
10
19.9799737312997
20
1.31210294675771
30
0
41
1
10
19.9983642152629
20
1.32063643570524
30
0
41
1
10
20.0171495251469
20
1.32926341010844
30
0
41
1
10
20.0362715785038
20
1.33780516609576
30
0
41
1
10
20.0427019371879
20
1.3406380851462
30
0
41
1
10
20.055690751351
20
1.34624813339408
30
0
41
1
10
20.0622595377139
20
1.34902905002025
30
0
41
1
10
20.0819132576327
20
1.35713440448538
30
0
41
1
10
20.0950288682066
20
1.36225866686294
30
0
41
1
10
20.1081984827052
20
1.36700095392484
30
0
0
SPLINE
5
E8
100
AcDbEntity
8
1
62
256
6
ByLayer
370
18
48
1
60
0
100
AcDbSpline
70
4
71
3
72
8
73
4
40
0
40
0
40
0
40
0
40
1
40
1
40
1
40
1
41
1
10
7.50192392238159
20
2.29411948990946
30
0
41
1
10
7.43745604911231
20
2.30688573676952
30
0
41
1
10
7.37145402582431
20
2.31922815931247
30
0
41
1
10
7.30402945464618
20
2.33188806262595
30
0
0
SPLINE
5
E9
100
AcDbEntity
8
1
62
256
6
ByLayer
370
18
48
1
60
0
100
AcDbSpline
70
4
71
3
72
10
73
6
40
0
40
0
40
0
40
0
40
0.5
40
0.5
40
1
40
1
40
1
40
1
41
1
10
7.99816729010675
20
2.18475440801797
30
0
41
1
10
7.9186544137732
20
2.20456782786917
30
0
41
1
10
7.83756990214005
20
2.22353250855087
30
0
41
1
10
7.67219453958083
20
2.25981982885696
30
0
41
1
10
7.58789563815202
20
2.27713740218167
30
0
41
1
10
7.50192392238165
20
2.29411948990946
30
0
0
SPLINE
5
EA
100
AcDbEntity
8
1
62
256
6
ByLayer
370
18
48
1
60
0
100
AcDbSpline
70
4
71
1
72
4
73
2
40
0
40
0
40
1
40
1
41
1
10
8.00000000000003
20
2.0494698990025
30
0
41
1
10
7.50192392238165
20
2.29411948990946
30
0
0
SPLINE
5
EB
100
AcDbEntity
8
1
62
256
6
ByLayer
370
13
48
1
60
0
100
AcDbSpline
70
4
71
3
72
14
73
10
40
0
40
0
40
0
40
0
40
0.25
40
0.25
40
0.5
40
0.5
40
0.75
40
0.75
40
1
40
1
40
1
40
1
41
1
10
16
20
-1.95948229347934
30
0
41
1
10
16
20
-1.92192707359396
30
0
41
1
10
16
20
-1.87577988851683
30
0
41
1
10
16
20
-1.76747293112197
30
0
41
1
10
16
20
-1.7053155901437
30
0
41
1
10
16
20
-1.56671282570176
30
0
41
1
10
16
20
-1.49027088569287
30
0
41
1
10
16
20
-1.3252845825794
30
0
41
1
10
16
20
-1.23674443591276
30
0
41
1
10
16
20
-1.1434180698572
30
0
0
SPLINE
5
EC
100
AcDbEntity
8
1
62
256
6
ByLayer
370
18
48
1
60
0
100
AcDbSpline
70
4
71
3
72
17
73
13
40
0
40
0
40
0
40
0
40
0.250000000000001
40
0.250000000000001
40
0.500000000000001
40
0.500000000000001
40
0.562500000000001
40
0.562500000000001
40
0.625000000000001
40
0.750000000000001
40
0.750000000000001
40
1
40
1
40
1
40
1
41
1
10
19.8129039874409
20
1.29068439688589
30
0
41
1
10
19.8498327641684
20
1.30811051502815
30
0
41
1
10
19.8901120390676
20
1.31625277813473
30
0
41
1
10
19.9765866137328
20
1.31614466228845
30
0
41
1
10
20.0227870419091
20
1.30788007308487
30
0
41
1
10
20.0840455305004
20
1.28782919082966
30
0
41
1
10
20.0964219514522
20
1.28334621143583
30
0
41
1
10
20.1213234163402
20
1.27350402547586
30
0
41
1
10
20.1589425840866
20
1.25741102765258
30
0
41
1
10
20.1973310994481
20
1.23748608442855
30
0
41
1
10
20.2750725569989
20
1.19283260741361
30
0
41
1
10
20.3281807005386
20
1.15668571785929
30
0
41
1
10
20.3824838652828
20
1.11458669962036
30
0
0
SPLINE
5
ED
100
AcDbEntity
8
1
62
256
6
ByLayer
370
18
48
1
60
0
100
AcDbSpline
70
4
71
3
72
8
73
4
40
0
40
0
40
0
40
0
40
1
40
1
40
1
40
1
41
1
10
20.981267300885
20
-0.780975251113887
30
0
41
1
10
20.9819011941883
20
-0.789636833232976
30
0
41
1
10
20.9824915177386
20
-0.797972401357725
30
0
41
1
10
20.9830994757872
20
-0.806439920883662
30
0
0
SPLINE
5
EE
100
AcDbEntity
8
1
62
256
6
ByLayer
370
18
48
1
60
0
100
AcDbSpline
70
4
71
3
72
14
73
10
40
0
40
0
40
0
40
0
40
0.500000000000001
40
0.500000000000001
40
0.75
40
0.75
40
0.875
40
0.875
40
1
40
1
40
1
40
1
41
1
10
20.4354118044303
20
-2.00989641557251
30
0
41
1
10
20.417464381649
20
-1.97523583678461
30
0
41
1
10
20.4039825268745
20
-1.93228482324707
30
0
41
1
10
20.3901739285618
20
-1.85595021586366
30
0
41
1
10
20.386644104453
20
-1.82851321838106
30
0
41
1
10
20.3829556391294
20
-1.78437564158708
30
0
41
1
10
20.3819940666809
20
-1.76916572348429
30
0
41
1
10
20.3806085911713
20
-1.73774769108846
30
0
41
1
10
20.3801876988676
20
-1.72157254846911
30
0
41
1
10
20.3800336097796
20
-1.70507707747416
30
0
0
SPLINE
5
EF
100
AcDbEntity
8
1
62
256
6
ByLayer
370
18
48
1
60
0
100
AcDbSpline
70
4
71
3
72
24
73
20
40
0
40
0
40
0
40
0
40
0.12499999999999
40
0.12499999999999
40
0.24999999999998
40
0.37499999999997
40
0.37499999999997
40
0.406249999999967
40
0.406249999999967
40
0.437499999999965
40
0.499999999999967
40
0.499999999999967
40
0.749999999999987
40
0.749999999999987
40
0.81249999999999
40
0.81249999999999
40
0.874999999999993
40
0.874999999999993
40
1
40
1
40
1
40
1
41
1
10
19.6714386366899
20
-0.739347998127755
30
0
41
1
10
19.6924388582738
20
-0.796740951582336
30
0
41
1
10
19.714911637342
20
-0.851957410148799
30
0
41
1
10
19.7625814022964
20
-0.958363847993724
30
0
41
1
10
19.8129764103827
20
-1.06074227483955
30
0
41
1
10
19.8685534758805
20
-1.15546142754133
30
0
41
1
10
19.9048689812337
20
-1.21232583639394
30
0
41
1
10
19.9122205213175
20
-1.22359518584224
30
0
41
1
10
19.9269999109039
20
-1.2457796940142
30
0
41
1
10
19.9493048790966
20
-1.27856024941659
30
0
41
1
10
19.9720062285867
20
-1.30989333942537
30
0
41
1
10
20.0485168461257
20
-1.41127154423452
30
0
41
1
10
20.1123862172568
20
-1.48265738445386
30
0
41
1
10
20.1951752450647
20
-1.56110872149745
30
0
41
1
10
20.2119072702045
20
-1.57627370032384
30
0
41
1
10
20.2453698707254
20
-1.60528236994543
30
0
41
1
10
20.2621326282343
20
-1.61915859510549
30
0
41
1
10
20.3125109926585
20
-1.65898839772916
30
0
41
1
10
20.3462164639802
20
-1.68314764466012
30
0
41
1
10
20.3800336097791
20
-1.70507707747518
30
0
0
SPLINE
5
F0
100
AcDbEntity
8
1
62
256
6
ByLayer
370
13
48
1
60
0
100
AcDbSpline
70
4
71
3
72
14
73
10
40
0
40
0
40
0
40
0
40
0.25
40
0.25
40
0.5
40
0.5
40
0.75
40
0.75
40
1
40
1
40
1
40
1
41
1
10
16
20
0.549712343826172
30
0
41
1
10
16.0000000000001
20
0.627907204928107
30
0
41
1
10
16
20
0.699420257768338
30
0
41
1
10
16
20
0.82719590219142
30
0
41
1
10
16
20
0.883455960513743
30
0
41
1
10
16
20
0.979367945619998
30
0
41
1
10
16
20
1.01901859846581
30
0
41
1
10
16
20
1.0809482402702
30
0
41
1
10
16
20
1.10322728352713
30
0
41
1
10
16
20
1.11674501110747
30
0
0
SPLINE
5
F1
100
AcDbEntity
8
1
62
256
6
ByLayer
370
18
48
1
60
0
100
AcDbSpline
70
4
71
1
72
4
73
2
40
0
40
0
40
1
40
1
41
1
10
16
20
1.11674501110747
30
0
41
1
10
15.6158882843202
20
1.23151689591162
30
0
0
SPLINE
5
F2
100
AcDbEntity
8
1
62
256
6
ByLayer
370
18
48
1
60
0
100
AcDbSpline
70
4
71
3
72
8
73
4
40
0
40
0
40
0
40
0
40
1
40
1
40
1
40
1
41
1
10
16.2223254231364
20
-1.2004382794924
30
0
41
1
10
16.1482169487576
20
-1.18349099192238
30
0
41
1
10
16.0741084743788
20
-1.16448229226583
30
0
41
1
10
16
20
-1.1434180698572
30
0
0
SPLINE
5
F3
100
AcDbEntity
8
1
62
256
6
ByLayer
370
18
48
1
60
0
100
AcDbSpline
70
4
71
3
72
24
73
20
40
0
40
0
40
0
40
0
40
0.270526167748743
40
0.270526167748743
40
0.405789251623115
40
0.405789251623115
40
0.4734207935603
40
0.4734207935603
40
0.541052335497486
40
0.541052335497486
40
0.676315419371858
40
0.676315419371858
40
0.743946961309043
40
0.743946961309043
40
0.811578503246229
40
0.811578503246229
40
0.946841587120594
40
0.946841587120594
40
1
40
1
40
1
40
1
41
1
10
20.435411804423
20
0.76660752837202
30
0
41
1
10
20.2490036335983
20
0.921046053138838
30
0
41
1
10
20.0673079713284
20
1.06739372744252
30
0
41
1
10
19.7954669660647
20
1.26923214263243
30
0
41
1
10
19.7049639118127
20
1.33355497909392
30
0
41
1
10
19.5685371626548
20
1.42486435157241
30
0
41
1
10
19.5229493376319
20
1.45443819536453
30
0
41
1
10
19.4314073336746
20
1.5117360853998
30
0
41
1
10
19.3854179800352
20
1.53947725486046
30
0
41
1
10
19.2475904868187
20
1.61923343949806
30
0
41
1
10
19.1555297525986
20
1.66795838798805
30
0
41
1
10
19.0161792529419
20
1.73439517292252
30
0
41
1
10
18.9695516032371
20
1.75544032613286
30
0
41
1
10
18.8759767370442
20
1.79533817622865
30
0
41
1
10
18.8290392155605
20
1.81418394226586
30
0
41
1
10
18.6883706433782
20
1.86718155773983
30
0
41
1
10
18.5946171461668
20
1.89788599500673
30
0
41
1
10
18.4640999658284
20
1.93390908665393
30
0
41
1
10
18.4272779057136
20
1.94332693632123
30
0
41
1
10
18.3904356204591
20
1.951993911328
30
0
0
SPLINE
5
F4
100
AcDbEntity
8
1
62
256
6
ByLayer
370
18
48
1
60
0
100
AcDbSpline
70
4
71
3
72
12
73
8
40
0
40
0
40
0
40
0
40
0.500000000000009
40
0.500000000000009
40
0.750000000000005
40
0.750000000000005
40
1
40
1
40
1
40
1
41
1
10
7.51806882662433
20
-1.2035894368795
30
0
41
1
10
7.4997541076265
20
-1.17460774182226
30
0
41
1
10
7.48681112436464
20
-1.14408180961558
30
0
41
1
10
7.47447802065346
20
-1.09586822495555
30
0
41
1
10
7.47154895507177
20
-1.07932004874209
30
0
41
1
10
7.46790853778316
20
-1.04634293085996
30
0
41
1
10
7.467159039611
20
-1.02981061838736
30
0
41
1
10
7.46728926142532
20
-1.01322520970132
30
0
0
SPLINE
5
F5
100
AcDbEntity
8
1
62
256
6
ByLayer
370
18
48
1
60
0
100
AcDbSpline
70
4
71
3
72
10
73
6
40
0
40
0
40
0
40
0
40
0.5
40
0.5
40
1
40
1
40
1
40
1
41
1
10
7.99816729010672
20
-2.14360946879552
30
0
41
1
10
7.91865441377311
20
-2.07016303873328
30
0
41
1
10
7.83756990213996
20
-1.9973498785472
30
0
41
1
10
7.67219453958069
20
-1.8530753335732
30
0
41
1
10
7.58789563815185
20
-1.78161671219641
30
0
41
1
10
7.50192392238125
20
-1.71121173127071
30
0
0
SPLINE
5
F6
100
AcDbEntity
8
1
62
256
6
ByLayer
370
18
48
1
60
0
100
AcDbSpline
70
4
71
3
72
10
73
6
40
0
40
0
40
0
40
0
40
0.22255664961191
40
0.22255664961191
40
1
40
1
40
1
40
1
41
1
10
16.6883369584586
20
-1.71969526060735
30
0
41
1
10
16.6455505791056
20
-1.74005460777192
30
0
41
1
10
16.6027589815685
20
-1.75941402396458
30
0
41
1
10
16.4103339109779
20
-1.84188501867808
30
0
41
1
10
16.2601724185184
20
-1.89382262264206
30
0
41
1
10
16.1083505447534
20
-1.93333062388862
30
0
0
SPLINE
5
F7
100
AcDbEntity
8
1
62
256
6
ByLayer
370
18
48
1
60
0
100
AcDbSpline
70
4
71
3
72
8
73
4
40
0
40
0
40
0
40
0
40
1
40
1
40
1
40
1
41
1
10
16.0505774928583
20
-1.94774453948926
30
0
41
1
10
16.0337408273843
20
-1.95176463844584
30
0
41
1
10
16.0168821581844
20
-1.95563236542355
30
0
41
1
10
16
20
-1.95934738147693
30
0
0
SPLINE
5
F8
100
AcDbEntity
8
1
62
256
6
ByLayer
370
18
48
1
60
0
100
AcDbSpline
70
4
71
3
72
37
73
33
40
0
40
0
40
0
40
0
40
0.125000000000003
40
0.125000000000003
40
0.250000000000006
40
0.250000000000006
40
0.281250000000009
40
0.281250000000009
40
0.312500000000011
40
0.375000000000013
40
0.375000000000013
40
0.500000000000013
40
0.500000000000013
40
0.531250000000012
40
0.531250000000012
40
0.562500000000012
40
0.562500000000012
40
0.62500000000001
40
0.62500000000001
40
0.687500000000008
40
0.687500000000008
40
0.750000000000007
40
0.750000000000007
40
0.781250000000006
40
0.781250000000006
40
0.812500000000005
40
0.812500000000005
40
0.875000000000003
40
0.875000000000003
40
0.937500000000002
40
0.937500000000002
40
1
40
1
40
1
40
1
41
1
10
13.8701130616766
20
-0.538029650379343
30
0
41
1
10
13.9547519745821
20
-0.660142916248788
30
0
41
1
10
14.0389723619805
20
-0.777037907139317
30
0
41
1
10
14.2079447721525
20
-1.00028503937654
30
0
41
1
10
14.2926836059343
20
-1.10663924559711
30
0
41
1
10
14.3999266020977
20
-1.23229030224758
30
0
41
1
10
14.4214519204971
20
-1.25706151534885
30
0
41
1
10
14.4642891909631
20
-1.30542220740051
30
0
41
1
10
14.5283662999073
20
-1.3763567419787
30
0
41
1
10
14.5920444111192
20
-1.44248818353265
30
0
41
1
10
14.7192577092706
20
-1.56826114166051
30
0
41
1
10
14.8038381655952
20
-1.64350911776052
30
0
41
1
10
14.9109238546508
20
-1.72580150421643
30
0
41
1
10
14.9324551966969
20
-1.74169599626964
30
0
41
1
10
14.9754953665296
20
-1.7721167535415
30
0
41
1
10
14.9969683657844
20
-1.78662121942676
30
0
41
1
10
15.0613182488068
20
-1.82803835135286
30
0
41
1
10
15.1041231444638
20
-1.8528581487497
30
0
41
1
10
15.1899800308897
20
-1.89694179707769
30
0
41
1
10
15.2330298426513
20
-1.91620530226899
30
0
41
1
10
15.3199277053334
20
-1.94909792709018
30
0
41
1
10
15.3637701714156
20
-1.96272747257808
30
0
41
1
10
15.4307290230407
20
-1.97880024208911
30
0
41
1
10
15.4532495295829
20
-1.9834286703252
30
0
41
1
10
15.4988183214639
20
-1.99119668064068
30
0
41
1
10
15.5218848560154
20
-1.99433425932062
30
0
41
1
10
15.5914740760504
20
-2.00142167057734
30
0
41
1
10
15.6385660127243
20
-2.00308490986106
30
0
41
1
10
15.7353445299889
20
-2.00048422367172
30
0
41
1
10
15.7850204307289
20
-1.9962185028551
30
0
41
1
10
15.8886561657187
20
-1.98198596404751
30
0
41
1
10
15.942593975168
20
-1.97201576171565
30
0
41
1
10
15.9999999999996
20
-1.95936081690414
30
0
0
SPLINE
5
F9
100
AcDbEntity
8
1
62
256
6
ByLayer
370
18
48
1
60
0
100
AcDbSpline
70
4
71
3
72
8
73
4
40
0
40
0
40
0
40
0
40
1
40
1
40
1
40
1
41
1
10
7.60334056730781
20
-1.13065765149247
30
0
41
1
10
7.55850616033382
20
-1.0872278080773
30
0
41
1
10
7.51297371803503
20
-1.04829208192692
30
0
41
1
10
7.46728926142467
20
-1.0132252097014
30
0
0
SPLINE
5
FA
100
AcDbEntity
8
1
62
256
6
ByLayer
370
18
48
1
60
0
100
AcDbSpline
70
4
71
3
72
8
73
4
40
0
40
0
40
0
40
0
40
1
40
1
40
1
40
1
41
1
10
7.30402945464624
20
-0.842435791535678
30
0
41
1
10
7.35910186951503
20
-0.898900311014813
30
0
41
1
10
7.41351466479932
20
-0.955865858641289
30
0
41
1
10
7.46728926142472
20
-1.01322520970126
30
0
0
SPLINE
5
FB
100
AcDbEntity
8
1
62
256
6
ByLayer
370
18
48
1
60
0
100
AcDbSpline
70
4
71
1
72
4
73
2
40
0
40
0
40
1
40
1
41
1
10
7.11808616827201
20
-1.42133823742793
30
0
41
1
10
5.90845393637494
20
-1.10305296728228
30
0
0
SPLINE
5
FC
100
AcDbEntity
8
1
62
256
6
ByLayer
370
18
48
1
60
0
100
AcDbSpline
70
4
71
3
72
8
73
4
40
0
40
0
40
0
40
0
40
1
40
1
40
1
40
1
41
1
10
7.50192392238122
20
-1.71121173127074
30
0
41
1
10
7.43745604911206
20
-1.65833575329032
30
0
41
1
10
7.37145402582425
20
-1.60648724640572
30
0
41
1
10
7.30402945464627
20
-1.55606234353692
30
0
0
SPLINE
5
FD
100
AcDbEntity
8
1
62
256
6
ByLayer
370
18
48
1
60
0
100
AcDbSpline
70
4
71
3
72
45
73
41
40
0
40
0
40
0
40
0
40
0.125000000000001
40
0.125000000000001
40
0.250000000000003
40
0.250000000000003
40
0.281250000000003
40
0.281250000000003
40
0.312500000000004
40
0.312500000000004
40
0.375000000000021
40
0.375000000000021
40
0.406250000000021
40
0.406250000000021
40
0.437500000000022
40
0.437500000000022
40
0.500000000000023
40
0.500000000000023
40
0.531250000000024
40
0.531250000000024
40
0.562500000000024
40
0.562500000000024
40
0.625000000000026
40
0.625000000000026
40
0.656250000000022
40
0.656250000000022
40
0.687500000000019
40
0.687500000000019
40
0.718750000000016
40
0.718750000000016
40
0.750000000000013
40
0.78125000000001
40
0.78125000000001
40
0.812500000000007
40
0.812500000000007
40
0.875000000000005
40
0.875000000000005
40
0.937500000000002
40
0.937500000000002
40
1
40
1
40
1
40
1
41
1
10
14.4880596352359
20
0.123778221077487
30
0
41
1
10
14.4367666494275
20
0.131019498668024
30
0
41
1
10
14.3855364518657
20
0.135161983901611
30
0
41
1
10
14.2832076653539
20
0.136354595515513
30
0
41
1
10
14.2321083042903
20
0.133439463600951
30
0
41
1
10
14.1683342442146
20
0.12422452964006
30
0
41
1
10
14.1555845378667
20
0.1220987753195
30
0
41
1
10
14.1300963245504
20
0.117229858192474
30
0
41
1
10
14.1173286937085
20
0.114478666296094
30
0
41
1
10
14.0794132778788
20
0.105294056617311
30
0
41
1
10
14.0545697238145
20
0.0979281826244289
30
0
41
1
10
14.018066580269
20
0.0846892477400161
30
0
41
1
10
14.0060265031835
20
0.0799094740545456
30
0
41
1
10
13.9822308622053
20
0.0695311301020922
30
0
41
1
10
13.9704374759771
20
0.063912631811661
30
0
41
1
10
13.9358337438685
20
0.0458079443405097
30
0
41
1
10
13.9138942157876
20
0.0321574001181091
30
0
41
1
10
13.8830758526914
20
0.0087388364035235
30
0
41
1
10
13.8731533445547
20
0.0004395952423124
30
0
41
1
10
13.8541065587556
20
-0.0172860307009728
30
0
41
1
10
13.8449779030705
20
-0.0267339865438316
30
0
41
1
10
13.8196065879802
20
-0.0562484817090194
30
0
41
1
10
13.8051240796646
20
-0.0776760729264083
30
0
41
1
10
13.7876453194668
20
-0.112895584961365
30
0
41
1
10
13.7826413730597
20
-0.124940744315552
30
0
41
1
10
13.7743078043455
20
-0.1494375017013
30
0
41
1
10
13.7709632422827
20
-0.161919311872396
30
0
41
1
10
13.7658773628602
20
-0.187338929691037
30
0
41
1
10
13.7641320711759
20
-0.200357575882691
30
0
41
1
10
13.7622444852298
20
-0.226436373507681
30
0
41
1
10
13.7619431358795
20
-0.252431547746227
30
0
41
1
10
13.7644515116181
20
-0.278274860234177
30
0
41
1
10
13.7682242655746
20
-0.304048204000423
30
0
41
1
10
13.7707477583727
20
-0.3168879824633
30
0
41
1
10
13.779829772995
20
-0.354610498149242
30
0
41
1
10
13.7879157360527
20
-0.378965743034286
30
0
41
1
10
13.8070959373601
20
-0.426478406568094
30
0
41
1
10
13.8182364941169
20
-0.449698545034295
30
0
41
1
10
13.8427156718339
20
-0.494855042397233
30
0
41
1
10
13.8560078866822
20
-0.516722366121826
30
0
41
1
10
13.8701130616765
20
-0.538029650379343
30
0
0
SPLINE
5
FE
100
AcDbEntity
8
1
62
256
6
ByLayer
370
18
48
1
60
0
100
AcDbSpline
70
4
71
1
72
4
73
2
40
0
40
0
40
1
40
1
41
1
10
16
20
-1.1434180698572
30
0
41
1
10
13.8701130616765
20
-0.538029650379372
30
0
0
SPLINE
5
FF
100
AcDbEntity
8
1
62
256
6
ByLayer
370
13
48
1
60
0
100
AcDbSpline
70
4
71
5
72
12
73
6
40
0
40
0
40
0
40
0
40
0
40
0
40
1
40
1
40
1
40
1
40
1
40
1
41
0.962386134388502
10
16.0000000000039
20
-0.948124069857464
30
0
41
0.968417857357598
10
16.0000000000039
20
-0.982667503909355
30
0
41
0.975182681330797
10
16.0000000000039
20
-1.0196264777211
30
0
41
0.982691722815551
10
16.0000000000039
20
-1.05884731838278
30
0
41
0.990958713449407
10
16.0000000000039
20
-1.10016783959237
30
0
41
1
10
16.0000000000039
20
-1.14341806985831
30
0
0
SPLINE
5
100
100
AcDbEntity
8
1
62
256
6
ByLayer
370
18
48
1
60
0
100
AcDbSpline
70
4
71
3
72
16
73
12
40
0
40
0
40
0
40
0
40
0.249999999999995
40
0.499999999999989
40
0.499999999999989
40
0.749999999999984
40
0.749999999999984
40
0.812499999999988
40
0.812499999999988
40
0.874999999999992
40
1
40
1
40
1
40
1
41
1
10
20.7629134391799
20
-1.87648670073673
30
0
41
1
10
20.7315524623863
20
-1.90210984174837
30
0
41
1
10
20.6707605443191
20
-1.94633806229439
30
0
41
1
10
20.6138573867942
20
-1.9764258382346
30
0
41
1
10
20.5589735381222
20
-1.99917093397906
30
0
41
1
10
20.5325407356817
20
-2.00687407816065
30
0
41
1
10
20.5008522771816
20
-2.01158483943942
30
0
41
1
10
20.4945725864015
20
-2.012280824757
30
0
41
1
10
20.482209345265
20
-2.01316502473526
30
0
41
1
10
20.4639606331136
20
-2.01373234268033
30
0
41
1
10
20.4465961426728
20
-2.01203354752767
30
0
41
1
10
20.4354118044305
20
-2.00989641557248
30
0
0
SPLINE
5
101
100
AcDbEntity
8
1
62
256
6
ByLayer
370
18
48
1
60
0
100
AcDbSpline
70
4
71
3
72
45
73
41
40
0
40
0
40
0
40
0
40
0.125000000000001
40
0.125000000000001
40
0.187500000000002
40
0.187500000000002
40
0.218750000000003
40
0.218750000000003
40
0.250000000000004
40
0.250000000000004
40
0.312500000000005
40
0.312500000000005
40
0.343750000000006
40
0.343750000000006
40
0.375000000000007
40
0.375000000000007
40
0.437500000000008
40
0.437500000000008
40
0.46875000000001
40
0.46875000000001
40
0.484375000000011
40
0.484375000000011
40
0.500000000000012
40
0.562500000000011
40
0.562500000000011
40
0.625000000000011
40
0.625000000000011
40
0.68750000000001
40
0.68750000000001
40
0.718750000000009
40
0.718750000000009
40
0.750000000000009
40
0.750000000000009
40
0.812500000000008
40
0.812500000000008
40
0.843750000000006
40
0.843750000000006
40
0.875000000000004
40
0.875000000000004
40
1
40
1
40
1
40
1
41
1
10
20.4354118044303
20
-2.00989641557251
30
0
41
1
10
20.2490036336052
20
-2.03240793294441
30
0
41
1
10
20.067307971335
20
-2.03328981479274
30
0
41
1
10
19.7954669660709
20
-2.00307608543687
30
0
41
1
10
19.7049639118188
20
-1.98774311248408
30
0
41
1
10
19.5685371626607
20
-1.95695388173482
30
0
41
1
10
19.5229493376377
20
-1.94539263140837
30
0
41
1
10
19.4314073336803
20
-1.91969236420863
30
0
41
1
10
19.3854179800409
20
-1.90553352670429
30
0
41
1
10
19.2475904868241
20
-1.85957388904947
30
0
41
1
10
19.1555297526039
20
-1.82429489820166
30
0
41
1
10
19.0161792529469
20
-1.76558993708304
30
0
41
1
10
18.9695516032421
20
-1.7450283936077
30
0
41
1
10
18.875976737049
20
-1.70188706470765
30
0
41
1
10
18.8290392155652
20
-1.67930892669938
30
0
41
1
10
18.6883706433828
20
-1.60874440100699
30
0
41
1
10
18.5946171461712
20
-1.55782749017018
30
0
41
1
10
18.4540746129517
20
-1.47531854163353
30
0
41
1
10
18.4072272606321
20
-1.44681263426267
30
0
41
1
10
18.336893691114
20
-1.40260090999348
30
0
41
1
10
18.3134368753931
20
-1.38761976229196
30
0
41
1
10
18.2666462801812
20
-1.35728273656451
30
0
41
1
10
18.1498810531175
20
-1.2804412770773
30
0
41
1
10
18.0340245505651
20
-1.19878792976249
30
0
41
1
10
17.8491407089131
20
-1.06269252632538
30
0
41
1
10
17.7569103941611
20
-0.9919643217047
30
0
41
1
10
17.5726741081723
20
-0.845108063733022
30
0
41
1
10
17.4806849171234
20
-0.768958298228597
30
0
41
1
10
17.3426024114921
20
-0.650598822498864
30
0
41
1
10
17.2965626178166
20
-0.610444324928153
30
0
41
1
10
17.2043070696747
20
-0.528879913046012
30
0
41
1
10
17.1582683814789
20
-0.487636933377132
30
0
41
1
10
17.0204835847726
20
-0.363178947540405
30
0
41
1
10
16.9289054099377
20
-0.279111244591945
30
0
41
1
10
16.7909696186075
20
-0.152487657338156
30
0
41
1
10
16.7448989186585
20
-0.110189878345352
30
0
41
1
10
16.6524393868258
20
-0.025566955600226
30
0
41
1
10
16.6062062224873
20
0.0166152727489646
30
0
41
1
10
16.3748426228273
20
0.226486386133246
30
0
41
1
10
16.1888916035115
20
0.391041364100971
30
0
41
1
10
16
20
0.54999314285908
30
0
0
SPLINE
5
102
100
AcDbEntity
8
1
62
256
6
ByLayer
370
18
48
1
60
0
100
AcDbSpline
70
4
71
3
72
35
73
31
40
0
40
0
40
0
40
0
40
0.0042321957657172
40
0.0042321957657172
40
0.0457225209421452
40
0.0457225209421452
40
0.0872128461185733
40
0.170193496471434
40
0.170193496471434
40
0.336154797177154
40
0.336154797177154
40
0.377645122353583
40
0.377645122353583
40
0.419135447530012
40
0.419135447530012
40
0.502116097882871
40
0.502116097882871
40
0.585096748235729
40
0.585096748235729
40
0.668077398588587
40
0.668077398588587
40
0.709567723765013
40
0.709567723765013
40
0.75105804894144
40
0.75105804894144
40
0.834038699294293
40
0.834038699294293
40
0.917019349647147
40
0.917019349647147
40
1
40
1
40
1
40
1
41
1
10
14.3719243118645
20
1.81759716437054
30
0
41
1
10
14.3741108764028
20
1.81727234799976
30
0
41
1
10
14.376298114606
20
1.81693972462619
30
0
41
1
10
14.3999353612378
20
1.81326185083785
30
0
41
1
10
14.4214600394993
20
1.80916333842956
30
0
41
1
10
14.4642959504611
20
1.79953212594
30
0
41
1
10
14.5283713124684
20
1.78291437471469
30
0
41
1
10
14.5920485150051
20
1.75991432573696
30
0
41
1
10
14.7192610662348
20
1.70560712307011
30
0
41
1
10
14.8038424269005
20
1.65836226658126
30
0
41
1
10
14.9109311664416
20
1.58553818839215
30
0
41
1
10
14.9324637200252
20
1.57024948104831
30
0
41
1
10
14.9755023277914
20
1.53844646699648
30
0
41
1
10
14.9969746438714
20
1.52196007980959
30
0
41
1
10
15.0613227586436
20
1.47081033987317
30
0
41
1
10
15.104126848855
20
1.43445719185172
30
0
41
1
10
15.1899828441307
20
1.35755180942806
30
0
41
1
10
15.2330325696642
20
1.31699787654375
30
0
41
1
10
15.3199310109092
20
1.2319901907081
30
0
41
1
10
15.3637741405989
20
1.18753311331901
30
0
41
1
10
15.4307346424018
20
1.11819882495149
30
0
41
1
10
15.4532558088704
20
1.09464661466623
30
0
41
1
10
15.4988261679578
20
1.04671919635268
30
0
41
1
10
15.5218921987079
20
1.02232567957012
30
0
41
1
10
15.591479153101
20
0.948681305706003
30
0
41
1
10
15.6385698043572
20
0.898755276559911
30
0
41
1
10
15.7353462326979
20
0.798266671967951
30
0
41
1
10
15.7850213275022
20
0.747694942488209
30
0
41
1
10
15.888656067301
20
0.647336580297207
30
0
41
1
10
15.9425936804783
20
0.597531210666915
30
0
41
1
10
15.9999999999996
20
0.549229343651803
30
0
0
SPLINE
5
103
100
AcDbEntity
8
1
62
256
6
ByLayer
370
18
48
1
60
0
100
AcDbSpline
70
4
71
3
72
8
73
4
40
0
40
0
40
0
40
0
40
1
40
1
40
1
40
1
41
1
10
20.7629134391782
20
-0.0349345491032409
30
0
41
1
10
20.3019862305249
20
0.412710881944037
30
0
41
1
10
19.8410590218716
20
0.861057701102908
30
0
41
1
10
19.3801318132183
20
1.23109413434236
30
0
0
SPLINE
5
104
100
AcDbEntity
8
1
62
256
6
ByLayer
370
18
48
1
60
0
100
AcDbSpline
70
4
71
3
72
10
73
6
40
0
40
0
40
0
40
0
40
0.126996915662908
40
0.417997943775273
40
1
40
1
40
1
40
1
41
1
10
10.7920863554004
20
-2.08930490207789
30
0
41
1
10
10.6738909036002
20
-2.12314362320581
30
0
41
1
10
10.2848621184668
20
-2.20611682518782
30
0
41
1
10
9.35416666666666
20
-2.16846099909384
30
0
41
1
10
8.54166666666665
20
-1.71861716923135
30
0
41
1
10
8
20
-1.28563989961711
30
0
0
SPLINE
5
105
100
AcDbEntity
8
1
62
256
6
ByLayer
370
18
48
1
60
0
100
AcDbSpline
70
4
71
3
72
14
73
10
40
0
40
0
40
0
40
0
40
0.107191714481323
40
0.324441637466988
40
0.469274919457432
40
0.614108201447875
40
0.758941483438319
40
0.903774765428763
40
1
40
1
40
1
40
1
41
1
10
15.5075846298527
20
-2.08825770756962
30
0
41
1
10
15.3071397532351
20
-2.14574812593261
30
0
41
1
10
14.7004448766176
20
-2.24553107492403
30
0
41
1
10
13.8229166666666
20
-2.0367159934016
30
0
41
1
10
12.875
20
-1.44031248607553
30
0
41
1
10
12.0625
20
-0.744884886147133
30
0
41
1
10
11.25
20
0.0473101959985911
30
0
41
1
10
10.5283954028276
20
0.745375600445214
30
0
41
1
10
10.0776241389886
20
1.13131955384125
30
0
41
1
10
9.89768620848284
20
1.2732430174714
30
0
0
SPLINE
5
106
100
AcDbEntity
8
1
62
256
6
ByLayer
370
18
48
1
60
0
100
AcDbSpline
70
4
71
3
72
15
73
11
40
0
40
0
40
0
40
0
40
0.5
40
0.5
40
0.624999999999999
40
0.687499999999999
40
0.687499999999999
40
0.749999999999999
40
0.749999999999999
40
1
40
1
40
1
40
1
41
1
10
20.435411804423
20
0.766607528371992
30
0
41
1
10
20.4127475014908
20
0.848690115430117
30
0
41
1
10
20.397185541956
20
0.918558060600589
30
0
41
1
10
20.3862134072794
20
0.991308508903842
30
0
41
1
10
20.3835621969957
20
1.01203222881517
30
0
41
1
10
20.3818729141398
20
1.03110162164199
30
0
41
1
10
20.3809610990508
20
1.04344586972226
30
0
41
1
10
20.3806125123634
20
1.04943792309166
30
0
41
1
10
20.3794117775324
20
1.0782862851062
30
0
41
1
10
20.3801672429229
20
1.09797739534267
30
0
41
1
10
20.3824838652825
20
1.11458669962053
30
0
0
SPLINE
5
107
100
AcDbEntity
8
1
62
256
6
ByLayer
370
18
48
1
60
0
100
AcDbSpline
70
4
71
3
72
16
73
12
40
0
40
0
40
0
40
0
40
0.249999999999998
40
0.499999999999996
40
0.499999999999996
40
0.749999999999994
40
0.749999999999994
40
0.812499999999993
40
0.812499999999993
40
0.874999999999993
40
1
40
1
40
1
40
1
41
1
10
20.7629134391714
20
-0.0349345491102895
30
0
41
1
10
20.7315524623778
20
0.0353685766821741
30
0
41
1
10
20.6707605443108
20
0.174380239829674
30
0
41
1
10
20.6138573867861
20
0.310179022969209
30
0
41
1
10
20.5589735381143
20
0.444309460376957
30
0
41
1
10
20.5325407356739
20
0.51054094618982
30
0
41
1
10
20.500852277174
20
0.592212835996861
30
0
41
1
10
20.4945725863939
20
0.608516999165118
30
0
41
1
10
20.4822093452575
20
0.640860120819838
30
0
41
1
10
20.4639606331062
20
0.688970511684488
30
0
41
1
10
20.4465961426654
20
0.735873798162544
30
0
41
1
10
20.4354118044232
20
0.766607528372361
30
0
0
SPLINE
5
108
100
AcDbEntity
8
1
62
256
6
ByLayer
370
18
48
1
60
0
100
AcDbSpline
70
4
71
3
72
16
73
12
40
0
40
0
40
0
40
0
40
0.125
40
0.125
40
0.25
40
0.25
40
0.5
40
0.5
40
0.75
40
0.75
40
1
40
1
40
1
40
1
41
1
10
20.8131933264802
20
-0.163690316286249
30
0
41
1
10
20.8124281198063
20
-0.160143081181332
30
0
41
1
10
20.8112858635021
20
-0.156018788142944
30
0
41
1
10
20.8084927409675
20
-0.146991769607865
30
0
41
1
10
20.8068216999012
20
-0.142038895028179
30
0
41
1
10
20.8013692733283
20
-0.126692411242061
30
0
41
1
10
20.7971635265326
20
-0.115800388363453
30
0
41
1
10
20.7880981695025
20
-0.0932591089328128
30
0
41
1
10
20.7832678980331
20
-0.0817006642350577
30
0
41
1
10
20.7733223942023
20
-0.0584720032843506
30
0
41
1
10
20.7681826678223
20
-0.0467464192827833
30
0
41
1
10
20.7629134391588
20
-0.03493454911154
30
0
0
SPLINE
5
109
100
AcDbEntity
8
1
62
256
6
ByLayer
370
13
48
1
60
0
100
AcDbSpline
70
4
71
1
72
4
73
2
40
0
40
0
40
1
40
1
41
1
10
8
20
-1.38829694935944
30
0
41
1
10
7.2429834381382
20
-0.779663936611939
30
0
0
SPLINE
5
10A
100
AcDbEntity
8
1
62
256
6
ByLayer
370
18
48
1
60
0
100
AcDbSpline
70
4
71
5
72
12
73
6
40
0
40
0
40
0
40
0
40
0
40
0
40
1
40
1
40
1
40
1
40
1
40
1
41
1
10
8
20
-1.28563989961711
30
0
41
0.98199374833407
10
7.99999999999999
20
-1.30595624094468
30
0
41
0.973193263188016
10
7.99999999999999
20
-1.32743514976372
30
0
41
0.973193263188016
10
7.99999999999999
20
-1.3490178802025
30
0
41
0.981993748334071
10
7.99999999999999
20
-1.36964274178338
30
0
41
1
10
8
20
-1.38829694935944
30
0
0
SPLINE
5
10B
100
AcDbEntity
8
1
62
256
6
ByLayer
370
18
48
1
60
0
100
AcDbSpline
70
4
71
3
72
8
73
4
40
0
40
0
40
0
40
0
40
1
40
1
40
1
40
1
41
1
10
19.6592656100795
20
-0.706412017159806
30
0
41
1
10
19.6633527379417
20
-0.717357563014843
30
0
41
1
10
19.667411060618
20
-0.7283354967538
30
0
41
1
10
19.6714386374433
20
-0.739348000187846
30
0
0
SPLINE
5
10C
100
AcDbEntity
8
1
62
256
6
ByLayer
370
18
48
1
60
0
100
AcDbSpline
70
4
71
3
72
35
73
31
40
0
40
0
40
0
40
0
40
0.124999999999994
40
0.124999999999994
40
0.156249999999992
40
0.156249999999992
40
0.18749999999999
40
0.18749999999999
40
0.24999999999999
40
0.24999999999999
40
0.312499999999989
40
0.312499999999989
40
0.374999999999989
40
0.437499999999989
40
0.437499999999989
40
0.499999999999988
40
0.499999999999988
40
0.562499999999987
40
0.562499999999987
40
0.624999999999987
40
0.624999999999987
40
0.750000000000009
40
0.750000000000009
40
0.812500000000007
40
0.812500000000007
40
0.875000000000005
40
0.875000000000005
40
0.937500000000002
40
0.937500000000002
40
1
40
1
40
1
40
1
41
1
10
19.6592656100795
20
-0.706412017159806
30
0
41
1
10
19.6496315683638
20
-0.680611540902447
30
0
41
1
10
19.6445550557987
20
-0.653882688938978
30
0
41
1
10
19.6432881270559
20
-0.619769037282452
30
0
41
1
10
19.6432945520806
20
-0.612884268739748
30
0
41
1
10
19.6438123951447
20
-0.599239866074953
30
0
41
1
10
19.6443211797795
20
-0.59246891679058
30
0
41
1
10
19.6465564421474
20
-0.572315951514099
30
0
41
1
10
19.6489879344021
20
-0.559093328654114
30
0
41
1
10
19.6556198349159
20
-0.533116576514885
30
0
41
1
10
19.6598605227255
20
-0.520281736804293
30
0
41
1
10
19.6698468470996
20
-0.495747412830895
30
0
41
1
10
19.6813375370654
20
-0.472249418142866
30
0
41
1
10
19.6956803823037
20
-0.450827275181069
30
0
41
1
10
19.711478119114
20
-0.430493890918228
30
0
41
1
10
19.7199441357824
20
-0.421081000417161
30
0
41
1
10
19.7379157040364
20
-0.403764646724909
30
0
41
1
10
19.7474294996098
20
-0.395851044019253
30
0
41
1
10
19.7675478674155
20
-0.381523294284108
30
0
41
1
10
19.7782315534524
20
-0.375078699104677
30
0
41
1
10
19.8111587463182
20
-0.358531137750703
30
0
41
1
10
19.8344065561575
20
-0.351001036073456
30
0
41
1
10
19.871677112087
20
-0.344851911024477
30
0
41
1
10
19.8843002799899
20
-0.343709904119748
30
0
41
1
10
19.9097767905251
20
-0.343143324491848
30
0
41
1
10
19.922667592329
20
-0.343712893899493
30
0
41
1
10
19.9488390873226
20
-0.34650047129594
30
0
41
1
10
19.9622050893734
20
-0.348742687580028
30
0
41
1
10
19.9888341532377
20
-0.354735403477235
30
0
41
1
10
20.0021286865735
20
-0.35847852412536
30
0
41
1
10
20.0154374487888
20
-0.362915632217039
30
0
0
SPLINE
5
10D
100
AcDbEntity
8
1
62
256
6
ByLayer
370
18
48
1
60
0
100
AcDbSpline
70
4
71
3
72
10
73
6
40
0
40
0
40
0
40
0
40
0.334222282006174
40
0.334222282006174
40
1
40
1
40
1
40
1
41
1
10
20.2357389090588
20
-0.440703083897176
30
0
41
1
10
20.2115517679321
20
-0.431577222313536
30
0
41
1
10
20.1872208203462
20
-0.422637041229763
30
0
41
1
10
20.1140781791401
20
-0.396331925354474
30
0
41
1
10
20.0649208467705
20
-0.379413273548209
30
0
41
1
10
20.0154374487887
20
-0.362915632217039
30
0
0
SPLINE
5
10E
100
AcDbEntity
8
1
62
256
6
ByLayer
370
13
48
1
60
0
100
AcDbSpline
70
4
71
5
72
12
73
6
40
0
40
0
40
0
40
0
40
0
40
0
40
1
40
1
40
1
40
1
40
1
40
1
41
0.985139063524031
10
16.0000000000039
20
2.21206631343978
30
0
41
0.938103466254089
10
16.0000000000039
20
1.87852823564622
30
0
41
0.917469774249951
10
16.0000000000039
20
1.5634783100133
30
0
41
0.920254115967233
10
16.0000000000039
20
1.31100692750632
30
0
41
0.946644336983845
10
16.0000000000039
20
1.15544463685317
30
0
41
1
10
16.0000000000039
20
1.11674501110633
30
0
0
SPLINE
5
10F
100
AcDbEntity
8
1
62
256
6
ByLayer
370
18
48
1
60
0
100
AcDbSpline
70
4
71
3
72
11
73
7
40
0
40
0
40
0
40
0
40
0.148835018302941
40
0.489301010981765
40
0.659534007321176
40
1
40
1
40
1
40
1
41
1
10
19.6714386366898
20
-0.739347998127727
30
0
41
1
10
19.4892924244599
20
-0.653441665996439
30
0
41
1
10
18.8904795455633
20
-0.347418099872471
30
0
41
1
10
18.0833333333334
20
0.143462277820078
30
0
41
1
10
17.0416666666667
20
0.715827602797248
30
0
41
1
10
16.4166666666667
20
0.992245765923684
30
0
41
1
10
16
20
1.11674501110747
30
0
0
SPLINE
5
110
100
AcDbEntity
8
1
62
256
6
ByLayer
370
18
48
1
60
0
100
AcDbSpline
70
4
71
3
72
16
73
12
40
0
40
0
40
0
40
0
40
0.125000000000012
40
0.125000000000012
40
0.250000000000025
40
0.250000000000025
40
0.500000000000016
40
0.500000000000016
40
0.750000000000008
40
0.750000000000008
40
1
40
1
40
1
40
1
41
1
10
20.8131933264892
20
-1.86735412124151
30
0
41
1
10
20.8124281198152
20
-1.86433102866778
30
0
41
1
10
20.811285863511
20
-1.86215009873752
30
0
41
1
10
20.8084927409764
20
-1.85892428477635
30
0
41
1
10
20.80682169991
20
-1.85788605414282
30
0
41
1
10
20.801369273337
20
-1.85612000313776
30
0
41
1
10
20.7971635265413
20
-1.85664088556572
30
0
41
1
10
20.7880981695111
20
-1.85962804583974
30
0
41
1
10
20.7832678980417
20
-1.86212022645404
30
0
41
1
10
20.7733223942109
20
-1.86838705773377
30
0
41
1
10
20.7681826678309
20
-1.8721808077178
30
0
41
1
10
20.7629134391673
20
-1.87648670074455
30
0
0
SPLINE
5
111
100
AcDbEntity
8
1
62
256
6
ByLayer
370
18
48
1
60
0
100
AcDbSpline
70
4
71
3
72
13
73
9
40
0
40
0
40
0
40
0
40
0.150914324718888
40
0.29624873937404
40
0.51425036135677
40
0.732251983339499
40
0.950253605322228
40
1
40
1
40
1
40
1
41
1
10
20.2186947926274
20
-2.08995909851416
30
0
41
1
10
19.9374631950849
20
-2.16948082496498
30
0
41
1
10
19.3853982642091
20
-2.23045386805774
30
0
41
0.999999999999999
10
18.4270833333334
20
-1.98962689965961
30
0
41
1
10
17.34375
20
-1.28152659426914
30
0
41
1
10
16.125
20
-0.114984177500418
30
0
41
1
10
15.219796685896
20
0.775508922450768
30
0
41
1
10
14.720843371792
20
1.18776621066374
30
0
41
1
10
14.6281400576881
20
1.26116187157854
30
0
0
SPLINE
5
112
100
AcDbEntity
8
1
62
256
6
ByLayer
370
18
48
1
60
0
100
AcDbSpline
70
4
71
3
72
38
73
34
40
0
40
0
40
0
40
0
40
0.0915960911688809
40
0.0915960911688809
40
0.183192182337762
40
0.183192182337762
40
0.228990227922202
40
0.228990227922202
40
0.274788273506643
40
0.274788273506643
40
0.366384364675523
40
0.366384364675523
40
0.412182410259963
40
0.412182410259963
40
0.457980455844404
40
0.457980455844404
40
0.549576547013285
40
0.549576547013285
40
0.641172638182166
40
0.641172638182166
40
0.686970683766606
40
0.686970683766606
40
0.709869706558827
40
0.709869706558827
40
0.732768729351048
40
0.732768729351048
40
0.824364820519937
40
0.824364820519937
40
0.915960911688827
40
0.915960911688827
40
0.96175895727327
40
0.96175895727327
40
1
40
1
40
1
40
1
41
1
10
5.9084539363692
20
-1.10305296728075
30
0
41
1
10
5.898380469389
20
-1.18707818941502
30
0
41
1
10
5.89202590154486
20
-1.26777377693753
30
0
41
1
10
5.88606401457912
20
-1.42268547879544
30
0
41
1
10
5.88645352938994
20
-1.4969011916634
30
0
41
1
10
5.89169486067919
20
-1.60329042266338
30
0
41
1
10
5.89422047394049
20
-1.63793720648556
30
0
41
1
10
5.9007782379114
20
-1.70550919011143
30
0
41
1
10
5.9047740646138
20
-1.73807009453503
30
0
41
1
10
5.91872877197176
20
-1.83220799243196
30
0
41
1
10
5.93062270192013
20
-1.89025508652426
30
0
41
1
10
5.95198366987222
20
-1.97049975484757
30
0
41
1
10
5.95969624782921
20
-1.99610671142261
30
0
41
1
10
5.97627038018601
20
-2.04504001717487
30
0
41
1
10
5.98513877096582
20
-2.06838252251808
30
0
41
1
10
6.01338086557269
20
-2.13485555154387
30
0
41
1
10
6.03407040601857
20
-2.173725500747
30
0
41
1
10
6.07861291667638
20
-2.2412500306468
30
0
41
1
10
6.10246710772228
20
-2.26990164279184
30
0
41
1
10
6.14032895691895
20
-2.30535643057169
30
0
41
1
10
6.15329364938205
20
-2.31591762712995
30
0
41
1
10
6.17325259498386
20
-2.32985958023144
30
0
41
1
10
6.17999679413904
20
-2.33419163741399
30
0
41
1
10
6.19358269846231
20
-2.34217430420355
30
0
41
1
10
6.20043353946636
20
-2.34583188165161
30
0
41
1
10
6.23497994579444
20
-2.36247795465653
30
0
41
1
10
6.26355058127365
20
-2.37055679324678
30
0
41
1
10
6.32265026394455
20
-2.37666364808567
30
0
41
1
10
6.35317821803704
20
-2.37469029172971
30
0
41
1
10
6.4005486421575
20
-2.36422871146976
30
0
41
1
10
6.41661408985209
20
-2.35948415009301
30
0
41
1
10
6.44655806215184
20
-2.34847008436287
30
0
41
1
10
6.46027862965576
20
-2.342612609317
30
0
41
1
10
6.47409788778563
20
-2.33593159180686
30
0
0
SPLINE
5
113
100
AcDbEntity
8
1
62
256
6
ByLayer
370
18
48
1
60
0
100
AcDbSpline
70
4
71
3
72
45
73
41
40
0
40
0
40
0
40
0
40
0.12500000000001
40
0.12500000000001
40
0.25000000000002
40
0.25000000000002
40
0.312500000000029
40
0.312500000000029
40
0.375000000000039
40
0.375000000000039
40
0.500000000000067
40
0.500000000000067
40
0.562500000000077
40
0.562500000000077
40
0.625000000000086
40
0.625000000000086
40
0.687500000000095
40
0.687500000000095
40
0.718750000000094
40
0.718750000000094
40
0.750000000000093
40
0.750000000000093
40
0.812500000000079
40
0.812500000000079
40
0.843750000000066
40
0.843750000000066
40
0.875000000000052
40
0.875000000000052
40
0.890625000000046
40
0.890625000000046
40
0.906250000000039
40
0.921875000000032
40
0.921875000000032
40
0.937500000000026
40
0.937500000000026
40
0.968750000000013
40
0.968750000000013
40
0.984375000000006
40
0.984375000000006
40
1
40
1
40
1
40
1
41
1
10
7.30402945464624
20
-1.55606234353775
30
0
41
1
10
7.25353444973544
20
-1.51829857769536
30
0
41
1
10
7.20244100207273
20
-1.48008409510663
30
0
41
1
10
7.09841184261001
20
-1.40350857139643
30
0
41
1
10
7.04548004784249
20
-1.36514320832751
30
0
41
1
10
6.96410774552663
20
-1.30820960661069
30
0
41
1
10
6.93662444992532
20
-1.28931711514829
30
0
41
1
10
6.88101339483012
20
-1.25199448345867
30
0
41
1
10
6.85290950939458
20
-1.23358029328992
30
0
41
1
10
6.76753920705519
20
-1.17936149374361
30
0
41
1
10
6.70923552568166
20
-1.14454730608185
30
0
41
1
10
6.61878484650703
20
-1.09586421228212
30
0
41
1
10
6.5881316933945
20
-1.08023219434932
30
0
41
1
10
6.52557461848076
20
-1.05055935518223
30
0
41
1
10
6.49367422940333
20
-1.03651336830075
30
0
41
1
10
6.42824170812605
20
-1.01061614430131
30
0
41
1
10
6.39496391887613
20
-0.998877712725545
30
0
41
1
10
6.34412333040521
20
-0.983773648849137
30
0
41
1
10
6.32701459946327
20
-0.979153777589545
30
0
41
1
10
6.29241945109976
20
-0.970892943315619
30
0
41
1
10
6.27502139138724
20
-0.967274669786349
30
0
41
1
10
6.22272196776277
20
-0.958253667077571
30
0
41
1
10
6.18763053209364
20
-0.954589297341215
30
0
41
1
10
6.13448427176701
20
-0.954441367932048
30
0
41
1
10
6.11668303446822
20
-0.955293455710006
30
0
41
1
10
6.08084341335683
20
-0.959484239404759
30
0
41
1
10
6.06324447360228
20
-0.962776566740615
30
0
41
1
10
6.03750245555
20
-0.97006439808078
30
0
41
1
10
6.02898644294342
20
-0.972905760678486
30
0
41
1
10
6.01243738741493
20
-0.979429941060459
30
0
41
1
10
5.9964425193613
20
-0.986757617416316
30
0
41
1
10
5.98166391459759
20
-0.995838067640392
30
0
41
1
10
5.9675703114375
20
-1.0058986291119
30
0
41
1
10
5.96081135609563
20
-1.01148075940691
30
0
41
1
10
5.94236304013802
20
-1.02924496724563
30
0
41
1
10
5.93232358078168
20
-1.04249862708531
30
0
41
1
10
5.92063864004985
20
-1.06442714951729
30
0
41
1
10
5.91736042891407
20
-1.07199827697065
30
0
41
1
10
5.91204204868433
20
-1.08732797068532
30
0
41
1
10
5.9099782656281
20
-1.09513040903241
30
0
41
1
10
5.90845393636758
20
-1.10305296728072
30
0
0
SPLINE
5
114
100
AcDbEntity
8
1
62
256
6
ByLayer
370
18
48
1
60
0
100
AcDbSpline
70
4
71
3
72
8
73
4
40
0
40
0
40
0
40
0
40
1
40
1
40
1
40
1
41
1
10
7.24298343813825
20
-0.779663936611939
30
0
41
1
10
7.26335984541635
20
-0.800670857360899
30
0
41
1
10
7.28370525411464
20
-0.821597841728135
30
0
41
1
10
7.30402945464624
20
-0.842435791535678
30
0
0
SPLINE
5
115
100
AcDbEntity
8
1
62
256
6
ByLayer
370
18
48
1
60
0
100
AcDbSpline
70
4
71
3
72
16
73
12
40
0
40
0
40
0
40
0
40
0.124999999999988
40
0.124999999999988
40
0.249999999999975
40
0.249999999999975
40
0.499999999999984
40
0.499999999999984
40
0.749999999999992
40
0.749999999999992
40
1
40
1
40
1
40
1
41
1
10
7.03146361505077
20
-0.511447457505056
30
0
41
1
10
7.03763185017468
20
-0.52445862964359
30
0
41
1
10
7.04476411284833
20
-0.536894340844867
30
0
41
1
10
7.05987561341578
20
-0.561239707802969
30
0
41
1
10
7.06789960608302
20
-0.573137384832251
30
0
41
1
10
7.0927782920709
20
-0.608211593489528
30
0
41
1
10
7.1103945870243
20
-0.630739703811344
30
0
41
1
10
7.14673598789807
20
-0.674812704192789
30
0
41
1
10
7.16549344741659
20
-0.696343010036713
30
0
41
1
10
7.20372301701224
20
-0.738572291692691
30
0
41
1
10
7.22321161454852
20
-0.7592802439911
30
0
41
1
10
7.2429834381382
20
-0.779663936611939
30
0
0
SPLINE
5
116
100
AcDbEntity
8
1
62
256
6
ByLayer
370
18
48
1
60
0
100
AcDbSpline
70
4
71
3
72
45
73
41
40
0
40
0
40
0
40
0
40
0.124999999999999
40
0.124999999999999
40
0.249999999999997
40
0.249999999999997
40
0.312499999999996
40
0.312499999999996
40
0.374999999999996
40
0.374999999999996
40
0.499999999999994
40
0.499999999999994
40
0.562499999999999
40
0.562499999999999
40
0.625000000000003
40
0.625000000000003
40
0.687500000000008
40
0.687500000000008
40
0.71875000000001
40
0.71875000000001
40
0.750000000000012
40
0.750000000000012
40
0.812500000000017
40
0.812500000000017
40
0.843750000000025
40
0.843750000000025
40
0.875000000000034
40
0.875000000000034
40
0.890625000000032
40
0.890625000000032
40
0.906250000000031
40
0.921875000000029
40
0.921875000000029
40
0.937500000000028
40
0.937500000000028
40
0.968750000000016
40
0.968750000000016
40
0.984375000000008
40
0.984375000000008
40
1
40
1
40
1
40
1
41
1
10
7.30402945464624
20
2.33188806262714
30
0
41
1
10
7.25353444973544
20
2.34136920383153
30
0
41
1
10
7.20244100207265
20
2.3491483805517
30
0
41
1
10
7.09841184260995
20
2.36152314154796
30
0
41
1
10
7.04548004784243
20
2.36611781868032
30
0
41
1
10
6.96410774552663
20
2.37087567956982
30
0
41
1
10
6.93662444992532
20
2.37210774876016
30
0
41
1
10
6.88101339483018
20
2.37391515620123
30
0
41
1
10
6.85290950939458
20
2.37449046417493
30
0
41
1
10
6.76753920705522
20
2.37535323791425
30
0
41
1
10
6.70923552568172
20
2.37476893010017
30
0
41
1
10
6.61878484650708
20
2.37276989074226
30
0
41
1
10
6.58813169339459
20
2.37191827934751
30
0
41
1
10
6.52557461848079
20
2.36997998138688
30
0
41
1
10
6.49367422940338
20
2.36889257822378
30
0
41
1
10
6.42824170812605
20
2.36665555209379
30
0
41
1
10
6.39496391887616
20
2.36551581778161
30
0
41
1
10
6.34412333040524
20
2.36395354420003
30
0
41
1
10
6.32701459946327
20
2.36345723416858
30
0
41
1
10
6.29241945109979
20
2.36254777642779
30
0
41
1
10
6.27502139138724
20
2.36213717651202
30
0
41
1
10
6.22272196776277
20
2.36109751939659
30
0
41
1
10
6.18763053209364
20
2.36065287634551
30
0
41
1
10
6.13448427176698
20
2.3606351387688
30
0
41
1
10
6.1166830344682
20
2.36073819988766
30
0
41
1
10
6.08084341335683
20
2.36123492534483
30
0
41
1
10
6.06324447360225
20
2.36162389089293
30
0
41
1
10
6.03750245555
20
2.3624520654144
30
0
41
1
10
6.02898644294345
20
2.36277085416134
30
0
41
1
10
6.01243738741488
20
2.36348552643472
30
0
41
1
10
5.99644223107998
20
2.36427320192743
30
0
41
1
10
5.98166391459745
20
2.36519558891385
30
0
41
1
10
5.96757031143733
20
2.36617710172712
30
0
41
1
10
5.96081135609541
20
2.36670275510886
30
0
41
1
10
5.94236304013768
20
2.36829146127198
30
0
41
1
10
5.93232358078129
20
2.36937433556258
30
0
41
1
10
5.92063864004948
20
2.37089920706052
30
0
41
1
10
5.9173604289137
20
2.37138440070564
30
0
41
1
10
5.91204204868404
20
2.37227348528259
30
0
41
1
10
5.90997826562784
20
2.37268049208728
30
0
41
1
10
5.90845393636741
20
2.37304353366648
30
0
0
SPLINE
5
117
100
AcDbEntity
8
1
62
256
6
ByLayer
370
18
48
1
60
0
100
AcDbSpline
70
4
71
3
72
50
73
46
40
0
40
0
40
0
40
0
40
0.0422522993448206
40
0.0422522993448206
40
0.106102146055165
40
0.106102146055165
40
0.138027069410337
40
0.138027069410337
40
0.169951992765509
40
0.169951992765509
40
0.233801839475854
40
0.233801839475854
40
0.265726762831026
40
0.265726762831026
40
0.297651686186198
40
0.297651686186198
40
0.361501532896541
40
0.361501532896541
40
0.425351379606885
40
0.425351379606885
40
0.457276302962057
40
0.457276302962057
40
0.473238764639643
40
0.473238764639643
40
0.489201226317228
40
0.489201226317228
40
0.553051073027574
40
0.553051073027574
40
0.61690091973792
40
0.61690091973792
40
0.648825843093093
40
0.648825843093093
40
0.680750766448266
40
0.680750766448266
40
0.744600613158612
40
0.744600613158612
40
0.808450459868958
40
0.808450459868958
40
0.840375383224131
40
0.840375383224131
40
0.872300306579304
40
0.872300306579304
40
0.936150153289652
40
0.936150153289652
40
1
40
1
40
1
40
1
41
1
10
5.89949487526798
20
2.37500305198051
30
0
41
1
10
5.89446753595038
20
2.37501478758691
30
0
41
1
10
5.89101758169122
20
2.37255746504522
30
0
41
1
10
5.88606401457855
20
2.36030249799561
30
0
41
1
10
5.88645352938926
20
2.34739424773534
30
0
41
1
10
5.89169486067834
20
2.31961601119519
30
0
41
1
10
5.89422047393958
20
2.30894740716499
30
0
41
1
10
5.90077823791046
20
2.28474424490094
30
0
41
1
10
5.90477406461281
20
2.27134129671461
30
0
41
1
10
5.91872877197071
20
2.22735087756794
30
0
41
1
10
5.93062270191911
20
2.19299416983131
30
0
41
1
10
5.9519836698712
20
2.13413713638789
30
0
41
1
10
5.95969624782822
20
2.11329448668769
30
0
41
1
10
5.9762703801851
20
2.06915880916588
30
0
41
1
10
5.98513877096491
20
2.04584789605772
30
0
41
1
10
6.01338086557186
20
1.97230508559647
30
0
41
1
10
6.03407040601783
20
1.91929227912195
30
0
41
1
10
6.07861291667575
20
1.80571592890709
30
0
41
1
10
6.10246710772174
20
1.74515026105868
30
0
41
1
10
6.14032895691852
20
1.64868348017529
30
0
41
1
10
6.15329364938165
20
1.61558821040055
30
0
41
1
10
6.17325259498352
20
1.56452326034457
30
0
41
1
10
6.17999679413873
20
1.54725260739701
30
0
41
1
10
6.19358269846202
20
1.51244002035332
30
0
41
1
10
6.20043353946608
20
1.49487473151788
30
0
41
1
10
6.23497994579424
20
1.40626829866059
30
0
41
1
10
6.26355058127348
20
1.33289505561063
30
0
41
1
10
6.32265026394447
20
1.18142252465964
30
0
41
1
10
6.35317821803699
20
1.10332219932317
30
0
41
1
10
6.4005486421575
20
0.982678030459056
30
0
41
1
10
6.41661408985209
20
0.941850119452965
30
0
41
1
10
6.44925069826667
20
0.859143166560699
30
0
41
1
10
6.46570511495713
20
0.81755993385471
30
0
41
1
10
6.5154962391814
20
0.692154149069893
30
0
41
1
10
6.54924786167499
20
0.607672771779249
30
0
41
1
10
6.61811017760328
20
0.437124022364713
30
0
41
1
10
6.65322963537233
20
0.351059710629954
30
0
41
1
10
6.7071998337446
20
0.220884252808162
30
0
41
1
10
6.72540538486325
20
0.177312230669514
30
0
41
1
10
6.76229689166905
20
0.0898219019885289
30
0
41
1
10
6.78089752052298
20
0.0461072460999219
30
0
41
1
10
6.83700484009614
20
-0.0844075855775088
30
0
41
1
10
6.87490619369791
20
-0.170798319855208
30
0
41
1
10
6.95205889902428
20
-0.342204658060609
30
0
41
1
10
6.99130763610549
20
-0.427221314314068
30
0
41
1
10
7.03146361505071
20
-0.511447457505056
30
0
0
SPLINE
5
118
100
AcDbEntity
8
1
62
256
6
ByLayer
370
18
48
1
60
0
100
AcDbSpline
70
4
71
1
72
4
73
2
40
0
40
0
40
1
40
1
41
1
10
8
20
-1.28563989961711
30
0
41
1
10
7.03146361505071
20
-0.511447457505056
30
0
0
SPLINE
5
119
100
AcDbEntity
8
1
62
256
6
ByLayer
370
13
48
1
60
0
100
AcDbSpline
70
4
71
5
72
12
73
6
40
0
40
0
40
0
40
0
40
0
40
0
40
1
40
1
40
1
40
1
40
1
40
1
41
1
10
8
20
1.32509909659328
30
0
41
0.968192481627312
10
8
20
0.922997653827299
30
0
41
0.952921046331612
10
7.99999999999999
20
0.414814643919689
30
0
41
0.952921046331612
10
7.99999999999999
20
-0.155817809536432
30
0
41
0.968192481627312
10
8
20
-0.739567568506366
30
0
41
1
10
8
20
-1.28563989961711
30
0
0
SPLINE
5
11A
100
AcDbEntity
8
1
62
256
6
ByLayer
370
18
48
1
60
0
100
AcDbSpline
70
4
71
1
72
4
73
2
40
0
40
0
40
1
40
1
41
1
10
8
20
1.32509909659328
30
0
41
1
10
5.90845393637477
20
2.37304353366193
30
0
0
SPLINE
5
11B
100
AcDbEntity
8
1
62
256
6
ByLayer
370
18
48
1
60
0
100
AcDbSpline
70
4
71
3
72
8
73
4
40
0
40
0
40
0
40
0
40
1
40
1
40
1
40
1
41
1
10
20.9852618805896
20
-0.838724140475136
30
0
41
1
10
20.9621493980761
20
-0.660904765122609
30
0
41
1
10
20.93903368744
20
-0.483010224326222
30
0
41
1
10
20.9159156193334
20
-0.305060790838809
30
0
0
SPLINE
5
11C
100
AcDbEntity
8
1
62
256
6
ByLayer
370
18
48
1
60
0
100
AcDbSpline
70
4
71
3
72
18
73
14
40
0
40
0
40
0
40
0
40
0.249999999999987
40
0.249999999999987
40
0.374999999999989
40
0.374999999999989
40
0.499999999999991
40
0.499999999999991
40
0.624999999999993
40
0.624999999999993
40
0.749999999999996
40
0.749999999999996
40
1
40
1
40
1
40
1
41
1
10
20.9159156193333
20
-0.305060790838809
30
0
41
1
10
20.9112987977838
20
-0.304255695327726
30
0
41
1
10
20.9054971154239
20
-0.300648677085206
30
0
41
1
10
20.8954221961034
20
-0.291992750003033
30
0
41
1
10
20.8918322273695
20
-0.288559613042025
30
0
41
1
10
20.8842304306595
20
-0.28069573924455
30
0
41
1
10
20.8802312924985
20
-0.276276606672695
30
0
41
1
10
20.8719529740409
20
-0.266654289232406
30
0
41
1
10
20.8676629433878
20
-0.261439850116915
30
0
41
1
10
20.8588131164877
20
-0.250289886526019
30
0
41
1
10
20.8542436738604
20
-0.244340976916504
30
0
41
1
10
20.8402699616013
20
-0.225648919724137
30
0
41
1
10
20.8305864151555
20
-0.212050251546486
30
0
41
1
10
20.8206043558083
20
-0.197528378551397
30
0
0
SPLINE
5
11D
100
AcDbEntity
8
1
62
256
6
ByLayer
370
18
48
1
60
0
100
AcDbSpline
70
4
71
3
72
8
73
4
40
0
40
0
40
0
40
0
40
1
40
1
40
1
40
1
41
1
10
20.6852557490113
20
2.29989797283724
30
0
41
1
10
20.7081006013847
20
2.27853857527038
30
0
41
1
10
20.7287590362711
20
2.25459858107519
30
0
41
1
10
20.7469909741249
20
2.22841806359514
30
0
0
SPLINE
5
11E
100
AcDbEntity
8
1
62
256
6
ByLayer
370
13
48
1
60
0
100
AcDbSpline
70
4
71
5
72
12
73
6
40
0
40
0
40
0
40
0
40
0
40
0
40
1
40
1
40
1
40
1
40
1
40
1
41
1
10
8.00000000004542
20
2.04946989898016
30
0
41
0.945006412656335
10
8.0000000000454
20
1.92244894304288
30
0
41
0.91939980314008
10
8.00000000004542
20
1.76245241217203
30
0
41
0.91939980314008
10
8.00000000004542
20
1.59324612269545
30
0
41
0.945006412656335
10
8.0000000000454
20
1.43990129802765
30
0
41
1
10
8.00000000004542
20
1.32509909657051
30
0
0
SPLINE
5
11F
100
AcDbEntity
8
1
62
256
6
ByLayer
370
18
48
1
60
0
100
AcDbSpline
70
4
71
3
72
11
73
7
40
0
40
0
40
0
40
0
40
0.0243201503989986
40
0.268240112799249
40
0.512160075199499
40
1
40
1
40
1
40
1
41
1
10
11.3310106807361
20
-1.01889267142192
30
0
41
1
10
11.3040071204907
20
-1.00182636350857
30
0
41
1
10
11.006170226912
20
-0.811074734190243
30
0
41
1
10
10.4375
20
-0.395756331431187
30
0
41
1
10
9.35416666666666
20
0.45629647924099
30
0
41
1
10
8.54166666666665
20
1.05370341473341
30
0
41
1
10
8
20
1.32509909659328
30
0
0
SPLINE
5
120
100
AcDbEntity
8
1
62
256
6
ByLayer
370
18
48
1
60
0
100
AcDbSpline
70
4
71
3
72
20
73
16
40
0
40
0
40
0
40
0
40
0.180328072694327
40
0.180328072694327
40
0.38524605452074
40
0.38524605452074
40
0.48770504543395
40
0.48770504543395
40
0.59016403634716
40
0.59016403634716
40
0.79508201817358
40
0.79508201817358
40
0.89754100908679
40
0.89754100908679
40
1
40
1
40
1
40
1
41
1
10
19.2997301828527
20
1.61316558650319
30
0
41
1
10
19.3863755112823
20
1.67180762140868
30
0
41
1
10
19.4727348850979
20
1.72514880662496
30
0
41
1
10
19.6575517867461
20
1.83039902406495
30
0
41
1
10
19.7560234620949
20
1.88111446107987
30
0
41
1
10
19.9044219272242
20
1.95029965489621
30
0
41
1
10
19.9540460299983
20
1.972218299736
30
0
41
1
10
20.0533604069514
20
2.01369023612833
30
0
41
1
10
20.1029816027915
20
2.03321700875912
30
0
41
1
10
20.2518176630501
20
2.08823140857061
30
0
41
1
10
20.3510040859999
20
2.12018676130327
30
0
41
1
10
20.4999996627913
20
2.16073298265005
30
0
41
1
10
20.5496717599099
20
2.17299934431384
30
0
41
1
10
20.6488044671288
20
2.19481763815733
30
0
41
1
10
20.6983026360107
20
2.20438184622208
30
0
41
1
10
20.7477651150728
20
2.21246740398266
30
0
0
SPLINE
5
121
100
AcDbEntity
8
1
62
256
6
ByLayer
370
18
48
1
60
0
100
AcDbSpline
70
4
71
3
72
8
73
4
40
0
40
0
40
0
40
0
40
1
40
1
40
1
40
1
41
1
10
20.7469909741334
20
2.22841806359719
30
0
41
1
10
20.7473532794704
20
2.22311410174751
30
0
41
1
10
20.7476125752273
20
2.2177973700172
30
0
41
1
10
20.7477651150591
20
2.2124674039797
30
0
0
SPLINE
5
122
100
AcDbEntity
8
1
62
256
6
ByLayer
370
18
48
1
60
0
100
AcDbSpline
70
4
71
3
72
8
73
4
40
0
40
0
40
0
40
0
40
1
40
1
40
1
40
1
41
1
10
20.9830994733837
20
-0.80643992013151
30
0
41
1
10
20.9839334377945
20
-0.818055211622408
30
0
41
1
10
20.9846508406179
20
-0.828790954935528
30
0
41
1
10
20.9852618805896
20
-0.838724140475136
30
0
0
SPLINE
5
123
100
AcDbEntity
8
1
62
256
6
ByLayer
370
18
48
1
60
0
100
AcDbSpline
70
4
71
3
72
24
73
20
40
0
40
0
40
0
40
0
40
0.125000000000005
40
0.125000000000005
40
0.250000000000011
40
0.250000000000011
40
0.375000000000016
40
0.375000000000016
40
0.500000000000022
40
0.500000000000022
40
0.562500000000024
40
0.562500000000024
40
0.625000000000027
40
0.625000000000027
40
0.750000000000018
40
0.750000000000018
40
0.875000000000008
40
0.875000000000008
40
1
40
1
40
1
40
1
41
1
10
20.6990923241359
20
-0.837110111319475
30
0
41
1
10
20.7197770799469
20
-0.8458958408917
30
0
41
1
10
20.7392922308752
20
-0.85351485699087
30
0
41
1
10
20.7765604373051
20
-0.866631533708301
30
0
41
1
10
20.7943864861227
20
-0.872130341935048
30
0
41
1
10
20.8275413620332
20
-0.880757493148792
30
0
41
1
10
20.8430394938499
20
-0.883913051641883
30
0
41
1
10
20.8714102540469
20
-0.887832515877335
30
0
41
1
10
20.884391441385
20
-0.888646232095823
30
0
41
1
10
20.9022656298001
20
-0.888312570022322
30
0
41
1
10
20.9079685014124
20
-0.887935077896287
30
0
41
1
10
20.9187819677105
20
-0.886662515169263
30
0
41
1
10
20.9238913709174
20
-0.885771566212583
30
0
41
1
10
20.9383731398459
20
-0.882359157399378
30
0
41
1
10
20.9469088313277
20
-0.879087121631471
30
0
41
1
10
20.961687203462
20
-0.870628660456617
30
0
41
1
10
20.9679670231149
20
-0.865425624528598
30
0
41
1
10
20.9782649807208
20
-0.853338866076683
30
0
41
1
10
20.9823050383149
20
-0.84644979202298
30
0
41
1
10
20.9852618805896
20
-0.838724140475136
30
0
0
SPLINE
5
124
100
AcDbEntity
8
1
62
256
6
ByLayer
370
18
48
1
60
0
100
AcDbSpline
70
4
71
3
72
8
73
4
40
0
40
0
40
0
40
0
40
1
40
1
40
1
40
1
41
1
10
20.6968910627529
20
-0.836172631095963
30
0
41
1
10
20.6976244969711
20
-0.836485825629296
30
0
41
1
10
20.6983582517869
20
-0.836798318364117
30
0
41
1
10
20.6990923241359
20
-0.837110111319447
30
0
0
SPLINE
5
125
100
AcDbEntity
8
1
62
256
6
ByLayer
370
18
48
1
60
0
100
AcDbSpline
70
4
71
3
72
34
73
30
40
0
40
0
40
0
40
0
40
0.161505175216845
40
0.161505175216845
40
0.242257762825268
40
0.242257762825268
40
0.323010350433691
40
0.323010350433691
40
0.363386644237908
40
0.363386644237908
40
0.403762938042124
40
0.403762938042124
40
0.484515525650558
40
0.484515525650558
40
0.565268113258991
40
0.565268113258991
40
0.646020700867423
40
0.646020700867423
40
0.726773288475856
40
0.726773288475856
40
0.807525876084289
40
0.807525876084289
40
0.888278463692722
40
0.888278463692722
40
0.928654757496938
40
0.928654757496938
40
0.969031051301154
40
0.969031051301154
40
1
40
1
40
1
40
1
41
1
10
16
20
2.21065196784701
30
0
41
1
10
15.9431964889729
20
2.20078448526124
30
0
41
1
10
15.8863028804092
20
2.19150573781522
30
0
41
1
10
15.8012123265225
20
2.17275133179339
30
0
41
1
10
15.7728833841804
20
2.1656870737402
30
0
41
1
10
15.716239525528
20
2.14859257026618
30
0
41
1
10
15.6879288231374
20
2.13853928253204
30
0
41
1
10
15.6453043908454
20
2.12012072788519
30
0
41
1
10
15.6310679379469
20
2.11342647439872
30
0
41
1
10
15.602484365774
20
2.09881882640983
30
0
41
1
10
15.5881475364354
20
2.09090459085539
30
0
41
1
10
15.5455814584493
20
2.06575193321524
30
0
41
1
10
15.5175613896395
20
2.04698416672039
30
0
41
1
10
15.4615569850738
20
2.00639427959979
30
0
41
1
10
15.4335682661843
20
1.98458720793485
30
0
41
1
10
15.3769781064329
20
1.93887154612861
30
0
41
1
10
15.3483789714206
20
1.91496054168076
30
0
41
1
10
15.2899846247836
20
1.86578512177815
30
0
41
1
10
15.2605227277307
20
1.84080101904465
30
0
41
1
10
15.2007578198027
20
1.79095216144555
30
0
41
1
10
15.170423324842
20
1.76604523809942
30
0
41
1
10
15.1082813175094
20
1.71709288411375
30
0
41
1
10
15.0764729226176
20
1.69304975385714
30
0
41
1
10
15.027223339065
20
1.65829697161911
30
0
41
1
10
15.0105170792884
20
1.64691013710214
30
0
41
1
10
14.9766806198282
20
1.6247958041005
30
0
41
1
10
14.9595941812885
20
1.61409542979788
30
0
41
1
10
14.9290680053334
20
1.59589999161983
30
0
41
1
10
14.9157059086314
20
1.58823948885518
30
0
41
1
10
14.902224009947
20
1.58083498203274
30
0
0
SPLINE
5
126
100
AcDbEntity
8
1
62
256
6
ByLayer
370
18
48
1
60
0
100
AcDbSpline
70
4
71
3
72
44
73
40
40
0
40
0
40
0
40
0
40
0.0854773856705664
40
0.0854773856705664
40
0.106846732088207
40
0.106846732088207
40
0.128216078505848
40
0.128216078505848
40
0.17095477134113
40
0.17095477134113
40
0.256432157011693
40
0.256432157011693
40
0.341909542682256
40
0.341909542682256
40
0.384648235517538
40
0.384648235517538
40
0.42738692835282
40
0.42738692835282
40
0.512864314023386
40
0.512864314023386
40
0.598341699693953
40
0.598341699693953
40
0.641080392529236
40
0.641080392529236
40
0.683819085364519
40
0.683819085364519
40
0.769296471035086
40
0.769296471035086
40
0.81203516387037
40
0.81203516387037
40
0.854773856705655
40
0.854773856705655
40
0.89751254954094
40
0.89751254954094
40
0.918881895958581
40
0.918881895958581
40
0.940251242376222
40
0.940251242376222
40
1
40
1
40
1
40
1
41
1
10
16.0000000000038
20
2.21349903178316
30
0
41
1
10
16.0994438992467
20
2.23076151920884
30
0
41
1
10
16.1984837898465
20
2.24161069587109
30
0
41
1
10
16.3223342386889
20
2.24681944611635
30
0
41
1
10
16.3471073253253
20
2.24744313984613
30
0
41
1
10
16.3966758407327
20
2.24784005933341
30
0
41
1
10
16.4214669128269
20
2.24761234865323
30
0
41
1
10
16.4956561867931
20
2.24563944784336
30
0
41
1
10
16.5449501173731
20
2.24260683921489
30
0
41
1
10
16.6925451414259
20
2.22825113886998
30
0
41
1
10
16.7905532029609
20
2.2116638498741
30
0
41
1
10
16.9870745542011
20
2.16375013118713
30
0
41
1
10
17.0855955699801
20
2.13241160195187
30
0
41
1
10
17.2347904795937
20
2.07409962963948
30
0
41
1
10
17.2843912932184
20
2.05290227110291
30
0
41
1
10
17.3833585914118
20
2.00738553114374
30
0
41
1
10
17.4327501546282
20
1.98308482962131
30
0
41
1
10
17.5808339855866
20
1.90627644049832
30
0
41
1
10
17.6794414037171
20
1.84992121445987
30
0
41
1
10
17.876998532706
20
1.72859526271117
30
0
41
1
10
17.9759312244773
20
1.66359331837498
30
0
41
1
10
18.1249668066746
20
1.55955922062111
30
0
41
1
10
18.174778937893
20
1.52376668678926
30
0
41
1
10
18.2741372693665
20
1.45041947339587
30
0
41
1
10
18.3237506134812
20
1.412819544115
30
0
41
1
10
18.472498730463
20
1.29733149420448
30
0
41
1
10
18.5715378491537
20
1.21679396226074
30
0
41
1
10
18.7203071008765
20
1.09086061400009
30
0
41
1
10
18.7698648600226
20
1.04806809194656
30
0
41
1
10
18.8687694423969
20
0.960996290529408
30
0
41
1
10
18.9181520705205
20
0.916684610703328
30
0
41
1
10
19.0169518562185
20
0.826397279443455
30
0
41
1
10
19.0663687114642
20
0.780418467880367
30
0
41
1
10
19.1407294632757
20
0.710122532207265
30
0
41
1
10
19.1655226200392
20
0.686500540358111
30
0
41
1
10
19.2149575196549
20
0.639095277812487
30
0
41
1
10
19.239628136864
20
0.615285189090741
30
0
41
1
10
19.3331600509629
20
0.524565294842262
30
0
41
1
10
19.4018343956308
20
0.457077676723628
30
0
41
1
10
19.4705096007444
20
0.389236779551681
30
0
0
SPLINE
5
127
100
AcDbEntity
8
1
62
256
6
ByLayer
370
18
48
1
60
0
100
AcDbSpline
70
4
71
3
72
12
73
8
40
0
40
0
40
0
40
0
40
0.228268251508041
40
0.459941129064026
40
0.691614006620011
40
0.923286884175997
40
1
40
1
40
1
40
1
41
1
10
14.4880596352359
20
0.123778221077458
30
0
41
1
10
14.2212064234906
20
0.331209710952493
30
0
41
1
10
13.683519878412
20
0.744280919537118
30
0
41
1
10
12.875
20
1.26698074602999
30
0
41
1
10
12.0625
20
1.63280752491735
30
0
41
1
10
11.4311531381884
20
1.75154896450866
30
0
41
1
10
11.0706396097102
20
1.75158515630088
30
0
41
1
10
10.9809594145653
20
1.7474652173382
30
0
0
SPLINE
5
128
100
AcDbEntity
8
1
62
256
6
ByLayer
370
18
48
1
60
0
100
AcDbSpline
70
4
71
3
72
24
73
20
40
0
40
0
40
0
40
0
40
0.104343771674839
40
0.104343771674839
40
0.253619809729056
40
0.253619809729056
40
0.328257828756155
40
0.328257828756155
40
0.402895847783253
40
0.402895847783253
40
0.552171885837428
40
0.552171885837428
40
0.701447923891602
40
0.701447923891602
40
0.776085942918701
40
0.776085942918701
40
0.850723961945801
40
0.850723961945801
40
1
40
1
40
1
40
1
41
1
10
15.2035256855185
20
-0.0874152610496424
30
0
41
1
10
15.1824296521556
20
-0.0733308837646973
30
0
41
1
10
15.1610709154908
20
-0.0600133270758647
30
0
41
1
10
15.1082813175037
20
-0.0295626208302622
30
0
41
1
10
15.0764729226117
20
-0.0132538117204888
30
0
41
1
10
15.0272233390593
20
0.0087696911363082
30
0
41
1
10
15.0105170792829
20
0.0157176582077057
30
0
41
1
10
14.9766806198221
20
0.0287515992547753
30
0
41
1
10
14.9595941812822
20
0.0348228456407753
30
0
41
1
10
14.9077672981213
20
0.0517859180737901
30
0
41
1
10
14.8724575985828
20
0.0614141658928133
30
0
41
1
10
14.8000286543131
20
0.0780049993876162
30
0
41
1
10
14.7629065695696
20
0.0849676082262931
30
0
41
1
10
14.7057286257141
20
0.0942038414533783
30
0
41
1
10
14.6864213251771
20
0.0970842304863595
30
0
41
1
10
14.6473054921419
20
0.102612778171107
30
0
41
1
10
14.6275664116771
20
0.105249216141772
30
0
41
1
10
14.5681875161589
20
0.113036265073589
30
0
41
1
10
14.5282457194962
20
0.118106115888594
30
0
41
1
10
14.4880596352359
20
0.123778221077487
30
0
0
SPLINE
5
129
100
AcDbEntity
8
1
62
256
6
ByLayer
370
13
48
1
60
0
100
AcDbSpline
70
4
71
3
72
14
73
10
40
0
40
0
40
0
40
0
40
0.16636068220701
40
0.389165567206862
40
0.537702157206762
40
0.686238747206663
40
0.834775337206564
40
0.983311927206466
40
1
40
1
40
1
40
1
41
1
10
15.8162483666872
20
-2.00972925500156
30
0
41
1
10
15.5129155777915
20
-2.14731887338868
30
0
41
1
10
14.8033327888957
20
-2.34182037422502
30
0
41
1
10
13.8229166666667
20
-2.13509716740114
30
0
41
1
10
12.875
20
-1.54566045224581
30
0
41
1
10
12.0625
20
-0.842637238108267
30
0
41
1
10
11.25
20
-0.0302365278617174
30
0
41
1
10
10.6779052322063
20
0.544453855475609
30
0
41
1
10
10.3766437977459
20
0.8259531948774
30
0
41
1
10
10.3462156966189
20
0.854148549758094
30
0
0
SPLINE
5
12A
100
AcDbEntity
8
1
62
256
6
ByLayer
370
18
48
1
60
0
100
AcDbSpline
70
4
71
3
72
14
73
10
40
0
40
0
40
0
40
0
40
0.25
40
0.25
40
0.5
40
0.5
40
0.75
40
0.75
40
1
40
1
40
1
40
1
41
1
10
20.4756706759272
20
2.43189395109445
30
0
41
1
10
20.4935385150066
20
2.42430429625671
30
0
41
1
10
20.5114520670937
20
2.41644860750517
30
0
41
1
10
20.5470586372285
20
2.39898683057879
30
0
41
1
10
20.5647443382405
20
2.3893492785212
30
0
41
1
10
20.5998275824312
20
2.36786703489946
30
0
41
1
10
20.6172277752396
20
2.35603255210532
30
0
41
1
10
20.6516984321455
20
2.32974569717396
30
0
41
1
10
20.6686402302022
20
2.3154516783782
30
0
41
1
10
20.6852557490072
20
2.29989797282445
30
0
0
SPLINE
5
12B
100
AcDbEntity
8
1
62
256
6
ByLayer
370
18
48
1
60
0
100
AcDbSpline
70
4
71
3
72
9
73
5
40
0
40
0
40
0
40
0
40
0.915206530201166
40
1
40
1
40
1
40
1
41
1
10
20.6852557490113
20
2.29989797283724
30
0
41
1
10
20.2485038326742
20
2.2292143358095
30
0
41
1
10
19.7712870494404
20
2.00987390049687
30
0
41
1
10
19.2940702662067
20
1.66894301351417
30
0
41
1
10
19.25360539931
20
1.63921538707757
30
0
0
SPLINE
5
12C
100
AcDbEntity
8
1
62
256
6
ByLayer
370
18
48
1
60
0
100
AcDbSpline
70
4
71
3
72
9
73
5
40
0
40
0
40
0
40
0
40
0.19559509494971
40
1
40
1
40
1
40
1
41
1
10
10.0201269159322
20
0.414730075307744
30
0
41
1
10
9.88841794395481
20
0.548771640432307
30
0
41
1
10
9.2150423053107
20
1.22283672284755
30
0
41
1
10
8.54166666666665
20
1.78340908146313
30
0
41
1
10
8
20
2.0494698990025
30
0
0
SPLINE
5
12D
100
AcDbEntity
8
1
62
256
6
ByLayer
370
18
48
1
60
0
100
AcDbSpline
70
4
71
3
72
46
73
42
40
0
40
0
40
0
40
0
40
0.217232081807432
40
0.228055002722662
40
0.239405807688104
40
0.251284499093654
40
0.263691081824532
40
0.276625563553409
40
0.2900879550617
40
0.30407827059887
40
0.318596528290595
40
0.33364275060825
40
0.349216964914876
40
0.365319204104666
40
0.381949507355844
40
0.39910792101962
40
0.416794499670735
40
0.435009307348372
40
0.453752419019766
40
0.473023922302382
40
0.492823919484425
40
0.513152529887792
40
0.534009892621684
40
0.555396169779952
40
0.577311550140121
40
0.599756253426971
40
0.622730535209339
40
0.646234651384855
40
0.67026870799094
40
0.69483274830426
40
0.719926790252964
40
0.745550824193007
40
0.771704811017551
40
0.798388680688119
40
0.82560233128528
40
0.853345628685537
40
0.881618406980657
40
0.91042046976611
40
0.939751592435616
40
0.969611525629928
40
1
40
1
40
1
40
1
41
1
10
19.1302405320833
20
1.6871335085558
30
0
41
1
10
19.2277455752197
20
1.76678915405921
30
0
41
1
10
19.3301382884078
20
1.84539293355658
30
0
41
1
10
19.4375012747812
20
1.92166320862776
30
0
41
1
10
19.452771805381
20
1.93242736439802
30
0
41
1
10
19.4687517583912
20
1.94359835162726
30
0
41
1
10
19.485441220848
20
1.95516295216618
30
0
41
1
10
19.5028401722151
20
1.96710698312296
30
0
41
1
10
19.5209486250026
20
1.97941559861323
30
0
41
1
10
19.5397665847885
20
1.99207318237282
30
0
41
1
10
19.5592940618935
20
2.0050633564949
30
0
41
1
10
19.5795310683386
20
2.01836895618644
30
0
41
1
10
19.6004776190024
20
2.03197201332694
30
0
41
1
10
19.6221337315991
20
2.04585373666609
30
0
41
1
10
19.644499427004
20
2.05999449211106
30
0
41
1
10
19.6675747294927
20
2.07437378212722
30
0
41
1
10
19.6913596670186
20
2.08897022452851
30
0
41
1
10
19.7158542714922
20
2.1037615305797
30
0
41
1
10
19.7410585790732
20
2.11872448243344
30
0
41
1
10
19.7669726304726
20
2.13383490989455
30
0
41
1
10
19.793596471266
20
2.14906766651779
30
0
41
1
10
19.8209301522138
20
2.16439660502482
30
0
41
1
10
19.8489737296066
20
2.17979455209206
30
0
41
1
10
19.8777272655692
20
2.19523328231216
30
0
41
1
10
19.9071908285732
20
2.21068349209358
30
0
41
1
10
19.9373644932011
20
2.22611477053678
30
0
41
1
10
19.9682483244295
20
2.24149556957093
30
0
41
1
10
19.9998422804432
20
2.25679310591903
30
0
41
1
10
20.0321464754323
20
2.27197538636875
30
0
41
1
10
20.065160953815
20
2.2870094333837
30
0
41
1
10
20.0988857389526
20
2.30186126850035
30
0
41
1
10
20.1333208535142
20
2.3164959145472
30
0
41
1
10
20.1684663186915
20
2.3308773670079
30
0
41
1
10
20.2043221542856
20
2.34496861153957
30
0
41
1
10
20.2408883786932
20
2.35873147253273
30
0
41
1
10
20.2781650083944
20
2.37212710643684
30
0
41
1
10
20.3161520596126
20
2.38511401710735
30
0
41
1
10
20.3548495415748
20
2.39765558328054
30
0
41
1
10
20.3942574820412
20
2.40969108216618
30
0
41
1
10
20.4343758290725
20
2.42124671954062
30
0
41
1
10
20.4613585345535
20
2.42835982163857
30
0
41
1
10
20.4749682428777
20
2.43194757324122
30
0
0
SPLINE
5
12E
100
AcDbEntity
8
1
62
256
6
ByLayer
370
18
48
1
60
0
100
AcDbSpline
70
4
71
3
72
10
73
6
40
0
40
0
40
0
40
0
40
0.5
40
0.5
40
1
40
1
40
1
40
1
41
1
10
20.4751586856548
20
2.43211099144284
30
0
41
1
10
20.5101408020773
20
2.43593820468561
30
0
41
1
10
20.5461759700713
20
2.43849749730475
30
0
41
1
10
20.6201699953077
20
2.44153231002946
30
0
41
1
10
20.6582053810753
20
2.44200824774509
30
0
41
1
10
20.6968910627531
20
2.44163752903145
30
0
0
SPLINE
5
12F
100
AcDbEntity
8
1
62
256
6
ByLayer
370
18
48
1
60
0
100
AcDbSpline
70
4
71
3
72
10
73
6
40
0
40
0
40
0
40
0
40
0.468736118450772
40
0.468736118450772
40
1
40
1
40
1
40
1
41
1
10
17.4143640008521
20
-0.857718743306094
30
0
41
1
10
17.3410122385575
20
-0.92979192932529
30
0
41
1
10
17.2679067594798
20
-1.0001824365381
30
0
41
1
10
17.1120416423554
20
-1.14652207291294
30
0
41
1
10
17.0293262052979
20
-1.22197770899081
30
0
41
1
10
16.9464424726688
20
-1.29489407925166
30
0
0
SPLINE
5
130
100
AcDbEntity
8
1
62
256
6
ByLayer
370
18
48
1
60
0
100
AcDbSpline
70
4
71
3
72
85
73
81
40
0
40
0
40
0
40
0
40
0.0145598642002511
40
0.0145598642002511
40
0.0638318709902322
40
0.0638318709902322
40
0.0761498726877275
40
0.0761498726877275
40
0.0884678743852228
40
0.113103877780212
40
0.113103877780212
40
0.162375884570192
40
0.162375884570192
40
0.187011887965182
40
0.187011887965182
40
0.199329889662678
40
0.199329889662678
40
0.211647891360174
40
0.211647891360174
40
0.26091989815016
40
0.26091989815016
40
0.310191904940146
40
0.310191904940146
40
0.322509906637643
40
0.322509906637643
40
0.334827908335139
40
0.334827908335139
40
0.359463911730134
40
0.359463911730134
40
0.384099915125129
40
0.384099915125129
40
0.408735918520123
40
0.408735918520123
40
0.433371921915118
40
0.433371921915118
40
0.458007925310113
40
0.458007925310113
40
0.47032592700761
40
0.47032592700761
40
0.482643928705108
40
0.482643928705108
40
0.507279932100103
40
0.507279932100103
40
0.556551938890095
40
0.556551938890095
40
0.581187942285092
40
0.581187942285092
40
0.59350594398259
40
0.59350594398259
40
0.605823945680087
40
0.605823945680087
40
0.655095952470078
40
0.655095952470078
40
0.704367959260069
40
0.704367959260069
40
0.716685960957566
40
0.716685960957566
40
0.729003962655063
40
0.729003962655063
40
0.753639966050058
40
0.753639966050058
40
0.802911972840047
40
0.802911972840047
40
0.827547976235042
40
0.827547976235042
40
0.839865977932538
40
0.839865977932538
40
0.852183979630036
40
0.852183979630036
40
0.901455986420025
40
0.901455986420025
40
0.926091989815019
40
0.926091989815019
40
0.950727993210013
40
0.950727993210013
40
0.975363996605007
40
0.975363996605007
40
0.987681998302503
40
0.987681998302503
40
1
40
1
40
1
40
1
41
1
10
16.1142300244504
20
-1.92186640968416
30
0
41
1
10
16.0749577682377
20
-1.94588691738287
30
0
41
1
10
16.0356823607292
20
-1.96904896252872
30
0
41
1
10
15.8633695715882
20
-2.06678914818559
30
0
41
1
10
15.7301058703605
20
-2.13227851823493
30
0
41
1
10
15.5619591241132
20
-2.20060873647211
30
0
41
1
10
15.5282462918451
20
-2.21359367769878
30
0
41
1
10
15.4611097982923
20
-2.23800058681334
30
0
41
1
10
15.3606572990051
20
-2.2723413762439
30
0
41
1
10
15.2608074452963
20
-2.29987318108309
30
0
41
1
10
15.0615082600338
20
-2.34571173239183
30
0
41
1
10
14.9291724213258
20
-2.36402538561947
30
0
41
1
10
14.729853464652
20
-2.37159894760694
30
0
41
1
10
14.6632810157176
20
-2.37080186493847
30
0
41
1
10
14.5629796276422
20
-2.36462266885672
30
0
41
1
10
14.5294718912658
20
-2.36173204873094
30
0
41
1
10
14.4622661147591
20
-2.35428549377127
30
0
41
1
10
14.4286371986381
20
-2.34973438462609
30
0
41
1
10
14.2611466970185
20
-2.32306068985682
30
0
41
1
10
14.128374211716
20
-2.28913297008768
30
0
41
1
10
13.8626273296228
20
-2.19868903819676
30
0
41
1
10
13.729649368645
20
-2.14217192068631
30
0
41
1
10
13.5620142040276
20
-2.05845143918711
30
0
41
1
10
13.5284194089105
20
-2.04104645575543
30
0
41
1
10
13.4610694737085
20
-2.00488986039653
30
0
41
1
10
13.4273057535777
20
-1.98613057563523
30
0
41
1
10
13.3264284210642
20
-1.92816927191865
30
0
41
1
10
13.2595081819762
20
-1.88715573663015
30
0
41
1
10
13.1261640582304
20
-1.80020584144862
30
0
41
1
10
13.0597321667669
20
-1.75428399781413
30
0
41
1
10
12.9270025099223
20
-1.65785036106544
30
0
41
1
10
12.8606992392524
20
-1.60734230196252
30
0
41
1
10
12.7278526361315
20
-1.50232210328986
30
0
41
1
10
12.6613054858958
20
-1.44785995433955
30
0
41
1
10
12.5277419202674
20
-1.33522758581157
30
0
41
1
10
12.4607299501497
20
-1.27704614551692
30
0
41
1
10
12.3597003137081
20
-1.18688578129729
30
0
41
1
10
12.3260001772693
20
-1.15640305588832
30
0
41
1
10
12.2588824463653
20
-1.09489531315518
30
0
41
1
10
12.2254148319422
20
-1.06382244710483
30
0
41
1
10
12.1252429123231
20
-0.969672896778945
30
0
41
1
10
12.0587605167985
20
-0.905680765552376
30
0
41
1
10
11.8597341077482
20
-0.710509683887722
30
0
41
1
10
11.7276339866216
20
-0.576114476144397
30
0
41
1
10
11.5285256874555
20
-0.369830677367616
30
0
41
1
10
11.461992864709
20
-0.30029369462676
30
0
41
1
10
11.3617088837778
20
-0.195047170182732
30
0
41
1
10
11.3281617182126
20
-0.15976752942305
30
0
41
1
10
11.261038053142
20
-0.0891103000807334
30
0
41
1
10
11.227558964022
20
-0.0538361269627785
30
0
41
1
10
11.0604848290268
20
0.122184722591527
30
0
41
1
10
10.9278561288115
20
0.261892455373413
30
0
41
1
10
10.6625138454484
20
0.537151724333512
30
0
41
1
10
10.5298052623068
20
0.672695475534937
30
0
41
1
10
10.3624746827618
20
0.838213077317647
30
0
41
1
10
10.32893774712
20
0.871121821880593
30
0
41
1
10
10.261692306105
20
0.936518642250235
30
0
41
1
10
10.2280880921058
20
0.968904559435515
30
0
41
1
10
10.1276054814082
20
1.06478686671437
30
0
41
1
10
10.0609239644483
20
1.12713993417674
30
0
41
1
10
9.86143548741933
20
1.30920291198862
30
0
41
1
10
9.72920081657173
20
1.42394461662042
30
0
41
1
10
9.53037980009859
20
1.58431249831773
30
0
41
1
10
9.46402154304846
20
1.63582008571802
30
0
41
1
10
9.36413610487523
20
1.7099934404871
30
0
41
1
10
9.33078288575155
20
1.73420269354656
30
0
41
1
10
9.26392206324985
20
1.78155619157417
30
0
41
1
10
9.23036089914083
20
1.80473620282146
30
0
41
1
10
9.06271831173186
20
1.91744042448261
30
0
41
1
10
8.93011746631115
20
1.99679247477144
30
0
41
1
10
8.73171114826224
20
2.09903212422182
30
0
41
1
10
8.6656616480401
20
2.13030062787485
30
0
41
1
10
8.53345236703478
20
2.1869891452223
30
0
41
1
10
8.46728714847546
20
2.21242207377065
30
0
41
1
10
8.33452122488671
20
2.25747328872359
30
0
41
1
10
8.26792075030679
20
2.27709259196808
30
0
41
1
10
8.16749680162474
20
2.30211611518243
30
0
41
1
10
8.13396766232981
20
2.30971278228907
30
0
41
1
10
8.06698119054124
20
2.32337553859975
30
0
41
1
10
8.03349359905619
20
2.32944940919299
30
0
41
1
10
8.00000000000003
20
2.3347674533205
30
0
0
SPLINE
5
131
100
AcDbEntity
8
1
62
256
6
ByLayer
370
18
48
1
60
0
100
AcDbSpline
70
4
71
3
72
8
73
4
40
0
40
0
40
0
40
0
40
1
40
1
40
1
40
1
41
1
10
7.96632288643772
20
2.33985803692119
30
0
41
1
10
7.97752430641583
20
2.33825068051982
30
0
41
1
10
7.98874925066255
20
2.3365538238784
30
0
41
1
10
8.00000000000003
20
2.3347674533205
30
0
0
SPLINE
5
132
100
AcDbEntity
8
1
62
256
6
ByLayer
370
18
48
1
60
0
100
AcDbSpline
70
4
71
3
72
19
73
15
40
0
40
0
40
0
40
0
40
0.124999999999996
40
0.124999999999996
40
0.249999999999992
40
0.249999999999992
40
0.312499999999991
40
0.312499999999991
40
0.374999999999989
40
0.499999999999991
40
0.499999999999991
40
0.749999999999996
40
0.749999999999996
40
1
40
1
40
1
40
1
41
1
10
7.518068826622
20
2.38645620585325
30
0
41
1
10
7.54507660498228
20
2.38912361487945
30
0
41
1
10
7.57067166303136
20
2.39074635604806
30
0
41
1
10
7.61976000665049
20
2.39146815976983
30
0
41
1
10
7.64324764470834
20
2.39057003042728
30
0
41
1
10
7.67724903971143
20
2.3870930036895
30
0
41
1
10
7.68838963020602
20
2.38557641079586
30
0
41
1
10
7.71017358728903
20
2.3818254857018
30
0
41
1
10
7.74214391020092
20
2.37512138834981
30
0
41
1
10
7.77223228542624
20
2.36513094980819
30
0
41
1
10
7.83037160184222
20
2.34065510294875
30
0
41
1
10
7.86643677858132
20
2.31835047653038
30
0
41
1
10
7.93484557853165
20
2.2611779239372
30
0
41
1
10
7.96717505435194
20
2.22631959873399
30
0
41
1
10
7.99816729010675
20
2.18475440801808
30
0
0
SPLINE
5
133
100
AcDbEntity
8
1
62
256
6
ByLayer
370
18
48
1
60
0
100
AcDbSpline
70
4
71
3
72
8
73
4
40
0
40
0
40
0
40
0
40
1
40
1
40
1
40
1
41
1
10
8.00000000000003
20
2.18376323640942
30
0
41
1
10
7.99938905544724
20
2.18409386952982
30
0
41
1
10
7.99877815226938
20
2.18442426010756
30
0
41
1
10
7.99816729010669
20
2.18475440801808
30
0
0
SPLINE
5
134
100
AcDbEntity
8
1
62
256
6
ByLayer
370
18
48
1
60
0
100
AcDbSpline
70
4
71
3
72
18
73
14
40
0
40
0
40
0
40
0
40
0.249999999999998
40
0.249999999999998
40
0.499999999999996
40
0.499999999999996
40
0.749999999999994
40
0.749999999999994
40
0.812499999999994
40
0.812499999999994
40
0.874999999999993
40
0.874999999999993
40
1
40
1
40
1
40
1
41
1
10
8.00000000000003
20
2.18376323640942
30
0
41
1
10
8.10032475148174
20
2.12946913474423
30
0
41
1
10
8.1998466409388
20
2.06919978235834
30
0
41
1
10
8.39819101123231
20
1.93755520276301
30
0
41
1
10
8.49701018481122
20
1.86617441211379
30
0
41
1
10
8.69494073220676
20
1.71272900934585
30
0
41
1
10
8.79405999614417
20
1.63064719761627
30
0
41
1
10
8.91879174987031
20
1.52169567314419
30
0
41
1
10
8.94377982086803
20
1.49958716571623
30
0
41
1
10
8.99385598657355
20
1.454739209633
30
0
41
1
10
9.01891687287309
20
1.43202343270454
30
0
41
1
10
9.09388407346114
20
1.36330178761952
30
0
41
1
10
9.14369336757642
20
1.3166168879965
30
0
41
1
10
9.19339621357145
20
1.26912067228204
30
0
0
SPLINE
5
135
100
AcDbEntity
8
1
62
256
6
ByLayer
370
18
48
1
60
0
100
AcDbSpline
70
4
71
3
72
47
73
43
40
0
40
0
40
0
40
0
40
0.0081082285660481
40
0.0199605900924385
40
0.0355570304664507
40
0.054897538755999
40
0.0779822546916869
40
0.104811690272877
40
0.135387152750647
40
0.169711502340479
40
0.207789467827276
40
0.249624459251409
40
0.305137453714136
40
0.365338896197173
40
0.430216702726866
40
0.499752310387463
40
0.553363772424076
40
0.612991163476138
40
0.67863726155652
40
0.750300405299358
40
0.756531594532954
40
0.763250742181231
40
0.77045780052621
40
0.778152715743067
40
0.786335427315823
40
0.795005867468755
40
0.804163960651689
40
0.813809623127855
40
0.82394276272561
40
0.834563278829067
40
0.845671062698634
40
0.857265998230077
40
0.869347963280329
40
0.881916831709988
40
0.894972476316213
40
0.908514772855866
40
0.922543611948205
40
0.937059135178749
40
0.952061842189625
40
0.967552363112271
40
0.983531452382601
40
1
40
1
40
1
40
1
41
1
10
9.19339618750274
20
1.26913206332605
30
0
41
1
10
9.20084175796907
20
1.26200605769904
30
0
41
1
10
9.2191710365374
20
1.24446347411762
30
0
41
1
10
9.25182921122993
20
1.21294784891828
30
0
41
1
10
9.29480628337473
20
1.1711076869461
30
0
41
1
10
9.34810426888254
20
1.1186205077336
30
0
41
1
10
9.41172350301309
20
1.05514621996872
30
0
41
1
10
9.48566546138179
20
0.980298934816176
30
0
41
1
10
9.5699318956791
20
0.893680730652562
30
0
41
1
10
9.66452498319541
20
0.794897107458581
30
0
41
1
10
9.7694400198813
20
0.683589861989589
30
0
41
1
10
9.89379124785421
20
0.54973221816627
30
0
41
1
10
10.038406359079
20
0.391784915589227
30
0
41
1
10
10.2040948120141
20
0.208620077742268
30
0
41
1
10
10.3826294737082
20
0.009933618164979
30
0
41
1
10
10.5551434974936
20
-0.18211710613474
30
0
41
1
10
10.7229312903143
20
-0.367542623289154
30
0
41
1
10
10.8873048643019
20
-0.547005760267581
30
0
41
1
10
11.0683356072063
20
-0.7411087193708
30
0
41
1
10
11.2003477319247
20
-0.878948523741002
30
0
41
1
10
11.2781395474547
20
-0.958645525982689
30
0
41
1
10
11.2966686378015
20
-0.977573414817925
30
0
41
1
10
11.3165409336818
20
-0.9978051176534
30
0
41
1
10
11.3377560370528
20
-1.01932393969065
30
0
41
1
10
11.3603137996939
20
-1.04211095869761
30
0
41
1
10
11.3842139659501
20
-1.06614555820636
30
0
41
1
10
11.4094562752004
20
-1.09140511699081
30
0
41
1
10
11.4360404283678
20
-1.11786493854353
30
0
41
1
10
11.4639660942144
20
-1.14549810082585
30
0
41
1
10
11.493232903863
20
-1.17427532007417
30
0
41
1
10
11.5238404485924
20
-1.20416480135648
30
0
41
1
10
11.5557882765308
20
-1.23513208359324
30
0
41
1
10
11.5890758895251
20
-1.26713987770162
30
0
41
1
10
11.6237027397737
20
-1.30014789472909
30
0
41
1
10
11.6596682265327
20
-1.33411267883204
30
0
41
1
10
11.6969716980806
20
-1.36898739131055
30
0
41
1
10
11.7356126665536
20
-1.40472196884704
30
0
41
1
10
11.775591103541
20
-1.44126273030116
30
0
41
1
10
11.8169076527147
20
-1.47855855750697
30
0
41
1
10
11.8595633088832
20
-1.51653724601968
30
0
41
1
10
11.9035599902273
20
-1.5551919313375
30
0
41
1
10
11.9333352103552
20
-1.58083826569114
30
0
41
1
10
11.9484473934764
20
-1.59385486471115
30
0
0
SPLINE
5
136
100
AcDbEntity
8
1
62
256
6
ByLayer
370
18
48
1
60
0
100
AcDbSpline
70
4
71
3
72
9
73
5
40
0
40
0
40
0
40
0
40
0.714628899077785
40
1
40
1
40
1
40
1
41
1
10
11.9484473934764
20
-1.59385486471115
30
0
41
1
10
12.0435663366115
20
-1.67527505784176
30
0
41
1
10
12.176690714375
20
-1.7833463844168
30
0
41
1
10
12.3100021913046
20
-1.88210673929163
30
0
41
1
10
12.3480540274834
20
-1.90947355701419
30
0
0
SPLINE
5
137
100
AcDbEntity
8
1
62
256
6
ByLayer
370
18
48
1
60
0
100
AcDbSpline
70
4
71
3
72
36
73
32
40
0
40
0
40
0
40
0
40
0.0450732065729506
40
0.0893960833204769
40
0.132967127472794
40
0.175784994142412
40
0.21784848947292
40
0.259156563714074
40
0.29970830425666
40
0.339502928658062
40
0.378539777686467
40
0.41681830840948
40
0.45433808735094
40
0.49109878373664
40
0.527100162848874
40
0.562342079506464
40
0.596824471686042
40
0.630547354297983
40
0.663510813129203
40
0.695714998962889
40
0.72716012188426
40
0.75784644577961
40
0.787774283034828
40
0.816944090207472
40
0.845356961231226
40
0.873014135789112
40
0.899916733869928
40
0.926065763366363
40
0.95146212791988
40
0.976106634395713
40
1
40
1
40
1
40
1
41
1
10
12.3480540274834
20
-1.90947355701419
30
0
41
1
10
12.3556693278417
20
-1.91492165380887
30
0
41
1
10
12.3707731573027
20
-1.92572715339557
30
0
41
1
10
12.3932382268118
20
-1.94155426918579
30
0
41
1
10
12.4153225445578
20
-1.95693758617074
30
0
41
1
10
12.4370257114788
20
-1.97186712043182
30
0
41
1
10
12.4583474185906
20
-1.98635472214394
30
0
41
1
10
12.4792873703745
20
-2.00040663944839
30
0
41
1
10
12.4998453032115
20
-2.01403066706928
30
0
41
1
10
12.5200209790328
20
-2.02723426761301
30
0
41
1
10
12.5398141854641
20
-2.04002504828429
30
0
41
1
10
12.5592247343022
20
-2.05241062364613
30
0
41
1
10
12.5782524604537
20
-2.06439863862755
30
0
41
1
10
12.5968972207805
20
-2.07599675003033
30
0
41
1
10
12.6151588929959
20
-2.08721261908011
30
0
41
1
10
12.6330373745766
20
-2.0980539013407
30
0
41
1
10
12.6505325816919
20
-2.10852823756844
30
0
41
1
10
12.6676444481766
20
-2.11864324451244
30
0
41
1
10
12.6843729244422
20
-2.128406506152
30
0
41
1
10
12.7007179767165
20
-2.1378255644062
30
0
41
1
10
12.7166795851948
20
-2.1469079125844
30
0
41
1
10
12.7322577462131
20
-2.15566097986053
30
0
41
1
10
12.7474524771051
20
-2.16409215838769
30
0
41
1
10
12.7622639571329
20
-2.17220875747489
30
0
41
1
10
12.7766922057155
20
-2.18001879385281
30
0
41
1
10
12.7907373524075
20
-2.18753031100746
30
0
41
1
10
12.8043995680756
20
-2.19475091988812
30
0
41
1
10
12.8176790181416
20
-2.20168863858976
30
0
41
1
10
12.8305758119631
20
-2.20834894450357
30
0
41
1
10
12.8430902010534
20
-2.2147452811686
30
0
41
1
10
12.8513050375978
20
-2.21888688563331
30
0
41
1
10
12.8553488921082
20
-2.220925641463
30
0
0
SPLINE
5
138
100
AcDbEntity
8
1
62
256
6
ByLayer
370
18
48
1
60
0
100
AcDbSpline
70
4
71
3
72
9
73
5
40
0
40
0
40
0
40
0
40
0.598443838843924
40
1
40
1
40
1
40
1
41
1
10
12.8553488921082
20
-2.220925641463
30
0
41
1
10
12.9919918805155
20
-2.28933014285903
30
0
41
1
10
13.220134575187
20
-2.38203332020746
30
0
41
1
10
13.4488184473117
20
-2.44165662793606
30
0
41
1
10
13.5406601001615
20
-2.45966432775296
30
0
0
SPLINE
5
139
100
AcDbEntity
8
1
62
256
6
ByLayer
370
18
48
1
60
0
100
AcDbSpline
70
4
71
3
72
39
73
35
40
0
40
0
40
0
40
0
40
0.0295152516362338
40
0.0592050155295477
40
0.0890683487585618
40
0.119104300102453
40
0.149311912119213
40
0.17969022336337
40
0.210238270748863
40
0.240955092062851
40
0.271839728636494
40
0.302891228178936
40
0.334108651539594
40
0.365491453998561
40
0.39703980187297
40
0.428753936437862
40
0.460634097329171
40
0.49268052250489
40
0.524893448232863
40
0.557273109106895
40
0.589819738092585
40
0.622533566604209
40
0.655414824614447
40
0.688463740798293
40
0.721680542712854
40
0.755065457014709
40
0.788618709716278
40
0.822340526483268
40
0.856231132974519
40
0.890290755226306
40
0.924519620082753
40
0.958917955674329
40
0.99348599194611
40
1
40
1
40
1
40
1
41
1
10
13.5406601001617
20
-2.45966432775299
30
0
41
1
10
13.5479297484102
20
-2.46105899486128
30
0
41
1
10
13.5625120275232
20
-2.46385657520455
30
0
41
1
10
13.5844477832826
20
-2.46778082663082
30
0
41
1
10
13.6065109973579
20
-2.4715149341454
30
0
41
1
10
13.6287012631542
20
-2.47503261045662
30
0
41
1
10
13.6510183865244
20
-2.4783333647751
30
0
41
1
10
13.6734621053586
20
-2.48140962016265
30
0
41
1
10
13.6960321654629
20
-2.48425559877614
30
0
41
1
10
13.7187282990411
20
-2.48686492359479
30
0
41
1
10
13.7415502336392
20
-2.48923124946148
30
0
41
1
10
13.7644976781995
20
-2.49134815102195
30
0
41
1
10
13.7875704673384
20
-2.49320893519092
30
0
41
1
10
13.8107685343796
20
-2.4948075923987
30
0
41
1
10
13.8340916423137
20
-2.49614038702055
30
0
41
1
10
13.8575398200927
20
-2.49720326190709
30
0
41
1
10
13.8811130989826
20
-2.49799224414386
30
0
41
1
10
13.9048115175445
20
-2.49850333035522
30
0
41
1
10
13.9286351152368
20
-2.49873251767181
30
0
41
1
10
13.952583934184
20
-2.49867579571372
30
0
41
1
10
13.9766580187395
20
-2.49832914910462
30
0
41
1
10
14.0008574156442
20
-2.49768855714538
30
0
41
1
10
14.0251821740248
20
-2.49674999425793
30
0
41
1
10
14.0496323454347
20
-2.49550943022422
30
0
41
1
10
14.0742079838844
20
-2.4939628304839
30
0
41
1
10
14.0989091458736
20
-2.49210615641951
30
0
41
1
10
14.123735890424
20
-2.48993536564825
30
0
41
1
10
14.1486882791112
20
-2.48744641231542
30
0
41
1
10
14.1737663760972
20
-2.48463524739077
30
0
41
1
10
14.1989702481629
20
-2.48149781896757
30
0
41
1
10
14.2242999647402
20
-2.47803007256428
30
0
41
1
10
14.2497555979446
20
-2.47422795142921
30
0
41
1
10
14.268374979997
20
-2.47121428170817
30
0
41
1
10
14.2785091073033
20
-2.46949874330801
30
0
41
1
10
14.2801159859001
20
-2.46922483415284
30
0
0
SPLINE
5
13A
100
AcDbEntity
8
1
62
256
6
ByLayer
370
18
48
1
60
0
100
AcDbSpline
70
4
71
3
72
10
73
6
40
0
40
0
40
0
40
0
40
0.5
40
0.5
40
1
40
1
40
1
40
1
41
1
10
20.475158685655
20
-0.715918525367897
30
0
41
1
10
20.5101408020775
20
-0.739702104777308
30
0
41
1
10
20.5461759700714
20
-0.761468666375038
30
0
41
1
10
20.6201699953077
20
-0.801416521378314
30
0
41
1
10
20.6582053810753
20
-0.819637198416046
30
0
41
1
10
20.6968910627531
20
-0.836172631096048
30
0
0
SPLINE
5
13B
100
AcDbEntity
8
1
62
256
6
ByLayer
370
18
48
1
60
0
100
AcDbSpline
70
4
71
3
72
8
73
4
40
0
40
0
40
0
40
0
40
1
40
1
40
1
40
1
41
1
10
20.6968910627531
20
-0.836172631096048
30
0
41
1
10
20.6973286098407
20
-0.834250530433252
30
0
41
1
10
20.6977818001286
20
-0.83232884965571
30
0
41
1
10
20.6982505542831
20
-0.830407586633953
30
0
0
SPLINE
5
13C
100
AcDbEntity
8
1
62
256
6
ByLayer
370
18
48
1
60
0
100
AcDbSpline
70
4
71
3
72
17
73
13
40
0
40
0
40
0
40
0
40
0.0625
40
0.0625
40
0.125
40
0.25
40
0.25
40
0.5
40
0.5
40
0.75
40
0.75
40
1
40
1
40
1
40
1
41
1
10
20.6982505542833
20
-0.830407586634124
30
0
41
1
10
20.7014325990836
20
-0.81736547287548
30
0
41
1
10
20.7040841679061
20
-0.804229784042917
30
0
41
1
10
20.7091218832366
20
-0.777893027066199
30
0
41
1
10
20.71616902706
20
-0.738272781140608
30
0
41
1
10
20.7225247925026
20
-0.698435357357596
30
0
41
1
10
20.7348769851345
20
-0.618556921678191
30
0
41
1
10
20.742590671248
20
-0.565140210432588
30
0
41
1
10
20.7573577500575
20
-0.45810365505298
30
0
41
1
10
20.7643900774993
20
-0.40441890074166
30
0
41
1
10
20.7776114479147
20
-0.297171181351786
30
0
41
1
10
20.7838015915672
20
-0.243582864289976
30
0
41
1
10
20.7894785435172
20
-0.190019139887909
30
0
0
SPLINE
5
13D
100
AcDbEntity
8
1
62
256
6
ByLayer
370
18
48
1
60
0
100
AcDbSpline
70
4
71
3
72
10
73
6
40
0
40
0
40
0
40
0
40
0.5
40
0.5
40
1
40
1
40
1
40
1
41
1
10
7.60334056751879
20
-1.13065765169685
30
0
41
1
10
7.66884399745322
20
-1.19410900294827
30
0
41
1
10
7.73436691666396
20
-1.25599618621524
30
0
41
1
10
7.86628624209573
20
-1.37593161432508
30
0
41
1
10
7.93268118115228
20
-1.43398033180298
30
0
41
1
10
8.00000000000003
20
-1.48971913676354
30
0
0
SPLINE
5
13E
100
AcDbEntity
8
1
62
256
6
ByLayer
370
13
48
1
60
0
100
AcDbSpline
70
4
71
3
72
8
73
4
40
0
40
0
40
0
40
0
40
1
40
1
40
1
40
1
41
1
10
7.51806882662487
20
-1.20358943687907
30
0
41
1
10
7.5462131262293
20
-1.17901905276645
30
0
41
1
10
7.5746414765095
20
-1.15470971808955
30
0
41
1
10
7.60334057065467
20
-1.1306576486875
30
0
0
SPLINE
5
13F
100
AcDbEntity
8
1
62
256
6
ByLayer
370
18
48
1
60
0
100
AcDbSpline
70
4
71
3
72
19
73
15
40
0
40
0
40
0
40
0
40
0.125000000000005
40
0.125000000000005
40
0.25000000000001
40
0.25000000000001
40
0.312500000000013
40
0.312500000000013
40
0.375000000000015
40
0.500000000000014
40
0.500000000000014
40
0.750000000000007
40
0.750000000000007
40
1
40
1
40
1
40
1
41
1
10
7.518068826622
20
-1.20358943687574
30
0
41
1
10
7.54507660498228
20
-1.24632725866277
30
0
41
1
10
7.57067166302963
20
-1.2893068507299
30
0
41
1
10
7.61976000664887
20
-1.37517973860705
30
0
41
1
10
7.64324764470828
20
-1.41807721391476
30
0
41
1
10
7.6772490397114
20
-1.48207259018255
30
0
41
1
10
7.68838963020602
20
-1.50337328173484
30
0
41
1
10
7.71017358728901
20
-1.54556745971851
30
0
41
1
10
7.74214391020089
20
-1.60832494958487
30
0
41
1
10
7.77223228542621
20
-1.66936988992575
30
0
41
1
10
7.83037160184219
20
-1.78894855144975
30
0
41
1
10
7.86643677858132
20
-1.86531651486916
30
0
41
1
10
7.93484557853165
20
-2.01041291138714
30
0
41
1
10
7.96717505435191
20
-2.07915252854218
30
0
41
1
10
7.99816729010672
20
-2.14360946879566
30
0
0
SPLINE
5
140
100
AcDbEntity
8
1
62
256
6
ByLayer
370
18
48
1
60
0
100
AcDbSpline
70
4
71
3
72
8
73
4
40
0
40
0
40
0
40
0
40
1
40
1
40
1
40
1
41
1
10
8.00000000000003
20
-2.14465273124532
30
0
41
1
10
7.99938905544721
20
-2.14430522195607
30
0
41
1
10
7.99877815226938
20
-2.14395746774085
30
0
41
1
10
7.99816729010669
20
-2.14360946879566
30
0
0
SPLINE
5
141
100
AcDbEntity
8
1
62
256
6
ByLayer
370
18
48
1
60
0
100
AcDbSpline
70
4
71
3
72
14
73
10
40
0
40
0
40
0
40
0
40
0.25
40
0.25
40
0.5
40
0.5
40
0.75
40
0.75
40
1
40
1
40
1
40
1
41
1
10
20.4756706759274
20
-0.716304292754501
30
0
41
1
10
20.4935385150068
20
-0.729758101312996
30
0
41
1
10
20.5114520670939
20
-0.74292136192085
30
0
41
1
10
20.5470586372286
20
-0.76775723208624
30
0
41
1
10
20.5647443382407
20
-0.779405754802781
30
0
41
1
10
20.5998275824313
20
-0.800831326757589
30
0
41
1
10
20.6172277752397
20
-0.810615968663996
30
0
41
1
10
20.6516984321456
20
-0.827955760045199
30
0
41
1
10
20.6686402302022
20
-0.835476455425493
30
0
41
1
10
20.6852557490072
20
-0.841715669801232
30
0
0
SPLINE
5
142
100
AcDbEntity
8
1
62
256
6
ByLayer
370
18
48
1
60
0
100
AcDbSpline
70
4
71
3
72
95
73
91
40
0
40
0
40
0
40
0
40
0.0072242121820652
40
0.0144489583536364
40
0.0216742381236914
40
0.0289000518842961
40
0.0361264009348035
40
0.0433532876060922
40
0.0505807153848126
40
0.0578086890376926
40
0.0650372147358627
40
0.0722663001791968
40
0.0794959547206825
40
0.0867261894907946
40
0.0939570175218848
40
0.101188453872547
40
0.10842051575199
40
0.115653222644389
40
0.122886596433181
40
0.130120661525327
40
0.137355444975509
40
0.144590976610248
40
0.151827289151924
40
0.159064418342669
40
0.166302403068149
40
0.173541285481161
40
0.180781111125046
40
0.18802192832879
40
0.195263768047875
40
0.202506637408255
40
0.209750538896511
40
0.216995471599761
40
0.224241431351474
40
0.231488410877368
40
0.238736399941464
40
0.245985385492174
40
0.25323535180853
40
0.260486280646481
40
0.267738151385248
40
0.274990941173779
40
0.282244625077285
40
0.289499176223825
40
0.296754565951014
40
0.304010763952754
40
0.31126773842614
40
0.318525456218372
40
0.325783882973855
40
0.333042983281328
40
0.363310617250454
40
0.428976984685096
40
0.529947008082654
40
0.666088276215306
40
0.670705097787494
40
0.675547103209213
40
0.680614293499931
40
0.685906670743564
40
0.691424238213091
40
0.697167000507616
40
0.703134963705644
40
0.709328135539172
40
0.715746525593993
40
0.722390145542574
40
0.729259009416836
40
0.736353133929351
40
0.743672538852522
40
0.751217247466725
40
0.758987287089665
40
0.766982689700714
40
0.775203492675552
40
0.783649739648091
40
0.79232148151842
40
0.801218777627487
40
0.810341697120972
40
0.819690320527239
40
0.829264741576083
40
0.839065069287582
40
0.849091412822433
40
0.859343817414275
40
0.869822301524052
40
0.880526872799554
40
0.891457527126885
40
0.90261424782392
40
0.913997005013785
40
0.925605755219855
40
0.937440441227934
40
0.949500992265142
40
0.961787324549531
40
0.974299342268873
40
0.987036939051875
40
1
40
1
40
1
40
1
41
1
10
17.3234534666599
20
2.23926809043516
30
0
41
1
10
17.3310494069888
20
2.23551526554402
30
0
41
1
10
17.3462418491131
20
2.22800933836558
30
0
41
1
10
17.3690303860197
20
2.21646350960251
30
0
41
1
10
17.3918199103763
20
2.20470831035348
30
0
41
1
10
17.4146103599018
20
2.19272404572578
30
0
41
1
10
17.4374017615068
20
2.18051719731429
30
0
41
1
10
17.4601941182306
20
2.16808723256241
30
0
41
1
10
17.4829874395357
20
2.1554354991828
30
0
41
1
10
17.5057817331871
20
2.14256284166908
30
0
41
1
10
17.5285770074249
20
2.12947024005038
30
0
41
1
10
17.5513732703789
20
2.11615863874783
30
0
41
1
10
17.5741705302224
20
2.1026289924672
30
0
41
1
10
17.5969687951274
20
2.08888225392994
30
0
41
1
10
17.619768073274
20
2.07491937719072
30
0
41
1
10
17.6425683728442
20
2.06074131677798
30
0
41
1
10
17.6653697020203
20
2.04634902795394
30
0
41
1
10
17.6881720689824
20
2.03174346667424
30
0
41
1
10
17.7109754819057
20
2.01692558962969
30
0
41
1
10
17.7337799489576
20
2.00189635426017
30
0
41
1
10
17.7565854782968
20
1.98665671879766
30
0
41
1
10
17.7793920780644
20
1.97120764222106
30
0
41
1
10
17.8021997564049
20
1.95555008453454
30
0
41
1
10
17.8250085213756
20
1.93968500584043
30
0
41
1
10
17.8478183812725
20
1.9236133699107
30
0
41
1
10
17.8706293434022
20
1.90733613096694
30
0
41
1
10
17.8934414178875
20
1.89085428369205
30
0
41
1
10
17.9162545785314
20
1.87416869489587
30
0
41
1
10
17.9390688086729
20
1.85728093595174
30
0
41
1
10
17.9618841246251
20
1.84019337606208
30
0
41
1
10
17.9847005061933
20
1.82290824406201
30
0
41
1
10
18.0075179357929
20
1.80542781321819
30
0
41
1
10
18.0303363947854
20
1.78775434673025
30
0
41
1
10
18.0531558647706
20
1.76989011211873
30
0
41
1
10
18.075976327243
20
1.75183737737953
30
0
41
1
10
18.0987977636854
20
1.73359841202409
30
0
41
1
10
18.1216201555488
20
1.71517548681229
30
0
41
1
10
18.1444434842508
20
1.69657087382896
30
0
41
1
10
18.1672677312152
20
1.67778684649275
30
0
41
1
10
18.1900928777244
20
1.65882567949274
30
0
41
1
10
18.212918905483
20
1.63968964908059
30
0
41
1
10
18.2357457945222
20
1.62038103201394
30
0
41
1
10
18.2585735310303
20
1.60090210953928
30
0
41
1
10
18.281402078136
20
1.58125515256299
30
0
41
1
10
18.3042314849697
20
1.5614424770404
30
0
41
1
10
18.3270614795888
20
1.54146623726751
30
0
41
1
10
18.3498929884404
20
1.52132919748053
30
0
41
1
10
18.3968420334831
20
1.47958750447822
30
0
41
1
10
18.5051327284348
20
1.38157560296176
30
0
41
1
10
18.7118047645092
20
1.18587655956009
30
0
41
1
10
19.0298760097366
20
0.865035926268973
30
0
41
1
10
19.2844333579465
20
0.591720694226382
30
0
41
1
10
19.4375008872672
20
0.424502749781055
30
0
41
1
10
19.4527714221519
20
0.407800067761087
30
0
41
1
10
19.4687513797915
20
0.390300601749629
30
0
41
1
10
19.4854408472218
20
0.372002338357078
30
0
41
1
10
19.5028398039064
20
0.352903703247193
30
0
41
1
10
19.5209482623557
20
0.333003178335133
30
0
41
1
10
19.5397662281474
20
0.312299445982035
30
0
41
1
10
19.5592937116024
20
0.290791383927797
30
0
41
1
10
19.5795307247414
20
0.268478104218332
30
0
41
1
10
19.6004772824432
20
0.245358981045683
30
0
41
1
10
19.6221334024221
20
0.221433683161877
30
0
41
1
10
19.6444991055532
20
0.196702206423964
30
0
41
1
10
19.6675744161121
20
0.171164907727501
30
0
41
1
10
19.6913593620523
20
0.144822539973887
30
0
41
1
10
19.7158539752842
20
0.117676288171083
30
0
41
1
10
19.7410582919677
20
0.0897278066400702
30
0
41
1
10
19.7669723528137
20
0.0609792573351911
30
0
41
1
10
19.7935962033977
20
0.0314333492755168
30
0
41
1
10
19.8209298944804
20
0.0010933790902641
30
0
41
1
10
19.8489734823522
20
-0.0300367273290192
30
0
41
1
10
19.8777270291381
20
-0.0619523720397126
30
0
41
1
10
19.9071906033095
20
-0.0946482412412024
30
0
41
1
10
19.9373642794492
20
-0.128118259982699
30
0
41
1
10
19.9682481225344
20
-0.162355526771535
30
0
41
1
10
19.9998420907495
20
-0.197352163900888
30
0
41
1
10
20.0321462982842
20
-0.233099143505598
30
0
41
1
10
20.0651607895575
20
-0.269586339352458
30
0
41
1
10
20.0988855879303
20
-0.306802532503923
30
0
41
1
10
20.1333207160723
20
-0.344735377708417
30
0
41
1
10
20.1684661951747
20
-0.383371343880725
30
0
41
1
10
20.2043220450389
20
-0.422695666660076
30
0
41
1
10
20.2408882840616
20
-0.462692250329098
30
0
41
1
10
20.2781649287228
20
-0.503343758190539
30
0
41
1
10
20.316151995246
20
-0.544630973319983
30
0
41
1
10
20.3548494928581
20
-0.586534954913731
30
0
41
1
10
20.3942574493194
20
-0.629028460990099
30
0
41
1
10
20.4343758126905
20
-0.67210853355931
30
0
41
1
10
20.46135852918
20
-0.700897894981154
30
0
41
1
10
20.4749682430659
20
-0.7154188559104
30
0
0
SPLINE
5
143
100
AcDbEntity
8
1
62
256
6
ByLayer
370
18
48
1
60
0
100
AcDbSpline
70
4
71
3
72
9
73
5
40
0
40
0
40
0
40
0
40
0.596236093030088
40
1
40
1
40
1
40
1
41
1
10
16.2112139038628
20
2.49850528113143
30
0
41
1
10
16.432269564517
20
2.50616775834604
30
0
41
1
10
16.8030030833755
20
2.45883420720452
30
0
41
1
10
17.1737483687829
20
2.31292522949295
30
0
41
1
10
17.3234534666593
20
2.23926809043542
30
0
0
SPLINE
5
144
100
AcDbEntity
8
1
62
256
6
ByLayer
370
18
48
1
60
0
100
AcDbSpline
70
4
71
3
72
63
73
59
40
0
40
0
40
0
40
0
40
0.0034349384842693
40
0.0194770489710665
40
0.0355952396399105
40
0.0517896548148085
40
0.0680604456769814
40
0.0844077709359342
40
0.100831797537712
40
0.117332701411348
40
0.133910668254505
40
0.150565894359519
40
0.16729858747714
40
0.184108929744501
40
0.200996974878825
40
0.217962737939962
40
0.235006222698976
40
0.252127421932872
40
0.269326317762639
40
0.286602882035992
40
0.303957076756502
40
0.321388854560526
40
0.338898159243655
40
0.356484926338359
40
0.37414908374446
40
0.391890552414259
40
0.40970924709407
40
0.427605077124
40
0.445577947297917
40
0.463627758785499
40
0.481754410118333
40
0.499957798242123
40
0.51823781963706
40
0.536594371508491
40
0.555027353049953
40
0.573536666780916
40
0.592122219961291
40
0.610783926085075
40
0.629521706455386
40
0.648335491843213
40
0.667225224232151
40
0.686190858651517
40
0.705232365100238
40
0.724349730563691
40
0.743542961126034
40
0.762812084180188
40
0.782157150746506
40
0.801578257505686
40
0.821075569682845
40
0.840649245297972
40
0.860299421188824
40
0.880026213574311
40
0.899829718688928
40
0.919710013490173
40
0.939667156440896
40
0.959701188368628
40
0.979812133403932
40
1
40
1
40
1
40
1
41
1
10
14.5322831953757
20
1.77875231898534
30
0
41
1
10
14.5342083988635
20
1.78025363070944
30
0
41
1
10
14.545124804782
20
1.78875542046487
30
0
41
1
10
14.565074747752
20
1.80417791696399
30
0
41
1
10
14.5921751396524
20
1.82486783276133
30
0
41
1
10
14.6194027577339
20
1.84538901788568
30
0
41
1
10
14.6467577182561
20
1.86573467792636
30
0
41
1
10
14.674240140682
20
1.88589791532237
30
0
41
1
10
14.7018501477031
20
1.90587172827969
30
0
41
1
10
14.7295878652957
20
1.92564901011414
30
0
41
1
10
14.7574534226636
20
1.94522254697406
30
0
41
1
10
14.785446952604
20
1.96458502163213
30
0
41
1
10
14.8135685689958
20
1.9837289799564
30
0
41
1
10
14.8418182922074
20
2.00264684595052
30
0
41
1
10
14.8701961985696
20
2.02133217422437
30
0
41
1
10
14.8987022799257
20
2.03977833681836
30
0
41
1
10
14.9273365127712
20
2.05797862566547
30
0
41
1
10
14.9560988724109
20
2.07592624648745
30
0
41
1
10
14.984989333225
20
2.09361432229673
30
0
41
1
10
15.0140078685831
20
2.11103589155889
30
0
41
1
10
15.0431544508549
20
2.12818390779205
30
0
41
1
10
15.072429051394
20
2.14505123877532
30
0
41
1
10
15.101831640529
20
2.16163066585909
30
0
41
1
10
15.1313621875532
20
2.17791488324423
30
0
41
1
10
15.1610206607139
20
2.19389649726642
30
0
41
1
10
15.1908070272026
20
2.20956802567537
30
0
41
1
10
15.2207212531444
20
2.22492189691209
30
0
41
1
10
15.2507633035882
20
2.23995044938317
30
0
41
1
10
15.280933142496
20
2.25464593073227
30
0
41
1
10
15.3112307327336
20
2.26900049710889
30
0
41
1
10
15.3416560360593
20
2.28300621243443
30
0
41
1
10
15.3722090131152
20
2.29665504766547
30
0
41
1
10
15.4028896234159
20
2.3099388800542
30
0
41
1
10
15.4336978253392
20
2.32284949240622
30
0
41
1
10
15.4646335761156
20
2.3353785723354
30
0
41
1
10
15.4956968318189
20
2.34751771151619
30
0
41
1
10
15.5268875473554
20
2.3592584049328
30
0
41
1
10
15.5582056764546
20
2.3705920501265
30
0
41
1
10
15.5896511716584
20
2.38150994643709
30
0
41
1
10
15.6212239843116
20
2.39200329425279
30
0
41
1
10
15.652924064553
20
2.40206319421534
30
0
41
1
10
15.6847513612983
20
2.41168064657987
30
0
41
1
10
15.7167058222569
20
2.42084654998118
30
0
41
1
10
15.748787393821
20
2.42955170241385
30
0
41
1
10
15.7809960214318
20
2.43778679388964
30
0
41
1
10
15.8133316481624
20
2.44554243032661
30
0
41
1
10
15.8457942309844
20
2.4528090426366
30
0
41
1
10
15.8783837431871
20
2.4595772390858
30
0
41
1
10
15.9111001149094
20
2.46584150634206
30
0
41
1
10
15.9439433483789
20
2.47159611493828
30
0
41
1
10
15.9769134508383
20
2.47683540692893
30
0
41
1
10
16.0100104305076
20
2.48155361202444
30
0
41
1
10
16.0432342968807
20
2.48574527869295
30
0
41
1
10
16.0765850554837
20
2.48940372538689
30
0
41
1
10
16.1100627287239
20
2.4925268369397
30
0
41
1
10
16.1436672773726
20
2.49509531272611
30
0
41
1
10
16.1773988954207
20
2.49715431473245
30
0
41
1
10
16.1999279000785
20
2.49805438631893
30
0
41
1
10
16.2112139038628
20
2.49850528113143
30
0
0
SPLINE
5
145
100
AcDbEntity
8
1
62
256
6
ByLayer
370
18
48
1
60
0
100
AcDbSpline
70
4
71
3
72
14
73
10
40
0
40
0
40
0
40
0
40
0.0616969604787231
40
0.151883127925406
40
0.270558090598636
40
0.417721765328607
40
0.593375215354641
40
0.797522336531909
40
1
40
1
40
1
40
1
41
1
10
9.19339618752838
20
-2.50137450164846
30
0
41
1
10
9.20084184796065
20
-2.50144827318951
30
0
41
1
10
9.21917127921861
20
-2.50162988104054
30
0
41
1
10
9.25182964211024
20
-2.5014142616611
30
0
41
1
10
9.29480682076181
20
-2.50037133871982
30
0
41
1
10
9.34810483106656
20
-2.49779868865139
30
0
41
1
10
9.411724008286
20
-2.49289770932094
30
0
41
1
10
9.48202300434812
20
-2.48508805440548
30
0
41
1
10
9.53111474063334
20
-2.47784090095476
30
0
41
1
10
9.55555919689425
20
-2.47378613556046
30
0
0
SPLINE
5
146
100
AcDbEntity
8
1
62
256
6
ByLayer
370
18
48
1
60
0
100
AcDbSpline
70
4
71
3
72
18
73
14
40
0
40
0
40
0
40
0
40
0.249999999999998
40
0.249999999999998
40
0.499999999999996
40
0.499999999999996
40
0.749999999999994
40
0.749999999999994
40
0.812499999999996
40
0.812499999999996
40
0.874999999999997
40
0.874999999999997
40
1
40
1
40
1
40
1
41
1
10
8
20
-2.14465273124532
30
0
41
1
10
8.10032483677074
20
-2.20171815986623
30
0
41
1
10
8.19984676587899
20
-2.25204695772763
30
0
41
1
10
8.39819113042375
20
-2.33935144161472
30
0
41
1
10
8.49701025859792
20
-2.37632354167928
30
0
41
1
10
8.69494062756459
20
-2.43640924693207
30
0
41
1
10
8.79405975829508
20
-2.45949275414642
30
0
41
1
10
8.91879128600846
20
-2.47941954041011
30
0
41
1
10
8.94377930880776
20
-2.48295748886608
30
0
41
1
10
8.99385537192217
20
-2.48912809409939
30
0
41
1
10
9.01891640230792
20
-2.4917561584729
30
0
41
1
10
9.09388384937827
20
-2.49824307782438
30
0
41
1
10
9.14369327251657
20
-2.50072102742541
30
0
41
1
10
9.19339621359711
20
-2.50137683000804
30
0
0
SPLINE
5
147
100
AcDbEntity
8
1
62
256
6
ByLayer
370
18
48
1
60
0
100
AcDbSpline
70
4
71
3
72
13
73
9
40
0
40
0
40
0
40
0
40
0.0129201772529674
40
0.183473421406573
40
0.439303287636981
40
0.695133153867388
40
0.950963020097796
40
1
40
1
40
1
40
1
41
1
10
19.4365505384851
20
0.427684207874961
30
0
41
1
10
19.4160336923235
20
0.448509958581639
30
0
41
1
10
19.1246835128284
20
0.743470327786213
30
0
41
0.999999999999999
10
18.4270833333334
20
1.41952105919623
30
0
41
1
10
17.34375
20
2.197002299796
30
0
41
1
10
16.125
20
2.43424059758411
30
0
41
1
10
15.2346307762897
20
2.10410212322532
30
0
41
1
10
14.7505115525794
20
1.78880136589527
30
0
41
1
10
14.6726423288691
20
1.73493297401842
30
0
0
SPLINE
5
148
100
AcDbEntity
8
1
62
256
6
ByLayer
370
18
48
1
60
0
100
AcDbSpline
70
4
71
3
72
8
73
4
40
0
40
0
40
0
40
0
40
1
40
1
40
1
40
1
41
1
10
20.8206043558093
20
-0.197528378551368
30
0
41
1
10
20.8109678178218
20
-0.196332147663327
30
0
41
1
10
20.8005987087421
20
-0.193842670224114
30
0
41
1
10
20.7894785435171
20
-0.190019139887909
30
0
0
SPLINE
5
149
100
AcDbEntity
8
1
62
256
6
ByLayer
370
18
48
1
60
0
100
AcDbSpline
70
4
71
3
72
8
73
4
40
0
40
0
40
0
40
0
40
1
40
1
40
1
40
1
41
1
10
20.8206043558097
20
-0.197528378551283
30
0
41
1
10
20.8180743209571
20
-0.1861485815744
30
0
41
1
10
20.8156053000366
20
-0.174871455438279
30
0
41
1
10
20.8131933122738
20
-0.16369030127197
30
0
0
SPLINE
5
14A
100
AcDbEntity
8
1
62
256
6
ByLayer
370
13
48
1
60
0
100
AcDbSpline
70
4
71
3
72
8
73
4
40
0
40
0
40
0
40
0
40
1
40
1
40
1
40
1
41
1
10
20.8131933295012
20
-0.163690313320473
30
0
41
1
10
20.4671704077034
20
0.182239560302406
30
0
41
1
10
20.1211474859055
20
0.533137547960763
30
0
41
1
10
19.7751245641077
20
0.854106999992013
30
0
0
SPLINE
5
14B
100
AcDbEntity
8
1
62
256
6
ByLayer
370
13
48
1
60
0
100
AcDbSpline
70
4
71
3
72
10
73
6
40
0
40
0
40
0
40
0
40
0.187252845870524
40
0.458168563913683
40
1
40
1
40
1
40
1
41
1
10
10.9990877084163
20
-2.05488469129031
30
0
41
1
10
10.8118918056109
20
-2.13228160452957
30
0
41
1
10
10.3538625694721
20
-2.2695693246925
30
0
41
1
10
9.35416666666666
20
-2.26282063651584
30
0
41
1
10
8.54166666666669
20
-1.82379100833677
30
0
41
1
10
8
20
-1.38829694935944
30
0
0
SPLINE
5
14C
100
AcDbEntity
8
1
62
256
6
ByLayer
370
18
48
1
60
0
100
AcDbSpline
70
4
71
3
72
36
73
32
40
0
40
0
40
0
40
0
40
0.117737107387562
40
0.117737107387562
40
0.235474214775125
40
0.235474214775125
40
0.264908491622015
40
0.264908491622015
40
0.294342768468905
40
0.294342768468905
40
0.353211322162684
40
0.353211322162684
40
0.470948429550244
40
0.470948429550244
40
0.588685536937803
40
0.588685536937803
40
0.618119813784695
40
0.618119813784695
40
0.647554090631586
40
0.647554090631586
40
0.706422644325366
40
0.706422644325366
40
0.824159751712926
40
0.824159751712926
40
0.883028305406706
40
0.883028305406706
40
0.912462582253598
40
0.912462582253598
40
0.941896859100489
40
0.941896859100489
40
1
40
1
40
1
40
1
41
1
10
20.7894785435189
20
-0.190019139887284
30
0
41
1
10
20.6562671556719
20
-0.050462957563326
30
0
41
1
10
20.5234619825441
20
0.0886364106572444
30
0
41
1
10
20.2579159377551
20
0.365084565531532
30
0
41
1
10
20.1251924710972
20
0.502448361252448
30
0
41
1
10
19.9581213794283
20
0.671730076068542
30
0
41
1
10
19.9246454422048
20
0.705461253411755
30
0
41
1
10
19.8575199808808
20
0.772625290207884
30
0
41
1
10
19.8238309497002
20
0.806095752402229
30
0
41
1
10
19.7232807297981
20
0.905154045567912
30
0
41
1
10
19.6566685248117
20
0.969656368259365
30
0
41
1
10
19.457480982514
20
1.1583539449872
30
0
41
1
10
19.3255157317368
20
1.27773776919406
30
0
41
1
10
19.0608817473121
20
1.50271721125435
30
0
41
1
10
18.9282546113716
20
1.60835068794958
30
0
41
1
10
18.7608332619305
20
1.73081074036907
30
0
41
1
10
18.7272669708656
20
1.75482054996323
30
0
41
1
10
18.6599372113293
20
1.80183682390452
30
0
41
1
10
18.6263491264892
20
1.82472057150926
30
0
41
1
10
18.5258047275518
20
1.8914595413091
30
0
41
1
10
18.4590510091186
20
1.93341632350996
30
0
41
1
10
18.2593336854321
20
2.05146417581645
30
0
41
1
10
18.1269421238986
20
2.11978623400668
30
0
41
1
10
17.927998176572
20
2.20482741021246
30
0
41
1
10
17.8616211747648
20
2.23022485644194
30
0
41
1
10
17.7616932476535
20
2.26372388628153
30
0
41
1
10
17.7283225951746
20
2.27412940504192
30
0
41
1
10
17.661411701532
20
2.29340610871284
30
0
41
1
10
17.6278062647756
20
2.3022920742894
30
0
41
1
10
17.5281068358475
20
2.32628107305717
30
0
41
1
10
17.4622597046069
20
2.33903977248261
30
0
41
1
10
17.3965971525462
20
2.34871182555079
30
0
0
SPLINE
5
14D
100
AcDbEntity
8
1
62
256
6
ByLayer
370
18
48
1
60
0
100
AcDbSpline
70
4
71
3
72
39
73
35
40
0
40
0
40
0
40
0
40
0.0194912484052842
40
0.0194912484052842
40
0.0492036348172478
40
0.0492036348172478
40
0.168053180465102
40
0.168053180465102
40
0.286902726112957
40
0.286902726112957
40
0.31661511252492
40
0.31661511252492
40
0.346327498936884
40
0.346327498936884
40
0.405752271760808
40
0.405752271760808
40
0.524601817408654
40
0.524601817408654
40
0.584026590232577
40
0.584026590232577
40
0.613738976644537
40
0.613738976644537
40
0.643451363056496
40
0.643451363056496
40
0.76230090870433
40
0.76230090870433
40
0.821725681528247
40
0.821725681528247
40
0.881150454352163
40
0.94057522717608
40
0.94057522717608
40
0.97028761358804
40
0.97028761358804
40
1
40
1
40
1
40
1
41
1
10
11.3606008743062
20
-1.94843833390812
30
0
41
1
10
11.3386265240462
20
-1.96157971801693
30
0
41
1
10
11.316616360667
20
-1.97446207248882
30
0
41
1
10
11.2610380530119
20
-2.00626635954927
30
0
41
1
10
11.2275589638681
20
-2.02475849207155
30
0
41
1
10
11.0604848287679
20
-2.1136744945768
30
0
41
1
10
10.9278561285121
20
-2.17351448959704
30
0
41
1
10
10.6625138451494
20
-2.27039267570578
30
0
41
1
10
10.5298052620488
20
-2.30736264285173
30
0
41
1
10
10.3624746826087
20
-2.33886291660221
30
0
41
1
10
10.3289377469907
20
-2.3444249550293
30
0
41
1
10
10.2616923060287
20
-2.35404716095417
30
0
41
1
10
10.2280880919673
20
-2.35809075164377
30
0
41
1
10
10.1276054812012
20
-2.36789287606041
30
0
41
1
10
10.0609239642071
20
-2.37134588675235
30
0
41
1
10
9.86143548710805
20
-2.37248312058057
30
0
41
1
10
9.72920081625713
20
-2.36096997788488
30
0
41
1
10
9.53037979984651
20
-2.32452899421259
30
0
41
1
10
9.46402154282845
20
-2.30921116391218
30
0
41
1
10
9.36413610472061
20
-2.28151086057969
30
0
41
1
10
9.33078288562166
20
-2.27148936648447
30
0
41
1
10
9.26392206317536
20
-2.24986577245372
30
0
41
1
10
9.23036089912216
20
-2.23824357982014
30
0
41
1
10
9.06271831157397
20
-2.17639500591267
30
0
41
1
10
8.9301174660902
20
-2.11543938602205
30
0
41
1
10
8.73171114801281
20
-2.00789759341961
30
0
41
1
10
8.66566164779243
20
-1.96935001063068
30
0
41
1
10
8.53345236681321
20
-1.88690440479337
30
0
41
1
10
8.4011216992937
20
-1.79914174959546
30
0
41
1
10
8.26792075022792
20
-1.70134432962959
30
0
41
1
10
8.16749680163409
20
-1.62437258623149
30
0
41
1
10
8.13396766232583
20
-1.59813417750098
30
0
41
1
10
8.06698119053726
20
-1.54468505266752
30
0
41
1
10
8.03349359905354
20
-1.51745128529777
30
0
41
1
10
8
20
-1.48971913676354
30
0
0
SPLINE
5
14E
100
AcDbEntity
8
1
62
256
6
ByLayer
370
18
48
1
60
0
100
AcDbSpline
70
4
71
3
72
8
73
4
40
0
40
0
40
0
40
0
40
1
40
1
40
1
40
1
41
1
10
20.8206043558169
20
-1.89560325409181
30
0
41
1
10
20.8109678178272
20
-1.91191916931547
30
0
41
1
10
20.800598708745
20
-1.92843090219577
30
0
41
1
10
20.7894785435172
20
-1.94514683601815
30
0
0
SPLINE
5
14F
100
AcDbEntity
8
1
62
256
6
ByLayer
370
18
48
1
60
0
100
AcDbSpline
70
4
71
3
72
8
73
4
40
0
40
0
40
0
40
0
40
1
40
1
40
1
40
1
41
1
10
20.8206043558169
20
-1.89560325409192
30
0
41
1
10
20.8180743209649
20
-1.88630209855484
30
0
41
1
10
20.815605300045
20
-1.87688316578991
30
0
41
1
10
20.8131933122827
20
-1.8673541395284
30
0
0
SPLINE
5
150
100
AcDbEntity
8
1
62
256
6
ByLayer
370
13
48
1
60
0
100
AcDbSpline
70
4
71
3
72
8
73
4
40
0
40
0
40
0
40
0
40
1
40
1
40
1
40
1
41
1
10
20.8131933295101
20
-1.86735412337015
30
0
41
1
10
20.7776899971904
20
-1.88741060697677
30
0
41
1
10
20.7421866648706
20
-1.90672550279621
30
0
41
1
10
20.7066833325508
20
-1.92529049381935
30
0
0
SPLINE
5
151
100
AcDbEntity
8
1
62
256
6
ByLayer
370
13
48
1
60
0
100
AcDbSpline
70
4
71
3
72
12
73
8
40
0
40
0
40
0
40
0
40
0.199664125937026
40
0.35048608411352
40
0.576719021378261
40
0.802951958643003
40
1
40
1
40
1
40
1
41
1
10
20.4506199182482
20
-2.04606969375595
30
0
41
1
10
20.0920799454988
20
-2.19665436096216
30
0
41
1
10
19.4627066394161
20
-2.32315800026825
30
0
41
1
10
18.4270833333334
20
-2.08977302733791
30
0
41
1
10
17.34375
20
-1.38893318850336
30
0
41
1
10
16.1774077709722
20
-0.250822257026016
30
0
41
1
10
15.4173155419442
20
0.523896795860765
30
0
41
1
10
15.0634733129164
20
0.852224811048188
30
0
0
SPLINE
5
152
100
AcDbEntity
8
1
62
256
6
ByLayer
370
18
48
1
60
0
100
AcDbSpline
70
4
71
3
72
75
73
71
40
0
40
0
40
0
40
0
40
0.049449868981182
40
0.049449868981182
40
0.0988997379623639
40
0.0988997379623639
40
0.111262205207659
40
0.111262205207659
40
0.123624672452955
40
0.123624672452955
40
0.148349606943547
40
0.148349606943547
40
0.197799475924731
40
0.197799475924731
40
0.247249344905916
40
0.247249344905916
40
0.259611812151212
40
0.259611812151212
40
0.271974279396509
40
0.271974279396509
40
0.296699213887103
40
0.296699213887103
40
0.34614908286829
40
0.34614908286829
40
0.370874017358884
40
0.370874017358884
40
0.383236484604181
40
0.383236484604181
40
0.395598951849478
40
0.395598951849478
40
0.445048820830665
40
0.445048820830665
40
0.494498689811852
40
0.494498689811852
40
0.519223624302445
40
0.519223624302445
40
0.543948558793038
40
0.543948558793038
40
0.593398427774225
40
0.593398427774225
40
0.642848296755412
40
0.642848296755412
40
0.655210764000709
40
0.655210764000709
40
0.667573231246006
40
0.692298165736601
40
0.692298165736601
40
0.741748034717793
40
0.741748034717793
40
0.766472969208388
40
0.766472969208388
40
0.778835436453686
40
0.778835436453686
40
0.791197903698984
40
0.791197903698984
40
0.840647772680176
40
0.840647772680176
40
0.890097641661368
40
0.890097641661368
40
0.902460108906666
40
0.902460108906666
40
0.914822576151963
40
0.914822576151963
40
0.939547510642558
40
0.939547510642558
40
0.964272445133152
40
0.964272445133152
40
0.988997379623747
40
0.988997379623747
40
1
40
1
40
1
40
1
41
1
10
20.7894785435189
20
-1.94514683601704
30
0
41
1
10
20.6562671556688
20
-2.02454610798588
30
0
41
1
10
20.5234619825293
20
-2.09413618274635
30
0
41
1
10
20.2579159376955
20
-2.21199018734921
30
0
41
1
10
20.1251924710046
20
-2.26024127108062
30
0
41
1
10
19.9581213792797
20
-2.30472251699678
30
0
41
1
10
19.9246454420441
20
-2.31281668772871
30
0
41
1
10
19.8575199806944
20
-2.32738202762042
30
0
41
1
10
19.8238309495229
20
-2.33385795344549
30
0
41
1
10
19.7232807296728
20
-2.35071579029883
30
0
41
1
10
19.6566685247123
20
-2.35859678748955
30
0
41
1
10
19.4574809824689
20
-2.37272293835753
30
0
41
1
10
19.3255157316969
20
-2.36950541091667
30
0
41
1
10
19.0608817472257
20
-2.33958707776884
30
0
41
1
10
18.9282546112334
20
-2.31289195759024
30
0
41
1
10
18.760833261689
20
-2.26490630516153
30
0
41
1
10
18.7272669706015
20
-2.25457302482732
30
0
41
1
10
18.6599372110158
20
-2.2324140062212
30
0
41
1
10
18.6263491262567
20
-2.22064582778174
30
0
41
1
10
18.5258047273938
20
-2.18331558605689
30
0
41
1
10
18.459051008999
20
-2.15572733851368
30
0
41
1
10
18.2593336853954
20
-2.064919024966
30
0
41
1
10
18.1269421238738
20
-1.9936802780129
30
0
41
1
10
17.9279981764968
20
-1.87036674638017
30
0
41
1
10
17.8616211746611
20
-1.82648138085543
30
0
41
1
10
17.7616932474889
20
-1.75656928382739
30
0
41
1
10
17.7283225949867
20
-1.73259062769668
30
0
41
1
10
17.6614117012912
20
-1.68331607505715
30
0
41
1
10
17.6278062645021
20
-1.6579692638339
30
0
41
1
10
17.4601876240748
20
-1.52874405436211
30
0
41
1
10
17.3274418449311
20
-1.41761074651794
30
0
41
1
10
17.0622524540231
20
-1.18247871826952
30
0
41
1
10
16.9298887066353
20
-1.05839195682728
30
0
41
1
10
16.7300983002332
20
-0.863565161460627
30
0
41
1
10
16.6632705023661
20
-0.797175592780263
30
0
41
1
10
16.5289211590822
20
-0.661869748420656
30
0
41
1
10
16.4620786699955
20
-0.593640763652104
30
0
41
1
10
16.2620678259322
20
-0.387709534552499
30
0
41
1
10
16.1293870573628
20
-0.248795382713979
30
0
41
1
10
15.8633695715884
20
0.030363563819634
30
0
41
1
10
15.7301058703606
20
0.170683956236303
30
0
41
1
10
15.5619591241133
20
0.345858622172813
30
0
41
1
10
15.5282462918452
20
0.38088407724095
30
0
41
1
10
15.4611097982924
20
0.450375541406629
30
0
41
1
10
15.3606572990052
20
0.553962537298105
30
0
41
1
10
15.2608074452964
20
0.655469395036562
30
0
41
1
10
15.0615082600339
20
0.855315420863434
30
0
41
1
10
14.9291724213259
20
0.984340149395081
30
0
41
1
10
14.7298534646521
20
1.16963451710396
30
0
41
1
10
14.6632810157177
20
1.23002602731265
30
0
41
1
10
14.5629796276422
20
1.31834835457912
30
0
41
1
10
14.5294718912659
20
1.3474113996044
30
0
41
1
10
14.4622661147592
20
1.40474504528501
30
0
41
1
10
14.4286371986381
20
1.43295482127596
30
0
41
1
10
14.2611466970186
20
1.57094375546916
30
0
41
1
10
14.128374211716
20
1.67228221625206
30
0
41
1
10
13.8626273296228
20
1.85661392056136
30
0
41
1
10
13.729649368645
20
1.93960330284872
30
0
41
1
10
13.5620142040277
20
2.03158283335617
30
0
41
1
10
13.5284194089106
20
2.04938762832836
30
0
41
1
10
13.4610694737085
20
2.08377318782772
30
0
41
1
10
13.4273057535777
20
2.10035525357941
30
0
41
1
10
13.3264284210642
20
2.14785314676448
30
0
41
1
10
13.2595081819762
20
2.17663374935327
30
0
41
1
10
13.1261640582305
20
2.22798244231922
30
0
41
1
10
13.0597321667669
20
2.25056106433183
30
0
41
1
10
12.9270025099224
20
2.28953470433839
30
0
41
1
10
12.8606992392511
20
2.3059283303462
30
0
41
1
10
12.7647175026022
20
2.32541269175837
30
0
41
1
10
12.7351345422707
20
2.33084967071343
30
0
41
1
10
12.7055172942285
20
2.33572356237298
30
0
0
SPLINE
5
153
100
AcDbEntity
8
1
62
256
6
ByLayer
370
18
48
1
60
0
100
AcDbSpline
70
4
71
3
72
57
73
53
40
0
40
0
40
0
40
0
40
0.013611733238383
40
0.0272244726103618
40
0.0408382173791824
40
0.0544529682835741
40
0.0680687277717672
40
0.0816855002355441
40
0.0953032922444089
40
0.108922112779752
40
0.122541973469112
40
0.136162888820491
40
0.149784876456625
40
0.163407957349372
40
0.17703215605409
40
0.190657500943934
40
0.204284024444234
40
0.217911763266767
40
0.231540758643936
40
0.245171056562963
40
0.258802707999857
40
0.272435769153263
40
0.286070301678171
40
0.299706372919351
40
0.313344056144553
40
0.326983430777399
40
0.340624582629945
40
0.354267602762828
40
0.367912549501479
40
0.381559436272375
40
0.395208267760641
40
0.408859042246201
40
0.422511751878497
40
0.436166382951422
40
0.449822916178446
40
0.463481326967957
40
0.477141585698729
40
0.49080365799558
40
0.504467505005147
40
0.518133083671825
40
0.531800347013857
40
0.545469244399557
40
0.55913972182369
40
0.572811722183997
40
0.586485185557937
40
0.600160049479542
40
0.61383624921653
40
0.627513718047599
40
0.684543298131985
40
0.808270642658693
40
0.998516608086986
40
1
40
1
40
1
40
1
41
1
10
17.323453466647
20
-2.0842953734774
30
0
41
1
10
17.3310494088766
20
-2.08894664942278
30
0
41
1
10
17.3462418548022
20
-2.09824954512021
30
0
41
1
10
17.3690303974109
20
-2.11193689452892
30
0
41
1
10
17.3918199274698
20
-2.12542745486903
30
0
41
1
10
17.414610382698
20
-2.13870055054076
30
0
41
1
10
17.437401790006
20
-2.15175971997036
30
0
41
1
10
17.4601941524331
20
-2.16460201106924
30
0
41
1
10
17.4829874794419
20
-2.17722620943178
30
0
41
1
10
17.5057817787973
20
-2.18963063337978
30
0
41
1
10
17.5285770587394
20
-2.20181372487272
30
0
41
1
10
17.5513733273981
20
-2.21377389118459
30
0
41
1
10
17.5741705929465
20
-2.22550954735959
30
0
41
1
10
17.5969688635569
20
-2.23701910486341
30
0
41
1
10
17.6197681474093
20
-2.24830097465269
30
0
41
1
10
17.6425684526855
20
-2.25935356638115
30
0
41
1
10
17.665369787568
20
-2.27017528864087
30
0
41
1
10
17.688172160237
20
-2.28076454892556
30
0
41
1
10
17.7109755788675
20
-2.29111975367064
30
0
41
1
10
17.7337800516271
20
-2.30123930826556
30
0
41
1
10
17.7565855866743
20
-2.31112161709874
30
0
41
1
10
17.7793921921503
20
-2.32076508350062
30
0
41
1
10
17.8021998761997
20
-2.33016811006237
30
0
41
1
10
17.8250086468797
20
-2.33932909755265
30
0
41
1
10
17.8478185124862
20
-2.34824644906814
30
0
41
1
10
17.870629480326
20
-2.35691855464768
30
0
41
1
10
17.893441560522
20
-2.36534384852814
30
0
41
1
10
17.9162547268764
20
-2.37352058661077
30
0
41
1
10
17.939068962729
20
-2.38144777992284
30
0
41
1
10
17.9618842843926
20
-2.3891253195479
30
0
41
1
10
17.9847006716724
20
-2.39655290476824
30
0
41
1
10
18.0075181069839
20
-2.40373028305152
30
0
41
1
10
18.0303365716885
20
-2.41065718819388
30
0
41
1
10
18.0531560473859
20
-2.41733335701676
30
0
41
1
10
18.0759765155707
20
-2.42375852490346
30
0
41
1
10
18.0987979577256
20
-2.42993242700754
30
0
41
1
10
18.1216203553018
20
-2.43585479793944
30
0
41
1
10
18.1444436897167
20
-2.44152537186625
30
0
41
1
10
18.1672679423941
20
-2.44694388248189
30
0
41
1
10
18.1900930946164
20
-2.4521100630819
30
0
41
1
10
18.2129191280881
20
-2.45702364634957
30
0
41
1
10
18.2357460228407
20
-2.46168436519307
30
0
41
1
10
18.2585737650621
20
-2.4660919496653
30
0
41
1
10
18.2814023178811
20
-2.47024613850547
30
0
41
1
10
18.3042317304285
20
-2.47414663610198
30
0
41
1
10
18.3270617307603
20
-2.47779327317923
30
0
41
1
10
18.3498932453282
20
-2.48118540705889
30
0
41
1
10
18.3968422118199
20
-2.48764027183975
30
0
41
1
10
18.5051328062741
20
-2.49934006047496
30
0
41
1
10
18.7118047812831
20
-2.5063995998305
30
0
41
1
10
18.8876852091195
20
-2.48961194181413
30
0
41
1
10
18.994694303122
20
-2.47088953624174
30
0
41
1
10
18.9955222289795
20
-2.4707441730485
30
0
0
SPLINE
5
154
100
AcDbEntity
8
1
62
256
6
ByLayer
370
18
48
1
60
0
100
AcDbSpline
70
4
71
3
72
9
73
5
40
0
40
0
40
0
40
0
40
0.596236092181384
40
1
40
1
40
1
40
1
41
1
10
16.2112139062196
20
-1.17816276912282
30
0
41
1
10
16.4322695660881
20
-1.39459522030379
30
0
41
1
10
16.8030030841568
20
-1.72933611680864
30
0
41
1
10
17.1737483687743
20
-1.99195421786311
30
0
41
1
10
17.3234534666465
20
-2.08429537347709
30
0
0
SPLINE
5
155
100
AcDbEntity
8
1
62
256
6
ByLayer
370
18
48
1
60
0
100
AcDbSpline
70
4
71
3
72
103
73
99
40
0
40
0
40
0
40
0
40
0.0081692631059836
40
0.0163868279022594
40
0.0246524334060401
40
0.0329658163374005
40
0.0413267116945089
40
0.0497348533674544
40
0.0581899747922401
40
0.0666918096465641
40
0.0752400925890321
40
0.0838345600435536
40
0.0924749520710201
40
0.101161117903272
40
0.10989310357374
40
0.118670975862788
40
0.127494801097118
40
0.136364645138991
40
0.145280573382871
40
0.154242650759892
40
0.163250941750518
40
0.172305510405848
40
0.181406420377965
40
0.190553734959773
40
0.19974751713478
40
0.208987829637235
40
0.218274735023104
40
0.227608295752379
40
0.236988574283156
40
0.246415633178
40
0.255889535223072
40
0.265410343560566
40
0.274978121834935
40
0.284592934353446
40
0.294254846261621
40
0.303963923734078
40
0.313720234181388
40
0.323523846473414
40
0.333374831179853
40
0.34327326082842
40
0.353219210181364
40
0.36321275653092
40
0.373253980014237
40
0.383342963948498
40
0.393479795186778
40
0.403664564495351
40
0.413897366953032
40
0.424178302373226
40
0.434507475749354
40
0.44488499772428
40
0.455310985084435
40
0.465785561279299
40
0.476308856964628
40
0.486880986687595
40
0.497501984231309
40
0.508171859067003
40
0.518890613566315
40
0.529658243186665
40
0.540474736683824
40
0.551340076352655
40
0.562254238296954
40
0.573217192729431
40
0.584228904302784
40
0.595289332472972
40
0.606398431895752
40
0.617556152857521
40
0.628762441741698
40
0.640017241531716
40
0.651320492351839
40
0.662672132047049
40
0.674072096803233
40
0.685520321808897
40
0.697016741959781
40
0.708561292607682
40
0.720153910354786
40
0.731794533894973
40
0.743483104903419
40
0.755219568975955
40
0.767003876619623
40
0.778835984295866
40
0.790715855517792
40
0.802643462003068
40
0.81461878488382
40
0.826641815975082
40
0.838712559103214
40
0.850831031495792
40
0.862997265239848
40
0.875211321138476
40
0.887473303102788
40
0.89978331051255
40
0.912141429425884
40
0.924547732933591
40
0.93700228155815
40
0.949505123698609
40
0.962056296122628
40
0.974655824506888
40
0.987303724027257
40
1
40
1
40
1
40
1
41
1
10
13.5406601000698
20
1.6004967808087
30
0
41
1
10
13.5479297483184
20
1.59430213304404
30
0
41
1
10
13.5625120274315
20
1.58187621096053
30
0
41
1
10
13.5844477831912
20
1.56299686829337
30
0
41
1
10
13.6065109972667
20
1.54387096512056
30
0
41
1
10
13.6287012630633
20
1.52448429362997
30
0
41
1
10
13.6510183864338
20
1.50483980429652
30
0
41
1
10
13.6734621052684
20
1.48493587426861
30
0
41
1
10
13.696032165373
20
1.46477218175295
30
0
41
1
10
13.7187282989516
20
1.44434812134662
30
0
41
1
10
13.7415502335501
20
1.42366322703208
30
0
41
1
10
13.7644976781108
20
1.40271708246871
30
0
41
1
10
13.7875704672501
20
1.38150916860107
30
0
41
1
10
13.8107685342918
20
1.36003908411732
30
0
41
1
10
13.8340916422264
20
1.33830714400341
30
0
41
1
10
13.8575398200059
20
1.31631341672585
30
0
41
1
10
13.8811130988963
20
1.29405805778492
30
0
41
1
10
13.9048115174587
20
1.2715412819102
30
0
41
1
10
13.9286351151516
20
1.24876337672134
30
0
41
1
10
13.9525839340994
20
1.22572470048576
30
0
41
1
10
13.9766580186555
20
1.20242568417984
30
0
41
1
10
14.0008574155608
20
1.17886683239683
30
0
41
1
10
14.025182173942
20
1.15504872457475
30
0
41
1
10
14.0496323453526
20
1.1309720161469
30
0
41
1
10
14.0742079838029
20
1.10663743972196
30
0
41
1
10
14.0989091457929
20
1.08204580626497
30
0
41
1
10
14.1237358903439
20
1.057198006287
30
0
41
1
10
14.1486882790319
20
1.03209501104121
30
0
41
1
10
14.1737663760186
20
1.00673787372625
30
0
41
1
10
14.1989702480852
20
0.98112773069667
30
0
41
1
10
14.2242999646632
20
0.955265802680117
30
0
41
1
10
14.2497555978684
20
0.929153396001908
30
0
41
1
10
14.2753372225322
20
0.902791903816677
30
0
41
1
10
14.3010449162344
20
0.876182807346879
30
0
41
1
10
14.3268787593359
20
0.84932767712877
30
0
41
1
10
14.3528388350107
20
0.822228174265319
30
0
41
1
10
14.3789252292786
20
0.794886051686461
30
0
41
1
10
14.4051380310376
20
0.767303155416187
30
0
41
1
10
14.4314773320964
20
0.739481425847487
30
0
41
1
10
14.4579432272068
20
0.711422899023916
30
0
41
1
10
14.4845358140961
20
0.683129707928771
30
0
41
1
10
14.5112551934997
20
0.654604083781493
30
0
41
1
10
14.5381014691929
20
0.625848357341198
30
0
41
1
10
14.5650747480241
20
0.596864960217971
30
0
41
1
10
14.5921751399464
20
0.567656426190837
30
0
41
1
10
14.6194027580504
20
0.538225392534258
30
0
41
1
10
14.6467577185959
20
0.508574601348954
30
0
41
1
10
14.6742401410455
20
0.478706900911107
30
0
41
1
10
14.701850148091
20
0.448625246988001
30
0
41
1
10
14.7295878657087
20
0.418332704315645
30
0
41
1
10
14.7574534231023
20
0.387832447502376
30
0
41
1
10
14.785446953069
20
0.357127764128478
30
0
41
1
10
14.8135685694877
20
0.326222073021455
30
0
41
1
10
14.8418182927269
20
0.295119037716432
30
0
41
1
10
14.8701961991173
20
0.263822939218272
30
0
41
1
10
14.8987022805022
20
0.232338267394397
30
0
41
1
10
14.9273365133771
20
0.200669672041727
30
0
41
1
10
14.956098873047
20
0.168821942067353
30
0
41
1
10
14.9849893338918
20
0.136800008641217
30
0
41
1
10
15.0140078692812
20
0.104608946402493
30
0
41
1
10
15.0431544515849
20
0.0722539752003399
30
0
41
1
10
15.0724290521566
20
0.0397404617002337
30
0
41
1
10
15.1018316413249
20
0.0070739210354418
30
0
41
1
10
15.1313621883829
20
-0.0257399815438646
30
0
41
1
10
15.1610206615781
20
-0.0586954290116068
30
0
41
1
10
15.1908070281019
20
-0.0917864509000594
30
0
41
1
10
15.2207212540794
20
-0.125006921626351
30
0
41
1
10
15.2507633045595
20
-0.158350558811719
30
0
41
1
10
15.2809331435044
20
-0.191810921593287
30
0
41
1
10
15.3112307337795
20
-0.225381408928257
30
0
41
1
10
15.3416560371435
20
-0.259055257890509
30
0
41
1
10
15.3722090142383
20
-0.292825541960184
30
0
41
1
10
15.4028896245784
20
-0.326685169305108
30
0
41
1
10
15.4336978265419
20
-0.360626881055111
30
0
41
1
10
15.464633577359
20
-0.394643249568674
30
0
41
1
10
15.4956968331037
20
-0.428726676691753
30
0
41
1
10
15.5268875486822
20
-0.462869392009537
30
0
41
1
10
15.5582056778239
20
-0.497063451090099
30
0
41
1
10
15.5896511730709
20
-0.531300733720059
30
0
41
1
10
15.6212239857681
20
-0.56557294213556
30
0
41
1
10
15.6529240660539
20
-0.599871599232927
30
0
41
1
10
15.6847513628444
20
-0.634188046820867
30
0
41
1
10
15.7167058238487
20
-0.668513443677227
30
0
41
1
10
15.7487873954592
20
-0.702838764305199
30
0
41
1
10
15.780996023117
20
-0.737154795024367
30
0
41
1
10
15.8133316498952
20
-0.771452140036729
30
0
41
1
10
15.8457942327654
20
-0.805721201611732
30
0
41
1
10
15.878383745017
20
-0.839952313124201
30
0
41
1
10
15.9111001167887
20
-0.874137068166391
30
0
41
1
10
15.9439433503083
20
-0.908266894365823
30
0
41
1
10
15.9769134528185
20
-0.942333097323342
30
0
41
1
10
16.0100104325391
20
-0.976326776156043
30
0
41
1
10
16.0432342989642
20
-1.01023902146076
30
0
41
1
10
16.0765850576197
20
-1.04406018686996
30
0
41
1
10
16.1100627309132
20
-1.07778261066167
30
0
41
1
10
16.1436672796158
20
-1.11139039422926
30
0
41
1
10
16.1773988977184
20
-1.1448977624419
30
0
41
1
10
16.1999279024127
20
-1.16706033240382
30
0
41
1
10
16.2112139062153
20
-1.17816276911864
30
0
0
SPLINE
5
156
100
AcDbEntity
8
1
62
256
6
ByLayer
370
18
48
1
60
0
100
AcDbSpline
70
4
71
3
72
9
73
5
40
0
40
0
40
0
40
0
40
0.598443838912307
40
1
40
1
40
1
40
1
41
1
10
12.8553488921279
20
2.10349863313979
30
0
41
1
10
12.9919918805287
20
2.02119593743845
30
0
41
1
10
13.2201345751631
20
1.86406419333227
30
0
41
1
10
13.4488184472506
20
1.67881785713064
30
0
41
1
10
13.5406601000698
20
1.6004967808087
30
0
0
SPLINE
5
157
100
AcDbEntity
8
1
62
256
6
ByLayer
370
18
48
1
60
0
100
AcDbSpline
70
4
71
3
72
36
73
32
40
0
40
0
40
0
40
0
40
0.045073206574186
40
0.0893960833228381
40
0.13296712747621
40
0.175784994146798
40
0.217848489478187
40
0.259156563720123
40
0.299708304263427
40
0.339502928665444
40
0.378539777694364
40
0.416818308417845
40
0.454338087359633
40
0.491098783745597
40
0.527100162858014
40
0.562342079515698
40
0.596824471695262
40
0.630547354307122
40
0.663510813138156
40
0.695714998971595
40
0.727160121892598
40
0.757846445787495
40
0.787774283042198
40
0.816944090214214
40
0.845356961237284
40
0.873014135794367
40
0.899916733874289
40
0.92606576336976
40
0.951462127922239
40
0.976106634396938
40
1
40
1
40
1
40
1
41
1
10
12.3480540274617
20
2.35246632367529
30
0
41
1
10
12.3556693278208
20
2.34958273042906
30
0
41
1
10
12.3707731572835
20
2.34386354686745
30
0
41
1
10
12.393238226795
20
2.33505752138947
30
0
41
1
10
12.4153225445434
20
2.3261905119353
30
0
41
1
10
12.4370257114666
20
2.31725370584303
30
0
41
1
10
12.4583474185806
20
2.30826487484717
30
0
41
1
10
12.4792873703666
20
2.29923448751708
30
0
41
1
10
12.4998453032056
20
2.2901745606348
30
0
41
1
10
12.5200209790289
20
2.281096354466
30
0
41
1
10
12.5398141854621
20
2.27201097851338
30
0
41
1
10
12.559224734302
20
2.26292923825133
30
0
41
1
10
12.5782524604552
20
2.25386167958962
30
0
41
1
10
12.5968972207836
20
2.24481858174758
30
0
41
1
10
12.6151588930006
20
2.23580996347357
30
0
41
1
10
12.6330373745829
20
2.22684558570421
30
0
41
1
10
12.6505325816995
20
2.21793495507149
30
0
41
1
10
12.6676444481856
20
2.20908732707426
30
0
41
1
10
12.6843729244525
20
2.20031170935798
30
0
41
1
10
12.700717976728
20
2.19161686449348
30
0
41
1
10
12.7166795852074
20
2.18301131419372
30
0
41
1
10
12.7322577462268
20
2.1745033380511
30
0
41
1
10
12.7474524771198
20
2.1661009822422
30
0
41
1
10
12.7622639571484
20
2.15781195026435
30
0
41
1
10
12.7766922057319
20
2.1496440681272
30
0
41
1
10
12.7907373524246
20
2.14160493271683
30
0
41
1
10
12.8043995680934
20
2.1337016710728
30
0
41
1
10
12.81767901816
20
2.12594178246866
30
0
41
1
10
12.830575811982
20
2.11833032124503
30
0
41
1
10
12.8430902010728
20
2.11087995732493
30
0
41
1
10
12.8513050376174
20
2.10593355877461
30
0
41
1
10
12.8553488921279
20
2.10349863313979
30
0
0
SPLINE
5
158
100
AcDbEntity
8
1
62
256
6
ByLayer
370
18
48
1
60
0
100
AcDbSpline
70
4
71
3
72
9
73
5
40
0
40
0
40
0
40
0
40
0.714628896775776
40
1
40
1
40
1
40
1
41
1
10
11.9484473967517
20
2.46483393593758
30
0
41
1
10
12.0435663387955
20
2.44721791724694
30
0
41
1
10
12.1766907154613
20
2.41334508116935
30
0
41
1
10
12.3100021912901
20
2.36677090498478
30
0
41
1
10
12.3480540274617
20
2.35246632367529
30
0
0
SPLINE
5
159
100
AcDbEntity
8
1
62
256
6
ByLayer
370
18
48
1
60
0
100
AcDbSpline
70
4
71
3
72
38
73
34
40
0
40
0
40
0
40
0
40
0.0219535999757611
40
0.0943097487557192
40
0.172776864030561
40
0.257339195437564
40
0.347972547900993
40
0.41785022121201
40
0.495569112369586
40
0.581132842260757
40
0.674539245445477
40
0.682661034862839
40
0.691418833787173
40
0.700812580022437
40
0.710842203412845
40
0.721507625081314
40
0.732808756688353
40
0.744745499761153
40
0.757317745156438
40
0.770525372736841
40
0.78436825135869
40
0.798846239289782
40
0.8139591851988
40
0.829706929883329
40
0.846089308932117
40
0.863106156547803
40
0.880757310790732
40
0.899042629093037
40
0.917962295998617
40
0.937516962745661
40
0.957707450653284
40
0.978534743060255
40
1
40
1
40
1
40
1
41
1
10
9.83483283819862
20
1.79497472466059
30
0
41
1
10
9.85029808514471
20
1.80694247202473
30
0
41
1
10
9.91673127932654
20
1.85780489675568
30
0
41
1
10
10.0384063598275
20
1.94659836931706
30
0
41
1
10
10.2040948128412
20
2.05749931263537
30
0
41
1
10
10.3826294748546
20
2.16460609067028
30
0
41
1
10
10.555143498478
20
2.25447689610166
30
0
41
1
10
10.722931290923
20
2.32890605925829
30
0
41
1
10
10.8873048645906
20
2.38965320944701
30
0
41
1
10
11.0683356082231
20
2.44173615001969
30
0
41
1
10
11.200347733716
20
2.46778111089969
30
0
41
1
10
11.2781395497228
20
2.47911716379181
30
0
41
1
10
11.296668639908
20
2.48166015815477
30
0
41
1
10
11.3165409356478
20
2.48420500654561
30
0
41
1
10
11.3377560388991
20
2.48671298652854
30
0
41
1
10
11.3603138014416
20
2.4891424880465
30
0
41
1
10
11.3842139676202
20
2.49144925170492
30
0
41
1
10
11.4094562768138
20
2.49358628270198
30
0
41
1
10
11.4360404299456
20
2.49550385964665
30
0
41
1
10
11.4639660957774
20
2.49714951458591
30
0
41
1
10
11.4932329054323
20
2.49846802051167
30
0
41
1
10
11.523840450189
20
2.4994013758365
30
0
41
1
10
11.5557882781755
20
2.49988878863181
30
0
41
1
10
11.5890758912389
20
2.49986666088415
30
0
41
1
10
11.6237027415775
20
2.49926856849413
30
0
41
1
10
11.6596682284476
20
2.49802525491617
30
0
41
1
10
11.6969717001274
20
2.49606456711135
30
0
41
1
10
11.7356126687532
20
2.49331159860347
30
0
41
1
10
11.7755911059144
20
2.48968814280863
30
0
41
1
10
11.8169076552829
20
2.4851225301542
30
0
41
1
10
11.8595633116672
20
2.47951293543832
30
0
41
1
10
11.9035599932482
20
2.47286278562683
30
0
41
1
10
11.933335213541
20
2.46753699822244
30
0
41
1
10
11.9484473967481
20
2.46483393593826
30
0
0
SPLINE
5
15A
100
AcDbEntity
8
1
62
256
6
ByLayer
370
18
48
1
60
0
100
AcDbSpline
70
4
71
3
72
13
73
9
40
0
40
0
40
0
40
0
40
0.224945203926535
40
0.397131849084784
40
0.569318494243032
40
0.741505139401281
40
0.913691784559529
40
1
40
1
40
1
40
1
41
1
10
14.7489526929329
20
0.400995135064875
30
0
41
1
10
14.3951351286219
20
0.760275320058639
30
0
41
1
10
13.7704842309776
20
1.36713486760422
30
0
41
1
10
12.875
20
2.00977126303317
30
0
41
1
10
12.0625
20
2.32566583797745
30
0
41
1
10
11.25
20
2.35209303625081
30
0
41
1
10
10.572578660488
20
2.11237958979348
30
0
41
1
10
10.1659906543093
20
1.87208592462423
30
0
41
1
10
10.030235981464
20
1.7822508434871
30
0
0
SPLINE
5
15B
100
AcDbEntity
8
1
62
256
6
ByLayer
370
18
48
1
60
0
100
AcDbSpline
70
4
71
3
72
8
73
4
40
0
40
0
40
0
40
0
40
1
40
1
40
1
40
1
41
1
10
16.6628093116077
20
-1.73263039276114
30
0
41
1
10
16.6980747224736
20
-1.71479288643451
30
0
41
1
10
16.7333165260337
20
-1.69727544395189
30
0
41
1
10
16.7685411911091
20
-1.68007103998545
30
0
0
SPLINE
5
15C
100
AcDbEntity
8
1
62
256
6
ByLayer
370
18
48
1
60
0
100
AcDbSpline
70
4
71
2
72
6
73
3
40
0
40
0
40
0
40
1
40
1
40
1
41
1
10
19.9832744322238
20
1.31736627219462
30
0
41
1
10
19.5724013064051
20
1.46126836386378
30
0
41
1
10
19.0514656403901
20
1.71787224105569
30
0
0
SPLINE
5
15D
100
AcDbEntity
8
1
62
256
6
ByLayer
370
18
48
1
60
0
100
AcDbSpline
70
4
71
3
72
11
73
7
40
0
40
0
40
0
40
0
40
0.0100312850132339
40
0.458328155402747
40
0.888386352707046
40
1
40
1
40
1
40
1
41
1
10
6.47842730682748
20
-2.33357468193458
30
0
41
1
10
6.48181296939856
20
-2.33107543704267
30
0
41
1
10
6.63671462680483
20
-2.21719640703151
30
0
41
1
10
6.96329236813267
20
-2.03315858643919
30
0
41
1
10
7.3504935641721
20
-1.86697057342789
30
0
41
1
10
7.57010206474655
20
-1.81109345424005
30
0
41
1
10
7.61568262110558
20
-1.80098475235951
30
0
0
SPLINE
5
15E
100
AcDbEntity
8
1
62
256
6
ByLayer
370
18
48
1
60
0
100
AcDbSpline
70
4
71
3
72
10
73
6
40
0
40
0
40
0
40
0
40
0.33261724960372
40
0.743102941950467
40
1
40
1
40
1
40
1
41
1
10
15.6159137856212
20
1.23150927616908
30
0
41
1
10
15.5152090913177
20
1.26735017189102
30
0
41
1
10
15.294337896296
20
1.35841486668662
30
0
41
1
10
15.001234948079
20
1.5159536123798
30
0
41
1
10
14.8219809078452
20
1.63879052562561
30
0
41
1
10
14.7546205274359
20
1.68888162149929
30
0
0
SPLINE
5
15F
100
AcDbEntity
8
1
62
256
6
ByLayer
370
18
48
1
60
0
100
AcDbSpline
70
4
71
3
72
13
73
9
40
0
40
0
40
0
40
0
40
0.310295899971169
40
0.522502203229561
40
0.652303056078023
40
0.78238793025624
40
0.925055324718185
40
1
40
1
40
1
40
1
41
1
10
10.7887957090232
20
-2.09024476639362
30
0
41
1
10
10.9345133148049
20
-2.0483855830513
30
0
41
1
10
11.1795416179975
20
-1.9835152768853
30
0
41
1
10
11.4846832720935
20
-1.91358743948248
30
0
41
1
10
11.7052234400466
20
-1.86944296698212
30
0
41
1
10
11.8941873658692
20
-1.83596164655694
30
0
41
1
10
12.0582858195329
20
-1.81101676447125
30
0
41
1
10
12.1607490721758
20
-1.79754025950979
30
0
41
1
10
12.1960155305568
20
-1.79316189191698
30
0
0
SPLINE
5
160
100
AcDbEntity
8
1
62
256
6
ByLayer
370
18
48
1
60
0
100
AcDbSpline
70
4
71
3
72
14
73
10
40
0
40
0
40
0
40
0
40
0.264279582288363
40
0.437726717614847
40
0.53213047594692
40
0.613178991846696
40
0.691113468911836
40
0.813463247561137
40
1
40
1
40
1
40
1
41
1
10
10.9809502658093
20
1.74746479702691
30
0
41
1
10
10.8019779860049
20
1.73963152334713
30
0
41
1
10
10.5085169411266
20
1.73796621964283
30
0
41
1
10
10.152148031013
20
1.75971483899392
30
0
41
1
10
9.9265595288482
20
1.78209561714024
30
0
41
1
10
9.76142614495285
20
1.80235078952262
30
0
41
1
10
9.57561327929946
20
1.82915682148419
30
0
41
1
10
9.3185724997507
20
1.8729910979369
30
0
41
1
10
9.11330948275318
20
1.91666649129974
30
0
41
1
10
8.98926298237859
20
1.94547954795576
30
0
0
SPLINE
5
161
100
AcDbEntity
8
1
62
256
6
ByLayer
370
18
48
1
60
0
100
AcDbSpline
70
4
71
2
72
6
73
3
40
0
40
0
40
0
40
1
40
1
40
1
41
1
10
15.5028767734026
20
-2.0896034768416
30
0
41
1
10
15.7789294204934
20
-2.0068409232114
30
0
41
1
10
16.0519110789931
20
-1.94814218752617
30
0
0
SPLINE
5
162
100
AcDbEntity
8
1
62
256
6
ByLayer
370
18
48
1
60
0
100
AcDbSpline
70
4
71
3
72
11
73
7
40
0
40
0
40
0
40
0
40
0.0002744723017855
40
0.396097625940586
40
0.991846050973637
40
1
40
1
40
1
40
1
41
1
10
14.3723081219766
20
1.81754324533836
30
0
41
1
10
14.3722454700542
20
1.81755164698714
30
0
41
1
10
14.2818308991226
20
1.82967799742227
30
0
41
1
10
14.0549020135117
20
1.86946680178693
30
0
41
1
10
13.8263248485175
20
1.91729276767055
30
0
41
1
10
13.6880391502833
20
1.94927274421846
30
0
41
1
10
13.6861719651912
20
1.94970510415226
30
0
0
SPLINE
5
163
100
AcDbEntity
8
1
62
256
6
ByLayer
370
18
48
1
60
0
100
AcDbSpline
70
4
71
2
72
6
73
3
40
0
40
0
40
0
40
1
40
1
40
1
41
1
10
20.2176619464492
20
-2.0902509307121
30
0
41
1
10
20.3786930798312
20
-2.04262737076942
30
0
41
1
10
20.5389217140037
20
-2.00419558599299
30
0
0
SPLINE
5
164
100
AcDbEntity
8
1
62
256
6
ByLayer
370
18
48
1
60
0
100
AcDbSpline
70
4
71
1
72
4
73
2
40
0
40
0
40
1
40
1
41
1
10
20.6472689630006
20
-0.814740677689485
30
0
41
1
10
20.685138632764
20
-0.831088672502631
30
0
0
SPLINE
5
165
100
AcDbEntity
8
1
62
256
6
ByLayer
370
18
48
1
60
0
100
AcDbSpline
70
4
71
2
72
6
73
3
40
0
40
0
40
0
40
1
40
1
40
1
41
1
10
10.3449269413294
20
0.855342597443325
30
0
41
1
10
10.3449201801867
20
0.855359249195715
30
0
41
1
10
10.344913419044
20
0.855376689945274
30
0
0
SPLINE
5
166
100
AcDbEntity
8
1
62
256
6
ByLayer
370
18
48
1
60
0
100
AcDbSpline
70
4
71
2
72
6
73
3
40
0
40
0
40
0
40
1
40
1
40
1
41
1
10
12.7218022837196
20
2.33304321560601
30
0
41
1
10
12.3195275478651
20
2.4014253407426
30
0
41
1
10
11.9164390076857
20
2.4705130549259
30
0
0
SPLINE
5
167
100
AcDbEntity
8
1
62
256
6
ByLayer
370
18
48
1
60
0
100
AcDbSpline
70
4
71
2
72
6
73
3
40
0
40
0
40
0
40
1
40
1
40
1
41
1
10
18.9948054288228
20
-2.4708703170362
30
0
41
1
10
19.3871824906156
20
-2.4006653935561
30
0
41
1
10
19.7800313490574
20
-2.34127200493987
30
0
0
SPLINE
5
168
100
AcDbEntity
8
1
62
256
6
ByLayer
370
18
48
1
60
0
100
AcDbSpline
70
4
71
2
72
6
73
3
40
0
40
0
40
0
40
1
40
1
40
1
41
1
10
7.98083578780012
20
2.3375939176064
30
0
41
1
10
7.83714282230366
20
2.35962444272306
30
0
41
1
10
7.693291519735
20
2.38475437974333
30
0
0
SPLINE
5
169
100
AcDbEntity
8
1
62
256
6
ByLayer
370
18
48
1
60
0
100
AcDbSpline
70
4
71
2
72
6
73
3
40
0
40
0
40
0
40
1
40
1
40
1
41
1
10
14.2781410988291
20
-2.46956053034822
30
0
41
1
10
14.6721876543997
20
-2.40337344485869
30
0
41
1
10
15.0657945481407
20
-2.34097165974612
30
0
0
SPLINE
5
16A
100
AcDbEntity
8
1
62
256
6
ByLayer
370
18
48
1
60
0
100
AcDbSpline
70
4
71
2
72
6
73
3
40
0
40
0
40
0
40
1
40
1
40
1
41
1
10
17.4128291957772
20
2.34632416630817
30
0
41
1
10
17.0234846370293
20
2.40302068291018
30
0
41
1
10
16.6345560888162
20
2.46952711578544
30
0
0
SPLINE
5
16B
100
AcDbEntity
8
1
62
256
6
ByLayer
370
18
48
1
60
0
100
AcDbSpline
70
4
71
2
72
6
73
3
40
0
40
0
40
0
40
1
40
1
40
1
41
1
10
9.55523981733631
20
-2.47383908787711
30
0
41
1
10
9.95600519939237
20
-2.40607520622447
30
0
41
1
10
10.3549344298923
20
-2.33996584122042
30
0
0
SPLINE
5
16C
100
AcDbEntity
8
1
62
256
6
ByLayer
370
18
48
1
60
0
100
AcDbSpline
70
4
71
2
72
6
73
3
40
0
40
0
40
0
40
1
40
1
40
1
41
1
10
19.7744732342357
20
0.854711135570824
30
0
41
1
10
19.7744774711726
20
0.854701380888514
30
0
41
1
10
19.7744817081095
20
0.854691131736132
30
0
0
LINE
5
7F
100
AcDbEntity
8
81
62
256
6
ByLayer
370
18
48
1
60
0
100
AcDbLine
10
21
20
0
30
0
11
26
21
0
31
0
39
0
210
0
220
0
230
1
0
LINE
5
80
100
AcDbEntity
8
4
62
256
6
ByLayer
370
18
48
0.05
60
0
100
AcDbLine
10
0
20
0
30
0
11
21
21
0
31
0
39
0
210
0
220
0
230
1
0
LINE
5
82
100
AcDbEntity
8
80
62
256
6
ByLayer
370
18
48
1
60
0
100
AcDbLine
10
0
20
0
30
0
11
-5
21
0
31
0
39
0
210
0
220
0
230
1
0
LINE
5
83
100
AcDbEntity
8
SK4
62
256
6
ByLayer
370
18
48
0.05
60
0
100
AcDbLine
10
-36
20
0
30
0
11
21
21
0
31
0
39
0
210
0
220
0
230
1
0
LINE
5
85
100
AcDbEntity
8
1
62
256
6
ByLayer
370
18
48
1
60
0
100
AcDbLine
10
0
20
3
30
0
11
0
21
0
31
0
39
0
210
0
220
0
230
1
0
LINE
5
86
100
AcDbEntity
8
1
62
256
6
ByLayer
370
18
48
1
60
0
100
AcDbLine
10
0
20
0
30
0
11
0
21
-3
31
0
39
0
210
0
220
0
230
1
0
LINE
5
87
100
AcDbEntity
8
1
62
256
6
ByLayer
370
18
48
1
60
0
100
AcDbLine
10
20.981267
20
-1.117819
30
0
11
20.981542
21
-1.116024
31
0
39
0
210
0
220
0
230
1
0
LINE
5
88
100
AcDbEntity
8
1
62
256
6
ByLayer
370
18
48
1
60
0
100
AcDbLine
10
20.981542
20
-1.116024
30
0
11
20.970104
21
-0.860138
31
0
39
0
210
0
220
0
230
1
0
LINE
5
89
100
AcDbEntity
8
1
62
256
6
ByLayer
370
18
48
1
60
0
100
AcDbLine
10
20.981542
20
1.899063
30
0
11
20.928388
21
-0.055776
31
0
39
0
210
0
220
0
230
1
0
LINE
5
8A
100
AcDbEntity
8
1
62
256
6
ByLayer
370
18
48
1
60
0
100
AcDbLine
10
20.973949
20
1.897068
30
0
11
20.981542
21
1.899063
31
0
39
0
210
0
220
0
230
1
0
LINE
5
8B
100
AcDbEntity
8
1
62
256
6
ByLayer
370
18
48
1
60
0
100
AcDbLine
10
20.915916
20
-1.606361
30
0
11
20.898684
21
-1.186842
31
0
39
0
210
0
220
0
230
1
0
LINE
5
8C
100
AcDbEntity
8
1
62
256
6
ByLayer
370
13
48
1
60
0
100
AcDbLine
10
20.108198
20
1.367001
30
0
11
20.190115
21
1.224901
31
0
39
0
210
0
220
0
230
1
0
LINE
5
8D
100
AcDbEntity
8
1
62
256
6
ByLayer
370
13
48
1
60
0
100
AcDbLine
10
20.896414
20
-0.00031
30
0
11
20.928388
21
-0.055776
31
0
39
0
210
0
220
0
230
1
0
LINE
5
8E
100
AcDbEntity
8
1
62
256
6
ByLayer
370
18
48
1
60
0
100
AcDbLine
10
20.938775
20
-0.881505
30
0
11
20.898684
21
-1.186842
31
0
39
0
210
0
220
0
230
1
0
LINE
5
8F
100
AcDbEntity
8
1
62
256
6
ByLayer
370
18
48
1
60
0
100
AcDbLine
10
20.898684
20
-1.186842
30
0
11
20.380034
21
-1.705077
31
0
39
0
210
0
220
0
230
1
0
LINE
5
90
100
AcDbEntity
8
1
62
256
6
ByLayer
370
13
48
1
60
0
100
AcDbLine
10
20.226246
20
-0.445682
30
0
11
19.659266
21
-0.706412
31
0
39
0
210
0
220
0
230
1
0
LINE
5
91
100
AcDbEntity
8
1
62
256
6
ByLayer
370
18
48
1
60
0
100
AcDbLine
10
20.981542
20
-0.783039
30
0
11
20.958393
21
-0.449577
31
0
39
0
210
0
220
0
230
1
0
LINE
5
92
100
AcDbEntity
8
1
62
256
6
ByLayer
370
18
48
1
60
0
100
AcDbLine
10
20.981267
20
-0.780975
30
0
11
20.981542
21
-0.783039
31
0
39
0
210
0
220
0
230
1
0
LINE
5
93
100
AcDbEntity
8
1
62
256
6
ByLayer
370
18
48
1
60
0
100
AcDbLine
10
20.958393
20
-0.449577
30
0
11
20.894493
21
0.013627
31
0
39
0
210
0
220
0
230
1
0
LINE
5
94
100
AcDbEntity
8
1
62
256
6
ByLayer
370
18
48
1
60
0
100
AcDbLine
10
20.915916
20
-0.305061
30
0
11
20.894493
21
0.013627
31
0
39
0
210
0
220
0
230
1
0
LINE
5
95
100
AcDbEntity
8
1
62
256
6
ByLayer
370
18
48
1
60
0
100
AcDbLine
10
20.894493
20
0.013627
30
0
11
20.382484
21
1.114587
31
0
39
0
210
0
220
0
230
1
0
LINE
5
96
100
AcDbEntity
8
1
62
256
6
ByLayer
370
13
48
1
60
0
100
AcDbLine
10
7.304029
20
-1.556062
30
0
11
7.304029
21
-0.842436
31
0
39
0
210
0
220
0
230
1
0
LINE
5
97
100
AcDbEntity
8
1
62
256
6
ByLayer
370
13
48
1
60
0
100
AcDbLine
10
7.304029
20
2.331888
30
0
11
7.304029
21
2.375
31
0
39
0
210
0
220
0
230
1
0
LINE
5
98
100
AcDbEntity
8
1
62
256
6
ByLayer
370
13
48
1
60
0
100
AcDbLine
10
20.699092
20
-0.83711
30
0
11
20.698251
21
-0.830408
31
0
39
0
210
0
220
0
230
1
0
LINE
5
99
100
AcDbEntity
8
1
62
256
6
ByLayer
370
13
48
1
60
0
100
AcDbLine
10
8
20
2.183763
30
0
11
8
21
2.04947
31
0
39
0
210
0
220
0
230
1
0
LINE
5
9A
100
AcDbEntity
8
1
62
256
6
ByLayer
370
13
48
1
60
0
100
AcDbLine
10
8
20
-1.388297
30
0
11
8
21
-1.489719
31
0
39
0
210
0
220
0
230
1
0
LINE
5
9B
100
AcDbEntity
8
1
62
256
6
ByLayer
370
13
48
1
60
0
100
AcDbLine
10
4.995358
20
-2.375
30
0
11
4.995358
21
0
31
0
39
0
210
0
220
0
230
1
0
LINE
5
9C
100
AcDbEntity
8
1
62
256
6
ByLayer
370
13
48
1
60
0
100
AcDbLine
10
4.995358
20
0
30
0
11
4.995358
21
2.375
31
0
39
0
210
0
220
0
230
1
0
LINE
5
9D
100
AcDbEntity
8
1
62
256
6
ByLayer
370
13
48
1
60
0
100
AcDbLine
10
3.995358
20
2.642949
30
0
11
3.995358
21
0
31
0
39
0
210
0
220
0
230
1
0
LINE
5
9E
100
AcDbEntity
8
1
62
256
6
ByLayer
370
13
48
1
60
0
100
AcDbLine
10
3.995358
20
0
30
0
11
3.995358
21
-2.642949
31
0
39
0
210
0
220
0
230
1
0
LINE
5
9F
100
AcDbEntity
8
1
62
256
6
ByLayer
370
18
48
1
60
0
100
AcDbLine
10
3.376928
20
3
30
0
11
3.376928
21
0
31
0
39
0
210
0
220
0
230
1
0
LINE
5
A0
100
AcDbEntity
8
1
62
256
6
ByLayer
370
18
48
1
60
0
100
AcDbLine
10
3.376928
20
0
30
0
11
3.376928
21
-3
31
0
39
0
210
0
220
0
230
1
0
LINE
5
A1
100
AcDbEntity
8
SK1
62
256
6
ByLayer
370
18
48
1
60
0
100
AcDbLine
10
0
20
3
30
0
11
0
21
0
31
0
39
0
210
0
220
0
230
1
0
LINE
5
A3
100
AcDbEntity
8
SK1
62
256
6
ByLayer
370
18
48
1
60
0
100
AcDbLine
10
0
20
0
30
0
11
0
21
-3
31
0
39
0
210
0
220
0
230
1
0
LINE
5
A4
100
AcDbEntity
8
SK1
62
256
6
ByLayer
370
18
48
1
60
0
100
AcDbLine
10
-21
20
3
30
0
11
-20.1
21
2.1
31
0
39
0
210
0
220
0
230
1
0
LINE
5
A5
100
AcDbEntity
8
SK1
62
256
6
ByLayer
370
18
48
1
60
0
100
AcDbLine
10
-15
20
3
30
0
11
-15.9
21
2.1
31
0
39
0
210
0
220
0
230
1
0
LINE
5
A6
100
AcDbEntity
8
SK1
62
256
6
ByLayer
370
18
48
1
60
0
100
AcDbLine
10
-20.1
20
2.1
30
0
11
-15.9
21
2.1
31
0
39
0
210
0
220
0
230
1
0
LINE
5
A7
100
AcDbEntity
8
SK1
62
256
6
ByLayer
370
18
48
1
60
0
100
AcDbLine
10
-35.6
20
3
30
0
11
-35.6
21
-3
31
0
39
0
210
0
220
0
230
1
0
LINE
5
A8
100
AcDbEntity
8
SK1
62
256
6
ByLayer
370
18
48
1
60
0
100
AcDbLine
10
-36
20
-2.6
30
0
11
-36
21
2.6
31
0
39
0
210
0
220
0
230
1
0
LINE
5
A9
100
AcDbEntity
8
1
62
256
6
ByLayer
370
18
48
1
60
0
100
AcDbLine
10
3.376928
20
3
30
0
11
0
21
3
31
0
39
0
210
0
220
0
230
1
0
LINE
5
AA
100
AcDbEntity
8
1
62
256
6
ByLayer
370
18
48
1
60
0
100
AcDbLine
10
0
20
-3
30
0
11
3.376928
21
-3
31
0
39
0
210
0
220
0
230
1
0
LINE
5
AB
100
AcDbEntity
8
1
62
256
6
ByLayer
370
18
48
1
60
0
100
AcDbLine
10
7.304029
20
2.375
30
0
11
6.750982
21
2.375
31
0
39
0
210
0
220
0
230
1
0
LINE
5
AC
100
AcDbEntity
8
1
62
256
6
ByLayer
370
18
48
1
60
0
100
AcDbLine
10
5.902649
20
2.375
30
0
11
4.995358
21
2.375
31
0
39
0
210
0
220
0
230
1
0
LINE
5
AD
100
AcDbEntity
8
1
62
256
6
ByLayer
370
18
48
1
60
0
100
AcDbLine
10
4.995358
20
-2.375
30
0
11
6.321287
21
-2.375
31
0
39
0
210
0
220
0
230
1
0
LINE
5
AE
100
AcDbEntity
8
1
62
256
6
ByLayer
370
18
48
1
60
0
100
AcDbLine
10
3.995358
20
2.642949
30
0
11
3.376928
21
3
31
0
39
0
210
0
220
0
230
1
0
LINE
5
AF
100
AcDbEntity
8
1
62
256
6
ByLayer
370
18
48
1
60
0
100
AcDbLine
10
3.376928
20
-3
30
0
11
3.995358
21
-2.642949
31
0
39
0
210
0
220
0
230
1
0
LINE
5
B0
100
AcDbEntity
8
SK1
62
256
6
ByLayer
370
18
48
1
60
0
100
AcDbLine
10
0
20
3
30
0
11
-15
21
3
31
0
39
0
210
0
220
0
230
1
0
LINE
5
B1
100
AcDbEntity
8
SK1
62
256
6
ByLayer
370
18
48
1
60
0
100
AcDbLine
10
-21
20
3
30
0
11
-35.6
21
3
31
0
39
0
210
0
220
0
230
1
0
LINE
5
B2
100
AcDbEntity
8
SK1
62
256
6
ByLayer
370
18
48
1
60
0
100
AcDbLine
10
-35.6
20
-3
30
0
11
0
21
-3
31
0
39
0
210
0
220
0
230
1
0
LINE
5
B3
100
AcDbEntity
8
SK1
62
256
6
ByLayer
370
18
48
1
60
0
100
AcDbLine
10
-36
20
-2.6
30
0
11
-35.6
21
-3
31
0
39
0
210
0
220
0
230
1
0
LINE
5
B4
100
AcDbEntity
8
SK1
62
256
6
ByLayer
370
18
48
1
60
0
100
AcDbLine
10
-35.6
20
3
30
0
11
-36
21
2.6
31
0
39
0
210
0
220
0
230
1
0
LINE
5
B5
100
AcDbEntity
8
SK2
62
256
6
ByLayer
370
13
48
1
60
0
100
AcDbLine
10
-64.25
20
-3
30
0
11
-64.25
21
-11.75
31
0
39
0
210
0
220
0
230
1
0
LINE
5
B7
100
AcDbEntity
8
SK2
62
256
6
ByLayer
370
13
48
1
60
0
100
AcDbLine
10
-64.25
20
3
30
0
11
-64.25
21
5.157733
31
0
39
0
210
0
220
0
230
1
0
LINE
5
B8
100
AcDbEntity
8
SK2
62
256
6
ByLayer
370
13
48
1
60
0
100
AcDbLine
10
-37.5875
20
-3
30
0
11
-66.25
21
-3
31
0
39
0
210
0
220
0
230
1
0
LINE
5
B9
100
AcDbEntity
8
SK2
62
256
6
ByLayer
370
13
48
1
60
0
100
AcDbLine
10
-37.5875
20
3
30
0
11
-66.25
21
3
31
0
39
0
210
0
220
0
230
1
0
LINE
5
BA
100
AcDbEntity
8
1
62
256
6
ByLayer
370
18
48
1
60
1
100
AcDbLine
10
-64.25
20
-3
30
0
11
-63.789216
21
-6.499998
31
0
39
0
210
0
220
0
230
1
0
LINE
5
BB
100
AcDbEntity
8
1
62
256
6
ByLayer
370
18
48
1
60
1
100
AcDbLine
10
-63.789216
20
-6.499998
30
0
11
-64.710784
21
-6.500002
31
0
39
0
210
0
220
0
230
1
0
LINE
5
BC
100
AcDbEntity
8
1
62
256
6
ByLayer
370
18
48
1
60
1
100
AcDbLine
10
-64.710784
20
-6.500002
30
0
11
-64.25
21
-3
31
0
39
0
210
0
220
0
230
1
0
LINE
5
BD
100
AcDbEntity
8
1
62
256
6
ByLayer
370
18
48
1
60
1
100
AcDbLine
10
-64.25
20
3
30
0
11
-64.710784
21
6.499998
31
0
39
0
210
0
220
0
230
1
0
LINE
5
BE
100
AcDbEntity
8
1
62
256
6
ByLayer
370
18
48
1
60
1
100
AcDbLine
10
-64.710784
20
6.499998
30
0
11
-63.789216
21
6.500002
31
0
39
0
210
0
220
0
230
1
0
LINE
5
BF
100
AcDbEntity
8
1
62
256
6
ByLayer
370
18
48
1
60
1
100
AcDbLine
10
-63.789216
20
6.500002
30
0
11
-64.25
21
3
31
0
39
0
210
0
220
0
230
1
0
LINE
5
C0
100
AcDbEntity
8
SK2
62
256
6
ByLayer
370
13
48
1
60
0
100
AcDbLine
10
-0.25
20
-2.375
30
0
11
-0.25
21
-11.125
31
0
39
0
210
0
220
0
230
1
0
LINE
5
C1
100
AcDbEntity
8
SK2
62
256
6
ByLayer
370
13
48
1
60
0
100
AcDbLine
10
-0.25
20
2.375
30
0
11
-0.25
21
8.666466
31
0
39
0
210
0
220
0
230
1
0
LINE
5
C2
100
AcDbEntity
8
SK2
62
256
6
ByLayer
370
13
48
1
60
0
100
AcDbLine
10
6.4125
20
-2.375
30
0
11
-2.25
21
-2.375
31
0
39
0
210
0
220
0
230
1
0
LINE
5
C3
100
AcDbEntity
8
SK2
62
256
6
ByLayer
370
13
48
1
60
0
100
AcDbLine
10
6.4125
20
2.375
30
0
11
-2.25
21
2.375
31
0
39
0
210
0
220
0
230
1
0
LINE
5
C4
100
AcDbEntity
8
1
62
256
6
ByLayer
370
18
48
1
60
1
100
AcDbLine
10
-0.25
20
-2.375
30
0
11
0.210784
21
-5.874998
31
0
39
0
210
0
220
0
230
1
0
LINE
5
C5
100
AcDbEntity
8
1
62
256
6
ByLayer
370
18
48
1
60
1
100
AcDbLine
10
0.210784
20
-5.874998
30
0
11
-0.710784
21
-5.875002
31
0
39
0
210
0
220
0
230
1
0
LINE
5
C6
100
AcDbEntity
8
1
62
256
6
ByLayer
370
18
48
1
60
1
100
AcDbLine
10
-0.710784
20
-5.875002
30
0
11
-0.25
21
-2.375
31
0
39
0
210
0
220
0
230
1
0
LINE
5
C7
100
AcDbEntity
8
1
62
256
6
ByLayer
370
18
48
1
60
1
100
AcDbLine
10
-0.25
20
2.375
30
0
11
-0.710784
21
5.874998
31
0
39
0
210
0
220
0
230
1
0
LINE
5
C8
100
AcDbEntity
8
1
62
256
6
ByLayer
370
18
48
1
60
1
100
AcDbLine
10
-0.710784
20
5.874998
30
0
11
0.210784
21
5.875002
31
0
39
0
210
0
220
0
230
1
0
LINE
5
C9
100
AcDbEntity
8
1
62
256
6
ByLayer
370
18
48
1
60
1
100
AcDbLine
10
0.210784
20
5.875002
30
0
11
-0.25
21
2.375
31
0
39
0
210
0
220
0
230
1
0
LINE
5
CA
100
AcDbEntity
8
2
62
256
6
ByLayer
370
13
48
1
60
0
100
AcDbLine
10
38
20
-2.5
30
0
11
38
21
-11.25
31
0
39
0
210
0
220
0
230
1
0
LINE
5
CC
100
AcDbEntity
8
2
62
256
6
ByLayer
370
13
48
1
60
0
100
AcDbLine
10
38
20
2.5
30
0
11
38
21
5.157733
31
0
39
0
210
0
220
0
230
1
0
LINE
5
CD
100
AcDbEntity
8
2
62
256
6
ByLayer
370
13
48
1
60
0
100
AcDbLine
10
22.5875
20
-2.5
30
0
11
40
21
-2.5
31
0
39
0
210
0
220
0
230
1
0
LINE
5
CE
100
AcDbEntity
8
2
62
256
6
ByLayer
370
13
48
1
60
0
100
AcDbLine
10
22.5875
20
2.5
30
0
11
40
21
2.5
31
0
39
0
210
0
220
0
230
1
0
LINE
5
CF
100
AcDbEntity
8
1
62
256
6
ByLayer
370
18
48
1
60
1
100
AcDbLine
10
38
20
-2.5
30
0
11
38.460784
21
-5.999998
31
0
39
0
210
0
220
0
230
1
0
LINE
5
D0
100
AcDbEntity
8
1
62
256
6
ByLayer
370
18
48
1
60
1
100
AcDbLine
10
38.460784
20
-5.999998
30
0
11
37.539216
21
-6.000002
31
0
39
0
210
0
220
0
230
1
0
LINE
5
D1
100
AcDbEntity
8
1
62
256
6
ByLayer
370
18
48
1
60
1
100
AcDbLine
10
37.539216
20
-6.000002
30
0
11
38
21
-2.5
31
0
39
0
210
0
220
0
230
1
0
LINE
5
D2
100
AcDbEntity
8
1
62
256
6
ByLayer
370
18
48
1
60
1
100
AcDbLine
10
38
20
2.5
30
0
11
37.539216
21
5.999998
31
0
39
0
210
0
220
0
230
1
0
LINE
5
D3
100
AcDbEntity
8
1
62
256
6
ByLayer
370
18
48
1
60
1
100
AcDbLine
10
37.539216
20
5.999998
30
0
11
38.460784
21
6.000002
31
0
39
0
210
0
220
0
230
1
0
LINE
5
D4
100
AcDbEntity
8
1
62
256
6
ByLayer
370
18
48
1
60
1
100
AcDbLine
10
38.460784
20
6.000002
30
0
11
38
21
2.5
31
0
39
0
210
0
220
0
230
1
0
LINE
5
171
100
AcDbEntity
8
1
62
256
6
ByLayer
370
18
48
1
60
1
100
AcDbLine
10
-64.25
20
-3
30
0
11
-63.789216
21
-6.499998
31
0
39
0
210
0
220
0
230
1
0
LINE
5
172
100
AcDbEntity
8
1
62
256
6
ByLayer
370
18
48
1
60
1
100
AcDbLine
10
-63.789216
20
-6.499998
30
0
11
-64.710784
21
-6.500002
31
0
39
0
210
0
220
0
230
1
0
LINE
5
173
100
AcDbEntity
8
1
62
256
6
ByLayer
370
18
48
1
60
1
100
AcDbLine
10
-64.710784
20
-6.500002
30
0
11
-64.25
21
-3
31
0
39
0
210
0
220
0
230
1
0
LINE
5
175
100
AcDbEntity
8
1
62
256
6
ByLayer
370
18
48
1
60
1
100
AcDbLine
10
-64.25
20
3
30
0
11
-64.710784
21
6.499998
31
0
39
0
210
0
220
0
230
1
0
LINE
5
176
100
AcDbEntity
8
1
62
256
6
ByLayer
370
18
48
1
60
1
100
AcDbLine
10
-64.710784
20
6.499998
30
0
11
-63.789216
21
6.500002
31
0
39
0
210
0
220
0
230
1
0
LINE
5
177
100
AcDbEntity
8
1
62
256
6
ByLayer
370
18
48
1
60
1
100
AcDbLine
10
-63.789216
20
6.500002
30
0
11
-64.25
21
3
31
0
39
0
210
0
220
0
230
1
0
LINE
5
17B
100
AcDbEntity
8
1
62
256
6
ByLayer
370
18
48
1
60
1
100
AcDbLine
10
-0.25
20
-2.375
30
0
11
0.210784
21
-5.874998
31
0
39
0
210
0
220
0
230
1
0
LINE
5
17C
100
AcDbEntity
8
1
62
256
6
ByLayer
370
18
48
1
60
1
100
AcDbLine
10
0.210784
20
-5.874998
30
0
11
-0.710784
21
-5.875002
31
0
39
0
210
0
220
0
230
1
0
LINE
5
17D
100
AcDbEntity
8
1
62
256
6
ByLayer
370
18
48
1
60
1
100
AcDbLine
10
-0.710784
20
-5.875002
30
0
11
-0.25
21
-2.375
31
0
39
0
210
0
220
0
230
1
0
LINE
5
17F
100
AcDbEntity
8
1
62
256
6
ByLayer
370
18
48
1
60
1
100
AcDbLine
10
-0.25
20
2.375
30
0
11
-0.710784
21
5.874998
31
0
39
0
210
0
220
0
230
1
0
LINE
5
180
100
AcDbEntity
8
1
62
256
6
ByLayer
370
18
48
1
60
1
100
AcDbLine
10
-0.710784
20
5.874998
30
0
11
0.210784
21
5.875002
31
0
39
0
210
0
220
0
230
1
0
LINE
5
181
100
AcDbEntity
8
1
62
256
6
ByLayer
370
18
48
1
60
1
100
AcDbLine
10
0.210784
20
5.875002
30
0
11
-0.25
21
2.375
31
0
39
0
210
0
220
0
230
1
0
LINE
5
185
100
AcDbEntity
8
1
62
256
6
ByLayer
370
18
48
1
60
1
100
AcDbLine
10
38
20
-2.5
30
0
11
38.460784
21
-5.999998
31
0
39
0
210
0
220
0
230
1
0
LINE
5
186
100
AcDbEntity
8
1
62
256
6
ByLayer
370
18
48
1
60
1
100
AcDbLine
10
38.460784
20
-5.999998
30
0
11
37.539216
21
-6.000002
31
0
39
0
210
0
220
0
230
1
0
LINE
5
187
100
AcDbEntity
8
1
62
256
6
ByLayer
370
18
48
1
60
1
100
AcDbLine
10
37.539216
20
-6.000002
30
0
11
38
21
-2.5
31
0
39
0
210
0
220
0
230
1
0
LINE
5
189
100
AcDbEntity
8
1
62
256
6
ByLayer
370
18
48
1
60
1
100
AcDbLine
10
38
20
2.5
30
0
11
37.539216
21
5.999998
31
0
39
0
210
0
220
0
230
1
0
LINE
5
18A
100
AcDbEntity
8
1
62
256
6
ByLayer
370
18
48
1
60
1
100
AcDbLine
10
37.539216
20
5.999998
30
0
11
38.460784
21
6.000002
31
0
39
0
210
0
220
0
230
1
0
LINE
5
18B
100
AcDbEntity
8
1
62
256
6
ByLayer
370
18
48
1
60
1
100
AcDbLine
10
38.460784
20
6.000002
30
0
11
38
21
2.5
31
0
39
0
210
0
220
0
230
1
0
MTEXT
5
16D
100
AcDbEntity
8
SK2
62
256
6
ByLayer
370
18
48
1
60
0
100
AcDbMText
10
-65.814634
20
-3.222889
30
0
210
0
220
0
230
1
1
%%c
40
3.5
41
0
44
1.084337
50
90
71
7
72
5
7
iso_b_vert
0
MTEXT
5
170
100
AcDbEntity
8
SK2
62
256
6
ByLayer
370
18
48
1
60
0
100
AcDbMText
10
-65.814634
20
3.749767
30
0
210
0
220
0
230
1
1
\W0.5404;6
40
3.5
41
0
44
1.084337
50
90
71
7
72
5
7
iso_b_vert
0
MTEXT
5
179
100
AcDbEntity
8
SK2
62
256
6
ByLayer
370
18
48
1
60
0
100
AcDbMText
10
-1.814634
20
-6.731622
30
0
210
0
220
0
230
1
1
%%c
40
3.5
41
0
44
1.084337
50
90
71
7
72
5
7
iso_b_vert
0
MTEXT
5
17A
100
AcDbEntity
8
SK2
62
256
6
ByLayer
370
18
48
1
60
0
100
AcDbMText
10
-1.814634
20
0.241034
30
0
210
0
220
0
230
1
1
\W0.7640;4.75
40
3.5
41
0
44
1.084337
50
90
71
7
72
5
7
iso_b_vert
0
MTEXT
5
183
100
AcDbEntity
8
2
62
256
6
ByLayer
370
18
48
1
60
0
100
AcDbMText
10
36.435366
20
-3.222889
30
0
210
0
220
0
230
1
1
%%c
40
3.5
41
0
44
1.084337
50
90
71
7
72
5
7
iso_b_vert
0
MTEXT
5
184
100
AcDbEntity
8
2
62
256
6
ByLayer
370
18
48
1
60
0
100
AcDbMText
10
36.435366
20
3.749767
30
0
210
0
220
0
230
1
1
\W0.5404;5
40
3.5
41
0
44
1.084337
50
90
71
7
72
5
7
iso_b_vert
0
MTEXT
5
18D
100
AcDbEntity
8
SK6
62
256
6
ByLayer
370
18
48
1
60
0
100
AcDbMText
10
-33.507453
20
-62.088155
30
0
210
0
220
0
230
1
1
\W0.7352;2S440-0500-050-SD   1725
40
3
41
0
44
1.084337
50
0
71
7
72
5
7
iso_b_vert
0
HATCH
5
174
100
AcDbEntity
8
SK2
62
256
6
ByLayer
370
13
48
1
60
0
100
AcDbHatch
10
0
20
0
30
0
210
0
220
0
230
1
2
ANSI31
70
0
71
0
91
1
92
5
93
3
72
1
10
-64.25
20
-2.99999999999986
11
-63.7892162584472
21
-6.49999830744667
72
1
10
-63.7892162584472
20
-6.49999830744667
11
-64.7107837415527
21
-6.50000169255304
72
1
10
-64.7107837415527
20
-6.50000169255304
11
-64.25
21
-2.99999999999986
97
0
75
0
76
1
52
0
41
0.0062
77
0
78
1
53
45
43
0
44
0
45
-0.0139193969876572
46
0.0139193969876572
79
0
47
0
98
1
10
0
20
0
0
HATCH
5
178
100
AcDbEntity
8
SK2
62
256
6
ByLayer
370
13
48
1
60
0
100
AcDbHatch
10
0
20
0
30
0
210
0
220
0
230
1
2
ANSI31
70
0
71
0
91
1
92
5
93
3
72
1
10
-64.25
20
3.00000000000014
11
-64.7107837415527
21
6.49999830744696
72
1
10
-64.7107837415527
20
6.49999830744696
11
-63.7892162584472
21
6.50000169255333
72
1
10
-63.7892162584472
20
6.50000169255333
11
-64.25
21
3.00000000000014
97
0
75
0
76
1
52
0
41
0.0062
77
0
78
1
53
45
43
0
44
0
45
-0.0139193969876572
46
0.0139193969876572
79
0
47
0
98
1
10
0
20
0
0
HATCH
5
17E
100
AcDbEntity
8
SK2
62
256
6
ByLayer
370
13
48
1
60
0
100
AcDbHatch
10
0
20
0
30
0
210
0
220
0
230
1
2
ANSI31
70
0
71
0
91
1
92
5
93
3
72
1
10
-0.249999999999972
20
-2.37500000000003
11
0.210783741552802
21
-5.87499830744684
72
1
10
0.210783741552802
20
-5.87499830744684
11
-0.710783741552746
21
-5.87500169255321
72
1
10
-0.710783741552746
20
-5.87500169255321
11
-0.249999999999972
21
-2.37500000000003
97
0
75
0
76
1
52
0
41
0.0062
77
0
78
1
53
45
43
0
44
0
45
-0.0139193969876572
46
0.0139193969876572
79
0
47
0
98
1
10
0
20
0
0
HATCH
5
182
100
AcDbEntity
8
SK2
62
256
6
ByLayer
370
13
48
1
60
0
100
AcDbHatch
10
0
20
0
30
0
210
0
220
0
230
1
2
ANSI31
70
0
71
0
91
1
92
5
93
3
72
1
10
-0.249999999999972
20
2.37499999999997
11
-0.710783741552746
21
5.87499830744679
72
1
10
-0.710783741552746
20
5.87499830744679
11
0.210783741552802
21
5.87500169255316
72
1
10
0.210783741552802
20
5.87500169255316
11
-0.249999999999972
21
2.37499999999997
97
0
75
0
76
1
52
0
41
0.0062
77
0
78
1
53
45
43
0
44
0
45
-0.0139193969876572
46
0.0139193969876572
79
0
47
0
98
1
10
0
20
0
0
HATCH
5
188
100
AcDbEntity
8
2
62
256
6
ByLayer
370
13
48
1
60
0
100
AcDbHatch
10
0
20
0
30
0
210
0
220
0
230
1
2
ANSI31
70
0
71
0
91
1
92
5
93
3
72
1
10
38
20
-2.50000000000008
11
38.4607837415528
21
-5.9999983074469
72
1
10
38.4607837415528
20
-5.9999983074469
11
37.5392162584472
21
-6.00000169255327
72
1
10
37.5392162584472
20
-6.00000169255327
11
38
21
-2.50000000000008
97
0
75
0
76
1
52
0
41
0.0062
77
0
78
1
53
45
43
0
44
0
45
-0.0139193969876572
46
0.0139193969876572
79
0
47
0
98
1
10
0
20
0
0
HATCH
5
18C
100
AcDbEntity
8
2
62
256
6
ByLayer
370
13
48
1
60
0
100
AcDbHatch
10
0
20
0
30
0
210
0
220
0
230
1
2
ANSI31
70
0
71
0
91
1
92
5
93
3
72
1
10
38
20
2.49999999999992
11
37.5392162584472
21
5.99999830744673
72
1
10
37.5392162584472
20
5.99999830744673
11
38.4607837415528
21
6.0000016925531
72
1
10
38.4607837415528
20
6.0000016925531
11
38
21
2.49999999999992
97
0
75
0
76
1
52
0
41
0.0062
77
0
78
1
53
45
43
0
44
0
45
-0.0139193969876572
46
0.0139193969876572
79
0
47
0
98
1
10
0
20
0
0
DIMENSION
5
190
100
AcDbEntity
8
SK2
62
256
6
ByLayer
370
18
48
1
60
0
100
AcDbDimension
2
_U0
10
8
20
-11.212392
30
0
11
14.5
21
-11.212392
31
0
70
32
71
1
72
1
41
1
210
0
220
0
230
1
3
Standard
100
AcDbAlignedDimension
13
21
23
-2.5
33
0
14
8
24
-2.5
34
0
50
0
100
AcDbRotatedDimension
1001
ACAD
1000
DSTYLE
1002
{
1070
   371
1070
    13
1070
   372
1070
    13
1070
   170
1070
     0
1070
   144
1040
1.0
1070
   277
1070
     2
1070
   284
1070
     8
1070
   278
1070
    46
1070
   146
1040
1.0
1070
   345
1005
16
1070
   347
1005
16
1070
   346
1005
16
1070
   344
1005
0
1070
   343
1005
0
1070
   172
1070
     1
1070
    76
1070
     0
1070
    75
1070
     0
1070
   282
1070
     0
1070
   281
1070
     0
1070
    71
1070
     0
1070
    74
1070
     0
1070
   279
1070
     0
1070
   173
1070
     1
1070
   340
1005
16E
1070
   271
1070
     2
1070
   272
1070
     2
1070
    77
1070
     1
1070
    73
1070
     1
1070
   171
1070
     3
1070
   274
1070
     4
1070
   177
1070
     2
1070
   176
1070
     2
1070
   178
1070
     2
1070
    78
1070
     8
1070
    48
1040
-0.1
1070
    41
1040
3.5
1070
   147
1040
1.75
1070
    42
1040
1.5875
1070
    44
1040
2.0
1070
   140
1040
3.5
1002
}
1001
ACAD_DSTYLE_DIM_LINETYPE
1070
   380
1005
16
1001
ACAD_DSTYLE_DIM_EXT1_LINETYPE
1070
   381
1005
16
1001
ACAD_DSTYLE_DIM_EXT2_LINETYPE
1070
   382
1005
16
0
DIMENSION
5
1AA
100
AcDbEntity
8
SK2
62
256
6
ByLayer
370
18
48
1
60
0
100
AcDbDimension
2
_U1
10
5
20
-24.212392
30
0
11
13
21
-24.212392
31
0
70
32
71
1
72
1
41
1
210
0
220
0
230
1
3
Standard
100
AcDbAlignedDimension
13
21
23
-2.5
33
0
14
5
24
-2.5
34
0
50
0
100
AcDbRotatedDimension
1001
ACAD
1000
DSTYLE
1002
{
1070
   371
1070
    13
1070
   372
1070
    13
1070
   170
1070
     0
1070
   144
1040
1.0
1070
   277
1070
     2
1070
   284
1070
     8
1070
   278
1070
    46
1070
   146
1040
1.0
1070
   345
1005
16
1070
   347
1005
16
1070
   346
1005
16
1070
   344
1005
0
1070
   343
1005
0
1070
   172
1070
     1
1070
    76
1070
     0
1070
    75
1070
     0
1070
   282
1070
     0
1070
   281
1070
     0
1070
    71
1070
     0
1070
    74
1070
     0
1070
   279
1070
     0
1070
   173
1070
     1
1070
   340
1005
16E
1070
   271
1070
     2
1070
   272
1070
     2
1070
    77
1070
     1
1070
    73
1070
     1
1070
   171
1070
     3
1070
   274
1070
     4
1070
   177
1070
     2
1070
   176
1070
     2
1070
   178
1070
     2
1070
    78
1070
     8
1070
    48
1040
-0.1
1070
    41
1040
3.5
1070
   147
1040
1.75
1070
    42
1040
1.5875
1070
    44
1040
2.0
1070
   140
1040
3.5
1002
}
1001
ACAD_DSTYLE_DIM_LINETYPE
1070
   380
1005
16
1001
ACAD_DSTYLE_DIM_EXT1_LINETYPE
1070
   381
1005
16
1001
ACAD_DSTYLE_DIM_EXT2_LINETYPE
1070
   382
1005
16
0
DIMENSION
5
1C3
100
AcDbEntity
8
SK2
62
256
6
ByLayer
370
18
48
1
60
0
100
AcDbDimension
2
_U2
10
16
20
12.765853
30
0
11
18.5
21
12.765853
31
0
70
32
71
1
72
1
41
1
210
0
220
0
230
1
3
Standard
100
AcDbAlignedDimension
13
21
23
2.5
33
0
14
16
24
2.5
34
0
50
0
100
AcDbRotatedDimension
1001
ACAD
1000
DSTYLE
1002
{
1070
   371
1070
    13
1070
   372
1070
    13
1070
   170
1070
     0
1070
   144
1040
1.0
1070
   277
1070
     2
1070
   284
1070
     8
1070
   278
1070
    46
1070
   146
1040
1.0
1070
   345
1005
16
1070
   347
1005
16
1070
   346
1005
16
1070
   344
1005
0
1070
   343
1005
0
1070
   172
1070
     1
1070
    76
1070
     0
1070
    75
1070
     0
1070
   282
1070
     0
1070
   281
1070
     0
1070
    47
1040
0.5
1070
    72
1070
     0
1070
    71
1070
     1
1070
    74
1070
     0
1070
   279
1070
     0
1070
   173
1070
     1
1070
   340
1005
16E
1070
   271
1070
     2
1070
   272
1070
     2
1070
    77
1070
     1
1070
    73
1070
     1
1070
   171
1070
     3
1070
   274
1070
     4
1070
   177
1070
     2
1070
   176
1070
     2
1070
   178
1070
     2
1070
    78
1070
     8
1070
    48
1040
0.5
1070
    41
1040
3.5
1070
   147
1040
1.75
1070
    42
1040
1.5875
1070
    44
1040
2.0
1070
   140
1040
3.5
1002
}
1001
ACAD_DSTYLE_DIM_LINETYPE
1070
   380
1005
16
1001
ACAD_DSTYLE_DIM_EXT1_LINETYPE
1070
   381
1005
16
1001
ACAD_DSTYLE_DIM_EXT2_LINETYPE
1070
   382
1005
16
0
DIMENSION
5
1DE
100
AcDbEntity
8
2
62
256
6
ByLayer
370
18
48
1
60
0
100
AcDbDimension
2
_U3
10
21
20
-36.212392
30
0
11
-7.5
21
-36.212392
31
0
70
32
71
1
72
1
41
1
210
0
220
0
230
1
3
Standard
100
AcDbAlignedDimension
13
-36
23
-3
33
0
14
21
24
-2.5
34
0
50
0
100
AcDbRotatedDimension
1001
ACAD
1000
DSTYLE
1002
{
1070
   371
1070
    13
1070
   372
1070
    13
1070
   170
1070
     0
1070
   144
1040
1.0
1070
   277
1070
     2
1070
   284
1070
     8
1070
   278
1070
    46
1070
   146
1040
1.0
1070
   345
1005
16
1070
   347
1005
16
1070
   346
1005
16
1070
   344
1005
0
1070
   343
1005
0
1070
   172
1070
     1
1070
    76
1070
     0
1070
    75
1070
     0
1070
   282
1070
     0
1070
   281
1070
     0
1070
    71
1070
     0
1070
    74
1070
     0
1070
   279
1070
     0
1070
   173
1070
     1
1070
   340
1005
16E
1070
   271
1070
     2
1070
   272
1070
     2
1070
    77
1070
     1
1070
    73
1070
     1
1070
   171
1070
     3
1070
   274
1070
     4
1070
   177
1070
     2
1070
   176
1070
     2
1070
   178
1070
     2
1070
    78
1070
     8
1070
    48
1040
-0.1
1070
    41
1040
3.5
1070
   147
1040
1.75
1070
    42
1040
1.5875
1070
    44
1040
2.0
1070
   140
1040
3.5
1002
}
1001
ACAD_DSTYLE_DIM_LINETYPE
1070
   380
1005
16
1001
ACAD_DSTYLE_DIM_EXT1_LINETYPE
1070
   381
1005
16
1001
ACAD_DSTYLE_DIM_EXT2_LINETYPE
1070
   382
1005
16
0
ENDSEC
0
SECTION
2
OBJECTS
0
DICTIONARY
5
266
330
0
100
AcDbDictionary
280
0
281
1
3
ACAD_GROUP
350
267
3
ACAD_MLINESTYLE
350
268
0
DICTIONARY
5
267
330
0
100
AcDbDictionary
280
0
281
1
0
DICTIONARY
5
268
330
0
100
AcDbDictionary
280
0
281
1
3
Standard
350
18
0
MLINESTYLE
5
18
330
268
100
AcDbMlineStyle
2
Standard
70
0
3

62
256
51
90
52
90
71
2
49
-0.5
62
256
6
ByLayer
49
0.5
62
256
6
ByLayer
0
RASTERVARIABLES
5
254
330

100
AcDbRasterVariables
90
0
70
1
71
1
72
1
0
ENDSEC
0
EOF
