0
SECTION
2
HEADER
9
$ACADVER
1
AC1015
9
$DWGCODEPAGE
3
ANSI_1252
9
$HANDSEED
5
271
9
$ANGBASE
50
0
9
$ANGDIR
70
0
9
$ATTMODE
70
1
9
$AUNITS
70
0
9
$AUPREC
70
0
9
$CECOLOR
62
256
9
$CELTSCALE
40
1
9
$CELTYPE
6
ByLayer
9
$CELWEIGHT
370
18
9
$CLAYER
8
0
9
$CMLJUST
70
0
9
$CMLSCALE
40
1
9
$CMLSTYLE
2
Standard
9
$DIMSTYLE
2
Standard
9
$TEXTSIZE
40
0.2
9
$TEXTSTYLE
7
Standard
9
$LUNITS
70
2
9
$LUPREC
70
4
9
$EXTNAMES
290
1
9
$INSUNITS
70
4
9
$LTSCALE
40
1
9
$LWDISPLAY
290
1
9
$PDMODE
70
0
9
$PDSIZE
40
0
9
$PLINEGEN
70
0
0
ENDSEC
0
SECTION
2
CLASSES
0
CLASS
1
RASTERVARIABLES
2
AcDbRasterVariables
3
ISM
90
0
280
0
281
0
0
ENDSEC
0
SECTION
2
TABLES
0
TABLE
2
VPORT
5
267
100
AcDbSymbolTable
0
VPORT
5
1
100
AcDbSymbolTableRecord
100
AcDbViewportTableRecord
2
*Active
70
0
10
0
20
0
11
1
21
1
12
-1
22
1
13
0
23
0
14
0.5
24
0.5
15
10
25
10
16
0
26
0
36
1
17
0
27
0
37
0
0
ENDTAB
0
TABLE
2
LTYPE
5
268
100
AcDbSymbolTable
0
LTYPE
5
14
100
AcDbSymbolTableRecord
100
AcDbLinetypeTableRecord
70
0
2
ByBlock
3

72
65
73
0
40
0
0
LTYPE
5
15
100
AcDbSymbolTableRecord
100
AcDbLinetypeTableRecord
70
0
2
ByLayer
3

72
65
73
0
40
0
0
LTYPE
5
16
100
AcDbSymbolTableRecord
100
AcDbLinetypeTableRecord
70
0
2
Continuous
3
Solid line
72
65
73
0
40
0
0
LTYPE
5
6E
100
AcDbSymbolTableRecord
100
AcDbLinetypeTableRecord
70
0
2
CENTER
3
____ _ ____ _ ____ _ ____
72
65
73
4
40
47.5
49
22
74
0
49
-8.5
74
0
49
8.5
74
0
49
-8.5
74
0
0
LTYPE
5
6F
100
AcDbSymbolTableRecord
100
AcDbLinetypeTableRecord
70
0
2
DASHED
3
__ __ __ __ __ __ __ __ __
72
65
73
2
40
25.72
49
12.86
74
0
49
-12.86
74
0
0
ENDTAB
0
TABLE
2
LAYER
5
269
100
AcDbSymbolTable
0
LAYER
5
10
100
AcDbSymbolTableRecord
100
AcDbLayerTableRecord
2
0
70
0
62
7
6
Continuous
290
1
370
-3
390
0
0
LAYER
5
71
100
AcDbSymbolTableRecord
100
AcDbLayerTableRecord
2
81
70
0
62
-3
6
Continuous
290
1
370
-3
390
0
0
LAYER
5
74
100
AcDbSymbolTableRecord
100
AcDbLayerTableRecord
2
80
70
0
62
-6
6
Continuous
290
1
370
-3
390
0
0
LAYER
5
77
100
AcDbSymbolTableRecord
100
AcDbLayerTableRecord
2
1
70
0
62
4
6
Continuous
290
1
370
-3
390
0
0
LAYER
5
84
100
AcDbSymbolTableRecord
100
AcDbLayerTableRecord
2
4
70
0
62
-2
6
CENTER
290
1
370
-3
390
0
0
LAYER
5
C8
100
AcDbSymbolTableRecord
100
AcDbLayerTableRecord
2
2
70
0
62
7
6
Continuous
290
1
370
-3
390
0
0
LAYER
5
191
100
AcDbSymbolTableRecord
100
AcDbLayerTableRecord
2
Defpoints
70
0
62
7
6
Continuous
290
0
370
-3
390
0
0
LAYER
5
253
100
AcDbSymbolTableRecord
100
AcDbLayerTableRecord
2
SK4
70
0
62
2
6
CENTER
290
1
370
-3
390
0
0
LAYER
5
254
100
AcDbSymbolTableRecord
100
AcDbLayerTableRecord
2
SK1
70
0
62
4
6
Continuous
290
1
370
-3
390
0
0
LAYER
5
255
100
AcDbSymbolTableRecord
100
AcDbLayerTableRecord
2
SK2
70
0
62
7
6
Continuous
290
1
370
-3
390
0
0
LAYER
5
256
100
AcDbSymbolTableRecord
100
AcDbLayerTableRecord
2
SK6
70
0
62
5
6
Continuous
290
1
370
-3
390
0
0
ENDTAB
0
TABLE
2
STYLE
5
26a
100
AcDbSymbolTable
0
STYLE
5
11
100
AcDbSymbolTableRecord
100
AcDbTextStyleTableRecord
2
Standard
3
txt
70
0
71
0
40
0
41
1
42
0
50
0
0
STYLE
5
16C
100
AcDbSymbolTableRecord
100
AcDbTextStyleTableRecord
2
iso_b_vert
3
simplex.shx
70
0
71
0
40
0
41
1
42
0
50
0
0
STYLE
5
16D
100
AcDbSymbolTableRecord
100
AcDbTextStyleTableRecord
2
DWGDirectTextStyle
3
simplex
70
0
71
0
40
0
41
1
42
0
50
0
0
ENDTAB
0
TABLE
2
DIMSTYLE
5
26b
100
AcDbSymbolTable
100
AcDbDimStyleTable
0
DIMSTYLE
105
27
100
AcDbSymbolTableRecord
100
AcDbDimStyleTableRecord
2
Standard
70
0
3
<>
41
0.18
42
0.0625
44
0.18
140
0.18
147
0.09
73
0
74
0
77
1
271
2
275
0
278
52
280
0
340
11
0
ENDTAB
0
TABLE
2
VIEW
5
26c
100
AcDbSymbolTable
0
ENDTAB
0
TABLE
2
UCS
5
26d
100
AcDbSymbolTable
0
ENDTAB
0
TABLE
2
APPID
5
26e
100
AcDbSymbolTable
0
APPID
5
12
100
AcDbSymbolTableRecord
100
AcDbRegAppTableRecord
2
ACAD
70
0
0
APPID
5
18D
100
AcDbSymbolTableRecord
100
AcDbRegAppTableRecord
2
ACAD_DSTYLE_DIMBREAK
70
0
0
APPID
5
212
100
AcDbSymbolTableRecord
100
AcDbRegAppTableRecord
2
ACAD_DSTYLE_DIM_LINETYPE
70
0
0
APPID
5
213
100
AcDbSymbolTableRecord
100
AcDbRegAppTableRecord
2
ACAD_DSTYLE_DIM_EXT1_LINETYPE
70
0
0
APPID
5
214
100
AcDbSymbolTableRecord
100
AcDbRegAppTableRecord
2
ACAD_DSTYLE_DIM_EXT2_LINETYPE
70
0
0
APPID
5
24F
100
AcDbSymbolTableRecord
100
AcDbRegAppTableRecord
2
ACAD_MLEADERVER
70
0
0
ENDTAB
0
TABLE
2
BLOCK_RECORD
5
26f
100
AcDbSymbolTable
0
BLOCK_RECORD
5
1F
100
AcDbSymbolTableRecord
100
AcDbBlockTableRecord
2
*Model_Space
340
0
70
0
0
BLOCK_RECORD
5
1B
100
AcDbSymbolTableRecord
100
AcDbBlockTableRecord
2
*Paper_Space
340
0
70
0
0
BLOCK_RECORD
5
23
100
AcDbSymbolTableRecord
100
AcDbBlockTableRecord
2
*Paper_Space0
340
0
70
0
0
BLOCK_RECORD
5
192
100
AcDbSymbolTableRecord
100
AcDbBlockTableRecord
2
*D1
340
0
70
0
0
BLOCK_RECORD
5
19F
100
AcDbSymbolTableRecord
100
AcDbBlockTableRecord
2
_U0
340
0
70
0
0
BLOCK_RECORD
5
1AB
100
AcDbSymbolTableRecord
100
AcDbBlockTableRecord
2
*D3
340
0
70
0
0
BLOCK_RECORD
5
1B8
100
AcDbSymbolTableRecord
100
AcDbBlockTableRecord
2
_U1
340
0
70
0
0
BLOCK_RECORD
5
1C4
100
AcDbSymbolTableRecord
100
AcDbBlockTableRecord
2
*D5
340
0
70
0
0
BLOCK_RECORD
5
1D1
100
AcDbSymbolTableRecord
100
AcDbBlockTableRecord
2
_U2
340
0
70
0
0
BLOCK_RECORD
5
1DF
100
AcDbSymbolTableRecord
100
AcDbBlockTableRecord
2
*D7
340
0
70
0
0
BLOCK_RECORD
5
1EB
100
AcDbSymbolTableRecord
100
AcDbBlockTableRecord
2
_U3
340
0
70
0
0
ENDTAB
0
ENDSEC
0
SECTION
2
BLOCKS
0
BLOCK
5
20
100
AcDbEntity
8
0
100
AcDbBlockBegin
2
*Model_Space
70
0
10
0
20
0
30
0
3
*Model_Space
0
ENDBLK
5
21
100
AcDbEntity
8
0
100
AcDbBlockEnd
0
BLOCK
5
1C
100
AcDbEntity
8
0
100
AcDbBlockBegin
2
*Paper_Space
70
0
10
0
20
0
30
0
3
*Paper_Space
0
ENDBLK
5
1D
100
AcDbEntity
8
0
100
AcDbBlockEnd
0
BLOCK
5
24
100
AcDbEntity
8
0
100
AcDbBlockBegin
2
*Paper_Space0
70
0
10
0
20
0
30
0
3
*Paper_Space0
0
ENDBLK
5
25
100
AcDbEntity
8
0
100
AcDbBlockEnd
0
BLOCK
5
193
100
AcDbEntity
8
0
100
AcDbBlockBegin
2
*D1
70
1
10
0
20
0
30
0
3
*D1
0
LINE
5
195
100
AcDbEntity
8
0
62
256
6
ByLayer
370
-2
48
1
60
0
100
AcDbLine
10
21
20
-3.5875
30
0
11
21
21
-13.1
31
0
39
0
210
0
220
0
230
1
0
LINE
5
196
100
AcDbEntity
8
0
62
256
6
ByLayer
370
-2
48
1
60
0
100
AcDbLine
10
10
20
-3.5875
30
0
11
10
21
-13.1
31
0
39
0
210
0
220
0
230
1
0
LINE
5
197
100
AcDbEntity
8
0
62
256
6
ByLayer
370
-2
48
1
60
0
100
AcDbLine
10
24.5
20
-11.1
30
0
11
28
21
-11.1
31
0
39
0
210
0
220
0
230
1
0
LINE
5
198
100
AcDbEntity
8
0
62
256
6
ByLayer
370
-2
48
1
60
0
100
AcDbLine
10
6.5
20
-11.1
30
0
11
3
21
-11.1
31
0
39
0
210
0
220
0
230
1
0
SOLID
5
199
100
AcDbEntity
8
0
62
256
6
ByLayer
370
-1
48
1
60
0
100
AcDbTrace
10
24.5
20
-10.516667
30
0
11
24.5
21
-11.683333
31
0
12
21
22
-11.1
32
0
13
21
23
-11.1
33
0
39
0
210
0
220
0
230
1
0
SOLID
5
19A
100
AcDbEntity
8
0
62
256
6
ByLayer
370
-1
48
1
60
0
100
AcDbTrace
10
6.5
20
-11.683333
30
0
11
6.5
21
-10.516667
31
0
12
10
22
-11.1
32
0
13
10
23
-11.1
33
0
39
0
210
0
220
0
230
1
0
MTEXT
5
19B
100
AcDbEntity
8
0
62
256
6
ByLayer
370
18
48
1
60
0
100
AcDbMText
10
15.5
20
-4.1
30
0
210
0
220
0
230
1
1
\A1;11
40
3.5
41
0
44
1
50
0
71
5
72
5
7
iso_b_vert
0
POINT
5
19C
100
AcDbEntity
8
Defpoints
62
0
6
ByLayer
370
-1
48
1
60
0
100
AcDbPoint
10
21
20
-2
30
0
39
0
210
0
220
0
230
1
50
360
0
POINT
5
19D
100
AcDbEntity
8
Defpoints
62
0
6
ByLayer
370
-1
48
1
60
0
100
AcDbPoint
10
10
20
-2
30
0
39
0
210
0
220
0
230
1
50
360
0
POINT
5
19E
100
AcDbEntity
8
Defpoints
62
0
6
ByLayer
370
-1
48
1
60
0
100
AcDbPoint
10
10
20
-11.1
30
0
39
0
210
0
220
0
230
1
50
360
0
ENDBLK
5
194
100
AcDbEntity
8
0
100
AcDbBlockEnd
0
BLOCK
5
1A6
100
AcDbEntity
8
0
100
AcDbBlockBegin
2
_U0
70
0
10
0
20
0
30
0
3
_U0
0
MTEXT
5
1A0
100
AcDbEntity
8
SK2
62
256
6
ByLayer
370
18
48
1
60
0
100
AcDbMText
10
14.4699
20
-10.067366
30
0
210
0
220
0
230
1
1
\W0.4657;11
40
3.5
41
0
44
1.084337
50
0
71
7
72
5
7
iso_b_vert
0
LINE
5
1A1
100
AcDbEntity
8
SK2
62
256
6
ByLayer
370
13
48
1
60
0
100
AcDbLine
10
21
20
-3.5875
30
0
11
21
21
-13.1
31
0
39
0
210
0
220
0
230
1
0
LINE
5
1A2
100
AcDbEntity
8
SK2
62
256
6
ByLayer
370
13
48
1
60
0
100
AcDbLine
10
10
20
-3.5875
30
0
11
10
21
-13.1
31
0
39
0
210
0
220
0
230
1
0
LINE
5
1A3
100
AcDbEntity
8
SK2
62
256
6
ByLayer
370
13
48
1
60
0
100
AcDbLine
10
21
20
-11.1
30
0
11
10
21
-11.1
31
0
39
0
210
0
220
0
230
1
0
SOLID
5
1A4
100
AcDbEntity
8
SK2
62
256
6
ByLayer
370
18
48
1
60
0
100
AcDbTrace
10
21
20
-11.1
30
0
11
17.500002
21
-11.560784
31
0
12
17.499998
22
-10.639216
32
0
13
17.499998
23
-10.639216
33
0
39
0
210
0
220
0
230
1
0
SOLID
5
1A5
100
AcDbEntity
8
SK2
62
256
6
ByLayer
370
18
48
1
60
0
100
AcDbTrace
10
10
20
-11.1
30
0
11
13.499998
21
-10.639216
31
0
12
13.500002
22
-11.560784
32
0
13
13.500002
23
-11.560784
33
0
39
0
210
0
220
0
230
1
0
ENDBLK
5
1A7
100
AcDbEntity
8
0
100
AcDbBlockEnd
0
BLOCK
5
1AC
100
AcDbEntity
8
0
100
AcDbBlockBegin
2
*D3
70
1
10
0
20
0
30
0
3
*D3
0
LINE
5
1AE
100
AcDbEntity
8
0
62
256
6
ByLayer
370
-2
48
1
60
0
100
AcDbLine
10
21
20
-3.5875
30
0
11
21
21
-26.1
31
0
39
0
210
0
220
0
230
1
0
LINE
5
1AF
100
AcDbEntity
8
0
62
256
6
ByLayer
370
-2
48
1
60
0
100
AcDbLine
10
6
20
-3.5875
30
0
11
6
21
-26.1
31
0
39
0
210
0
220
0
230
1
0
LINE
5
1B0
100
AcDbEntity
8
0
62
256
6
ByLayer
370
-2
48
1
60
0
100
AcDbLine
10
24.5
20
-24.1
30
0
11
28
21
-24.1
31
0
39
0
210
0
220
0
230
1
0
LINE
5
1B1
100
AcDbEntity
8
0
62
256
6
ByLayer
370
-2
48
1
60
0
100
AcDbLine
10
2.5
20
-24.1
30
0
11
-1
21
-24.1
31
0
39
0
210
0
220
0
230
1
0
SOLID
5
1B2
100
AcDbEntity
8
0
62
256
6
ByLayer
370
-1
48
1
60
0
100
AcDbTrace
10
24.5
20
-23.516667
30
0
11
24.5
21
-24.683333
31
0
12
21
22
-24.1
32
0
13
21
23
-24.1
33
0
39
0
210
0
220
0
230
1
0
SOLID
5
1B3
100
AcDbEntity
8
0
62
256
6
ByLayer
370
-1
48
1
60
0
100
AcDbTrace
10
2.5
20
-24.683333
30
0
11
2.5
21
-23.516667
31
0
12
6
22
-24.1
32
0
13
6
23
-24.1
33
0
39
0
210
0
220
0
230
1
0
MTEXT
5
1B4
100
AcDbEntity
8
0
62
256
6
ByLayer
370
18
48
1
60
0
100
AcDbMText
10
13.5
20
-17.1
30
0
210
0
220
0
230
1
1
\A1;15
40
3.5
41
0
44
1
50
0
71
5
72
5
7
iso_b_vert
0
POINT
5
1B5
100
AcDbEntity
8
Defpoints
62
0
6
ByLayer
370
-1
48
1
60
0
100
AcDbPoint
10
21
20
-2
30
0
39
0
210
0
220
0
230
1
50
360
0
POINT
5
1B6
100
AcDbEntity
8
Defpoints
62
0
6
ByLayer
370
-1
48
1
60
0
100
AcDbPoint
10
6
20
-2
30
0
39
0
210
0
220
0
230
1
50
360
0
POINT
5
1B7
100
AcDbEntity
8
Defpoints
62
0
6
ByLayer
370
-1
48
1
60
0
100
AcDbPoint
10
6
20
-24.1
30
0
39
0
210
0
220
0
230
1
50
360
0
ENDBLK
5
1AD
100
AcDbEntity
8
0
100
AcDbBlockEnd
0
BLOCK
5
1BF
100
AcDbEntity
8
0
100
AcDbBlockBegin
2
_U1
70
0
10
0
20
0
30
0
3
_U1
0
MTEXT
5
1B9
100
AcDbEntity
8
SK2
62
256
6
ByLayer
370
18
48
1
60
0
100
AcDbMText
10
12.032467
20
-23.067366
30
0
210
0
220
0
230
1
1
\W0.5321;15
40
3.5
41
0
44
1.084337
50
0
71
7
72
5
7
iso_b_vert
0
LINE
5
1BA
100
AcDbEntity
8
SK2
62
256
6
ByLayer
370
13
48
1
60
0
100
AcDbLine
10
21
20
-3.5875
30
0
11
21
21
-26.1
31
0
39
0
210
0
220
0
230
1
0
LINE
5
1BB
100
AcDbEntity
8
SK2
62
256
6
ByLayer
370
13
48
1
60
0
100
AcDbLine
10
6
20
-3.5875
30
0
11
6
21
-26.1
31
0
39
0
210
0
220
0
230
1
0
LINE
5
1BC
100
AcDbEntity
8
SK2
62
256
6
ByLayer
370
13
48
1
60
0
100
AcDbLine
10
21
20
-24.1
30
0
11
6
21
-24.1
31
0
39
0
210
0
220
0
230
1
0
SOLID
5
1BD
100
AcDbEntity
8
SK2
62
256
6
ByLayer
370
18
48
1
60
0
100
AcDbTrace
10
21
20
-24.1
30
0
11
17.500002
21
-24.560784
31
0
12
17.499998
22
-23.639216
32
0
13
17.499998
23
-23.639216
33
0
39
0
210
0
220
0
230
1
0
SOLID
5
1BE
100
AcDbEntity
8
SK2
62
256
6
ByLayer
370
18
48
1
60
0
100
AcDbTrace
10
6
20
-24.1
30
0
11
9.499998
21
-23.639216
31
0
12
9.500002
22
-24.560784
32
0
13
9.500002
23
-24.560784
33
0
39
0
210
0
220
0
230
1
0
ENDBLK
5
1C0
100
AcDbEntity
8
0
100
AcDbBlockEnd
0
BLOCK
5
1C5
100
AcDbEntity
8
0
100
AcDbBlockBegin
2
*D5
70
1
10
0
20
0
30
0
3
*D5
0
LINE
5
1C7
100
AcDbEntity
8
0
62
256
6
ByLayer
370
-2
48
1
60
0
100
AcDbLine
10
21
20
3.5875
30
0
11
21
21
14.6
31
0
39
0
210
0
220
0
230
1
0
LINE
5
1C8
100
AcDbEntity
8
0
62
256
6
ByLayer
370
-2
48
1
60
0
100
AcDbLine
10
17
20
3.5875
30
0
11
17
21
14.6
31
0
39
0
210
0
220
0
230
1
0
LINE
5
1C9
100
AcDbEntity
8
0
62
256
6
ByLayer
370
-2
48
1
60
0
100
AcDbLine
10
24.5
20
12.6
30
0
11
28
21
12.6
31
0
39
0
210
0
220
0
230
1
0
LINE
5
1CA
100
AcDbEntity
8
0
62
256
6
ByLayer
370
-2
48
1
60
0
100
AcDbLine
10
13.5
20
12.6
30
0
11
10
21
12.6
31
0
39
0
210
0
220
0
230
1
0
SOLID
5
1CB
100
AcDbEntity
8
0
62
256
6
ByLayer
370
-1
48
1
60
0
100
AcDbTrace
10
24.5
20
13.183333
30
0
11
24.5
21
12.016667
31
0
12
21
22
12.6
32
0
13
21
23
12.6
33
0
39
0
210
0
220
0
230
1
0
SOLID
5
1CC
100
AcDbEntity
8
0
62
256
6
ByLayer
370
-1
48
1
60
0
100
AcDbTrace
10
13.5
20
12.016667
30
0
11
13.5
21
13.183333
31
0
12
17
22
12.6
32
0
13
17
23
12.6
33
0
39
0
210
0
220
0
230
1
0
MTEXT
5
1CD
100
AcDbEntity
8
0
62
256
6
ByLayer
370
18
48
1
60
0
100
AcDbMText
10
19
20
19.6
30
0
210
0
220
0
230
1
1
\A1;4
40
3.5
41
0
44
1
50
0
71
5
72
5
7
iso_b_vert
0
POINT
5
1CE
100
AcDbEntity
8
Defpoints
62
0
6
ByLayer
370
-1
48
1
60
0
100
AcDbPoint
10
21
20
2
30
0
39
0
210
0
220
0
230
1
50
360
0
POINT
5
1CF
100
AcDbEntity
8
Defpoints
62
0
6
ByLayer
370
-1
48
1
60
0
100
AcDbPoint
10
17
20
2
30
0
39
0
210
0
220
0
230
1
50
360
0
POINT
5
1D0
100
AcDbEntity
8
Defpoints
62
0
6
ByLayer
370
-1
48
1
60
0
100
AcDbPoint
10
17
20
12.6
30
0
39
0
210
0
220
0
230
1
50
360
0
ENDBLK
5
1C6
100
AcDbEntity
8
0
100
AcDbBlockEnd
0
BLOCK
5
1DA
100
AcDbEntity
8
0
100
AcDbBlockBegin
2
_U2
70
0
10
0
20
0
30
0
3
_U2
0
MTEXT
5
1D2
100
AcDbEntity
8
SK2
62
256
6
ByLayer
370
18
48
1
60
0
100
AcDbMText
10
11.209768
20
13.632634
30
0
210
0
220
0
230
1
1
\W0.6380;4
40
3.5
41
0
44
1.084337
50
0
71
7
72
5
7
iso_b_vert
0
MTEXT
5
1D3
100
AcDbEntity
8
SK2
62
256
6
ByLayer
370
18
48
1
60
0
100
AcDbMText
10
16.643767
20
13.632634
30
0
210
0
220
0
230
1
1
\W0.8514;\W0.4257;%%p\W0.8514;0.4
40
3.5
41
0
44
1.084337
50
0
71
7
72
5
7
iso_b_vert
0
LINE
5
1D4
100
AcDbEntity
8
SK2
62
256
6
ByLayer
370
13
48
1
60
0
100
AcDbLine
10
21
20
3.5875
30
0
11
21
21
14.6
31
0
39
0
210
0
220
0
230
1
0
LINE
5
1D5
100
AcDbEntity
8
SK2
62
256
6
ByLayer
370
13
48
1
60
0
100
AcDbLine
10
17
20
3.5875
30
0
11
17
21
14.6
31
0
39
0
210
0
220
0
230
1
0
LINE
5
1D6
100
AcDbEntity
8
SK2
62
256
6
ByLayer
370
13
48
1
60
0
100
AcDbLine
10
21
20
12.6
30
0
11
26.975732
21
12.6
31
0
39
0
210
0
220
0
230
1
0
LINE
5
1D7
100
AcDbEntity
8
SK2
62
256
6
ByLayer
370
13
48
1
60
0
100
AcDbLine
10
17
20
12.6
30
0
11
8.25
21
12.6
31
0
39
0
210
0
220
0
230
1
0
SOLID
5
1D8
100
AcDbEntity
8
SK2
62
256
6
ByLayer
370
18
48
1
60
0
100
AcDbTrace
10
21
20
12.6
30
0
11
24.499998
21
13.060784
31
0
12
24.500002
22
12.139216
32
0
13
24.500002
23
12.139216
33
0
39
0
210
0
220
0
230
1
0
SOLID
5
1D9
100
AcDbEntity
8
SK2
62
256
6
ByLayer
370
18
48
1
60
0
100
AcDbTrace
10
17
20
12.6
30
0
11
13.500002
21
12.139216
31
0
12
13.499998
22
13.060784
32
0
13
13.499998
23
13.060784
33
0
39
0
210
0
220
0
230
1
0
ENDBLK
5
1DB
100
AcDbEntity
8
0
100
AcDbBlockEnd
0
BLOCK
5
1E0
100
AcDbEntity
8
0
100
AcDbBlockBegin
2
*D7
70
1
10
0
20
0
30
0
3
*D7
0
LINE
5
1E2
100
AcDbEntity
8
0
62
256
6
ByLayer
370
-2
48
1
60
0
100
AcDbLine
10
-36
20
-4.5875
30
0
11
-36
21
-38.1
31
0
39
0
210
0
220
0
230
1
0
LINE
5
1E3
100
AcDbEntity
8
0
62
256
6
ByLayer
370
-2
48
1
60
0
100
AcDbLine
10
21
20
-3.5875
30
0
11
21
21
-38.1
31
0
39
0
210
0
220
0
230
1
0
LINE
5
1E4
100
AcDbEntity
8
0
62
256
6
ByLayer
370
-2
48
1
60
0
100
AcDbLine
10
-32.5
20
-36.1
30
0
11
17.5
21
-36.1
31
0
39
0
210
0
220
0
230
1
0
SOLID
5
1E5
100
AcDbEntity
8
0
62
256
6
ByLayer
370
-1
48
1
60
0
100
AcDbTrace
10
-32.5
20
-35.516667
30
0
11
-32.5
21
-36.683333
31
0
12
-36
22
-36.1
32
0
13
-36
23
-36.1
33
0
39
0
210
0
220
0
230
1
0
SOLID
5
1E6
100
AcDbEntity
8
0
62
256
6
ByLayer
370
-1
48
1
60
0
100
AcDbTrace
10
17.5
20
-36.683333
30
0
11
17.5
21
-35.516667
31
0
12
21
22
-36.1
32
0
13
21
23
-36.1
33
0
39
0
210
0
220
0
230
1
0
MTEXT
5
1E7
100
AcDbEntity
8
0
62
256
6
ByLayer
370
18
48
1
60
0
100
AcDbMText
10
-7.5
20
-29.1
30
0
210
0
220
0
230
1
1
\A1;57
40
3.5
41
0
44
1
50
0
71
5
72
5
7
iso_b_vert
0
POINT
5
1E8
100
AcDbEntity
8
Defpoints
62
0
6
ByLayer
370
-1
48
1
60
0
100
AcDbPoint
10
-36
20
-3
30
0
39
0
210
0
220
0
230
1
50
360
0
POINT
5
1E9
100
AcDbEntity
8
Defpoints
62
0
6
ByLayer
370
-1
48
1
60
0
100
AcDbPoint
10
21
20
-2
30
0
39
0
210
0
220
0
230
1
50
360
0
POINT
5
1EA
100
AcDbEntity
8
Defpoints
62
0
6
ByLayer
370
-1
48
1
60
0
100
AcDbPoint
10
21
20
-36.1
30
0
39
0
210
0
220
0
230
1
50
360
0
ENDBLK
5
1E1
100
AcDbEntity
8
0
100
AcDbBlockEnd
0
BLOCK
5
1F2
100
AcDbEntity
8
0
100
AcDbBlockBegin
2
_U3
70
0
10
0
20
0
30
0
3
_U3
0
MTEXT
5
1EC
100
AcDbEntity
8
2
62
256
6
ByLayer
370
18
48
1
60
0
100
AcDbMText
10
-9.404966
20
-35.067366
30
0
210
0
220
0
230
1
1
\W0.6740;57
40
3.5
41
0
44
1.084337
50
0
71
7
72
5
7
iso_b_vert
0
LINE
5
1ED
100
AcDbEntity
8
2
62
256
6
ByLayer
370
13
48
1
60
0
100
AcDbLine
10
-36
20
-4.5875
30
0
11
-36
21
-38.1
31
0
39
0
210
0
220
0
230
1
0
LINE
5
1EE
100
AcDbEntity
8
2
62
256
6
ByLayer
370
13
48
1
60
0
100
AcDbLine
10
21
20
-3.5875
30
0
11
21
21
-38.1
31
0
39
0
210
0
220
0
230
1
0
LINE
5
1EF
100
AcDbEntity
8
2
62
256
6
ByLayer
370
13
48
1
60
0
100
AcDbLine
10
-36
20
-36.1
30
0
11
21
21
-36.1
31
0
39
0
210
0
220
0
230
1
0
SOLID
5
1F0
100
AcDbEntity
8
2
62
256
6
ByLayer
370
18
48
1
60
0
100
AcDbTrace
10
-36
20
-36.1
30
0
11
-32.500002
21
-35.639216
31
0
12
-32.499998
22
-36.560784
32
0
13
-32.499998
23
-36.560784
33
0
39
0
210
0
220
0
230
1
0
SOLID
5
1F1
100
AcDbEntity
8
2
62
256
6
ByLayer
370
18
48
1
60
0
100
AcDbTrace
10
21
20
-36.1
30
0
11
17.500002
21
-36.560784
31
0
12
17.499998
22
-35.639216
32
0
13
17.499998
23
-35.639216
33
0
39
0
210
0
220
0
230
1
0
ENDBLK
5
1F3
100
AcDbEntity
8
0
100
AcDbBlockEnd
0
ENDSEC
0
SECTION
2
ENTITIES
0
ARC
5
D2
100
AcDbEntity
8
1
62
256
6
ByLayer
370
18
48
1
60
0
100
AcDbCircle
39
0
10
9.3755
20
3.9
30
0
40
2
210
0
220
0
230
1
100
AcDbArc
50
279.20982
51
284.564162
0
ARC
5
D3
100
AcDbEntity
8
1
62
256
6
ByLayer
370
18
48
1
60
0
100
AcDbCircle
39
0
10
5.995358
20
3.9
30
0
40
2
210
0
220
0
230
1
100
AcDbArc
50
240
51
270
0
ARC
5
D4
100
AcDbEntity
8
1
62
256
6
ByLayer
370
18
48
1
60
0
100
AcDbCircle
39
0
10
5.995358
20
-3.9
30
0
40
2
210
0
220
0
230
1
100
AcDbArc
50
90
51
120
0
ELLIPSE
5
D5
100
AcDbEntity
8
1
62
256
6
ByLayer
370
18
48
1
60
0
100
AcDbEllipse
10
20.970823
20
-0.161841
30
0
11
0.005654867152963
21
0.491953269849742
31
0
210
0
220
0
230
1
40
0.062769
41
1.32583285354252
42
1.39585091657339
0
POINT
5
70
100
AcDbEntity
8
81
62
256
6
ByLayer
370
18
48
1
60
0
100
AcDbPoint
10
21
20
0
30
0
39
0
210
0
220
0
230
1
50
360
0
POINT
5
72
100
AcDbEntity
8
81
62
256
6
ByLayer
370
18
48
1
60
0
100
AcDbPoint
10
-36
20
0
30
0
39
0
210
0
220
0
230
1
50
360
0
POINT
5
73
100
AcDbEntity
8
80
62
256
6
ByLayer
370
18
48
1
60
0
100
AcDbPoint
10
0
20
0
30
0
39
0
210
0
220
0
230
1
50
360
0
POINT
5
75
100
AcDbEntity
8
81
62
256
6
ByLayer
370
18
48
1
60
0
100
AcDbPoint
10
21
20
0
30
0
39
0
210
0
220
0
230
1
50
360
0
POINT
5
76
100
AcDbEntity
8
1
62
256
6
ByLayer
370
18
48
1
60
1
100
AcDbPoint
10
21
20
-2
30
0
39
0
210
0
220
0
230
1
50
360
0
POINT
5
78
100
AcDbEntity
8
1
62
256
6
ByLayer
370
18
48
1
60
1
100
AcDbPoint
10
10
20
-2
30
0
39
0
210
0
220
0
230
1
50
360
0
POINT
5
79
100
AcDbEntity
8
1
62
256
6
ByLayer
370
18
48
1
60
1
100
AcDbPoint
10
21
20
-2
30
0
39
0
210
0
220
0
230
1
50
360
0
POINT
5
7A
100
AcDbEntity
8
1
62
256
6
ByLayer
370
18
48
1
60
1
100
AcDbPoint
10
6
20
-2
30
0
39
0
210
0
220
0
230
1
50
360
0
POINT
5
7B
100
AcDbEntity
8
1
62
256
6
ByLayer
370
18
48
1
60
1
100
AcDbPoint
10
21
20
2
30
0
39
0
210
0
220
0
230
1
50
360
0
POINT
5
7C
100
AcDbEntity
8
1
62
256
6
ByLayer
370
18
48
1
60
1
100
AcDbPoint
10
17
20
2
30
0
39
0
210
0
220
0
230
1
50
360
0
POINT
5
7D
100
AcDbEntity
8
1
62
256
6
ByLayer
370
18
48
1
60
1
100
AcDbPoint
10
-36
20
-3
30
0
39
0
210
0
220
0
230
1
50
360
0
POINT
5
7E
100
AcDbEntity
8
1
62
256
6
ByLayer
370
18
48
1
60
1
100
AcDbPoint
10
21
20
-2
30
0
39
0
210
0
220
0
230
1
50
360
0
SPLINE
5
D6
100
AcDbEntity
8
1
62
256
6
ByLayer
370
18
48
1
60
0
100
AcDbSpline
70
4
71
3
72
8
73
4
40
0
40
0
40
0
40
0
40
1
40
1
40
1
40
1
41
1
10
20.9818782794157
20
-0.824004137296612
30
0
41
1
10
20.9823390683281
20
-0.834660030327626
30
0
41
1
10
20.9827961489904
20
-0.845340137389343
30
0
41
1
10
20.9832680276749
20
-0.855923902355926
30
0
0
SPLINE
5
D7
100
AcDbEntity
8
1
62
256
6
ByLayer
370
18
48
1
60
0
100
AcDbSpline
70
4
71
3
72
8
73
4
40
0
40
0
40
0
40
0
40
1
40
1
40
1
40
1
41
1
10
20.9850884370378
20
-0.904667689875367
30
0
41
1
10
20.9662241453985
20
-1.01317583722235
30
0
41
1
10
20.9473576431228
20
-1.12155578746643
30
0
41
1
10
20.9284894943606
20
-1.22983662773586
30
0
0
SPLINE
5
D8
100
AcDbEntity
8
1
62
256
6
ByLayer
370
18
48
1
60
0
100
AcDbSpline
70
4
71
3
72
8
73
4
40
0
40
0
40
0
40
0
40
1
40
1
40
1
40
1
41
1
10
20.9832680278261
20
-0.855923902291806
30
0
41
1
10
20.9839665988819
20
-0.871592149386316
30
0
41
1
10
20.984568445296
20
-0.887871388348913
30
0
41
1
10
20.9850884370381
20
-0.904667689883325
30
0
0
SPLINE
5
D9
100
AcDbEntity
8
1
62
256
6
ByLayer
370
18
48
1
60
0
100
AcDbSpline
70
4
71
3
72
8
73
4
40
0
40
0
40
0
40
0
40
1
40
1
40
1
40
1
41
1
10
20.9832680278254
20
1.47383538665915
30
0
41
1
10
20.9839666124517
20
1.49957663846203
30
0
41
1
10
20.9845684548507
20
1.52519722185852
30
0
41
1
10
20.9850884370373
20
1.55071569905596
30
0
0
SPLINE
5
DA
100
AcDbEntity
8
1
62
256
6
ByLayer
370
18
48
1
60
0
100
AcDbSpline
70
4
71
3
72
28
73
24
40
0
40
0
40
0
40
0
40
0.124999999999951
40
0.124999999999951
40
0.18749999999994
40
0.18749999999994
40
0.249999999999929
40
0.249999999999929
40
0.374999999999931
40
0.374999999999931
40
0.437499999999942
40
0.437499999999942
40
0.499999999999954
40
0.499999999999954
40
0.562499999999965
40
0.562499999999965
40
0.624999999999976
40
0.624999999999976
40
0.749999999999984
40
0.749999999999984
40
0.874999999999992
40
0.874999999999992
40
1
40
1
40
1
40
1
41
1
10
20.6946033750588
20
1.93572376140989
30
0
41
1
10
20.7147574710752
20
1.93347483798002
30
0
41
1
10
20.7339289986808
20
1.92859195324712
30
0
41
1
10
20.7615547084122
20
1.91789335058317
30
0
41
1
10
20.7705711897711
20
1.91375794703822
30
0
41
1
10
20.7882443897582
20
1.90438643520861
30
0
41
1
10
20.796860842189
20
1.89916709161693
30
0
41
1
10
20.8217697457955
20
1.88222124747028
30
0
41
1
10
20.8372812447529
20
1.86912956745601
30
0
41
1
10
20.8591144858472
20
1.84697917730872
30
0
41
1
10
20.8661619318314
20
1.8391593721997
30
0
41
1
10
20.8796447905902
20
1.82287532901501
30
0
41
1
10
20.8860980460261
20
1.81439480509175
30
0
41
1
10
20.8984554821614
20
1.7967907570802
30
0
41
1
10
20.9043633173285
20
1.78765719254491
30
0
41
1
10
20.915566244933
20
1.76889830947874
30
0
41
1
10
20.9208731303212
20
1.75925711710286
30
0
41
1
10
20.9359456845829
20
1.72957009884354
30
0
41
1
10
20.9448717786531
20
1.70872409293989
30
0
41
1
10
20.9603321179888
20
1.66571109172384
30
0
41
1
10
20.9669233181074
20
1.64338738939134
30
0
41
1
10
20.9777516991925
20
1.59774687131099
30
0
41
1
10
20.9819929815381
20
1.57445891993274
30
0
41
1
10
20.9850884370373
20
1.55071569905596
30
0
0
SPLINE
5
DB
100
AcDbEntity
8
1
62
256
6
ByLayer
370
18
48
1
60
0
100
AcDbSpline
70
4
71
3
72
8
73
4
40
0
40
0
40
0
40
0
40
1
40
1
40
1
40
1
41
1
10
20.6542092697933
20
1.93992136310425
30
0
41
1
10
20.6675215288483
20
1.93864486232587
30
0
41
1
10
20.6809897095151
20
1.93724286161571
30
0
41
1
10
20.6946033750588
20
1.93572376140983
30
0
0
SPLINE
5
DC
100
AcDbEntity
8
1
62
256
6
ByLayer
370
18
48
1
60
0
100
AcDbSpline
70
4
71
3
72
8
73
4
40
0
40
0
40
0
40
0
40
1
40
1
40
1
40
1
41
1
10
20.9818782794151
20
1.42169845670725
30
0
41
1
10
20.9823390683274
20
1.43907490832922
30
0
41
1
10
20.9827961489898
20
1.45644773219925
30
0
41
1
10
20.9832680276744
20
1.47383538665306
30
0
0
SPLINE
5
DD
100
AcDbEntity
8
1
62
256
6
ByLayer
370
13
48
1
60
0
100
AcDbSpline
70
4
71
3
72
23
73
19
40
0
40
0
40
0
40
0
40
0.0482150221464545
40
0.125836349352811
40
0.217782778270225
40
0.309822508949557
40
0.387754518640383
40
0.41889501342232
40
0.449411899581039
40
0.493045524517483
40
0.521779875426473
40
0.567191183516775
40
0.676229681390362
40
0.768262816231845
40
0.814155815293613
40
0.906697839231899
40
0.968937089611169
40
1
40
1
40
1
40
1
41
1
10
20.9832680279493
20
1.47383538669743
30
0
41
1
10
20.9788073849662
20
1.48652999904334
30
0
41
1
10
20.9667605337612
20
1.51846186006091
30
0
41
1
10
20.9432517544018
20
1.5718793891869
30
0
41
1
10
20.9100866202603
20
1.63358773456633
30
0
41
1
10
20.8724519003479
20
1.69039603908198
30
0
41
1
10
20.8415424190351
20
1.7292681381395
30
0
41
1
10
20.8190322559112
20
1.75445590911386
30
0
41
1
10
20.8013923442997
20
1.77291710255099
30
0
41
1
10
20.7823898136285
20
1.79113175491838
30
0
41
1
10
20.7596688627907
20
1.81090858989384
30
0
41
1
10
20.7263979822878
20
1.83711968104973
30
0
41
1
10
20.6808660812868
20
1.86643138974432
30
0
41
1
10
20.6320373541887
20
1.8891069303792
30
0
41
1
10
20.5859542026963
20
1.9048868604157
30
0
41
1
10
20.5455833425003
20
1.91402025489683
30
0
41
1
10
20.5089840782328
20
1.91769572992797
30
0
41
1
10
20.4900925089803
20
1.91817895412927
30
0
41
1
10
20.4836861455791
20
1.91816561128928
30
0
0
SPLINE
5
DE
100
AcDbEntity
8
1
62
256
6
ByLayer
370
18
48
1
60
0
100
AcDbSpline
70
4
71
3
72
20
73
16
40
0
40
0
40
0
40
0
40
0.124999999999988
40
0.124999999999988
40
0.18749999999999
40
0.18749999999999
40
0.249999999999992
40
0.249999999999992
40
0.374999999999994
40
0.374999999999994
40
0.499999999999996
40
0.499999999999996
40
0.749999999999998
40
0.749999999999998
40
1
40
1
40
1
40
1
41
1
10
20.9754985274173
20
1.41982869424396
30
0
41
1
10
20.9747007703561
20
1.43150115433664
30
0
41
1
10
20.9734848150364
20
1.44308935052086
30
0
41
1
10
20.9702103386989
20
1.46017937085694
30
0
41
1
10
20.9688693590326
20
1.46582577437411
30
0
41
1
10
20.9655357091776
20
1.47698727050647
30
0
41
1
10
20.963558025488
20
1.48243324852155
30
0
41
1
10
20.9567691345283
20
1.49825925403553
30
0
41
1
10
20.9511095198029
20
1.50819477799388
30
0
41
1
10
20.9384826084695
20
1.52735626896529
30
0
41
1
10
20.9315888474242
20
1.53646225320082
30
0
41
1
10
20.9100747128185
20
1.56276830540131
30
0
41
1
10
20.894566142047
20
1.57911590209261
30
0
41
1
10
20.862273073872
20
1.61050894899262
30
0
41
1
10
20.8454134174553
20
1.62547769569676
30
0
41
1
10
20.8280260412291
20
1.63990787813654
30
0
0
SPLINE
5
DF
100
AcDbEntity
8
1
62
256
6
ByLayer
370
18
48
1
60
0
100
AcDbSpline
70
4
71
3
72
16
73
12
40
0
40
0
40
0
40
0
40
0.249999999999997
40
0.249999999999997
40
0.375000000000006
40
0.375000000000006
40
0.500000000000014
40
0.500000000000014
40
0.750000000000007
40
0.750000000000007
40
1
40
1
40
1
40
1
41
1
10
20.9284894943606
20
-1.22983662773595
30
0
41
1
10
20.9243778691171
20
-1.25042159382963
30
0
41
1
10
20.9192745835294
20
-1.27160627230131
30
0
41
1
10
20.9104653355887
20
-1.30401946103527
30
0
41
1
10
20.9073335242569
20
-1.31493562565228
30
0
41
1
10
20.9007128833402
20
-1.33697217340063
30
0
41
1
10
20.8972131187855
20
-1.34812465720259
30
0
41
1
10
20.88633156495
20
-1.38152105667462
30
0
41
1
10
20.8785564686125
20
-1.40376351765622
30
0
41
1
10
20.8621581267998
20
-1.4482129235613
30
0
41
1
10
20.8535837443329
20
-1.47028096081755
30
0
41
1
10
20.8447522014083
20
-1.49209035640732
30
0
0
SPLINE
5
E0
100
AcDbEntity
8
1
62
256
6
ByLayer
370
18
48
1
60
0
100
AcDbSpline
70
4
71
3
72
10
73
6
40
0
40
0
40
0
40
0
40
0.5
40
0.5
40
1
40
1
40
1
40
1
41
1
10
9.99757645458899
20
1.96922587992285
30
0
41
1
10
9.93133209030202
20
1.96125665281178
30
0
41
1
10
9.8641057502488
20
1.95205886337098
30
0
41
1
10
9.72735207067876
20
1.93126956998833
30
0
41
1
10
9.65781853488699
20
1.91967583326482
30
0
41
1
10
9.58693695841427
20
1.90727078451732
30
0
0
SPLINE
5
E1
100
AcDbEntity
8
1
62
256
6
ByLayer
370
18
48
1
60
0
100
AcDbSpline
70
4
71
1
72
4
73
2
40
0
40
0
40
1
40
1
41
1
10
10
20
1.83839675179871
30
0
41
1
10
9.58693695841427
20
1.90727078451732
30
0
0
SPLINE
5
E2
100
AcDbEntity
8
1
62
256
6
ByLayer
370
18
48
1
60
0
100
AcDbSpline
70
4
71
3
72
8
73
4
40
0
40
0
40
0
40
0
40
1
40
1
40
1
40
1
41
1
10
9.58693695841427
20
1.90727078451732
30
0
41
1
10
9.51862808223157
20
1.8953053906981
30
0
41
1
10
9.44818872694202
20
1.88254609827817
30
0
41
1
10
9.37550020016019
20
1.87028528135309
30
0
0
SPLINE
5
E3
100
AcDbEntity
8
1
62
256
6
ByLayer
370
18
48
1
60
0
100
AcDbSpline
70
4
71
3
72
12
73
8
40
0
40
0
40
0
40
0
40
0.500000000000021
40
0.500000000000021
40
0.75000000000001
40
0.75000000000001
40
1
40
1
40
1
40
1
41
1
10
20.7085587264715
20
1.80477453986197
30
0
41
1
10
20.7326656817839
20
1.78307266300436
30
0
41
1
10
20.754903371187
20
1.75845356597148
30
0
41
1
10
20.7850213600601
20
1.71718975200824
30
0
41
1
10
20.7945195143406
20
1.70271355816084
30
0
41
1
10
20.8122940553669
20
1.67227668471858
30
0
41
1
10
20.8205585925582
20
1.65630583989008
30
0
41
1
10
20.8280260412354
20
1.63990787814114
30
0
0
SPLINE
5
E4
100
AcDbEntity
8
1
62
256
6
ByLayer
370
18
48
1
60
0
100
AcDbSpline
70
4
71
3
72
16
73
12
40
0
40
0
40
0
40
0
40
0.102232042219603
40
0.102232042219603
40
0.326674031664702
40
0.326674031664702
40
0.551116021109801
40
0.551116021109801
40
0.775558010554901
40
0.775558010554901
40
1
40
1
40
1
40
1
41
1
10
20.1541946924729
20
1.03270206465373
30
0
41
1
10
20.1584494837225
20
1.03453593508124
30
0
41
1
10
20.1627698872116
20
1.03641810839429
30
0
41
1
10
20.1767943820163
20
1.04257194110261
30
0
41
1
10
20.186670975936
20
1.04696790993708
30
0
41
1
10
20.2065900211959
20
1.05578036916938
30
0
41
1
10
20.21668847468
20
1.06022197041332
30
0
41
1
10
20.2372392016486
20
1.06901778381174
30
0
41
1
10
20.2477649675969
20
1.07340080624655
30
0
41
1
10
20.2688346043665
20
1.08173058588659
30
0
41
1
10
20.279374454901
20
1.08567830455399
30
0
41
1
10
20.2899502396943
20
1.08932845790406
30
0
0
SPLINE
5
E5
100
AcDbEntity
8
1
62
256
6
ByLayer
370
18
48
1
60
0
100
AcDbSpline
70
4
71
3
72
30
73
26
40
0
40
0
40
0
40
0
40
0.0624999999999864
40
0.0624999999999864
40
0.124999999999973
40
0.124999999999973
40
0.187499999999959
40
0.187499999999959
40
0.249999999999945
40
0.249999999999945
40
0.37499999999993
40
0.37499999999993
40
0.406249999999926
40
0.406249999999926
40
0.437499999999922
40
0.437499999999922
40
0.49999999999993
40
0.49999999999993
40
0.624999999999948
40
0.624999999999948
40
0.749999999999965
40
0.749999999999965
40
0.874999999999983
40
0.874999999999983
40
1
40
1
40
1
40
1
41
1
10
20.8280260412466
20
1.63990787814345
30
0
41
1
10
20.8275659658367
20
1.62275113586205
30
0
41
1
10
20.8263600968067
20
1.60551532702695
30
0
41
1
10
20.8221862569862
20
1.57085689720276
30
0
41
1
10
20.8192510297479
20
1.55373665576488
30
0
41
1
10
20.8115712740064
20
1.51999657319632
30
0
41
1
10
20.8068255929641
20
1.50336837115361
30
0
41
1
10
20.7953935589651
20
1.47063010460141
30
0
41
1
10
20.7886797239563
20
1.45446509808187
30
0
41
1
10
20.7656024489855
20
1.40715860552663
30
0
41
1
10
20.7467581339133
20
1.3780716709166
30
0
41
1
10
20.7194412674994
20
1.34437767551722
30
0
41
1
10
20.7137898960669
20
1.33777205661065
30
0
41
1
10
20.7021254700214
20
1.32481703955531
30
0
41
1
10
20.696095618612
20
1.31845150563856
30
0
41
1
10
20.6776583065303
20
1.29989374866221
30
0
41
1
10
20.6648839610284
20
1.28820807787716
30
0
41
1
10
20.6253456166987
20
1.25487827609086
30
0
41
1
10
20.5973771119263
20
1.23494600388989
30
0
41
1
10
20.5391177318014
20
1.19838204138409
30
0
41
1
10
20.5087193457291
20
1.18172059142768
30
0
41
1
10
20.4473868554472
20
1.15139463474557
30
0
41
1
10
20.4163026296651
20
1.13763144950269
30
0
41
1
10
20.3535380429537
20
1.1121015012962
30
0
41
1
10
20.3218559669485
20
1.1003404820232
30
0
41
1
10
20.2899502396943
20
1.08932845790403
30
0
0
SPLINE
5
E6
100
AcDbEntity
8
1
62
256
6
ByLayer
370
13
48
1
60
0
100
AcDbSpline
70
4
71
3
72
14
73
10
40
0
40
0
40
0
40
0
40
0.25
40
0.25
40
0.5
40
0.5
40
0.75
40
0.75
40
1
40
1
40
1
40
1
41
1
10
17
20
-1.56755825293138
30
0
41
1
10
17
20
-1.53751218115255
30
0
41
1
10
17
20
-1.50059369940075
30
0
41
1
10
17
20
-1.4139489001756
30
0
41
1
10
17
20
-1.36422452724764
30
0
41
1
10
17
20
-1.25334731084962
30
0
41
1
10
17
20
-1.1921972531905
30
0
41
1
10
17
20
-1.0602168304608
30
0
41
1
10
17
20
-0.989389837286382
30
0
41
1
10
17
20
-0.914734455885792
30
0
0
SPLINE
5
E7
100
AcDbEntity
8
1
62
256
6
ByLayer
370
18
48
1
60
0
100
AcDbSpline
70
4
71
3
72
12
73
8
40
0
40
0
40
0
40
0
40
0.246403828979095
40
0.246403828979095
40
0.623201914489547
40
0.623201914489547
40
1
40
1
40
1
40
1
41
1
10
20.1758959814877
20
1.0543374420877
30
0
41
1
10
20.1996702408655
20
1.05172327549548
30
0
41
1
10
20.2244691832266
20
1.04630657225508
30
0
41
1
10
20.2897026509138
20
1.02573563236186
30
0
41
1
10
20.3303948064308
20
1.00729271937394
30
0
41
1
10
20.4139194879573
20
0.959920385669534
30
0
41
1
10
20.4567811225148
20
0.930962088356324
30
0
41
1
10
20.5006279711225
20
0.897063853273181
30
0
0
SPLINE
5
E8
100
AcDbEntity
8
1
62
256
6
ByLayer
370
18
48
1
60
0
100
AcDbSpline
70
4
71
3
72
14
73
10
40
0
40
0
40
0
40
0
40
0.499999999999998
40
0.499999999999998
40
0.749999999999999
40
0.749999999999999
40
0.874999999999999
40
0.874999999999999
40
1
40
1
40
1
40
1
41
1
10
20.5384234160488
20
-1.60697154325663
30
0
41
1
10
20.5254721755106
20
-1.57918051448777
30
0
41
1
10
20.515763736642
20
-1.54544308613867
30
0
41
1
10
20.5058414305713
20
-1.48632782360861
30
0
41
1
10
20.5033101325265
20
-1.46519951536038
30
0
41
1
10
20.5006713157063
20
-1.43138336306904
30
0
41
1
10
20.4999848696494
20
-1.41975711122131
30
0
41
1
10
20.4989988841166
20
-1.39579512808061
30
0
41
1
10
20.4986999656341
20
-1.38343623050665
30
0
41
1
10
20.4985947240741
20
-1.37084623550348
30
0
0
SPLINE
5
E9
100
AcDbEntity
8
1
62
256
6
ByLayer
370
18
48
1
60
0
100
AcDbSpline
70
4
71
3
72
22
73
18
40
0
40
0
40
0
40
0
40
0.249999999999999
40
0.249999999999999
40
0.374999999999994
40
0.374999999999994
40
0.437499999999996
40
0.437499999999996
40
0.499999999999998
40
0.499999999999998
40
0.750000000000004
40
0.750000000000004
40
0.812500000000005
40
0.812500000000005
40
0.875000000000006
40
0.875000000000006
40
1
40
1
40
1
40
1
41
1
10
19.9299911423884
20
-0.587641938187687
30
0
41
1
10
19.96345515952
20
-0.68035639643557
30
0
41
1
10
20.0016614108515
20
-0.766220694199802
30
0
41
1
10
20.0652366607723
20
-0.885966083203641
30
0
41
1
10
20.0874817021321
20
-0.924359732757495
30
0
41
1
10
20.1223945995461
20
-0.979717969103376
30
0
41
1
10
20.1342690115713
20
-0.997759444883712
30
0
41
1
10
20.1582432520407
20
-1.03270527338646
30
0
41
1
10
20.1703755701977
20
-1.04966187214723
30
0
41
1
10
20.2317304610193
20
-1.13197953075547
30
0
41
1
10
20.2830114480591
20
-1.19002098705258
30
0
41
1
10
20.3495780025237
20
-1.25380626842772
30
0
41
1
10
20.3630299091595
20
-1.26613051372806
30
0
41
1
10
20.3899534503876
20
-1.2897117509799
30
0
41
1
10
20.4034516195368
20
-1.30099544411078
30
0
41
1
10
20.444051054838
20
-1.3333851843561
30
0
41
1
10
20.471256994159
20
-1.35303343933697
30
0
41
1
10
20.498594724074
20
-1.37084623550373
30
0
0
SPLINE
5
EA
100
AcDbEntity
8
1
62
256
6
ByLayer
370
13
48
1
60
0
100
AcDbSpline
70
4
71
3
72
14
73
10
40
0
40
0
40
0
40
0
40
0.25
40
0.25
40
0.5
40
0.5
40
0.75
40
0.75
40
1
40
1
40
1
40
1
41
1
10
17
20
0.439827298565149
30
0
41
1
10
17
20
0.502375140735353
30
0
41
1
10
17
20
0.559578095763555
30
0
41
1
10
17
20
0.661785207507705
30
0
41
1
10
17
20
0.706787338605238
30
0
41
1
10
17
20
0.783507003452115
30
0
41
1
10
17
20
0.815223518601499
30
0
41
1
10
17
20
0.864761322167908
30
0
41
1
10
17
20
0.882582654087827
30
0
41
1
10
17
20
0.893396008885958
30
0
0
SPLINE
5
EB
100
AcDbEntity
8
1
62
256
6
ByLayer
370
18
48
1
60
0
100
AcDbSpline
70
4
71
1
72
4
73
2
40
0
40
0
40
1
40
1
41
1
10
17
20
0.893396008885986
30
0
41
1
10
16.6937796168856
20
0.985535058638504
30
0
0
SPLINE
5
EC
100
AcDbEntity
8
1
62
256
6
ByLayer
370
13
48
1
60
0
100
AcDbSpline
70
4
71
3
72
8
73
4
40
0
40
0
40
0
40
0
40
1
40
1
40
1
40
1
41
1
10
17.174986264398
20
-0.959586069294176
30
0
41
1
10
17.1166575095987
20
-0.94620370457929
30
0
41
1
10
17.0583287547993
20
-0.931247635833216
30
0
41
1
10
17
20
-0.914734455885792
30
0
0
SPLINE
5
ED
100
AcDbEntity
8
1
62
256
6
ByLayer
370
18
48
1
60
0
100
AcDbSpline
70
4
71
3
72
25
73
21
40
0
40
0
40
0
40
0
40
0.140562962890042
40
0.140562962890042
40
0.281125925780085
40
0.281125925780085
40
0.421688888670127
40
0.421688888670127
40
0.562251851560169
40
0.562251851560169
40
0.702814814450211
40
0.702814814450211
40
0.843377777340253
40
0.843377777340253
40
0.878518518062769
40
0.878518518062769
40
0.913659258785285
40
0.983940740230324
40
0.983940740230324
40
1
40
1
40
1
40
1
41
1
10
20.5384234160449
20
0.6345835639558
30
0
41
1
10
20.4646332554583
20
0.694911415064439
30
0
41
1
10
20.3906831928021
20
0.753563778037801
30
0
41
1
10
20.2423078623553
20
0.867350439348598
30
0
41
1
10
20.1678732749991
20
0.922495692077973
30
0
41
1
10
20.0183079223471
20
1.02882162939847
30
0
41
1
10
19.9441848498383
20
1.07928327532255
30
0
41
1
10
19.7968843003768
20
1.17445330997444
30
0
41
1
10
19.723707750508
20
1.21915981652177
30
0
41
1
10
19.5778131218842
20
1.30223841153807
30
0
41
1
10
19.5051084382806
20
1.34058909694008
30
0
41
1
10
19.3591419151118
20
1.41045680217883
30
0
41
1
10
19.2858771557694
20
1.44197819028565
30
0
41
1
10
19.1933972935614
20
1.47688235802724
30
0
41
1
10
19.1748419869536
20
1.48364313504848
30
0
41
1
10
19.1377871492783
20
1.49665577432299
30
0
41
1
10
19.082240411357
20
1.51543068852391
30
0
41
1
10
19.0267464863365
20
1.53199129246116
30
0
41
1
10
18.9812830036021
20
1.54435774474987
30
0
41
1
10
18.9728272381682
20
1.54660668272027
30
0
41
1
10
18.9643718602043
20
1.54880449181351
30
0
0
SPLINE
5
EE
100
AcDbEntity
8
1
62
256
6
ByLayer
370
18
48
1
60
0
100
AcDbSpline
70
4
71
3
72
14
73
10
40
0
40
0
40
0
40
0
40
0.210344498991943
40
0.210344498991943
40
0.407758374243963
40
0.407758374243963
40
0.605172249495982
40
0.605172249495982
40
1
40
1
40
1
40
1
41
1
10
17.5644243659752
20
-1.36919738063383
30
0
41
1
10
17.5255919814334
20
-1.38791234335545
30
0
41
1
10
17.4866080520335
20
-1.40566138855772
30
0
41
1
10
17.4106156969688
20
-1.43816089481962
30
0
41
1
10
17.3735829874359
20
-1.45304871565335
30
0
41
1
10
17.299328685096
20
-1.48096624511942
30
0
41
1
10
17.2621406372199
20
-1.49398684175498
30
0
41
1
10
17.1503071492956
20
-1.53025917773596
30
0
41
1
10
17.0753800167401
20
-1.55073625778368
30
0
41
1
10
17
20
-1.56745030352428
30
0
0
SPLINE
5
EF
100
AcDbEntity
8
1
62
256
6
ByLayer
370
18
48
1
60
0
100
AcDbSpline
70
4
71
3
72
37
73
33
40
0
40
0
40
0
40
0
40
0.125000000000012
40
0.125000000000012
40
0.250000000000024
40
0.250000000000024
40
0.281250000000027
40
0.281250000000027
40
0.31250000000003
40
0.31250000000003
40
0.375000000000035
40
0.375000000000035
40
0.500000000000047
40
0.500000000000047
40
0.531250000000047
40
0.531250000000047
40
0.562500000000047
40
0.625000000000043
40
0.625000000000043
40
0.687500000000038
40
0.687500000000038
40
0.750000000000034
40
0.750000000000034
40
0.78125000000003
40
0.78125000000003
40
0.812500000000026
40
0.812500000000026
40
0.875000000000017
40
0.875000000000017
40
0.937500000000009
40
0.937500000000009
40
1
40
1
40
1
40
1
41
1
10
15.3062749632456
20
-0.435231911907721
30
0
41
1
10
15.3733917940897
20
-0.53273592411432
30
0
41
1
10
15.4400945635838
20
-0.626146841820884
30
0
41
1
10
15.5739557361614
20
-0.804495029359515
30
0
41
1
10
15.6411023248062
20
-0.889435762095843
30
0
41
1
10
15.7262407967518
20
-0.98964260130137
30
0
41
1
10
15.7433366255087
20
-1.00938884722069
30
0
41
1
10
15.7773728247225
20
-1.04791452188573
30
0
41
1
10
15.7943512171464
20
-1.0667393921081
30
0
41
1
10
15.8452092900546
20
-1.12189844219114
30
0
41
1
10
15.8790161482735
20
-1.15691317481301
30
0
41
1
10
15.9804176898441
20
-1.25668232831535
30
0
41
1
10
16.0479610359054
20
-1.31621372279187
30
0
41
1
10
16.1333711815662
20
-1.38141127529093
30
0
41
1
10
16.1505385888998
20
-1.39401060282634
30
0
41
1
10
16.1848309149902
20
-1.41813070061545
30
0
41
1
10
16.2361469320291
20
-1.45265691722571
30
0
41
1
10
16.2872603713754
20
-1.48226707182346
30
0
41
1
10
16.3555821489511
20
-1.51737677471968
30
0
41
1
10
16.3898265230008
20
-1.5327461903928
30
0
41
1
10
16.4589304178429
20
-1.55903119653047
30
0
41
1
10
16.49378519998
20
-1.56994732633376
30
0
41
1
10
16.5470117722381
20
-1.58284866062104
30
0
41
1
10
16.5649127844726
20
-1.58656981154053
30
0
41
1
10
16.6011352475795
20
-1.59282590226402
30
0
41
1
10
16.619459060949
20
-1.59535741108113
30
0
41
1
10
16.6747408455965
20
-1.60109558036351
30
0
41
1
10
16.712156449162
20
-1.60247689516862
30
0
41
1
10
16.7890953613092
20
-1.6004716392093
30
0
41
1
10
16.8286090415798
20
-1.59708403946757
30
0
41
1
10
16.9111585877588
20
-1.58567104680103
30
0
41
1
10
16.9541873243513
20
-1.57763715463645
30
0
41
1
10
17.0000000000078
20
-1.56746122463846
30
0
0
SPLINE
5
F0
100
AcDbEntity
8
1
62
256
6
ByLayer
370
18
48
1
60
0
100
AcDbSpline
70
4
71
3
72
13
73
9
40
0
40
0
40
0
40
0
40
0.170950590739209
40
0.402716289593743
40
0.557226755496766
40
0.711737221399788
40
0.866247687302811
40
1
40
1
40
1
40
1
41
1
10
16.6044009400274
20
-1.67106567353704
30
0
41
1
10
16.3508506266849
20
-1.7431328587962
30
0
41
1
10
15.7535503133424
20
-1.79657888078847
30
0
41
1
10
14.9270833333333
20
-1.46333405073071
30
0
41
1
10
14.125
20
-0.847001668860088
30
0
41
1
10
13.4375
20
-0.198282329522669
30
0
41
1
10
12.7807880553498
20
0.449487710852992
30
0
41
1
10
12.3532427773662
20
0.831046018446074
30
0
41
1
10
12.1548641660492
20
0.989830694458334
30
0
0
SPLINE
5
F1
100
AcDbEntity
8
1
62
256
6
ByLayer
370
18
48
1
60
0
100
AcDbSpline
70
4
71
3
72
45
73
41
40
0
40
0
40
0
40
0
40
0.12499999999991
40
0.12499999999991
40
0.24999999999982
40
0.24999999999982
40
0.281249999999813
40
0.281249999999813
40
0.312499999999806
40
0.312499999999806
40
0.374999999999792
40
0.374999999999792
40
0.406249999999795
40
0.406249999999795
40
0.437499999999798
40
0.437499999999798
40
0.499999999999822
40
0.499999999999822
40
0.531249999999834
40
0.531249999999834
40
0.562499999999846
40
0.562499999999846
40
0.593749999999858
40
0.593749999999858
40
0.62499999999987
40
0.62499999999987
40
0.687499999999894
40
0.687499999999894
40
0.718749999999906
40
0.718749999999906
40
0.749999999999919
40
0.781249999999931
40
0.781249999999931
40
0.812499999999943
40
0.812499999999943
40
0.874999999999962
40
0.874999999999962
40
0.937499999999981
40
0.937499999999981
40
1
40
1
40
1
40
1
41
1
10
15.7912362047555
20
0.0981892086672644
30
0
41
1
10
15.7503413192594
20
0.103899897669862
30
0
41
1
10
15.7095010580394
20
0.107078803398224
30
0
41
1
10
15.6279337730163
20
0.107629339488739
30
0
41
1
10
15.587206065596
20
0.105030260803829
30
0
41
1
10
15.5363818003712
20
0.0972130818792323
30
0
41
1
10
15.5262213016014
20
0.095417725794988
30
0
41
1
10
15.5059098516586
20
0.0913201016550431
30
0
41
1
10
15.4957638170974
20
0.0890170333088918
30
0
41
1
10
15.4656710591222
20
0.0813601552702607
30
0
41
1
10
15.4459621247267
20
0.0752458667399765
30
0
41
1
10
15.4170206194136
20
0.0642922375347155
30
0
41
1
10
15.4074776094828
20
0.0603425131418476
30
0
41
1
10
15.3886242632312
20
0.0517754388571063
30
0
41
1
10
15.3792825357772
20
0.0471398452414746
30
0
41
1
10
15.3519905084446
20
0.0322758527753422
30
0
41
1
10
15.3347129036747
20
0.0210916721668752
30
0
41
1
10
15.3105005734097
20
0.0019337260535792
30
0
41
1
10
15.3027152212453
20
-0.0048512325082584
30
0
41
1
10
15.2877969580598
20
-0.0193358807990478
30
0
41
1
10
15.280713844711
20
-0.0269976057264216
30
0
41
1
10
15.2676050421502
20
-0.04295261057635
30
0
41
1
10
15.2615413962112
20
-0.0512814460373647
30
0
41
1
10
15.2504648110071
20
-0.0686937355933992
30
0
41
1
10
15.2454352786341
20
-0.0778127199661185
30
0
41
1
10
15.2321719459435
20
-0.10617680292404
30
0
41
1
10
15.2260097574837
20
-0.125836314898209
30
0
41
1
10
15.2205486754376
20
-0.156387359550877
30
0
41
1
10
15.2193604851034
20
-0.166818119877035
30
0
41
1
10
15.2182417449807
20
-0.187583469789729
30
0
41
1
10
15.218354116297
20
-0.208280105278845
30
0
41
1
10
15.2206514906009
20
-0.228851702748727
30
0
41
1
10
15.2239331743769
20
-0.24936562920152
30
0
41
1
10
15.2260614632398
20
-0.259543090258745
30
0
41
1
10
15.2336127331463
20
-0.289480082646861
30
0
41
1
10
15.2402159303229
20
-0.308820316544598
30
0
41
1
10
15.2557554988139
20
-0.346563857422041
30
0
41
1
10
15.2647300151753
20
-0.365019634906957
30
0
41
1
10
15.2843697572015
20
-0.400899628374731
30
0
41
1
10
15.2950061268662
20
-0.418284922915575
30
0
41
1
10
15.3062749632457
20
-0.435231911907664
30
0
0
SPLINE
5
F2
100
AcDbEntity
8
1
62
256
6
ByLayer
370
18
48
1
60
0
100
AcDbSpline
70
4
71
1
72
4
73
2
40
0
40
0
40
1
40
1
41
1
10
17
20
-0.914734455885792
30
0
41
1
10
15.3062749632456
20
-0.435231911907721
30
0
0
SPLINE
5
F3
100
AcDbEntity
8
1
62
256
6
ByLayer
370
13
48
1
60
0
100
AcDbSpline
70
4
71
5
72
12
73
6
40
0
40
0
40
0
40
0
40
0
40
0
40
1
40
1
40
1
40
1
40
1
40
1
41
0.962789105592302
10
17.0000000000033
20
-0.760354455887405
30
0
41
0.968779041505307
10
17.0000000000033
20
-0.78772202995994
30
0
41
0.97548311447665
10
17.0000000000033
20
-0.816965317690226
30
0
41
0.982912069647618
10
17.0000000000033
20
-0.847965980067831
30
0
41
0.991079130728783
10
17.0000000000033
20
-0.880599245660816
30
0
41
1
10
17.0000000000033
20
-0.91473445588673
30
0
0
SPLINE
5
F4
100
AcDbEntity
8
1
62
256
6
ByLayer
370
18
48
1
60
0
100
AcDbSpline
70
4
71
3
72
16
73
12
40
0
40
0
40
0
40
0
40
0.25
40
0.5
40
0.5
40
0.75
40
0.75
40
0.812500000000002
40
0.812500000000002
40
0.875000000000004
40
1
40
1
40
1
40
1
41
1
10
20.8064035985248
20
-1.50334027455588
30
0
41
1
10
20.7805757739076
20
-1.52434752576812
30
0
41
1
10
20.7305683168819
20
-1.56038484409737
30
0
41
1
10
20.6838823961745
20
-1.58437652803056
30
0
41
1
10
20.6389251561947
20
-1.6020991172235
30
0
41
1
10
20.6173103562987
20
-1.60782775121874
30
0
41
1
10
20.5914549241572
20
-1.61077065566272
30
0
41
1
10
20.5863446610622
20
-1.61114653456011
30
0
41
1
10
20.5763087926499
20
-1.61146691506471
30
0
41
1
10
20.5615066667616
20
-1.61130362078046
30
0
41
1
10
20.5474564127156
20
-1.6092168113816
30
0
41
1
10
20.538423416049
20
-1.60697154325658
30
0
0
SPLINE
5
F5
100
AcDbEntity
8
1
62
256
6
ByLayer
370
18
48
1
60
0
100
AcDbSpline
70
4
71
3
72
45
73
41
40
0
40
0
40
0
40
0
40
0.0625000000000094
40
0.0625000000000094
40
0.125000000000019
40
0.125000000000019
40
0.187500000000028
40
0.187500000000028
40
0.250000000000038
40
0.250000000000038
40
0.312500000000047
40
0.312500000000047
40
0.375000000000056
40
0.375000000000056
40
0.390625000000059
40
0.390625000000059
40
0.406250000000061
40
0.437500000000063
40
0.437500000000063
40
0.500000000000065
40
0.500000000000065
40
0.562500000000068
40
0.562500000000068
40
0.625000000000071
40
0.625000000000071
40
0.64062500000007
40
0.64062500000007
40
0.65625000000007
40
0.687500000000064
40
0.750000000000051
40
0.750000000000051
40
0.812500000000037
40
0.812500000000037
40
0.875000000000024
40
0.875000000000024
40
0.906250000000017
40
0.906250000000017
40
0.93750000000001
40
0.93750000000001
40
1
40
1
40
1
40
1
41
1
10
20.5384234160488
20
-1.60697154325666
30
0
41
1
10
20.4646332554622
20
-1.61488097740278
30
0
41
1
10
20.3906831928059
20
-1.61887666859721
30
0
41
1
10
20.242307862359
20
-1.61900451498954
30
0
41
1
10
20.1678732750028
20
-1.61513447205442
30
0
41
1
10
20.0183079223505
20
-1.59915837676965
30
0
41
1
10
19.9441848498416
20
-1.58715619394991
30
0
41
1
10
19.7968843003799
20
-1.55516882068156
30
0
41
1
10
19.7237077505111
20
-1.53518025686472
30
0
41
1
10
19.5778131218871
20
-1.48713218001464
30
0
41
1
10
19.5051084382833
20
-1.45903078910098
30
0
41
1
10
19.3591419151144
20
-1.3954178704999
30
0
41
1
10
19.2858771557719
20
-1.35991511911729
30
0
41
1
10
19.1933972935638
20
-1.31131599005346
30
0
41
1
10
19.174841986956
20
-1.30137623853082
30
0
41
1
10
19.1377871492807
20
-1.28116813436787
30
0
41
1
10
19.0822404113592
20
-1.25033762664148
30
0
41
1
10
19.0267464863387
20
-1.21801719567884
30
0
41
1
10
18.9157244749474
20
-1.15151355491372
30
0
41
1
10
18.8417389258676
20
-1.10460246155219
30
0
41
1
10
18.693835868162
20
-1.00568632676288
30
0
41
1
10
18.6199065003777
20
-0.953699637966139
30
0
41
1
10
18.4719051616362
20
-0.844731103443337
30
0
41
1
10
18.397835192771
20
-0.787746130784029
30
0
41
1
10
18.3049392290655
20
-0.713403029740334
30
0
41
1
10
18.2863225627222
20
-0.698361199429201
30
0
41
1
10
18.2491629168124
20
-0.668059584403153
30
0
41
1
10
18.1935691781123
20
-0.622310326913293
30
0
41
1
10
18.0647926317123
20
-0.513564601805768
30
0
41
1
10
17.9557428193108
20
-0.417217506136041
30
0
41
1
10
17.8109337183027
20
-0.286556892329969
30
0
41
1
10
17.7387793016931
20
-0.22018261898458
30
0
41
1
10
17.5938068708188
20
-0.0867112572949509
30
0
41
1
10
17.520989483875
20
-0.019614363716272
30
0
41
1
10
17.4106156969677
20
0.0807987694961128
30
0
41
1
10
17.3735829874349
20
0.114280547384027
30
0
41
1
10
17.2993286850952
20
0.180834160214687
30
0
41
1
10
17.2621406372192
20
0.213876631901655
30
0
41
1
10
17.1503071492952
20
0.312215225238333
30
0
41
1
10
17.0753800167399
20
0.376712340000097
30
0
41
1
10
17
20
0.440051935940062
30
0
0
SPLINE
5
F6
100
AcDbEntity
8
1
62
256
6
ByLayer
370
18
48
1
60
0
100
AcDbSpline
70
4
71
3
72
35
73
31
40
0
40
0
40
0
40
0
40
0.0072390989007678
40
0.0072390989007678
40
0.0486041364465695
40
0.0486041364465695
40
0.0899691739923713
40
0.0899691739923713
40
0.17269924908398
40
0.17269924908398
40
0.338159399267204
40
0.338159399267204
40
0.379524436813007
40
0.379524436813007
40
0.42088947435881
40
0.503619549450411
40
0.503619549450411
40
0.586349624542012
40
0.586349624542012
40
0.669079699633613
40
0.669079699633613
40
0.710444737179413
40
0.710444737179413
40
0.751809774725214
40
0.751809774725214
40
0.834539849816809
40
0.834539849816809
40
0.917269924908405
40
0.917269924908405
40
1
40
1
40
1
40
1
41
1
10
15.7002825726117
20
1.45423078558502
30
0
41
1
10
15.7032589414167
20
1.45379217632384
30
0
41
1
10
15.7062370939984
20
1.45333506247241
30
0
41
1
10
15.726245147639
20
1.45014157899013
30
0
41
1
10
15.7433406461579
20
1.44681063602326
30
0
41
1
10
15.7773761617111
20
1.43899383404783
30
0
41
1
10
15.7943542605765
20
1.43450292471056
30
0
41
1
10
15.8452115922333
20
1.41931407310267
30
0
41
1
10
15.8790181418682
20
1.40689853437428
30
0
41
1
10
15.9804192871052
20
1.36300195283309
30
0
41
1
10
16.047963064966
20
1.32491060142661
30
0
41
1
10
16.1333746766867
20
1.26648581627313
30
0
41
1
10
16.1505426052374
20
1.25423162028227
30
0
41
1
10
16.1848341978734
20
1.22876994502229
30
0
41
1
10
16.2361492569081
20
1.18919706965244
30
0
41
1
10
16.2872621449465
20
1.14562661391264
30
0
41
1
10
16.3555835370323
20
1.08420753403351
30
0
41
1
10
16.3898278928508
20
1.05183411956122
30
0
41
1
10
16.4589321176849
20
0.983986834638699
30
0
41
1
10
16.4937872474103
20
0.948510294231369
30
0
41
1
10
16.5470146627033
20
0.89318128099012
30
0
41
1
10
16.5649160099299
20
0.874386457398487
30
0
41
1
10
16.6011392651114
20
0.836138559458249
30
0
41
1
10
16.6194626831894
20
0.816683465481816
30
0
41
1
10
16.6747433278357
20
0.757950009901691
30
0
41
1
10
16.7121582854302
20
0.718129544151452
30
0
41
1
10
16.7890961522609
20
0.637980791796622
30
0
41
1
10
16.8286094317657
20
0.597644541221484
30
0
41
1
10
16.9111584979746
20
0.517624554503413
30
0
41
1
10
16.9541871527438
20
0.477931431471177
30
0
41
1
10
16.9999999999996
20
0.439440996436787
30
0
0
SPLINE
5
F7
100
AcDbEntity
8
1
62
256
6
ByLayer
370
18
48
1
60
0
100
AcDbSpline
70
4
71
3
72
8
73
4
40
0
40
0
40
0
40
0
40
1
40
1
40
1
40
1
41
1
10
20.8064035981559
20
-0.0240607644696809
30
0
41
1
10
20.4305433904244
20
0.341051463630947
30
0
41
1
10
20.0546831826929
20
0.706135302450377
30
0
41
1
10
19.6788229749613
20
1.00504958249533
30
0
0
SPLINE
5
F8
100
AcDbEntity
8
1
62
256
6
ByLayer
370
18
48
1
60
0
100
AcDbSpline
70
4
71
3
72
11
73
7
40
0
40
0
40
0
40
0
40
0.0368065983794324
40
0.277604948784574
40
0.518403299189716
40
1
40
1
40
1
40
1
41
1
10
12.8550860038837
20
-1.66510316669132
30
0
41
1
10
12.8200573359224
20
-1.67553687299511
30
0
41
1
10
12.5558620012946
20
-1.74708536872737
30
0
41
1
10
12.0625
20
-1.77736089118434
30
0
41
1
10
11.1458333333333
20
-1.4903015997759
30
0
41
1
10
10.4583333333333
20
-0.941483402641892
30
0
41
1
10
10
20
-0.509000234804205
30
0
0
SPLINE
5
F9
100
AcDbEntity
8
1
62
256
6
ByLayer
370
18
48
1
60
0
100
AcDbSpline
70
4
71
3
72
14
73
10
40
0
40
0
40
0
40
0
40
0.500000000000001
40
0.500000000000001
40
0.625000000000001
40
0.625000000000001
40
0.75
40
0.75
40
1
40
1
40
1
40
1
41
1
10
20.5384234160449
20
0.634583563955772
30
0
41
1
10
20.5218984080393
20
0.696212198835184
30
0
41
1
10
20.5106388687276
20
0.748724974311443
30
0
41
1
10
20.5028172358522
20
0.803540778916528
30
0
41
1
10
20.5015676303568
20
0.813959077968264
30
0
41
1
10
20.499697426977
20
0.83370670464754
30
0
41
1
10
20.4990762973847
20
0.843054625612893
30
0
41
1
10
20.498163647298
20
0.869332477759912
30
0
41
1
10
20.498820221395
20
0.884340488008831
30
0
41
1
10
20.5006279711222
20
0.897063853273266
30
0
0
SPLINE
5
FA
100
AcDbEntity
8
1
62
256
6
ByLayer
370
18
48
1
60
0
100
AcDbSpline
70
4
71
3
72
16
73
12
40
0
40
0
40
0
40
0
40
0.250000000000005
40
0.500000000000009
40
0.500000000000009
40
0.750000000000014
40
0.750000000000014
40
0.812500000000011
40
0.812500000000011
40
0.875000000000007
40
1
40
1
40
1
40
1
41
1
10
20.8064035985184
20
-0.0240607585348869
30
0
41
1
10
20.7805757739015
20
0.0338862289131896
30
0
41
1
10
20.7305683168762
20
0.148410439442614
30
0
41
1
10
20.6838823961691
20
0.260174201111454
30
0
41
1
10
20.6389251561898
20
0.370501300805671
30
0
41
1
10
20.6173103562941
20
0.424946952048117
30
0
41
1
10
20.5914549241528
20
0.492037420503237
30
0
41
1
10
20.5863446610578
20
0.505401011370878
30
0
41
1
10
20.5763087926456
20
0.53185508241171
30
0
41
1
10
20.5615066667574
20
0.571192037215724
30
0
41
1
10
20.5474564127116
20
0.609500855588237
30
0
41
1
10
20.5384234160451
20
0.634583563956255
30
0
0
SPLINE
5
FB
100
AcDbEntity
8
1
62
256
6
ByLayer
370
18
48
1
60
0
100
AcDbSpline
70
4
71
3
72
14
73
10
40
0
40
0
40
0
40
0
40
0.25
40
0.25
40
0.5
40
0.5
40
0.75
40
0.75
40
1
40
1
40
1
40
1
41
1
10
20.8447522013713
20
-0.120111845440732
30
0
41
1
10
20.8429629615257
20
-0.113915871774452
30
0
41
1
10
20.8403989590815
20
-0.106499311199087
30
0
41
1
10
20.8347018024321
20
-0.09114023296911
30
0
41
1
10
20.8315254276536
20
-0.0830731307138137
30
0
41
1
10
20.8247753348111
20
-0.0665007172729304
30
0
41
1
10
20.8212474738169
20
-0.0581114842923114
30
0
41
1
10
20.813977431788
20
-0.0411885256247615
30
0
41
1
10
20.8102338193707
20
-0.03265383533369
30
0
41
1
10
20.8064036044316
20
-0.024060757950906
30
0
0
SPLINE
5
FC
100
AcDbEntity
8
1
62
256
6
ByLayer
370
18
48
1
60
0
100
AcDbSpline
70
4
71
3
72
8
73
4
40
0
40
0
40
0
40
0
40
1
40
1
40
1
40
1
41
1
10
20.6814459801655
20
1.82769540443348
30
0
41
1
10
20.6908477978304
20
1.8205588020611
30
0
41
1
10
20.6998939881175
20
1.81291196628339
30
0
41
1
10
20.7085587264613
20
1.80477453985023
30
0
0
SPLINE
5
FD
100
AcDbEntity
8
1
62
256
6
ByLayer
370
13
48
1
60
0
100
AcDbSpline
70
4
71
5
72
12
73
6
40
0
40
0
40
0
40
0
40
0
40
0
40
1
40
1
40
1
40
1
40
1
40
1
41
1
10
10.0000000000374
20
1.83839675179249
30
0
41
0.945003839226966
10
10.0000000000374
20
1.71486542138746
30
0
41
0.919396119902808
10
10.0000000000373
20
1.58023320282632
30
0
41
0.919396119902808
10
10.0000000000373
20
1.45473107819126
30
0
41
0.945003839226966
10
10.0000000000374
20
1.35695549547237
30
0
41
1
10
10.0000000000374
20
1.3011271456468
30
0
0
SPLINE
5
FE
100
AcDbEntity
8
1
62
256
6
ByLayer
370
18
48
1
60
0
100
AcDbSpline
70
4
71
3
72
11
73
7
40
0
40
0
40
0
40
0
40
0.154332540110393
40
0.365749405082795
40
0.577166270055197
40
1
40
1
40
1
40
1
41
1
10
13.2518692399007
20
-0.806033034824793
30
0
41
1
10
13.0845794932671
20
-0.699997184876139
30
0
41
1
10
12.6881230799669
20
-0.424464189101087
30
0
41
1
10
12.0625
20
0.0688366790774921
30
0
41
1
10
11.1458333333333
20
0.770971900701255
30
0
41
1
10
10.4583333333333
20
1.17370119328203
30
0
41
1
10
10
20
1.30112714565721
30
0
0
SPLINE
5
FF
100
AcDbEntity
8
1
62
256
6
ByLayer
370
18
48
1
60
0
100
AcDbSpline
70
4
71
3
72
26
73
22
40
0
40
0
40
0
40
0
40
0.0198210878121443
40
0.0198210878121443
40
0.128729855833013
40
0.128729855833013
40
0.34654739187476
40
0.34654739187476
40
0.564364927916506
40
0.564364927916506
40
0.673273695937379
40
0.673273695937379
40
0.782182463958253
40
0.782182463958253
40
0.83663684796869
40
0.83663684796869
40
0.891091231979126
40
0.891091231979126
40
0.945545615989563
40
0.945545615989563
40
1
40
1
40
1
40
1
41
1
10
19.6458527743355
20
1.28466290471545
30
0
41
1
10
19.6529133276308
20
1.28938355622128
30
0
41
1
10
19.6599760832101
20
1.29407646991461
30
0
41
1
10
19.7058611483406
20
1.32437929902926
30
0
41
1
10
19.744781244514
20
1.34922271618262
30
0
41
1
10
19.8613859461887
20
1.42135433754771
30
0
41
1
10
19.9390300086496
20
1.46633931404108
30
0
41
1
10
20.0942004880578
20
1.55110433966979
30
0
41
1
10
20.1717763383352
20
1.59091329404924
30
0
41
1
10
20.2876536417944
20
1.64680445170438
30
0
41
1
10
20.3262045987771
20
1.6647988178128
30
0
41
1
10
20.4030681368402
20
1.69937733483192
30
0
41
1
10
20.441376246618
20
1.71597731143703
30
0
41
1
10
20.4986872757704
20
1.73948812176854
30
0
41
1
10
20.517769486438
20
1.74709160249881
30
0
41
1
10
20.5558793718506
20
1.76164188920134
30
0
41
1
10
20.5749093552646
20
1.76859510428395
30
0
41
1
10
20.6129882175645
20
1.7814807910674
30
0
41
1
10
20.6320498413448
20
1.7874156261486
30
0
41
1
10
20.6702577298196
20
1.79756093118806
30
0
41
1
10
20.6894215391193
20
1.80173557870961
30
0
41
1
10
20.7085587264711
20
1.80477453986106
30
0
0
SPLINE
5
100
100
AcDbEntity
8
1
62
256
6
ByLayer
370
18
48
1
60
0
100
AcDbSpline
70
4
71
3
72
22
73
18
40
0
40
0
40
0
40
0
40
0.18408574449165
40
0.18408574449165
40
0.3681714889833
40
0.3681714889833
40
0.55225723347495
40
0.55225723347495
40
0.7363429779666
40
0.7363429779666
40
0.828385850212415
40
0.828385850212415
40
0.920428722458229
40
0.920428722458229
40
0.966450158581137
40
0.966450158581137
40
1
40
1
40
1
40
1
41
1
10
9.37550020016013
20
1.87028528135323
30
0
41
1
10
9.33719952762175
20
1.8638248734334
30
0
41
1
10
9.29839561064387
20
1.85643232644071
30
0
41
1
10
9.21933796121905
20
1.84013847821808
30
0
41
1
10
9.17908729791722
20
1.8312352996121
30
0
41
1
10
9.09657535390679
20
1.81239820661605
30
0
41
1
10
9.05420502685675
20
1.80243649292532
30
0
41
1
10
8.96751528180837
20
1.78234767171793
30
0
41
1
10
8.92316333986511
20
1.77220424540064
30
0
41
1
10
8.85449321037376
20
1.757627751526
30
0
41
1
10
8.83124339878293
20
1.75287810726005
30
0
41
1
10
8.78385052559432
20
1.74378940602048
30
0
41
1
10
8.75971007789386
20
1.73944833525894
30
0
41
1
10
8.72262406916124
20
1.73345116573546
30
0
41
1
10
8.71009017580886
20
1.7315357292197
30
0
41
1
10
8.68827781382359
20
1.72843221001955
30
0
41
1
10
8.67903306770279
20
1.72718670073564
30
0
41
1
10
8.66973577630438
20
1.72601328655668
30
0
0
SPLINE
5
101
100
AcDbEntity
8
1
62
256
6
ByLayer
370
18
48
1
60
0
100
AcDbSpline
70
4
71
3
72
41
73
37
40
0
40
0
40
0
40
0
40
0.125000000000008
40
0.125000000000008
40
0.250000000000016
40
0.250000000000016
40
0.375000000000024
40
0.375000000000024
40
0.500000000000032
40
0.500000000000032
40
0.562500000000029
40
0.562500000000029
40
0.625000000000026
40
0.625000000000026
40
0.656250000000024
40
0.656250000000024
40
0.687500000000023
40
0.718750000000021
40
0.718750000000021
40
0.750000000000019
40
0.750000000000019
40
0.812500000000016
40
0.812500000000016
40
0.843750000000015
40
0.843750000000015
40
0.875000000000013
40
0.875000000000013
40
0.906250000000012
40
0.906250000000012
40
0.93750000000001
40
0.93750000000001
40
0.968750000000008
40
0.968750000000008
40
0.984375000000004
40
0.984375000000004
40
1
40
1
40
1
40
1
41
1
10
9.37550020016016
20
-0.645272454619658
30
0
41
1
10
9.33719952762161
20
-0.610779620631263
30
0
41
1
10
9.29839561064378
20
-0.576546819056858
30
0
41
1
10
9.21933796121866
20
-0.509161889027524
30
0
41
1
10
9.17908729791665
20
-0.47600604400796
30
0
41
1
10
9.09657535390588
20
-0.411492158387375
30
0
41
1
10
9.05420502685573
20
-0.380061355423805
30
0
41
1
10
8.96751528180695
20
-0.32054692518048
30
0
41
1
10
8.92316333986355
20
-0.292404605323213
30
0
41
1
10
8.85449321037194
20
-0.253765533852658
30
0
41
1
10
8.83124339878103
20
-0.241486453801002
30
0
41
1
10
8.78385052559224
20
-0.218442387380776
30
0
41
1
10
8.7597100778917
20
-0.20767283717845
30
0
41
1
10
8.72262406915897
20
-0.19302061861012
30
0
41
1
10
8.71009017580653
20
-0.188381616294748
30
0
41
1
10
8.68485905586454
20
-0.17974584390538
30
0
41
1
10
8.65944765554943
20
-0.171742415927241
30
0
41
1
10
8.63362759805312
20
-0.165175524206575
30
0
41
1
10
8.60757032843409
20
-0.159443948017042
30
0
41
1
10
8.59440265058976
20
-0.156995242611941
30
0
41
1
10
8.55496049446245
20
-0.151211407811587
30
0
41
1
10
8.52861278554482
20
-0.149343464868053
30
0
41
1
10
8.48897280304496
20
-0.150991369156742
30
0
41
1
10
8.47573951285315
20
-0.152290770280928
30
0
41
1
10
8.44921835285291
20
-0.156939350675998
30
0
41
1
10
8.43618179789215
20
-0.160258243949414
30
0
41
1
10
8.41100073660971
20
-0.169366662814639
30
0
41
1
10
8.39869962340399
20
-0.175256355693932
30
0
41
1
10
8.37630198690169
20
-0.189649268877872
30
0
41
1
10
8.36604938917213
20
-0.198202214706612
30
0
41
1
10
8.3480840697886
20
-0.218342013993976
30
0
41
1
10
8.34080301910655
20
-0.229434834489098
30
0
41
1
10
8.33228148047002
20
-0.247506443955643
30
0
41
1
10
8.3298357547344
20
-0.253805120469821
30
0
41
1
10
8.32582152004497
20
-0.266574664826663
30
0
41
1
10
8.32423611329605
20
-0.27307007070084
30
0
41
1
10
8.32303188507214
20
-0.279664563184241
30
0
0
SPLINE
5
102
100
AcDbEntity
8
1
62
256
6
ByLayer
370
18
48
1
60
0
100
AcDbSpline
70
4
71
3
72
45
73
41
40
0
40
0
40
0
40
0
40
0.0676292576118327
40
0.0676292576118327
40
0.135258515223665
40
0.135258515223665
40
0.169073144029582
40
0.169073144029582
40
0.202887772835498
40
0.202887772835498
40
0.270517030447331
40
0.270517030447331
40
0.338146288059165
40
0.338146288059165
40
0.405775545670998
40
0.405775545670998
40
0.473404803282831
40
0.473404803282831
40
0.507219432088749
40
0.507219432088749
40
0.524126746491707
40
0.524126746491707
40
0.541034060894666
40
0.608663318506502
40
0.608663318506502
40
0.676292576118339
40
0.676292576118339
40
0.710107204924257
40
0.710107204924257
40
0.743921833730176
40
0.743921833730176
40
0.81155109134201
40
0.81155109134201
40
0.879180348953844
40
0.879180348953844
40
0.912994977759763
40
0.912994977759763
40
0.946809606565681
40
0.946809606565681
40
1
40
1
40
1
40
1
41
1
10
8.3230318850722
20
-0.279664563184298
30
0
41
1
10
8.31513423537686
20
-0.35478323142695
30
0
41
1
10
8.31020394852558
20
-0.428602777633358
30
0
41
1
10
8.30572681780586
20
-0.573712383742077
30
0
41
1
10
8.30617745405468
20
-0.645002259920915
30
0
41
1
10
8.31056950429118
20
-0.750008949552353
30
0
41
1
10
8.31265464670588
20
-0.784696043563997
30
0
41
1
10
8.31802755415271
20
-0.853381721033713
30
0
41
1
10
8.32128544401002
20
-0.887007325459535
30
0
41
1
10
8.33262731648475
20
-0.985813947363994
30
0
41
1
10
8.34225405937045
20
-1.04893456697906
30
0
41
1
10
8.36524871119425
20
-1.1698781435025
30
0
41
1
10
8.37864231485617
20
-1.22773694878904
30
0
41
1
10
8.40895043948501
20
-1.33796583957442
30
0
41
1
10
8.42558519082658
20
-1.38934810540258
30
0
41
1
10
8.46136950282158
20
-1.48513497717329
30
0
41
1
10
8.48052003495073
20
-1.52953753043499
30
0
41
1
10
8.5108986811338
20
-1.59102084989178
30
0
41
1
10
8.52129824479607
20
-1.61065987993811
30
0
41
1
10
8.53730404170122
20
-1.63882623357657
30
0
41
1
10
8.54271227031933
20
-1.64800539047533
30
0
41
1
10
8.55360603930882
20
-1.6658281638266
30
0
41
1
10
8.58106971549418
20
-1.70910884396898
30
0
41
1
10
8.60968799973452
20
-1.74614062313444
30
0
41
1
10
8.65703075902439
20
-1.7977036061863
30
0
41
1
10
8.68147801219445
20
-1.81964023582572
30
0
41
1
10
8.7194031924864
20
-1.84679700922331
30
0
41
1
10
8.73226153311063
20
-1.85489298509569
30
0
41
1
10
8.75838955264339
20
-1.86912604471664
30
0
41
1
10
8.77156106513539
20
-1.87521094798885
30
0
41
1
10
8.81141416422221
20
-1.89046425068923
30
0
41
1
10
8.83842403526634
20
-1.89663964332462
30
0
41
1
10
8.89352218612399
20
-1.90127464879833
30
0
41
1
10
8.92161746800252
20
-1.89973299063735
30
0
41
1
10
8.96478675794197
20
-1.89165163177316
30
0
41
1
10
8.979347830629
20
-1.88799456241455
30
0
41
1
10
9.00885212453088
20
-1.87873527110133
30
0
41
1
10
9.02373192842683
20
-1.87315034697448
30
0
41
1
10
9.06221987174754
20
-1.85643818461443
30
0
41
1
10
9.08599278672494
20
-1.84395743843487
30
0
41
1
10
9.110078639336
20
-1.82926963777373
30
0
0
SPLINE
5
103
100
AcDbEntity
8
1
62
256
6
ByLayer
370
13
48
1
60
0
100
AcDbSpline
70
4
71
5
72
12
73
6
40
0
40
0
40
0
40
0
40
0
40
0
40
1
40
1
40
1
40
1
40
1
40
1
41
0.976310290261927
10
10
20
-1.29966935811308
30
0
41
0.969215475019427
10
9.99999999999998
20
-1.36359508564636
30
0
41
0.964153150497133
10
9.99999999999998
20
-1.41215703774146
30
0
41
0.961086977004552
10
9.99999999999994
20
-1.44476658100014
30
0
41
0.960001105613762
10
9.99999999999994
20
-1.46103019207746
30
0
41
0.960900178159415
10
9.99999999999993
20
-1.46075463062212
30
0
0
SPLINE
5
104
100
AcDbEntity
8
1
62
256
6
ByLayer
370
18
48
1
60
0
100
AcDbSpline
70
4
71
1
72
4
73
2
40
0
40
0
40
1
40
1
41
1
10
9.6743012063709
20
-0.940195254641935
30
0
41
1
10
8.32303188507208
20
-0.279664563184184
30
0
0
SPLINE
5
105
100
AcDbEntity
8
1
62
256
6
ByLayer
370
18
48
1
60
0
100
AcDbSpline
70
4
71
3
72
39
73
35
40
0
40
0
40
0
40
0
40
0.0253802295437542
40
0.0253802295437542
40
0.106598543748436
40
0.106598543748436
40
0.187816857953118
40
0.187816857953118
40
0.2690351721578
40
0.2690351721578
40
0.309644329260142
40
0.309644329260142
40
0.329948907811313
40
0.329948907811313
40
0.350253486362484
40
0.431471800567173
40
0.431471800567173
40
0.512690114771862
40
0.512690114771862
40
0.553299271874207
40
0.553299271874207
40
0.593908428976553
40
0.593908428976553
40
0.675126743181244
40
0.675126743181244
40
0.756345057385935
40
0.756345057385935
40
0.796954214488279
40
0.796954214488279
40
0.837563371590624
40
0.837563371590624
40
0.918781685795312
40
0.918781685795312
40
1
40
1
40
1
40
1
41
1
10
8.34352680081992
20
1.89621599535519
30
0
41
1
10
8.3467483633697
20
1.89474378982439
30
0
41
1
10
8.35015854081851
20
1.89284452622192
30
0
41
1
10
8.36524871119693
20
1.88309170204923
30
0
41
1
10
8.37864231485867
20
1.87131962440341
30
0
41
1
10
8.40895043948731
20
1.83905662059578
30
0
41
1
10
8.4255851908288
20
1.8188650028429
30
0
41
1
10
8.46136950282354
20
1.77081939622016
30
0
41
1
10
8.48052003495258
20
1.74296321868548
30
0
41
1
10
8.5108986811355
20
1.69550155645498
30
0
41
1
10
8.52129824479769
20
1.67873177953038
30
0
41
1
10
8.53730404170275
20
1.65214137954919
30
0
41
1
10
8.54271227032083
20
1.64303099066291
30
0
41
1
10
8.55360603931027
20
1.62443860486607
30
0
41
1
10
8.58106971549549
20
1.57696799178819
30
0
41
1
10
8.60968799973568
20
1.52466169214836
30
0
41
1
10
8.65703075902542
20
1.43506346120634
30
0
41
1
10
8.68147801219538
20
1.38730922586672
30
0
41
1
10
8.71940319248725
20
1.31128902049949
30
0
41
1
10
8.7322615331114
20
1.28520120422718
30
0
41
1
10
8.7583895526441
20
1.23160728685127
30
0
41
1
10
8.77156106513607
20
1.20430298454309
30
0
41
1
10
8.81141416422281
20
1.1209228608783
30
0
41
1
10
8.83842403526691
20
1.06338072990505
30
0
41
1
10
8.89352218612447
20
0.944596011947198
30
0
41
1
10
8.92161746800295
20
0.883355155634405
30
0
41
1
10
8.96478675794233
20
0.788802611292766
30
0
41
1
10
8.97934783062934
20
0.756835686407726
30
0
41
1
10
9.00885212453113
20
0.69200676720655
30
0
41
1
10
9.02373192842708
20
0.659284236155941
30
0
41
1
10
9.06860711436624
20
0.560658867541378
30
0
41
1
10
9.0989173322715
20
0.494120908055152
30
0
41
1
10
9.16061061892756
20
0.359644084054054
30
0
41
1
10
9.19199158938875
20
0.291704060699715
30
0
41
1
10
9.22409488198704
20
0.223143554387946
30
0
0
SPLINE
5
106
100
AcDbEntity
8
1
62
256
6
ByLayer
370
13
48
1
60
0
100
AcDbSpline
70
4
71
5
72
12
73
6
40
0
40
0
40
0
40
0
40
0
40
0
40
1
40
1
40
1
40
1
40
1
40
1
41
1
10
10
20
1.30112714565721
30
0
41
0.968200483494106
10
10
20
1.10561335290546
30
0
41
0.952932731022414
10
10
20
0.796989309090634
30
0
41
0.952932731022414
10
10
20
0.40135649971956
30
0
41
0.968200483494106
10
10
20
-0.0470904539514291
30
0
41
1
10
10
20
-0.509000234804205
30
0
0
SPLINE
5
107
100
AcDbEntity
8
1
62
256
6
ByLayer
370
18
48
1
60
0
100
AcDbSpline
70
4
71
1
72
4
73
2
40
0
40
0
40
1
40
1
41
1
10
10
20
1.30112714565721
30
0
41
1
10
9.1689050617376
20
1.5321883762513
30
0
0
SPLINE
5
108
100
AcDbEntity
8
1
62
256
6
ByLayer
370
18
48
1
60
0
100
AcDbSpline
70
4
71
3
72
14
73
10
40
0
40
0
40
0
40
0
40
0.125000000000024
40
0.125000000000024
40
0.250000000000047
40
0.250000000000047
40
0.500000000000048
40
0.500000000000048
40
1
40
1
40
1
40
1
41
1
10
9.22409488198704
20
0.223143554387946
30
0
41
1
10
9.22855932521512
20
0.213545596017667
30
0
41
1
10
9.23366409688708
20
0.204310906304102
30
0
41
1
10
9.24447326466174
20
0.186175938166599
30
0
41
1
10
9.25019948809691
20
0.177287874916942
30
0
41
1
10
9.26798648128795
20
0.150960367165681
30
0
41
1
10
9.28058226080478
20
0.133942749581564
30
0
41
1
10
9.31957644068328
20
0.0837471968740147
30
0
41
1
10
9.34716666964201
20
0.0514584588369473
30
0
41
1
10
9.37550020016019
20
0.0198469672642716
30
0
0
SPLINE
5
109
100
AcDbEntity
8
1
62
256
6
ByLayer
370
18
48
1
60
0
100
AcDbSpline
70
4
71
5
72
12
73
6
40
0
40
0
40
0
40
0
40
0
40
0
40
1
40
1
40
1
40
1
40
1
40
1
41
1
10
10
20
-0.509000234804205
30
0
41
0.981993737261857
10
10
20
-0.526187407773167
30
0
41
0.973193246828907
10
10
20
-0.543092034464016
30
0
41
0.973193246828907
10
10
20
-0.558875431048564
30
0
41
0.981993737261857
10
10
20
-0.572761185471792
30
0
41
1
10
10
20
-0.584073075226456
30
0
0
SPLINE
5
10A
100
AcDbEntity
8
1
62
256
6
ByLayer
370
18
48
1
60
0
100
AcDbSpline
70
4
71
1
72
4
73
2
40
0
40
0
40
1
40
1
41
1
10
10
20
-0.509000234804205
30
0
41
1
10
9.22409488198704
20
0.223143554387946
30
0
0
SPLINE
5
10B
100
AcDbEntity
8
1
62
256
6
ByLayer
370
18
48
1
60
0
100
AcDbSpline
70
4
71
3
72
8
73
4
40
0
40
0
40
0
40
0
40
1
40
1
40
1
40
1
41
1
10
20.8447522014059
20
-1.49209035643818
30
0
41
1
10
20.8432398521984
20
-1.49457223316858
30
0
41
1
10
20.8416923868802
20
-1.49719178813663
30
0
41
1
10
20.8401124347443
20
-1.49993036964949
30
0
0
SPLINE
5
10C
100
AcDbEntity
8
1
62
256
6
ByLayer
370
18
48
1
60
0
100
AcDbSpline
70
4
71
3
72
14
73
10
40
0
40
0
40
0
40
0
40
0.25
40
0.25
40
0.5
40
0.5
40
0.75
40
0.75
40
1
40
1
40
1
40
1
41
1
10
20.8447522013738
20
-1.49209035648425
30
0
41
1
10
20.8429629615273
20
-1.4892006581606
30
0
41
1
10
20.8403989590829
20
-1.48797209231634
30
0
41
1
10
20.8347018024338
20
-1.48747354600201
30
0
41
1
10
20.8315254276557
20
-1.48818372034444
30
0
41
1
10
20.8247753348141
20
-1.49082997499221
30
0
41
1
10
20.8212474738321
20
-1.4927550339965
30
0
41
1
10
20.813977431804
20
-1.49744935173072
30
0
41
1
10
20.8102338193763
20
-1.50022424946741
30
0
41
1
10
20.806403604438
20
-1.50334027091037
30
0
0
SPLINE
5
10D
100
AcDbEntity
8
1
62
256
6
ByLayer
370
18
48
1
60
0
100
AcDbSpline
70
4
71
3
72
8
73
4
40
0
40
0
40
0
40
0
40
1
40
1
40
1
40
1
41
1
10
20.8064035981623
20
-1.50334027091796
30
0
41
1
10
20.7899689334691
20
-1.51153625960904
30
0
41
1
10
20.773534268776
20
-1.51953278952374
30
0
41
1
10
20.7570996040828
20
-1.52732897224854
30
0
0
SPLINE
5
10E
100
AcDbEntity
8
1
62
256
6
ByLayer
370
18
48
1
60
0
100
AcDbSpline
70
4
71
3
72
12
73
8
40
0
40
0
40
0
40
0
40
0.154284979052728
40
0.310251410586039
40
0.544201057886004
40
0.778150705185971
40
1
40
1
40
1
40
1
41
1
10
20.3050881577912
20
-1.69054983308669
30
0
41
1
10
20.0783921051942
20
-1.74638713492936
30
0
41
1
10
19.6225293859304
20
-1.77889913417027
30
0
41
0.999999999999999
10
18.8229166666667
20
-1.53801658260162
30
0
41
1
10
17.90625
20
-0.883360325233212
30
0
41
1
10
16.8927794504717
20
0.120470907813854
30
0
41
1
10
16.2230589009434
20
0.755713128289898
30
0
41
1
10
15.8970883514151
20
1.01365340268632
30
0
0
SPLINE
5
10F
100
AcDbEntity
8
1
62
256
6
ByLayer
370
13
48
1
60
0
100
AcDbSpline
70
4
71
1
72
4
73
2
40
0
40
0
40
1
40
1
41
1
10
10
20
-0.584073075226456
30
0
41
1
10
9.39273230267148
20
0.0007839061597394
30
0
0
SPLINE
5
110
100
AcDbEntity
8
1
62
256
6
ByLayer
370
18
48
1
60
0
100
AcDbSpline
70
4
71
3
72
11
73
7
40
0
40
0
40
0
40
0
40
0.348684371264924
40
0.593612988475447
40
0.838541605685971
40
1
40
1
40
1
40
1
41
1
10
15.7912362047555
20
0.0981892086672644
30
0
41
1
10
15.4649908031703
20
0.351363790826724
30
0
41
1
10
14.9095787349185
20
0.775117525138882
30
0
41
1
10
14.125
20
1.20366914397383
30
0
41
1
10
13.5155986434536
20
1.38540714795874
30
0
41
1
10
13.1353639535738
20
1.40523227808362
30
0
41
1
10
12.9842959303608
20
1.39833771306837
30
0
0
SPLINE
5
111
100
AcDbEntity
8
1
62
256
6
ByLayer
370
18
48
1
60
0
100
AcDbSpline
70
4
71
3
72
22
73
18
40
0
40
0
40
0
40
0
40
0.107142579470999
40
0.107142579470999
40
0.255952149559176
40
0.255952149559176
40
0.404761719647353
40
0.404761719647353
40
0.55357128973553
40
0.55357128973553
40
0.702380859823707
40
0.702380859823707
40
0.77678564486778
40
0.77678564486778
40
0.851190429911854
40
0.851190429911854
40
1
40
1
40
1
40
1
41
1
10
16.3668229271622
20
-0.073085228838039
30
0
41
1
10
16.349441958309
20
-0.0614535742043643
30
0
41
1
10
16.3318321690619
20
-0.0504730423328965
30
0
41
1
10
16.2890200832714
20
-0.0258369891072618
30
0
41
1
10
16.2635275240875
20
-0.0128001474994335
30
0
41
1
10
16.2108917791502
20
0.0107034722477124
30
0
41
1
10
16.1836234057955
20
0.0211983285167605
30
0
41
1
10
16.1280288055052
20
0.0394497968279381
30
0
41
1
10
16.0996293425379
20
0.04725117148854
30
0
41
1
10
16.0414287501601
20
0.0607609157472098
30
0
41
1
10
16.0116262359178
20
0.0664684895041319
30
0
41
1
10
15.9657893187903
20
0.0740590220338504
30
0
41
1
10
15.950322335099
20
0.0764294202712392
30
0
41
1
10
15.9190111228417
20
0.0809733757260744
30
0
41
1
10
15.9031525570859
20
0.0831469495325621
30
0
41
1
10
15.8554891482696
20
0.0895335906477044
30
0
41
1
10
15.8234506633204
20
0.0936475883472951
30
0
41
1
10
15.7912362047555
20
0.0981892086672644
30
0
0
SPLINE
5
112
100
AcDbEntity
8
1
62
256
6
ByLayer
370
18
48
1
60
0
100
AcDbSpline
70
4
71
3
72
8
73
4
40
0
40
0
40
0
40
0
40
1
40
1
40
1
40
1
41
1
10
9.68048307856836
20
-0.312599240595944
30
0
41
1
10
9.64604310188344
20
-0.274984332172266
30
0
41
1
10
9.61108597558842
20
-0.239505666924657
30
0
41
1
10
9.57599675616109
20
-0.205736809737687
30
0
0
SPLINE
5
113
100
AcDbEntity
8
1
62
256
6
ByLayer
370
18
48
1
60
0
100
AcDbSpline
70
4
71
3
72
34
73
30
40
0
40
0
40
0
40
0
40
0.161969533319087
40
0.161969533319087
40
0.242954299978631
40
0.242954299978631
40
0.323939066638174
40
0.323939066638174
40
0.36443144996794
40
0.36443144996794
40
0.404923833297705
40
0.404923833297705
40
0.485908599957237
40
0.485908599957237
40
0.566893366616768
40
0.566893366616768
40
0.647878133276299
40
0.647878133276299
40
0.688370516606065
40
0.688370516606065
40
0.728862899935831
40
0.728862899935831
40
0.809847666595362
40
0.809847666595362
40
0.890832433254894
40
0.890832433254894
40
0.971817199914425
40
0.971817199914425
40
1
40
1
40
1
40
1
41
1
10
17
20
1.77722363198501
30
0
41
1
10
16.9547399592106
20
1.76884830099217
30
0
41
1
10
16.9093174425704
20
1.76147696377348
30
0
41
1
10
16.8414295254839
20
1.74653648288995
30
0
41
1
10
16.8188348332188
20
1.74090274978522
30
0
41
1
10
16.7736910362308
20
1.72701823820449
30
0
41
1
10
16.7511466063644
20
1.71873528535335
30
0
41
1
10
16.7172204483565
20
1.70332364511046
30
0
41
1
10
16.7058914701068
20
1.6976925690476
30
0
41
1
10
16.6831438686822
20
1.68537784808345
30
0
41
1
10
16.6717395002828
20
1.67869747098285
30
0
41
1
10
16.6379129671077
20
1.65753046689988
30
0
41
1
10
16.615666514212
20
1.64181727842481
30
0
41
1
10
16.5711599426225
20
1.6081388628233
30
0
41
1
10
16.548898898473
20
1.59017969708881
30
0
41
1
10
16.5038460426662
20
1.55276938934836
30
0
41
1
10
16.4810572358361
20
1.5333133119926
30
0
41
1
10
16.446137404446
20
1.50343148499175
30
0
41
1
10
16.4343955233267
20
1.49337170760342
30
0
41
1
10
16.4108168892218
20
1.47326179204586
30
0
41
1
10
16.3989572243892
20
1.46319185668676
30
0
41
1
10
16.3630914896607
20
1.43304030699625
30
0
41
1
10
16.3388016388631
20
1.4130084659939
30
0
41
1
10
16.2890200832713
20
1.37373152666902
30
0
41
1
10
16.2635275240875
20
1.35448846036553
30
0
41
1
10
16.2108917791501
20
1.31748592980168
30
0
41
1
10
16.1836234057955
20
1.29966338958087
30
0
41
1
10
16.1461526104337
20
1.2775234166736
30
0
41
1
10
16.1364061903664
20
1.27196973353475
30
0
41
1
10
16.1265826870194
20
1.26658795713018
30
0
0
SPLINE
5
114
100
AcDbEntity
8
1
62
256
6
ByLayer
370
18
48
1
60
0
100
AcDbSpline
70
4
71
3
72
8
73
4
40
0
40
0
40
0
40
0
40
1
40
1
40
1
40
1
41
1
10
20.9850884370383
20
-0.646048009175303
30
0
41
1
10
20.9662241134316
20
-0.500912278011697
30
0
41
1
10
20.9473576343463
20
-0.355726336164196
30
0
41
1
10
20.9284894943574
20
-0.210501704483477
30
0
0
SPLINE
5
115
100
AcDbEntity
8
1
62
256
6
ByLayer
370
18
48
1
60
0
100
AcDbSpline
70
4
71
3
72
16
73
12
40
0
40
0
40
0
40
0
40
0.250000000000001
40
0.250000000000001
40
0.374999999999993
40
0.374999999999993
40
0.499999999999986
40
0.499999999999986
40
0.749999999999993
40
0.749999999999993
40
1
40
1
40
1
40
1
41
1
10
20.9284894943574
20
-0.210501704483477
30
0
41
1
10
20.9243763620045
20
-0.209933433727002
30
0
41
1
10
20.9192708522125
20
-0.207034729232959
30
0
41
1
10
20.9104575137255
20
-0.199943077322558
30
0
41
1
10
20.9073242100245
20
-0.197116823664345
30
0
41
1
10
20.90070035521
20
-0.190619508567011
30
0
41
1
10
20.8971988782443
20
-0.186935569419887
30
0
41
1
10
20.886312180111
20
-0.174838994100895
30
0
41
1
10
20.8785333656967
20
-0.165381931976327
30
0
41
1
10
20.8621271295585
20
-0.144199474324523
30
0
41
1
10
20.8535585520553
20
-0.132546673184976
30
0
41
1
10
20.8447522013712
20
-0.120111845440704
30
0
0
SPLINE
5
116
100
AcDbEntity
8
1
62
256
6
ByLayer
370
18
48
1
60
0
100
AcDbSpline
70
4
71
3
72
8
73
4
40
0
40
0
40
0
40
0
40
1
40
1
40
1
40
1
41
1
10
20.8447522013712
20
-0.120111845440704
30
0
41
1
10
20.8432398521747
20
-0.120466963014536
30
0
41
1
10
20.8416923868681
20
-0.120568700475189
30
0
41
1
10
20.8401124347442
20
-0.120449877467109
30
0
0
SPLINE
5
117
100
AcDbEntity
8
1
62
256
6
ByLayer
370
18
48
1
60
0
100
AcDbSpline
70
4
71
3
72
8
73
4
40
0
40
0
40
0
40
0
40
1
40
1
40
1
40
1
41
1
10
20.9818782794163
20
-0.597694319411147
30
0
41
1
10
20.9823390683287
20
-0.604414878001251
30
0
41
1
10
20.982796148991
20
-0.611107594808658
30
0
41
1
10
20.9832680276756
20
-0.617911484295036
30
0
0
SPLINE
5
118
100
AcDbEntity
8
1
62
256
6
ByLayer
370
18
48
1
60
0
100
AcDbSpline
70
4
71
3
72
50
73
46
40
0
40
0
40
0
40
0
40
0.0833020946665755
40
0.0833020946665755
40
0.10412761833322
40
0.10412761833322
40
0.124953141999865
40
0.124953141999865
40
0.166604189333151
40
0.166604189333151
40
0.249906283999723
40
0.249906283999723
40
0.333208378666295
40
0.333208378666295
40
0.354033902332938
40
0.354033902332938
40
0.374859425999581
40
0.374859425999581
40
0.416510473332867
40
0.416510473332867
40
0.499812567999438
40
0.499812567999438
40
0.541463615332724
40
0.541463615332724
40
0.58311466266601
40
0.58311466266601
40
0.666416757332582
40
0.666416757332582
40
0.708067804665866
40
0.708067804665866
40
0.74971885199915
40
0.74971885199915
40
0.791369899332434
40
0.791369899332434
40
0.812195422999077
40
0.812195422999077
40
0.833020946665721
40
0.833020946665721
40
0.9163230413323
40
0.9163230413323
40
0.957974088665592
40
0.957974088665592
40
0.999625135998883
40
0.999625135998883
40
1
40
1
40
1
40
1
41
1
10
17.0000000000031
20
1.77934717408098
30
0
41
1
10
17.0774059563865
20
1.7936318372272
30
0
41
1
10
17.1544433690198
20
1.80333741722811
30
0
41
1
10
17.2507954374911
20
1.80848108862008
30
0
41
1
10
17.2700702067324
20
1.80915862168527
30
0
41
1
10
17.3086476819917
20
1.80977494178856
30
0
41
1
10
17.3279595660795
20
1.80971261253472
30
0
41
1
10
17.3857329561085
20
1.80837567408116
30
0
41
1
10
17.424104821727
20
1.80594897075252
30
0
41
1
10
17.5390149912345
20
1.79394919274108
30
0
41
1
10
17.6153635317103
20
1.77959632785957
30
0
41
1
10
17.7686292755165
20
1.73933516909156
30
0
41
1
10
17.8455454493414
20
1.71350517341887
30
0
41
1
10
17.9424496682322
20
1.67510315216452
30
0
41
1
10
17.9618790333054
20
1.66711172456962
30
0
41
1
10
18.0006845185954
20
1.6505897982197
30
0
41
1
10
18.0200752317248
20
1.64205146282706
30
0
41
1
10
18.078225794311
20
1.61564411567821
30
0
41
1
10
18.1169647509464
20
1.59698884786309
30
0
41
1
10
18.2331944831506
20
1.53815905271603
30
0
41
1
10
18.3107007563358
20
1.49514055980163
30
0
41
1
10
18.4272802239286
20
1.42551844821466
30
0
41
1
10
18.4662073487459
20
1.4014449536057
30
0
41
1
10
18.5438997973309
20
1.35183312794621
30
0
41
1
10
18.5827026517612
20
1.32627305550173
30
0
41
1
10
18.6990425103041
20
1.24738232535691
30
0
41
1
10
18.7765063207369
20
1.19186103525189
30
0
41
1
10
18.8928249130123
20
1.10407647543835
30
0
41
1
10
18.9316579010631
20
1.07403025283819
30
0
41
1
10
19.0091379284114
20
1.01256917025413
30
0
41
1
10
19.0478036814048
20
0.981130062795472
30
0
41
1
10
19.1250936929259
20
0.916680583584395
30
0
41
1
10
19.1637191549964
20
0.883668903954259
30
0
41
1
10
19.2217439932622
20
0.832944353769392
30
0
41
1
10
19.2411003032966
20
0.815836063178665
30
0
41
1
10
19.2798626226233
20
0.781227604040367
30
0
41
1
10
19.2992743425692
20
0.763722004158836
30
0
41
1
10
19.3961485828559
20
0.67558211218531
30
0
41
1
10
19.4733604144057
20
0.602863937168451
30
0
41
1
10
19.5894727028078
20
0.491689563499534
30
0
41
1
10
19.628221258485
20
0.454281346192943
30
0
41
1
10
19.7058611483392
20
0.378933047722683
30
0
41
1
10
19.7447812445126
20
0.340964674343695
30
0
41
1
10
19.7839992967786
20
0.302570829075734
30
0
41
1
10
19.7843491132818
20
0.302228353959833
30
0
41
1
10
19.7846989279168
20
0.301885870323872
30
0
0
SPLINE
5
119
100
AcDbEntity
8
1
62
256
6
ByLayer
370
13
48
1
60
0
100
AcDbSpline
70
4
71
5
72
12
73
6
40
0
40
0
40
0
40
0
40
0
40
0
40
1
40
1
40
1
40
1
40
1
40
1
41
0.986778848521074
10
17.0000000000033
20
1.77844026376228
30
0
41
0.938681229097163
10
17.0000000000033
20
1.50965382054415
30
0
41
0.91741537065115
10
17.0000000000033
20
1.25499772009735
30
0
41
0.919890232308158
10
17.0000000000033
20
1.05058187431768
30
0
41
0.946275182706963
10
17.0000000000033
20
0.924582073130977
30
0
41
1
10
17.0000000000033
20
0.893396008884991
30
0
0
SPLINE
5
11A
100
AcDbEntity
8
1
62
256
6
ByLayer
370
13
48
1
60
0
100
AcDbSpline
70
4
71
3
72
10
73
6
40
0
40
0
40
0
40
0
40
0.317404079805622
40
0.658702039902811
40
1
40
1
40
1
40
1
41
1
10
19.9299911423884
20
-0.587641938187687
30
0
41
1
10
19.6199940949256
20
-0.439070889970679
30
0
41
1
10
18.9766637141294
20
-0.0786814802030449
30
0
41
1
10
18
20
0.501043685255297
30
0
41
1
10
17.3333333333334
20
0.793098908242911
30
0
41
1
10
17
20
0.893396008885958
30
0
0
SPLINE
5
11B
100
AcDbEntity
8
1
62
256
6
ByLayer
370
18
48
1
60
0
100
AcDbSpline
70
4
71
3
72
8
73
4
40
0
40
0
40
0
40
0
40
1
40
1
40
1
40
1
41
1
10
19.9261699935171
20
-0.577102565340482
30
0
41
1
10
19.9274476601683
20
-0.580611306131317
30
0
41
1
10
19.9287214114617
20
-0.584124392994283
30
0
41
1
10
19.9299911434162
20
-0.587641941034889
30
0
0
SPLINE
5
11C
100
AcDbEntity
8
1
62
256
6
ByLayer
370
18
48
1
60
0
100
AcDbSpline
70
4
71
3
72
34
73
30
40
0
40
0
40
0
40
0
40
0.125000000000002
40
0.125000000000002
40
0.156250000000003
40
0.156250000000003
40
0.187500000000003
40
0.250000000000002
40
0.250000000000002
40
0.312500000000002
40
0.312500000000002
40
0.375000000000002
40
0.437500000000001
40
0.437500000000001
40
0.500000000000001
40
0.500000000000001
40
0.562500000000001
40
0.562500000000001
40
0.625
40
0.625
40
0.75
40
0.75
40
0.8125
40
0.8125
40
0.875
40
0.875
40
0.9375
40
0.9375
40
1
40
1
40
1
40
1
41
1
10
19.9261699935171
20
-0.577102565340482
30
0
41
1
10
19.9185990617171
20
-0.556311197570579
30
0
41
1
10
19.9147267270925
20
-0.534796788279209
30
0
41
1
10
19.9139704018654
20
-0.507359204267971
30
0
41
1
10
19.9140284705092
20
-0.50182346400706
30
0
41
1
10
19.9145485674612
20
-0.490858192331785
30
0
41
1
10
19.9159303492224
20
-0.474536464493326
30
0
41
1
10
19.9190069021817
20
-0.458604005506658
30
0
41
1
10
19.9245234349375
20
-0.437737682286553
30
0
41
1
10
19.9280211204599
20
-0.427431340291065
30
0
41
1
10
19.93621036474
20
-0.407737276654274
30
0
41
1
10
19.9455987214314
20
-0.388870175142813
30
0
41
1
10
19.9572666225639
20
-0.371657948612352
30
0
41
1
10
19.9701007949708
20
-0.355313740447912
30
0
41
1
10
19.9769587606389
20
-0.347757254545485
30
0
41
1
10
19.9915173624665
20
-0.333834897908929
30
0
41
1
10
19.9992190518928
20
-0.327468073071572
30
0
41
1
10
20.0154973711659
20
-0.315932751676769
30
0
41
1
10
20.0241358422193
20
-0.310741243202756
30
0
41
1
10
20.0507375903696
20
-0.29740209484325
30
0
41
1
10
20.0695074666584
20
-0.291310736927159
30
0
41
1
10
20.0995774044921
20
-0.286294150028169
30
0
41
1
10
20.1097481221985
20
-0.285350095322201
30
0
41
1
10
20.1302766467649
20
-0.284834877789024
30
0
41
1
10
20.1406599829481
20
-0.285259771724867
30
0
41
1
10
20.161730173318
20
-0.28742764841104
30
0
41
1
10
20.1724840719445
20
-0.289189609083024
30
0
41
1
10
20.1938928810828
20
-0.293917825643604
30
0
41
1
10
20.204576130505
20
-0.296878766878109
30
0
41
1
10
20.2152643642361
20
-0.300393875201337
30
0
0
SPLINE
5
11D
100
AcDbEntity
8
1
62
256
6
ByLayer
370
18
48
1
60
0
100
AcDbSpline
70
4
71
3
72
10
73
6
40
0
40
0
40
0
40
0
40
0.407889155569331
40
0.407889155569331
40
1
40
1
40
1
40
1
41
1
10
20.3921150610416
20
-0.361739182838562
30
0
41
1
10
20.3684348212236
20
-0.353003302210169
30
0
41
1
10
20.3445768490876
20
-0.344459894153687
30
0
41
1
10
20.2857445202335
20
-0.323883776524525
30
0
41
1
10
20.250614456245
20
-0.31201968782608
30
0
41
1
10
20.2152643642361
20
-0.300393875201337
30
0
0
SPLINE
5
11E
100
AcDbEntity
8
1
62
256
6
ByLayer
370
18
48
1
60
0
100
AcDbSpline
70
4
71
3
72
12
73
8
40
0
40
0
40
0
40
0
40
0.499999999999988
40
0.499999999999988
40
0.749999999999994
40
0.749999999999994
40
1
40
1
40
1
40
1
41
1
10
9.61340266006121
20
-0.371954545590938
30
0
41
1
10
9.59967185769008
20
-0.346326720056965
30
0
41
1
10
9.59019567050552
20
-0.31942305127518
30
0
41
1
10
9.58120399202713
20
-0.27742436471388
30
0
41
1
10
9.57907325519628
20
-0.263057234743627
30
0
41
1
10
9.57642320858866
20
-0.234362033495671
30
0
41
1
10
9.57588806328377
20
-0.220040359627347
30
0
41
1
10
9.57599675616163
20
-0.205736809737687
30
0
0
SPLINE
5
11F
100
AcDbEntity
8
1
62
256
6
ByLayer
370
18
48
1
60
0
100
AcDbSpline
70
4
71
3
72
8
73
4
40
0
40
0
40
0
40
0
40
1
40
1
40
1
40
1
41
1
10
9.39273230267153
20
0.0007839061597394
30
0
41
1
10
9.4547865457163
20
-0.0672896508162637
30
0
41
1
10
9.51583306438465
20
-0.136171432786483
30
0
41
1
10
9.57599675616112
20
-0.20573680973763
30
0
0
SPLINE
5
120
100
AcDbEntity
8
1
62
256
6
ByLayer
370
18
48
1
60
0
100
AcDbSpline
70
4
71
3
72
8
73
4
40
0
40
0
40
0
40
0
40
1
40
1
40
1
40
1
41
1
10
9.37550020016016
20
0.0198469672642716
30
0
41
1
10
9.38121730131252
20
0.0134684436001464
30
0
41
1
10
9.38696173991806
20
0.0071142391953742
30
0
41
1
10
9.3927323026715
20
0.0007839061597394
30
0
0
SPLINE
5
121
100
AcDbEntity
8
1
62
256
6
ByLayer
370
18
48
1
60
0
100
AcDbSpline
70
4
71
3
72
8
73
4
40
0
40
0
40
0
40
0
40
1
40
1
40
1
40
1
41
1
10
9.58693695841399
20
-0.847451600957896
30
0
41
1
10
9.51862808223134
20
-0.778311860329069
30
0
41
1
10
9.44818872694191
20
-0.710734315233736
30
0
41
1
10
9.37550020016019
20
-0.645272454619658
30
0
0
SPLINE
5
122
100
AcDbEntity
8
1
62
256
6
ByLayer
370
18
48
1
60
0
100
AcDbSpline
70
4
71
3
72
10
73
6
40
0
40
0
40
0
40
0
40
0.5
40
0.5
40
1
40
1
40
1
40
1
41
1
10
9.99757645458899
20
-1.28332340598669
30
0
41
1
10
9.93133209030199
20
-1.20991698008353
30
0
41
1
10
9.86410575024868
20
-1.13678369917065
30
0
41
1
10
9.72735207067862
20
-0.991344144581035
30
0
41
1
10
9.65781853488684
20
-0.919041721750432
30
0
41
1
10
9.58693695841399
20
-0.847451600957896
30
0
0
SPLINE
5
123
100
AcDbEntity
8
1
62
256
6
ByLayer
370
18
48
1
60
0
100
AcDbSpline
70
4
71
3
72
8
73
4
40
0
40
0
40
0
40
0
40
1
40
1
40
1
40
1
41
1
10
20.9832680278266
20
-0.61791148436518
30
0
41
1
10
20.9839667015277
20
-0.627985469047275
30
0
41
1
10
20.9845685175544
20
-0.637326576669494
30
0
41
1
10
20.9850884370383
20
-0.646048009175331
30
0
0
SPLINE
5
124
100
AcDbEntity
8
1
62
256
6
ByLayer
370
18
48
1
60
0
100
AcDbSpline
70
4
71
3
72
28
73
24
40
0
40
0
40
0
40
0
40
0.125
40
0.125
40
0.1875
40
0.1875
40
0.25
40
0.25
40
0.375
40
0.375
40
0.4375
40
0.4375
40
0.5
40
0.5
40
0.5625
40
0.5625
40
0.625
40
0.625
40
0.75
40
0.75
40
0.875
40
0.875
40
1
40
1
40
1
40
1
41
1
10
20.6946033750588
20
-0.61002549948924
30
0
41
1
10
20.7147574710755
20
-0.620949644178239
30
0
41
1
10
20.7339289986814
20
-0.630692718569918
30
0
41
1
10
20.7615547084131
20
-0.643647263434673
30
0
41
1
10
20.7705711897722
20
-0.647686801857731
30
0
41
1
10
20.7882443897595
20
-0.655213527827215
30
0
41
1
10
20.7968608421904
20
-0.65868436493443
30
0
41
1
10
20.8217697457971
20
-0.66811445827031
30
0
41
1
10
20.8372812447546
20
-0.673136779532712
30
0
41
1
10
20.8591144858491
20
-0.678799379033222
30
0
41
1
10
20.8661619318334
20
-0.680379098635882
30
0
41
1
10
20.8796447905923
20
-0.682907430003439
30
0
41
1
10
20.8860980460282
20
-0.683860398223374
30
0
41
1
10
20.8984554821636
20
-0.68517676619021
30
0
41
1
10
20.9043633173307
20
-0.685537018942853
30
0
41
1
10
20.9155662449352
20
-0.685665684650644
30
0
41
1
10
20.9208731303233
20
-0.685435275007961
30
0
41
1
10
20.9359456845851
20
-0.683874797848858
30
0
41
1
10
20.9448717786552
20
-0.681667807294104
30
0
41
1
10
20.9603321179908
20
-0.675090881039608
30
0
41
1
10
20.9669233181092
20
-0.670689747786383
30
0
41
1
10
20.977751699194
20
-0.659856554099463
30
0
41
1
10
20.9819929815394
20
-0.653438455299266
30
0
41
1
10
20.9850884370383
20
-0.646048009175331
30
0
0
SPLINE
5
125
100
AcDbEntity
8
1
62
256
6
ByLayer
370
18
48
1
60
0
100
AcDbSpline
70
4
71
3
72
8
73
4
40
0
40
0
40
0
40
0
40
1
40
1
40
1
40
1
41
1
10
20.6542092697933
20
-0.587135139066618
30
0
41
1
10
20.6675215288483
20
-0.595022214696769
30
0
41
1
10
20.6809897095151
20
-0.602646470828063
30
0
41
1
10
20.6946033750588
20
-0.61002549948924
30
0
0
SPLINE
5
126
100
AcDbEntity
8
1
62
256
6
ByLayer
370
18
48
1
60
0
100
AcDbSpline
70
4
71
3
72
12
73
8
40
0
40
0
40
0
40
0
40
0.5
40
0.5
40
0.75
40
0.75
40
1
40
1
40
1
40
1
41
1
10
20.484277589836
20
-0.469893571691131
30
0
41
1
10
20.5182429780144
20
-0.499818465799365
30
0
41
1
10
20.5514447121335
20
-0.526396828764717
30
0
41
1
10
20.6006586227285
20
-0.561234402059995
30
0
41
1
10
20.616954245864
20
-0.5719778597051
30
0
41
1
10
20.6493952980818
20
-0.59163720585417
30
0
41
1
10
20.6655475916593
20
-0.600571654327553
30
0
41
1
10
20.6814459801371
20
-0.608416695600511
30
0
0
SPLINE
5
127
100
AcDbEntity
8
1
62
256
6
ByLayer
370
18
48
1
60
0
100
AcDbSpline
70
4
71
3
72
12
73
8
40
0
40
0
40
0
40
0
40
0.0269205793407407
40
0.2081476851276
40
0.479988343807889
40
0.751829002488178
40
1
40
1
40
1
40
1
41
1
10
19.7271254420878
20
0.364742446506256
30
0
41
1
10
19.6930836280585
20
0.399208952331691
30
0
41
1
10
19.4298751473626
20
0.664141190321487
30
0
41
0.999999999999999
10
18.8229166666667
20
1.23950365749397
30
0
41
1
10
17.90625
20
1.84196536328943
30
0
41
1
10
16.9049309384628
20
1.92007480344597
30
0
41
1
10
16.2473618769257
20
1.60112692787229
30
0
41
1
10
15.9335428153885
20
1.38460793634371
30
0
0
SPLINE
5
128
100
AcDbEntity
8
1
62
256
6
ByLayer
370
18
48
1
60
0
100
AcDbSpline
70
4
71
3
72
8
73
4
40
0
40
0
40
0
40
0
40
1
40
1
40
1
40
1
41
1
10
16.8341830153291
20
-1.61643400502683
30
0
41
1
10
16.7471797875576
20
-1.6550995598769
30
0
41
1
10
16.6601765597862
20
-1.68799523251462
30
0
41
1
10
16.5731733320147
20
-1.71493695052587
30
0
0
SPLINE
5
129
100
AcDbEntity
8
1
62
256
6
ByLayer
370
13
48
1
60
0
100
AcDbSpline
70
4
71
3
72
13
73
9
40
0
40
0
40
0
40
0
40
0.178117050672202
40
0.429936810810648
40
0.597816650902945
40
0.765696490995243
40
0.93357633108754
40
1
40
1
40
1
40
1
41
1
10
16.5731733320083
20
-1.71493695052783
30
0
41
1
10
16.3300322213389
20
-1.79022886105017
30
0
41
1
10
15.7431411106694
20
-1.85972678500053
30
0
41
1
10
14.9270833333333
20
-1.54709904249967
30
0
41
1
10
14.125
20
-0.929287591263261
30
0
41
1
10
13.4375
20
-0.267473478483481
30
0
41
1
10
12.8884941309765
20
0.292487003598012
30
0
41
1
10
12.5686549286195
20
0.598380392496267
30
0
41
1
10
12.4779823929293
20
0.682504247300329
30
0
0
SPLINE
5
12A
100
AcDbEntity
8
1
62
256
6
ByLayer
370
18
48
1
60
0
100
AcDbSpline
70
4
71
3
72
8
73
4
40
0
40
0
40
0
40
0
40
1
40
1
40
1
40
1
41
1
10
20.4836449419088
20
1.91827405172802
30
0
41
1
10
20.5376102518935
20
1.92906462261968
30
0
41
1
10
20.594579315238
20
1.93593688684754
30
0
41
1
10
20.6542092697926
20
1.93992136310391
30
0
0
SPLINE
5
12B
100
AcDbEntity
8
1
62
256
6
ByLayer
370
18
48
1
60
0
100
AcDbSpline
70
4
71
3
72
91
73
87
40
0
40
0
40
0
40
0
40
0.0008805369286352
40
0.0008805369286352
40
0.0526765642566571
40
0.0526765642566571
40
0.0656255710886625
40
0.0656255710886625
40
0.0785745779206679
40
0.0785745779206679
40
0.10447259158468
40
0.130370605248693
40
0.130370605248693
40
0.156268618912705
40
0.156268618912705
40
0.182166632576718
40
0.182166632576718
40
0.195115639408723
40
0.195115639408723
40
0.208064646240729
40
0.208064646240729
40
0.233962659904739
40
0.233962659904739
40
0.25986067356875
40
0.285758687232761
40
0.285758687232761
40
0.311656700896772
40
0.311656700896772
40
0.324605707728777
40
0.324605707728777
40
0.337554714560783
40
0.337554714560783
40
0.363452728224794
40
0.363452728224794
40
0.389350741888804
40
0.389350741888804
40
0.40229974872081
40
0.40229974872081
40
0.415248755552815
40
0.441146769216826
40
0.441146769216826
40
0.467044782880837
40
0.467044782880837
40
0.492942796544848
40
0.492942796544848
40
0.505891803376853
40
0.505891803376853
40
0.518840810208859
40
0.518840810208859
40
0.570636837536879
40
0.570636837536879
40
0.622432864864899
40
0.622432864864899
40
0.635381871696904
40
0.635381871696904
40
0.648330878528909
40
0.648330878528909
40
0.674228892192919
40
0.674228892192919
40
0.726024919520943
40
0.726024919520943
40
0.751922933184954
40
0.751922933184954
40
0.764871940016959
40
0.764871940016959
40
0.777820946848965
40
0.777820946848965
40
0.803718960512975
40
0.803718960512975
40
0.829616974176986
40
0.829616974176986
40
0.855514987840997
40
0.855514987840997
40
0.881413001505008
40
0.881413001505008
40
0.894362008337013
40
0.894362008337013
40
0.907311015169017
40
0.907311015169017
40
0.933209028833027
40
0.933209028833027
40
0.959107042497036
40
0.959107042497036
40
0.985005056161045
40
0.985005056161045
40
1
40
1
40
1
40
1
41
1
10
17.0833689924392
20
-1.54542780005946
30
0
41
1
10
17.0814724992584
20
-1.54657918141592
30
0
41
1
10
17.0795760830502
20
-1.54772774924126
30
0
41
1
10
16.9661306035886
20
-1.61627020073647
30
0
41
1
10
16.8547235300578
20
-1.67401929685144
30
0
41
1
10
16.7141093660954
20
-1.73417809660327
30
0
41
1
10
16.6859221247858
20
-1.74560719471259
30
0
41
1
10
16.6293874002405
20
-1.76725288554499
30
0
41
1
10
16.601007378131
20
-1.77747854368425
30
0
41
1
10
16.5161609631988
20
-1.80613396980343
30
0
41
1
10
16.4034714075836
20
-1.83909984325743
30
0
41
1
10
16.2911486018156
20
-1.86191207140848
30
0
41
1
10
16.1787804019944
20
-1.87970843250966
30
0
41
1
10
16.1225713160377
20
-1.88611924113749
30
0
41
1
10
16.0099123467546
20
-1.89375380002463
30
0
41
1
10
15.9534669628655
20
-1.89496177002431
30
0
41
1
10
15.8684617603515
20
-1.89246787815156
30
0
41
1
10
15.840069634374
20
-1.8909176344624
30
0
41
1
10
15.7831392671041
20
-1.88629398673709
30
0
41
1
10
15.7547122243434
20
-1.88322709872401
30
0
41
1
10
15.6698314251886
20
-1.87172887538659
30
0
41
1
10
15.6136658385335
20
-1.8609184806636
30
0
41
1
10
15.5017796837689
20
-1.83339198493118
30
0
41
1
10
15.3903174801124
20
-1.80002950458004
30
0
41
1
10
15.2789021564769
20
-1.75616256163639
30
0
41
1
10
15.1671838752349
20
-1.70758120592288
30
0
41
1
10
15.1111715945877
20
-1.68096315255656
30
0
41
1
10
15.0267612263806
20
-1.63761762620192
30
0
41
1
10
14.9985594750004
20
-1.62259650323082
30
0
41
1
10
14.9419999265426
20
-1.59140262821705
30
0
41
1
10
14.9136074048839
20
-1.57520870094874
30
0
41
1
10
14.8285388258292
20
-1.52510716651509
30
0
41
1
10
14.7719052458135
20
-1.48965439078515
30
0
41
1
10
14.6586351004859
20
-1.41464300526314
30
0
41
1
10
14.6020013798421
20
-1.37508179942131
30
0
41
1
10
14.5169035209486
20
-1.31260012636182
30
0
41
1
10
14.488496482981
20
-1.29123536024923
30
0
41
1
10
14.4319197403688
20
-1.24769607938725
30
0
41
1
10
14.3472960387388
20
-1.18109121265755
30
0
41
1
10
14.2632669664512
20
-1.11065953087487
30
0
41
1
10
14.1514889364354
20
-1.01345994831107
30
0
41
1
10
14.0957203750135
20
-0.963230686777706
30
0
41
1
10
13.9840874958873
20
-0.859895165780841
30
0
41
1
10
13.9282275743065
20
-0.806784900810754
30
0
41
1
10
13.8441558089615
20
-0.725165739197195
30
0
41
1
10
13.8160849942584
20
-0.697633188055306
30
0
41
1
10
13.7598137863493
20
-0.641944648102339
30
0
41
1
10
13.7315839392188
20
-0.613758970576612
30
0
41
1
10
13.590343544006
20
-0.471660453220238
30
0
41
1
10
13.4785865165072
20
-0.355837638957269
30
0
41
1
10
13.2554787260121
20
-0.121882499037213
30
0
41
1
10
13.1441992051669
20
-0.0036633756780589
30
0
41
1
10
13.0039899642551
20
0.144280973609966
30
0
41
1
10
12.9758912565087
20
0.173876696659704
30
0
41
1
10
12.9195413813797
20
0.233044619362914
30
0
41
1
10
12.8912514303269
20
0.262656868654005
30
0
41
1
10
12.8066871942826
20
0.350787773138933
30
0
41
1
10
12.7505545667861
20
0.408768906877214
30
0
41
1
10
12.5824560259678
20
0.580121725117351
30
0
41
1
10
12.4708021487661
20
0.690924229161368
30
0
41
1
10
12.30252445367
20
0.850954212907794
30
0
41
1
10
12.2462995715075
20
0.903268153960397
30
0
41
1
10
12.1615968210088
20
0.980041641582318
30
0
41
1
10
12.1333019063548
20
1.00534940584868
30
0
41
1
10
12.0765637622295
20
1.05536293417725
30
0
41
1
10
12.0481518480311
20
1.0800390482633
30
0
41
1
10
11.9632771423526
20
1.15258164757722
30
0
41
1
10
11.9069862250022
20
1.19914174154337
30
0
41
1
10
11.7948635316056
20
1.28829836652201
30
0
41
1
10
11.7390443849533
20
1.33085670547712
30
0
41
1
10
11.6275894633467
20
1.41168149165782
30
0
41
1
10
11.57194581885
20
1.44995951047724
30
0
41
1
10
11.4604609335346
20
1.52221649514766
30
0
41
1
10
11.4046172284789
20
1.5561938317241
30
0
41
1
10
11.3204531150575
20
1.60404547947584
30
0
41
1
10
11.292332709527
20
1.61948318711438
30
0
41
1
10
11.2359355210448
20
1.64933413703844
30
0
41
1
10
11.2076114450921
20
1.66376754303303
30
0
41
1
10
11.1227481168993
20
1.70528651241875
30
0
41
1
10
11.0664233536829
20
1.73055567870577
30
0
41
1
10
10.9541333675296
20
1.77607049747843
30
0
41
1
10
10.8981696634162
20
1.79631573069045
30
0
41
1
10
10.7864385498344
20
1.83134681028923
30
0
41
1
10
10.730673314393
20
1.84610260169094
30
0
41
1
10
10.6425288693544
20
1.86502937429498
30
0
41
1
10
10.6101878785912
20
1.87104215455741
30
0
41
1
10
10.5777984394401
20
1.87612240121049
30
0
0
SPLINE
5
12C
100
AcDbEntity
8
1
62
256
6
ByLayer
370
18
48
1
60
0
100
AcDbSpline
70
4
71
3
72
12
73
8
40
0
40
0
40
0
40
0
40
0.277132746845617
40
0.277132746845617
40
0.638566373422809
40
0.638566373422809
40
1
40
1
40
1
40
1
41
1
10
9.88323667848593
20
1.96552034810944
30
0
41
1
10
9.89443318361973
20
1.96850597713254
30
0
41
1
10
9.90542677394291
20
1.97078257277707
30
0
41
1
10
9.93036138551264
20
1.97435286979382
30
0
41
1
10
9.94417754979193
20
1.97513595693184
30
0
41
1
10
9.97131463565202
20
1.97412454928479
30
0
41
1
10
9.98459330230071
20
1.97232806991656
30
0
41
1
10
9.99757645458911
20
1.96922587992285
30
0
0
SPLINE
5
12D
100
AcDbEntity
8
1
62
256
6
ByLayer
370
18
48
1
60
0
100
AcDbSpline
70
4
71
3
72
8
73
4
40
0
40
0
40
0
40
0
40
1
40
1
40
1
40
1
41
1
10
10
20
1.96876067877386
30
0
41
1
10
9.99919206241955
20
1.96891634320784
30
0
41
1
10
9.99838421438406
20
1.96907141024138
30
0
41
1
10
9.99757645458899
20
1.96922587992287
30
0
0
SPLINE
5
12E
100
AcDbEntity
8
1
62
256
6
ByLayer
370
18
48
1
60
0
100
AcDbSpline
70
4
71
3
72
81
73
77
40
0
40
0
40
0
40
0
40
0.0081897239502575
40
0.0163486654754141
40
0.0244768565491459
40
0.0325743235341159
40
0.0406410875672339
40
0.0486771649306077
40
0.0566825674085923
40
0.0646573026311048
40
0.0726013744036214
40
0.0805147830240587
40
0.0883975255869001
40
0.0962495962747981
40
0.104070986638031
40
0.111861685862047
40
0.119621681023373
40
0.127350957334263
40
0.135049498376242
40
0.142717286322994
40
0.15035430215272
40
0.157960525850312
40
0.165535936599648
40
0.173080512966225
40
0.180594233070383
40
0.188077074751463
40
0.19552901572308
40
0.202950033719779
40
0.210340106635352
40
0.217699212653023
40
0.225027330367774
40
0.232324438901026
40
0.239590518007896
40
0.246825548177304
40
0.254029510725091
40
0.261202387880394
40
0.268344162865505
40
0.275454819969391
40
0.282534344615126
40
0.289582723421332
40
0.296599944258004
40
0.303585996296698
40
0.40099067422208
40
0.480215080958778
40
0.54129076156336
40
0.584219678094216
40
0.608997953335604
40
0.618864296338137
40
0.628988622600117
40
0.639370926019968
40
0.65001120078096
40
0.660909442256981
40
0.672065648198278
40
0.683479820241608
40
0.6951519657933
40
0.707082100338167
40
0.719270250231763
40
0.731716456038243
40
0.744420776480975
40
0.75738329307841
40
0.770604115542792
40
0.784083388024991
40
0.797821296294267
40
0.811818075879469
40
0.826073972727042
40
0.840589124172604
40
0.855363617285469
40
0.870397503895922
40
0.885690798100005
40
0.901243474337753
40
0.917055466156588
40
0.933126665780184
40
0.949456924612634
40
0.966046054817344
40
0.982893832120556
40
1
40
1
40
1
40
1
41
1
10
18.0989572756263
20
1.77256558800457
30
0
41
1
10
18.1054731007858
20
1.76918023753379
30
0
41
1
10
18.1184802603038
20
1.7624222609891
30
0
41
1
10
18.1379531928744
20
1.75203511875245
30
0
41
1
10
18.1573518171957
20
1.74149399713565
30
0
41
1
10
18.1766760597826
20
1.73078363385204
30
0
41
1
10
18.1959259372757
20
1.71991331026354
30
0
41
1
10
18.2151014422787
20
1.70888570508094
30
0
41
1
10
18.2342025737777
20
1.69770519326468
30
0
41
1
10
18.253229329039
20
1.6863756355032
30
0
41
1
10
18.2721817057706
20
1.67490096767383
30
0
41
1
10
18.2910597015487
20
1.66328504432576
30
0
41
1
10
18.3098633139729
20
1.65153168090063
30
0
41
1
10
18.3285925406271
20
1.63964464300429
30
0
41
1
10
18.3472473790922
20
1.62762764978149
30
0
41
1
10
18.3658278269454
20
1.61548437353068
30
0
41
1
10
18.3843338817622
20
1.60321844031745
30
0
41
1
10
18.4027655411182
20
1.59083343031915
30
0
41
1
10
18.4211228025903
20
1.57833287823803
30
0
41
1
10
18.4394056637592
20
1.56572027369364
30
0
41
1
10
18.45761412221
20
1.55299906161756
30
0
41
1
10
18.4757481755344
20
1.54017264264485
30
0
41
1
10
18.4938078213315
20
1.52724437350346
30
0
41
1
10
18.51179305721
20
1.51421756740157
30
0
41
1
10
18.5297038807888
20
1.50109549441251
30
0
41
1
10
18.547540289699
20
1.48788138185753
30
0
41
1
10
18.5653022815845
20
1.47457841468659
30
0
41
1
10
18.5829898541039
20
1.46118973585666
30
0
41
1
10
18.6006030049312
20
1.44771844670828
30
0
41
1
10
18.6181417317573
20
1.43416760733953
30
0
41
1
10
18.6356060322911
20
1.4205402369779
30
0
41
1
10
18.6529959042585
20
1.40683931435151
30
0
41
1
10
18.6703113454134
20
1.39306777805203
30
0
41
1
10
18.6875523535002
20
1.37922852691801
30
0
41
1
10
18.7047189263983
20
1.36532442033359
30
0
41
1
10
18.72181106159
20
1.35135827883039
30
0
41
1
10
18.7388287581378
20
1.33733288355583
30
0
41
1
10
18.7557720093575
20
1.3232509799343
30
0
41
1
10
18.7726408299869
20
1.30911526577304
30
0
41
1
10
18.789435155461
20
1.29492843703139
30
0
41
1
10
18.8061552153453
20
1.28069301979463
30
0
41
1
10
18.8946352690178
20
1.20477887757562
30
0
41
1
10
19.0406163223909
20
1.0725308212501
30
0
41
1
10
19.2296186816933
20
0.888268163662588
30
0
41
1
10
19.3753223339053
20
0.739722187247025
30
0
41
1
10
19.4777324317992
20
0.632539239996447
30
0
41
1
10
19.5394328194633
20
0.567059752717995
30
0
41
1
10
19.5750624240522
20
0.529041815722394
30
0
41
1
10
19.5992310441329
20
0.503153493846668
30
0
41
1
10
19.6240149843298
20
0.476512698845852
30
0
41
1
10
19.6494133512165
20
0.44911674899484
30
0
41
1
10
19.6754264025362
20
0.420964513273617
30
0
41
1
10
19.7020540761548
20
0.392055220442103
30
0
41
1
10
19.7292963990987
20
0.362388850727314
30
0
41
1
10
19.7571533739698
20
0.331966089019119
30
0
41
1
10
19.7856250105172
20
0.300788401294
30
0
41
1
10
19.8147113169337
20
0.268858078289441
30
0
41
1
10
19.8444123023203
20
0.236178289694465
30
0
41
1
10
19.87472797608
20
0.202753136908939
30
0
41
1
10
19.9056583480986
20
0.168587707503178
30
0
41
1
10
19.9372034289777
20
0.133688131204792
30
0
41
1
10
19.9693632292433
20
0.0980616347980003
30
0
41
1
10
20.0021377626884
20
0.0617166069597488
30
0
41
1
10
20.0355269948828
20
0.0246626735798543
30
0
41
1
10
20.0695307516026
20
-0.0130889809989014
30
0
41
1
10
20.1041491498492
20
-0.0515251556701344
30
0
41
1
10
20.1393822065591
20
-0.0906311086425831
30
0
41
1
10
20.1752299316958
20
-0.130390485338779
30
0
41
1
10
20.2116923345231
20
-0.170785294943016
30
0
41
1
10
20.2487694259234
20
-0.211795793287024
30
0
41
1
10
20.2864612180846
20
-0.253400568773856
30
0
41
1
10
20.3247677241353
20
-0.295575870050669
30
0
41
1
10
20.3636889608112
20
-0.338297820834896
30
0
41
1
10
20.4032249388165
20
-0.381533593935899
30
0
41
1
10
20.4433757004617
20
-0.425274768022689
30
0
41
1
10
20.470347577693
20
-0.454475898074549
30
0
41
1
10
20.4839361447199
20
-0.469187573853304
30
0
0
SPLINE
5
12F
100
AcDbEntity
8
1
62
256
6
ByLayer
370
18
48
1
60
0
100
AcDbSpline
70
4
71
3
72
8
73
4
40
0
40
0
40
0
40
0
40
1
40
1
40
1
40
1
41
1
10
20.4836449419082
20
-0.469335802781529
30
0
41
1
10
20.5376102518932
20
-0.513319804628281
30
0
41
1
10
20.5945793152378
20
-0.552328971628555
30
0
41
1
10
20.6542092697926
20
-0.587135139066277
30
0
0
SPLINE
5
130
100
AcDbEntity
8
1
62
256
6
ByLayer
370
18
48
1
60
0
100
AcDbSpline
70
4
71
3
72
8
73
4
40
0
40
0
40
0
40
0
40
1
40
1
40
1
40
1
41
1
10
20.6542092697944
20
-0.587135139067414
30
0
41
1
10
20.6635235077794
20
-0.569718526074837
30
0
41
1
10
20.6740160980201
20
-0.553009720549568
30
0
41
1
10
20.6854124885845
20
-0.536843805840675
30
0
0
SPLINE
5
131
100
AcDbEntity
8
1
62
256
6
ByLayer
370
18
48
1
60
0
100
AcDbSpline
70
4
71
3
72
22
73
18
40
0
40
0
40
0
40
0
40
0.0312500000000051
40
0.0312500000000051
40
0.0625000000000101
40
0.0625000000000101
40
0.125000000000002
40
0.125000000000002
40
0.250000000000002
40
0.250000000000002
40
0.375000000000002
40
0.375000000000002
40
0.500000000000001
40
0.500000000000001
40
0.750000000000001
40
0.750000000000001
40
1
40
1
40
1
40
1
41
1
10
20.6854124885844
20
-0.536843805841357
30
0
41
1
10
20.6881485457855
20
-0.532962676364292
30
0
41
1
10
20.6904961013768
20
-0.52892668270735
30
0
41
1
10
20.6948159738529
20
-0.520704758062067
30
0
41
1
10
20.6967779437679
20
-0.516514711150677
30
0
41
1
10
20.7023060229668
20
-0.503801193391183
30
0
41
1
10
20.7055220451424
20
-0.49513742419515
30
0
41
1
10
20.7144955188347
20
-0.468873484352571
30
0
41
1
10
20.7195857029682
20
-0.450978366611991
30
0
41
1
10
20.7290329100565
20
-0.415091686590813
30
0
41
1
10
20.7333598873154
20
-0.397060021664942
30
0
41
1
10
20.7415774807499
20
-0.360901668389289
30
0
41
1
10
20.7454603116998
20
-0.342773199512464
30
0
41
1
10
20.7566501870319
20
-0.288290086761094
30
0
41
1
10
20.7635105273593
20
-0.251821647008739
30
0
41
1
10
20.7763936672221
20
-0.178964354614749
30
0
41
1
10
20.7824101184146
20
-0.142544296930055
30
0
41
1
10
20.7880505237437
20
-0.106142959833534
30
0
0
SPLINE
5
132
100
AcDbEntity
8
1
62
256
6
ByLayer
370
18
48
1
60
0
100
AcDbSpline
70
4
71
3
72
8
73
4
40
0
40
0
40
0
40
0
40
1
40
1
40
1
40
1
41
1
10
9.68048307859442
20
-0.312599240624422
30
0
41
1
10
9.78584708021631
20
-0.427676475095495
30
0
41
1
10
9.8913427886053
20
-0.540731779102259
30
0
41
1
10
10
20
-0.649065559261686
30
0
0
SPLINE
5
133
100
AcDbEntity
8
1
62
256
6
ByLayer
370
13
48
1
60
0
100
AcDbSpline
70
4
71
3
72
8
73
4
40
0
40
0
40
0
40
0
40
1
40
1
40
1
40
1
41
1
10
9.61340266006121
20
-0.37195454559091
30
0
41
1
10
9.63560123909727
20
-0.351945226034815
30
0
41
1
10
9.65796554452322
20
-0.332166295935281
30
0
41
1
10
9.6804830791917
20
-0.312599240054254
30
0
0
SPLINE
5
134
100
AcDbEntity
8
1
62
256
6
ByLayer
370
18
48
1
60
0
100
AcDbSpline
70
4
71
3
72
18
73
14
40
0
40
0
40
0
40
0
40
0.124999999999997
40
0.124999999999997
40
0.249999999999994
40
0.249999999999994
40
0.499999999999996
40
0.499999999999996
40
0.749999999999998
40
0.749999999999998
40
0.874999999999999
40
0.874999999999999
40
1
40
1
40
1
40
1
41
1
10
9.61340266006124
20
-0.371954545590938
30
0
41
1
10
9.63402418115717
20
-0.410443537756748
30
0
41
1
10
9.65377640853515
20
-0.449371856130057
30
0
41
1
10
9.69196354555643
20
-0.5278226988695
30
0
41
1
10
9.7104146022206
20
-0.567396111104841
30
0
41
1
10
9.76358375252707
20
-0.68522366222598
30
0
41
1
10
9.79639455230605
20
-0.763059725755539
30
0
41
1
10
9.85862408821899
20
-0.916428197351109
30
0
41
1
10
9.88802182241304
20
-0.991972342173199
30
0
41
1
10
9.93036138551261
20
-1.10312767085748
30
0
41
1
10
9.9441775497919
20
-1.13982033285919
30
0
41
1
10
9.97131463565202
20
-1.21241672632749
30
0
41
1
10
9.98459330230071
20
-1.24820796559763
30
0
41
1
10
9.99757645458911
20
-1.28332340598666
30
0
0
SPLINE
5
135
100
AcDbEntity
8
1
62
256
6
ByLayer
370
18
48
1
60
0
100
AcDbSpline
70
4
71
3
72
8
73
4
40
0
40
0
40
0
40
0
40
1
40
1
40
1
40
1
41
1
10
10
20
-1.2853863683448
30
0
41
1
10
9.99919206241955
20
-1.28469911505863
30
0
41
1
10
9.99838421438403
20
-1.28401146059105
30
0
41
1
10
9.99757645458899
20
-1.28332340598672
30
0
0
SPLINE
5
136
100
AcDbEntity
8
1
62
256
6
ByLayer
370
18
48
1
60
0
100
AcDbSpline
70
4
71
3
72
10
73
6
40
0
40
0
40
0
40
0
40
0.5
40
0.5
40
1
40
1
40
1
40
1
41
1
10
10
20
-1.2853863683448
30
0
41
1
10
10.0920380468584
20
-1.36367638951123
30
0
41
1
10
10.1832090424214
20
-1.43637013936947
30
0
41
1
10
10.3649209680071
20
-1.56999296227968
30
0
41
1
10
10.4554703842138
20
-1.63085913781694
30
0
41
1
10
10.5463376238881
20
-1.68542610230443
30
0
0
SPLINE
5
137
100
AcDbEntity
8
1
62
256
6
ByLayer
370
18
48
1
60
0
100
AcDbSpline
70
4
71
3
72
9
73
5
40
0
40
0
40
0
40
0
40
0.552493445716297
40
1
40
1
40
1
40
1
41
1
10
10.546337623888
20
-1.68542610230435
30
0
41
1
10
10.6400282978957
20
-1.74154008174196
30
0
41
1
10
10.8096344160676
20
-1.83072561717361
30
0
41
1
10
10.9796401286471
20
-1.8956478835978
30
0
41
1
10
11.0557109637537
20
-1.91952043727434
30
0
0
SPLINE
5
138
100
AcDbEntity
8
1
62
256
6
ByLayer
370
18
48
1
60
0
100
AcDbSpline
70
4
71
3
72
29
73
25
40
0
40
0
40
0
40
0
40
0.0514479273996539
40
0.102329839902431
40
0.15264425817619
40
0.202389835455045
40
0.251565354756457
40
0.300169725829028
40
0.34820198185961
40
0.395661275966103
40
0.442546877501431
40
0.488858168192999
40
0.534594638139994
40
0.579755881690472
40
0.624341593391263
40
0.668352148416513
40
0.711789804763083
40
0.75465704254622
40
0.796956171397215
40
0.838689337873834
40
0.879858532647639
40
0.920465597471994
40
0.960512231934874
40
1
40
1
40
1
40
1
41
1
10
11.0557109637539
20
-1.9195204372744
30
0
41
1
10
11.0627936082383
20
-1.92171075174059
30
0
41
1
10
11.0768809760451
20
-1.92606728348036
30
0
41
1
10
11.0978958250425
20
-1.93223161563358
30
0
41
1
10
11.1186772697485
20
-1.93808661207874
30
0
41
1
10
11.1392250014058
20
-1.94361571060867
30
0
41
1
10
11.1595386824742
20
-1.94883232751491
30
0
41
1
10
11.1796180147864
20
-1.95374197827235
30
0
41
1
10
11.1994627207016
20
-1.9583522528213
30
0
41
1
10
11.2190725471597
20
-1.96267018525157
30
0
41
1
10
11.2384472638068
20
-1.96670294306378
30
0
41
1
10
11.2575866623478
20
-1.9704576431804
30
0
41
1
10
11.2764905568367
20
-1.97394139515475
30
0
41
1
10
11.2951587791663
20
-1.97716129452121
30
0
41
1
10
11.3135912732108
20
-1.98012440601704
30
0
41
1
10
11.3317882888672
20
-1.9828379047955
30
0
41
1
10
11.3497498676561
20
-1.98531043644687
30
0
41
1
10
11.3674763983828
20
-1.9875504507111
30
0
41
1
10
11.3849682932691
20
-1.98956638530763
30
0
41
1
10
11.4022259374768
20
-1.99136611902068
30
0
41
1
10
11.4192497122936
20
-1.99295886950594
30
0
41
1
10
11.4360399039749
20
-1.99434828288707
30
0
41
1
10
11.4525970428317
20
-1.99555769883136
30
0
41
1
10
11.4635563347301
20
-1.99621572691731
30
0
41
1
10
11.4689974767125
20
-1.996542429069
30
0
0
SPLINE
5
139
100
AcDbEntity
8
1
62
256
6
ByLayer
370
18
48
1
60
0
100
AcDbSpline
70
4
71
3
72
9
73
5
40
0
40
0
40
0
40
0
40
0.838714506576209
40
1
40
1
40
1
40
1
41
1
10
11.4689974767091
20
-1.9965424290688
30
0
41
1
10
11.5780126796482
20
-2.00269979797494
30
0
41
1
10
11.7079014646287
20
-1.99676303181516
30
0
41
1
10
11.8381130545893
20
-1.9759283015388
30
0
41
1
10
11.8591210545405
20
-1.972180553116
30
0
0
SPLINE
5
13A
100
AcDbEntity
8
1
62
256
6
ByLayer
370
18
48
1
60
0
100
AcDbSpline
70
4
71
3
72
63
73
59
40
0
40
0
40
0
40
0
40
0.0095085787414009
40
0.0255372215005171
40
0.041558289440202
40
0.0575716230238224
40
0.0735770587966025
40
0.0895744298978639
40
0.105563566567797
40
0.121544296648621
40
0.137516446080393
40
0.153479839391561
40
0.169434300184358
40
0.18537965161517
40
0.20131571686996
40
0.217242319634916
40
0.233159284562433
40
0.249066437732463
40
0.264963607109493
40
0.280850647635212
40
0.296727562645601
40
0.312594405244725
40
0.328451222427538
40
0.34429805536946
40
0.360134939809631
40
0.367177203988499
40
0.374992068987156
40
0.383579473643868
40
0.392939351890899
40
0.403071633197491
40
0.413976242862671
40
0.425653102184274
40
0.438102128519244
40
0.451323235247711
40
0.46531633165516
40
0.480081322752309
40
0.495618109059989
40
0.511926586395952
40
0.529006645712477
40
0.546858173046985
40
0.565481049663537
40
0.584875152480418
40
0.60504035489869
40
0.625976528167606
40
0.647683543447101
40
0.670161274752975
40
0.693409602998712
40
0.717428421378643
40
0.742217642370083
40
0.767777206667566
40
0.794107094400659
40
0.821207339027465
40
0.849078044339136
40
0.877719405056855
40
0.907131731550774
40
0.937315479261083
40
0.968271283454057
40
1
40
1
40
1
40
1
41
1
10
15.8223568606721
20
1.41970172605375
30
0
41
1
10
15.8263173895886
20
1.42277629253326
30
0
41
1
10
15.8369541379443
20
1.43100597081272
30
0
41
1
10
15.8542637802107
20
1.44427690954248
30
0
41
1
10
15.8742826208237
20
1.45944669958556
30
0
41
1
10
15.894291823209
20
1.47442934803647
30
0
41
1
10
15.9142913443194
20
1.48922331075863
30
0
41
1
10
15.9342811410929
20
1.50382705055003
30
0
41
1
10
15.9542611704397
20
1.51823903713549
30
0
41
1
10
15.9742313892293
20
1.53245774715853
30
0
41
1
10
15.9941917542771
20
1.54648166417408
30
0
41
1
10
16.014142222332
20
1.56030927863873
30
0
41
1
10
16.034082750062
20
1.57393908790965
30
0
41
1
10
16.0540132940463
20
1.58736959621103
30
0
41
1
10
16.0739338107449
20
1.60059931472253
30
0
41
1
10
16.0938442565512
20
1.61362676121163
30
0
41
1
10
16.1137445875344
20
1.62645046136723
30
0
41
1
10
16.1336347603429
20
1.63906894379019
30
0
41
1
10
16.1535147390451
20
1.65148076504644
30
0
41
1
10
16.1733845685716
20
1.66368447684229
30
0
41
1
10
16.1932442000932
20
1.67567934910053
30
0
41
1
10
16.2130935248746
20
1.68746489207183
30
0
41
1
10
16.2329329089694
20
1.69904028618745
30
0
41
1
10
16.2527610621268
20
1.71040592532663
30
0
41
1
10
16.2689178211867
20
1.71949575628042
30
0
41
1
10
16.2817179535105
20
1.72660958964229
30
0
41
1
10
16.2914857866579
20
1.73200272906396
30
0
41
1
10
16.3022132922119
20
1.73787586971235
30
0
41
1
10
16.313899722189
20
1.74421295314679
30
0
41
1
10
16.3265452423504
20
1.75099566413306
30
0
41
1
10
16.3401497400195
20
1.75820429427031
30
0
41
1
10
16.3547131873807
20
1.76581745075134
30
0
41
1
10
16.370235531479
20
1.77381211433013
30
0
41
1
10
16.3867167272249
20
1.78216358960978
30
0
41
1
10
16.4041567278457
20
1.79084548522528
30
0
41
1
10
16.4225554881056
20
1.79982968292151
30
0
41
1
10
16.4419129638678
20
1.80908630771381
30
0
41
1
10
16.462229112814
20
1.81858369557358
30
0
41
1
10
16.4835038948986
20
1.82828835970648
30
0
41
1
10
16.5057372729412
20
1.83816495513429
30
0
41
1
10
16.5289292132358
20
1.84817624168585
30
0
41
1
10
16.5530796862071
20
1.85828304538609
30
0
41
1
10
16.5781886671021
20
1.86844421826723
30
0
41
1
10
16.6042561367187
20
1.87861659661124
30
0
41
1
10
16.6312820821694
20
1.88875495765595
30
0
41
1
10
16.6592664976795
20
1.89881197471399
30
0
41
1
10
16.6882093854194
20
1.90873817098137
30
0
41
1
10
16.718110756368
20
1.9184818710261
30
0
41
1
10
16.7489706312215
20
1.92798915399251
30
0
41
1
10
16.7807890412861
20
1.93720379280145
30
0
41
1
10
16.8135660295952
20
1.94606724086916
30
0
41
1
10
16.8473016513078
20
1.95451842627932
30
0
41
1
10
16.8819959770675
20
1.96249428932472
30
0
41
1
10
16.9176490849914
20
1.96992741950629
30
0
41
1
10
16.954261097014
20
1.97675496329677
30
0
41
1
10
16.9918320431081
20
1.98288375007704
30
0
41
1
10
17.0303623934793
20
1.98832528612019
30
0
41
1
10
17.056367177306
20
1.99118794712527
30
0
41
1
10
17.0695298912447
20
1.99263692621176
30
0
0
SPLINE
5
13B
100
AcDbEntity
8
1
62
256
6
ByLayer
370
18
48
1
60
0
100
AcDbSpline
70
4
71
3
72
10
73
6
40
0
40
0
40
0
40
0
40
0.0535014952258397
40
0.994226304769869
40
1
40
1
40
1
40
1
41
1
10
17.0695298909485
20
1.99263692618172
30
0
41
1
10
17.0878851877665
20
1.99449788775169
30
0
41
1
10
17.4289865482643
20
2.02320495885883
30
0
41
1
10
17.7721269042677
20
1.94107244448563
30
0
41
1
10
18.0969756769734
20
1.77359056777047
30
0
41
1
10
18.0989572756263
20
1.77256558800457
30
0
0
SPLINE
5
13C
100
AcDbEntity
8
1
62
256
6
ByLayer
370
18
48
1
60
0
100
AcDbSpline
70
4
71
3
72
8
73
4
40
0
40
0
40
0
40
0
40
1
40
1
40
1
40
1
41
1
10
20.8401124347454
20
-0.120449877467053
30
0
41
1
10
20.8245477774896
20
-0.11927930480806
30
0
41
1
10
20.807175240623
20
-0.114485548696791
30
0
41
1
10
20.7880505237437
20
-0.106142959833505
30
0
0
SPLINE
5
13D
100
AcDbEntity
8
1
62
256
6
ByLayer
370
13
48
1
60
0
100
AcDbSpline
70
4
71
3
72
8
73
4
40
0
40
0
40
0
40
0
40
1
40
1
40
1
40
1
41
1
10
20.8401124347436
20
-0.120449877466484
30
0
41
1
10
20.567020636174
20
0.152733605388761
30
0
41
1
10
20.2939288376043
20
0.429241577794869
30
0
41
1
10
20.0208370390347
20
0.682561657289597
30
0
0
SPLINE
5
13E
100
AcDbEntity
8
1
62
256
6
ByLayer
370
13
48
1
60
0
100
AcDbSpline
70
4
71
3
72
11
73
7
40
0
40
0
40
0
40
0
40
0.0873014702205607
40
0.31547610266542
40
0.54365073511028
40
1
40
1
40
1
40
1
41
1
10
13.0130430917474
20
-1.63797488983389
30
0
41
1
10
12.925362061165
20
-1.67488628738624
30
0
41
1
10
12.6085143639158
20
-1.78734895552805
30
0
41
1
10
12.0625
20
-1.84095410151562
30
0
41
1
10
11.1458333333333
20
-1.57545805108143
30
0
41
1
10
10.4583333333333
20
-1.02549199307975
30
0
41
1
10
10
20
-0.584073075226456
30
0
0
SPLINE
5
13F
100
AcDbEntity
8
1
62
256
6
ByLayer
370
18
48
1
60
0
100
AcDbSpline
70
4
71
3
72
34
73
30
40
0
40
0
40
0
40
0
40
0.126976048076144
40
0.126976048076144
40
0.253952096152288
40
0.253952096152288
40
0.285696108171326
40
0.285696108171326
40
0.317440120190364
40
0.317440120190364
40
0.380928144228439
40
0.380928144228439
40
0.50790419230459
40
0.50790419230459
40
0.571392216342666
40
0.571392216342666
40
0.603136228361704
40
0.603136228361704
40
0.634880240380742
40
0.634880240380742
40
0.761856288456889
40
0.761856288456889
40
0.888832336533037
40
0.888832336533037
40
0.920576348552075
40
0.920576348552075
40
0.952320360571112
40
0.952320360571112
40
1
40
1
40
1
40
1
41
1
10
20.7880505237437
20
-0.106142959833534
30
0
41
1
10
20.6755376750326
20
0.0117543681279528
30
0
41
1
10
20.5632841277795
20
0.129153370864543
30
0
41
1
10
20.3385351256853
20
0.362130015398037
30
0
41
1
10
20.2260571710968
20
0.477722960863645
30
0
41
1
10
20.0841492202809
20
0.619811199101548
30
0
41
1
10
20.055638713883
20
0.648163562468426
30
0
41
1
10
19.9989199028033
20
0.704098412269957
30
0
41
1
10
19.9706730895497
20
0.731719773905013
30
0
41
1
10
19.8861886354922
20
0.813517532521672
30
0
41
1
10
19.8302047122268
20
0.866627676725273
30
0
41
1
10
19.6627097465158
20
1.02147226888624
30
0
41
1
10
19.551626523261
20
1.11873276444516
30
0
41
1
10
19.3842280850756
20
1.25468591606338
30
0
41
1
10
19.3283059173746
20
1.29834384500492
30
0
41
1
10
19.2440385196535
20
1.36114884664366
30
0
41
1
10
19.2158852082901
20
1.38163623940346
30
0
41
1
10
19.159414300235
20
1.4216754381564
30
0
41
1
10
19.1310382529313
20
1.44126580374115
30
0
41
1
10
18.9894975775623
20
1.53620103638932
30
0
41
1
10
18.877433282809
20
1.60242600823406
30
0
41
1
10
18.653380623391
20
1.71575191627431
30
0
41
1
10
18.541437425685
20
1.76287846934238
30
0
41
1
10
18.4003721542569
20
1.80927894859948
30
0
41
1
10
18.372101818681
20
1.8179300354247
30
0
41
1
10
18.3154129119758
20
1.83394432742622
30
0
41
1
10
18.2869901263469
20
1.84130531978923
30
0
41
1
10
18.2161741583551
20
1.85795751082489
30
0
41
1
10
18.1738119678251
20
1.86639971519659
30
0
41
1
10
18.1315468008261
20
1.87328518138975
30
0
0
SPLINE
5
140
100
AcDbEntity
8
1
62
256
6
ByLayer
370
18
48
1
60
0
100
AcDbSpline
70
4
71
3
72
48
73
44
40
0
40
0
40
0
40
0
40
0.0816326932776974
40
0.0816326932776974
40
0.107142896242208
40
0.107142896242208
40
0.13265309920672
40
0.13265309920672
40
0.183673505135739
40
0.183673505135739
40
0.285714316993774
40
0.285714316993774
40
0.336734722922794
40
0.336734722922794
40
0.362244925887304
40
0.362244925887304
40
0.387755128851813
40
0.387755128851813
40
0.438775534780829
40
0.438775534780829
40
0.489795940709846
40
0.489795940709846
40
0.540816346638862
40
0.540816346638862
40
0.591836752567878
40
0.591836752567878
40
0.617346955532385
40
0.617346955532385
40
0.642857158496892
40
0.642857158496892
40
0.693877564425905
40
0.693877564425905
40
0.744897970354919
40
0.744897970354919
40
0.795918376283932
40
0.795918376283932
40
0.846938782212945
40
0.846938782212945
40
0.872448985177453
40
0.872448985177453
40
0.897959188141962
40
0.897959188141962
40
1
40
1
40
1
40
1
41
1
10
13.3001240546091
20
-1.55296721972917
30
0
41
1
10
13.2109314984632
20
-1.60661416955861
30
0
41
1
10
13.1217657747581
20
-1.65430797526309
30
0
41
1
10
13.0039899642551
20
-1.70866481806991
30
0
41
1
10
12.9758912565087
20
-1.72099648521024
30
0
41
1
10
12.9195413813797
20
-1.74442145194416
30
0
41
1
10
12.8912514303269
20
-1.75552720943023
30
0
41
1
10
12.8066871942825
20
-1.78675020853188
30
0
41
1
10
12.7505545667862
20
-1.80484908400379
30
0
41
1
10
12.5824560259678
20
-1.85124779206186
30
0
41
1
10
12.4708021487661
20
-1.87167951268552
30
0
41
1
10
12.3025244536699
20
-1.88703427519911
30
0
41
1
10
12.2462995715075
20
-1.88960138663313
30
0
41
1
10
12.1615968210088
20
-1.88958937928601
30
0
41
1
10
12.1333019063548
20
-1.88893966334001
30
0
41
1
10
12.0765637622295
20
-1.88631404524773
30
0
41
1
10
12.048151848031
20
-1.88433699964881
30
0
41
1
10
11.9632771423525
20
-1.87641412175347
30
0
41
1
10
11.9069862250021
20
-1.8684771250218
30
0
41
1
10
11.7948635316055
20
-1.84696948993863
30
0
41
1
10
11.7390443849532
20
-1.83333530197373
30
0
41
1
10
11.6275894633467
20
-1.80032094750769
30
0
41
1
10
11.5719458188499
20
-1.78096460079448
30
0
41
1
10
11.4604609335345
20
-1.73692686259608
30
0
41
1
10
11.4046172284789
20
-1.71224615097313
30
0
41
1
10
11.3204531150575
20
-1.67165587017794
30
0
41
1
10
11.2923327095269
20
-1.65753811368543
30
0
41
1
10
11.2359355210448
20
-1.62815704788514
30
0
41
1
10
11.2076114450921
20
-1.6128623253305
30
0
41
1
10
11.1227481168993
20
-1.5654285144096
30
0
41
1
10
11.0664233536829
20
-1.53181269271019
30
0
41
1
10
10.9541333675296
20
-1.46056708495766
30
0
41
1
10
10.8981696634162
20
-1.42293568049294
30
0
41
1
10
10.7864385498343
20
-1.34347824328444
30
0
41
1
10
10.7306733143929
20
-1.30162817576803
30
0
41
1
10
10.6190273889618
20
-1.21394384021042
30
0
41
1
10
10.5631462339132
20
-1.16811200890049
30
0
41
1
10
10.4790135705986
20
-1.09654349537524
30
0
41
1
10
10.4509176877924
20
-1.07221675530136
30
0
41
1
10
10.3945871162125
20
-1.02264359016709
30
0
41
1
10
10.3663125214894
20
-0.997360525229738
30
0
41
1
10
10.225153560347
20
-0.86928007532677
30
0
41
1
10
10.1127384744779
20
-0.761468586024819
30
0
41
1
10
10
20
-0.649065559261942
30
0
0
SPLINE
5
141
100
AcDbEntity
8
1
62
256
6
ByLayer
370
18
48
1
60
0
100
AcDbSpline
70
4
71
3
72
8
73
4
40
0
40
0
40
0
40
0
40
1
40
1
40
1
40
1
41
1
10
20.8401124347454
20
-1.49993036964801
30
0
41
1
10
20.8245477783743
20
-1.52690908881823
30
0
41
1
10
20.8071752417016
20
-1.55411857690021
30
0
41
1
10
20.7880505237437
20
-1.5815641572045
30
0
0
SPLINE
5
142
100
AcDbEntity
8
1
62
256
6
ByLayer
370
13
48
1
60
0
100
AcDbSpline
70
4
71
3
72
8
73
4
40
0
40
0
40
0
40
0
40
1
40
1
40
1
40
1
41
1
10
20.8401124347436
20
-1.49993036964986
30
0
41
1
10
20.7926305293024
20
-1.52654371957303
30
0
41
1
10
20.7451486238611
20
-1.5514806443858
30
0
41
1
10
20.6976667184199
20
-1.57471404090711
30
0
0
SPLINE
5
143
100
AcDbEntity
8
1
62
256
6
ByLayer
370
13
48
1
60
0
100
AcDbSpline
70
4
71
3
72
12
73
8
40
0
40
0
40
0
40
0
40
0.206303818421309
40
0.36802335917632
40
0.610602670308836
40
0.853181981441352
40
1
40
1
40
1
40
1
41
1
10
20.5020360990545
20
-1.66072865686394
30
0
41
1
10
20.209690732703
20
-1.77465213331942
30
0
41
1
10
19.6881786996848
20
-1.86016163649927
30
0
41
1
10
18.8229166666667
20
-1.62022275573159
30
0
41
1
10
17.90625
20
-0.96835357639813
30
0
41
1
10
17.0106997188614
20
-0.0603638053640907
30
0
41
1
10
16.4588994377227
20
0.488354468597123
30
0
41
1
10
16.2508491565841
20
0.681603611316547
30
0
0
SPLINE
5
144
100
AcDbEntity
8
1
62
256
6
ByLayer
370
18
48
1
60
0
100
AcDbSpline
70
4
71
3
72
81
73
77
40
0
40
0
40
0
40
0
40
0.0524205155456493
40
0.0524205155456493
40
0.104841031091299
40
0.104841031091299
40
0.117946159977712
40
0.117946159977712
40
0.131051288864125
40
0.131051288864125
40
0.157261546636952
40
0.157261546636952
40
0.209682062182608
40
0.209682062182608
40
0.235892319955435
40
0.235892319955435
40
0.248997448841849
40
0.248997448841849
40
0.262102577728263
40
0.262102577728263
40
0.314523093273922
40
0.314523093273922
40
0.36694360881958
40
0.36694360881958
40
0.380048737705994
40
0.380048737705994
40
0.393153866592409
40
0.393153866592409
40
0.419364124365237
40
0.419364124365237
40
0.471784639910892
40
0.471784639910892
40
0.49799489768372
40
0.49799489768372
40
0.511100026570132
40
0.511100026570132
40
0.524205155456545
40
0.524205155456545
40
0.576625671002193
40
0.576625671002193
40
0.62904618654784
40
0.62904618654784
40
0.642151315434252
40
0.642151315434252
40
0.655256444320663
40
0.655256444320663
40
0.681466702093487
40
0.70767695986631
40
0.70767695986631
40
0.733887217639133
40
0.733887217639133
40
0.760097475411956
40
0.760097475411956
40
0.773202604298367
40
0.773202604298367
40
0.786307733184779
40
0.786307733184779
40
0.8125179909576
40
0.8125179909576
40
0.838728248730422
40
0.864938506503243
40
0.864938506503243
40
0.891148764276065
40
0.891148764276065
40
0.904253893162476
40
0.904253893162476
40
0.917359022048888
40
0.917359022048888
40
0.943569279821711
40
0.943569279821711
40
0.969779537594534
40
0.969779537594534
40
0.982884666480946
40
0.982884666480946
40
0.995989795367357
40
1
40
1
40
1
40
1
41
1
10
20.7880505237437
20
-1.58156415720452
30
0
41
1
10
20.6755378293964
20
-1.64632500941886
30
0
41
1
10
20.5632845274368
20
-1.70235925170229
30
0
41
1
10
20.3385362152609
20
-1.79554804536559
30
0
41
1
10
20.2260587044556
20
-1.83269200057129
30
0
41
1
10
20.0841514730236
20
-1.86505998658458
30
0
41
1
10
20.0556409989164
20
-1.87083379917411
30
0
41
1
10
19.9989218649719
20
-1.88081174922942
30
0
41
1
10
19.97067491485
20
-1.88502880277139
30
0
41
1
10
19.8861901192768
20
-1.89543436201564
30
0
41
1
10
19.8302060601229
20
-1.89938071039813
30
0
41
1
10
19.662710939253
20
-1.90267921655661
30
0
41
1
10
19.5516279453688
20
-1.89355405931778
30
0
41
1
10
19.384230341898
20
-1.86355604652962
30
0
41
1
10
19.3283085352686
20
-1.85082301856653
30
0
41
1
10
19.2440418118329
20
-1.82757809231507
30
0
41
1
10
19.2158887474115
20
-1.8191380135458
30
0
41
1
10
19.1594183799031
20
-1.80085597504061
30
0
41
1
10
19.1310426582495
20
-1.79099150649975
30
0
41
1
10
18.9895006629099
20
-1.73842065866435
30
0
41
1
10
18.8774357898584
20
-1.68605543883768
30
0
41
1
10
18.6533828024761
20
-1.5631216076182
30
0
41
1
10
18.5414398561892
20
-1.4925351722257
30
0
41
1
10
18.4003754410371
20
-1.39350243884385
30
0
41
1
10
18.3721053041922
20
-1.37315290802619
30
0
41
1
10
18.3154168520597
20
-1.33137096246148
30
0
41
1
10
18.2869938019238
20
-1.30993267818258
30
0
41
1
10
18.2020819419971
20
-1.24449187496262
30
0
41
1
10
18.1457402528169
20
-1.19921338522534
30
0
41
1
10
17.9771380348183
20
-1.05872827096584
30
0
41
1
10
17.8652548696239
20
-0.958948123468701
30
0
41
1
10
17.6968219016187
20
-0.801355611418899
30
0
41
1
10
17.6405860631442
20
-0.747487104853377
30
0
41
1
10
17.5559214202171
20
-0.664761699172033
30
0
41
1
10
17.5276477138899
20
-0.636865927003186
30
0
41
1
10
17.4709621688783
20
-0.580445263084471
30
0
41
1
10
17.4425229607279
20
-0.55189176168912
30
0
41
1
10
17.3010267185509
20
-0.408741760894003
30
0
41
1
10
17.1892301690572
20
-0.292143422116339
30
0
41
1
10
16.9661315168609
20
-0.0569418175966234
30
0
41
1
10
16.8547247336981
20
0.06154923502217
30
0
41
1
10
16.7141115149693
20
0.209247668105746
30
0
41
1
10
16.6859244922418
20
0.23877002732533
30
0
41
1
10
16.6293902650427
20
0.297749371776462
30
0
41
1
10
16.6010102146211
20
0.327239896635575
30
0
41
1
10
16.5161631614343
20
0.414968750992216
30
0
41
1
10
16.4034734082377
20
0.530317533345311
30
0
41
1
10
16.2911499413385
20
0.642114880245543
30
0
41
1
10
16.1787817125986
20
0.751968370633563
30
0
41
1
10
16.1225727101196
20
0.80592890766718
30
0
41
1
10
16.0099141130594
20
0.911676743971924
30
0
41
1
10
15.9534690185271
20
0.963461822698093
30
0
41
1
10
15.8684644256666
20
1.03922024505147
30
0
41
1
10
15.8400725323271
20
1.06415195988765
30
0
41
1
10
15.7831426937936
20
1.11331395051786
30
0
41
1
10
15.7547148401938
20
1.13744899132266
30
0
41
1
10
15.6698330517876
20
1.20816934183853
30
0
41
1
10
15.6136669429086
20
1.25314426628461
30
0
41
1
10
15.5017799913819
20
1.33870959999433
30
0
41
1
10
15.3903172343983
20
1.41992823198436
30
0
41
1
10
15.2789017889118
20
1.4926912415153
30
0
41
1
10
15.1671835840162
20
1.56137355319925
30
0
41
1
10
15.1111714395733
20
1.59369702365362
30
0
41
1
10
15.0267614262794
20
1.63907133716435
30
0
41
1
10
14.9985598184469
20
1.65367562219234
30
0
41
1
10
14.9420006093263
20
1.6818150024713
30
0
41
1
10
14.9136081995171
20
1.6953652174337
30
0
41
1
10
14.8285392696487
20
1.73418840762795
30
0
41
1
10
14.7719055483346
20
1.75767571518344
30
0
41
1
10
14.6586353080967
20
1.79968602661691
30
0
41
1
10
14.6020016338635
20
1.818208938304
30
0
41
1
10
14.5169039933463
20
1.84204178386463
30
0
41
1
10
14.48849674766
20
1.84932823599908
30
0
41
1
10
14.4319194733496
20
1.86246651627218
30
0
41
1
10
14.3950795695109
20
1.87012380206505
30
0
41
1
10
14.3583524051527
20
1.87655988525938
30
0
41
1
10
14.3497527642243
20
1.87800046288353
30
0
0
SPLINE
5
145
100
AcDbEntity
8
1
62
256
6
ByLayer
370
18
48
1
60
0
100
AcDbSpline
70
4
71
3
72
12
73
8
40
0
40
0
40
0
40
0
40
0.5
40
0.5
40
0.75
40
0.75
40
1
40
1
40
1
40
1
41
1
10
20.4842775898372
20
1.91816634895474
30
0
41
1
10
20.5182429780154
20
1.91234413662411
30
0
41
1
10
20.5514447121344
20
1.90173770068262
30
0
41
1
10
20.6006586227291
20
1.87917624638226
30
0
41
1
10
20.6169542458645
20
1.87049943937512
30
0
41
1
10
20.6493952980821
20
1.8507904036228
30
0
41
1
10
20.6655475916595
20
1.83978833572078
30
0
41
1
10
20.6814459801372
20
1.827695404455
30
0
0
SPLINE
5
146
100
AcDbEntity
8
1
62
256
6
ByLayer
370
18
48
1
60
0
100
AcDbSpline
70
4
71
3
72
38
73
34
40
0
40
0
40
0
40
0
40
0.0212594037841206
40
0.0795852102846389
40
0.10281058854492
40
0.126643248997369
40
0.151083177278601
40
0.17613035969549
40
0.201784785357441
40
0.228046448967693
40
0.254915354378088
40
0.282391519021873
40
0.31047497934888
40
0.339165797398457
40
0.36846406865682
40
0.398369931356753
40
0.428883577390433
40
0.460005265017949
40
0.491735333567612
40
0.524074220337019
40
0.557022479757483
40
0.59058069079284
40
0.624749176737004
40
0.659528142551473
40
0.694917710244584
40
0.730917912997991
40
0.767528690642947
40
0.804749886749527
40
0.842581247611893
40
0.88102242343521
40
0.92007297205263
40
0.959732365524763
40
1
40
1
40
1
40
1
41
1
10
19.4706206606477
20
1.32135314211052
30
0
41
1
10
19.477803040101
20
1.32733035768038
30
0
41
1
10
19.5046910852297
20
1.34958882352396
30
0
41
1
10
19.5394294571701
20
1.37776741623207
30
0
41
1
10
19.5750586106366
20
1.40601146523906
30
0
41
1
10
19.599227436986
20
1.42493122477234
30
0
41
1
10
19.6240115783012
20
1.44407117623632
30
0
41
1
10
19.6494101410944
20
1.46340851490197
30
0
41
1
10
19.6754233831256
20
1.48291831437732
30
0
41
1
10
19.7020512422562
20
1.50257484726978
30
0
41
1
10
19.7292937455135
20
1.52235117260608
30
0
41
1
10
19.7571508954993
20
1.54221920398604
30
0
41
1
10
19.7856227019628
20
1.5621496431404
30
0
41
1
10
19.8147091730965
20
1.58211194978679
30
0
41
1
10
19.8444103180015
20
1.60207430026645
30
0
41
1
10
19.8747261460808
20
1.6220035485259
30
0
41
1
10
19.9056566672201
20
1.64186518418188
30
0
41
1
10
19.937201892021
20
1.66162329490803
30
0
41
1
10
19.9693618310097
20
1.68124050890765
30
0
41
1
10
20.0021364979782
20
1.70067800956917
30
0
41
1
10
20.0355258585028
20
1.71989524651349
30
0
41
1
10
20.0695297383513
20
1.73885068262118
30
0
41
1
10
20.1041482545231
20
1.75750658323491
30
0
41
1
10
20.1393814239583
20
1.77582364457189
30
0
41
1
10
20.1752292566197
20
1.79376156368647
30
0
41
1
10
20.2116917617714
20
1.81127891314887
30
0
41
1
10
20.2487689502959
20
1.82833299446722
30
0
41
1
10
20.2864608343811
20
1.84488044462958
30
0
41
1
10
20.3247674271556
20
1.860874765734
30
0
41
1
10
20.3636887453551
20
1.87627567284349
30
0
41
1
10
20.4032247996839
20
1.89101324760151
30
0
41
1
10
20.4433756324528
20
1.90512479021791
30
0
41
1
10
20.4703475553642
20
1.91379698825278
30
0
41
1
10
20.4839361443657
20
1.91816608478413
30
0
0
SPLINE
5
147
100
AcDbEntity
8
1
62
256
6
ByLayer
370
18
48
1
60
0
100
AcDbSpline
70
4
71
3
72
15
73
11
40
0
40
0
40
0
40
0
40
0.130853225388434
40
0.2616393810824
40
0.392360095794449
40
0.523017014927025
40
0.653611803156773
40
0.784146147009546
40
0.914621757425767
40
1
40
1
40
1
40
1
41
1
10
15.4721208459801
20
-1.99567144484484
30
0
41
1
10
15.4788532944625
20
-1.99510043186396
30
0
41
1
10
15.4923147406658
20
-1.99395869857875
30
0
41
1
10
15.5125028959145
20
-1.99192568365686
30
0
41
1
10
15.5326814725762
20
-1.98965922237713
30
0
41
1
10
15.552850602522
20
-1.98713676096764
30
0
41
1
10
15.5730103005735
20
-1.9843649491084
30
0
41
1
10
15.5931606128701
20
-1.98134261563959
30
0
41
1
10
15.6109840241083
20
-1.97844717273097
30
0
41
1
10
15.6220905547046
20
-1.97652844181343
30
0
41
1
10
15.6264835540225
20
-1.97575162261364
30
0
0
SPLINE
5
148
100
AcDbEntity
8
1
62
256
6
ByLayer
370
18
48
1
60
0
100
AcDbSpline
70
4
71
3
72
8
73
4
40
0
40
0
40
0
40
0
40
1
40
1
40
1
40
1
41
1
10
15.28748739132
20
-2.00005035239479
30
0
41
1
10
15.3490260585929
20
-2.00213263961362
30
0
41
1
10
15.410509143052
20
-2.00067405948346
30
0
41
1
10
15.4721208459807
20
-1.99567144484479
30
0
0
SPLINE
5
149
100
AcDbEntity
8
1
62
256
6
ByLayer
370
18
48
1
60
0
100
AcDbSpline
70
4
71
3
72
97
73
93
40
0
40
0
40
0
40
0
40
0.0067489883087879
40
0.013406051609799
40
0.019971052258945
40
0.0264438751731008
40
0.0328244270082768
40
0.039112701639866
40
0.0453088345678458
40
0.0514129674518989
40
0.057425231158087
40
0.0633457465657614
40
0.0691746253186862
40
0.0749119705235276
40
0.0805578773988679
40
0.0861124338775617
40
0.0915757211654005
40
0.0969478142586782
40
0.102228782423288
40
0.107418689637832
40
0.112517595003038
40
0.117525553119824
40
0.122442614438013
40
0.127268825577803
40
0.132004229625929
40
0.136648866408228
40
0.141202772740427
40
0.145665982658711
40
0.150038527631629
40
0.154320436754753
40
0.158511736929451
40
0.16261245302705
40
0.166622608039544
40
0.170542223217984
40
0.174371318199593
40
0.178109911124526
40
0.181758018743219
40
0.185315656515135
40
0.188782838699683
40
0.192159578439997
40
0.195445887840308
40
0.198641778037374
40
0.201747259266686
40
0.2047623409238
40
0.207687031621367
40
0.210521339242205
40
0.213265270988839
40
0.215918833429809
40
0.218482032543075
40
0.220954873756785
40
0.223337361987646
40
0.225629501677091
40
0.22783129682547
40
0.229942751024384
40
0.231963867487335
40
0.233894649078776
40
0.235735098341711
40
0.237485217523868
40
0.239145008602581
40
0.240714473308372
40
0.242193613147344
40
0.243582429422366
40
0.244880923253101
40
0.24608909559494
40
0.247206947256781
40
0.248234478917802
40
0.249171691143155
40
0.250018584398777
40
0.300027441707328
40
0.350026442583158
40
0.400031044057083
40
0.45003955500222
40
0.500042411412998
40
0.518353871736301
40
0.562460780591548
40
0.607967200379244
40
0.625350438357099
40
0.656510174613492
40
0.687677522946017
40
0.718855016675086
40
0.750042511864238
40
0.785448735703494
40
0.818325265933417
40
0.848666344404902
40
0.876468166605049
40
0.901728994953146
40
0.924448859949712
40
0.944629078757499
40
0.962271742994611
40
0.977379317478909
40
0.989954643397381
40
1
40
1
40
1
40
1
41
1
10
12.1838208767957
20
0.363803867241529
30
0
41
1
10
12.1908003444481
20
0.356176337930947
30
0
41
1
10
12.2046642154871
20
0.341025170539012
30
0
41
1
10
12.2253200165433
20
0.318396864328093
30
0
41
1
10
12.2456924351012
20
0.296044328538187
30
0
41
1
10
12.2657813866843
20
0.273968179301704
30
0
41
1
10
12.285586684692
20
0.252174092795769
30
0
41
1
10
12.3051083346539
20
0.230665801319788
30
0
41
1
10
12.3243462696704
20
0.20944687524019
30
0
41
1
10
12.3433006413795
20
0.188520380768807
30
0
41
1
10
12.3619716006454
20
0.167889185965265
30
0
41
1
10
12.3803592950296
20
0.147555955715205
30
0
41
1
10
12.3984638648664
20
0.127523167120785
30
0
41
1
10
12.4162854445304
20
0.107793114087798
30
0
41
1
10
12.4338241623415
20
0.0883679146107283
30
0
41
1
10
12.451080140822
20
0.0692495172186227
30
0
41
1
10
12.4680534968588
20
0.0504397075092982
30
0
41
1
10
12.4847443418863
20
0.0319401145279983
30
0
41
1
10
12.5011527820604
20
0.0137522170549857
30
0
41
1
10
12.5172789184308
20
-0.0041226502147822
30
0
41
1
10
12.5331228471109
20
-0.0216832905958029
30
0
41
1
10
12.5486846594436
20
-0.0389286394405417
30
0
41
1
10
12.5639644421654
20
-0.0558577582723672
30
0
41
1
10
12.5789622775666
20
-0.0724698290232197
30
0
41
1
10
12.5936782436496
20
-0.0887641483749348
30
0
41
1
10
12.6081124142829
20
-0.104740122205641
30
0
41
1
10
12.6222648593539
20
-0.120397260139924
30
0
41
1
10
12.6361356449169
20
-0.135735170203503
30
0
41
1
10
12.64972483334
20
-0.150753553582149
30
0
41
1
10
12.6630324834477
20
-0.165452199484747
30
0
41
1
10
12.6760586506614
20
-0.179830980110694
30
0
41
1
10
12.6888033871364
20
-0.193889845721372
30
0
41
1
10
12.7012667418967
20
-0.207628819815966
30
0
41
1
10
12.7134487609659
20
-0.22104799441135
30
0
41
1
10
12.7253494874964
20
-0.234147525426039
30
0
41
1
10
12.7369689618944
20
-0.246927628168549
30
0
41
1
10
12.7483072219433
20
-0.259388572929595
30
0
41
1
10
12.7593643029228
20
-0.271530680678609
30
0
41
1
10
12.7701402377263
20
-0.283354318864184
30
0
41
1
10
12.7806350569749
20
-0.294859897318958
30
0
41
1
10
12.7908487891283
20
-0.306047864267924
30
0
41
1
10
12.8007814605928
20
-0.316918702441626
30
0
41
1
10
12.8104330958275
20
-0.327472925292653
30
0
41
1
10
12.8198037174456
20
-0.337711073316882
30
0
41
1
10
12.8288933463146
20
-0.347633710477964
30
0
41
1
10
12.837702001653
20
-0.35724142073667
30
0
41
1
10
12.8462297011236
20
-0.366534804683511
30
0
41
1
10
12.8544764609248
20
-0.375514476275896
30
0
41
1
10
12.8624422958785
20
-0.384181059678895
30
0
41
1
10
12.8701272195153
20
-0.39253518621021
30
0
41
1
10
12.8775312441571
20
-0.400577491388873
30
0
41
1
10
12.8846543809961
20
-0.408308612088121
30
0
41
1
10
12.8914966401722
20
-0.415729183791853
30
0
41
1
10
12.8980580308466
20
-0.422839837955138
30
0
41
1
10
12.9043385612737
20
-0.429641199468421
30
0
41
1
10
12.9103382388687
20
-0.436133884225654
30
0
41
1
10
12.9160570702754
20
-0.442318496795423
30
0
41
1
10
12.9214950614278
20
-0.448195628197283
30
0
41
1
10
12.9266522176164
20
-0.45376585377619
30
0
41
1
10
12.9315285435321
20
-0.459029731197262
30
0
41
1
10
12.9361240433793
20
-0.463987798484652
30
0
41
1
10
12.9404387207448
20
-0.468640572362006
30
0
41
1
10
12.944472579294
20
-0.472988546015358
30
0
41
1
10
12.9482256206782
20
-0.477032189248405
30
0
41
1
10
12.9516978517964
20
-0.480771941047607
30
0
41
1
10
12.9548892609886
20
-0.484208227796273
30
0
41
1
10
12.9577998965624
20
-0.487341397430441
30
0
41
1
10
13.011407891906
20
-0.545043088819142
30
0
41
1
10
13.1158049240908
20
-0.656225457357749
30
0
41
1
10
13.2710129176331
20
-0.816762519221641
30
0
41
1
10
13.4261240891309
20
-0.971285735006688
30
0
41
1
10
13.5811831641566
20
-1.11869150799836
30
0
41
1
10
13.7033467185904
20
-1.22864473048224
30
0
41
1
10
13.8196211442328
20
-1.32816669609903
30
0
41
1
10
13.9312992426144
20
-1.41940456612605
30
0
41
1
10
14.0420387658649
20
-1.5031343952742
30
0
41
1
10
14.1393639091481
20
-1.57217925239323
30
0
41
1
10
14.2218462424734
20
-1.6276458266972
30
0
41
1
10
14.3185837076212
20
-1.68781927169169
30
0
41
1
10
14.4153203914254
20
-1.74303204620901
30
0
41
1
10
14.5164087158044
20
-1.79544374137561
30
0
41
1
10
14.6192298851934
20
-1.84290836047279
30
0
41
1
10
14.7211591752579
20
-1.88389619137706
30
0
41
1
10
14.8152297193846
20
-1.91644391699876
30
0
41
1
10
14.9014409139826
20
-1.94174470201196
30
0
41
1
10
14.9797926396225
20
-1.96092385648532
30
0
41
1
10
15.050284810932
20
-1.97503202897875
30
0
41
1
10
15.1129176546104
20
-1.98503203036878
30
0
41
1
10
15.1676915950205
20
-1.99180987326423
30
0
41
1
10
15.2146080965842
20
-1.99611421456504
30
0
41
1
10
15.2536673602248
20
-1.99871360854124
30
0
41
1
10
15.2770871627714
20
-1.99963928117049
30
0
41
1
10
15.28748739132
20
-2.00005035239479
30
0
0
SPLINE
5
14A
100
AcDbEntity
8
1
62
256
6
ByLayer
370
18
48
1
60
0
100
AcDbSpline
70
4
71
3
72
9
73
5
40
0
40
0
40
0
40
0
40
0.458278876586694
40
1
40
1
40
1
40
1
41
1
10
11.4689974767153
20
1.09628188665297
30
0
41
1
10
11.5780126796523
20
0.995185314154554
30
0
41
1
10
11.8157273415501
20
0.761588932289271
30
0
41
1
10
12.0545232104658
20
0.505265503605273
30
0
41
1
10
12.1838208767958
20
0.363803867241444
30
0
0
SPLINE
5
14B
100
AcDbEntity
8
1
62
256
6
ByLayer
370
18
48
1
60
0
100
AcDbSpline
70
4
71
3
72
29
73
25
40
0
40
0
40
0
40
0
40
0.0514479273936972
40
0.102329839891079
40
0.152644258160008
40
0.202389835434622
40
0.251565354732333
40
0.300169725801787
40
0.348201981829823
40
0.395661275934312
40
0.442546877468236
40
0.488858168158971
40
0.534594638105676
40
0.579755881656459
40
0.624341593358103
40
0.668352148384757
40
0.711789804733327
40
0.754657042519006
40
0.796956171373146
40
0.838689337853474
40
0.879858532631498
40
0.92046559746067
40
0.960512231928924
40
1
40
1
40
1
40
1
41
1
10
11.0557109637976
20
1.44781380772466
30
0
41
1
10
11.0627936082806
20
1.44237303501964
30
0
41
1
10
11.0768809760845
20
1.43155134738342
30
0
41
1
10
11.0978958250778
20
1.41516018287436
30
0
41
1
10
11.1186772697799
20
1.3987767513905
30
0
41
1
10
11.1392250014336
20
1.38239188147034
30
0
41
1
10
11.1595386824986
20
1.36601873587716
30
0
41
1
10
11.1796180148077
20
1.3496642933647
30
0
41
1
10
11.19946272072
20
1.33333686726061
30
0
41
1
10
11.2190725471755
20
1.31704413131351
30
0
41
1
10
11.2384472638203
20
1.30079364537315
30
0
41
1
10
11.2575866623592
20
1.28459272304013
30
0
41
1
10
11.2764905568463
20
1.26844847165029
30
0
41
1
10
11.2951587791743
20
1.25236778980326
30
0
41
1
10
11.3135912732174
20
1.23635729507748
30
0
41
1
10
11.3317882888728
20
1.2204231424241
30
0
41
1
10
11.3497498676609
20
1.20457141167813
30
0
41
1
10
11.367476398387
20
1.18880770372823
30
0
41
1
10
11.3849682932729
20
1.1731374949855
30
0
41
1
10
11.4022259374807
20
1.15756589446519
30
0
41
1
10
11.4192497122976
20
1.14209869777278
30
0
41
1
10
11.4360399039795
20
1.12673855291501
30
0
41
1
10
11.452597042837
20
1.11149898859097
30
0
41
1
10
11.4635563347359
20
1.10133043675677
30
0
41
1
10
11.4689974767187
20
1.09628188664979
30
0
0
SPLINE
5
14C
100
AcDbEntity
8
1
62
256
6
ByLayer
370
18
48
1
60
0
100
AcDbSpline
70
4
71
3
72
9
73
5
40
0
40
0
40
0
40
0
40
0.552493445794332
40
1
40
1
40
1
40
1
41
1
10
10.5463376237455
20
1.77551417393889
30
0
41
1
10
10.6400282978007
20
1.72767407435936
30
0
41
1
10
10.8096344160345
20
1.62792916527573
30
0
41
1
10
10.9796401286762
20
1.5061387060718
30
0
41
1
10
11.0557109637975
20
1.4478138077248
30
0
0
SPLINE
5
14D
100
AcDbEntity
8
1
62
256
6
ByLayer
370
18
48
1
60
0
100
AcDbSpline
70
4
71
3
72
10
73
6
40
0
40
0
40
0
40
0
40
0.5
40
0.5
40
1
40
1
40
1
40
1
41
1
10
10
20
1.96876067877386
30
0
41
1
10
10.0920375143969
20
1.95102791335503
30
0
41
1
10
10.1832082511006
20
1.92593249461561
30
0
41
1
10
10.364920176838
20
1.86144223775446
30
0
41
1
10
10.4554698542677
20
1.8219826682064
30
0
41
1
10
10.5463376237455
20
1.77551417393886
30
0
0
SPLINE
5
14E
100
AcDbEntity
8
1
62
256
6
ByLayer
370
18
48
1
60
0
100
AcDbSpline
70
4
71
3
72
9
73
5
40
0
40
0
40
0
40
0
40
0.971142538365286
40
1
40
1
40
1
40
1
41
1
10
20.6814459801655
20
1.82769540443348
30
0
41
1
10
20.3292973201104
20
1.75718124085353
30
0
41
1
10
19.9666845767247
20
1.5770954472386
30
0
41
1
10
19.604071833339
20
1.31218217152534
30
0
41
1
10
19.5936077500085
20
1.30446835573176
30
0
0
SPLINE
5
14F
100
AcDbEntity
8
1
62
256
6
ByLayer
370
18
48
1
60
0
100
AcDbSpline
70
4
71
3
72
10
73
6
40
0
40
0
40
0
40
0
40
0.0562184568054785
40
0.370812304536986
40
1
40
1
40
1
40
1
41
1
10
12.1853574218233
20
0.362250473220939
30
0
41
1
10
12.1444049478822
20
0.403796165023238
30
0
41
1
10
11.8742858072744
20
0.676049994085559
30
0
41
1
10
11.1458333333333
20
1.36718445284188
30
0
41
1
10
10.4583333333333
20
1.76197436146614
30
0
41
1
10
10
20
1.83839675179871
30
0
0
SPLINE
5
150
100
AcDbEntity
8
1
62
256
6
ByLayer
370
18
48
1
60
0
100
AcDbSpline
70
4
71
3
72
53
73
49
40
0
40
0
40
0
40
0
40
0.0047212196280698
40
0.154575145407199
40
0.219612989472965
40
0.288447796765281
40
0.36107179270347
40
0.437477006089614
40
0.450657546961041
40
0.463883753847244
40
0.477155601086334
40
0.490473061050244
40
0.503836104265014
40
0.517244699539277
40
0.530698814101335
40
0.544198413744927
40
0.557743462983941
40
0.571333925216252
40
0.584969762897022
40
0.598650937721465
40
0.612377410817575
40
0.626149142948773
40
0.639966094726945
40
0.653828226835954
40
0.667735500265908
40
0.681687876558443
40
0.695685318063239
40
0.709727788206009
40
0.723815251768276
40
0.73794767517905
40
0.752125026818828
40
0.766347277336037
40
0.780614399976207
40
0.794926370924208
40
0.809283169659663
40
0.823684779325918
40
0.838131187112784
40
0.852622384653262
40
0.867158368434577
40
0.881739140223746
40
0.896364707507872
40
0.911035083949518
40
0.925750289857341
40
0.940510352672182
40
0.955315307468992
40
0.970165197474621
40
0.98506007460188
40
1
40
1
40
1
40
1
41
1
10
19.3857382637987
20
-1.97777367719232
30
0
41
1
10
19.3837110788856
20
-1.97811516501906
30
0
41
1
10
19.3173404230492
20
-1.98917288941732
30
0
41
1
10
19.2230624970755
20
-1.99917861393325
30
0
41
1
10
19.101384722567
20
-2.00172466521514
30
0
41
1
10
19.0128502627171
20
-1.99877399825314
30
0
41
1
10
18.9194598255516
20
-1.99037680270305
30
0
41
1
10
18.8499244065277
20
-1.97999971426472
30
0
41
1
10
18.805856295438
20
-1.97188238648081
30
0
41
1
10
18.7888486052574
20
-1.96857545662451
30
0
41
1
10
18.7717820989018
20
-1.96508203927655
30
0
41
1
10
18.7546567149761
20
-1.96140083929745
30
0
41
1
10
18.7374724699086
20
-1.95753051445544
30
0
41
1
10
18.7202293591608
20
-1.95346974106445
30
0
41
1
10
18.7029273838342
20
-1.94921719643261
30
0
41
1
10
18.685566543505
20
-1.94477156371636
30
0
41
1
10
18.6681468381528
20
-1.94013153074087
30
0
41
1
10
18.6506682676417
20
-1.93529579044539
30
0
41
1
10
18.6331308318596
20
-1.9302630408917
30
0
41
1
10
18.6155345306804
20
-1.92503198539023
30
0
41
1
10
18.5978793639742
20
-1.91960133259502
30
0
41
1
10
18.5801653316043
20
-1.91396979660735
30
0
41
1
10
18.5623924334279
20
-1.90813609707737
30
0
41
1
10
18.5445606692956
20
-1.9020989593065
30
0
41
1
10
18.5266700390514
20
-1.89585711435021
30
0
41
1
10
18.5087205425326
20
-1.88940929912067
30
0
41
1
10
18.4907121795693
20
-1.88275425649005
30
0
41
1
10
18.472644949985
20
-1.87589073539371
30
0
41
1
10
18.4545188535955
20
-1.86881749093411
30
0
41
1
10
18.4363338902096
20
-1.86153328448429
30
0
41
1
10
18.4180900596283
20
-1.85403688379239
30
0
41
1
10
18.3997873616452
20
-1.84632706308571
30
0
41
1
10
18.3814257960457
20
-1.83840260317564
30
0
41
1
10
18.3630053626074
20
-1.83026229156152
30
0
41
1
10
18.3445260611
20
-1.82190492253954
30
0
41
1
10
18.3259878912845
20
-1.81332929729399
30
0
41
1
10
18.3073908529137
20
-1.80453422405526
30
0
41
1
10
18.2887349457315
20
-1.79551851800926
30
0
41
1
10
18.270020169475
20
-1.78628100214024
30
0
41
1
10
18.2512465238644
20
-1.77682050457401
30
0
41
1
10
18.2324140086416
20
-1.76713586904475
30
0
41
1
10
18.2135226234243
20
-1.75722591615778
30
0
41
1
10
18.1945723682528
20
-1.74708958913158
30
0
41
1
10
18.1755632415381
20
-1.73672540789451
30
0
41
1
10
18.1564952477563
20
-1.72613351625441
30
0
41
1
10
18.1373683686005
20
-1.7153080073918
30
0
41
1
10
18.1181826711316
20
-1.70426569650297
30
0
41
1
10
18.105372188418
20
-1.69672546399195
30
0
41
1
10
18.0989572756364
20
-1.69294965514913
30
0
0
SPLINE
5
151
100
AcDbEntity
8
1
62
256
6
ByLayer
370
18
48
1
60
0
100
AcDbSpline
70
4
71
3
72
37
73
33
40
0
40
0
40
0
40
0
40
0.0399083892830374
40
0.0795576391877142
40
0.118949457327608
40
0.158085731684182
40
0.196968528569829
40
0.235599771028705
40
0.273980702075833
40
0.312112237135751
40
0.349995052744156
40
0.387629615756904
40
0.425016210571858
40
0.462154964442833
40
0.499045870966123
40
0.539240188310413
40
0.578099563323607
40
0.615622490445494
40
0.651807518157146
40
0.686653280515642
40
0.720158518137357
40
0.752322090651588
40
0.783142982386226
40
0.812620302808303
40
0.840753283024485
40
0.867541269448011
40
0.892983715559793
40
0.917080172530444
40
0.939830279326694
40
0.961233752799276
40
0.98129037813972
40
1
40
1
40
1
40
1
41
1
10
18.0989572756362
20
-1.69294965514868
30
0
41
1
10
18.0852452028768
20
-1.68475410592535
30
0
41
1
10
18.0579100947276
20
-1.66841622409723
30
0
41
1
10
18.017033874798
20
-1.64289384973784
30
0
41
1
10
17.976420329718
20
-1.61675552884103
30
0
41
1
10
17.9360688775886
20
-1.58994486482177
30
0
41
1
10
17.895979825075
20
-1.56250389857072
30
0
41
1
10
17.8561534791701
20
-1.53445176602156
30
0
41
1
10
17.8165895971582
20
-1.5058252879283
30
0
41
1
10
17.7772881598314
20
-1.47665696802127
30
0
41
1
10
17.7382491463929
20
-1.44697938832684
30
0
41
1
10
17.6994725532827
20
-1.41682390757847
30
0
41
1
10
17.6609583351488
20
-1.38622146328072
30
0
41
1
10
17.6227066006445
20
-1.35520075282508
30
0
41
1
10
17.5834978418581
20
-1.32278695587345
30
0
41
1
10
17.5437076103462
20
-1.28924018764803
30
0
41
1
10
17.5037117905579
20
-1.2548508545228
30
0
41
1
10
17.4651010193436
20
-1.22105059494922
30
0
41
1
10
17.4278754401578
20
-1.18791810740879
30
0
41
1
10
17.3920350016379
20
-1.15552763093689
30
0
41
1
10
17.3575797071558
20
-1.12394759518577
30
0
41
1
10
17.3245095504107
20
-1.09324134888763
30
0
41
1
10
17.2928245308068
20
-1.06346734756687
30
0
41
1
10
17.2625246488165
20
-1.03467945992517
30
0
41
1
10
17.2336099063158
20
-1.00692724287453
30
0
41
1
10
17.2060803064602
20
-0.980256164298879
30
0
41
1
10
17.1799358513698
20
-0.954707982820281
30
0
41
1
10
17.1551765487232
20
-0.93032052641243
30
0
41
1
10
17.1318023876894
20
-0.907129489744818
30
0
41
1
10
17.109813420153
20
-0.885163265218296
30
0
41
1
10
17.08920948331
20
-0.86446145900436
30
0
41
1
10
17.0759360182214
20
-0.851029151340413
30
0
41
1
10
17.069529890971
20
-0.844546362438962
30
0
0
SPLINE
5
152
100
AcDbEntity
8
1
62
256
6
ByLayer
370
18
48
1
60
0
100
AcDbSpline
70
4
71
3
72
93
73
89
40
0
40
0
40
0
40
0
40
0.0250908288725589
40
0.0495597979050056
40
0.0734068004385338
40
0.0966318206155756
40
0.119234922149868
40
0.141216232825701
40
0.162575875621489
40
0.183313913707052
40
0.203430366879976
40
0.22292522786674
40
0.241798475242415
40
0.260050083454737
40
0.27768003037976
40
0.294688302791805
40
0.311074900089031
40
0.326839836577295
40
0.341983142579229
40
0.356504864602629
40
0.370405064771729
40
0.383683819697354
40
0.396341218936428
40
0.408377363168523
40
0.419792362196035
40
0.430586332856281
40
0.440759396916689
40
0.450311679009808
40
0.45924330465171
40
0.467554398376108
40
0.475245082006858
40
0.482315473083605
40
0.488765683448643
40
0.494595817998516
40
0.499805973601025
40
0.506248093281178
40
0.512805555358233
40
0.519478340684613
40
0.526266429696114
40
0.533169802447998
40
0.540188438658589
40
0.547322317760873
40
0.554571418962894
40
0.561935721317722
40
0.569415203803728
40
0.577009845415997
40
0.584719625269842
40
0.592544522717226
40
0.600484517477168
40
0.608539589781055
40
0.616709720534022
40
0.624994891493433
40
0.633395085465696
40
0.641910286522636
40
0.650540480238644
40
0.659285653950048
40
0.668145797038033
40
0.677120901236569
40
0.686210960966939
40
0.695415973700401
40
0.704735940350632
40
0.714170865697708
40
0.723720758845429
40
0.73338563371375
40
0.743165509568382
40
0.753060411589441
40
0.763070371481299
40
0.773195429059185
40
0.783435650190808
40
0.793791121791324
40
0.804261932880284
40
0.814848173596161
40
0.825549934923454
40
0.836367308414812
40
0.847300385908949
40
0.858349259245573
40
0.869514019978218
40
0.880794759086275
40
0.892191566687412
40
0.903704531751657
40
0.915333741818515
40
0.927079282718629
40
0.938941238301449
40
0.950919690170534
40
0.963014717428187
40
0.975226396431206
40
0.987554800559559
40
1
40
1
40
1
40
1
41
1
10
17.0695298909261
20
-0.844546362394567
30
0
41
1
10
17.0562036978973
20
-0.831000086486625
30
0
41
1
10
17.0298815928483
20
-0.804243270290073
30
0
41
1
10
16.9908920597169
20
-0.764127887332819
30
0
41
1
10
16.9528918617417
20
-0.724718877109609
30
0
41
1
10
16.9158809058556
20
-0.686022938247078
30
0
41
1
10
16.8798592240707
20
-0.648088239792941
30
0
41
1
10
16.8448268679182
20
-0.61094829411519
30
0
41
1
10
16.8107838883701
20
-0.574638896292328
30
0
41
1
10
16.7777302672283
20
-0.539192224240679
30
0
41
1
10
16.7456659937839
20
-0.504637674239348
30
0
41
1
10
16.7145910580466
20
-0.471001880410739
30
0
41
1
10
16.6845054525505
20
-0.438308924682758
30
0
41
1
10
16.6554091714999
20
-0.406580490655415
30
0
41
1
10
16.6273022106366
20
-0.375836025115234
30
0
41
1
10
16.6001845669614
20
-0.346092890902753
30
0
41
1
10
16.5740562385272
20
-0.317366515314035
30
0
41
1
10
16.5489172242466
20
-0.289670532984928
30
0
41
1
10
16.5247675237256
20
-0.263016923539709
30
0
41
1
10
16.5016071371188
20
-0.237416143945978
30
0
41
1
10
16.4794360650041
20
-0.212877255601484
30
0
41
1
10
16.4582543082761
20
-0.189408046158149
30
0
41
1
10
16.4380618680553
20
-0.167015146091103
30
0
41
1
10
16.4188587456135
20
-0.145704140020513
30
0
41
1
10
16.4006449423122
20
-0.125479672792466
30
0
41
1
10
16.3834204595541
20
-0.106345550324647
30
0
41
1
10
16.3671852987438
20
-0.0883048352258982
30
0
41
1
10
16.3519394612705
20
-0.0713599371799489
30
0
41
1
10
16.3376829484592
20
-0.0555126981509773
30
0
41
1
10
16.3244157616768
20
-0.0407644722328655
30
0
41
1
10
16.3121379019635
20
-0.0271162007570069
30
0
41
1
10
16.3008493712954
20
-0.0145684806199995
30
0
41
1
10
16.2905501685378
20
-0.0031216325654384
30
0
41
1
10
16.2812403027761
20
0.0072242525760942
30
0
41
1
10
16.2719339602178
20
0.0175645310800405
30
0
41
1
10
16.2622395539192
20
0.0283338730028504
30
0
41
1
10
16.2517655555405
20
0.039966638032837
30
0
41
1
10
16.2411063834411
20
0.0518019757110721
30
0
41
1
10
16.2302620466537
20
0.0638393880434194
30
0
41
1
10
16.2192325426442
20
0.0760783225617558
30
0
41
1
10
16.2080178720526
20
0.088518181251402
30
0
41
1
10
16.1966180346385
20
0.101158315535798
30
0
41
1
10
16.1850330303955
20
0.113998025049796
30
0
41
1
10
16.1732628592439
20
0.127036555327464
30
0
41
1
10
16.1613075211141
20
0.14027309574314
30
0
41
1
10
16.1491670159233
20
0.153706777338726
30
0
41
1
10
16.1368413435809
20
0.167336670636956
30
0
41
1
10
16.1243305039859
20
0.181161783414126
30
0
41
1
10
16.111634497027
20
0.195181058438436
30
0
41
1
10
16.0987533225814
20
0.209393371173178
30
0
41
1
10
16.085686980514
20
0.223797527443963
30
0
41
1
10
16.0724354706768
20
0.2383922610708
30
0
41
1
10
16.0589987929077
20
0.253176231464238
30
0
41
1
10
16.0453769470299
20
0.26814802118588
30
0
41
1
10
16.0315699328505
20
0.283306133472991
30
0
41
1
10
16.0175777501599
20
0.298648989727326
30
0
41
1
10
16.0034003987306
20
0.314174926967581
30
0
41
1
10
15.9890378783158
20
0.329882195246114
30
0
41
1
10
15.974490188649
20
0.345768955029314
30
0
41
1
10
15.9597573294417
20
0.361833274540544
30
0
41
1
10
15.9448393003837
20
0.378073127071957
30
0
41
1
10
15.9297361011386
20
0.394486388238903
30
0
41
1
10
15.9144477313544
20
0.411070833277563
30
0
41
1
10
15.8989741906144
20
0.427824134000701
30
0
41
1
10
15.8833154786203
20
0.444743856878546
30
0
41
1
10
15.8674715944879
20
0.461827456665219
30
0
41
1
10
15.8514425389169
20
0.479072287304604
30
0
41
1
10
15.8352282943512
20
0.496475558946656
30
0
41
1
10
15.8188288659425
20
0.514034577825839
30
0
41
1
10
15.8022442712789
20
0.531746754387569
30
0
41
1
10
15.7854745092336
20
0.549609375259251
30
0
41
1
10
15.7685195804735
20
0.567619638477595
30
0
41
1
10
15.7513794850757
20
0.585774637434156
30
0
41
1
10
15.7340542232802
20
0.604071362085193
30
0
41
1
10
15.7165437952842
20
0.622506695535435
30
0
41
1
10
15.6988482012967
20
0.641077411836335
30
0
41
1
10
15.6809674415227
20
0.659780173444915
30
0
41
1
10
15.6629015161674
20
0.67861152862946
30
0
41
1
10
15.6446504254282
20
0.697567909259192
30
0
41
1
10
15.6262141695172
20
0.716645626908274
30
0
41
1
10
15.6075927485717
20
0.735840875227495
30
0
41
1
10
15.588786162989
20
0.755149708419026
30
0
41
1
10
15.5697944121508
20
0.774568110094435
30
0
41
1
10
15.5506174992501
20
0.79409171964312
30
0
41
1
10
15.5312554130052
20
0.813716855528526
30
0
41
1
10
15.5117081968941
20
0.833436627371128
30
0
41
1
10
15.4919756870209
20
0.853255642718949
30
0
41
1
10
15.4787598949941
20
0.866445884709719
30
0
41
1
10
15.4721208460127
20
0.873072098445107
30
0
0
SPLINE
5
153
100
AcDbEntity
8
1
62
256
6
ByLayer
370
18
48
1
60
0
100
AcDbSpline
70
4
71
3
72
8
73
4
40
0
40
0
40
0
40
0
40
1
40
1
40
1
40
1
41
1
10
15.4721208460134
20
0.873072098444453
30
0
41
1
10
15.4105091430642
20
0.934474350076812
30
0
41
1
10
15.3490260585846
20
0.994270912743332
30
0
41
1
10
15.2874873912912
20
1.05231924925715
30
0
0
SPLINE
5
154
100
AcDbEntity
8
1
62
256
6
ByLayer
370
18
48
1
60
0
100
AcDbSpline
70
4
71
3
72
47
73
43
40
0
40
0
40
0
40
0
40
0.0122609427910138
40
0.0250298019695057
40
0.038306624718374
40
0.0520914214522948
40
0.0663841658584851
40
0.0811847980212445
40
0.0964932316002232
40
0.112309366180547
40
0.128633106072887
40
0.145464387013303
40
0.162803193291662
40
0.180649228730098
40
0.199001818501983
40
0.21786015876686
40
0.237223355418374
40
0.257090468988594
40
0.299766419135083
40
0.342572815053178
40
0.38551371924702
40
0.428601777681122
40
0.493201858354808
40
0.551033635719713
40
0.602075396014749
40
0.64630970335631
40
0.68372844262013
40
0.714332410777176
40
0.755537559253264
40
0.79298773896822
40
0.826695980519151
40
0.856673782800388
40
0.87950469745266
40
0.900450426914546
40
0.919509862992321
40
0.936681550386138
40
0.951964012930588
40
0.965355929574996
40
0.976856211903633
40
0.986464021151339
40
0.994178751722423
40
1
40
1
40
1
40
1
41
1
10
15.2874873912912
20
1.05231924925715
30
0
41
1
10
15.27479463799
20
1.06424768931387
30
0
41
1
10
15.2488833270091
20
1.08859871170375
30
0
41
1
10
15.2092385459179
20
1.12522282272775
30
0
41
1
10
15.1680242832856
20
1.16276888810648
30
0
41
1
10
15.1252414050128
20
1.20110452162885
30
0
41
1
10
15.0808896595725
20
1.24014962888219
30
0
41
1
10
15.0349691049634
20
1.27979973640464
30
0
41
1
10
14.9874797034806
20
1.31994717615706
30
0
41
1
10
14.9384214289321
20
1.36047453990622
30
0
41
1
10
14.8877942543365
20
1.40125586625265
30
0
41
1
10
14.8355980920925
20
1.44215597137315
30
0
41
1
10
14.7818335355371
20
1.48302857665084
30
0
41
1
10
14.7265007416966
20
1.52372147530377
30
0
41
1
10
14.6695991778552
20
1.56407620311666
30
0
41
1
10
14.6111290276173
20
1.60392241304126
30
0
41
1
10
14.5510894760067
20
1.6430814137662
30
0
41
1
10
14.4664267479569
20
1.69567903841508
30
0
41
1
10
14.3574838851499
20
1.75788529743261
30
0
41
1
10
14.2246261199841
20
1.82413961963164
30
0
41
1
10
14.0912865705985
20
1.88037673792436
30
0
41
1
10
13.9353931746484
20
1.93362729519913
30
0
41
1
10
13.7641068955851
20
1.97492489103107
30
0
41
1
10
13.5847279132941
20
1.99755176659642
30
0
41
1
10
13.4264528915674
20
2.00134290351056
30
0
41
1
10
13.2892833535109
20
1.99231139991571
30
0
41
1
10
13.1732125899473
20
1.97572113881566
30
0
41
1
10
13.0602524995538
20
1.95216484655597
30
0
41
1
10
12.9471889248563
20
1.92095430052691
30
0
41
1
10
12.8308253733458
20
1.88063037914299
30
0
41
1
10
12.7260396324257
20
1.83758945384059
30
0
41
1
10
12.6363795089728
20
1.79579336775498
30
0
41
1
10
12.5599547819383
20
1.75674138046148
30
0
41
1
10
12.4948652487416
20
1.72099711605495
30
0
41
1
10
12.4356543669386
20
1.68650620030959
30
0
41
1
10
12.3823224651029
20
1.65386286881994
30
0
41
1
10
12.3348690968808
20
1.62359185539884
30
0
41
1
10
12.2932942129051
20
1.59613903435073
30
0
41
1
10
12.2575976700655
20
1.57188704205944
30
0
41
1
10
12.2277797342498
20
1.5511407651889
30
0
41
1
10
12.2038396621447
20
1.53418614279411
30
0
41
1
10
12.1898410737363
20
1.52408154026335
30
0
41
1
10
12.1838208767804
20
1.51973598086678
30
0
0
SPLINE
5
155
100
AcDbEntity
8
1
62
256
6
ByLayer
370
18
48
1
60
0
100
AcDbSpline
70
4
71
3
72
10
73
6
40
0
40
0
40
0
40
0
40
0.366841823372918
40
0.735604768058401
40
1
40
1
40
1
40
1
41
1
10
12.1838208767805
20
1.51973598086639
30
0
41
1
10
12.170912075389
20
1.51028926818441
30
0
41
1
10
12.145026870245
20
1.49134637114111
30
0
41
1
10
12.109836628312
20
1.46483083892315
30
0
41
1
10
12.087554801576
20
1.44774558929146
30
0
41
1
10
12.0782501340965
20
1.44055642729916
30
0
0
SPLINE
5
156
100
AcDbEntity
8
1
62
256
6
ByLayer
370
18
48
1
60
0
100
AcDbSpline
70
4
71
3
72
13
73
9
40
0
40
0
40
0
40
0
40
0.0303037099644463
40
0.30646974829094
40
0.490580440508602
40
0.674691132726265
40
0.858801824943927
40
1
40
1
40
1
40
1
41
1
10
15.9569091020033
20
0.364997463424146
30
0
41
1
10
15.9191894013356
20
0.403195729178492
30
0
41
1
10
15.5377197006678
20
0.78680533149128
30
0
41
1
10
14.9270833333333
20
1.34401293380125
30
0
41
1
10
14.125
20
1.78887303681719
30
0
41
1
10
13.4374999999999
20
1.90363304024848
30
0
41
1
10
12.8034141629568
20
1.766337925968
30
0
41
1
10
12.3984949925802
20
1.54192689116488
30
0
41
1
10
12.2227424888703
20
1.42455742953484
30
0
0
SPLINE
5
157
100
AcDbEntity
8
1
62
256
6
ByLayer
370
18
48
1
60
0
100
AcDbSpline
70
4
71
2
72
6
73
3
40
0
40
0
40
0
40
1
40
1
40
1
41
1
10
20.302663951064
20
-1.69114542505216
30
0
41
1
10
20.4604000240442
20
-1.64448291274144
30
0
41
1
10
20.6191290846557
20
-1.60658228687876
30
0
0
SPLINE
5
158
100
AcDbEntity
8
1
62
256
6
ByLayer
370
18
48
1
60
0
100
AcDbSpline
70
4
71
3
72
8
73
4
40
0
40
0
40
0
40
0
40
1
40
1
40
1
40
1
41
1
10
17.5362615339308
20
-1.38310705529548
30
0
41
1
10
17.5630526902671
20
-1.36960862813618
30
0
41
1
10
17.589826312736
20
-1.35633710920519
30
0
41
1
10
17.6165868288909
20
-1.34328779681505
30
0
0
SPLINE
5
159
100
AcDbEntity
8
1
62
256
6
ByLayer
370
18
48
1
60
0
100
AcDbSpline
70
4
71
2
72
6
73
3
40
0
40
0
40
0
40
1
40
1
40
1
41
1
10
20.1867161998376
20
1.05474298696615
30
0
41
1
10
19.8611392171971
20
1.16603761628133
30
0
41
1
10
19.4470715929723
20
1.3683673300695
30
0
0
SPLINE
5
15A
100
AcDbEntity
8
1
62
256
6
ByLayer
370
18
48
1
60
0
100
AcDbSpline
70
4
71
3
72
10
73
6
40
0
40
0
40
0
40
0
40
0.314685667587444
40
0.718658935046408
40
1
40
1
40
1
40
1
41
1
10
16.6937966910662
20
0.985529921166091
30
0
41
1
10
16.621936639833
20
1.01133891431851
30
0
41
1
10
16.4588051176765
20
1.07869497333667
30
0
41
1
10
16.2259735913487
20
1.20109276764475
30
0
41
1
10
16.0788404113867
20
1.30020386763991
30
0
41
1
10
16.0195175467157
20
1.34367786317239
30
0
0
SPLINE
5
15B
100
AcDbEntity
8
1
62
256
6
ByLayer
370
18
48
1
60
0
100
AcDbSpline
70
4
71
3
72
11
73
7
40
0
40
0
40
0
40
0
40
0.403685887792539
40
0.707005409604333
40
0.90910444819631
40
1
40
1
40
1
40
1
41
1
10
12.8316222781546
20
-1.67195014399812
30
0
41
1
10
12.9832154099182
20
-1.62811416482569
30
0
41
1
10
13.2484036846355
20
-1.55970777841733
30
0
41
1
10
13.5884570626849
20
-1.48928679376112
30
0
41
1
10
13.8114532122739
20
-1.45335432009725
30
0
41
1
10
13.9210125853911
20
-1.43889839476279
30
0
41
1
10
13.9549987756916
20
-1.43472132457049
30
0
0
SPLINE
5
15C
100
AcDbEntity
8
1
62
256
6
ByLayer
370
18
48
1
60
0
100
AcDbSpline
70
4
71
3
72
12
73
8
40
0
40
0
40
0
40
0
40
0.281893504254064
40
0.496615375372296
40
0.643857839637221
40
0.790593276352573
40
1
40
1
40
1
40
1
41
1
10
12.9852557769951
20
1.39838132055769
30
0
41
1
10
12.8342261318009
20
1.39129629341076
30
0
41
1
10
12.5674006772077
20
1.39026540877333
30
0
41
1
10
12.2216435670653
20
1.41537583029106
30
0
41
1
10
11.9449397462328
20
1.44988669704935
30
0
41
1
10
11.6717334333677
20
1.49446876617625
30
0
41
1
10
11.4811595672231
20
1.53467521000883
30
0
41
1
10
11.3690641010053
20
1.56075574598492
30
0
0
SPLINE
5
15D
100
AcDbEntity
8
1
62
256
6
ByLayer
370
18
48
1
60
0
100
AcDbSpline
70
4
71
1
72
4
73
2
40
0
40
0
40
1
40
1
41
1
10
16.6015894788987
20
-1.67186275759946
30
0
41
1
10
17.0032830079697
20
-1.56855090105441
30
0
0
SPLINE
5
15E
100
AcDbEntity
8
1
62
256
6
ByLayer
370
18
48
1
60
0
100
AcDbSpline
70
4
71
1
72
4
73
2
40
0
40
0
40
1
40
1
41
1
10
17.0032830079697
20
-1.56855090105441
30
0
41
1
10
17.0680590486118
20
-1.55189110313867
30
0
0
SPLINE
5
15F
100
AcDbEntity
8
1
62
256
6
ByLayer
370
18
48
1
60
0
100
AcDbSpline
70
4
71
3
72
10
73
6
40
0
40
0
40
0
40
0
40
0.343813332976037
40
0.960006215586185
40
1
40
1
40
1
40
1
41
1
10
15.7007959144933
20
1.45473594167603
30
0
41
1
10
15.6375501730439
20
1.46369296383782
30
0
41
1
10
15.4608905980694
20
1.49149912739031
30
0
41
1
10
15.2767115661485
20
1.52983100911391
30
0
41
1
10
15.1557576638003
20
1.55776869080194
30
0
41
1
10
15.1483853067139
20
1.55948188056345
30
0
0
SPLINE
5
160
100
AcDbEntity
8
1
62
256
6
ByLayer
370
18
48
1
60
0
100
AcDbSpline
70
4
71
2
72
6
73
3
40
0
40
0
40
0
40
1
40
1
40
1
41
1
10
10
20
-1.46075735335683
30
0
41
1
10
10.1060330143873
20
-1.44440608500199
30
0
41
1
10
10.2091001320616
20
-1.43187831376062
30
0
0
SPLINE
5
161
100
AcDbEntity
8
1
62
256
6
ByLayer
370
18
48
1
60
0
100
AcDbSpline
70
4
71
2
72
6
73
3
40
0
40
0
40
0
40
1
40
1
40
1
41
1
10
9.12375577651369
20
-1.83178933701717
30
0
41
1
10
9.49326688436486
20
-1.55088718886208
30
0
41
1
10
10
20
-1.46068706543733
30
0
0
SPLINE
5
162
100
AcDbEntity
8
1
62
256
6
ByLayer
370
18
48
1
60
0
100
AcDbSpline
70
4
71
2
72
6
73
3
40
0
40
0
40
0
40
1
40
1
40
1
41
1
10
9.16892902779543
20
1.53218171320165
30
0
41
1
10
8.72407022172527
20
1.66556194309709
30
0
41
1
10
8.35992209050008
20
1.88993085141243
30
0
0
SPLINE
5
163
100
AcDbEntity
8
1
62
256
6
ByLayer
370
18
48
1
60
0
100
AcDbSpline
70
4
71
1
72
4
73
2
40
0
40
0
40
1
40
1
41
1
10
20.8472830949249
20
-1.47592197038492
30
0
41
1
10
20.7833087152657
20
-1.50760447650884
30
0
0
SPLINE
5
164
100
AcDbEntity
8
1
62
256
6
ByLayer
370
18
48
1
60
0
100
AcDbSpline
70
4
71
2
72
6
73
3
40
0
40
0
40
0
40
1
40
1
40
1
41
1
10
20.6725960374416
20
-0.599475584348824
30
0
41
1
10
20.6934496015973
20
-0.609995199814875
30
0
41
1
10
20.7143098333379
20
-0.620518256508063
30
0
0
SPLINE
5
165
100
AcDbEntity
8
1
62
256
6
ByLayer
370
18
48
1
60
0
100
AcDbSpline
70
4
71
2
72
6
73
3
40
0
40
0
40
0
40
1
40
1
40
1
41
1
10
14.3646550759975
20
1.87553038049828
30
0
41
1
10
14.0444579775133
20
1.92794516704973
30
0
41
1
10
13.7232572179249
20
1.97848002045888
30
0
0
SPLINE
5
166
100
AcDbEntity
8
1
62
256
6
ByLayer
370
18
48
1
60
0
100
AcDbSpline
70
4
71
2
72
6
73
3
40
0
40
0
40
0
40
1
40
1
40
1
41
1
10
19.3817130955381
20
-1.97834303451762
30
0
41
1
10
19.6991731560392
20
-1.92635343677611
30
0
41
1
10
20.0161517420557
20
-1.87785118293007
30
0
0
SPLINE
5
167
100
AcDbEntity
8
1
62
256
6
ByLayer
370
18
48
1
60
0
100
AcDbSpline
70
4
71
2
72
6
73
3
40
0
40
0
40
0
40
1
40
1
40
1
41
1
10
10.5905418476807
20
1.87412799370051
30
0
41
1
10
10.3396741310259
20
1.91330070246636
30
0
41
1
10
10.0825801939871
20
1.95047831353963
30
0
0
SPLINE
5
168
100
AcDbEntity
8
1
62
256
6
ByLayer
370
18
48
1
60
0
100
AcDbSpline
70
4
71
2
72
6
73
3
40
0
40
0
40
0
40
1
40
1
40
1
41
1
10
15.6224501192459
20
-1.9764491157982
30
0
41
1
10
15.9404235725664
20
-1.92130825848494
30
0
41
1
10
16.257501597429
20
-1.86712967835953
30
0
0
SPLINE
5
169
100
AcDbEntity
8
1
62
256
6
ByLayer
370
18
48
1
60
0
100
AcDbSpline
70
4
71
2
72
6
73
3
40
0
40
0
40
0
40
1
40
1
40
1
41
1
10
18.1428754414583
20
1.87145941631186
30
0
41
1
10
17.8258321208695
20
1.92234354297636
30
0
41
1
10
17.5036497413716
20
1.97775203299994
30
0
0
SPLINE
5
16A
100
AcDbEntity
8
1
62
256
6
ByLayer
370
18
48
1
60
0
100
AcDbSpline
70
4
71
2
72
6
73
3
40
0
40
0
40
0
40
1
40
1
40
1
41
1
10
11.8545561478342
20
-1.97298574234131
30
0
41
1
10
12.1775241678922
20
-1.91523785646348
30
0
41
1
10
12.4957119241657
20
-1.8643347342761
30
0
0
LINE
5
7F
100
AcDbEntity
8
80
62
256
6
ByLayer
370
18
48
1
60
0
100
AcDbLine
10
0
20
0
30
0
11
-5
21
0
31
0
39
0
210
0
220
0
230
1
0
LINE
5
80
100
AcDbEntity
8
SK4
62
256
6
ByLayer
370
18
48
0.05
60
0
100
AcDbLine
10
-36
20
0
30
0
11
21
21
0
31
0
39
0
210
0
220
0
230
1
0
LINE
5
82
100
AcDbEntity
8
81
62
256
6
ByLayer
370
18
48
1
60
0
100
AcDbLine
10
21
20
0
30
0
11
26
21
0
31
0
39
0
210
0
220
0
230
1
0
LINE
5
83
100
AcDbEntity
8
4
62
256
6
ByLayer
370
18
48
0.05
60
0
100
AcDbLine
10
0
20
0
30
0
11
21
21
0
31
0
39
0
210
0
220
0
230
1
0
LINE
5
85
100
AcDbEntity
8
1
62
256
6
ByLayer
370
18
48
1
60
0
100
AcDbLine
10
0
20
3
30
0
11
0
21
0
31
0
39
0
210
0
220
0
230
1
0
LINE
5
86
100
AcDbEntity
8
1
62
256
6
ByLayer
370
18
48
1
60
0
100
AcDbLine
10
0
20
0
30
0
11
0
21
-3
31
0
39
0
210
0
220
0
230
1
0
LINE
5
87
100
AcDbEntity
8
1
62
256
6
ByLayer
370
18
48
1
60
0
100
AcDbLine
10
20.981878
20
-0.824004
30
0
11
20.982048
21
-0.822963
31
0
39
0
210
0
220
0
230
1
0
LINE
5
88
100
AcDbEntity
8
1
62
256
6
ByLayer
370
18
48
1
60
0
100
AcDbLine
10
20.982048
20
-0.822963
30
0
11
20.974758
21
-0.659859
31
0
39
0
210
0
220
0
230
1
0
LINE
5
89
100
AcDbEntity
8
1
62
256
6
ByLayer
370
18
48
1
60
0
100
AcDbLine
10
20.982048
20
1.421949
30
0
11
20.942237
21
-0.042188
31
0
39
0
210
0
220
0
230
1
0
LINE
5
8A
100
AcDbEntity
8
1
62
256
6
ByLayer
370
18
48
1
60
0
100
AcDbLine
10
20.975499
20
1.419829
30
0
11
20.982048
21
1.421949
31
0
39
0
210
0
220
0
230
1
0
LINE
5
8B
100
AcDbEntity
8
1
62
256
6
ByLayer
370
18
48
1
60
0
100
AcDbLine
10
20.928489
20
-1.229837
30
0
11
20.917105
21
-0.952671
31
0
39
0
210
0
220
0
230
1
0
LINE
5
8C
100
AcDbEntity
8
1
62
256
6
ByLayer
370
13
48
1
60
0
100
AcDbLine
10
20.28995
20
1.089328
30
0
11
20.35258
21
0.980685
31
0
39
0
210
0
220
0
230
1
0
LINE
5
8D
100
AcDbEntity
8
1
62
256
6
ByLayer
370
13
48
1
60
0
100
AcDbLine
10
20.914026
20
0.00675
30
0
11
20.942237
21
-0.042188
31
0
39
0
210
0
220
0
230
1
0
LINE
5
8E
100
AcDbEntity
8
1
62
256
6
ByLayer
370
18
48
1
60
0
100
AcDbLine
10
20.953435
20
-0.675974
30
0
11
20.917105
21
-0.952671
31
0
39
0
210
0
220
0
230
1
0
LINE
5
8F
100
AcDbEntity
8
1
62
256
6
ByLayer
370
18
48
1
60
0
100
AcDbLine
10
20.917105
20
-0.952671
30
0
11
20.498595
21
-1.370846
31
0
39
0
210
0
220
0
230
1
0
LINE
5
90
100
AcDbEntity
8
1
62
256
6
ByLayer
370
13
48
1
60
0
100
AcDbLine
10
20.388579
20
-0.36446
30
0
11
19.92617
21
-0.577103
31
0
39
0
210
0
220
0
230
1
0
LINE
5
91
100
AcDbEntity
8
1
62
256
6
ByLayer
370
18
48
1
60
0
100
AcDbLine
10
20.982048
20
-0.598986
30
0
11
20.966306
21
-0.372224
31
0
39
0
210
0
220
0
230
1
0
LINE
5
92
100
AcDbEntity
8
1
62
256
6
ByLayer
370
18
48
1
60
0
100
AcDbLine
10
20.981878
20
-0.597694
30
0
11
20.982048
21
-0.598986
31
0
39
0
210
0
220
0
230
1
0
LINE
5
93
100
AcDbEntity
8
1
62
256
6
ByLayer
370
18
48
1
60
0
100
AcDbLine
10
20.966306
20
-0.372224
30
0
11
20.913752
21
0.008734
31
0
39
0
210
0
220
0
230
1
0
LINE
5
94
100
AcDbEntity
8
1
62
256
6
ByLayer
370
18
48
1
60
0
100
AcDbLine
10
20.928489
20
-0.210502
30
0
11
20.913752
21
0.008734
31
0
39
0
210
0
220
0
230
1
0
LINE
5
95
100
AcDbEntity
8
1
62
256
6
ByLayer
370
18
48
1
60
0
100
AcDbLine
10
20.913752
20
0.008734
30
0
11
20.500628
21
0.897064
31
0
39
0
210
0
220
0
230
1
0
LINE
5
96
100
AcDbEntity
8
1
62
256
6
ByLayer
370
13
48
1
60
0
100
AcDbLine
10
20.694603
20
-0.610025
30
0
11
20.685412
21
-0.536844
31
0
39
0
210
0
220
0
230
1
0
LINE
5
97
100
AcDbEntity
8
1
62
256
6
ByLayer
370
13
48
1
60
0
100
AcDbLine
10
9.3755
20
-0.645272
30
0
11
9.3755
21
0.019847
31
0
39
0
210
0
220
0
230
1
0
LINE
5
98
100
AcDbEntity
8
1
62
256
6
ByLayer
370
13
48
1
60
0
100
AcDbLine
10
10
20
-0.584073
30
0
11
10
21
-0.649066
31
0
39
0
210
0
220
0
230
1
0
LINE
5
99
100
AcDbEntity
8
1
62
256
6
ByLayer
370
13
48
1
60
0
100
AcDbLine
10
5.995358
20
-1.9
30
0
11
5.995358
21
0
31
0
39
0
210
0
220
0
230
1
0
LINE
5
9A
100
AcDbEntity
8
1
62
256
6
ByLayer
370
13
48
1
60
0
100
AcDbLine
10
5.995358
20
0
30
0
11
5.995358
21
1.9
31
0
39
0
210
0
220
0
230
1
0
LINE
5
9B
100
AcDbEntity
8
1
62
256
6
ByLayer
370
13
48
1
60
0
100
AcDbLine
10
10
20
1.968761
30
0
11
10
21
1.838397
31
0
39
0
210
0
220
0
230
1
0
LINE
5
9C
100
AcDbEntity
8
1
62
256
6
ByLayer
370
13
48
1
60
0
100
AcDbLine
10
4.995358
20
2.167949
30
0
11
4.995358
21
0
31
0
39
0
210
0
220
0
230
1
0
LINE
5
9D
100
AcDbEntity
8
1
62
256
6
ByLayer
370
13
48
1
60
0
100
AcDbLine
10
4.995358
20
0
30
0
11
4.995358
21
-2.167949
31
0
39
0
210
0
220
0
230
1
0
LINE
5
9E
100
AcDbEntity
8
1
62
256
6
ByLayer
370
18
48
1
60
0
100
AcDbLine
10
3.554204
20
3
30
0
11
3.554204
21
0
31
0
39
0
210
0
220
0
230
1
0
LINE
5
9F
100
AcDbEntity
8
1
62
256
6
ByLayer
370
18
48
1
60
0
100
AcDbLine
10
3.554204
20
0
30
0
11
3.554204
21
-3
31
0
39
0
210
0
220
0
230
1
0
LINE
5
A0
100
AcDbEntity
8
SK1
62
256
6
ByLayer
370
18
48
1
60
0
100
AcDbLine
10
-36
20
-2.6
30
0
11
-36
21
2.6
31
0
39
0
210
0
220
0
230
1
0
LINE
5
A2
100
AcDbEntity
8
SK1
62
256
6
ByLayer
370
18
48
1
60
0
100
AcDbLine
10
0
20
3
30
0
11
0
21
0
31
0
39
0
210
0
220
0
230
1
0
LINE
5
A3
100
AcDbEntity
8
SK1
62
256
6
ByLayer
370
18
48
1
60
0
100
AcDbLine
10
0
20
0
30
0
11
0
21
-3
31
0
39
0
210
0
220
0
230
1
0
LINE
5
A4
100
AcDbEntity
8
SK1
62
256
6
ByLayer
370
18
48
1
60
0
100
AcDbLine
10
-35.6
20
3
30
0
11
-35.6
21
-3
31
0
39
0
210
0
220
0
230
1
0
LINE
5
A5
100
AcDbEntity
8
SK1
62
256
6
ByLayer
370
18
48
1
60
0
100
AcDbLine
10
-21
20
3
30
0
11
-20.1
21
2.1
31
0
39
0
210
0
220
0
230
1
0
LINE
5
A6
100
AcDbEntity
8
SK1
62
256
6
ByLayer
370
18
48
1
60
0
100
AcDbLine
10
-15
20
3
30
0
11
-15.9
21
2.1
31
0
39
0
210
0
220
0
230
1
0
LINE
5
A7
100
AcDbEntity
8
SK1
62
256
6
ByLayer
370
18
48
1
60
0
100
AcDbLine
10
-20.1
20
2.1
30
0
11
-15.9
21
2.1
31
0
39
0
210
0
220
0
230
1
0
LINE
5
A8
100
AcDbEntity
8
1
62
256
6
ByLayer
370
18
48
1
60
0
100
AcDbLine
10
3.554204
20
3
30
0
11
0
21
3
31
0
39
0
210
0
220
0
230
1
0
LINE
5
A9
100
AcDbEntity
8
1
62
256
6
ByLayer
370
18
48
1
60
0
100
AcDbLine
10
0
20
-3
30
0
11
3.554204
21
-3
31
0
39
0
210
0
220
0
230
1
0
LINE
5
AA
100
AcDbEntity
8
1
62
256
6
ByLayer
370
18
48
1
60
0
100
AcDbLine
10
8.33596
20
1.9
30
0
11
5.995358
21
1.9
31
0
39
0
210
0
220
0
230
1
0
LINE
5
AB
100
AcDbEntity
8
1
62
256
6
ByLayer
370
18
48
1
60
0
100
AcDbLine
10
5.995358
20
-1.9
30
0
11
8.895438
21
-1.9
31
0
39
0
210
0
220
0
230
1
0
LINE
5
AC
100
AcDbEntity
8
1
62
256
6
ByLayer
370
18
48
1
60
0
100
AcDbLine
10
4.995358
20
2.167949
30
0
11
3.554204
21
3
31
0
39
0
210
0
220
0
230
1
0
LINE
5
AD
100
AcDbEntity
8
1
62
256
6
ByLayer
370
18
48
1
60
0
100
AcDbLine
10
3.554204
20
-3
30
0
11
4.995358
21
-2.167949
31
0
39
0
210
0
220
0
230
1
0
LINE
5
AE
100
AcDbEntity
8
SK1
62
256
6
ByLayer
370
18
48
1
60
0
100
AcDbLine
10
-36
20
-2.6
30
0
11
-35.6
21
-3
31
0
39
0
210
0
220
0
230
1
0
LINE
5
AF
100
AcDbEntity
8
SK1
62
256
6
ByLayer
370
18
48
1
60
0
100
AcDbLine
10
-35.6
20
3
30
0
11
-36
21
2.6
31
0
39
0
210
0
220
0
230
1
0
LINE
5
B0
100
AcDbEntity
8
SK1
62
256
6
ByLayer
370
18
48
1
60
0
100
AcDbLine
10
0
20
3
30
0
11
-15
21
3
31
0
39
0
210
0
220
0
230
1
0
LINE
5
B1
100
AcDbEntity
8
SK1
62
256
6
ByLayer
370
18
48
1
60
0
100
AcDbLine
10
-21
20
3
30
0
11
-35.6
21
3
31
0
39
0
210
0
220
0
230
1
0
LINE
5
B2
100
AcDbEntity
8
SK1
62
256
6
ByLayer
370
18
48
1
60
0
100
AcDbLine
10
-35.6
20
-3
30
0
11
0
21
-3
31
0
39
0
210
0
220
0
230
1
0
LINE
5
B3
100
AcDbEntity
8
SK2
62
256
6
ByLayer
370
13
48
1
60
0
100
AcDbLine
10
-64.25
20
-3
30
0
11
-64.25
21
-11.75
31
0
39
0
210
0
220
0
230
1
0
LINE
5
B5
100
AcDbEntity
8
SK2
62
256
6
ByLayer
370
13
48
1
60
0
100
AcDbLine
10
-64.25
20
3
30
0
11
-64.25
21
5.157733
31
0
39
0
210
0
220
0
230
1
0
LINE
5
B6
100
AcDbEntity
8
SK2
62
256
6
ByLayer
370
13
48
1
60
0
100
AcDbLine
10
-37.5875
20
-3
30
0
11
-66.25
21
-3
31
0
39
0
210
0
220
0
230
1
0
LINE
5
B7
100
AcDbEntity
8
SK2
62
256
6
ByLayer
370
13
48
1
60
0
100
AcDbLine
10
-37.5875
20
3
30
0
11
-66.25
21
3
31
0
39
0
210
0
220
0
230
1
0
LINE
5
B8
100
AcDbEntity
8
1
62
256
6
ByLayer
370
18
48
1
60
1
100
AcDbLine
10
-64.25
20
-3
30
0
11
-63.789216
21
-6.499998
31
0
39
0
210
0
220
0
230
1
0
LINE
5
B9
100
AcDbEntity
8
1
62
256
6
ByLayer
370
18
48
1
60
1
100
AcDbLine
10
-63.789216
20
-6.499998
30
0
11
-64.710784
21
-6.500002
31
0
39
0
210
0
220
0
230
1
0
LINE
5
BA
100
AcDbEntity
8
1
62
256
6
ByLayer
370
18
48
1
60
1
100
AcDbLine
10
-64.710784
20
-6.500002
30
0
11
-64.25
21
-3
31
0
39
0
210
0
220
0
230
1
0
LINE
5
BB
100
AcDbEntity
8
1
62
256
6
ByLayer
370
18
48
1
60
1
100
AcDbLine
10
-64.25
20
3
30
0
11
-64.710784
21
6.499998
31
0
39
0
210
0
220
0
230
1
0
LINE
5
BC
100
AcDbEntity
8
1
62
256
6
ByLayer
370
18
48
1
60
1
100
AcDbLine
10
-64.710784
20
6.499998
30
0
11
-63.789216
21
6.500002
31
0
39
0
210
0
220
0
230
1
0
LINE
5
BD
100
AcDbEntity
8
1
62
256
6
ByLayer
370
18
48
1
60
1
100
AcDbLine
10
-63.789216
20
6.500002
30
0
11
-64.25
21
3
31
0
39
0
210
0
220
0
230
1
0
LINE
5
BE
100
AcDbEntity
8
SK2
62
256
6
ByLayer
370
13
48
1
60
0
100
AcDbLine
10
1.75
20
-10.65
30
0
11
1.75
21
7.174466
31
0
39
0
210
0
220
0
230
1
0
LINE
5
BF
100
AcDbEntity
8
SK2
62
256
6
ByLayer
370
13
48
1
60
0
100
AcDbLine
10
8.4125
20
-1.9
30
0
11
-0.25
21
-1.9
31
0
39
0
210
0
220
0
230
1
0
LINE
5
C0
100
AcDbEntity
8
SK2
62
256
6
ByLayer
370
13
48
1
60
0
100
AcDbLine
10
8.4125
20
1.9
30
0
11
-0.25
21
1.9
31
0
39
0
210
0
220
0
230
1
0
LINE
5
C1
100
AcDbEntity
8
1
62
256
6
ByLayer
370
18
48
1
60
1
100
AcDbLine
10
1.75
20
-1.9
30
0
11
2.210784
21
-5.399998
31
0
39
0
210
0
220
0
230
1
0
LINE
5
C2
100
AcDbEntity
8
1
62
256
6
ByLayer
370
18
48
1
60
1
100
AcDbLine
10
2.210784
20
-5.399998
30
0
11
1.289216
21
-5.400002
31
0
39
0
210
0
220
0
230
1
0
LINE
5
C3
100
AcDbEntity
8
1
62
256
6
ByLayer
370
18
48
1
60
1
100
AcDbLine
10
1.289216
20
-5.400002
30
0
11
1.75
21
-1.9
31
0
39
0
210
0
220
0
230
1
0
LINE
5
C4
100
AcDbEntity
8
1
62
256
6
ByLayer
370
18
48
1
60
1
100
AcDbLine
10
1.75
20
1.9
30
0
11
1.289216
21
5.399998
31
0
39
0
210
0
220
0
230
1
0
LINE
5
C5
100
AcDbEntity
8
1
62
256
6
ByLayer
370
18
48
1
60
1
100
AcDbLine
10
1.289216
20
5.399998
30
0
11
2.210784
21
5.400002
31
0
39
0
210
0
220
0
230
1
0
LINE
5
C6
100
AcDbEntity
8
1
62
256
6
ByLayer
370
18
48
1
60
1
100
AcDbLine
10
2.210784
20
5.400002
30
0
11
1.75
21
1.9
31
0
39
0
210
0
220
0
230
1
0
LINE
5
C7
100
AcDbEntity
8
2
62
256
6
ByLayer
370
13
48
1
60
0
100
AcDbLine
10
38
20
-2
30
0
11
38
21
-10.75
31
0
39
0
210
0
220
0
230
1
0
LINE
5
C9
100
AcDbEntity
8
2
62
256
6
ByLayer
370
13
48
1
60
0
100
AcDbLine
10
38
20
2
30
0
11
38
21
5.342
31
0
39
0
210
0
220
0
230
1
0
LINE
5
CA
100
AcDbEntity
8
2
62
256
6
ByLayer
370
13
48
1
60
0
100
AcDbLine
10
22.5875
20
-2
30
0
11
40
21
-2
31
0
39
0
210
0
220
0
230
1
0
LINE
5
CB
100
AcDbEntity
8
2
62
256
6
ByLayer
370
13
48
1
60
0
100
AcDbLine
10
22.5875
20
2
30
0
11
40
21
2
31
0
39
0
210
0
220
0
230
1
0
LINE
5
CC
100
AcDbEntity
8
1
62
256
6
ByLayer
370
18
48
1
60
1
100
AcDbLine
10
38
20
-2
30
0
11
38.460784
21
-5.499998
31
0
39
0
210
0
220
0
230
1
0
LINE
5
CD
100
AcDbEntity
8
1
62
256
6
ByLayer
370
18
48
1
60
1
100
AcDbLine
10
38.460784
20
-5.499998
30
0
11
37.539216
21
-5.500002
31
0
39
0
210
0
220
0
230
1
0
LINE
5
CE
100
AcDbEntity
8
1
62
256
6
ByLayer
370
18
48
1
60
1
100
AcDbLine
10
37.539216
20
-5.500002
30
0
11
38
21
-2
31
0
39
0
210
0
220
0
230
1
0
LINE
5
CF
100
AcDbEntity
8
1
62
256
6
ByLayer
370
18
48
1
60
1
100
AcDbLine
10
38
20
2
30
0
11
37.539216
21
5.499998
31
0
39
0
210
0
220
0
230
1
0
LINE
5
D0
100
AcDbEntity
8
1
62
256
6
ByLayer
370
18
48
1
60
1
100
AcDbLine
10
37.539216
20
5.499998
30
0
11
38.460784
21
5.500002
31
0
39
0
210
0
220
0
230
1
0
LINE
5
D1
100
AcDbEntity
8
1
62
256
6
ByLayer
370
18
48
1
60
1
100
AcDbLine
10
38.460784
20
5.500002
30
0
11
38
21
2
31
0
39
0
210
0
220
0
230
1
0
LINE
5
16F
100
AcDbEntity
8
1
62
256
6
ByLayer
370
18
48
1
60
1
100
AcDbLine
10
-64.25
20
-3
30
0
11
-63.789216
21
-6.499998
31
0
39
0
210
0
220
0
230
1
0
LINE
5
170
100
AcDbEntity
8
1
62
256
6
ByLayer
370
18
48
1
60
1
100
AcDbLine
10
-63.789216
20
-6.499998
30
0
11
-64.710784
21
-6.500002
31
0
39
0
210
0
220
0
230
1
0
LINE
5
171
100
AcDbEntity
8
1
62
256
6
ByLayer
370
18
48
1
60
1
100
AcDbLine
10
-64.710784
20
-6.500002
30
0
11
-64.25
21
-3
31
0
39
0
210
0
220
0
230
1
0
LINE
5
173
100
AcDbEntity
8
1
62
256
6
ByLayer
370
18
48
1
60
1
100
AcDbLine
10
-64.25
20
3
30
0
11
-64.710784
21
6.499998
31
0
39
0
210
0
220
0
230
1
0
LINE
5
174
100
AcDbEntity
8
1
62
256
6
ByLayer
370
18
48
1
60
1
100
AcDbLine
10
-64.710784
20
6.499998
30
0
11
-63.789216
21
6.500002
31
0
39
0
210
0
220
0
230
1
0
LINE
5
175
100
AcDbEntity
8
1
62
256
6
ByLayer
370
18
48
1
60
1
100
AcDbLine
10
-63.789216
20
6.500002
30
0
11
-64.25
21
3
31
0
39
0
210
0
220
0
230
1
0
LINE
5
179
100
AcDbEntity
8
1
62
256
6
ByLayer
370
18
48
1
60
1
100
AcDbLine
10
1.75
20
-1.9
30
0
11
2.210784
21
-5.399998
31
0
39
0
210
0
220
0
230
1
0
LINE
5
17A
100
AcDbEntity
8
1
62
256
6
ByLayer
370
18
48
1
60
1
100
AcDbLine
10
2.210784
20
-5.399998
30
0
11
1.289216
21
-5.400002
31
0
39
0
210
0
220
0
230
1
0
LINE
5
17B
100
AcDbEntity
8
1
62
256
6
ByLayer
370
18
48
1
60
1
100
AcDbLine
10
1.289216
20
-5.400002
30
0
11
1.75
21
-1.9
31
0
39
0
210
0
220
0
230
1
0
LINE
5
17D
100
AcDbEntity
8
1
62
256
6
ByLayer
370
18
48
1
60
1
100
AcDbLine
10
1.75
20
1.9
30
0
11
1.289216
21
5.399998
31
0
39
0
210
0
220
0
230
1
0
LINE
5
17E
100
AcDbEntity
8
1
62
256
6
ByLayer
370
18
48
1
60
1
100
AcDbLine
10
1.289216
20
5.399998
30
0
11
2.210784
21
5.400002
31
0
39
0
210
0
220
0
230
1
0
LINE
5
17F
100
AcDbEntity
8
1
62
256
6
ByLayer
370
18
48
1
60
1
100
AcDbLine
10
2.210784
20
5.400002
30
0
11
1.75
21
1.9
31
0
39
0
210
0
220
0
230
1
0
LINE
5
183
100
AcDbEntity
8
1
62
256
6
ByLayer
370
18
48
1
60
1
100
AcDbLine
10
38
20
-2
30
0
11
38.460784
21
-5.499998
31
0
39
0
210
0
220
0
230
1
0
LINE
5
184
100
AcDbEntity
8
1
62
256
6
ByLayer
370
18
48
1
60
1
100
AcDbLine
10
38.460784
20
-5.499998
30
0
11
37.539216
21
-5.500002
31
0
39
0
210
0
220
0
230
1
0
LINE
5
185
100
AcDbEntity
8
1
62
256
6
ByLayer
370
18
48
1
60
1
100
AcDbLine
10
37.539216
20
-5.500002
30
0
11
38
21
-2
31
0
39
0
210
0
220
0
230
1
0
LINE
5
187
100
AcDbEntity
8
1
62
256
6
ByLayer
370
18
48
1
60
1
100
AcDbLine
10
38
20
2
30
0
11
37.539216
21
5.499998
31
0
39
0
210
0
220
0
230
1
0
LINE
5
188
100
AcDbEntity
8
1
62
256
6
ByLayer
370
18
48
1
60
1
100
AcDbLine
10
37.539216
20
5.499998
30
0
11
38.460784
21
5.500002
31
0
39
0
210
0
220
0
230
1
0
LINE
5
189
100
AcDbEntity
8
1
62
256
6
ByLayer
370
18
48
1
60
1
100
AcDbLine
10
38.460784
20
5.500002
30
0
11
38
21
2
31
0
39
0
210
0
220
0
230
1
0
MTEXT
5
16B
100
AcDbEntity
8
SK2
62
256
6
ByLayer
370
18
48
1
60
0
100
AcDbMText
10
-65.814634
20
-3.222889
30
0
210
0
220
0
230
1
1
%%c
40
3.5
41
0
44
1.084337
50
90
71
7
72
5
7
iso_b_vert
0
MTEXT
5
16E
100
AcDbEntity
8
SK2
62
256
6
ByLayer
370
18
48
1
60
0
100
AcDbMText
10
-65.814634
20
3.749767
30
0
210
0
220
0
230
1
1
\W0.5404;6
40
3.5
41
0
44
1.084337
50
90
71
7
72
5
7
iso_b_vert
0
MTEXT
5
177
100
AcDbEntity
8
SK2
62
256
6
ByLayer
370
18
48
1
60
0
100
AcDbMText
10
0.185366
20
-5.239622
30
0
210
0
220
0
230
1
1
%%c
40
3.5
41
0
44
1.084337
50
90
71
7
72
5
7
iso_b_vert
0
MTEXT
5
178
100
AcDbEntity
8
SK2
62
256
6
ByLayer
370
18
48
1
60
0
100
AcDbMText
10
0.185366
20
1.733034
30
0
210
0
220
0
230
1
1
\W0.7121;3.8
40
3.5
41
0
44
1.084337
50
90
71
7
72
5
7
iso_b_vert
0
MTEXT
5
181
100
AcDbEntity
8
2
62
256
6
ByLayer
370
18
48
1
60
0
100
AcDbMText
10
36.435366
20
-3.407156
30
0
210
0
220
0
230
1
1
%%c
40
3.5
41
0
44
1.084337
50
90
71
7
72
5
7
iso_b_vert
0
MTEXT
5
182
100
AcDbEntity
8
2
62
256
6
ByLayer
370
18
48
1
60
0
100
AcDbMText
10
36.435366
20
3.5655
30
0
210
0
220
0
230
1
1
\W0.6380;4
40
3.5
41
0
44
1.084337
50
90
71
7
72
5
7
iso_b_vert
0
MTEXT
5
18B
100
AcDbEntity
8
SK6
62
256
6
ByLayer
370
18
48
1
60
0
100
AcDbMText
10
-33.688855
20
-62.114886
30
0
210
0
220
0
230
1
1
\W0.7398;2S440-0400-050-SD   1725
40
3
41
0
44
1.084337
50
0
71
7
72
5
7
iso_b_vert
0
HATCH
5
172
100
AcDbEntity
8
SK2
62
256
6
ByLayer
370
13
48
1
60
0
100
AcDbHatch
10
0
20
0
30
0
210
0
220
0
230
1
2
ANSI31
70
0
71
0
91
1
92
5
93
3
72
1
10
-64.25
20
-2.99999999999986
11
-63.7892162584472
21
-6.49999830744667
72
1
10
-63.7892162584472
20
-6.49999830744667
11
-64.7107837415528
21
-6.50000169255304
72
1
10
-64.7107837415528
20
-6.50000169255304
11
-64.25
21
-2.99999999999986
97
0
75
0
76
1
52
0
41
0.0062
77
0
78
1
53
45
43
0
44
0
45
-0.0139193969876572
46
0.0139193969876572
79
0
47
0
98
1
10
0
20
0
0
HATCH
5
176
100
AcDbEntity
8
SK2
62
256
6
ByLayer
370
13
48
1
60
0
100
AcDbHatch
10
0
20
0
30
0
210
0
220
0
230
1
2
ANSI31
70
0
71
0
91
1
92
5
93
3
72
1
10
-64.25
20
3.00000000000014
11
-64.7107837415528
21
6.49999830744696
72
1
10
-64.7107837415528
20
6.49999830744696
11
-63.7892162584472
21
6.50000169255333
72
1
10
-63.7892162584472
20
6.50000169255333
11
-64.25
21
3.00000000000014
97
0
75
0
76
1
52
0
41
0.0062
77
0
78
1
53
45
43
0
44
0
45
-0.0139193969876572
46
0.0139193969876572
79
0
47
0
98
1
10
0
20
0
0
HATCH
5
17C
100
AcDbEntity
8
SK2
62
256
6
ByLayer
370
13
48
1
60
0
100
AcDbHatch
10
0
20
0
30
0
210
0
220
0
230
1
2
ANSI31
70
0
71
0
91
1
92
5
93
3
72
1
10
1.75
20
-1.90000000000003
11
2.21078374155277
21
-5.39999830744685
72
1
10
2.21078374155277
20
-5.39999830744685
11
1.28921625844723
21
-5.40000169255322
72
1
10
1.28921625844723
20
-5.40000169255322
11
1.75
21
-1.90000000000003
97
0
75
0
76
1
52
0
41
0.0062
77
0
78
1
53
45
43
0
44
0
45
-0.0139193969876572
46
0.0139193969876572
79
0
47
0
98
1
10
0
20
0
0
HATCH
5
180
100
AcDbEntity
8
SK2
62
256
6
ByLayer
370
13
48
1
60
0
100
AcDbHatch
10
0
20
0
30
0
210
0
220
0
230
1
2
ANSI31
70
0
71
0
91
1
92
5
93
3
72
1
10
1.75
20
1.89999999999995
11
1.28921625844723
21
5.39999830744677
72
1
10
1.28921625844723
20
5.39999830744677
11
2.21078374155277
21
5.40000169255313
72
1
10
2.21078374155277
20
5.40000169255313
11
1.75
21
1.89999999999995
97
0
75
0
76
1
52
0
41
0.0062
77
0
78
1
53
45
43
0
44
0
45
-0.0139193969876572
46
0.0139193969876572
79
0
47
0
98
1
10
0
20
0
0
HATCH
5
186
100
AcDbEntity
8
2
62
256
6
ByLayer
370
13
48
1
60
0
100
AcDbHatch
10
0
20
0
30
0
210
0
220
0
230
1
2
ANSI31
70
0
71
0
91
1
92
5
93
3
72
1
10
38
20
-2.00000000000008
11
38.4607837415528
21
-5.4999983074469
72
1
10
38.4607837415528
20
-5.4999983074469
11
37.5392162584472
21
-5.50000169255327
72
1
10
37.5392162584472
20
-5.50000169255327
11
38
21
-2.00000000000008
97
0
75
0
76
1
52
0
41
0.0062
77
0
78
1
53
45
43
0
44
0
45
-0.0139193969876572
46
0.0139193969876572
79
0
47
0
98
1
10
0
20
0
0
HATCH
5
18A
100
AcDbEntity
8
2
62
256
6
ByLayer
370
13
48
1
60
0
100
AcDbHatch
10
0
20
0
30
0
210
0
220
0
230
1
2
ANSI31
70
0
71
0
91
1
92
5
93
3
72
1
10
38
20
1.99999999999991
11
37.5392162584472
21
5.49999830744673
72
1
10
37.5392162584472
20
5.49999830744673
11
38.4607837415528
21
5.5000016925531
72
1
10
38.4607837415528
20
5.5000016925531
11
38
21
1.99999999999991
97
0
75
0
76
1
52
0
41
0.0062
77
0
78
1
53
45
43
0
44
0
45
-0.0139193969876572
46
0.0139193969876572
79
0
47
0
98
1
10
0
20
0
0
DIMENSION
5
18E
100
AcDbEntity
8
SK2
62
256
6
ByLayer
370
18
48
1
60
0
100
AcDbDimension
2
_U0
10
10
20
-11.1
30
0
11
15.5
21
-11.1
31
0
70
32
71
1
72
1
41
1
210
0
220
0
230
1
3
Standard
100
AcDbAlignedDimension
13
21
23
-2
33
0
14
10
24
-2
34
0
50
0
100
AcDbRotatedDimension
1001
ACAD
1000
DSTYLE
1002
{
1070
   371
1070
    13
1070
   372
1070
    13
1070
   170
1070
     0
1070
   144
1040
1.0
1070
   277
1070
     2
1070
   284
1070
     8
1070
   278
1070
    46
1070
   146
1040
1.0
1070
   345
1005
16
1070
   347
1005
16
1070
   346
1005
16
1070
   344
1005
0
1070
   343
1005
0
1070
   172
1070
     1
1070
    76
1070
     0
1070
    75
1070
     0
1070
   282
1070
     0
1070
   281
1070
     0
1070
    71
1070
     0
1070
    74
1070
     0
1070
   279
1070
     0
1070
   173
1070
     1
1070
   340
1005
16C
1070
   271
1070
     2
1070
   272
1070
     2
1070
    77
1070
     1
1070
    73
1070
     1
1070
   171
1070
     3
1070
   274
1070
     4
1070
   177
1070
     2
1070
   176
1070
     2
1070
   178
1070
     2
1070
    78
1070
     8
1070
    48
1040
-0.1
1070
    41
1040
3.5
1070
   147
1040
1.75
1070
    42
1040
1.5875
1070
    44
1040
2.0
1070
   140
1040
3.5
1002
}
1001
ACAD_DSTYLE_DIM_LINETYPE
1070
   380
1005
16
1001
ACAD_DSTYLE_DIM_EXT1_LINETYPE
1070
   381
1005
16
1001
ACAD_DSTYLE_DIM_EXT2_LINETYPE
1070
   382
1005
16
0
DIMENSION
5
1A8
100
AcDbEntity
8
SK2
62
256
6
ByLayer
370
18
48
1
60
0
100
AcDbDimension
2
_U1
10
6
20
-24.1
30
0
11
13.5
21
-24.1
31
0
70
32
71
1
72
1
41
1
210
0
220
0
230
1
3
Standard
100
AcDbAlignedDimension
13
21
23
-2
33
0
14
6
24
-2
34
0
50
0
100
AcDbRotatedDimension
1001
ACAD
1000
DSTYLE
1002
{
1070
   371
1070
    13
1070
   372
1070
    13
1070
   170
1070
     0
1070
   144
1040
1.0
1070
   277
1070
     2
1070
   284
1070
     8
1070
   278
1070
    46
1070
   146
1040
1.0
1070
   345
1005
16
1070
   347
1005
16
1070
   346
1005
16
1070
   344
1005
0
1070
   343
1005
0
1070
   172
1070
     1
1070
    76
1070
     0
1070
    75
1070
     0
1070
   282
1070
     0
1070
   281
1070
     0
1070
    71
1070
     0
1070
    74
1070
     0
1070
   279
1070
     0
1070
   173
1070
     1
1070
   340
1005
16C
1070
   271
1070
     2
1070
   272
1070
     2
1070
    77
1070
     1
1070
    73
1070
     1
1070
   171
1070
     3
1070
   274
1070
     4
1070
   177
1070
     2
1070
   176
1070
     2
1070
   178
1070
     2
1070
    78
1070
     8
1070
    48
1040
-0.1
1070
    41
1040
3.5
1070
   147
1040
1.75
1070
    42
1040
1.5875
1070
    44
1040
2.0
1070
   140
1040
3.5
1002
}
1001
ACAD_DSTYLE_DIM_LINETYPE
1070
   380
1005
16
1001
ACAD_DSTYLE_DIM_EXT1_LINETYPE
1070
   381
1005
16
1001
ACAD_DSTYLE_DIM_EXT2_LINETYPE
1070
   382
1005
16
0
DIMENSION
5
1C1
100
AcDbEntity
8
SK2
62
256
6
ByLayer
370
18
48
1
60
0
100
AcDbDimension
2
_U2
10
17
20
12.6
30
0
11
19
21
12.6
31
0
70
32
71
1
72
1
41
1
210
0
220
0
230
1
3
Standard
100
AcDbAlignedDimension
13
21
23
2
33
0
14
17
24
2
34
0
50
0
100
AcDbRotatedDimension
1001
ACAD
1000
DSTYLE
1002
{
1070
   371
1070
    13
1070
   372
1070
    13
1070
   170
1070
     0
1070
   144
1040
1.0
1070
   277
1070
     2
1070
   284
1070
     8
1070
   278
1070
    46
1070
   146
1040
1.0
1070
   345
1005
16
1070
   347
1005
16
1070
   346
1005
16
1070
   344
1005
0
1070
   343
1005
0
1070
   172
1070
     1
1070
    76
1070
     0
1070
    75
1070
     0
1070
   282
1070
     0
1070
   281
1070
     0
1070
    47
1040
0.4
1070
    72
1070
     0
1070
    71
1070
     1
1070
    74
1070
     0
1070
   279
1070
     0
1070
   173
1070
     1
1070
   340
1005
16C
1070
   271
1070
     2
1070
   272
1070
     2
1070
    77
1070
     1
1070
    73
1070
     1
1070
   171
1070
     3
1070
   274
1070
     4
1070
   177
1070
     2
1070
   176
1070
     2
1070
   178
1070
     2
1070
    78
1070
     8
1070
    48
1040
0.4
1070
    41
1040
3.5
1070
   147
1040
1.75
1070
    42
1040
1.5875
1070
    44
1040
2.0
1070
   140
1040
3.5
1002
}
1001
ACAD_DSTYLE_DIM_LINETYPE
1070
   380
1005
16
1001
ACAD_DSTYLE_DIM_EXT1_LINETYPE
1070
   381
1005
16
1001
ACAD_DSTYLE_DIM_EXT2_LINETYPE
1070
   382
1005
16
0
DIMENSION
5
1DC
100
AcDbEntity
8
2
62
256
6
ByLayer
370
18
48
1
60
0
100
AcDbDimension
2
_U3
10
21
20
-36.1
30
0
11
-7.5
21
-36.1
31
0
70
32
71
1
72
1
41
1
210
0
220
0
230
1
3
Standard
100
AcDbAlignedDimension
13
-36
23
-3
33
0
14
21
24
-2
34
0
50
0
100
AcDbRotatedDimension
1001
ACAD
1000
DSTYLE
1002
{
1070
   371
1070
    13
1070
   372
1070
    13
1070
   170
1070
     0
1070
   144
1040
1.0
1070
   277
1070
     2
1070
   284
1070
     8
1070
   278
1070
    46
1070
   146
1040
1.0
1070
   345
1005
16
1070
   347
1005
16
1070
   346
1005
16
1070
   344
1005
0
1070
   343
1005
0
1070
   172
1070
     1
1070
    76
1070
     0
1070
    75
1070
     0
1070
   282
1070
     0
1070
   281
1070
     0
1070
    71
1070
     0
1070
    74
1070
     0
1070
   279
1070
     0
1070
   173
1070
     1
1070
   340
1005
16C
1070
   271
1070
     2
1070
   272
1070
     2
1070
    77
1070
     1
1070
    73
1070
     1
1070
   171
1070
     3
1070
   274
1070
     4
1070
   177
1070
     2
1070
   176
1070
     2
1070
   178
1070
     2
1070
    78
1070
     8
1070
    48
1040
-0.1
1070
    41
1040
3.5
1070
   147
1040
1.75
1070
    42
1040
1.5875
1070
    44
1040
2.0
1070
   140
1040
3.5
1002
}
1001
ACAD_DSTYLE_DIM_LINETYPE
1070
   380
1005
16
1001
ACAD_DSTYLE_DIM_EXT1_LINETYPE
1070
   381
1005
16
1001
ACAD_DSTYLE_DIM_EXT2_LINETYPE
1070
   382
1005
16
0
ENDSEC
0
SECTION
2
OBJECTS
0
DICTIONARY
5
264
330
0
100
AcDbDictionary
280
0
281
1
3
ACAD_GROUP
350
265
3
ACAD_MLINESTYLE
350
266
0
DICTIONARY
5
265
330
0
100
AcDbDictionary
280
0
281
1
0
DICTIONARY
5
266
330
0
100
AcDbDictionary
280
0
281
1
3
Standard
350
18
0
MLINESTYLE
5
18
330
266
100
AcDbMlineStyle
2
Standard
70
0
3

62
256
51
90
52
90
71
2
49
-0.5
62
256
6
ByLayer
49
0.5
62
256
6
ByLayer
0
RASTERVARIABLES
5
252
330

100
AcDbRasterVariables
90
0
70
1
71
1
72
1
0
ENDSEC
0
EOF
