0
SECTION
2
HEADER
9
$ACADVER
1
AC1015
9
$DWGCODEPAGE
3
ANSI_1252
9
$HANDSEED
5
2a0
9
$ANGBASE
50
0
9
$ANGDIR
70
0
9
$ATTMODE
70
1
9
$AUNITS
70
0
9
$AUPREC
70
0
9
$CECOLOR
62
256
9
$CELTSCALE
40
1
9
$CELTYPE
6
ByLayer
9
$CELWEIGHT
370
18
9
$CLAYER
8
0
9
$CMLJUST
70
0
9
$CMLSCALE
40
1
9
$CMLSTYLE
2
Standard
9
$DIMSTYLE
2
Standard
9
$TEXTSIZE
40
0.2
9
$TEXTSTYLE
7
Standard
9
$LUNITS
70
2
9
$LUPREC
70
4
9
$EXTNAMES
290
1
9
$INSUNITS
70
4
9
$LTSCALE
40
1
9
$LWDISPLAY
290
1
9
$PDMODE
70
0
9
$PDSIZE
40
0
9
$PLINEGEN
70
0
0
ENDSEC
0
SECTION
2
CLASSES
0
CLASS
1
RASTERVARIABLES
2
AcDbRasterVariables
3
ISM
90
0
280
0
281
0
0
ENDSEC
0
SECTION
2
TABLES
0
TABLE
2
VPORT
5
296
100
AcDbSymbolTable
0
VPORT
5
1
100
AcDbSymbolTableRecord
100
AcDbViewportTableRecord
2
*Active
70
0
10
0
20
0
11
1
21
1
12
-1
22
1
13
0
23
0
14
0.5
24
0.5
15
10
25
10
16
0
26
0
36
1
17
0
27
0
37
0
0
ENDTAB
0
TABLE
2
LTYPE
5
297
100
AcDbSymbolTable
0
LTYPE
5
14
100
AcDbSymbolTableRecord
100
AcDbLinetypeTableRecord
70
0
2
ByBlock
3

72
65
73
0
40
0
0
LTYPE
5
15
100
AcDbSymbolTableRecord
100
AcDbLinetypeTableRecord
70
0
2
ByLayer
3

72
65
73
0
40
0
0
LTYPE
5
16
100
AcDbSymbolTableRecord
100
AcDbLinetypeTableRecord
70
0
2
CONTINUOUS
3
Solid line
72
65
73
0
40
0
0
LTYPE
5
6A
100
AcDbSymbolTableRecord
100
AcDbLinetypeTableRecord
70
0
2
CENTER
3
____ _ ____ _ ____ _ ____
72
65
73
4
40
47.5
49
22
74
0
49
-8.5
74
0
49
8.5
74
0
49
-8.5
74
0
0
LTYPE
5
6B
100
AcDbSymbolTableRecord
100
AcDbLinetypeTableRecord
70
0
2
DASHED
3
__ __ __ __ __ __ __ __ __
72
65
73
2
40
25.72
49
12.86
74
0
49
-12.86
74
0
0
ENDTAB
0
TABLE
2
LAYER
5
298
100
AcDbSymbolTable
0
LAYER
5
10
100
AcDbSymbolTableRecord
100
AcDbLayerTableRecord
2
0
70
0
62
7
6
CONTINUOUS
290
1
370
-3
390
0
0
LAYER
5
6D
100
AcDbSymbolTableRecord
100
AcDbLayerTableRecord
2
80
70
0
62
-6
6
CONTINUOUS
290
1
370
-3
390
0
0
LAYER
5
6F
100
AcDbSymbolTableRecord
100
AcDbLayerTableRecord
2
81
70
0
62
-3
6
CONTINUOUS
290
1
370
-3
390
0
0
LAYER
5
76
100
AcDbSymbolTableRecord
100
AcDbLayerTableRecord
2
1
70
0
62
4
6
CONTINUOUS
290
1
370
-3
390
0
0
LAYER
5
98
100
AcDbSymbolTableRecord
100
AcDbLayerTableRecord
2
4
70
0
62
-2
6
CENTER
290
1
370
-3
390
0
0
LAYER
5
20A
100
AcDbSymbolTableRecord
100
AcDbLayerTableRecord
2
2
70
0
62
7
6
CONTINUOUS
290
1
370
-3
390
0
0
LAYER
5
282
100
AcDbSymbolTableRecord
100
AcDbLayerTableRecord
2
SK2
70
0
62
7
6
CONTINUOUS
290
1
370
-3
390
0
0
LAYER
5
283
100
AcDbSymbolTableRecord
100
AcDbLayerTableRecord
2
SK1
70
0
62
4
6
CONTINUOUS
290
1
370
-3
390
0
0
LAYER
5
284
100
AcDbSymbolTableRecord
100
AcDbLayerTableRecord
2
SK4
70
0
62
2
6
CENTER
290
1
370
-3
390
0
0
LAYER
5
285
100
AcDbSymbolTableRecord
100
AcDbLayerTableRecord
2
SK6
70
0
62
5
6
CONTINUOUS
290
1
370
-3
390
0
0
ENDTAB
0
TABLE
2
STYLE
5
299
100
AcDbSymbolTable
0
STYLE
5
11
100
AcDbSymbolTableRecord
100
AcDbTextStyleTableRecord
2
Standard
3
txt
70
0
71
0
40
0
41
1
42
0
50
0
0
STYLE
5
1E6
100
AcDbSymbolTableRecord
100
AcDbTextStyleTableRecord
2
iso_b_vert
3
simplex.shx
70
0
71
0
40
0
41
1
42
0
50
0
0
STYLE
5
1E7
100
AcDbSymbolTableRecord
100
AcDbTextStyleTableRecord
2
DWGDirectTextStyle
3
simplex
70
0
71
0
40
0
41
1
42
0
50
0
0
ENDTAB
0
TABLE
2
DIMSTYLE
5
29a
100
AcDbSymbolTable
100
AcDbDimStyleTable
0
DIMSTYLE
105
27
100
AcDbSymbolTableRecord
100
AcDbDimStyleTableRecord
2
Standard
70
0
3
<>
41
0.18
42
0.0625
44
0.18
140
0.18
147
0.09
73
0
74
0
77
1
271
2
275
0
278
52
280
0
340
11
0
ENDTAB
0
TABLE
2
VIEW
5
29b
100
AcDbSymbolTable
0
ENDTAB
0
TABLE
2
UCS
5
29c
100
AcDbSymbolTable
0
ENDTAB
0
TABLE
2
APPID
5
29d
100
AcDbSymbolTable
0
APPID
5
12
100
AcDbSymbolTableRecord
100
AcDbRegAppTableRecord
2
ACAD
70
0
0
ENDTAB
0
TABLE
2
BLOCK_RECORD
5
29e
100
AcDbSymbolTable
0
BLOCK_RECORD
5
1F
100
AcDbSymbolTableRecord
100
AcDbBlockTableRecord
2
*Model_Space
340
0
70
0
0
BLOCK_RECORD
5
1B
100
AcDbSymbolTableRecord
100
AcDbBlockTableRecord
2
*Paper_Space
340
0
70
0
0
BLOCK_RECORD
5
23
100
AcDbSymbolTableRecord
100
AcDbBlockTableRecord
2
*Paper_Space0
340
0
70
0
0
BLOCK_RECORD
5
1E9
100
AcDbSymbolTableRecord
100
AcDbBlockTableRecord
2
DimnDraft3D1
340
0
70
0
0
BLOCK_RECORD
5
1F3
100
AcDbSymbolTableRecord
100
AcDbBlockTableRecord
2
DimnDraft3D2
340
0
70
0
0
BLOCK_RECORD
5
1FE
100
AcDbSymbolTableRecord
100
AcDbBlockTableRecord
2
DimnDraft3D3
340
0
70
0
0
BLOCK_RECORD
5
208
100
AcDbSymbolTableRecord
100
AcDbBlockTableRecord
2
DimnDraft3D4
340
0
70
0
0
BLOCK_RECORD
5
213
100
AcDbSymbolTableRecord
100
AcDbBlockTableRecord
2
DimnDraft3D5
340
0
70
0
0
BLOCK_RECORD
5
21E
100
AcDbSymbolTableRecord
100
AcDbBlockTableRecord
2
DimnDraft3D6
340
0
70
0
0
ENDTAB
0
ENDSEC
0
SECTION
2
BLOCKS
0
BLOCK
5
20
100
AcDbEntity
8
0
100
AcDbBlockBegin
2
*Model_Space
70
0
10
0
20
0
30
0
3
*Model_Space
0
ENDBLK
5
21
100
AcDbEntity
8
0
100
AcDbBlockEnd
0
BLOCK
5
1C
100
AcDbEntity
8
0
100
AcDbBlockBegin
2
*Paper_Space
70
0
10
0
20
0
30
0
3
*Paper_Space
0
ENDBLK
5
1D
100
AcDbEntity
8
0
100
AcDbBlockEnd
0
BLOCK
5
24
100
AcDbEntity
8
0
100
AcDbBlockBegin
2
*Paper_Space0
70
0
10
0
20
0
30
0
3
*Paper_Space0
0
ENDBLK
5
25
100
AcDbEntity
8
0
100
AcDbBlockEnd
0
BLOCK
5
1F0
100
AcDbEntity
8
0
100
AcDbBlockBegin
2
DimnDraft3D1
70
0
10
0
20
0
30
0
3
DimnDraft3D1
0
MTEXT
5
1EA
100
AcDbEntity
8
SK2
62
256
6
ByLayer
370
18
48
1
60
0
100
AcDbMText
10
69.383534
20
-49.224866
30
0
210
0
220
0
230
1
1
\W0.7528;68.4
40
3.5
41
0
44
1.084337
50
0
71
7
72
5
7
iso_b_vert
0
LINE
5
1EB
100
AcDbEntity
8
SK2
62
256
6
ByLayer
370
13
48
1
60
0
100
AcDbLine
10
38.6
20
-11.5875
30
0
11
38.6
21
-52.1
31
0
39
0
210
0
220
0
230
1
0
LINE
5
1EC
100
AcDbEntity
8
SK2
62
256
6
ByLayer
370
13
48
1
60
0
100
AcDbLine
10
107
20
-1.5875
30
0
11
107
21
-52.1
31
0
39
0
210
0
220
0
230
1
0
LINE
5
1ED
100
AcDbEntity
8
SK2
62
256
6
ByLayer
370
13
48
1
60
0
100
AcDbLine
10
38.6
20
-50.1
30
0
11
107
21
-50.1
31
0
39
0
210
0
220
0
230
1
0
SOLID
5
1EE
100
AcDbEntity
8
SK2
62
256
6
ByLayer
370
13
48
1
60
0
100
AcDbTrace
10
38.6
20
-50.1
30
0
11
42.099998
21
-49.639216
31
0
12
42.100002
22
-50.560784
32
0
13
38.6
23
-50.1
33
0
39
0
210
0
220
0
230
1
0
SOLID
5
1EF
100
AcDbEntity
8
SK2
62
256
6
ByLayer
370
13
48
1
60
0
100
AcDbTrace
10
107
20
-50.1
30
0
11
103.500002
21
-50.560784
31
0
12
103.499998
22
-49.639216
32
0
13
107
23
-50.1
33
0
39
0
210
0
220
0
230
1
0
ENDBLK
5
1F1
100
AcDbEntity
8
0
100
AcDbBlockEnd
0
BLOCK
5
1FB
100
AcDbEntity
8
0
100
AcDbBlockBegin
2
DimnDraft3D2
70
0
10
0
20
0
30
0
3
DimnDraft3D2
0
MTEXT
5
1F4
100
AcDbEntity
8
SK2
62
256
6
ByLayer
370
18
48
1
60
0
100
AcDbMText
10
146.138077
20
18.159534
30
0
210
0
220
0
230
1
1
\W0.6740;50
40
3.5
41
0
44
1.084337
50
90
71
7
72
5
7
iso_b_vert
0
MTEXT
5
1F5
100
AcDbEntity
8
SK2
62
256
6
ByLayer
370
18
48
1
60
0
100
AcDbMText
10
146.138077
20
11.186878
30
0
210
0
220
0
230
1
1
%%c
40
3.5
41
0
44
1.084337
50
90
71
7
72
5
7
iso_b_vert
0
LINE
5
1F6
100
AcDbEntity
8
SK2
62
256
6
ByLayer
370
13
48
1
60
0
100
AcDbLine
10
108.5875
20
40
30
0
11
149.888211
21
40
31
0
39
0
210
0
220
0
230
1
0
LINE
5
1F7
100
AcDbEntity
8
SK2
62
256
6
ByLayer
370
13
48
1
60
0
100
AcDbLine
10
101.708008
20
-10
30
0
11
149.888211
21
-10
31
0
39
0
210
0
220
0
230
1
0
LINE
5
1F8
100
AcDbEntity
8
SK2
62
256
6
ByLayer
370
13
48
1
60
0
100
AcDbLine
10
147.888211
20
40
30
0
11
147.888211
21
-10
31
0
39
0
210
0
220
0
230
1
0
SOLID
5
1F9
100
AcDbEntity
8
SK2
62
256
6
ByLayer
370
13
48
1
60
0
100
AcDbTrace
10
147.888211
20
40
30
0
11
148.348994
21
36.500002
31
0
12
147.427427
22
36.499998
32
0
13
147.888211
23
40
33
0
39
0
210
0
220
0
230
1
0
SOLID
5
1FA
100
AcDbEntity
8
SK2
62
256
6
ByLayer
370
13
48
1
60
0
100
AcDbTrace
10
147.888211
20
-10
30
0
11
147.427427
21
-6.500002
31
0
12
148.348994
22
-6.499998
32
0
13
147.888211
23
-10
33
0
39
0
210
0
220
0
230
1
0
ENDBLK
5
1FC
100
AcDbEntity
8
0
100
AcDbBlockEnd
0
BLOCK
5
205
100
AcDbEntity
8
0
100
AcDbBlockBegin
2
DimnDraft3D3
70
0
10
0
20
0
30
0
3
DimnDraft3D3
0
MTEXT
5
1FF
100
AcDbEntity
8
SK2
62
256
6
ByLayer
370
18
48
1
60
0
100
AcDbMText
10
127.013077
20
6.767801
30
0
210
0
220
0
230
1
1
\W0.7346;20.0
40
3.5
41
0
44
1.084337
50
90
71
7
72
5
7
iso_b_vert
0
LINE
5
200
100
AcDbEntity
8
SK2
62
256
6
ByLayer
370
13
48
1
60
0
100
AcDbLine
10
108.5875
20
20
30
0
11
129.888211
21
20
31
0
39
0
210
0
220
0
230
1
0
LINE
5
201
100
AcDbEntity
8
SK2
62
256
6
ByLayer
370
13
48
1
60
0
100
AcDbLine
10
108.5875
20
0
30
0
11
129.888211
21
0
31
0
39
0
210
0
220
0
230
1
0
LINE
5
202
100
AcDbEntity
8
SK2
62
256
6
ByLayer
370
13
48
1
60
0
100
AcDbLine
10
127.888211
20
20
30
0
11
127.888211
21
0
31
0
39
0
210
0
220
0
230
1
0
SOLID
5
203
100
AcDbEntity
8
SK2
62
256
6
ByLayer
370
13
48
1
60
0
100
AcDbTrace
10
127.888211
20
20
30
0
11
128.348994
21
16.500002
31
0
12
127.427427
22
16.499998
32
0
13
127.888211
23
20
33
0
39
0
210
0
220
0
230
1
0
SOLID
5
204
100
AcDbEntity
8
SK2
62
256
6
ByLayer
370
13
48
1
60
0
100
AcDbTrace
10
127.888211
20
0
30
0
11
127.427427
21
3.499998
31
0
12
128.348994
22
3.500002
32
0
13
127.888211
23
0
33
0
39
0
210
0
220
0
230
1
0
ENDBLK
5
206
100
AcDbEntity
8
0
100
AcDbBlockEnd
0
BLOCK
5
210
100
AcDbEntity
8
0
100
AcDbBlockBegin
2
DimnDraft3D4
70
0
10
0
20
0
30
0
3
DimnDraft3D4
0
MTEXT
5
209
100
AcDbEntity
8
2
62
256
6
ByLayer
370
18
48
1
60
0
100
AcDbMText
10
49.397501
20
-59.224866
30
0
210
0
220
0
230
1
1
\W0.6864;107.0
40
3.5
41
0
44
1.084337
50
0
71
7
72
5
7
iso_b_vert
0
LINE
5
20B
100
AcDbEntity
8
2
62
256
6
ByLayer
370
13
48
1
60
0
100
AcDbLine
10
0
20
-41.5875
30
0
11
0
21
-62.1
31
0
39
0
210
0
220
0
230
1
0
LINE
5
20C
100
AcDbEntity
8
2
62
256
6
ByLayer
370
13
48
1
60
0
100
AcDbLine
10
107
20
-1.5875
30
0
11
107
21
-62.1
31
0
39
0
210
0
220
0
230
1
0
LINE
5
20D
100
AcDbEntity
8
2
62
256
6
ByLayer
370
13
48
1
60
0
100
AcDbLine
10
0
20
-60.1
30
0
11
107
21
-60.1
31
0
39
0
210
0
220
0
230
1
0
SOLID
5
20E
100
AcDbEntity
8
2
62
256
6
ByLayer
370
13
48
1
60
0
100
AcDbTrace
10
0
20
-60.1
30
0
11
3.499998
21
-59.639216
31
0
12
3.500002
22
-60.560784
32
0
13
0
23
-60.1
33
0
39
0
210
0
220
0
230
1
0
SOLID
5
20F
100
AcDbEntity
8
2
62
256
6
ByLayer
370
13
48
1
60
0
100
AcDbTrace
10
107
20
-60.1
30
0
11
103.500002
21
-60.560784
31
0
12
103.499998
22
-59.639216
32
0
13
107
23
-60.1
33
0
39
0
210
0
220
0
230
1
0
ENDBLK
5
211
100
AcDbEntity
8
0
100
AcDbBlockEnd
0
BLOCK
5
21B
100
AcDbEntity
8
0
100
AcDbBlockBegin
2
DimnDraft3D5
70
0
10
0
20
0
30
0
3
DimnDraft3D5
0
MTEXT
5
214
100
AcDbEntity
8
SK2
62
256
6
ByLayer
370
18
48
1
60
0
100
AcDbMText
10
-71.350134
20
3.159534
30
0
210
0
220
0
230
1
1
\W0.6740;80
40
3.5
41
0
44
1.084337
50
90
71
7
72
5
7
iso_b_vert
0
MTEXT
5
215
100
AcDbEntity
8
SK2
62
256
6
ByLayer
370
18
48
1
60
0
100
AcDbMText
10
-71.350134
20
-3.813122
30
0
210
0
220
0
230
1
1
%%c
40
3.5
41
0
44
1.084337
50
90
71
7
72
5
7
iso_b_vert
0
LINE
5
216
100
AcDbEntity
8
SK2
62
256
6
ByLayer
370
13
48
1
60
0
100
AcDbLine
10
-1.5875
20
40
30
0
11
-71.6
21
40
31
0
39
0
210
0
220
0
230
1
0
LINE
5
217
100
AcDbEntity
8
SK2
62
256
6
ByLayer
370
13
48
1
60
0
100
AcDbLine
10
-1.5875
20
-40
30
0
11
-71.6
21
-40
31
0
39
0
210
0
220
0
230
1
0
LINE
5
218
100
AcDbEntity
8
SK2
62
256
6
ByLayer
370
13
48
1
60
0
100
AcDbLine
10
-69.6
20
40
30
0
11
-69.6
21
-40
31
0
39
0
210
0
220
0
230
1
0
SOLID
5
219
100
AcDbEntity
8
SK2
62
256
6
ByLayer
370
13
48
1
60
0
100
AcDbTrace
10
-69.6
20
40
30
0
11
-69.139216
21
36.500002
31
0
12
-70.060784
22
36.499998
32
0
13
-69.6
23
40
33
0
39
0
210
0
220
0
230
1
0
SOLID
5
21A
100
AcDbEntity
8
SK2
62
256
6
ByLayer
370
13
48
1
60
0
100
AcDbTrace
10
-69.6
20
-40
30
0
11
-70.060784
21
-36.500002
31
0
12
-69.139216
22
-36.499998
32
0
13
-69.6
23
-40
33
0
39
0
210
0
220
0
230
1
0
ENDBLK
5
21C
100
AcDbEntity
8
0
100
AcDbBlockEnd
0
BLOCK
5
226
100
AcDbEntity
8
0
100
AcDbBlockBegin
2
DimnDraft3D6
70
0
10
0
20
0
30
0
3
DimnDraft3D6
0
MTEXT
5
21F
100
AcDbEntity
8
SK2
62
256
6
ByLayer
370
18
48
1
60
0
100
AcDbMText
10
136.138077
20
22.975267
30
0
210
0
220
0
230
1
1
\W0.7361;40
40
3.5
41
0
44
1.084337
50
90
71
7
72
5
7
iso_b_vert
0
MTEXT
5
220
100
AcDbEntity
8
SK2
62
256
6
ByLayer
370
18
48
1
60
0
100
AcDbMText
10
136.138077
20
16.002611
30
0
210
0
220
0
230
1
1
%%c
40
3.5
41
0
44
1.084337
50
90
71
7
72
5
7
iso_b_vert
0
LINE
5
221
100
AcDbEntity
8
SK2
62
256
6
ByLayer
370
13
48
1
60
0
100
AcDbLine
10
108.5875
20
40
30
0
11
139.888211
21
40
31
0
39
0
210
0
220
0
230
1
0
LINE
5
222
100
AcDbEntity
8
SK2
62
256
6
ByLayer
370
13
48
1
60
0
100
AcDbLine
10
108.5875
20
0
30
0
11
139.888211
21
0
31
0
39
0
210
0
220
0
230
1
0
LINE
5
223
100
AcDbEntity
8
SK2
62
256
6
ByLayer
370
13
48
1
60
0
100
AcDbLine
10
137.888211
20
40
30
0
11
137.888211
21
0
31
0
39
0
210
0
220
0
230
1
0
SOLID
5
224
100
AcDbEntity
8
SK2
62
256
6
ByLayer
370
13
48
1
60
0
100
AcDbTrace
10
137.888211
20
40
30
0
11
138.348994
21
36.500002
31
0
12
137.427427
22
36.499998
32
0
13
137.888211
23
40
33
0
39
0
210
0
220
0
230
1
0
SOLID
5
225
100
AcDbEntity
8
SK2
62
256
6
ByLayer
370
13
48
1
60
0
100
AcDbTrace
10
137.888211
20
0
30
0
11
137.427427
21
3.499998
31
0
12
138.348994
22
3.500002
32
0
13
137.888211
23
0
33
0
39
0
210
0
220
0
230
1
0
ENDBLK
5
227
100
AcDbEntity
8
0
100
AcDbBlockEnd
0
ENDSEC
0
SECTION
2
ENTITIES
0
ARC
5
124
100
AcDbEntity
8
1
62
256
6
ByLayer
370
18
48
1
60
0
100
AcDbCircle
39
0
10
116.9255
20
14.500505
30
0
40
0.6
210
0
220
0
230
1
100
AcDbArc
50
0
51
90
0
ARC
5
125
100
AcDbEntity
8
1
62
256
6
ByLayer
370
18
48
1
60
0
100
AcDbCircle
39
0
10
116.9255
20
25.499495
30
0
40
0.6
210
0
220
0
230
1
100
AcDbArc
50
270
51
0
0
ARC
5
126
100
AcDbEntity
8
1
62
256
6
ByLayer
370
18
48
1
60
0
100
AcDbCircle
39
0
10
116.9255
20
5.700505
30
0
40
0.6
210
0
220
0
230
1
100
AcDbArc
50
270
51
0
0
ARC
5
127
100
AcDbEntity
8
1
62
256
6
ByLayer
370
18
48
1
60
0
100
AcDbCircle
39
0
10
-111.4255
20
13.350505
30
0
40
0.25
210
0
220
0
230
-1
100
AcDbArc
50
180
51
270
0
ARC
5
128
100
AcDbEntity
8
1
62
256
6
ByLayer
370
18
48
1
60
0
100
AcDbCircle
39
0
10
-38.6
20
-14
30
0
40
4
210
0
220
0
230
-1
100
AcDbArc
50
9.903772
51
90
0
ARC
5
129
100
AcDbEntity
8
1
62
256
6
ByLayer
370
18
48
1
60
0
100
AcDbCircle
39
0
10
-102.8
20
-1
30
0
40
1
210
0
220
0
230
-1
100
AcDbArc
50
15
51
90
0
ARC
5
12A
100
AcDbEntity
8
1
62
256
6
ByLayer
370
18
48
1
60
0
100
AcDbCircle
39
0
10
-111.4255
20
33.149495
30
0
40
0.25
210
0
220
0
230
-1
100
AcDbArc
50
180
51
270
0
ARC
5
12B
100
AcDbEntity
8
1
62
256
6
ByLayer
370
18
48
1
60
0
100
AcDbCircle
39
0
10
116.9255
20
34.299495
30
0
40
0.6
210
0
220
0
230
1
100
AcDbArc
50
0
51
90
0
ARC
5
12C
100
AcDbEntity
8
1
62
256
6
ByLayer
370
18
48
1
60
0
100
AcDbCircle
39
0
10
-111.4255
20
33.149495
30
0
40
0.25
210
0
220
0
230
-1
100
AcDbArc
50
180
51
270
0
ARC
5
12D
100
AcDbEntity
8
1
62
256
6
ByLayer
370
18
48
1
60
0
100
AcDbCircle
39
0
10
-111.4255
20
26.649495
30
0
40
0.25
210
0
220
0
230
-1
100
AcDbArc
50
90
51
180
0
ARC
5
12E
100
AcDbEntity
8
1
62
256
6
ByLayer
370
18
48
1
60
0
100
AcDbCircle
39
0
10
-111.4255
20
6.850505
30
0
40
0.25
210
0
220
0
230
-1
100
AcDbArc
50
90
51
180
0
ARC
5
12F
100
AcDbEntity
8
1
62
256
6
ByLayer
370
18
48
1
60
0
100
AcDbCircle
39
0
10
116.9255
20
34.299495
30
0
40
0.6
210
0
220
0
230
1
100
AcDbArc
50
0
51
90
0
ARC
5
130
100
AcDbEntity
8
1
62
256
6
ByLayer
370
18
48
1
60
0
100
AcDbCircle
39
0
10
116.9255
20
25.499495
30
0
40
0.6
210
0
220
0
230
1
100
AcDbArc
50
270
51
0
0
ARC
5
131
100
AcDbEntity
8
1
62
256
6
ByLayer
370
18
48
1
60
0
100
AcDbCircle
39
0
10
-111.4255
20
26.649495
30
0
40
0.25
210
0
220
0
230
-1
100
AcDbArc
50
90
51
180
0
ELLIPSE
5
132
100
AcDbEntity
8
1
62
256
6
ByLayer
370
18
48
1
60
0
100
AcDbEllipse
10
30.763884
20
0
30
0
11
18.7348357595631
21
-39.483498305499
31
0
210
0
220
0
230
-1
40
0.341999
41
2.05364588642047
42
2.98049364836085
0
ELLIPSE
5
133
100
AcDbEntity
8
1
62
256
6
ByLayer
370
18
48
1
60
0
100
AcDbEllipse
10
30.763884
20
0
30
0
11
18.7348357595628
21
39.4834983054985
31
0
210
0
220
0
230
-1
40
0.341999
41
-2.98049364836084
42
-2.05364588642046
0
ELLIPSE
5
134
100
AcDbEntity
8
1
62
256
6
ByLayer
370
18
48
1
60
0
100
AcDbEllipse
10
-6.763884
20
0
30
0
11
18.7348357595609
21
-39.4834983054966
31
0
210
0
220
0
230
-1
40
0.341999
41
-1.08794676716937
42
-0.161099005228958
0
ELLIPSE
5
135
100
AcDbEntity
8
1
62
256
6
ByLayer
370
18
48
1
60
0
100
AcDbEllipse
10
-6.763884
20
0
30
0
11
18.7348357595621
21
39.4834983054982
31
0
210
0
220
0
230
-1
40
0.341999
41
0.161099005228954
42
1.08794676716934
0
POINT
5
6C
100
AcDbEntity
8
80
62
256
6
ByLayer
370
18
48
1
60
0
100
AcDbPoint
10
0
20
0
30
0
39
0
210
0
220
0
230
1
50
360
0
POINT
5
6E
100
AcDbEntity
8
81
62
256
6
ByLayer
370
18
48
1
60
0
100
AcDbPoint
10
107
20
20
30
0
39
0
210
0
220
0
230
1
50
360
0
POINT
5
70
100
AcDbEntity
8
SK2
62
256
6
ByLayer
370
18
48
1
60
1
100
AcDbPoint
10
0
20
40
30
0
39
0
210
0
220
0
230
1
50
360
0
POINT
5
72
100
AcDbEntity
8
SK2
62
256
6
ByLayer
370
18
48
1
60
1
100
AcDbPoint
10
0
20
-40
30
0
39
0
210
0
220
0
230
1
50
360
0
POINT
5
73
100
AcDbEntity
8
SK2
62
256
6
ByLayer
370
18
48
1
60
1
100
AcDbPoint
10
107
20
40
30
0
39
0
210
0
220
0
230
1
50
360
0
POINT
5
74
100
AcDbEntity
8
SK2
62
256
6
ByLayer
370
18
48
1
60
1
100
AcDbPoint
10
107
20
0
30
0
39
0
210
0
220
0
230
1
50
360
0
SPLINE
5
136
100
AcDbEntity
8
SK1
62
256
6
ByLayer
370
18
48
1
60
0
100
AcDbSpline
70
4
71
2
72
6
73
3
40
0
40
0
40
0
40
1
40
1
40
1
41
1
10
-46.5
20
-26.3941258817702
30
0
41
1
10
-24.3500000023321
20
-26.9501984525041
30
0
41
1
10
-2.19999999999999
20
-27.5062670222795
30
0
0
SPLINE
5
137
100
AcDbEntity
8
SK1
62
256
6
ByLayer
370
18
48
1
60
0
100
AcDbSpline
70
4
71
2
72
6
73
3
40
0
40
0
40
0
40
1
40
1
40
1
41
1
10
-48
20
-25.5412125874315
30
0
41
1
10
-47.250000037579
20
-25.9741352572465
30
0
41
1
10
-46.5
20
-26.4070575758797
30
0
0
SPLINE
5
138
100
AcDbEntity
8
SK1
62
256
6
ByLayer
370
18
48
1
60
0
100
AcDbSpline
70
4
71
2
72
6
73
3
40
0
40
0
40
0
40
1
40
1
40
1
41
1
10
-46.5
20
26.4070579263675
30
0
41
1
10
-47.2500000375748
20
25.9741355971582
30
0
41
1
10
-48
20
25.5412129170634
30
0
0
SPLINE
5
139
100
AcDbEntity
8
SK1
62
256
6
ByLayer
370
18
48
1
60
0
100
AcDbSpline
70
4
71
2
72
6
73
3
40
0
40
0
40
0
40
1
40
1
40
1
41
1
10
-1.99503997793928
20
-27.3252179519089
30
0
41
1
10
-1.19497688887569
20
-27.3453145474448
30
0
41
1
10
-0.394913799811292
20
-27.3654111429822
30
0
0
SPLINE
5
13A
100
AcDbEntity
8
SK1
62
256
6
ByLayer
370
18
48
1
60
0
100
AcDbSpline
70
4
71
2
72
6
73
3
40
0
40
0
40
0
40
1
40
1
40
1
41
1
10
-0.394913799811292
20
27.3654111435046
30
0
41
1
10
-1.19497688887569
20
27.3453145479167
30
0
41
1
10
-1.99503997793928
20
27.3252179523302
30
0
0
SPLINE
5
13B
100
AcDbEntity
8
SK1
62
256
6
ByLayer
370
18
48
1
60
0
100
AcDbSpline
70
4
71
2
72
6
73
3
40
0
40
0
40
0
40
1
40
1
40
1
41
1
10
-2.19999999999999
20
27.5062670250574
30
0
41
1
10
-24.3500000023322
20
26.9501984522265
30
0
41
1
10
-46.5
20
26.3941258787019
30
0
0
SPLINE
5
13C
100
AcDbEntity
8
SK1
62
256
6
ByLayer
370
18
48
1
60
0
100
AcDbSpline
70
4
71
3
72
13
73
9
40
0
40
0
40
0
40
0
40
0.239436439566019
40
0.368333643169675
40
0.499970746376725
40
0.631612719497171
40
0.760523347771551
40
1
40
1
40
1
40
1
41
1
10
-2.19999999999999
20
-27.5200952670183
30
0
41
1
10
-2.19909167978656
20
-27.4940420728663
30
0
41
1
10
-2.19103253552856
20
-27.4566758419157
30
0
41
1
10
-2.16563551768928
20
-27.4104653540177
30
0
41
1
10
-2.13886325113097
20
-27.3791895457297
30
0
41
1
10
-2.10627655326442
20
-27.3540268954422
30
0
41
1
10
-2.05883986743973
20
-27.3309874075326
30
0
41
1
10
-2.02110990202351
20
-27.3248162466093
30
0
41
1
10
-1.99503997793928
20
-27.3252180635337
30
0
0
SPLINE
5
13D
100
AcDbEntity
8
SK1
62
256
6
ByLayer
370
18
48
1
60
0
100
AcDbSpline
70
4
71
3
72
13
73
9
40
0
40
0
40
0
40
0
40
0.239476651984634
40
0.368387280177918
40
0.500029253268035
40
0.631666356502868
40
0.760563560186419
40
1
40
1
40
1
40
1
41
1
10
-1.99503997793928
20
27.325218063952
30
0
41
1
10
-2.021109902029
20
27.3248162470299
30
0
41
1
10
-2.05883986745027
20
27.3309874079684
30
0
41
1
10
-2.10627655327161
20
27.3540268959373
30
0
41
1
10
-2.13886325113759
20
27.3791895462899
30
0
41
1
10
-2.16563551769426
20
27.4104653546573
30
0
41
1
10
-2.19103253553246
20
27.4566758426755
30
0
41
1
10
-2.19909167979046
20
27.4940420737146
30
0
41
1
10
-2.19999999999999
20
27.5200952679265
30
0
0
SPLINE
5
13E
100
AcDbEntity
8
SK1
62
256
6
ByLayer
370
18
48
1
60
0
100
AcDbSpline
70
4
71
3
72
11
73
7
40
0
40
0
40
0
40
0
40
0.24261310168107
40
0.502578138232811
40
0.761110453143783
40
1
40
1
40
1
40
1
41
1
10
-0.199999999999989
20
27.5602883827064
30
0
41
1
10
-0.200957402010204
20
27.5346318858869
30
0
41
1
10
-0.211247854999527
20
27.4855973320618
30
0
41
1
10
-0.2551771917758
20
27.4196124694086
30
0
41
1
10
-0.321111966678046
20
27.3763890745824
30
0
41
1
10
-0.369683313452157
20
27.3663393835773
30
0
41
1
10
-0.394913799811292
20
27.3654111885197
30
0
0
SPLINE
5
13F
100
AcDbEntity
8
SK1
62
256
6
ByLayer
370
18
48
1
60
0
100
AcDbSpline
70
4
71
3
72
11
73
7
40
0
40
0
40
0
40
0
40
0.238889547238812
40
0.497421862300296
40
0.757386898684936
40
1
40
1
40
1
40
1
41
1
10
-0.394913799811292
20
-27.3654111878133
30
0
41
1
10
-0.369683313461081
20
-27.3663393828581
30
0
41
1
10
-0.321111966714682
20
-27.3763890738337
30
0
41
1
10
-0.255177191813431
20
-27.4196124685178
30
0
41
1
10
-0.211247855007002
20
-27.4855973310081
30
0
41
1
10
-0.200957402017764
20
-27.53463188473
30
0
41
1
10
-0.199999999999989
20
-27.560288381491
30
0
0
SPLINE
5
140
100
AcDbEntity
8
SK1
62
256
6
ByLayer
370
18
48
1
60
0
100
AcDbSpline
70
4
71
3
72
53
73
49
40
0
40
0
40
0
40
0
40
0.0236541051234629
40
0.0516750676709099
40
0.0796960302183569
40
0.0937065114920804
40
0.107716992765804
40
0.135737955313251
40
0.163758917860698
40
0.191779880408145
40
0.219800842955592
40
0.247821805503039
40
0.275842768050486
40
0.303863730597933
40
0.33188469314538
40
0.359905655692827
40
0.387926618240274
40
0.415947580787721
40
0.429958062061444
40
0.443968543335168
40
0.457979024608891
40
0.471989505882615
40
0.485999987156339
40
0.4930052277932
40
0.500010468430062
40
0.507015709066924
40
0.514020949703785
40
0.528031430977509
40
0.542041912251232
40
0.556052393524956
40
0.570062874798679
40
0.584073356072403
40
0.61209431861985
40
0.640115281167297
40
0.668136243714744
40
0.696157206262191
40
0.724178168809638
40
0.752199131357085
40
0.780220093904532
40
0.808241056451979
40
0.836262018999426
40
0.864282981546873
40
0.89230394409432
40
0.906314425368044
40
0.920324906641767
40
0.948345869189214
40
0.976366831736661
40
1
40
1
40
1
40
1
41
1
10
-48
20
-25.5393764299646
30
0
41
1
10
-48
20
-25.5303937459174
30
0
41
1
10
-48
20
-25.4480086966977
30
0
41
1
10
-48
20
-25.1322425192967
30
0
41
1
10
-48
20
-24.694378987226
30
0
41
1
10
-48
20
-24.2527507958702
30
0
41
1
10
-48
20
-23.753496542719
30
0
41
1
10
-48
20
-23.0303097721662
30
0
41
1
10
-48
20
-22.004895488713
30
0
41
1
10
-48
20
-20.832848719972
30
0
41
1
10
-48
20
-19.5200996220053
30
0
41
1
10
-48
20
-18.0723511216477
30
0
41
1
10
-48
20
-16.4949784354156
30
0
41
1
10
-48
20
-14.7914034442658
30
0
41
1
10
-48
20
-12.9663998685649
30
0
41
1
10
-48
20
-11.0239134221955
30
0
41
1
10
-48
20
-8.96950823728534
30
0
41
1
10
-48
20
-7.17686577390947
30
0
41
1
10
-48
20
-5.68399982568388
30
0
41
1
10
-48
20
-4.5535978156087
30
0
41
1
10
-48
20
-3.41075035191335
30
0
41
1
10
-48
20
-2.26472549180249
30
0
41
1
10
-48
20
-1.32161475247156
30
0
41
1
10
-48
20
-0.561042317499243
30
0
41
1
10
-48
20
5.827932625E-07
30
0
41
1
10
-48
20
0.561043122290016
30
0
41
1
10
-48
20
1.32161426869376
30
0
41
1
10
-48
20
2.26472380030225
30
0
41
1
10
-48
20
3.41075020779311
30
0
41
1
10
-48
20
4.55359888251638
30
0
41
1
10
-48
20
5.6839996126188
30
0
41
1
10
-48
20
7.17686534047002
30
0
41
1
10
-48
20
8.96950825544064
30
0
41
1
10
-48
20
11.0239135020289
30
0
41
1
10
-48
20
12.9663999896201
30
0
41
1
10
-48
20
14.7914038739653
30
0
41
1
10
-48
20
16.4949787826048
30
0
41
1
10
-48
20
18.0723510721555
30
0
41
1
10
-48
20
19.5200990771864
30
0
41
1
10
-48
20
20.8328486998638
30
0
41
1
10
-48
20
22.0048965474211
30
0
41
1
10
-48
20
23.0303087127374
30
0
41
1
10
-48
20
23.7534935831729
30
0
41
1
10
-48
20
24.2527492082177
30
0
41
1
10
-48
20
24.6943791914988
30
0
41
1
10
-48
20
25.1322422668055
30
0
41
1
10
-48
20
25.4479257982774
30
0
41
1
10
-48
20
25.5303271360848
30
0
41
1
10
-48
20
25.5393525695775
30
0
0
SPLINE
5
141
100
AcDbEntity
8
SK1
62
256
6
ByLayer
370
18
48
1
60
0
100
AcDbSpline
70
4
71
3
72
36
73
32
40
0
40
0
40
0
40
0
40
0.0312500000000004
40
0.0312500000000004
40
0.0625000000000007
40
0.0625000000000007
40
0.0781250000000011
40
0.0781250000000011
40
0.0937500000000015
40
0.0937500000000015
40
0.109375000000002
40
0.109375000000002
40
0.125000000000002
40
0.125000000000002
40
0.187500000000003
40
0.187500000000003
40
0.250000000000003
40
0.250000000000003
40
0.312500000000004
40
0.312500000000004
40
0.375000000000004
40
0.375000000000004
40
0.437500000000005
40
0.437500000000005
40
0.500000000000005
40
0.500000000000005
40
0.625000000000004
40
0.625000000000004
40
0.750000000000003
40
0.750000000000003
40
1
40
1
40
1
40
1
41
1
10
-0.394913799811292
20
-5.88258567299198
30
0
41
1
10
-0.411179767739839
20
-5.89649691057784
30
0
41
1
10
-0.428385528731525
20
-5.9092465495807
30
0
41
1
10
-0.465498465923076
20
-5.93142083367187
30
0
41
1
10
-0.485435076069336
20
-5.94077911690979
30
0
41
1
10
-0.51661811336291
20
-5.95056031325876
30
0
41
1
10
-0.527276324395132
20
-5.95314074745059
30
0
41
1
10
-0.549206920263828
20
-5.95671995870117
30
0
41
1
10
-0.560415091038067
20
-5.95768466870928
30
0
41
1
10
-0.58250081474057
20
-5.95786749214818
30
0
41
1
10
-0.593492347068235
20
-5.95710769696265
30
0
41
1
10
-0.615375629113458
20
-5.95393340336648
30
0
41
1
10
-0.626367558761331
20
-5.95148389835953
30
0
41
1
10
-0.679561105282943
20
-5.93569979012776
30
0
41
1
10
-0.717294953002494
20
-5.91197663005141
30
0
41
1
10
-0.782992880043736
20
-5.85711793826459
30
0
41
1
10
-0.811889887189636
20
-5.82526724315804
30
0
41
1
10
-0.863632300216523
20
-5.75907701915671
30
0
41
1
10
-0.886653206455122
20
-5.72449384855281
30
0
41
1
10
-0.929268994496795
20
-5.65349793311392
30
0
41
1
10
-0.948821917963414
20
-5.61706391416041
30
0
41
1
10
-0.985490326811572
20
-5.54286169997812
30
0
41
1
10
-1.00262576586445
20
-5.50500475294345
30
0
41
1
10
-1.03481085007658
20
-5.42880990558524
30
0
41
1
10
-1.049879588408
20
-5.39043436268412
30
0
41
1
10
-1.0927183179077
20
-5.27463055419165
30
0
41
1
10
-1.11815612697546
20
-5.19653320994783
30
0
41
1
10
-1.16484869971202
20
-5.03900155537232
30
0
41
1
10
-1.18607375956299
20
-4.95956033007351
30
0
41
1
10
-1.24501875177998
20
-4.71955641770521
30
0
41
1
10
-1.27808207400781
20
-4.55733024919127
30
0
41
1
10
-1.30710678118655
20
-4.39331221032489
30
0
0
SPLINE
5
142
100
AcDbEntity
8
SK1
62
256
6
ByLayer
370
13
48
1
60
0
100
AcDbSpline
70
4
71
3
72
53
73
49
40
0
40
0
40
0
40
0
40
0.0274340997151958
40
0.0552320452290262
40
0.0830299907428567
40
0.096928963499772
40
0.110827936256687
40
0.138625881770518
40
0.166423827284348
40
0.194221772798179
40
0.222019718312009
40
0.24981766382584
40
0.27761560933967
40
0.3054135548535
40
0.333211500367331
40
0.361009445881161
40
0.388807391394992
40
0.416605336908822
40
0.430504309665738
40
0.444403282422653
40
0.458302255179568
40
0.472201227936483
40
0.486100200693398
40
0.493049687071856
40
0.499999173450314
40
0.506948659828771
40
0.513898146207229
40
0.527797118964144
40
0.541696091721059
40
0.555595064477975
40
0.56949403723489
40
0.583393009991805
40
0.611190955505636
40
0.638988901019466
40
0.666786846533296
40
0.694584792047127
40
0.722382737560958
40
0.750180683074788
40
0.777978628588618
40
0.805776574102449
40
0.833574519616279
40
0.86137246513011
40
0.88917041064394
40
0.903069383400856
40
0.916968356157771
40
0.944766301671601
40
0.972564247185432
40
1
40
1
40
1
40
1
41
1
10
-1.99503997793928
20
27.3251992184521
30
0
41
1
10
-1.99503997793928
20
27.3262344709003
30
0
41
1
10
-1.99503997793928
20
27.2424005261039
30
0
41
1
10
-1.99503997793928
20
26.8920579638066
30
0
41
1
10
-1.99503997793928
20
26.4304294784276
30
0
41
1
10
-1.99503997793928
20
25.9687186091476
30
0
41
1
10
-1.99503997793928
20
25.4475793002845
30
0
41
1
10
-1.99503997793928
20
24.6899114886171
30
0
41
1
10
-1.99503997793928
20
23.619443795401
30
0
41
1
10
-1.99503997793928
20
22.396811187269
30
0
41
1
10
-1.99503997793928
20
21.0275777036138
30
0
41
1
10
-1.99503997793928
20
19.5171387431293
30
0
41
1
10
-1.99503997793928
20
17.8697605888624
30
0
41
1
10
-1.99503997793928
20
16.0876370834377
30
0
41
1
10
-1.99503997793928
20
14.1736586399812
30
0
41
1
10
-1.99503997793928
20
12.1286054195275
30
0
41
1
10
-1.99503997793928
20
9.95349522257501
30
0
41
1
10
-1.99503997793928
20
8.03329795823163
30
0
41
1
10
-1.99503997793928
20
6.43152354524264
30
0
41
1
10
-1.99503997793928
20
5.19920324116254
30
0
41
1
10
-1.99503997793928
20
3.93622738701504
30
0
41
1
10
-1.99503997793928
20
2.64495367748941
30
0
41
1
10
-1.99503997793928
20
1.54951551889729
30
0
41
1
10
-1.99503997793928
20
0.6647912077417
30
0
41
1
10
-1.99503997793928
20
-1.48582728E-08
30
0
41
1
10
-1.99503997793928
20
-0.664791253601607
30
0
41
1
10
-1.99503997793928
20
-1.549515656636
30
0
41
1
10
-1.99503997793928
20
-2.64495403942521
30
0
41
1
10
-1.99503997793928
20
-3.93622781621522
30
0
41
1
10
-1.99503997793928
20
-5.19920320851571
30
0
41
1
10
-1.99503997793928
20
-6.43152352997811
30
0
41
1
10
-1.99503997793928
20
-8.03329822829241
30
0
41
1
10
-1.99503997793928
20
-9.95349533700443
30
0
41
1
10
-1.99503997793928
20
-12.1286054335931
30
0
41
1
10
-1.99503997793928
20
-14.1736586478766
30
0
41
1
10
-1.99503997793928
20
-16.0876367400659
30
0
41
1
10
-1.99503997793928
20
-17.8697602043723
30
0
41
1
10
-1.99503997793928
20
-19.5171385903506
30
0
41
1
10
-1.99503997793928
20
-21.027578149028
30
0
41
1
10
-1.99503997793928
20
-22.3968114946305
30
0
41
1
10
-1.99503997793928
20
-23.6194427004969
30
0
41
1
10
-1.99503997793928
20
-24.6899119683388
30
0
41
1
10
-1.99503997793928
20
-25.4475821015686
30
0
41
1
10
-1.99503997793928
20
-25.9687206006143
30
0
41
1
10
-1.99503997793928
20
-26.4304294614745
30
0
41
1
10
-1.99503997793928
20
-26.8920582242086
30
0
41
1
10
-1.99503997793928
20
-27.2424074436914
30
0
41
1
10
-1.99503997793926
20
-27.3262392912755
30
0
41
1
10
-1.99503997793926
20
-27.3251990377963
30
0
0
SPLINE
5
143
100
AcDbEntity
8
SK1
62
256
6
ByLayer
370
18
48
1
60
0
100
AcDbSpline
70
4
71
3
72
32
73
28
40
0
40
0
40
0
40
0
40
0.249999999999999
40
0.249999999999999
40
0.374999999999999
40
0.374999999999999
40
0.499999999999999
40
0.499999999999999
40
0.624999999999999
40
0.624999999999999
40
0.687499999999999
40
0.687499999999999
40
0.749999999999999
40
0.749999999999999
40
0.812499999999999
40
0.812499999999999
40
0.843749999999999
40
0.843749999999999
40
0.874999999999999
40
0.874999999999999
40
0.906249999999999
40
0.906249999999999
40
0.921874999999999
40
0.921874999999999
40
0.937499999999999
40
0.937499999999999
40
1
40
1
40
1
40
1
41
1
10
-1.30710678118655
20
4.39330887788611
30
0
41
1
10
-1.2780743714186
20
4.55737118832224
30
0
41
1
10
-1.24497216390387
20
4.7198378602867
30
0
41
1
10
-1.18580542268836
20
4.96060522060526
30
0
41
1
10
-1.16445181152812
20
5.0404563911583
30
0
41
1
10
-1.11752093416874
20
5.198557960106
30
0
41
1
10
-1.09200642706725
20
5.27670114460142
30
0
41
1
10
-1.03498549421172
20
5.43054889899611
30
0
41
1
10
-1.00357369005187
20
5.50628559579377
30
0
41
1
10
-0.948842305699031
20
5.61701592648754
30
0
41
1
10
-0.929311633153446
20
5.65344083322162
30
0
41
1
10
-0.886408174549814
20
5.72489104401427
30
0
41
1
10
-0.863044052761836
20
5.75990606707859
30
0
41
1
10
-0.81136689943969
20
5.8258612833736
30
0
41
1
10
-0.783079686795759
20
5.85708975359276
30
0
41
1
10
-0.733280688453021
20
5.89860840862806
30
0
41
1
10
-0.715743791280289
20
5.91124847506279
30
0
41
1
10
-0.677973782385635
20
5.93308968840066
30
0
41
1
10
-0.657745921602782
20
5.94220058775309
30
0
41
1
10
-0.615734996481478
20
5.95461437182678
30
0
41
1
10
-0.593240589266884
20
5.95798393410075
30
0
41
1
10
-0.560186449219628
20
5.95767132879206
30
0
41
1
10
-0.54924370449001
20
5.95672090529095
30
0
41
1
10
-0.527503554619585
20
5.95318620141711
30
0
41
1
10
-0.516622342716403
20
5.95056688400265
30
0
41
1
10
-0.46426944173902
20
5.93412751448795
30
0
41
1
10
-0.427415916991805
20
5.91038432473178
30
0
41
1
10
-0.394913799811292
20
5.88258733498486
30
0
0
SPLINE
5
144
100
AcDbEntity
8
SK1
62
256
6
ByLayer
370
18
48
1
60
0
100
AcDbSpline
70
4
71
3
72
8
73
4
40
0
40
0
40
0
40
0
40
1
40
1
40
1
40
1
41
0.980125716641436
10
-0.200000000000027
20
-6.56978812232312
30
0
41
0.980125716641436
10
-0.200000000000027
20
-6.56395226265407
30
0
41
0.980125716641436
10
-0.200000000000027
20
-6.55811526271813
30
0
41
0.980125716641436
10
-0.200000000000027
20
-6.55227712232421
30
0
0
SPLINE
5
145
100
AcDbEntity
8
SK1
62
256
6
ByLayer
370
18
48
1
60
0
100
AcDbSpline
70
4
71
3
72
10
73
6
40
0
40
0
40
0
40
0
40
0.5
40
0.5
40
1
40
1
40
1
40
1
41
1
10
-0.199999999999989
20
6.60073791650282
30
0
41
1
10
-0.15651302559877
20
6.51552540369704
30
0
41
1
10
-0.120155698367512
20
6.42786812739112
30
0
41
1
10
-0.054887232979155
20
6.24971292299793
30
0
41
1
10
-0.0261571401700849
20
6.15915954546858
30
0
41
1
10
1.1255E-11
20
6.06752110354569
30
0
0
SPLINE
5
146
100
AcDbEntity
8
SK1
62
256
6
ByLayer
370
18
48
1
60
0
100
AcDbSpline
70
4
71
3
72
53
73
49
40
0
40
0
40
0
40
0
40
0.0210146920329612
40
0.0491908043056338
40
0.0773669165783065
40
0.0914549727146427
40
0.105543028850979
40
0.133719141123652
40
0.161895253396324
40
0.190071365668997
40
0.218247477941669
40
0.246423590214342
40
0.274599702487015
40
0.302775814759687
40
0.33095192703236
40
0.359128039305033
40
0.387304151577705
40
0.415480263850378
40
0.429568319986714
40
0.44365637612305
40
0.457744432259387
40
0.471832488395723
40
0.485920544532059
40
0.492964572600227
40
0.500008600668396
40
0.507052628736564
40
0.514096656804732
40
0.528184712941068
40
0.542272769077405
40
0.556360825213741
40
0.570448881350077
40
0.584536937486413
40
0.612713049759086
40
0.640889162031759
40
0.669065274304431
40
0.697241386577104
40
0.725417498849777
40
0.753593611122449
40
0.781769723395122
40
0.809945835667794
40
0.838121947940467
40
0.86629806021314
40
0.894474172485812
40
0.908562228622149
40
0.922650284758485
40
0.950826397031157
40
0.97900250930383
40
1
40
1
40
1
40
1
41
1
10
-46.5
20
26.4007340640559
30
0
41
1
10
-46.5
20
26.3864861908914
30
0
41
1
10
-46.5
20
26.299695556613
30
0
41
1
10
-46.5
20
25.9864884679325
30
0
41
1
10
-46.5
20
25.5370892350002
30
0
41
1
10
-46.5
20
25.0857116283692
30
0
41
1
10
-46.5
20
24.5758332694777
30
0
41
1
10
-46.5
20
23.8359097589668
30
0
41
1
10
-46.5
20
22.7886268297894
30
0
41
1
10
-46.5
20
21.5920242293512
30
0
41
1
10
-46.5
20
20.2518563243232
30
0
41
1
10
-46.5
20
18.773677001608
30
0
41
1
10
-46.5
20
17.1623226058105
30
0
41
1
10
-46.5
20
15.4206187950808
30
0
41
1
10
-46.5
20
13.5524250589533
30
0
41
1
10
-46.5
20
11.5601508338966
30
0
41
1
10
-46.5
20
9.44715323273309
30
0
41
1
10
-46.5
20
7.59259314167716
30
0
41
1
10
-46.5
20
6.04686117862462
30
0
41
1
10
-46.5
20
4.86698685362288
30
0
41
1
10
-46.5
20
3.66582628473356
30
0
41
1
10
-46.5
20
2.4492942236117
30
0
41
1
10
-46.5
20
1.43224163583807
30
0
41
1
10
-46.5
20
0.611404309556576
30
0
41
1
10
-46.5
20
2.92682472E-07
30
0
41
1
10
-46.5
20
-0.611403917686943
30
0
41
1
10
-46.5
20
-1.43224195164228
30
0
41
1
10
-46.5
20
-2.44929526971745
30
0
41
1
10
-46.5
20
-3.66582656723673
30
0
41
1
10
-46.5
20
-4.866986288764
30
0
41
1
10
-46.5
20
-6.04686128085439
30
0
41
1
10
-46.5
20
-7.59259349580967
30
0
41
1
10
-46.5
20
-9.44715327893681
30
0
41
1
10
-46.5
20
-11.5601507996435
30
0
41
1
10
-46.5
20
-13.5524250004931
30
0
41
1
10
-46.5
20
-15.4206184072864
30
0
41
1
10
-46.5
20
-17.1623222405147
30
0
41
1
10
-46.5
20
-18.7736769529143
30
0
41
1
10
-46.5
20
-20.2518568208893
30
0
41
1
10
-46.5
20
-21.5920243888973
30
0
41
1
10
-46.5
20
-22.7886257535111
30
0
41
1
10
-46.5
20
-23.8359105369953
30
0
41
1
10
-46.5
20
-24.5758361522005
30
0
41
1
10
-46.5
20
-25.0857134120403
30
0
41
1
10
-46.5
20
-25.5370891216558
30
0
41
1
10
-46.5
20
-25.9864887242638
30
0
41
1
10
-46.5
20
-26.2996258809652
30
0
41
1
10
-46.5
20
-26.3864253185596
30
0
41
1
10
-46.5
20
-26.4006989362704
30
0
0
SPLINE
5
147
100
AcDbEntity
8
SK1
62
256
6
ByLayer
370
18
48
1
60
0
100
AcDbSpline
70
4
71
3
72
10
73
6
40
0
40
0
40
0
40
0
40
0.5
40
0.5
40
1
40
1
40
1
40
1
41
1
10
0
20
-6.06751938797547
30
0
41
1
10
-0.0261571546478763
20
-6.15915785661466
30
0
41
1
10
-0.0548872560104314
20
-6.24971126591987
30
0
41
1
10
-0.12015572325987
20
-6.42786654391557
30
0
41
1
10
-0.156513044074785
20
-6.5155238619196
30
0
41
1
10
-0.19999999999601
20
-6.60073642225885
30
0
0
SPLINE
5
148
100
AcDbEntity
8
SK1
62
256
6
ByLayer
370
18
48
1
60
0
100
AcDbSpline
70
4
71
3
72
53
73
49
40
0
40
0
40
0
40
0
40
0.0183316011616067
40
0.0466650245793868
40
0.0749984479971668
40
0.0891651597060568
40
0.103331871414947
40
0.131665294832727
40
0.159998718250507
40
0.188332141668287
40
0.216665565086067
40
0.244998988503847
40
0.273332411921627
40
0.301665835339407
40
0.329999258757187
40
0.358332682174967
40
0.386666105592747
40
0.414999529010527
40
0.429166240719417
40
0.443332952428308
40
0.457499664137198
40
0.471666375846088
40
0.485833087554978
40
0.492916443409423
40
0.499999799263868
40
0.507083155118313
40
0.514166510972758
40
0.528333222681648
40
0.542499934390538
40
0.556666646099428
40
0.570833357808318
40
0.585000069517208
40
0.613333492934988
40
0.641666916352768
40
0.670000339770548
40
0.698333763188328
40
0.726667186606108
40
0.755000610023888
40
0.783334033441668
40
0.811667456859448
40
0.840000880277228
40
0.868334303695008
40
0.896667727112788
40
0.910834438821678
40
0.925001150530568
40
0.953334573948348
40
0.981667997366129
40
1
40
1
40
1
40
1
41
1
10
-2.19999999999999
20
27.5061054591946
30
0
41
1
10
-2.19999999999999
20
27.4878480320581
30
0
41
1
10
-2.19999999999999
20
27.3966067895352
30
0
41
1
10
-2.19999999999999
20
27.0843206529938
30
0
41
1
10
-2.19999999999999
20
26.6200957584238
30
0
41
1
10
-2.19999999999999
20
26.156191020121
30
0
41
1
10
-2.19999999999999
20
25.6326608836802
30
0
41
1
10
-2.19999999999999
20
24.8712257553423
30
0
41
1
10
-2.19999999999999
20
23.7958356733945
30
0
41
1
10
-2.19999999999999
20
22.5676765989873
30
0
41
1
10
-2.19999999999999
20
21.1922721628705
30
0
41
1
10
-2.19999999999999
20
19.6749841148914
30
0
41
1
10
-2.19999999999999
20
18.0199577075533
30
0
41
1
10
-2.19999999999999
20
16.229252641869
30
0
41
1
10
-2.19999999999999
20
14.3055535850363
30
0
41
1
10
-2.19999999999999
20
12.2492947844102
30
0
41
1
10
-2.19999999999999
20
10.0609973779136
30
0
41
1
10
-2.19999999999999
20
8.12686459619209
30
0
41
1
10
-2.19999999999999
20
6.51319173456665
30
0
41
1
10
-2.19999999999999
20
5.26973655346097
30
0
41
1
10
-2.19999999999999
20
3.99363661217191
30
0
41
1
10
-2.19999999999999
20
2.68649440179473
30
0
41
1
10
-2.19999999999999
20
1.57441409623576
30
0
41
1
10
-2.19999999999999
20
0.676125852580327
30
0
41
1
10
-2.19999999999999
20
-8.01526596E-08
30
0
41
1
10
-2.19999999999999
20
-0.676125991375216
30
0
41
1
10
-2.19999999999999
20
-1.57441419616916
30
0
41
1
10
-2.19999999999999
20
-2.68649461847352
30
0
41
1
10
-2.19999999999999
20
-3.99363707251752
30
0
41
1
10
-2.19999999999999
20
-5.26973663380883
30
0
41
1
10
-2.19999999999999
20
-6.51319169435675
30
0
41
1
10
-2.19999999999999
20
-8.1268648484035
30
0
41
1
10
-2.19999999999999
20
-10.0609975068282
30
0
41
1
10
-2.19999999999999
20
-12.2492948087344
30
0
41
1
10
-2.19999999999999
20
-14.3055536070197
30
0
41
1
10
-2.19999999999999
20
-16.2292523079286
30
0
41
1
10
-2.19999999999999
20
-18.0199573189881
30
0
41
1
10
-2.19999999999999
20
-19.6749839400143
30
0
41
1
10
-2.19999999999999
20
-21.1922725974247
30
0
41
1
10
-2.19999999999999
20
-22.5676769377316
30
0
41
1
10
-2.19999999999999
20
-23.7958345745359
30
0
41
1
10
-2.19999999999999
20
-24.87122617173
30
0
41
1
10
-2.19999999999999
20
-25.6326636676739
30
0
41
1
10
-2.19999999999999
20
-26.1561930557051
30
0
41
1
10
-2.19999999999999
20
-26.6200957619357
30
0
41
1
10
-2.19999999999999
20
-27.0843209142601
30
0
41
1
10
-2.19999999999996
20
-27.3966084412733
30
0
41
1
10
-2.19999999999996
20
-27.4878494538516
30
0
41
1
10
-2.19999999999999
20
-27.5061065406192
30
0
0
SPLINE
5
149
100
AcDbEntity
8
SK1
62
256
6
ByLayer
370
18
48
1
60
0
100
AcDbSpline
70
4
71
3
72
26
73
22
40
0
40
0
40
0
40
0
40
0.0312500000000004
40
0.0312500000000004
40
0.0625000000000007
40
0.0625000000000007
40
0.0937500000000011
40
0.0937500000000011
40
0.125000000000001
40
0.125000000000001
40
0.187500000000002
40
0.187500000000002
40
0.250000000000003
40
0.250000000000003
40
0.375000000000002
40
0.375000000000002
40
0.500000000000002
40
0.500000000000002
40
0.750000000000001
40
0.750000000000001
40
1
40
1
40
1
40
1
41
1
10
-0.394913799811292
20
5.88258733498486
30
0
41
1
10
-0.388797151417009
20
5.87735615537409
30
0
41
1
10
-0.382178785255292
20
5.87276841938103
30
0
41
1
10
-0.367546286948027
20
5.86614886022036
30
0
41
1
10
-0.359526893301506
20
5.86424432755425
30
0
41
1
10
-0.343383569558824
20
5.86494868021518
30
0
41
1
10
-0.335352808247933
20
5.86760693914616
30
0
41
1
10
-0.320994194999628
20
5.87613112177431
30
0
41
1
10
-0.314813212304813
20
5.88168816956644
30
0
41
1
10
-0.298019479410158
20
5.90039666885906
30
0
41
1
10
-0.289632513493331
20
5.91481530038885
30
0
41
1
10
-0.275047927333134
20
5.94473551098514
30
0
41
1
10
-0.269098119985245
20
5.96006824141057
30
0
41
1
10
-0.253300744549307
20
6.00662925270231
30
0
41
1
10
-0.245511863308593
20
6.03842225102412
30
0
41
1
10
-0.232418188951044
20
6.10267140648256
30
0
41
1
10
-0.227272492676377
20
6.13483454456409
30
0
41
1
10
-0.214352717274949
20
6.23126736367328
30
0
41
1
10
-0.209053161149114
20
6.2955371813469
30
0
41
1
10
-0.202001043985973
20
6.42397958322999
30
0
41
1
10
-0.20033707875217
20
6.48815453706811
30
0
41
1
10
-0.199999999999989
20
6.55227865789391
30
0
0
SPLINE
5
14A
100
AcDbEntity
8
SK1
62
256
6
ByLayer
370
18
48
1
60
0
100
AcDbSpline
70
4
71
3
72
28
73
24
40
0
40
0
40
0
40
0
40
0.125
40
0.125
40
0.25
40
0.25
40
0.3125
40
0.3125
40
0.34375
40
0.34375
40
0.375
40
0.375
40
0.5
40
0.5
40
0.625
40
0.625
40
0.6875
40
0.6875
40
0.75
40
0.75
40
0.875
40
0.875
40
1
40
1
40
1
40
1
41
1
10
-1.30710678118655
20
-4.39331221032492
30
0
41
1
10
-1.36954547363729
20
-4.04047241000961
30
0
41
1
10
-1.42791896221394
20
-3.68469473521455
30
0
41
1
10
-1.53342175503582
20
-2.96616199669307
30
0
41
1
10
-1.58051371000479
20
-2.60339474516391
30
0
41
1
10
-1.63969017396079
20
-2.05289759168917
30
0
41
1
10
-1.65749856469557
20
-1.86833789193395
30
0
41
1
10
-1.68090524760893
20
-1.58974420341141
30
0
41
1
10
-1.68815609252624
20
-1.4965870997257
30
0
41
1
10
-1.70147805604537
20
-1.30965819488989
30
0
41
1
10
-1.70755165689624
20
-1.21581541728389
30
0
41
1
10
-1.73465194668449
20
-0.747328919912889
30
0
41
1
10
-1.74568944185958
20
-0.373241829252151
30
0
41
1
10
-1.7456846982345
20
0.373499850699886
30
0
41
1
10
-1.73464739139644
20
0.746154674734555
30
0
41
1
10
-1.70248074969007
20
1.30410713450161
30
0
41
1
10
-1.68923323898761
20
1.48992312989222
30
0
41
1
10
-1.65815238798461
20
1.86123971402802
30
0
41
1
10
-1.64028452187063
20
2.04701796567377
30
0
41
1
10
-1.58095222331164
20
2.60000741581416
30
0
41
1
10
-1.53372925180184
20
2.96395482764061
30
0
41
1
10
-1.42802058606347
20
3.68410642628018
30
0
41
1
10
-1.36957095808998
20
4.04032346385458
30
0
41
1
10
-1.30710678118655
20
4.39330887788608
30
0
0
SPLINE
5
14B
100
AcDbEntity
8
SK1
62
256
6
ByLayer
370
18
48
1
60
0
100
AcDbSpline
70
4
71
3
72
26
73
22
40
0
40
0
40
0
40
0
40
0.25
40
0.25
40
0.499999999999999
40
0.499999999999999
40
0.624999999999999
40
0.624999999999999
40
0.749999999999999
40
0.749999999999999
40
0.812499999999999
40
0.812499999999999
40
0.874999999999998
40
0.874999999999998
40
0.906249999999998
40
0.906249999999998
40
0.937499999999999
40
0.937499999999999
40
0.968749999999999
40
0.968749999999999
40
1
40
1
40
1
40
1
41
1
10
-0.199999999999989
20
-6.5522771223242
30
0
41
1
10
-0.200337167165458
20
-6.48813612986294
30
0
41
1
10
-0.202001510499855
20
-6.42391230321709
30
0
41
1
10
-0.209070114923094
20
-6.2952839971141
30
0
41
1
10
-0.214382828797881
20
-6.23087903508431
30
0
41
1
10
-0.227377685183967
20
-6.13412972903654
30
0
41
1
10
-0.232547642906553
20
-6.10194739347943
30
0
41
1
10
-0.24562435876868
20
-6.03795723443596
30
0
41
1
10
-0.253472917847972
20
-6.00602750871005
30
0
41
1
10
-0.269245267236215
20
-5.95968016956081
30
0
41
1
10
-0.275173744753147
20
-5.94446441589318
30
0
41
1
10
-0.289582728448579
20
-5.91492711296701
30
0
41
1
10
-0.298086681857257
20
-5.90030478750055
30
0
41
1
10
-0.314848838487791
20
-5.88165454576188
30
0
41
1
10
-0.321040616956566
20
-5.87610899057319
30
0
41
1
10
-0.335228015879011
20
-5.86767232938709
30
0
41
1
10
-0.343317431356439
20
-5.86495514304286
30
0
41
1
10
-0.359534957572151
20
-5.86423711805915
30
0
41
1
10
-0.367571007865024
20
-5.86616228333779
30
0
41
1
10
-0.382101750029363
20
-5.87272803663097
30
0
41
1
10
-0.388790995722047
20
-5.8773492319288
30
0
41
1
10
-0.394913799811292
20
-5.88258567299096
30
0
0
SPLINE
5
14C
100
AcDbEntity
8
SK1
62
256
6
ByLayer
370
18
48
1
60
0
100
AcDbSpline
70
4
71
3
72
8
73
4
40
0
40
0
40
0
40
0
40
1
40
1
40
1
40
1
41
0.980125716641436
10
-0.199999999999998
20
6.55227865789369
30
0
41
0.980125716641436
10
-0.199999999999998
20
6.57917552517262
30
0
41
0.980125716641436
10
-0.199999999999998
20
6.60604818560182
30
0
41
0.980125716641436
10
-0.199999999999998
20
6.63289665789372
30
0
0
SPLINE
5
14D
100
AcDbEntity
8
SK1
62
256
6
ByLayer
370
18
48
1
60
0
100
AcDbSpline
70
4
71
3
72
24
73
20
40
0
40
0
40
0
40
0
40
0.0631775558258923
40
0.127917062526738
40
0.192656569227583
40
0.225026322578006
40
0.257396075928429
40
0.322135582629274
40
0.38687508933012
40
0.451614596030965
40
0.516354102731811
40
0.581093609432656
40
0.645833116133502
40
0.710572622834347
40
0.775312129535193
40
0.840051636236038
40
0.904791142936884
40
0.969530649637729
40
1
40
1
40
1
40
1
41
1
10
-0.200000000000017
20
27.570332674426
30
0
41
1
10
-0.200000000000017
20
27.5704150083771
30
0
41
1
10
-0.199999999999989
20
27.4854959938776
30
0
41
1
10
-0.199999999999989
20
27.1338841827934
30
0
41
1
10
-0.199999999999989
20
26.6689899581268
30
0
41
1
10
-0.199999999999989
20
26.2045196608322
30
0
41
1
10
-0.199999999999989
20
25.6803731913191
30
0
41
1
10
-0.199999999999989
20
24.9179668838468
30
0
41
1
10
-0.199999999999989
20
23.84130785595
30
0
41
1
10
-0.199999999999989
20
22.6117241100319
30
0
41
1
10
-0.199999999999989
20
21.2347288598704
30
0
41
1
10
-0.199999999999989
20
19.7156751809538
30
0
41
1
10
-0.199999999999989
20
18.0586771252393
30
0
41
1
10
-0.199999999999989
20
16.2657598132815
30
0
41
1
10
-0.199999999999989
20
14.3395548728955
30
0
41
1
10
-0.199999999999989
20
12.2804073781128
30
0
41
1
10
-0.199999999999989
20
10.0887104318722
30
0
41
1
10
-0.199999999999989
20
8.17373767117223
30
0
41
1
10
-0.199999999999989
20
6.98586973503126
30
0
41
1
10
-0.199999999999989
20
6.60073791650279
30
0
0
SPLINE
5
14E
100
AcDbEntity
8
SK1
62
256
6
ByLayer
370
18
48
1
60
0
100
AcDbSpline
70
4
71
3
72
24
73
20
40
0
40
0
40
0
40
0
40
0.0304745789519386
40
0.0952251102690771
40
0.159975641586215
40
0.224726172903354
40
0.289476704220492
40
0.354227235537631
40
0.418977766854769
40
0.483728298171908
40
0.548478829489046
40
0.613229360806185
40
0.677979892123323
40
0.742730423440462
40
0.775105689099031
40
0.8074809547576
40
0.872231486074739
40
0.936982017391877
40
1
40
1
40
1
40
1
41
1
10
-0.199999999999989
20
-6.60073642225791
30
0
41
1
10
-0.199999999999989
20
-6.98586877490845
30
0
41
1
10
-0.199999999999989
20
-8.17373743975534
30
0
41
1
10
-0.199999999999989
20
-10.0887105645208
30
0
41
1
10
-0.199999999999989
20
-12.2804074050816
30
0
41
1
10
-0.199999999999989
20
-14.3395548985108
30
0
41
1
10
-0.199999999999989
20
-16.2657594817725
30
0
41
1
10
-0.199999999999989
20
-18.0586767356234
30
0
41
1
10
-0.199999999999989
20
-19.7156750003799
30
0
41
1
10
-0.199999999999989
20
-21.2347292916249
30
0
41
1
10
-0.199999999999989
20
-22.6117244568664
30
0
41
1
10
-0.199999999999989
20
-23.841306756072
30
0
41
1
10
-0.199999999999989
20
-24.9179672839076
30
0
41
1
10
-0.199999999999989
20
-25.6803759708555
30
0
41
1
10
-0.199999999999989
20
-26.2045217077892
30
0
41
1
10
-0.199999999999989
20
-26.6689899669145
30
0
41
1
10
-0.199999999999989
20
-27.1338844442824
30
0
41
1
10
-0.199999999999989
20
-27.4851851249735
30
0
41
1
10
-0.199999999999989
20
-27.5701884332028
30
0
41
1
10
-0.199999999999989
20
-27.5703324222441
30
0
0
SPLINE
5
14F
100
AcDbEntity
8
SK1
62
256
6
ByLayer
370
13
48
1
60
0
100
AcDbSpline
70
4
71
3
72
25
73
21
40
0
40
0
40
0
40
0
40
0.0145587296635013
40
0.0464029855923471
40
0.110091497450039
40
0.17378000930773
40
0.237468521165422
40
0.301157033023113
40
0.364845544880805
40
0.428534056738496
40
0.492222568596188
40
0.555911080453879
40
0.619599592311571
40
0.683288104169263
40
0.746976616026954
40
0.7788208719558
40
0.810665127884646
40
0.874353639742337
40
0.938042151600029
40
1
40
1
40
1
40
1
41
1
10
-0.394913799811292
20
-5.88258567299198
30
0
41
1
10
-0.394913799811292
20
-6.07052405947678
30
0
41
1
10
-0.394913799811292
20
-6.66606717738506
30
0
41
1
10
-0.394913799811292
20
-8.05259623229938
30
0
41
1
10
-0.394913799811292
20
-9.97566753154939
30
0
41
1
10
-0.394913799811292
20
-12.1534974735354
30
0
41
1
10
-0.394913799811292
20
-14.2008618261791
30
0
41
1
10
-0.394913799811292
20
-16.1168447823444
30
0
41
1
10
-0.394913799811292
20
-17.9007381804523
30
0
41
1
10
-0.394913799811292
20
-19.549694005804
30
0
41
1
10
-0.394913799811292
20
-21.0615461829413
30
0
41
1
10
-0.394913799811292
20
-22.432052288855
30
0
41
1
10
-0.394913799811292
20
-23.6558233145232
30
0
41
1
10
-0.394913799811292
20
-24.7273078069339
30
0
41
1
10
-0.394913799811292
20
-25.4857549542384
30
0
41
1
10
-0.394913799811292
20
-26.0073865712911
30
0
41
1
10
-0.394913799811292
20
-26.4695479101472
30
0
41
1
10
-0.394913799811292
20
-26.9317121751432
30
0
41
1
10
-0.394913799811292
20
-27.280822353097
30
0
41
1
10
-0.39491379981132
20
-27.3652313290976
30
0
41
1
10
-0.39491379981132
20
-27.3654106728652
30
0
0
SPLINE
5
150
100
AcDbEntity
8
SK1
62
256
6
ByLayer
370
13
48
1
60
0
100
AcDbSpline
70
4
71
3
72
25
73
21
40
0
40
0
40
0
40
0
40
0.0619253405356417
40
0.125616062429274
40
0.189306784322906
40
0.221152145269722
40
0.252997506216538
40
0.31668822811017
40
0.380378950003802
40
0.444069671897434
40
0.507760393791066
40
0.571451115684698
40
0.63514183757833
40
0.698832559471962
40
0.762523281365594
40
0.826214003259226
40
0.889904725152859
40
0.953595447046491
40
0.985440807993307
40
1
40
1
40
1
40
1
41
1
10
-0.394913799811263
20
27.3654103351213
30
0
41
1
10
-0.394913799811263
20
27.3651849493469
30
0
41
1
10
-0.394913799811292
20
27.280758506252
30
0
41
1
10
-0.394913799811292
20
26.931711914563
30
0
41
1
10
-0.394913799811292
20
26.4695479228793
30
0
41
1
10
-0.394913799811292
20
26.0073845707252
30
0
41
1
10
-0.394913799811292
20
25.4857521565205
30
0
41
1
10
-0.394913799811292
20
24.7273073402748
30
0
41
1
10
-0.394913799811292
20
23.6558244102428
30
0
41
1
10
-0.394913799811292
20
22.4320519750209
30
0
41
1
10
-0.394913799811292
20
21.061545739767
30
0
41
1
10
-0.394913799811292
20
19.5496941631405
30
0
41
1
10
-0.394913799811292
20
17.9007385657829
30
0
41
1
10
-0.394913799811292
20
16.116845123771
30
0
41
1
10
-0.394913799811292
20
14.2008618153781
30
0
41
1
10
-0.394913799811292
20
12.153497457354
30
0
41
1
10
-0.394913799811292
20
9.97566741413243
30
0
41
1
10
-0.394913799811292
20
8.05259596592003
30
0
41
1
10
-0.394913799811292
20
6.66606769858657
30
0
41
1
10
-0.394913799811292
20
6.07052516538184
30
0
41
1
10
-0.394913799811292
20
5.88258733498486
30
0
0
SPLINE
5
151
100
AcDbEntity
8
1
62
256
6
ByLayer
370
18
48
1
60
0
100
AcDbSpline
70
4
71
3
72
22
73
18
40
0
40
0
40
0
40
0
40
0.125000000000039
40
0.125000000000039
40
0.250000000000078
40
0.250000000000078
40
0.312500000000077
40
0.312500000000077
40
0.375000000000076
40
0.375000000000076
40
0.500000000000062
40
0.500000000000062
40
0.625000000000048
40
0.625000000000048
40
0.750000000000034
40
0.750000000000034
40
1
40
1
40
1
40
1
41
1
10
106.6055
20
37.6200829661946
30
0
41
1
10
106.592533498862
20
37.6308327834681
30
0
41
1
10
106.579753193094
20
37.6402864467316
30
0
41
1
10
106.556254451705
20
37.654302916153
30
0
41
1
10
106.545490827475
20
37.6587687434616
30
0
41
1
10
106.533489226953
20
37.6596867674202
30
0
41
1
10
106.530205563054
20
37.6590766548954
30
0
41
1
10
106.525017733385
20
37.6560886458349
30
0
41
1
10
106.523156119715
20
37.653697451913
30
0
41
1
10
106.519717166478
20
37.6445192588561
30
0
41
1
10
106.520181417857
20
37.6355833444457
30
0
41
1
10
106.524792588522
20
37.6150938819369
30
0
41
1
10
106.528964218601
20
37.6033152733689
30
0
41
1
10
106.539577226902
20
37.5786246428309
30
0
41
1
10
106.546127538049
20
37.5654512705205
30
0
41
1
10
106.568108475269
20
37.5251641327109
30
0
41
1
10
106.585654455034
20
37.4974380464925
30
0
41
1
10
106.6055
20
37.4690368442115
30
0
0
SPLINE
5
152
100
AcDbEntity
8
1
62
256
6
ByLayer
370
18
48
1
60
0
100
AcDbSpline
70
4
71
3
72
12
73
8
40
0
40
0
40
0
40
0
40
0.25
40
0.25
40
0.5
40
0.5
40
1
40
1
40
1
40
1
41
1
10
107.3245
20
28.1800854813311
30
0
41
1
10
107.3245
20
28.2149391508414
30
0
41
1
10
107.321916951756
20
28.250545917111
30
0
41
1
10
107.313952554405
20
28.3225386608405
30
0
41
1
10
107.308463266611
20
28.3590590332578
30
0
41
1
10
107.288693751875
20
28.4684794525102
30
0
41
1
10
107.271251087085
20
28.5414311115802
30
0
41
1
10
107.2495
20
28.6144050421731
30
0
0
SPLINE
5
153
100
AcDbEntity
8
1
62
256
6
ByLayer
370
18
48
1
60
0
100
AcDbSpline
70
4
71
3
72
18
73
14
40
0
40
0
40
0
40
0
40
0.12500000000003
40
0.12500000000003
40
0.25000000000006
40
0.25000000000006
40
0.375000000000089
40
0.375000000000089
40
0.500000000000119
40
0.500000000000119
40
0.75000000000006
40
0.75000000000006
40
1
40
1
40
1
40
1
41
1
10
107.2495
20
30.4146279387551
30
0
41
1
10
107.25500497881
20
30.4094222642644
30
0
41
1
10
107.260747198982
20
30.4047102840508
30
0
41
1
10
107.272271983717
20
30.3973363917776
30
0
41
1
10
107.278205664729
20
30.394621772586
30
0
41
1
10
107.2893124648
20
30.3923988253769
30
0
41
1
10
107.294555762787
20
30.392912597402
30
0
41
1
10
107.303434328157
20
30.396913079466
30
0
41
1
10
107.307128635141
20
30.4003404441786
30
0
41
1
10
107.316095454751
20
30.4129759221184
30
0
41
1
10
107.319554238696
20
30.4245951089765
30
0
41
1
10
107.323742183536
20
30.4491802546459
30
0
41
1
10
107.3245
20
30.4622966572634
30
0
41
1
10
107.3245
20
30.4758747057918
30
0
0
SPLINE
5
154
100
AcDbEntity
8
1
62
256
6
ByLayer
370
18
48
1
60
0
100
AcDbSpline
70
4
71
3
72
14
73
10
40
0
40
0
40
0
40
0
40
0.25
40
0.25
40
0.5
40
0.5
40
0.75
40
0.75
40
1
40
1
40
1
40
1
41
1
10
107.2495
20
33.9767752987124
30
0
41
1
10
107.259733022903
20
33.9682967416001
30
0
41
1
10
107.270234663605
20
33.9611039699824
30
0
41
1
10
107.289965723692
20
33.9523389980604
30
0
41
1
10
107.299095384783
20
33.9510252133539
30
0
41
1
10
107.31290217886
20
33.9555071749108
30
0
41
1
10
107.317639435507
20
33.9611014471509
30
0
41
1
10
107.323378773838
20
33.9757839108189
30
0
41
1
10
107.324500000004
20
33.9848636445607
30
0
41
1
10
107.324500000004
20
33.9946525728916
30
0
0
SPLINE
5
155
100
AcDbEntity
8
1
62
256
6
ByLayer
370
18
48
1
60
0
100
AcDbSpline
70
4
71
3
72
20
73
16
40
0
40
0
40
0
40
0
40
0.249999999999966
40
0.249999999999966
40
0.374999999999972
40
0.374999999999972
40
0.499999999999978
40
0.499999999999978
40
0.624999999999983
40
0.624999999999983
40
0.749999999999989
40
0.749999999999989
40
0.874999999999994
40
0.874999999999994
40
1
40
1
40
1
40
1
41
1
10
106.6055
20
0.533774374878419
30
0
41
1
10
106.584252717749
20
0.510267889394925
30
0
41
1
10
106.564759178412
20
0.48775439766203
30
0
41
1
10
106.541538810157
20
0.458754408938944
30
0
41
1
10
106.534819153131
20
0.449885621929809
30
0
41
1
10
106.524848890269
20
0.435289559959756
30
0
41
1
10
106.52154227505
20
0.429461385913498
30
0
41
1
10
106.519879790056
20
0.422656018241412
30
0
41
1
10
106.521526851207
20
0.421718969480196
30
0
41
1
10
106.529927354216
20
0.425214809252736
30
0
41
1
10
106.536474905501
20
0.429545862931462
30
0
41
1
10
106.552728930923
20
0.441932815849555
30
0
41
1
10
106.562321241512
20
0.449893390112322
30
0
41
1
10
106.583076711062
20
0.46793528514911
30
0
41
1
10
106.594055349581
20
0.477848516140909
30
0
41
1
10
106.6055
20
0.488448756906564
30
0
0
SPLINE
5
156
100
AcDbEntity
8
1
62
256
6
ByLayer
370
18
48
1
60
0
100
AcDbSpline
70
4
71
3
72
22
73
18
40
0
40
0
40
0
40
0
40
0.250000000000004
40
0.250000000000004
40
0.375000000000004
40
0.375000000000004
40
0.500000000000005
40
0.500000000000005
40
0.625000000000006
40
0.625000000000006
40
0.750000000000006
40
0.750000000000006
40
0.812500000000004
40
0.812500000000004
40
0.875000000000002
40
0.875000000000002
40
1
40
1
40
1
40
1
41
1
10
10.1056624327026
20
37.9445010117191
30
0
41
1
10
10.1212438126112
20
37.9636055836586
30
0
41
1
10
10.1398761201257
20
37.9822012953861
30
0
41
1
10
10.1739972864804
20
38.0091614379608
30
0
41
1
10
10.1864101449813
20
38.0179913785433
30
0
41
1
10
10.2138388425173
20
38.0352792465571
30
0
41
1
10
10.2289265953742
20
38.0437762110223
30
0
41
1
10
10.2621641170173
20
38.0600837295902
30
0
41
1
10
10.2802620066642
20
38.0678870466104
30
0
41
1
10
10.3205610269858
20
38.0825553532501
30
0
41
1
10
10.3426053074955
20
38.0893529851856
30
0
41
1
10
10.3789180567415
20
38.0982048271663
30
0
41
1
10
10.3915960688954
20
38.1009395753102
30
0
41
1
10
10.4183879309626
20
38.1058736681204
30
0
41
1
10
10.4324900730126
20
38.1080609020696
30
0
41
1
10
10.4758266843417
20
38.1134152144531
30
0
41
1
10
10.5070602691285
20
38.1154578595255
30
0
41
1
10
10.5386751345948
20
38.1154578595255
30
0
0
SPLINE
5
157
100
AcDbEntity
8
1
62
256
6
ByLayer
370
18
48
1
60
0
100
AcDbSpline
70
4
71
3
72
8
73
4
40
0
40
0
40
0
40
0
40
1
40
1
40
1
40
1
41
1
10
106.6055
20
3.2173006732674
30
0
41
1
10
106.820173237194
20
3.39307701254964
30
0
41
1
10
107.034840117021
20
3.5688637046043
30
0
41
1
10
107.2495
20
3.74466178762503
30
0
0
SPLINE
5
158
100
AcDbEntity
8
1
62
256
6
ByLayer
370
18
48
1
60
0
100
AcDbSpline
70
4
71
3
72
30
73
26
40
0
40
0
40
0
40
0
40
0.125000000000001
40
0.125000000000001
40
0.187500000000001
40
0.187500000000001
40
0.250000000000001
40
0.250000000000001
40
0.500000000000001
40
0.500000000000001
40
0.75
40
0.75
40
0.8125
40
0.8125
40
0.875
40
0.9375
40
0.9375
40
0.96875
40
0.96875
40
0.984375
40
0.9921875
40
0.9921875
40
0.99609375
40
0.99609375
40
1
40
1
40
1
40
1
41
1
10
101.834074173711
20
36.9803412596197
30
0
41
1
10
101.850129453239
20
37.2288999172848
30
0
41
1
10
101.871253173267
20
37.4627790325105
30
0
41
1
10
101.909179303368
20
37.7916469746582
30
0
41
1
10
101.922862414688
20
37.8975427019879
30
0
41
1
10
101.951999097242
20
38.1011502666456
30
0
41
1
10
101.967465950506
20
38.1989809234296
30
0
41
1
10
102.048826874787
20
38.6685413892127
30
0
41
1
10
102.126653290922
20
38.9817345427319
30
0
41
1
10
102.298815648949
20
39.4861540716188
30
0
41
1
10
102.393231712147
20
39.6773783074777
30
0
41
1
10
102.517448493725
20
39.8382726373993
30
0
41
1
10
102.542628378113
20
39.8665514155966
30
0
41
1
10
102.593390110302
20
39.9150436475551
30
0
41
1
10
102.644518602543
20
39.9554559662588
30
0
41
1
10
102.696168712708
20
39.9797348170068
30
0
41
1
10
102.735023782885
20
39.9918851850905
30
0
41
1
10
102.747991793209
20
39.9949241721292
30
0
41
1
10
102.76745486796
20
39.9979654006058
30
0
41
1
10
102.777189458825
20
39.9991067760411
30
0
41
1
10
102.786926798923
20
39.9996792442827
30
0
41
1
10
102.791795774647
20
39.9998706479165
30
0
41
1
10
102.79341470101
20
39.9999186875939
30
0
41
1
10
102.796707347465
20
39.9999837374559
30
0
41
1
10
102.798353672719
20
40
30
0
41
1
10
102.8
20
40
30
0
0
SPLINE
5
159
100
AcDbEntity
8
1
62
256
6
ByLayer
370
18
48
1
60
0
100
AcDbSpline
70
4
71
3
72
8
73
4
40
0
40
0
40
0
40
0
40
1
40
1
40
1
40
1
41
1
10
107.2495
20
2.07354552727594
30
0
41
1
10
107.036344592726
20
1.80198000593143
30
0
41
1
10
106.821632798019
20
1.53206460771
30
0
41
1
10
106.6055
20
1.26365579478537
30
0
0
SPLINE
5
15A
100
AcDbEntity
8
1
62
256
6
ByLayer
370
18
48
1
60
0
100
AcDbSpline
70
4
71
3
72
14
73
10
40
0
40
0
40
0
40
0
40
0.25
40
0.25
40
0.5
40
0.5
40
0.75
40
0.75
40
1
40
1
40
1
40
1
41
1
10
107.2495
20
36.2553382123748
30
0
41
1
10
107.259398868046
20
36.2472314250126
30
0
41
1
10
107.269223229739
20
36.2400961103482
30
0
41
1
10
107.287974418792
20
36.2291854674856
30
0
41
1
10
107.296731434281
20
36.2256010647453
30
0
41
1
10
107.310852246407
20
36.2237352895698
30
0
41
1
10
107.316292465155
20
36.2254991105443
30
0
41
1
10
107.323020110113
20
36.2333581500304
30
0
41
1
10
107.3245
20
36.2394805992425
30
0
41
1
10
107.3245
20
36.2467427634159
30
0
0
SPLINE
5
15B
100
AcDbEntity
8
1
62
256
6
ByLayer
370
18
48
1
60
0
100
AcDbSpline
70
4
71
3
72
18
73
14
40
0
40
0
40
0
40
0
40
0.125000000000019
40
0.125000000000019
40
0.250000000000039
40
0.250000000000039
40
0.375000000000058
40
0.375000000000058
40
0.500000000000078
40
0.500000000000078
40
0.750000000000039
40
0.750000000000039
40
1
40
1
40
1
40
1
41
1
10
107.249499999998
20
27.6335829581316
30
0
41
1
10
107.255413958302
20
27.6266240616904
30
0
41
1
10
107.261770458563
20
27.6203097237282
30
0
41
1
10
107.275305680587
20
27.6114240544776
30
0
41
1
10
107.282553982376
20
27.6091772882427
30
0
41
1
10
107.295087758634
20
27.6116549555152
30
0
41
1
10
107.300230069096
20
27.616099477066
30
0
41
1
10
107.308159051547
20
27.6275116537362
30
0
41
1
10
107.31112797194
20
27.6345170795923
30
0
41
1
10
107.318222409956
20
27.6566935589686
30
0
41
1
10
107.32074518818
20
27.6733780266885
30
0
41
1
10
107.323912195392
20
27.7071517001384
30
0
41
1
10
107.3245
20
27.7245106959302
30
0
41
1
10
107.3245
20
27.7421428531871
30
0
0
SPLINE
5
15C
100
AcDbEntity
8
1
62
256
6
ByLayer
370
18
48
1
60
0
100
AcDbSpline
70
4
71
3
72
22
73
18
40
0
40
0
40
0
40
0
40
0.249999999999992
40
0.249999999999992
40
0.374999999999988
40
0.374999999999988
40
0.499999999999985
40
0.499999999999985
40
0.624999999999981
40
0.624999999999981
40
0.749999999999977
40
0.749999999999977
40
0.812499999999979
40
0.812499999999979
40
0.874999999999982
40
0.874999999999982
40
1
40
1
40
1
40
1
41
1
10
13.8943375672973
20
12.6576002058704
30
0
41
1
10
13.8787561873887
20
12.6003292036663
30
0
41
1
10
13.8601238798742
20
12.5441499637056
30
0
41
1
10
13.8260027135196
20
12.462121615994
30
0
41
1
10
13.8135898550187
20
12.4351561290447
30
0
41
1
10
13.7861611574827
20
12.3821770722736
30
0
41
1
10
13.7710734046258
20
12.356042699911
30
0
41
1
10
13.7378358829827
20
12.3057192432197
30
0
41
1
10
13.7197379933358
20
12.2815531796603
30
0
41
1
10
13.6794389730142
20
12.2359940529961
30
0
41
1
10
13.6573946925045
20
12.2148091982092
30
0
41
1
10
13.6210819432585
20
12.1871605631487
30
0
41
1
10
13.6084039311046
20
12.1786070311295
30
0
41
1
10
13.5816120690374
20
12.1631598579219
30
0
41
1
10
13.5675099269874
20
12.1563040766935
30
0
41
1
10
13.5241733156583
20
12.1395106480539
30
0
41
1
10
13.4929397308715
20
12.1330899674707
30
0
41
1
10
13.4613248654052
20
12.1330899674707
30
0
0
SPLINE
5
15D
100
AcDbEntity
8
1
62
256
6
ByLayer
370
18
48
1
60
0
100
AcDbSpline
70
4
71
3
72
8
73
4
40
0
40
0
40
0
40
0
40
1
40
1
40
1
40
1
41
1
10
107.2495
20
38.9129704705177
30
0
41
1
10
107.035137860735
20
39.1129342405493
30
0
41
1
10
106.820462678659
20
39.31244894935
30
0
41
1
10
106.6055
20
39.5115512430934
30
0
0
SPLINE
5
15E
100
AcDbEntity
8
1
62
256
6
ByLayer
370
18
48
1
60
0
100
AcDbSpline
70
4
71
3
72
24
73
20
40
0
40
0
40
0
40
0
40
0.0625000000000346
40
0.0625000000000346
40
0.0937500000000294
40
0.0937500000000294
40
0.125000000000024
40
0.125000000000024
40
0.187500000000014
40
0.187500000000014
40
0.250000000000004
40
0.250000000000004
40
0.375000000000003
40
0.375000000000003
40
0.500000000000002
40
0.500000000000002
40
0.750000000000001
40
0.750000000000001
40
1
40
1
40
1
40
1
41
1
10
106.605500000001
20
31.0193324895507
30
0
41
1
10
106.596351499941
20
31.0278652865442
30
0
41
1
10
106.586687669786
20
31.0351999066992
30
0
41
1
10
106.572333089937
20
31.0418200062381
30
0
41
1
10
106.567554778791
20
31.0432723168304
30
0
41
1
10
106.558641496353
20
31.044250853382
30
0
41
1
10
106.554365500145
20
31.0437754546188
30
0
41
1
10
106.543093981622
20
31.0397104876867
30
0
41
1
10
106.537346922296
20
31.0335113934086
30
0
41
1
10
106.5289338815
20
31.01793447613
30
0
41
1
10
106.526157472395
20
31.0085824314793
30
0
41
1
10
106.520450088133
20
30.9788847800534
30
0
41
1
10
106.519936430234
20
30.9563668452074
30
0
41
1
10
106.521890124223
20
30.9105914997113
30
0
41
1
10
106.524441710891
20
30.8869493256597
30
0
41
1
10
106.53512134905
20
30.8145461173041
30
0
41
1
10
106.545959817937
20
30.7658633474734
30
0
41
1
10
106.572183989675
20
30.6679632963495
30
0
41
1
10
106.58766472211
20
30.6187362951508
30
0
41
1
10
106.6055
20
30.5692423325785
30
0
0
SPLINE
5
15F
100
AcDbEntity
8
1
62
256
6
ByLayer
370
18
48
1
60
0
100
AcDbSpline
70
4
71
3
72
12
73
8
40
0
40
0
40
0
40
0
40
0.249999999999966
40
0.249999999999966
40
0.499999999999933
40
0.499999999999933
40
1
40
1
40
1
40
1
41
1
10
107.324500000003
20
35.3850933995421
30
0
41
1
10
107.324500000003
20
35.3970787264872
30
0
41
1
10
107.321814823682
20
35.4112191757295
30
0
41
1
10
107.313432917887
20
35.440781483875
30
0
41
1
10
107.307644159211
20
35.4564966194783
30
0
41
1
10
107.287203970073
20
35.5044683083614
30
0
41
1
10
107.269842865355
20
35.5371366987856
30
0
41
1
10
107.2495
20
35.5703702247132
30
0
0
SPLINE
5
160
100
AcDbEntity
8
1
62
256
6
ByLayer
370
18
48
1
60
0
100
AcDbSpline
70
4
71
3
72
18
73
14
40
0
40
0
40
0
40
0
40
0.249999999999978
40
0.249999999999978
40
0.499999999999956
40
0.499999999999956
40
0.624999999999967
40
0.624999999999967
40
0.749999999999978
40
0.749999999999978
40
0.874999999999989
40
0.874999999999989
40
1
40
1
40
1
40
1
41
1
10
107.3245
20
12.2578571468129
30
0
41
1
10
107.3245
20
12.2754823006164
30
0
41
1
10
107.32391229198
20
12.292828251498
30
0
41
1
10
107.32075290832
20
12.3265586153586
30
0
41
1
10
107.31823321225
20
12.3432571491199
30
0
41
1
10
107.311139893004
20
12.3654533905331
30
0
41
1
10
107.30817714617
20
12.3724578013733
30
0
41
1
10
107.300230880857
20
12.3839038451805
30
0
41
1
10
107.295135545578
20
12.3883454147861
30
0
41
1
10
107.282451033099
20
12.3908332031123
30
0
41
1
10
107.275264485858
20
12.3885641010461
30
0
41
1
10
107.261672465469
20
12.3796105895519
30
0
41
1
10
107.255362671196
20
12.3733155892726
30
0
41
1
10
107.2495
20
12.3664170418656
30
0
0
SPLINE
5
161
100
AcDbEntity
8
1
62
256
6
ByLayer
370
18
48
1
60
0
100
AcDbSpline
70
4
71
3
72
20
73
16
40
0
40
0
40
0
40
0
40
0.249999999999987
40
0.249999999999987
40
0.499999999999974
40
0.499999999999974
40
0.624999999999971
40
0.624999999999971
40
0.749999999999967
40
0.749999999999967
40
0.812499999999964
40
0.812499999999964
40
0.874999999999961
40
0.874999999999961
40
1
40
1
40
1
40
1
41
1
10
106.6055
20
5.76651028747239
30
0
41
1
10
106.58665178262
20
5.72996426656633
30
0
41
1
10
106.570003929807
20
5.69328670248709
30
0
41
1
10
106.54235401958
20
5.62137003550851
30
0
41
1
10
106.531260620271
20
5.58629477265006
30
0
41
1
10
106.521945970035
20
5.53656436162802
30
0
41
1
10
106.520163421698
20
5.52087090037838
30
0
41
1
10
106.520937540741
20
5.4923562974945
30
0
41
1
10
106.523531889678
20
5.47958663168893
30
0
41
1
10
106.533361056321
20
5.46705221956921
30
0
41
1
10
106.53766255767
20
5.46406580234074
30
0
41
1
10
106.548184540343
20
5.461402473161
30
0
41
1
10
106.554395521324
20
5.46172167475794
30
0
41
1
10
106.574973031665
20
5.4675155313937
30
0
41
1
10
106.590454765483
20
5.47747000943536
30
0
41
1
10
106.6055
20
5.48992272234966
30
0
0
SPLINE
5
162
100
AcDbEntity
8
1
62
256
6
ByLayer
370
18
48
1
60
0
100
AcDbSpline
70
4
71
3
72
12
73
8
40
0
40
0
40
0
40
0
40
0.499999999999996
40
0.499999999999996
40
0.749999999999998
40
0.749999999999998
40
1
40
1
40
1
40
1
41
1
10
107.2495
20
5.60801211581142
30
0
41
1
10
107.27010032095
20
5.64566136664101
30
0
41
1
10
107.287778739477
20
5.68360861886629
30
0
41
1
10
107.307880398042
20
5.73829016053415
30
0
41
1
10
107.313525962551
20
5.75617468267677
30
0
41
1
10
107.321860478618
20
5.79097861416884
30
0
41
1
10
107.3245
20
5.80759309333919
30
0
41
1
10
107.3245
20
5.82240239656213
30
0
0
SPLINE
5
163
100
AcDbEntity
8
1
62
256
6
ByLayer
370
18
48
1
60
0
100
AcDbSpline
70
4
71
3
72
14
73
10
40
0
40
0
40
0
40
0
40
0.25
40
0.25
40
0.5
40
0.5
40
0.75
40
0.75
40
1
40
1
40
1
40
1
41
1
10
107.3245
20
3.75325723658378
30
0
41
1
10
107.3245
20
3.7605289997712
30
0
41
1
10
107.32305055261
20
3.7666088924305
30
0
41
1
10
107.316255949266
20
3.77454093942637
30
0
41
1
10
107.31080187969
20
3.77626673026109
30
0
41
1
10
107.296702547042
20
3.77438639472101
30
0
41
1
10
107.287942439373
20
3.77079223642789
30
0
41
1
10
107.269327473126
20
3.75996821925557
30
0
41
1
10
107.259405815922
20
3.75277426502728
30
0
41
1
10
107.2495
20
3.74466178762512
30
0
0
SPLINE
5
164
100
AcDbEntity
8
1
62
256
6
ByLayer
370
18
48
1
60
0
100
AcDbSpline
70
4
71
3
72
22
73
18
40
0
40
0
40
0
40
0
40
0.250000000000019
40
0.250000000000019
40
0.500000000000037
40
0.500000000000037
40
0.625000000000054
40
0.625000000000054
40
0.687500000000062
40
0.687500000000062
40
0.750000000000071
40
0.750000000000071
40
0.875000000000035
40
0.875000000000035
40
0.937500000000018
40
0.937500000000018
40
1
40
1
40
1
40
1
41
1
10
106.6055
20
2.53096315578847
30
0
41
1
10
106.585591553727
20
2.50247193467789
30
0
41
1
10
106.56769567603
20
2.47413644913996
30
0
41
1
10
106.53866727079
20
2.42081713716684
30
0
41
1
10
106.527054952205
20
2.39507623778454
30
0
41
1
10
106.520158147362
20
2.36425396095942
30
0
41
1
10
106.519699948155
20
2.3554340727186
30
0
41
1
10
106.523212287993
20
2.34619990414166
30
0
41
1
10
106.525072332122
20
2.34385957800717
30
0
41
1
10
106.53027554466
20
2.34090386103094
30
0
41
1
10
106.533673850252
20
2.34030379870015
30
0
41
1
10
106.545626844133
20
2.34129030229346
30
0
41
1
10
106.556327295088
20
2.34573486776205
30
0
41
1
10
106.573923678963
20
2.35623923203912
30
0
41
1
10
106.580143203835
20
2.36041888260033
30
0
41
1
10
106.592686016535
20
2.36957454451397
30
0
41
1
10
106.599053312079
20
2.37457243726112
30
0
41
1
10
106.6055
20
2.37991703380533
30
0
0
SPLINE
5
165
100
AcDbEntity
8
1
62
256
6
ByLayer
370
18
48
1
60
0
100
AcDbSpline
70
4
71
3
72
8
73
4
40
0
40
0
40
0
40
0
40
1
40
1
40
1
40
1
41
1
10
107.2495
20
30.4146279387559
30
0
41
1
10
107.035436607666
20
30.6170527580397
30
0
41
1
10
106.820739969169
20
30.8185783823277
30
0
41
1
10
106.6055
20
31.019332489549
30
0
0
SPLINE
5
166
100
AcDbEntity
8
1
62
256
6
ByLayer
370
18
48
1
60
0
100
AcDbSpline
70
4
71
3
72
12
73
8
40
0
40
0
40
0
40
0
40
0.250000000000003
40
0.250000000000003
40
0.500000000000005
40
0.500000000000005
40
1
40
1
40
1
40
1
41
1
10
107.324500000009
20
36.3675876053922
30
0
41
1
10
107.324500000008
20
36.3772221576382
30
0
41
1
10
107.321873699401
20
36.3890583159478
30
0
41
1
10
107.313449392423
20
36.4145929308426
30
0
41
1
10
107.307670540604
20
36.4282616213631
30
0
41
1
10
107.287041271642
20
36.4708624306539
30
0
41
1
10
107.269646391906
20
36.5001337171809
30
0
41
1
10
107.2495
20
36.5300799335829
30
0
0
SPLINE
5
167
100
AcDbEntity
8
1
62
256
6
ByLayer
370
18
48
1
60
0
100
AcDbSpline
70
4
71
3
72
30
73
26
40
0
40
0
40
0
40
0
40
0.0624999999999668
40
0.0624999999999668
40
0.0937499999999576
40
0.0937499999999576
40
0.10937499999996
40
0.10937499999996
40
0.124999999999962
40
0.124999999999962
40
0.140624999999965
40
0.140624999999965
40
0.156249999999967
40
0.156249999999967
40
0.187499999999958
40
0.187499999999958
40
0.249999999999954
40
0.249999999999954
40
0.374999999999961
40
0.374999999999961
40
0.499999999999968
40
0.499999999999968
40
0.749999999999984
40
0.749999999999984
40
1
40
1
40
1
40
1
41
1
10
107.2495
20
21.8917458747739
30
0
41
1
10
107.252585251602
20
21.8785089277448
30
0
41
1
10
107.255899597279
20
21.8653817742974
30
0
41
1
10
107.261905380729
20
21.8461786989543
30
0
41
1
10
107.264083682185
20
21.8398191000685
30
0
41
1
10
107.267983901483
20
21.8307159739005
30
0
41
1
10
107.269379755249
20
21.8277761785665
30
0
41
1
10
107.272581160924
20
21.8223002413139
30
0
41
1
10
107.27439750269
20
21.8196829649802
30
0
41
1
10
107.27884813873
20
21.8161978103417
30
0
41
1
10
107.281541189178
20
21.8158117140881
30
0
41
1
10
107.285946402378
20
21.8184859567134
30
0
41
1
10
107.287666132916
20
21.8210000637143
30
0
41
1
10
107.291963767712
20
21.8290126886559
30
0
41
1
10
107.293902185556
20
21.8352909182867
30
0
41
1
10
107.298993106347
20
21.8543167517459
30
0
41
1
10
107.301268828837
20
21.8676148741127
30
0
41
1
10
107.307234219055
20
21.9077317957794
30
0
41
1
10
107.30983512522
20
21.9349529775252
30
0
41
1
10
107.314214938181
20
21.9894435372778
30
0
41
1
10
107.315900690146
20
22.0167876440396
30
0
41
1
10
107.320121868679
20
22.098970549544
30
0
41
1
10
107.321822727285
20
22.1539705993099
30
0
41
1
10
107.324029349182
20
22.2640982784604
30
0
41
1
10
107.324500000005
20
22.3192150884173
30
0
41
1
10
107.324500000005
20
22.3743632971165
30
0
0
SPLINE
5
168
100
AcDbEntity
8
1
62
256
6
ByLayer
370
18
48
1
60
0
100
AcDbSpline
70
4
71
3
72
8
73
4
40
0
40
0
40
0
40
0
40
1
40
1
40
1
40
1
41
1
10
106.6055
20
0.767415543723956
30
0
41
1
10
106.820374683942
20
0.959647505290434
30
0
41
1
10
107.035047370323
20
1.15217974644668
30
0
41
1
10
107.2495
20
1.34503911302198
30
0
0
SPLINE
5
169
100
AcDbEntity
8
1
62
256
6
ByLayer
370
18
48
1
60
0
100
AcDbSpline
70
4
71
3
72
8
73
4
40
0
40
0
40
0
40
0
40
1
40
1
40
1
40
1
41
1
10
107.2495
20
8.90878329908651
30
0
41
1
10
107.044943589855
20
8.39173247475688
30
0
41
1
10
106.829910422179
20
7.88054539625426
30
0
41
1
10
106.6055
20
7.37460668174256
30
0
0
SPLINE
5
16A
100
AcDbEntity
8
1
62
256
6
ByLayer
370
18
48
1
60
0
100
AcDbSpline
70
4
71
3
72
8
73
4
40
0
40
0
40
0
40
0
40
1
40
1
40
1
40
1
41
1
10
106.6055
20
27.7147398224982
30
0
41
1
10
106.869706220596
20
26.6806088261539
30
0
41
1
10
107.086430061288
20
25.6335061812587
30
0
41
1
10
107.2495
20
24.5717458978615
30
0
0
SPLINE
5
16B
100
AcDbEntity
8
1
62
256
6
ByLayer
370
18
48
1
60
0
100
AcDbSpline
70
4
71
3
72
20
73
16
40
0
40
0
40
0
40
0
40
0.0625000000000014
40
0.0625000000000014
40
0.125000000000003
40
0.125000000000003
40
0.250000000000002
40
0.250000000000002
40
0.375000000000002
40
0.375000000000002
40
0.500000000000002
40
0.500000000000002
40
0.750000000000001
40
0.750000000000001
40
1
40
1
40
1
40
1
41
1
10
13.4613248654051
20
38.1154578595254
30
0
41
1
10
13.4771575420862
20
38.1154578595254
30
0
41
1
10
13.4926967829159
20
38.1149630443688
30
0
41
1
10
13.5232412496765
20
38.1130718896044
30
0
41
1
10
13.5383757111925
20
38.1116578687672
30
0
41
1
10
13.5820585103617
20
38.1062685963606
30
0
41
1
10
13.6085397975367
20
38.101260466828
30
0
41
1
10
13.6577471021953
20
38.0892687952497
30
0
41
1
10
13.6795828635239
20
38.0825033540054
30
0
41
1
10
13.7196125550313
20
38.0679323293244
30
0
41
1
10
13.737867997266
20
38.0600685618956
30
0
41
1
10
13.7876681187475
20
38.0356330717497
30
0
41
1
10
13.8143757204948
20
38.0183244490836
30
0
41
1
10
13.8599678398712
20
37.9823481941392
30
0
41
1
10
13.8787504379151
20
37.9636126331776
30
0
41
1
10
13.8943375672974
20
37.9445010117191
30
0
0
SPLINE
5
16C
100
AcDbEntity
8
1
62
256
6
ByLayer
370
18
48
1
60
0
100
AcDbSpline
70
4
71
3
72
8
73
4
40
0
40
0
40
0
40
0
40
1
40
1
40
1
40
1
41
1
10
107.2495
20
15.4282541021384
30
0
41
1
10
107.086430061288
20
14.3664938187413
30
0
41
1
10
106.869706220596
20
13.3193911738461
30
0
41
1
10
106.6055
20
12.2852601775018
30
0
0
SPLINE
5
16D
100
AcDbEntity
8
1
62
256
6
ByLayer
370
18
48
1
60
0
100
AcDbSpline
70
4
71
3
72
20
73
16
40
0
40
0
40
0
40
0
40
0.25000000000001
40
0.25000000000001
40
0.375000000000008
40
0.375000000000008
40
0.500000000000006
40
0.500000000000006
40
0.625000000000005
40
0.625000000000005
40
0.750000000000003
40
0.750000000000003
40
0.875000000000002
40
0.875000000000002
40
1
40
1
40
1
40
1
41
1
10
107.32450000001
20
9.52412529421417
30
0
41
1
10
107.324500000011
20
9.53775193148743
30
0
41
1
10
107.323720006666
20
9.55104816881453
30
0
41
1
10
107.32056082149
20
9.56944545925214
30
0
41
1
10
107.319177438201
20
9.5752953462389
30
0
41
1
10
107.315460180535
20
9.58617807923349
30
0
41
1
10
107.313094294282
20
9.59125963941975
30
0
41
1
10
107.307107301193
20
9.59968306659343
30
0
41
1
10
107.30339385025
20
9.60311526077996
30
0
41
1
10
107.294518318095
20
9.60709408341364
30
0
41
1
10
107.289273781814
20
9.60760190919419
30
0
41
1
10
107.278148020212
20
9.60535813984785
30
0
41
1
10
107.272240259158
20
9.60264586316359
30
0
41
1
10
107.26073610745
20
9.59528005650662
30
0
41
1
10
107.254995241478
20
9.59056852782012
30
0
41
1
10
107.2495
20
9.58537206124535
30
0
0
SPLINE
5
16E
100
AcDbEntity
8
1
62
256
6
ByLayer
370
18
48
1
60
0
100
AcDbSpline
70
4
71
3
72
8
73
4
40
0
40
0
40
0
40
0
40
1
40
1
40
1
40
1
41
1
10
106.6055
20
38.1757784213043
30
0
41
1
10
106.822056039247
20
37.8882313992869
30
0
41
1
10
107.036782319601
20
37.598874807819
30
0
41
1
10
107.2495
20
37.3075317791603
30
0
0
SPLINE
5
16F
100
AcDbEntity
8
1
62
256
6
ByLayer
370
18
48
1
60
0
100
AcDbSpline
70
4
71
3
72
14
73
10
40
0
40
0
40
0
40
0
40
0.25
40
0.25
40
0.5
40
0.5
40
0.75
40
0.75
40
1
40
1
40
1
40
1
41
1
10
107.3245
20
2.27817728885646
30
0
41
1
10
107.3245
20
2.28323631720821
30
0
41
1
10
107.322749381051
20
2.28667355300487
30
0
41
1
10
107.315245830478
20
2.28910161438037
30
0
41
1
10
107.309604124007
20
2.2880692185652
30
0
41
1
10
107.295315870072
20
2.28186382550461
30
0
41
1
10
107.286939122699
20
2.27683660862914
30
0
41
1
10
107.268758907568
20
2.2640902237325
30
0
41
1
10
107.259245573468
20
2.25658922498084
30
0
41
1
10
107.2495
20
2.24832985190724
30
0
0
SPLINE
5
170
100
AcDbEntity
8
1
62
256
6
ByLayer
370
18
48
1
60
0
100
AcDbSpline
70
4
71
3
72
18
73
14
40
0
40
0
40
0
40
0
40
0.249968095638854
40
0.249968095638854
40
0.499936191277707
40
0.499936191277707
40
0.749904286916561
40
0.749904286916561
40
0.874888334735988
40
0.874888334735988
40
0.999872382555415
40
0.999872382555415
40
1
40
1
40
1
40
1
41
1
10
106.6055
20
0.281549604494785
30
0
41
1
10
106.594473615081
20
0.270475380985033
30
0
41
1
10
106.583803369287
20
0.259749455172141
30
0
41
1
10
106.564083431371
20
0.239912751955984
30
0
41
1
10
106.555014921523
20
0.230783189864042
30
0
41
1
10
106.538999468337
20
0.214651367462181
30
0
41
1
10
106.53232660182
20
0.207925190196306
30
0
41
1
10
106.525334326431
20
0.200875379792421
30
0
41
1
10
106.523536304035
20
0.19906217607334
30
0
41
1
10
106.521100737935
20
0.196605922593534
30
0
41
1
10
106.520483021234
20
0.195982875486351
30
0
41
1
10
106.520499697022
20
0.195999694420848
30
0
41
1
10
106.52050040117
20
0.196000404614167
30
0
41
1
10
106.520501105316
20
0.196001114810126
30
0
0
SPLINE
5
171
100
AcDbEntity
8
1
62
256
6
ByLayer
370
18
48
1
60
0
100
AcDbSpline
70
4
71
3
72
14
73
10
40
0
40
0
40
0
40
0
40
0.25
40
0.25
40
0.5
40
0.5
40
0.75
40
0.75
40
1
40
1
40
1
40
1
41
1
10
107.2495
20
37.7516701480928
30
0
41
1
10
107.259247241143
20
37.7434093616651
30
0
41
1
10
107.268784239155
20
37.7358911180699
30
0
41
1
10
107.286942676012
20
37.7231617994199
30
0
41
1
10
107.295401197738
20
37.7180938406677
30
0
41
1
10
107.309600369956
20
37.7119377182011
30
0
41
1
10
107.315332644849
20
37.7109091615286
30
0
41
1
10
107.322732668699
20
37.7133385198427
30
0
41
1
10
107.3245
20
37.7167960692811
30
0
41
1
10
107.3245
20
37.7218227111436
30
0
0
SPLINE
5
172
100
AcDbEntity
8
1
62
256
6
ByLayer
370
18
48
1
60
0
100
AcDbSpline
70
4
71
3
72
24
73
20
40
0
40
0
40
0
40
0
40
0.24999999999999
40
0.24999999999999
40
0.374999999999983
40
0.374999999999983
40
0.499999999999975
40
0.499999999999975
40
0.624999999999968
40
0.624999999999968
40
0.687499999999974
40
0.687499999999974
40
0.74999999999998
40
0.74999999999998
40
0.812499999999986
40
0.812499999999986
40
0.874999999999992
40
0.874999999999992
40
1
40
1
40
1
40
1
41
1
10
106.6055
20
1.26365579478537
30
0
41
1
10
106.584933659893
20
1.23811507637086
30
0
41
1
10
106.566264229825
20
1.21311370898732
30
0
41
1
10
106.543766769786
20
1.1790530785585
30
0
41
1
10
106.537092163987
20
1.16810094498962
30
0
41
1
10
106.526746101153
20
1.14861619361724
30
0
41
1
10
106.522951087146
20
1.13985315601556
30
0
41
1
10
106.519744344447
20
1.12628505875594
30
0
41
1
10
106.520396419323
20
1.12149987412127
30
0
41
1
10
106.525477759379
20
1.11877788761549
30
0
41
1
10
106.527888375931
20
1.11860109418618
30
0
41
1
10
106.533838386635
20
1.11972476283415
30
0
41
1
10
106.537384868344
20
1.12100004889959
30
0
41
1
10
106.545559270928
20
1.12489754908677
30
0
41
1
10
106.550188285926
20
1.12753212565636
30
0
41
1
10
106.559992242756
20
1.13376705797296
30
0
41
1
10
106.565218656667
20
1.13739066697738
30
0
41
1
10
106.581754020229
20
1.14959331036744
30
0
41
1
10
106.593447968638
20
1.15914160315995
30
0
41
1
10
106.6055
20
1.1695996371898
30
0
0
SPLINE
5
173
100
AcDbEntity
8
1
62
256
6
ByLayer
370
18
48
1
60
0
100
AcDbSpline
70
4
71
3
72
14
73
10
40
0
40
0
40
0
40
0
40
0.25
40
0.25
40
0.5
40
0.5
40
0.75
40
0.75
40
1
40
1
40
1
40
1
41
1
10
107.3245
20
1.14602098011983
30
0
41
1
10
107.3245
20
1.14781425007405
30
0
41
1
10
107.322387809429
20
1.14750607709331
30
0
41
1
10
107.31432502053
20
1.14284399793971
30
0
41
1
10
107.308413901572
20
1.13851447106825
30
0
41
1
10
107.294315803534
20
1.12717938250367
30
0
41
1
10
107.286083471685
20
1.12014548968705
30
0
41
1
10
107.268476646095
20
1.10454750319411
30
0
41
1
10
107.25918196488
20
1.09606117194238
30
0
41
1
10
107.2495
20
1.08702952948229
30
0
0
SPLINE
5
174
100
AcDbEntity
8
1
62
256
6
ByLayer
370
18
48
1
60
0
100
AcDbSpline
70
4
71
3
72
12
73
8
40
0
40
0
40
0
40
0
40
0.25000000000003
40
0.25000000000003
40
0.50000000000006
40
0.50000000000006
40
1
40
1
40
1
40
1
41
1
10
107.324500000007
20
34.1775976034331
30
0
41
1
10
107.324500000006
20
34.1924378510664
30
0
41
1
10
107.321810105842
20
34.2092659533737
30
0
41
1
10
107.313502648554
20
34.2438881515721
30
0
41
1
10
107.307829005166
20
34.2618847017252
30
0
41
1
10
107.287476650065
20
34.3171419602466
30
0
41
1
10
107.270072992638
20
34.3543885787198
30
0
41
1
10
107.2495
20
34.3919878841886
30
0
0
SPLINE
5
175
100
AcDbEntity
8
1
62
256
6
ByLayer
370
18
48
1
60
0
100
AcDbSpline
70
4
71
3
72
14
73
10
40
0
40
0
40
0
40
0
40
0.25
40
0.25
40
0.5
40
0.5
40
0.75
40
0.75
40
1
40
1
40
1
40
1
41
1
10
107.3245
20
2.93366397515541
30
0
41
1
10
107.3245
20
2.93979365511839
30
0
41
1
10
107.322879088429
20
2.94455828811445
30
0
41
1
10
107.315723768599
20
2.94960554095201
30
0
41
1
10
107.31012433525
20
2.94985419122347
30
0
41
1
10
107.2959401497
20
2.94568526898013
30
0
41
1
10
107.287363709046
20
2.94131553376386
30
0
41
1
10
107.269011155193
20
2.92953469565876
30
0
41
1
10
107.259309512901
20
2.9222131307904
30
0
41
1
10
107.2495
20
2.91407284568112
30
0
0
SPLINE
5
176
100
AcDbEntity
8
1
62
256
6
ByLayer
370
18
48
1
60
0
100
AcDbSpline
70
4
71
3
72
22
73
18
40
0
40
0
40
0
40
0
40
0.249999999999993
40
0.249999999999993
40
0.374999999999993
40
0.374999999999993
40
0.499999999999994
40
0.499999999999994
40
0.624999999999995
40
0.624999999999995
40
0.749999999999995
40
0.749999999999995
40
0.812499999999996
40
0.812499999999996
40
0.874999999999996
40
0.874999999999996
40
1
40
1
40
1
40
1
41
1
10
10.1056624327026
20
-12.6576002058704
30
0
41
1
10
10.1212438126112
20
-12.6003292036663
30
0
41
1
10
10.1398761201257
20
-12.5441499637055
30
0
41
1
10
10.1739972864804
20
-12.4621216159939
30
0
41
1
10
10.1864101449813
20
-12.4351561290447
30
0
41
1
10
10.2138388425173
20
-12.3821770722735
30
0
41
1
10
10.2289265953742
20
-12.3560426999109
30
0
41
1
10
10.2621641170173
20
-12.3057192432196
30
0
41
1
10
10.2802620066642
20
-12.2815531796601
30
0
41
1
10
10.3205610269858
20
-12.235994052996
30
0
41
1
10
10.3426053074955
20
-12.2148091982091
30
0
41
1
10
10.3789180567415
20
-12.1871605631486
30
0
41
1
10
10.3915960688954
20
-12.1786070311293
30
0
41
1
10
10.4183879309626
20
-12.1631598579218
30
0
41
1
10
10.4324900730126
20
-12.1563040766934
30
0
41
1
10
10.4758266843417
20
-12.1395106480537
30
0
41
1
10
10.5070602691285
20
-12.1330899674706
30
0
41
1
10
10.5386751345948
20
-12.1330899674705
30
0
0
SPLINE
5
177
100
AcDbEntity
8
1
62
256
6
ByLayer
370
18
48
1
60
0
100
AcDbSpline
70
4
71
3
72
8
73
4
40
0
40
0
40
0
40
0
40
1
40
1
40
1
40
1
41
1
10
106.6055
20
4.24085441251842
30
0
41
1
10
106.820168300833
20
4.41624624446024
30
0
41
1
10
107.034835023948
20
4.59164065113725
30
0
41
1
10
107.2495
20
4.76703790870923
30
0
0
SPLINE
5
178
100
AcDbEntity
8
1
62
256
6
ByLayer
370
18
48
1
60
0
100
AcDbSpline
70
4
71
3
72
22
73
18
40
0
40
0
40
0
40
0
40
0.249999999999963
40
0.249999999999963
40
0.374999999999942
40
0.374999999999942
40
0.499999999999921
40
0.499999999999921
40
0.6249999999999
40
0.6249999999999
40
0.687499999999901
40
0.687499999999901
40
0.749999999999902
40
0.749999999999902
40
0.874999999999951
40
0.874999999999951
40
1
40
1
40
1
40
1
41
1
10
106.6055
20
0.836433861824929
30
0
41
1
10
106.58461800242
20
0.812022951148322
30
0
41
1
10
106.565507179619
20
0.788295476536319
30
0
41
1
10
106.542689990122
20
0.756883787061213
30
0
41
1
10
106.5359677808
20
0.74695860238225
30
0
41
1
10
106.525788698556
20
0.729923878734525
30
0
41
1
10
106.522209442212
20
0.72259546253693
30
0
41
1
10
106.519750506565
20
0.712428099650481
30
0
41
1
10
106.520917187491
20
0.709596204913026
30
0
41
1
10
106.526613240173
20
0.709635840464301
30
0
41
1
10
106.529188583589
20
0.71035815932234
30
0
41
1
10
106.535367825739
20
0.71308095986177
30
0
41
1
10
106.53899628437
20
0.715078729649093
30
0
41
1
10
106.551354752463
20
0.722834209727807
30
0
41
1
10
106.561088840106
20
0.730040330376482
30
0
41
1
10
106.58248539173
20
0.747237830639875
30
0
41
1
10
106.593773139625
20
0.756924417773064
30
0
41
1
10
106.6055
20
0.767415543723956
30
0
0
SPLINE
5
179
100
AcDbEntity
8
1
62
256
6
ByLayer
370
18
48
1
60
0
100
AcDbSpline
70
4
71
3
72
8
73
4
40
0
40
0
40
0
40
0
40
1
40
1
40
1
40
1
41
1
10
107.2495
20
27.6335829581344
30
0
41
1
10
107.037366545293
20
27.8831983032508
30
0
41
1
10
106.822529300301
20
28.1296763983234
30
0
41
1
10
106.6055
20
28.3736110174262
30
0
0
SPLINE
5
17A
100
AcDbEntity
8
1
62
256
6
ByLayer
370
18
48
1
60
0
100
AcDbSpline
70
4
71
3
72
24
73
20
40
0
40
0
40
0
40
0
40
0.249999999999988
40
0.249999999999988
40
0.499999999999976
40
0.499999999999976
40
0.624999999999975
40
0.624999999999975
40
0.687499999999979
40
0.687499999999979
40
0.749999999999983
40
0.749999999999983
40
0.812499999999988
40
0.812499999999988
40
0.874999999999992
40
0.874999999999992
40
0.937499999999996
40
0.937499999999996
40
1
40
1
40
1
40
1
41
1
10
106.6055
20
7.37460668174256
30
0
41
1
10
106.587105291382
20
7.33313536707769
30
0
41
1
10
106.571091296136
20
7.29188940845268
30
0
41
1
10
106.54408524399
20
7.20989252875327
30
0
41
1
10
106.532951748391
20
7.1687664742179
30
0
41
1
10
106.523038409465
20
7.11046618691842
30
0
41
1
10
106.520831971449
20
7.09139575379251
30
0
41
1
10
106.520383997625
20
7.06445294852097
30
0
41
1
10
106.520719822513
20
7.05584122421104
30
0
41
1
10
106.522734725193
20
7.03963386057976
30
0
41
1
10
106.524438115292
20
7.03194556963473
30
0
41
1
10
106.529778126137
20
7.01867016761511
30
0
41
1
10
106.533454559674
20
7.01299668371297
30
0
41
1
10
106.543404949431
20
7.00527644764171
30
0
41
1
10
106.549750260255
20
7.00333820202971
30
0
41
1
10
106.564259028937
20
7.00431699526717
30
0
41
1
10
106.572454592052
20
7.00721787208511
30
0
41
1
10
106.588892883095
20
7.01627743052947
30
0
41
1
10
106.59733722664
20
7.02248126610124
30
0
41
1
10
106.6055
20
7.02949439846998
30
0
0
SPLINE
5
17B
100
AcDbEntity
8
1
62
256
6
ByLayer
370
18
48
1
60
0
100
AcDbSpline
70
4
71
3
72
12
73
8
40
0
40
0
40
0
40
0
40
0.567291002802143
40
0.567291002802143
40
0.850936504203239
40
0.850936504203239
40
1
40
1
40
1
40
1
41
1
10
106.6055
20
39.67254327625
30
0
41
1
10
106.582995531699
20
39.6942074323789
30
0
41
1
10
106.561880388332
20
39.7140674209438
30
0
41
1
10
106.537703837473
20
39.7354993425979
30
0
41
1
10
106.531044068949
20
39.7411000824371
30
0
41
1
10
106.524328360078
20
39.7460435311609
30
0
41
1
10
106.522644752756
20
39.7470829990582
30
0
41
1
10
106.52163204422
20
39.7474377072068
30
0
0
SPLINE
5
17C
100
AcDbEntity
8
1
62
256
6
ByLayer
370
18
48
1
60
0
100
AcDbSpline
70
4
71
3
72
16
73
12
40
0
40
0
40
0
40
0
40
0.0197386846771219
40
0.0197386846771219
40
0.264804013507841
40
0.264804013507841
40
0.509869342338561
40
0.509869342338561
40
0.75493467116928
40
0.75493467116928
40
1
40
1
40
1
40
1
41
1
10
106.520502875857
20
39.7470721475979
30
0
41
1
10
106.520505348206
20
39.7469673436321
30
0
41
1
10
106.520524302163
20
39.7468460802939
30
0
41
1
10
106.521001668514
20
39.7449974364367
30
0
41
1
10
106.523988903455
20
39.7407194293516
30
0
41
1
10
106.533694886272
20
39.7286365874095
30
0
41
1
10
106.540469432587
20
39.7207454646149
30
0
41
1
10
106.556128818467
20
39.703103159907
30
0
41
1
10
106.565209562342
20
39.6931288968652
30
0
41
1
10
106.584481683939
20
39.6723146861223
30
0
41
1
10
106.594730817489
20
39.6614073739258
30
0
41
1
10
106.6055
20
39.6500792121576
30
0
0
SPLINE
5
17D
100
AcDbEntity
8
1
62
256
6
ByLayer
370
18
48
1
60
0
100
AcDbSpline
70
4
71
3
72
8
73
4
40
0
40
0
40
0
40
0
40
1
40
1
40
1
40
1
41
1
10
107.2495
20
38.654960886978
30
0
41
1
10
107.035047370323
20
38.8478202535533
30
0
41
1
10
106.820374683942
20
39.0403524947096
30
0
41
1
10
106.6055
20
39.232584456276
30
0
0
SPLINE
5
17E
100
AcDbEntity
8
1
62
256
6
ByLayer
370
18
48
1
60
0
100
AcDbSpline
70
4
71
3
72
8
73
4
40
0
40
0
40
0
40
0
40
1
40
1
40
1
40
1
41
1
10
106.6055
20
0.488448756906593
30
0
41
1
10
106.820462678659
20
0.687551050650029
30
0
41
1
10
107.035137860735
20
0.887065759450707
30
0
41
1
10
107.2495
20
1.08702952948226
30
0
0
SPLINE
5
17F
100
AcDbEntity
8
1
62
256
6
ByLayer
370
18
48
1
60
0
100
AcDbSpline
70
4
71
3
72
10
73
6
40
0
40
0
40
0
40
0
40
0.5
40
0.5
40
1
40
1
40
1
40
1
41
1
10
106.605500000001
20
16.2172715631315
30
0
41
1
10
106.739622539874
20
16.5202716201072
30
0
41
1
10
106.862125005522
20
16.8285477996081
30
0
41
1
10
107.07871107186
20
17.4580038122908
30
0
41
1
10
107.172800078506
20
17.7791811908849
30
0
41
1
10
107.249500000001
20
18.1082541252289
30
0
0
SPLINE
5
180
100
AcDbEntity
8
1
62
256
6
ByLayer
370
18
48
1
60
0
100
AcDbSpline
70
4
71
3
72
8
73
4
40
0
40
0
40
0
40
0
40
1
40
1
40
1
40
1
41
1
10
106.6055
20
21.6809335420858
30
0
41
1
10
106.666142318209
20
20.5603111806953
30
0
41
1
10
106.666142318209
20
19.4396888193047
30
0
41
1
10
106.6055
20
18.3190664579142
30
0
0
SPLINE
5
181
100
AcDbEntity
8
1
62
256
6
ByLayer
370
18
48
1
60
0
100
AcDbSpline
70
4
71
3
72
92
73
88
40
0
40
0
40
0
40
0
40
0.0078128216458597
40
0.0078128216458597
40
0.0156256432917195
40
0.0156256432917195
40
0.0312512865834387
40
0.0312512865834387
40
0.0625025731668772
40
0.0625025731668772
40
0.0937538597503155
40
0.0937538597503155
40
0.125005146333754
40
0.125005146333754
40
0.140630789625473
40
0.140630789625473
40
0.156256432917193
40
0.156256432917193
40
0.187507719500631
40
0.187507719500631
40
0.21875900608407
40
0.21875900608407
40
0.250010292667509
40
0.250010292667509
40
0.265635935959229
40
0.265635935959229
40
0.273448757605088
40
0.273448757605088
40
0.281261579250948
40
0.281261579250948
40
0.312512865834387
40
0.312512865834387
40
0.343764152417826
40
0.343764152417826
40
0.375015439001265
40
0.375015439001265
40
0.390641082292984
40
0.390641082292984
40
0.398453903938844
40
0.398453903938844
40
0.406266725584703
40
0.406266725584703
40
0.437518012168141
40
0.437518012168141
40
0.46876929875158
40
0.46876929875158
40
0.500020585335018
40
0.500020585335018
40
0.515646228626737
40
0.515646228626737
40
0.531271871918456
40
0.531271871918456
40
0.562523158501894
40
0.562523158501894
40
0.593774445085332
40
0.625025731668771
40
0.625025731668771
40
0.64065137496049
40
0.64065137496049
40
0.648464196606349
40
0.648464196606349
40
0.656277018252209
40
0.656277018252209
40
0.687528304835647
40
0.687528304835647
40
0.718779591419085
40
0.750030878002523
40
0.750030878002523
40
0.765656521294242
40
0.765656521294242
40
0.773469342940102
40
0.773469342940102
40
0.781282164585961
40
0.781282164585961
40
0.812533451169399
40
0.812533451169399
40
0.843784737752837
40
0.875036024336276
40
0.875036024336276
40
0.890661667627995
40
0.890661667627995
40
0.906287310919714
40
0.906287310919714
40
0.937538597503152
40
0.937538597503152
40
0.96878988408659
40
1
40
1
40
1
40
1
41
1
10
101.834074173711
20
36.9803412596144
30
0
41
1
10
101.828749517243
20
36.8979079726737
30
0
41
1
10
101.82332308756
20
36.8137806682369
30
0
41
1
10
101.812266482899
20
36.6421072360242
30
0
41
1
10
101.806629648676
20
36.5544572503135
30
0
41
1
10
101.789481067818
20
36.2873886462137
30
0
41
1
10
101.777723780077
20
36.103736878583
30
0
41
1
10
101.741514123871
20
35.5362583304648
30
0
41
1
10
101.716125712105
20
35.135936557661
30
0
41
1
10
101.663003239099
20
34.2921402421355
30
0
41
1
10
101.635269015433
20
33.8486643127663
30
0
41
1
10
101.577551900356
20
32.9185173614271
30
0
41
1
10
101.547569009528
20
32.4318479861072
30
0
41
1
10
101.500942215971
20
31.6687483348771
30
0
41
1
10
101.485113549103
20
31.4086839971858
30
0
41
1
10
101.452949316778
20
30.87802864608
30
0
41
1
10
101.436705999435
20
30.6089604742236
30
0
41
1
10
101.38751637687
20
29.7907389134471
30
0
41
1
10
101.354111649631
20
29.2305873536452
30
0
41
1
10
101.28617382973
20
28.0815511659297
30
0
41
1
10
101.251640581243
20
27.4926654751013
30
0
41
1
10
101.181502032866
20
26.2861723738157
30
0
41
1
10
101.145896694414
20
25.6685659125427
30
0
41
1
10
101.091700503534
20
24.720181847706
30
0
41
1
10
101.073503470927
20
24.4003867352675
30
0
41
1
10
101.046009956359
20
23.9150942302458
30
0
41
1
10
101.036820661107
20
23.7525406708285
30
0
41
1
10
101.018460650448
20
23.4270569316564
30
0
41
1
10
101.009280276919
20
23.2639564006575
30
0
41
1
10
100.963377480459
20
22.4466763260048
30
0
41
1
10
100.926652834104
20
21.7871739095067
30
0
41
1
10
100.853212658127
20
20.457064588554
30
0
41
1
10
100.816497065552
20
19.7864572180935
30
0
41
1
10
100.74307562721
20
18.4341594889456
30
0
41
1
10
100.706369764886
20
17.7524694387628
30
0
41
1
10
100.651309824413
20
16.7214688083498
30
0
41
1
10
100.632956228026
20
16.3763892090547
30
0
41
1
10
100.605423509943
20
15.8566143866373
30
0
41
1
10
100.596235558326
20
15.6828070208263
30
0
41
1
10
100.577933702576
20
15.3358936433118
30
0
41
1
10
100.568814585262
20
15.1626900415236
30
0
41
1
10
100.523375534884
20
14.2979257449524
30
0
41
1
10
100.487524674027
20
13.6101194884613
30
0
41
1
10
100.416768217284
20
12.2423276772817
30
0
41
1
10
100.3818626796
20
11.5623424961782
30
0
41
1
10
100.312954110174
20
10.2101672205497
30
0
41
1
10
100.278951102126
20
9.5379769502029
30
0
41
1
10
100.22859989886
20
8.5356381061323
30
0
41
1
10
100.211925135756
20
8.20251751464679
30
0
41
1
10
100.178790660332
20
7.53829378414329
30
0
41
1
10
100.162306809473
20
7.20669895091692
30
0
41
1
10
100.113614925322
20
6.22392221487493
30
0
41
1
10
100.082031332603
20
5.5820566320607
30
0
41
1
10
100.02051949309
20
4.32428314917507
30
0
41
1
10
99.960663265867
20
3.09247057369618
30
0
41
1
10
99.9039868547878
20
1.91230504785094
30
0
41
1
10
99.8626459014071
20
1.04684327071229
30
0
41
1
10
99.8490602127808
20
0.761637228878442
30
0
41
1
10
99.8289725237601
20
0.338826156402007
30
0
41
1
10
99.8223251166127
20
0.198722414178519
30
0
41
1
10
99.8091272837447
20
-0.0798022800673266
30
0
41
1
10
99.8025792887989
20
-0.218172434929215
30
0
41
1
10
99.7702330471849
20
-0.902569222078824
30
0
41
1
10
99.74549030387
20
-1.42887634199977
30
0
41
1
10
99.6981541690919
20
-2.44023194167048
30
0
41
1
10
99.6529677696394
20
-3.41032348655307
30
0
41
1
10
99.6119422115812
20
-4.29847276986962
30
0
41
1
10
99.5827154905473
20
-4.93344567499619
30
0
41
1
10
99.5732306742144
20
-5.13990689897904
30
0
41
1
10
99.5593905640311
20
-5.44169089120086
30
0
41
1
10
99.5548417357506
20
-5.54096713624114
30
0
41
1
10
99.5458736053395
20
-5.73685838315726
30
0
41
1
10
99.541449290991
20
-5.8335831318511
30
0
41
1
10
99.5197357151347
20
-6.30867518426689
30
0
41
1
10
99.5036451541781
20
-6.66198748920337
30
0
41
1
10
99.4739072965342
20
-7.31665409944293
30
0
41
1
10
99.4466131431558
20
-7.91935551333896
30
0
41
1
10
99.4240899486243
20
-8.41904910769523
30
0
41
1
10
99.4089840425383
20
-8.75474511064601
30
0
41
1
10
99.4042469111571
20
-8.86012318214173
30
0
41
1
10
99.3953737666737
20
-9.05766078487383
30
0
41
1
10
99.3912363229804
20
-9.14985222607731
30
0
41
1
10
99.3797470749308
20
-9.40602758703565
30
0
41
1
10
99.3734127133466
20
-9.5475017282813
30
0
41
1
10
99.3632942604452
20
-9.77364955530098
30
0
41
1
10
99.3557315201928
20
-9.94287701511104
30
0
41
1
10
99.3531882360363
20
-9.99983991542206
30
0
41
1
10
99.3531811177657
20
-9.99999932694615
30
0
0
SPLINE
5
182
100
AcDbEntity
8
1
62
256
6
ByLayer
370
18
48
1
60
0
100
AcDbSpline
70
4
71
3
72
14
73
10
40
0
40
0
40
0
40
0
40
0.25
40
0.25
40
0.5
40
0.5
40
0.75
40
0.75
40
1
40
1
40
1
40
1
41
1
10
107.2495
20
4.4296297752868
30
0
41
1
10
107.259689218242
20
4.44627559399146
30
0
41
1
10
107.269141071217
20
4.46285200445266
30
0
41
1
10
107.286488561992
20
4.4958637771505
30
0
41
1
10
107.294346422854
20
4.51224185373084
30
0
41
1
10
107.307827214093
20
4.5439877051453
30
0
41
1
10
107.313524884287
20
4.55946850797378
30
0
41
1
10
107.321919534253
20
4.58922625304353
30
0
41
1
10
107.3245
20
4.60297431608899
30
0
41
1
10
107.3245
20
4.61490660045527
30
0
0
SPLINE
5
183
100
AcDbEntity
8
1
62
256
6
ByLayer
370
18
48
1
60
0
100
AcDbSpline
70
4
71
3
72
22
73
18
40
0
40
0
40
0
40
0
40
0.12500000000008
40
0.12500000000008
40
0.187500000000087
40
0.187500000000087
40
0.250000000000094
40
0.250000000000094
40
0.3125000000001
40
0.3125000000001
40
0.375000000000107
40
0.375000000000107
40
0.500000000000082
40
0.500000000000082
40
0.750000000000041
40
0.750000000000041
40
1
40
1
40
1
40
1
41
1
10
106.6055
20
36.7826993267326
30
0
41
1
10
106.591974522899
20
36.79377410663
30
0
41
1
10
106.578572891949
20
36.8032351891506
30
0
41
1
10
106.560072832448
20
36.8127399031511
30
0
41
1
10
106.554246459773
20
36.8150706091348
30
0
41
1
10
106.543782254935
20
36.8176552021779
30
0
41
1
10
106.539080357025
20
36.8178985994964
30
0
41
1
10
106.531404308881
20
36.8162564980175
30
0
41
1
10
106.52830691468
20
36.814376925707
30
0
41
1
10
106.523684963868
20
36.8087898475588
30
0
41
1
10
106.522185737906
20
36.8051654829402
30
0
41
1
10
106.519647436547
20
36.792280964629
30
0
41
1
10
106.52060442944
20
36.7813013056084
30
0
41
1
10
106.528430006134
20
36.7448847871389
30
0
41
1
10
106.540081448102
20
36.7161474341274
30
0
41
1
10
106.568801388406
20
36.6577627074369
30
0
41
1
10
106.585973014625
20
36.6278885715471
30
0
41
1
10
106.6055
20
36.5974568928041
30
0
0
SPLINE
5
184
100
AcDbEntity
8
1
62
256
6
ByLayer
370
18
48
1
60
0
100
AcDbSpline
70
4
71
3
72
20
73
16
40
0
40
0
40
0
40
0
40
0.124999999999982
40
0.124999999999982
40
0.187499999999978
40
0.187499999999978
40
0.249999999999975
40
0.249999999999975
40
0.374999999999989
40
0.374999999999989
40
0.500000000000004
40
0.500000000000004
40
0.750000000000002
40
0.750000000000002
40
1
40
1
40
1
40
1
41
1
10
106.6055
20
35.7591455874816
30
0
41
1
10
106.591241209992
20
35.7707955390168
30
0
41
1
10
106.576882009736
20
35.7804531729584
30
0
41
1
10
106.557418433899
20
35.7884657702569
30
0
41
1
10
106.55141786387
20
35.7899919676717
30
0
41
1
10
106.540736957698
20
35.7903960135115
30
0
41
1
10
106.536294750605
20
35.789278403277
30
0
41
1
10
106.525397558399
20
35.7823442394068
30
0
41
1
10
106.521806464736
20
35.7729752613701
30
0
41
1
10
106.519817784919
20
35.7505443210121
30
0
41
1
10
106.521200723363
20
35.7375040508776
30
0
41
1
10
106.529841545333
20
35.6949118150193
30
0
41
1
10
106.541334881166
20
35.663103963605
30
0
41
1
10
106.569508859252
20
35.598922252976
30
0
41
1
10
106.586315553106
20
35.5663315348299
30
0
41
1
10
106.6055
20
35.5333158840139
30
0
0
SPLINE
5
185
100
AcDbEntity
8
1
62
256
6
ByLayer
370
18
48
1
60
0
100
AcDbSpline
70
4
71
3
72
8
73
4
40
0
40
0
40
0
40
0
40
1
40
1
40
1
40
1
41
1
10
106.6055
20
30.5692423325785
30
0
41
1
10
106.837557523584
20
29.9252688291729
30
0
41
1
10
107.052909503293
20
29.2739574225089
30
0
41
1
10
107.2495
20
28.6144050421731
30
0
0
SPLINE
5
186
100
AcDbEntity
8
1
62
256
6
ByLayer
370
18
48
1
60
0
100
AcDbSpline
70
4
71
3
72
8
73
4
40
0
40
0
40
0
40
0
40
1
40
1
40
1
40
1
41
1
10
107.2495
20
35.2329620912908
30
0
41
1
10
107.034835023948
20
35.4083593488628
30
0
41
1
10
106.820168300833
20
35.5837537555398
30
0
41
1
10
106.6055
20
35.7591455874816
30
0
0
SPLINE
5
187
100
AcDbEntity
8
1
62
256
6
ByLayer
370
18
48
1
60
0
100
AcDbSpline
70
4
71
3
72
8
73
4
40
0
40
0
40
0
40
0
40
1
40
1
40
1
40
1
41
1
10
107.2495
20
32.4160122997164
30
0
41
1
10
107.035005737834
20
32.6011103791873
30
0
41
1
10
106.820331960648
20
32.7859304687195
30
0
41
1
10
106.6055
20
32.9705056015292
30
0
0
SPLINE
5
188
100
AcDbEntity
8
1
62
256
6
ByLayer
370
18
48
1
60
0
100
AcDbSpline
70
4
71
3
72
8
73
4
40
0
40
0
40
0
40
0
40
1
40
1
40
1
40
1
41
1
10
106.6055
20
39.1635661381751
30
0
41
1
10
106.821310496289
20
38.9112851613349
30
0
41
1
10
107.036011628907
20
38.6577519784764
30
0
41
1
10
107.2495
20
38.4028498781752
30
0
0
SPLINE
5
189
100
AcDbEntity
8
1
62
256
6
ByLayer
370
18
48
1
60
0
100
AcDbSpline
70
4
71
3
72
14
73
10
40
0
40
0
40
0
40
0
40
0.249137036186088
40
0.249137036186088
40
0.499424690790725
40
0.499424690790725
40
0.749712345395363
40
0.749712345395363
40
1
40
1
40
1
40
1
41
1
10
106.520501007097
20
39.803998984235
30
0
41
1
10
106.520559199639
20
39.8039402888442
30
0
41
1
10
106.523178205306
20
39.8012984444811
30
0
41
1
10
106.532509978376
20
39.7918899641521
30
0
41
1
10
106.539284482808
20
39.7850614653389
30
0
41
1
10
106.555149357874
20
39.7690814809519
30
0
41
1
10
106.564434787015
20
39.7597336572633
30
0
41
1
10
106.584091600717
20
39.7399607665405
30
0
41
1
10
106.59453851892
20
39.729459433587
30
0
41
1
10
106.6055
20
39.7184503955052
30
0
0
SPLINE
5
18A
100
AcDbEntity
8
1
62
256
6
ByLayer
370
18
48
1
60
0
100
AcDbSpline
70
4
71
3
72
16
73
12
40
0
40
0
40
0
40
0
40
0.244870256114398
40
0.244870256114398
40
0.489740512228795
40
0.489740512228795
40
0.734610768343193
40
0.734610768343193
40
0.979481024457591
40
0.979481024457591
40
1
40
1
40
1
40
1
41
1
10
106.6055
20
0.349920787842365
30
0
41
1
10
106.594645499765
20
0.338502879894719
30
0
41
1
10
106.584309331155
20
0.327501013066325
30
0
41
1
10
106.56505550703
20
0.306702846299089
30
0
41
1
10
106.555990486057
20
0.296744383315598
30
0
41
1
10
106.54029226655
20
0.279051473954155
30
0
41
1
10
106.533596073865
20
0.271248805387131
30
0
41
1
10
106.523858984405
20
0.259110234208038
30
0
41
1
10
106.520927423352
20
0.254887874542589
30
0
41
1
10
106.52051236312
20
0.253089642564049
30
0
41
1
10
106.520498569531
20
0.252968849907404
30
0
41
1
10
106.520502839793
20
0.252866146906797
30
0
0
SPLINE
5
18B
100
AcDbEntity
8
1
62
256
6
ByLayer
370
18
48
1
60
0
100
AcDbSpline
70
4
71
3
72
14
73
10
40
0
40
0
40
0
40
0
40
0.137563763741767
40
0.137563763741767
40
0.425042509161178
40
0.425042509161178
40
0.712521254580589
40
0.712521254580589
40
1
40
1
40
1
40
1
41
1
10
106.522014959554
20
0.252715927117151
30
0
41
1
10
106.523080566019
20
0.253185100640479
30
0
41
1
10
106.524695456825
20
0.254218508694805
30
0
41
1
10
106.531247893089
20
0.259068140292555
30
0
41
1
10
106.537981591735
20
0.264740885315348
30
0
41
1
10
106.554046439389
20
0.278994160162028
30
0
41
1
10
106.563557694582
20
0.287727370643353
30
0
41
1
10
106.583646628483
20
0.306536007126908
30
0
41
1
10
106.594317921063
20
0.316692181318302
30
0
41
1
10
106.6055
20
0.327456723749975
30
0
0
SPLINE
5
18C
100
AcDbEntity
8
1
62
256
6
ByLayer
370
18
48
1
60
0
100
AcDbSpline
70
4
71
3
72
8
73
4
40
0
40
0
40
0
40
0
40
1
40
1
40
1
40
1
41
1
10
106.6055
20
11.6263889825738
30
0
41
1
10
106.822529300301
20
11.8703236016766
30
0
41
1
10
107.037366545293
20
12.1168016967492
30
0
41
1
10
107.2495
20
12.3664170418656
30
0
0
SPLINE
5
18D
100
AcDbEntity
8
1
62
256
6
ByLayer
370
18
48
1
60
0
100
AcDbSpline
70
4
71
3
72
28
73
24
40
0
40
0
40
0
40
0
40
0.250000000000005
40
0.250000000000005
40
0.50000000000001
40
0.50000000000001
40
0.62500000000001
40
0.62500000000001
40
0.750000000000011
40
0.750000000000011
40
0.812500000000007
40
0.812500000000007
40
0.843750000000006
40
0.843750000000006
40
0.875000000000005
40
0.875000000000005
40
0.906250000000003
40
0.906250000000003
40
0.937500000000002
40
0.937500000000002
40
0.968750000000001
40
0.968750000000001
40
1
40
1
40
1
40
1
41
1
10
106.6055
20
12.2852601775018
30
0
41
1
10
106.588576985242
20
12.2190217139521
30
0
41
1
10
106.573778640626
20
12.1530320638506
30
0
41
1
10
106.548417493048
20
12.0215594764597
30
0
41
1
10
106.537797636014
20
11.9560715552669
30
0
41
1
10
106.526574325012
20
11.8583551359323
30
0
41
1
10
106.523621888495
20
11.8258036447404
30
0
41
1
10
106.520256070083
20
11.7612336288167
30
0
41
1
10
106.51977379898
20
11.7295499371141
30
0
41
1
10
106.522833074229
20
11.6838509386451
30
0
41
1
10
106.524493209776
20
11.6688512106516
30
0
41
1
10
106.528800694706
20
11.6474602333519
30
0
41
1
10
106.53053112703
20
11.6405905053163
30
0
41
1
10
106.53487591584
20
11.6276283916617
30
0
41
1
10
106.53751759955
20
11.6214599404493
30
0
41
1
10
106.544135407032
20
11.6108126451337
30
0
41
1
10
106.548160280846
20
11.6062821653454
30
0
41
1
10
106.557970832039
20
11.6006565498179
30
0
41
1
10
106.563796586259
20
11.5997177447363
30
0
41
1
10
106.576048721416
20
11.602291111614
30
0
41
1
10
106.582429655099
20
11.6057121469533
30
0
41
1
10
106.594489804997
20
11.6148110876918
30
0
41
1
10
106.600109447799
20
11.620330158737
30
0
41
1
10
106.6055
20
11.6263889825738
30
0
0
SPLINE
5
18E
100
AcDbEntity
8
1
62
256
6
ByLayer
370
18
48
1
60
0
100
AcDbSpline
70
4
71
3
72
14
73
10
40
0
40
0
40
0
40
0
40
0.25
40
0.25
40
0.5
40
0.5
40
0.75
40
0.75
40
1
40
1
40
1
40
1
41
1
10
107.3245
20
1.39437316321246
30
0
41
1
10
107.3245
20
1.39727638390363
30
0
41
1
10
107.322517994515
20
1.39819906203144
30
0
41
1
10
107.314553010295
20
1.39579428301414
30
0
41
1
10
107.308714308758
20
1.39250618066953
30
0
41
1
10
107.294527150197
20
1.38278935067788
30
0
41
1
10
107.286278550289
20
1.37644027656464
30
0
41
1
10
107.268517881695
20
1.36184206766075
30
0
41
1
10
107.259182938242
20
1.353747074956
30
0
41
1
10
107.2495
20
1.34503911302198
30
0
0
SPLINE
5
18F
100
AcDbEntity
8
1
62
256
6
ByLayer
370
18
48
1
60
0
100
AcDbSpline
70
4
71
3
72
14
73
10
40
0
40
0
40
0
40
0
40
0.25
40
0.25
40
0.5
40
0.5
40
0.75
40
0.75
40
1
40
1
40
1
40
1
41
1
10
107.2495
20
38.9129704705177
30
0
41
1
10
107.259218158141
20
38.903905065842
30
0
41
1
10
107.268664569286
20
38.895283572659
30
0
41
1
10
107.286149535274
20
38.8797984618444
30
0
41
1
10
107.294375221403
20
38.8727705037188
30
0
41
1
10
107.308474637326
20
38.8614390573629
30
0
41
1
10
107.314381647126
20
38.8571198467058
30
0
41
1
10
107.322377751326
20
38.8525031712641
30
0
41
1
10
107.3245
20
38.8522049260041
30
0
41
1
10
107.3245
20
38.8539790198802
30
0
0
SPLINE
5
190
100
AcDbEntity
8
1
62
256
6
ByLayer
370
18
48
1
60
0
100
AcDbSpline
70
4
71
3
72
12
73
8
40
0
40
0
40
0
40
0
40
0.500000000000019
40
0.500000000000019
40
0.750000000000009
40
0.750000000000009
40
1
40
1
40
1
40
1
41
1
10
107.2495
20
7.06469167036877
30
0
41
1
10
107.270400739195
20
7.10859089413793
30
0
41
1
10
107.287982247592
20
7.15273185381824
30
0
41
1
10
107.307957251677
20
7.217135337825
30
0
41
1
10
107.313571379324
20
7.23838236996718
30
0
41
1
10
107.3218661042
20
7.28024906068265
30
0
41
1
10
107.3245
20
7.30037459471919
30
0
41
1
10
107.3245
20
7.31901231381011
30
0
0
SPLINE
5
191
100
AcDbEntity
8
1
62
256
6
ByLayer
370
18
48
1
60
0
100
AcDbSpline
70
4
71
3
72
20
73
16
40
0
40
0
40
0
40
0
40
0.0624999999999962
40
0.0624999999999962
40
0.124999999999992
40
0.124999999999992
40
0.24999999999999
40
0.24999999999999
40
0.374999999999988
40
0.374999999999988
40
0.499999999999986
40
0.499999999999986
40
0.749999999999993
40
0.749999999999993
40
1
40
1
40
1
40
1
41
1
10
10.5386751345949
20
12.1330899674707
30
0
41
1
10
10.5228424579138
20
12.1330899674707
30
0
41
1
10
10.5073032170841
20
12.1346446934811
30
0
41
1
10
10.4767587503235
20
12.1405832169824
30
0
41
1
10
10.4616242888076
20
12.1450224152722
30
0
41
1
10
10.4179414896383
20
12.1619255694047
30
0
41
1
10
10.3914602024633
20
12.177616249759
30
0
41
1
10
10.3422528978047
20
12.215072219626
30
0
41
1
10
10.3204171364761
20
12.2361555816479
30
0
41
1
10
10.2803874449687
20
12.2814125122522
30
0
41
1
10
10.262132002734
20
12.3057660949486
30
0
41
1
10
10.2123318812525
20
12.3811715645304
30
0
41
1
10
10.1856242795052
20
12.4342400380054
30
0
41
1
10
10.1400321601288
20
12.5437053894649
30
0
41
1
10
10.1212495620848
20
12.6003080708704
30
0
41
1
10
10.1056624327026
20
12.6576002058704
30
0
0
SPLINE
5
192
100
AcDbEntity
8
1
62
256
6
ByLayer
370
18
48
1
60
0
100
AcDbSpline
70
4
71
3
72
12
73
8
40
0
40
0
40
0
40
0
40
0.499999999999998
40
0.499999999999998
40
0.749999999999999
40
0.749999999999999
40
1
40
1
40
1
40
1
41
1
10
107.2495
20
1.25241356028309
30
0
41
1
10
107.269096039341
20
1.2744754970187
30
0
41
1
10
107.287055571439
20
1.29580193832473
30
0
41
1
10
107.307771252659
20
1.32307694347736
30
0
41
1
10
107.313708424421
20
1.33149731115682
30
0
41
1
10
107.322055283879
20
1.34524502126234
30
0
41
1
10
107.3245
20
1.35065750205266
30
0
41
1
10
107.3245
20
1.35368067281777
30
0
0
SPLINE
5
193
100
AcDbEntity
8
1
62
256
6
ByLayer
370
18
48
1
60
0
100
AcDbSpline
70
4
71
3
72
28
73
24
40
0
40
0
40
0
40
0
40
0.0312499999999971
40
0.0312499999999971
40
0.0624999999999944
40
0.0624999999999944
40
0.0937499999999917
40
0.0937499999999917
40
0.124999999999989
40
0.124999999999989
40
0.156249999999986
40
0.156249999999986
40
0.187499999999984
40
0.187499999999984
40
0.249999999999988
40
0.249999999999988
40
0.374999999999989
40
0.374999999999989
40
0.49999999999999
40
0.49999999999999
40
0.749999999999995
40
0.749999999999995
40
1
40
1
40
1
40
1
41
1
10
106.6055
20
28.3736110174266
30
0
41
1
10
106.600004737356
20
28.3797875327547
30
0
41
1
10
106.594211799427
20
28.3854400041992
30
0
41
1
10
106.582136331548
20
28.3944658059906
30
0
41
1
10
106.57576477563
20
28.3978512493378
30
0
41
1
10
106.563317296278
20
28.4002949759264
30
0
41
1
10
106.557514772273
20
28.3991964835393
30
0
41
1
10
106.547823371798
20
28.3934003488372
30
0
41
1
10
106.543809077888
20
28.3887762613461
30
0
41
1
10
106.537237166688
20
28.3779639553227
30
0
41
1
10
106.534613239458
20
28.3717112771189
30
0
41
1
10
106.530308572924
20
28.3586075473057
30
0
41
1
10
106.528603869242
20
28.3516955018506
30
0
41
1
10
106.524370352316
20
28.3302465554498
30
0
41
1
10
106.52272221291
20
28.3150076820549
30
0
41
1
10
106.519763477303
20
28.2692045549594
30
0
41
1
10
106.520294258414
20
28.2378635210708
30
0
41
1
10
106.523619220996
20
28.1744196062316
30
0
41
1
10
106.526514159926
20
28.1422855537981
30
0
41
1
10
106.537644146478
20
28.0450353431521
30
0
41
1
10
106.548337322641
20
27.9788780529987
30
0
41
1
10
106.573783904193
20
27.8469187893536
30
0
41
1
10
106.588606152319
20
27.7808641230372
30
0
41
1
10
106.6055
20
27.7147398224982
30
0
0
SPLINE
5
194
100
AcDbEntity
8
1
62
256
6
ByLayer
370
18
48
1
60
0
100
AcDbSpline
70
4
71
3
72
20
73
16
40
0
40
0
40
0
40
0
40
0.0625000000000036
40
0.0625000000000036
40
0.125000000000007
40
0.125000000000007
40
0.250000000000009
40
0.250000000000009
40
0.37500000000001
40
0.37500000000001
40
0.500000000000012
40
0.500000000000012
40
0.750000000000006
40
0.750000000000006
40
1
40
1
40
1
40
1
41
1
10
13.4613248654051
20
-12.1330899674708
30
0
41
1
10
13.4771575420862
20
-12.1330899674708
30
0
41
1
10
13.4926967829159
20
-12.1346446934812
30
0
41
1
10
13.5232412496765
20
-12.1405832169825
30
0
41
1
10
13.5383757111925
20
-12.1450224152723
30
0
41
1
10
13.5820585103617
20
-12.1619255694048
30
0
41
1
10
13.6085397975367
20
-12.177616249759
30
0
41
1
10
13.6577471021953
20
-12.215072219626
30
0
41
1
10
13.6795828635239
20
-12.236155581648
30
0
41
1
10
13.7196125550313
20
-12.2814125122523
30
0
41
1
10
13.737867997266
20
-12.3057660949486
30
0
41
1
10
13.7876681187475
20
-12.3811715645305
30
0
41
1
10
13.8143757204948
20
-12.4342400380054
30
0
41
1
10
13.8599678398712
20
-12.543705389465
30
0
41
1
10
13.8787504379151
20
-12.6003080708705
30
0
41
1
10
13.8943375672974
20
-12.6576002058704
30
0
0
SPLINE
5
195
100
AcDbEntity
8
1
62
256
6
ByLayer
370
18
48
1
60
0
100
AcDbSpline
70
4
71
3
72
22
73
18
40
0
40
0
40
0
40
0
40
0.125
40
0.125
40
0.25
40
0.25
40
0.375
40
0.375
40
0.5
40
0.5
40
0.625
40
0.625
40
0.75
40
0.75
40
0.875
40
0.875
40
1
40
1
40
1
40
1
41
1
10
106.6055
20
39.232584456276
30
0
41
1
10
106.593739100244
20
39.2431060346604
30
0
41
1
10
106.582242551691
20
39.2529637034773
30
0
41
1
10
106.561004489412
20
39.2700210168543
30
0
41
1
10
106.551171313917
20
39.2772898909988
30
0
41
1
10
106.534859454679
20
39.287508216025
30
0
41
1
10
106.528448239208
20
39.2903652507063
30
0
41
1
10
106.520922723968
20
39.2903897893651
30
0
41
1
10
106.519748598788
20
39.2875543836234
30
0
41
1
10
106.522224174389
20
39.277369159435
30
0
41
1
10
106.52578250787
20
39.2700835318898
30
0
41
1
10
106.536008302682
20
39.2529765435596
30
0
41
1
10
106.542700715944
20
39.2431003754386
30
0
41
1
10
106.55792775034
20
39.2221399537162
30
0
41
1
10
106.566628668
20
39.2108285302577
30
0
41
1
10
106.585192455251
20
39.1876523821413
30
0
41
1
10
106.595079721552
20
39.1757473715766
30
0
41
1
10
106.6055
20
39.163566138175
30
0
0
SPLINE
5
196
100
AcDbEntity
8
1
62
256
6
ByLayer
370
18
48
1
60
0
100
AcDbSpline
70
4
71
3
72
22
73
18
40
0
40
0
40
0
40
0
40
0.124999999999971
40
0.124999999999971
40
0.249999999999942
40
0.249999999999942
40
0.312499999999946
40
0.312499999999946
40
0.374999999999949
40
0.374999999999949
40
0.499999999999969
40
0.499999999999969
40
0.624999999999988
40
0.624999999999988
40
0.750000000000008
40
0.750000000000008
40
1
40
1
40
1
40
1
41
1
10
106.6055
20
38.8304003628101
30
0
41
1
10
106.593380808039
20
38.8409166748026
30
0
41
1
10
106.581502968404
20
38.850599351319
30
0
41
1
10
106.559693945803
20
38.8666789353283
30
0
41
1
10
106.549522162378
20
38.8732288666946
30
0
41
1
10
106.537271537993
20
38.8790458665807
30
0
41
1
10
106.533636580047
20
38.8803378471185
30
0
41
1
10
106.527722419873
20
38.8814041831677
30
0
41
1
10
106.525390108167
20
38.8812105482548
30
0
41
1
10
106.520318726839
20
38.8783850311454
30
0
41
1
10
106.51974863245
20
38.8735609996964
30
0
41
1
10
106.523039271001
20
38.8599134489843
30
0
41
1
10
106.526840175741
20
38.8511757274978
30
0
41
1
10
106.537301085598
20
38.8315374121518
30
0
41
1
10
106.54386990924
20
38.8207762383678
30
0
41
1
10
106.56664699131
20
38.7863364356785
30
0
41
1
10
106.585022833209
20
38.7617741819729
30
0
41
1
10
106.6055
20
38.7363442052146
30
0
0
SPLINE
5
197
100
AcDbEntity
8
1
62
256
6
ByLayer
370
18
48
1
60
0
100
AcDbSpline
70
4
71
3
72
22
73
18
40
0
40
0
40
0
40
0
40
0.125000000000004
40
0.125000000000004
40
0.250000000000008
40
0.250000000000008
40
0.312500000000011
40
0.312500000000011
40
0.375000000000014
40
0.375000000000014
40
0.500000000000019
40
0.500000000000019
40
0.625000000000025
40
0.625000000000025
40
0.75000000000003
40
0.75000000000003
40
1
40
1
40
1
40
1
41
1
10
106.6055
20
38.2968754376164
30
0
41
1
10
106.592993500049
20
38.3074523250384
30
0
41
1
10
106.580706276432
20
38.3169884662058
30
0
41
1
10
106.558138730979
20
38.3320952215856
30
0
41
1
10
106.547727595054
20
38.3377169168032
30
0
41
1
10
106.535443493164
20
38.3413685698684
30
0
41
1
10
106.531968282765
20
38.3417770780818
30
0
41
1
10
106.526382198925
20
38.3409817366965
30
0
41
1
10
106.52422997549
20
38.3397516724482
30
0
41
1
10
106.519946272536
20
38.3338790234322
30
0
41
1
10
106.519899733554
20
38.3270135233085
30
0
41
1
10
106.523871617955
20
38.3100249021397
30
0
41
1
10
106.527886222809
20
38.2997612893051
30
0
41
1
10
106.538430599233
20
38.2776904215159
30
0
41
1
10
106.544991563262
20
38.2657814976337
30
0
41
1
10
106.567418182231
20
38.228501555755
30
0
41
1
10
106.585340647127
20
38.2025463743235
30
0
41
1
10
106.6055
20
38.1757784213043
30
0
0
SPLINE
5
198
100
AcDbEntity
8
1
62
256
6
ByLayer
370
18
48
1
60
0
100
AcDbSpline
70
4
71
3
72
8
73
4
40
0
40
0
40
0
40
0
40
1
40
1
40
1
40
1
41
1
10
106.6055
20
2.37991703380541
30
0
41
1
10
106.820200946825
20
2.5579138520919
30
0
41
1
10
107.034868684835
20
2.73596409385348
30
0
41
1
10
107.2495
20
2.91407284568106
30
0
0
SPLINE
5
199
100
AcDbEntity
8
1
62
256
6
ByLayer
370
18
48
1
60
0
100
AcDbSpline
70
4
71
3
72
29
73
25
40
0
40
0
40
0
40
0
40
0.24999999999997
40
0.24999999999997
40
0.499999999999941
40
0.624999999999933
40
0.624999999999933
40
0.749999999999926
40
0.749999999999926
40
0.812499999999925
40
0.812499999999925
40
0.843749999999931
40
0.843749999999931
40
0.85937499999994
40
0.85937499999994
40
0.87499999999995
40
0.87499999999995
40
0.890624999999959
40
0.890624999999959
40
0.906249999999969
40
0.906249999999969
40
0.937499999999974
40
0.937499999999974
40
1
40
1
40
1
40
1
41
1
10
107.3245
20
17.6256367028482
30
0
41
1
10
107.3245
20
17.6805935894487
30
0
41
1
10
107.324032399932
20
17.7355036854236
30
0
41
1
10
107.321844723872
20
17.845174586384
30
0
41
1
10
107.319316428687
20
17.9273248781722
30
0
41
1
10
107.314310421224
20
18.0091197265876
30
0
41
1
10
107.309978969288
20
18.0634928718809
30
0
41
1
10
107.307406823544
20
18.0906003946071
30
0
41
1
10
107.301580753402
20
18.1305159049387
30
0
41
1
10
107.299363093008
20
18.1437444847981
30
0
41
1
10
107.294437082563
20
18.1629314634031
30
0
41
1
10
107.29259372161
20
18.1691750654112
30
0
41
1
10
107.288543171497
20
18.177561413671
30
0
41
1
10
107.286963273436
20
18.1802259517926
30
0
41
1
10
107.282840776615
20
18.1837772341883
30
0
41
1
10
107.280153150168
20
18.1842009645478
30
0
41
1
10
107.275457159849
20
18.1815203470164
30
0
41
1
10
107.273463656978
20
18.1789551440704
30
0
41
1
10
107.270073900227
20
18.173569613537
30
0
41
1
10
107.268601361044
20
18.1705976594514
30
0
41
1
10
107.264535543431
20
18.1614249839976
30
0
41
1
10
107.262285393521
20
18.1549549334165
30
0
41
1
10
107.256068674689
20
18.1353047357379
30
0
41
1
10
107.252660481926
20
18.1218138400352
30
0
41
1
10
107.2495
20
18.1082541252291
30
0
0
SPLINE
5
19A
100
AcDbEntity
8
1
62
256
6
ByLayer
370
18
48
1
60
0
100
AcDbSpline
70
4
71
3
72
22
73
18
40
0
40
0
40
0
40
0
40
0.250000000000057
40
0.250000000000057
40
0.312500000000061
40
0.312500000000061
40
0.375000000000065
40
0.375000000000065
40
0.500000000000052
40
0.500000000000052
40
0.625000000000039
40
0.625000000000039
40
0.750000000000026
40
0.750000000000026
40
0.875000000000013
40
0.875000000000013
40
1
40
1
40
1
40
1
41
1
10
106.6055
20
39.5115512430934
30
0
41
1
10
106.582537997433
20
39.5328190622729
30
0
41
1
10
106.560753547666
20
39.5519654120075
30
0
41
1
10
106.54040488847
20
39.5674556705879
30
0
41
1
10
106.536759223766
20
39.5700669054193
30
0
41
1
10
106.530414457453
20
39.574200409037
30
0
41
1
10
106.527719044753
20
39.5757123360829
30
0
41
1
10
106.521544858164
20
39.5782568081098
30
0
41
1
10
106.519876109205
20
39.5773008110934
30
0
41
1
10
106.521565633523
20
39.5705019246575
30
0
41
1
10
106.5248695786
20
39.5646759138372
30
0
41
1
10
106.534864493797
20
39.5500522686143
30
0
41
1
10
106.541609733461
20
39.5411548521571
30
0
41
1
10
106.557055124618
20
39.521869396227
30
0
41
1
10
106.565941228382
20
39.5112472832549
30
0
41
1
10
106.584848961551
20
39.4893103171526
30
0
41
1
10
106.594911439579
20
39.4779400570609
30
0
41
1
10
106.6055
20
39.4662256251216
30
0
0
SPLINE
5
19B
100
AcDbEntity
8
1
62
256
6
ByLayer
370
18
48
1
60
0
100
AcDbSpline
70
4
71
3
72
8
73
4
40
0
40
0
40
0
40
0
40
1
40
1
40
1
40
1
41
1
10
107.2495
20
4.4296297752868
30
0
41
1
10
107.038207131738
20
4.08444698548007
30
0
41
1
10
106.823431123556
20
3.74217617461233
30
0
41
1
10
106.6055
20
3.40254310719593
30
0
0
SPLINE
5
19C
100
AcDbEntity
8
1
62
256
6
ByLayer
370
18
48
1
60
0
100
AcDbSpline
70
4
71
3
72
14
73
10
40
0
40
0
40
0
40
0
40
0.25
40
0.25
40
0.5
40
0.5
40
0.75
40
0.75
40
1
40
1
40
1
40
1
41
1
10
107.2495
20
1.03215586866386
30
0
41
1
10
107.259249604116
20
1.04255972549433
30
0
41
1
10
107.268519251578
20
1.05260781476233
30
0
41
1
10
107.285911691607
20
1.07186096033718
30
0
41
1
10
107.293983863503
20
1.081014628969
30
0
41
1
10
107.307857926255
20
1.09734747970754
30
0
41
1
10
107.313812257457
20
1.10471257429489
30
0
41
1
10
107.322116596227
20
1.11610004697596
30
0
41
1
10
107.3245
20
1.12018684514911
30
0
41
1
10
107.3245
20
1.1219161576457
30
0
0
SPLINE
5
19D
100
AcDbEntity
8
1
62
256
6
ByLayer
370
18
48
1
60
0
100
AcDbSpline
70
4
71
3
72
12
73
8
40
0
40
0
40
0
40
0
40
0.250000000000005
40
0.250000000000005
40
0.500000000000011
40
0.500000000000011
40
1
40
1
40
1
40
1
41
1
10
107.3245
20
30.7754639616859
30
0
41
1
10
107.3245
20
30.7999091198559
30
0
41
1
10
107.321817981306
20
30.8257509458841
30
0
41
1
10
107.313562475329
20
30.8782508842314
30
0
41
1
10
107.307981564277
20
30.9046421962934
30
0
41
1
10
107.288101027238
20
30.9841111952551
30
0
41
1
10
107.270762412543
20
31.0374723673838
30
0
41
1
10
107.2495
20
31.0912167009134
30
0
0
SPLINE
5
19E
100
AcDbEntity
8
1
62
256
6
ByLayer
370
18
48
1
60
0
100
AcDbSpline
70
4
71
3
72
8
73
4
40
0
40
0
40
0
40
0
40
1
40
1
40
1
40
1
41
1
10
107.2495
20
11.3855949578269
30
0
41
1
10
107.052909503293
20
10.7260425774911
30
0
41
1
10
106.837557523584
20
10.0747311708271
30
0
41
1
10
106.6055
20
9.43075766742152
30
0
0
SPLINE
5
19F
100
AcDbEntity
8
1
62
256
6
ByLayer
370
18
48
1
60
0
100
AcDbSpline
70
4
71
3
72
14
73
10
40
0
40
0
40
0
40
0
40
0.25
40
0.25
40
0.5
40
0.5
40
0.75
40
0.75
40
1
40
1
40
1
40
1
41
1
10
107.2495
20
35.2329620912908
30
0
41
1
10
107.259575474705
20
35.224729678792
30
0
41
1
10
107.26966349178
20
35.2176576935563
30
0
41
1
10
107.288734068695
20
35.2077835490403
30
0
41
1
10
107.297672368402
20
35.2051360238348
30
0
41
1
10
107.31177716259
20
35.2060335303122
30
0
41
1
10
107.316905532375
20
35.2095373596982
30
0
41
1
10
107.323198953868
20
35.2205854056194
30
0
41
1
10
107.324500000001
20
35.228127808386
30
0
41
1
10
107.324500000001
20
35.2365834598278
30
0
0
SPLINE
5
1A0
100
AcDbEntity
8
1
62
256
6
ByLayer
370
18
48
1
60
0
100
AcDbSpline
70
4
71
3
72
8
73
4
40
0
40
0
40
0
40
0
40
1
40
1
40
1
40
1
41
1
10
107.2495
20
1.5971501218248
30
0
41
1
10
107.036011628907
20
1.34224802152357
30
0
41
1
10
106.821310496289
20
1.08871483866508
30
0
41
1
10
106.6055
20
0.836433861824929
30
0
0
SPLINE
5
1A1
100
AcDbEntity
8
1
62
256
6
ByLayer
370
18
48
1
60
0
100
AcDbSpline
70
4
71
3
72
8
73
4
40
0
40
0
40
0
40
0
40
1
40
1
40
1
40
1
41
1
10
107.2495
20
0.932062915284547
30
0
41
1
10
107.035382142102
20
0.714500726689124
30
0
41
1
10
106.820700052471
20
0.497683314479588
30
0
41
1
10
106.6055
20
0.281549604494785
30
0
0
SPLINE
5
1A2
100
AcDbEntity
8
1
62
256
6
ByLayer
370
18
48
1
60
0
100
AcDbSpline
70
4
71
3
72
14
73
10
40
0
40
0
40
0
40
0
40
0.25
40
0.25
40
0.5
40
0.5
40
0.75
40
0.75
40
1
40
1
40
1
40
1
41
1
10
107.2495
20
0.932062915284547
30
0
41
1
10
107.259211278108
20
0.941930410410578
30
0
41
1
10
107.268463174683
20
0.95137245161385
30
0
41
1
10
107.285857479136
20
0.969236462697495
30
0
41
1
10
107.294025317656
20
0.977686519971797
30
0
41
1
10
107.307974433677
20
0.992296140444466
30
0
41
1
10
107.313940209129
20
0.998650565087814
30
0
41
1
10
107.322186827721
20
1.00776945048349
30
0
41
1
10
107.3245
20
1.01057574143718
30
0
41
1
10
107.3245
20
1.01108547950497
30
0
0
SPLINE
5
1A3
100
AcDbEntity
8
1
62
256
6
ByLayer
370
18
48
1
60
0
100
AcDbSpline
70
4
71
3
72
26
73
22
40
0
40
0
40
0
40
0
40
0.250000000000028
40
0.250000000000028
40
0.500000000000057
40
0.500000000000057
40
0.625000000000071
40
0.625000000000071
40
0.687500000000071
40
0.687500000000071
40
0.75000000000007
40
0.75000000000007
40
0.81250000000007
40
0.81250000000007
40
0.84375000000007
40
0.84375000000007
40
0.875000000000069
40
0.875000000000069
40
0.937500000000035
40
0.937500000000035
40
1
40
1
40
1
40
1
41
1
10
106.6055
20
9.43075766742152
30
0
41
1
10
106.587643156855
20
9.38120385997678
30
0
41
1
10
106.572015153518
20
9.33148736872462
30
0
41
1
10
106.545768365898
20
9.23333984201193
30
0
41
1
10
106.534984812796
20
9.18469772034592
30
0
41
1
10
106.524406680009
20
9.11272718942837
30
0
41
1
10
106.521852859371
20
9.08895634945699
30
0
41
1
10
106.520418804176
20
9.05471933885244
30
0
41
1
10
106.520340103259
20
9.04351492890294
30
0
41
1
10
106.521316572032
20
9.02169072872374
30
0
41
1
10
106.522379144929
20
9.01100401394683
30
0
41
1
10
106.526211670088
20
8.99121073321996
30
0
41
1
10
106.528987116134
20
8.98192480837835
30
0
41
1
10
106.535310298849
20
8.97028100209005
30
0
41
1
10
106.537755477579
20
8.96683712627609
30
0
41
1
10
106.543557893523
20
8.96112794744462
30
0
41
1
10
106.546935275676
20
8.95888628001217
30
0
41
1
10
106.558257275307
20
8.95485755367395
30
0
41
1
10
106.567713171199
20
8.95602763366821
30
0
41
1
10
106.586740793639
20
8.96484657216936
30
0
41
1
10
106.596375598404
20
8.97215719006871
30
0
41
1
10
106.6055
20
8.98066751044951
30
0
0
SPLINE
5
1A4
100
AcDbEntity
8
1
62
256
6
ByLayer
370
18
48
1
60
0
100
AcDbSpline
70
4
71
3
72
14
73
10
40
0
40
0
40
0
40
0
40
0.25
40
0.25
40
0.5
40
0.5
40
0.75
40
0.75
40
1
40
1
40
1
40
1
41
1
10
107.3245
20
38.6463193271823
30
0
41
1
10
107.3245
20
38.6493536764683
30
0
41
1
10
107.322034011465
20
38.6547938153032
30
0
41
1
10
107.313694135752
20
38.6685224069777
30
0
41
1
10
107.307759088246
20
38.6769402543422
30
0
41
1
10
107.293931735253
20
38.6951434737655
30
0
41
1
10
107.285875277587
20
38.7051515681115
30
0
41
1
10
107.268553746702
20
38.7258583546616
30
0
41
1
10
107.259286714282
20
38.7365681993686
30
0
41
1
10
107.2495
20
38.7475864397169
30
0
0
SPLINE
5
1A5
100
AcDbEntity
8
1
62
256
6
ByLayer
370
18
48
1
60
0
100
AcDbSpline
70
4
71
3
72
12
73
8
40
0
40
0
40
0
40
0
40
0.250000000000003
40
0.250000000000003
40
0.500000000000006
40
0.500000000000006
40
1
40
1
40
1
40
1
41
1
10
107.3245
20
23.6355155582362
30
0
41
1
10
107.3245
20
23.7132532449592
30
0
41
1
10
107.322321213052
20
23.7911336041314
30
0
41
1
10
107.315157628452
20
23.9470255495375
30
0
41
1
10
107.310118654055
20
24.0250425553993
30
0
41
1
10
107.29112293735
20
24.2592597093768
30
0
41
1
10
107.273453541426
20
24.4157826398055
30
0
41
1
10
107.2495
20
24.5717458978615
30
0
0
SPLINE
5
1A6
100
AcDbEntity
8
1
62
256
6
ByLayer
370
18
48
1
60
0
100
AcDbSpline
70
4
71
3
72
12
73
8
40
0
40
0
40
0
40
0
40
0.25
40
0.25
40
0.5
40
0.5
40
1
40
1
40
1
40
1
41
1
10
107.3245
20
32.6809876861899
30
0
41
1
10
107.3245
20
32.6997071452707
30
0
41
1
10
107.321855324873
20
32.719794914746
30
0
41
1
10
107.313599942066
20
32.7614838723725
30
0
41
1
10
107.30788129739
20
32.78314743734
30
0
41
1
10
107.287783443018
20
32.8478323650262
30
0
41
1
10
107.270417001908
20
32.8913749481953
30
0
41
1
10
107.2495
20
32.9353083296312
30
0
0
SPLINE
5
1A7
100
AcDbEntity
8
1
62
256
6
ByLayer
370
18
48
1
60
0
100
AcDbSpline
70
4
71
3
72
12
73
8
40
0
40
0
40
0
40
0
40
0.500000000000001
40
0.500000000000001
40
0.75
40
0.75
40
1
40
1
40
1
40
1
41
1
10
107.2495
20
15.4282541021385
30
0
41
1
10
107.273449874967
20
15.5841934876115
30
0
41
1
10
107.291067937376
20
15.7402103729224
30
0
41
1
10
107.310080956516
20
15.9744188988229
30
0
41
1
10
107.315133100644
20
16.0525176255808
30
0
41
1
10
107.322320194146
20
16.2087675533797
30
0
41
1
10
107.3245
20
16.286761842472
30
0
41
1
10
107.3245
20
16.3644844417638
30
0
0
SPLINE
5
1A8
100
AcDbEntity
8
1
62
256
6
ByLayer
370
18
48
1
60
0
100
AcDbSpline
70
4
71
3
72
26
73
22
40
0
40
0
40
0
40
0
40
0.124999999999997
40
0.124999999999997
40
0.249999999999993
40
0.249999999999993
40
0.37499999999999
40
0.37499999999999
40
0.499999999999987
40
0.499999999999987
40
0.624999999999983
40
0.624999999999983
40
0.687499999999978
40
0.687499999999978
40
0.749999999999972
40
0.749999999999972
40
0.812499999999967
40
0.812499999999967
40
0.874999999999961
40
0.874999999999961
40
1
40
1
40
1
40
1
41
1
10
106.6055
20
4.46668411598606
30
0
41
1
10
106.595891848487
20
4.4501488790267
30
0
41
1
10
106.586867923903
20
4.43366841066765
30
0
41
1
10
106.570018960149
20
4.40082362622852
30
0
41
1
10
106.562162348524
20
4.38438350100094
30
0
41
1
10
106.54808217205
20
4.35222343046487
30
0
41
1
10
106.541826548599
20
4.33645979622403
30
0
41
1
10
106.531248218515
20
4.30571175399504
30
0
41
1
10
106.526880540947
20
4.2905652302432
30
0
41
1
10
106.521184962534
20
4.26234463582074
30
0
41
1
10
106.519788361478
20
4.24911333532106
30
0
41
1
10
106.521376195424
20
4.23223234190635
30
0
41
1
10
106.522519045604
20
4.22719858502791
30
0
41
1
10
106.526402372343
20
4.21867022855267
30
0
41
1
10
106.529173651342
20
4.21520634291886
30
0
41
1
10
106.536453758024
20
4.21066899320701
30
0
41
1
10
106.541055609124
20
4.20957946976813
30
0
41
1
10
106.551571459623
20
4.21005209728781
30
0
41
1
10
106.557659690864
20
4.21161496942548
30
0
41
1
10
106.576989835237
20
4.21962923867378
30
0
41
1
10
106.591355988743
20
4.22929823940905
30
0
41
1
10
106.6055
20
4.24085441251813
30
0
0
SPLINE
5
1A9
100
AcDbEntity
8
1
62
256
6
ByLayer
370
18
48
1
60
0
100
AcDbSpline
70
4
71
3
72
8
73
4
40
0
40
0
40
0
40
0
40
1
40
1
40
1
40
1
41
1
10
107.2495
20
7.06469167036877
30
0
41
1
10
107.04140572646
20
6.6276173164824
30
0
41
1
10
106.826510348702
20
6.19504146690682
30
0
41
1
10
106.6055
20
5.76651028747239
30
0
0
SPLINE
5
1AA
100
AcDbEntity
8
1
62
256
6
ByLayer
370
18
48
1
60
0
100
AcDbSpline
70
4
71
3
72
12
73
8
40
0
40
0
40
0
40
0
40
0.499999999999951
40
0.499999999999951
40
0.749999999999975
40
0.749999999999975
40
1
40
1
40
1
40
1
41
1
10
107.2495
20
1.5971501218248
30
0
41
1
10
107.269213771312
20
1.62068808638273
30
0
41
1
10
107.287076122895
20
1.64363297152042
30
0
41
1
10
107.307711737403
20
1.67395242778258
30
0
41
1
10
107.313626340585
20
1.68349919213355
30
0
41
1
10
107.322002481336
20
1.69975294054652
30
0
41
1
10
107.3245
20
1.70655950554399
30
0
41
1
10
107.3245
20
1.71097598712453
30
0
0
SPLINE
5
1AB
100
AcDbEntity
8
1
62
256
6
ByLayer
370
18
48
1
60
0
100
AcDbSpline
70
4
71
3
72
8
73
4
40
0
40
0
40
0
40
0
40
1
40
1
40
1
40
1
41
1
10
107.2495
20
2.69246822083969
30
0
41
1
10
107.036782319601
20
2.40112519218093
30
0
41
1
10
106.822056039247
20
2.11176860071313
30
0
41
1
10
106.6055
20
1.82422157869573
30
0
0
SPLINE
5
1AC
100
AcDbEntity
8
1
62
256
6
ByLayer
370
18
48
1
60
0
100
AcDbSpline
70
4
71
3
72
8
73
4
40
0
40
0
40
0
40
0
40
1
40
1
40
1
40
1
41
1
10
106.6055
20
39.6500792121576
30
0
41
1
10
106.820860303431
20
39.4235405354009
30
0
41
1
10
107.035547222369
20
39.1961543314658
30
0
41
1
10
107.2495
20
38.9678441313361
30
0
0
SPLINE
5
1AD
100
AcDbEntity
8
1
62
256
6
ByLayer
370
18
48
1
60
0
100
AcDbSpline
70
4
71
3
72
14
73
10
40
0
40
0
40
0
40
0
40
0.25
40
0.25
40
0.5
40
0.5
40
0.75
40
0.75
40
1
40
1
40
1
40
1
41
1
10
107.2495
20
38.2705960321683
30
0
41
1
10
107.259229511984
20
38.2621232908816
30
0
41
1
10
107.268802577543
20
38.2542265447333
30
0
41
1
10
107.286601863368
20
38.2406968240446
30
0
41
1
10
107.29495424747
20
38.2349725137476
30
0
41
1
10
107.309141149508
20
38.2269970357157
30
0
41
1
10
107.314957231867
20
38.2247944411961
30
0
41
1
10
107.322603033857
20
38.2247762044744
30
0
41
1
10
107.3245
20
38.2269651603499
30
0
41
1
10
107.3245
20
38.2309126238237
30
0
0
SPLINE
5
1AE
100
AcDbEntity
8
1
62
256
6
ByLayer
370
18
48
1
60
0
100
AcDbSpline
70
4
71
3
72
8
73
4
40
0
40
0
40
0
40
0
40
1
40
1
40
1
40
1
41
1
10
106.6055
20
0.327456723749975
30
0
41
1
10
106.820569637573
20
0.534495705724908
30
0
41
1
10
107.035247896482
20
0.74207430325896
30
0
41
1
10
107.2495
20
0.950240464964651
30
0
0
SPLINE
5
1AF
100
AcDbEntity
8
1
62
256
6
ByLayer
370
18
48
1
60
0
100
AcDbSpline
70
4
71
3
72
14
73
10
40
0
40
0
40
0
40
0
40
0.25
40
0.25
40
0.5
40
0.5
40
0.75
40
0.75
40
1
40
1
40
1
40
1
41
1
10
107.3245
20
1.76908737617626
30
0
41
1
10
107.3245
20
1.77308210289922
30
0
41
1
10
107.322626132983
20
1.77524053569857
30
0
41
1
10
107.314843542028
20
1.7751884068208
30
0
41
1
10
107.309162894578
20
1.77301895902602
30
0
41
1
10
107.294854222523
20
1.76496746406988
30
0
41
1
10
107.286589612437
20
1.7592985483156
30
0
41
1
10
107.26861271811
20
1.74562440033904
30
0
41
1
10
107.259209704467
20
1.73785946015838
30
0
41
1
10
107.2495
20
1.7294039678317
30
0
0
SPLINE
5
1B0
100
AcDbEntity
8
1
62
256
6
ByLayer
370
18
48
1
60
0
100
AcDbSpline
70
4
71
3
72
34
73
30
40
0
40
0
40
0
40
0
40
0.0156250000000033
40
0.0156250000000033
40
0.023437500000005
40
0.023437500000005
40
0.0312500000000066
40
0.0312500000000066
40
0.0390625000000082
40
0.0390625000000082
40
0.0468750000000099
40
0.0468750000000099
40
0.0625000000000072
40
0.0625000000000072
40
0.0937500000000079
40
0.0937500000000079
40
0.125000000000009
40
0.125000000000009
40
0.187500000000009
40
0.187500000000009
40
0.250000000000009
40
0.250000000000009
40
0.375000000000009
40
0.375000000000009
40
0.50000000000001
40
0.50000000000001
40
0.750000000000005
40
0.750000000000005
40
1
40
1
40
1
40
1
41
1
10
106.6055
20
23.7827284368682
30
0
41
1
10
106.600770565557
20
23.7934128371719
30
0
41
1
10
106.595549054338
20
23.8039389499721
30
0
41
1
10
106.585900390277
20
23.817475071508
30
0
41
1
10
106.582318343786
20
23.8216552662917
30
0
41
1
10
106.574314046877
20
23.8273723295761
30
0
41
1
10
106.56971601516
20
23.8286222789861
30
0
41
1
10
106.561718660099
20
23.8261309539017
30
0
41
1
10
106.558300967182
20
23.8227328087739
30
0
41
1
10
106.552786193003
20
23.8147135537982
30
0
41
1
10
106.550603107456
20
23.8101189826936
30
0
41
1
10
106.544820911684
20
23.7955510410412
30
0
41
1
10
106.542027970043
20
23.7848099310434
30
0
41
1
10
106.534988669662
20
23.7520660876278
30
0
41
1
10
106.532125846609
20
23.7295957892231
30
0
41
1
10
106.527546360837
20
23.6845910010538
30
0
41
1
10
106.525936675823
20
23.6619277234909
30
0
41
1
10
106.522187937599
20
23.5936705320076
30
0
41
1
10
106.521123714516
20
23.5478104896587
30
0
41
1
10
106.520277547574
20
23.4557358775573
30
0
41
1
10
106.520544772605
20
23.4095102779934
30
0
41
1
10
106.522565645691
20
23.2704594063641
30
0
41
1
10
106.525520224338
20
23.1771930597441
30
0
41
1
10
106.532835222886
20
22.9906986667352
30
0
41
1
10
106.537238897876
20
22.8973822391253
30
0
41
1
10
106.551541689553
20
22.6172541796712
30
0
41
1
10
106.562501630545
20
22.4302646099135
30
0
41
1
10
106.584379308983
20
22.0558814416817
30
0
41
1
10
106.595352138883
20
21.8684580369191
30
0
41
1
10
106.6055
20
21.6809335420858
30
0
0
SPLINE
5
1B1
100
AcDbEntity
8
1
62
256
6
ByLayer
370
18
48
1
60
0
100
AcDbSpline
70
4
71
3
72
8
73
4
40
0
40
0
40
0
40
0
40
1
40
1
40
1
40
1
41
1
10
106.6055
20
5.48992272235014
30
0
41
1
10
106.820203979195
20
5.66762995658152
30
0
41
1
10
107.034872069188
20
5.84539502314485
30
0
41
1
10
107.2495
20
6.02322470128726
30
0
0
SPLINE
5
1B2
100
AcDbEntity
8
1
62
256
6
ByLayer
370
18
48
1
60
0
100
AcDbSpline
70
4
71
3
72
34
73
30
40
0
40
0
40
0
40
0
40
0.250000000000001
40
0.250000000000001
40
0.500000000000002
40
0.500000000000002
40
0.625000000000003
40
0.625000000000003
40
0.750000000000003
40
0.750000000000003
40
0.812500000000003
40
0.812500000000003
40
0.875000000000003
40
0.875000000000003
40
0.906250000000002
40
0.906250000000002
40
0.937500000000001
40
0.937500000000001
40
0.953125
40
0.953125
40
0.960937499999998
40
0.960937499999998
40
0.968749999999996
40
0.968749999999996
40
0.976562499999994
40
0.976562499999994
40
0.984374999999992
40
0.984374999999992
40
1
40
1
40
1
40
1
41
1
10
106.6055
20
18.3190664579142
30
0
41
1
10
106.595346533292
20
18.1314383761681
30
0
41
1
10
106.584370807237
20
17.9439737713001
30
0
41
1
10
106.56248148874
20
17.5693900115985
30
0
41
1
10
106.551513851723
20
17.3822701570957
30
0
41
1
10
106.537202736881
20
17.101874567059
30
0
41
1
10
106.532796830085
20
17.0084568457204
30
0
41
1
10
106.525483149715
20
16.8217260095513
30
0
41
1
10
106.522535167938
20
16.7284541827304
30
0
41
1
10
106.520533676288
20
16.5892108960517
30
0
41
1
10
106.520274752555
20
16.5428937881194
30
0
41
1
10
106.52115465809
20
16.4505522718854
30
0
41
1
10
106.522240748443
20
16.4045189635506
30
0
41
1
10
106.52608172868
20
16.3358848792389
30
0
41
1
10
106.527736744004
20
16.3130686032575
30
0
41
1
10
106.532408665708
20
16.2681446323022
30
0
41
1
10
106.535313860698
20
16.2459474212689
30
0
41
1
10
106.542369992768
20
16.213862517081
30
0
41
1
10
106.545178365622
20
16.2032874283975
30
0
41
1
10
106.551015675626
20
16.1889929991177
30
0
41
1
10
106.553273328892
20
16.1844049441826
30
0
41
1
10
106.55884924938
20
16.1766786221576
30
0
41
1
10
106.562256999408
20
16.1734876183382
30
0
41
1
10
106.570382070726
20
16.1714182789564
30
0
41
1
10
106.574817602389
20
16.1728708093779
30
0
41
1
10
106.582709235835
20
16.1787544760108
30
0
41
1
10
106.586129694689
20
16.1828127919407
30
0
41
1
10
106.595657580156
20
16.1962840716806
30
0
41
1
10
106.600811615614
20
16.2066799001833
30
0
41
1
10
106.6055
20
16.2172715631318
30
0
0
SPLINE
5
1B3
100
AcDbEntity
8
1
62
256
6
ByLayer
370
18
48
1
60
0
100
AcDbSpline
70
4
71
3
72
8
73
4
40
0
40
0
40
0
40
0
40
1
40
1
40
1
40
1
41
1
10
106.6055
20
7.0294943984708
30
0
41
1
10
106.820331960648
20
7.21406953128047
30
0
41
1
10
107.035005737834
20
7.39888962081267
30
0
41
1
10
107.2495
20
7.58398770028353
30
0
0
SPLINE
5
1B4
100
AcDbEntity
8
1
62
256
6
ByLayer
370
18
48
1
60
0
100
AcDbSpline
70
4
71
3
72
31
73
27
40
0
40
0
40
0
40
0
40
0.125
40
0.125
40
0.25
40
0.25
40
0.3125
40
0.3125
40
0.34375
40
0.34375
40
0.375
40
0.375
40
0.5
40
0.5
40
0.625
40
0.625
40
0.75
40
0.75
40
0.875
40
0.875
40
0.9375
40
0.9375
40
0.96875
40
0.984375
40
0.984375
40
1
40
1
40
1
40
1
41
1
10
34.6596079803523
20
34.1143095645915
30
0
41
1
10
34.7049685817113
20
34.6046804985244
30
0
41
1
10
34.7743767264425
20
35.0637462746581
30
0
41
1
10
34.9526996165233
20
35.9214820464292
30
0
41
1
10
35.0616693145332
20
36.3201437751518
30
0
41
1
10
35.2502783782763
20
36.8735801422776
30
0
41
1
10
35.3173548991815
20
37.0506242399619
30
0
41
1
10
35.423810364098
20
37.3050578608034
30
0
41
1
10
35.4602695079372
20
37.3880131451413
30
0
41
1
10
35.535063133948
20
37.5502091401533
30
0
41
1
10
35.5734252907643
20
37.6294994017852
30
0
41
1
10
35.7690698003476
20
38.0153553397002
30
0
41
1
10
35.938208962947
20
38.291134509864
30
0
41
1
10
36.2963413520978
20
38.7799685281106
30
0
41
1
10
36.4853500254472
20
38.9930155855702
30
0
41
1
10
36.8785958303042
20
39.3581634731634
30
0
41
1
10
37.0828426802026
20
39.510260918063
30
0
41
1
10
37.5022944731347
20
39.7541678544444
30
0
41
1
10
37.717506362107
20
39.8459773218714
30
0
41
1
10
38.045426520508
20
39.9381653937125
30
0
41
1
10
38.1555839237789
20
39.9612986707202
30
0
41
1
10
38.3217021830186
20
39.9844876937701
30
0
41
1
10
38.4049817737867
20
39.9932036486285
30
0
41
1
10
38.4885172372651
20
39.9975721309532
30
0
41
1
10
38.5442560048103
20
39.9995145010354
30
0
41
1
10
38.5722322977938
20
40
30
0
41
1
10
38.6
20
40
30
0
0
SPLINE
5
1B5
100
AcDbEntity
8
1
62
256
6
ByLayer
370
18
48
1
60
0
100
AcDbSpline
70
4
71
3
72
12
73
8
40
0
40
0
40
0
40
0
40
0.499999999999993
40
0.499999999999993
40
0.749999999999997
40
0.749999999999997
40
1
40
1
40
1
40
1
41
1
10
107.2495
20
8.90878329908654
30
0
41
1
10
107.270749376286
20
8.96249468127891
30
0
41
1
10
107.288114006892
20
9.01590764720299
30
0
41
1
10
107.308033340519
20
9.09558136355113
30
0
41
1
10
107.313647104952
20
9.12219375775251
30
0
41
1
10
107.321857566803
20
9.1745957669271
30
0
41
1
10
107.3245
20
9.20015672659707
30
0
41
1
10
107.3245
20
9.22453603831406
30
0
0
SPLINE
5
1B6
100
AcDbEntity
8
1
62
256
6
ByLayer
370
18
48
1
60
0
100
AcDbSpline
70
4
71
3
72
12
73
8
40
0
40
0
40
0
40
0
40
0.250000000000018
40
0.250000000000018
40
0.500000000000037
40
0.500000000000037
40
1
40
1
40
1
40
1
41
1
10
107.324500000001
20
37.1637626739618
30
0
41
1
10
107.324500000001
20
37.1715373958858
30
0
41
1
10
107.321911983203
20
37.1813988967017
30
0
41
1
10
107.313432961461
20
37.2035631073316
30
0
41
1
10
107.307648294226
20
37.2155633646174
30
0
41
1
10
107.28692603742
20
37.2535669467308
30
0
41
1
10
107.26945325247
20
37.2802033455514
30
0
41
1
10
107.2495
20
37.3075317791603
30
0
0
SPLINE
5
1B7
100
AcDbEntity
8
1
62
256
6
ByLayer
370
18
48
1
60
0
100
AcDbSpline
70
4
71
3
72
14
73
10
40
0
40
0
40
0
40
0
40
0.25
40
0.25
40
0.5
40
0.5
40
0.75
40
0.75
40
1
40
1
40
1
40
1
41
1
10
107.3245
20
1.01907010248513
30
0
41
1
10
107.3245
20
1.01972506029273
30
0
41
1
10
107.322268657052
20
1.01817431430931
30
0
41
1
10
107.314108956146
20
1.01128811386812
30
0
41
1
10
107.308141619218
20
1.00592667886386
30
0
41
1
10
107.294092745741
20
0.992945245850223
30
0
41
1
10
107.285840184445
20
0.98516921470528
30
0
41
1
10
107.268427871024
20
0.968559545677152
30
0
41
1
10
107.259184127082
20
0.959649509407996
30
0
41
1
10
107.2495
20
0.950240464964622
30
0
0
SPLINE
5
1B8
100
AcDbEntity
8
1
62
256
6
ByLayer
370
18
48
1
60
0
100
AcDbSpline
70
4
71
3
72
8
73
4
40
0
40
0
40
0
40
0
40
1
40
1
40
1
40
1
41
1
10
106.6055
20
39.7184503955052
30
0
41
1
10
106.820700052471
20
39.5023166855204
30
0
41
1
10
107.035382142102
20
39.2854992733108
30
0
41
1
10
107.2495
20
39.0679370847154
30
0
0
SPLINE
5
1B9
100
AcDbEntity
8
1
62
256
6
ByLayer
370
18
48
1
60
0
100
AcDbSpline
70
4
71
3
72
22
73
18
40
0
40
0
40
0
40
0
40
0.250000000000028
40
0.250000000000028
40
0.375000000000022
40
0.375000000000022
40
0.500000000000016
40
0.500000000000016
40
0.62500000000001
40
0.62500000000001
40
0.750000000000004
40
0.750000000000004
40
0.812500000000004
40
0.812500000000004
40
0.875000000000004
40
0.875000000000004
40
1
40
1
40
1
40
1
41
1
10
106.6055
20
1.82422157869573
30
0
41
1
10
106.585273555258
20
1.79736453988164
30
0
41
1
10
106.566956451892
20
1.77077705997573
30
0
41
1
10
106.544833531636
20
1.73393211559349
30
0
41
1
10
106.538266574183
20
1.72200187337904
30
0
41
1
10
106.527742828944
20
1.69990189174473
30
0
41
1
10
106.523823971669
20
1.6898686460697
30
0
41
1
10
106.519863891674
20
1.67273377316357
30
0
41
1
10
106.519984207007
20
1.66594667153055
30
0
41
1
10
106.525780981227
20
1.65824778499132
30
0
41
1
10
106.531601008418
20
1.65746044215666
30
0
41
1
10
106.54372645532
20
1.66110844572174
30
0
41
1
10
106.548412658276
20
1.66313335690125
30
0
41
1
10
106.558472329125
20
1.66844873793426
30
0
41
1
10
106.563846554174
20
1.6717220168143
30
0
41
1
10
106.580853219547
20
1.68311716415474
30
0
41
1
10
106.593068792019
20
1.69261135022577
30
0
41
1
10
106.6055
20
1.70312456238355
30
0
0
SPLINE
5
1BA
100
AcDbEntity
8
1
62
256
6
ByLayer
370
18
48
1
60
0
100
AcDbSpline
70
4
71
3
72
20
73
16
40
0
40
0
40
0
40
0
40
0.0624999999999993
40
0.0624999999999993
40
0.124999999999999
40
0.124999999999999
40
0.25
40
0.25
40
0.375000000000002
40
0.375000000000002
40
0.500000000000004
40
0.500000000000004
40
0.750000000000002
40
0.750000000000002
40
1
40
1
40
1
40
1
41
1
10
10.5386751345949
20
-38.1154578595255
30
0
41
1
10
10.5228424579138
20
-38.1154578595255
30
0
41
1
10
10.5073032170841
20
-38.1149630443689
30
0
41
1
10
10.4767587503235
20
-38.1130718896045
30
0
41
1
10
10.4616242888075
20
-38.1116578687672
30
0
41
1
10
10.4179414896383
20
-38.1062685963607
30
0
41
1
10
10.3914602024633
20
-38.101260466828
30
0
41
1
10
10.3422528978047
20
-38.0892687952498
30
0
41
1
10
10.3204171364761
20
-38.0825033540055
30
0
41
1
10
10.2803874449687
20
-38.0679323293245
30
0
41
1
10
10.2621320027339
20
-38.0600685618956
30
0
41
1
10
10.2123318812525
20
-38.0356330717498
30
0
41
1
10
10.1856242795051
20
-38.0183244490836
30
0
41
1
10
10.1400321601288
20
-37.9823481941392
30
0
41
1
10
10.1212495620848
20
-37.9636126331776
30
0
41
1
10
10.1056624327025
20
-37.9445010117191
30
0
0
SPLINE
5
1BB
100
AcDbEntity
8
1
62
256
6
ByLayer
370
18
48
1
60
0
100
AcDbSpline
70
4
71
3
72
8
73
4
40
0
40
0
40
0
40
0
40
1
40
1
40
1
40
1
41
1
10
107.2495
20
1.03215586866389
30
0
41
1
10
107.035547222369
20
0.803845668534166
30
0
41
1
10
106.820860303431
20
0.576459464599111
30
0
41
1
10
106.6055
20
0.349920787842365
30
0
0
SPLINE
5
1BC
100
AcDbEntity
8
1
62
256
6
ByLayer
370
18
48
1
60
0
100
AcDbSpline
70
4
71
3
72
8
73
4
40
0
40
0
40
0
40
0
40
1
40
1
40
1
40
1
41
1
10
107.2495
20
39.0497595350353
30
0
41
1
10
107.035247896482
20
39.2579256967411
30
0
41
1
10
106.820569637573
20
39.4655042942751
30
0
41
1
10
106.6055
20
39.67254327625
30
0
0
SPLINE
5
1BD
100
AcDbEntity
8
1
62
256
6
ByLayer
370
18
48
1
60
0
100
AcDbSpline
70
4
71
3
72
8
73
4
40
0
40
0
40
0
40
0
40
1
40
1
40
1
40
1
41
1
10
106.6055
20
37.4690368442115
30
0
41
1
10
106.822628100131
20
37.1583021627902
30
0
41
1
10
107.037374649206
20
36.845389577551
30
0
41
1
10
107.2495
20
36.5300799335829
30
0
0
SPLINE
5
1BE
100
AcDbEntity
8
1
62
256
6
ByLayer
370
18
48
1
60
0
100
AcDbSpline
70
4
71
3
72
8
73
4
40
0
40
0
40
0
40
0
40
1
40
1
40
1
40
1
41
1
10
106.6055
20
36.5974568928041
30
0
41
1
10
106.823431123556
20
36.2578238253877
30
0
41
1
10
107.038207131738
20
35.9155530145199
30
0
41
1
10
107.2495
20
35.5703702247132
30
0
0
SPLINE
5
1BF
100
AcDbEntity
8
1
62
256
6
ByLayer
370
18
48
1
60
0
100
AcDbSpline
70
4
71
3
72
93
73
89
40
0
40
0
40
0
40
0
40
0.0312499068566474
40
0.0312499068566474
40
0.0624998137132949
40
0.0937497205699422
40
0.0937497205699422
40
0.12499962742659
40
0.12499962742659
40
0.132812104140752
40
0.132812104140752
40
0.140624580854913
40
0.156249534283237
40
0.156249534283237
40
0.187499441139885
40
0.187499441139885
40
0.218749347996532
40
0.218749347996532
40
0.249999254853179
40
0.249999254853179
40
0.257811731567341
40
0.257811731567341
40
0.265624208281503
40
0.265624208281503
40
0.281249161709827
40
0.281249161709827
40
0.312499068566474
40
0.312499068566474
40
0.343748975423121
40
0.343748975423121
40
0.374998882279769
40
0.374998882279769
40
0.390623835708093
40
0.390623835708093
40
0.406248789136416
40
0.406248789136416
40
0.437498695993064
40
0.437498695993064
40
0.468748602849711
40
0.468748602849711
40
0.499998509706358
40
0.499998509706358
40
0.515623463134682
40
0.515623463134682
40
0.523435939848844
40
0.523435939848844
40
0.531248416563006
40
0.531248416563006
40
0.562498323419653
40
0.562498323419653
40
0.593748230276301
40
0.593748230276301
40
0.624998137132948
40
0.624998137132948
40
0.640623090561272
40
0.640623090561272
40
0.648435567275434
40
0.648435567275434
40
0.656248043989596
40
0.656248043989596
40
0.687497950846243
40
0.687497950846243
40
0.718747857702891
40
0.749997764559539
40
0.749997764559539
40
0.781247671416187
40
0.781247671416187
40
0.789060148130349
40
0.789060148130349
40
0.79687262484451
40
0.812497578272834
40
0.812497578272834
40
0.843747485129483
40
0.874997391986131
40
0.874997391986131
40
0.906247298842779
40
0.906247298842779
40
0.914059775556941
40
0.914059775556941
40
0.921872252271103
40
0.921872252271103
40
0.937497205699427
40
0.937497205699427
40
0.968747112556075
40
0.968747112556075
40
0.999997019412723
40
0.999997019412723
40
1
40
1
40
1
40
1
41
1
10
34.6596079803523
20
34.1143095645916
30
0
41
1
10
34.6069479245701
20
33.5450278540064
30
0
41
1
10
34.5519930493407
20
32.9418199849949
30
0
41
1
10
34.438107824855
20
31.6696782411974
30
0
41
1
10
34.3202452561907
20
30.3318007049694
30
0
41
1
10
34.1953276277908
20
28.8639871218102
30
0
41
1
10
34.067189916925
20
27.3306934455042
30
0
41
1
10
34.0015110338744
20
26.5313106163485
30
0
41
1
10
33.917513018707
20
25.4900126895331
30
0
41
1
10
33.900598478428
20
25.2793995086023
30
0
41
1
10
33.8666992958296
20
24.8554056016554
30
0
41
1
10
33.8157444771802
20
24.2152611931357
30
0
41
1
10
33.7644896314119
20
23.5627780591058
30
0
41
1
10
33.6616190553147
20
22.2416025474516
30
0
41
1
10
33.5925600178974
20
21.339232764585
30
0
41
1
10
33.453625003596
20
19.4919500916444
30
0
41
1
10
33.3837485554087
20
18.5470364981348
30
0
41
1
10
33.2432424578905
20
16.6144593888585
30
0
41
1
10
33.1726125958578
20
15.6267979270337
30
0
41
1
10
33.083853731685
20
14.3648425302022
30
0
41
1
10
33.0660782290498
20
14.111080328273
30
0
41
1
10
33.030479141421
20
13.6007880750521
30
0
41
1
10
33.0126546185333
20
13.3442413436022
30
0
41
1
10
32.9593544627388
20
12.5739910357557
30
0
41
1
10
32.923969905873
20
12.0585007970034
30
0
41
1
10
32.8182485949955
20
10.5061580502033
30
0
41
1
10
32.7483444617415
20
9.46344303057259
30
0
41
1
10
32.609605976554
20
7.36265488504725
30
0
41
1
10
32.5407715718209
20
6.30458135135669
30
0
41
1
10
32.4040808740355
20
4.17305573627914
30
0
41
1
10
32.3362245956602
20
3.09960422737367
30
0
41
1
10
32.2350996226283
20
1.47765144444071
30
0
41
1
10
32.2015011477869
20
0.935035516717846
30
0
41
1
10
32.1345107575996
20
-0.154197579884112
30
0
41
1
10
32.1013281566835
20
-0.697413026524799
30
0
41
1
10
32.0027780800268
20
-2.32124294827568
30
0
41
1
10
31.9383608853532
20
-3.39679884156314
30
0
41
1
10
31.8118878249575
20
-5.5342015868645
30
0
41
1
10
31.7498322122262
20
-6.59604793204832
30
0
41
1
10
31.627919164938
20
-8.7060436389342
30
0
41
1
10
31.5680618829231
20
-9.75419337792104
30
0
41
1
10
31.4798280978214
20
-11.3159525553795
30
0
41
1
10
31.4506757817257
20
-11.8347925694571
30
0
41
1
10
31.4073258621694
20
-12.6103884991023
30
0
41
1
10
31.3929237581928
20
-12.8687506537559
30
0
41
1
10
31.3643222869406
20
-13.3831736562584
30
0
41
1
10
31.3501334668885
20
-13.6390430276376
30
0
41
1
10
31.2797369152405
20
-14.9117415476525
30
0
41
1
10
31.2251686695633
20
-15.9086598709404
30
0
41
1
10
31.1192752473299
20
-17.8610470054276
30
0
41
1
10
31.0679504938508
20
-18.8165137903306
30
0
41
1
10
30.9683628723139
20
-20.6861936311206
30
0
41
1
10
30.920100207491
20
-21.6004073431231
30
0
41
1
10
30.8499141002994
20
-22.9403299370224
30
0
41
1
10
30.8268871888441
20
-23.3817314359811
30
0
41
1
10
30.7928926483804
20
-24.0358571559884
30
0
41
1
10
30.7816521353089
20
-24.252569207828
30
0
41
1
10
30.7593523211892
20
-24.6833086296135
30
0
41
1
10
30.7482857034798
20
-24.8974786787593
30
0
41
1
10
30.6936482602079
20
-25.9568066312141
30
0
41
1
10
30.6519772603046
20
-26.7709796146863
30
0
41
1
10
30.5724521951626
20
-28.3346013583729
30
0
41
1
10
30.4967450604732
20
-29.833490981075
30
0
41
1
10
30.4283381355374
20
-31.2039937271693
30
0
41
1
10
30.3634965957578
20
-32.5095802724378
30
0
41
1
10
30.3328583490579
20
-33.1299199120756
30
0
41
1
10
30.296785903261
20
-33.8634910443255
30
0
41
1
10
30.2896970065423
20
-34.00782212331
30
0
41
1
10
30.2757987125138
20
-34.2911045245359
30
0
41
1
10
30.2553554199412
20
-34.7082659959684
30
0
41
1
10
30.2361061766946
20
-35.1023518100897
30
0
41
1
10
30.1991603448522
20
-35.8601650238368
30
0
41
1
10
30.1540336882992
20
-36.7897251635322
30
0
41
1
10
30.1169084556568
20
-37.5594630447936
30
0
41
1
10
30.0837443924926
20
-38.2486613339366
30
0
41
1
10
30.0691427128999
20
-38.5529957129557
30
0
41
1
10
30.0533996167911
20
-38.8816678009261
30
0
41
1
10
30.0503736882966
20
-38.9448733223363
30
0
41
1
10
30.0445902187995
20
-39.0657307623833
30
0
41
1
10
30.0418347599396
20
-39.123339079876
30
0
41
1
10
30.0339723387558
20
-39.2877826399963
30
0
41
1
10
30.0292691199002
20
-39.3862401564681
30
0
41
1
10
30.0167436035503
20
-39.6485997444536
30
0
41
1
10
30.0105023604477
20
-39.7795426334138
30
0
41
1
10
30.0021506214807
20
-39.9548210259128
30
0
41
1
10
30.0000402353392
20
-39.9991550221466
30
0
41
1
10
30.0000006087785
20
-39.9999872151112
30
0
41
1
10
30.0000005612106
20
-39.9999882140794
30
0
41
1
10
30.0000005136425
20
-39.9999892130475
30
0
0
SPLINE
5
1C0
100
AcDbEntity
8
1
62
256
6
ByLayer
370
18
48
1
60
0
100
AcDbSpline
70
4
71
3
72
8
73
4
40
0
40
0
40
0
40
0
40
1
40
1
40
1
40
1
41
1
10
106.6055
20
38.7363442052146
30
0
41
1
10
106.821632798019
20
38.46793539229
30
0
41
1
10
107.036344592726
20
38.1980199940686
30
0
41
1
10
107.2495
20
37.9264544727241
30
0
0
SPLINE
5
1C1
100
AcDbEntity
8
1
62
256
6
ByLayer
370
18
48
1
60
0
100
AcDbSpline
70
4
71
3
72
8
73
4
40
0
40
0
40
0
40
0
40
1
40
1
40
1
40
1
41
1
10
107.2495
20
3.4699200664171
30
0
41
1
10
107.037374649206
20
3.15461042244903
30
0
41
1
10
106.822628100131
20
2.84169783720978
30
0
41
1
10
106.6055
20
2.53096315578847
30
0
0
SPLINE
5
1C2
100
AcDbEntity
8
1
62
256
6
ByLayer
370
18
48
1
60
0
100
AcDbSpline
70
4
71
3
72
8
73
4
40
0
40
0
40
0
40
0
40
1
40
1
40
1
40
1
41
1
10
106.6055
20
1.70312456238361
30
0
41
1
10
106.820244754008
20
1.88473661184003
30
0
41
1
10
107.034913814811
20
2.06646806966324
30
0
41
1
10
107.2495
20
2.24832985190722
30
0
0
SPLINE
5
1C3
100
AcDbEntity
8
1
62
256
6
ByLayer
370
18
48
1
60
0
100
AcDbSpline
70
4
71
3
72
12
73
8
40
0
40
0
40
0
40
0
40
0.499999999999998
40
0.499999999999998
40
0.749999999999999
40
0.749999999999999
40
1
40
1
40
1
40
1
41
1
10
107.2495
20
11.3855949578269
30
0
41
1
10
107.27125461873
20
11.4585807369319
30
0
41
1
10
107.288718680672
20
11.5316073700427
30
0
41
1
10
107.308511489959
20
11.6412335681178
30
0
41
1
10
107.313971523825
20
11.6776116229925
30
0
41
1
10
107.321917021225
20
11.7494759484991
30
0
41
1
10
107.3245
20
11.7850471717076
30
0
41
1
10
107.3245
20
11.8199145186688
30
0
0
SPLINE
5
1C4
100
AcDbEntity
8
1
62
256
6
ByLayer
370
18
48
1
60
0
100
AcDbSpline
70
4
71
3
72
8
73
4
40
0
40
0
40
0
40
0
40
1
40
1
40
1
40
1
41
1
10
106.6055
20
8.98066751045099
30
0
41
1
10
106.820739969169
20
9.1814216176723
30
0
41
1
10
107.035436607666
20
9.3829472419603
30
0
41
1
10
107.2495
20
9.58537206124413
30
0
0
SPLINE
5
1C5
100
AcDbEntity
8
1
62
256
6
ByLayer
370
18
48
1
60
0
100
AcDbSpline
70
4
71
3
72
16
73
12
40
0
40
0
40
0
40
0
40
0.250000000000033
40
0.250000000000033
40
0.500000000000066
40
0.500000000000066
40
0.625000000000095
40
0.625000000000095
40
0.750000000000125
40
0.750000000000125
40
1
40
1
40
1
40
1
41
1
10
107.3245
20
6.00534742710528
30
0
41
1
10
107.3245
20
6.01520606887496
30
0
41
1
10
107.323364700352
20
6.0242775984886
30
0
41
1
10
107.317618439847
20
6.0389266016893
30
0
41
1
10
107.312832257615
20
6.04456505325672
30
0
41
1
10
107.302386234609
20
6.04788104171547
30
0
41
1
10
107.298459762373
20
6.04813726632747
30
0
41
1
10
107.289703529877
20
6.04691945434809
30
0
41
1
10
107.284909287438
20
6.04542105023762
30
0
41
1
10
107.270258456793
20
6.03889399823595
30
0
41
1
10
107.25972922897
20
6.03170011494194
30
0
41
1
10
107.2495
20
6.0232247012876
30
0
0
SPLINE
5
1C6
100
AcDbEntity
8
1
62
256
6
ByLayer
370
18
48
1
60
0
100
AcDbSpline
70
4
71
3
72
8
73
4
40
0
40
0
40
0
40
0
40
1
40
1
40
1
40
1
41
1
10
107.2495
20
37.0859271543189
30
0
41
1
10
107.034868684835
20
37.2640359061465
30
0
41
1
10
106.820200946825
20
37.4420861479081
30
0
41
1
10
106.6055
20
37.6200829661946
30
0
0
SPLINE
5
1C7
100
AcDbEntity
8
1
62
256
6
ByLayer
370
18
48
1
60
0
100
AcDbSpline
70
4
71
3
72
8
73
4
40
0
40
0
40
0
40
0
40
1
40
1
40
1
40
1
41
1
10
107.2495
20
37.7516701480928
30
0
41
1
10
107.034913814811
20
37.9335319303367
30
0
41
1
10
106.820244754008
20
38.11526338816
30
0
41
1
10
106.6055
20
38.2968754376164
30
0
0
SPLINE
5
1C8
100
AcDbEntity
8
1
62
256
6
ByLayer
370
18
48
1
60
0
100
AcDbSpline
70
4
71
3
72
22
73
18
40
0
40
0
40
0
40
0
40
0.249999999999997
40
0.249999999999997
40
0.374999999999998
40
0.374999999999998
40
0.499999999999999
40
0.499999999999999
40
0.625
40
0.625
40
0.750000000000001
40
0.750000000000001
40
0.812500000000002
40
0.812500000000002
40
0.875000000000002
40
0.875000000000002
40
1
40
1
40
1
40
1
41
1
10
13.8943375672973
20
-37.9445010117191
30
0
41
1
10
13.8787561873887
20
-37.9636055836586
30
0
41
1
10
13.8601238798742
20
-37.9822012953861
30
0
41
1
10
13.8260027135195
20
-38.0091614379608
30
0
41
1
10
13.8135898550186
20
-38.0179913785433
30
0
41
1
10
13.7861611574827
20
-38.035279246557
30
0
41
1
10
13.7710734046257
20
-38.0437762110222
30
0
41
1
10
13.7378358829826
20
-38.0600837295902
30
0
41
1
10
13.7197379933357
20
-38.0678870466104
30
0
41
1
10
13.6794389730141
20
-38.0825553532501
30
0
41
1
10
13.6573946925045
20
-38.0893529851856
30
0
41
1
10
13.6210819432585
20
-38.0982048271663
30
0
41
1
10
13.6084039311046
20
-38.1009395753102
30
0
41
1
10
13.5816120690374
20
-38.1058736681204
30
0
41
1
10
13.5675099269873
20
-38.1080609020696
30
0
41
1
10
13.5241733156582
20
-38.1134152144531
30
0
41
1
10
13.4929397308715
20
-38.1154578595255
30
0
41
1
10
13.4613248654052
20
-38.1154578595255
30
0
0
SPLINE
5
1C9
100
AcDbEntity
8
1
62
256
6
ByLayer
370
18
48
1
60
0
100
AcDbSpline
70
4
71
3
72
10
73
6
40
0
40
0
40
0
40
0
40
0.5
40
0.5
40
1
40
1
40
1
40
1
41
1
10
107.2495
20
21.8917458747739
30
0
41
1
10
107.172800078505
20
22.2208188091173
30
0
41
1
10
107.078711071859
20
22.541996187711
30
0
41
1
10
106.862125005522
20
23.1714522003928
30
0
41
1
10
106.739622539874
20
23.4797283798932
30
0
41
1
10
106.605500000001
20
23.7827284368685
30
0
0
SPLINE
5
1CA
100
AcDbEntity
8
1
62
256
6
ByLayer
370
18
48
1
60
0
100
AcDbSpline
70
4
71
3
72
14
73
10
40
0
40
0
40
0
40
0
40
0.25
40
0.25
40
0.5
40
0.5
40
0.75
40
0.75
40
1
40
1
40
1
40
1
41
1
10
107.2495
20
2.07354552727594
30
0
41
1
10
107.25944527166
20
2.08621606150194
30
0
41
1
10
107.268857873782
20
2.09877030749954
30
0
41
1
10
107.286063126254
20
2.12302605198761
30
0
41
1
10
107.293918864435
20
2.13479959117902
30
0
41
1
10
107.307730134248
20
2.15745114332813
30
0
41
1
10
107.313549981919
20
2.16811654761295
30
0
41
1
10
107.321938888577
20
2.18706767728426
30
0
41
1
10
107.324500000001
20
2.1954061744745
30
0
41
1
10
107.324500000001
20
2.20136032625513
30
0
0
SPLINE
5
1CB
100
AcDbEntity
8
1
62
256
6
ByLayer
370
18
48
1
60
0
100
AcDbSpline
70
4
71
3
72
14
73
10
40
0
40
0
40
0
40
0
40
0.25
40
0.25
40
0.5
40
0.5
40
0.75
40
0.75
40
1
40
1
40
1
40
1
41
1
10
107.249500000001
20
39.0497595350347
30
0
41
1
10
107.259250762044
20
39.0402857484307
30
0
41
1
10
107.268531564471
20
39.0313407515936
30
0
41
1
10
107.285956831417
20
39.0147203145367
30
0
41
1
10
107.294181236189
20
39.0069721183579
30
0
41
1
10
107.308177764175
20
38.9940407991515
30
0
41
1
10
107.314130113209
20
38.9886933373445
30
0
41
1
10
107.322274316532
20
38.9818216055315
30
0
41
1
10
107.3245
20
38.9802755671428
30
0
41
1
10
107.3245
20
38.9809298975149
30
0
0
SPLINE
5
1CC
100
AcDbEntity
8
1
62
256
6
ByLayer
370
18
48
1
60
0
100
AcDbSpline
70
4
71
3
72
14
73
10
40
0
40
0
40
0
40
0
40
0.25
40
0.25
40
0.5
40
0.5
40
0.75
40
0.75
40
1
40
1
40
1
40
1
41
1
10
107.3245
20
38.988914520495
30
0
41
1
10
107.3245
20
38.9894247455032
30
0
41
1
10
107.322179475846
20
38.9922388158723
30
0
41
1
10
107.313940423871
20
39.0013490604847
30
0
41
1
10
107.307976181869
20
39.0077021283887
30
0
41
1
10
107.294003407622
20
39.0223363275757
30
0
41
1
10
107.285821046889
20
39.0308010647053
30
0
41
1
10
107.268451733647
20
39.0486391867036
30
0
41
1
10
107.259208205955
20
39.0580727111611
30
0
41
1
10
107.2495
20
39.0679370847155
30
0
0
SPLINE
5
1CD
100
AcDbEntity
8
1
62
256
6
ByLayer
370
18
48
1
60
0
100
AcDbSpline
70
4
71
3
72
14
73
10
40
0
40
0
40
0
40
0
40
0.25
40
0.25
40
0.5
40
0.5
40
0.75
40
0.75
40
1
40
1
40
1
40
1
41
1
10
107.3245
20
4.76341654017128
30
0
41
1
10
107.3245
20
4.77194252845146
30
0
41
1
10
107.323226579452
20
4.77936675945426
30
0
41
1
10
107.31687672309
20
4.7905125530813
30
0
41
1
10
107.311677177387
20
4.79399285374123
30
0
41
1
10
107.297631713328
20
4.7948463395777
30
0
41
1
10
107.28871910896
20
4.79220628965794
30
0
41
1
10
107.269715629015
20
4.78237171236398
30
0
41
1
10
107.259536321132
20
4.77523832982638
30
0
41
1
10
107.2495
20
4.7670379087094
30
0
0
SPLINE
5
1CE
100
AcDbEntity
8
1
62
256
6
ByLayer
370
18
48
1
60
0
100
AcDbSpline
70
4
71
3
72
14
73
10
40
0
40
0
40
0
40
0
40
0.25
40
0.25
40
0.5
40
0.5
40
0.75
40
0.75
40
1
40
1
40
1
40
1
41
1
10
107.2495
20
32.4160122997163
30
0
41
1
10
107.260085369069
20
32.4068776428477
30
0
41
1
10
107.27112172787
20
32.3993650651572
30
0
41
1
10
107.291967553371
20
32.3921063777258
30
0
41
1
10
107.301175936096
20
32.3929374305927
30
0
41
1
10
107.31440749166
20
32.4024577934998
30
0
41
1
10
107.318609915423
20
32.4108018870577
30
0
41
1
10
107.323586945423
20
32.4297872600659
30
0
41
1
10
107.3245
20
32.4404527178704
30
0
41
1
10
107.3245
20
32.4517920695673
30
0
0
SPLINE
5
1CF
100
AcDbEntity
8
1
62
256
6
ByLayer
370
18
48
1
60
0
100
AcDbSpline
70
4
71
3
72
8
73
4
40
0
40
0
40
0
40
0
40
1
40
1
40
1
40
1
41
1
10
106.6055
20
35.5333158840139
30
0
41
1
10
106.824618246661
20
35.1562223165521
30
0
41
1
10
107.039439331602
20
34.7758958248991
30
0
41
1
10
107.2495
20
34.3919878841886
30
0
0
SPLINE
5
1D0
100
AcDbEntity
8
1
62
256
6
ByLayer
370
18
48
1
60
0
100
AcDbSpline
70
4
71
3
72
12
73
8
40
0
40
0
40
0
40
0
40
0.5
40
0.5
40
0.75
40
0.75
40
1
40
1
40
1
40
1
41
1
10
107.2495
20
2.69246822083969
30
0
41
1
10
107.269569104578
20
2.71995532816067
30
0
41
1
10
107.287037981678
20
2.74661077220296
30
0
41
1
10
107.307741596853
20
2.78462168789392
30
0
41
1
10
107.313491339927
20
2.79657833601843
30
0
41
1
10
107.321898093649
20
2.81857601335747
30
0
41
1
10
107.324500000003
20
2.82856766873047
30
0
41
1
10
107.324500000003
20
2.83623732603965
30
0
0
SPLINE
5
1D1
100
AcDbEntity
8
1
62
256
6
ByLayer
370
18
48
1
60
0
100
AcDbSpline
70
4
71
3
72
8
73
4
40
0
40
0
40
0
40
0
40
1
40
1
40
1
40
1
41
1
10
107.2495
20
5.60801211581142
30
0
41
1
10
107.039439331602
20
5.22410417510088
30
0
41
1
10
106.824618246661
20
4.84377768344791
30
0
41
1
10
106.6055
20
4.46668411598606
30
0
0
SPLINE
5
1D2
100
AcDbEntity
8
1
62
256
6
ByLayer
370
18
48
1
60
0
100
AcDbSpline
70
4
71
3
72
14
73
10
40
0
40
0
40
0
40
0
40
0.25
40
0.25
40
0.5
40
0.5
40
0.75
40
0.75
40
1
40
1
40
1
40
1
41
1
10
107.3245
20
38.8780838423543
30
0
41
1
10
107.3245
20
38.8798173955346
30
0
41
1
10
107.322101363894
20
38.8839223696908
30
0
41
1
10
107.313803229543
20
38.8952982718544
30
0
41
1
10
107.307850216532
20
38.9026622738455
30
0
41
1
10
107.293951093776
20
38.9190232687972
30
0
41
1
10
107.285833579189
20
38.928226363608
30
0
41
1
10
107.268493944553
20
38.9474193398036
30
0
41
1
10
107.259242453395
20
38.9574479050799
30
0
41
1
10
107.2495
20
38.9678441313361
30
0
0
SPLINE
5
1D3
100
AcDbEntity
8
1
62
256
6
ByLayer
370
18
48
1
60
0
100
AcDbSpline
70
4
71
3
72
8
73
4
40
0
40
0
40
0
40
0
40
1
40
1
40
1
40
1
41
1
10
106.6055
20
1.16959963718986
30
0
41
1
10
106.820302546545
20
1.35599247620152
30
0
41
1
10
107.034973355329
20
1.54258794227243
30
0
41
1
10
107.2495
20
1.7294039678317
30
0
0
SPLINE
5
1D4
100
AcDbEntity
8
1
62
256
6
ByLayer
370
18
48
1
60
0
100
AcDbSpline
70
4
71
3
72
8
73
4
40
0
40
0
40
0
40
0
40
1
40
1
40
1
40
1
41
1
10
106.6055
20
39.4662256251216
30
0
41
1
10
106.821059437748
20
39.2277459581948
30
0
41
1
10
107.03575253422
20
38.9882311427327
30
0
41
1
10
107.2495
20
38.7475864397169
30
0
0
SPLINE
5
1D5
100
AcDbEntity
8
1
62
256
6
ByLayer
370
18
48
1
60
0
100
AcDbSpline
70
4
71
3
72
14
73
10
40
0
40
0
40
0
40
0
40
0.25
40
0.25
40
0.5
40
0.5
40
0.75
40
0.75
40
1
40
1
40
1
40
1
41
1
10
107.2495
20
37.0859271543189
30
0
41
1
10
107.259305222304
20
37.0777904297006
30
0
41
1
10
107.268941650508
20
37.070512356637
30
0
41
1
10
107.287372796518
20
37.0586762048217
30
0
41
1
10
107.295964745964
20
37.0543030091875
30
0
41
1
10
107.310152692604
20
37.0501419836255
30
0
41
1
10
107.315769240382
20
37.0504143348533
30
0
41
1
10
107.322871011082
20
37.0554482778901
30
0
41
1
10
107.3245
20
37.0602107169181
30
0
41
1
10
107.3245
20
37.0663360248446
30
0
0
SPLINE
5
1D6
100
AcDbEntity
8
1
62
256
6
ByLayer
370
18
48
1
60
0
100
AcDbSpline
70
4
71
3
72
8
73
4
40
0
40
0
40
0
40
0
40
1
40
1
40
1
40
1
41
1
10
106.6055
20
32.6253933182574
30
0
41
1
10
106.829910422179
20
32.1194546037457
30
0
41
1
10
107.044943589855
20
31.6082675252431
30
0
41
1
10
107.2495
20
31.0912167009135
30
0
0
SPLINE
5
1D7
100
AcDbEntity
8
1
62
256
6
ByLayer
370
18
48
1
60
0
100
AcDbSpline
70
4
71
3
72
8
73
4
40
0
40
0
40
0
40
0
40
1
40
1
40
1
40
1
41
1
10
107.2495
20
38.2705960321683
30
0
41
1
10
107.034973355329
20
38.4574120577275
30
0
41
1
10
106.820302546545
20
38.6440075237985
30
0
41
1
10
106.6055
20
38.8304003628101
30
0
0
SPLINE
5
1D8
100
AcDbEntity
8
1
62
256
6
ByLayer
370
18
48
1
60
0
100
AcDbSpline
70
4
71
3
72
14
73
10
40
0
40
0
40
0
40
0
40
0.25
40
0.25
40
0.5
40
0.5
40
0.75
40
0.75
40
1
40
1
40
1
40
1
41
1
10
107.3245
20
38.2890240128757
30
0
41
1
10
107.3245
20
38.2934918735213
30
0
41
1
10
107.321992346342
20
38.300281104765
30
0
41
1
10
107.313542185526
20
38.3166495690633
30
0
41
1
10
107.307671738472
20
38.326113517657
30
0
41
1
10
107.293819783589
20
38.3464514484414
30
0
41
1
10
107.285784157645
20
38.3573907805796
30
0
41
1
10
107.268585224204
20
38.3796566607554
30
0
41
1
10
107.259332829839
20
38.3911096182016
30
0
41
1
10
107.2495
20
38.4028498781752
30
0
0
SPLINE
5
1D9
100
AcDbEntity
8
1
62
256
6
ByLayer
370
18
48
1
60
0
100
AcDbSpline
70
4
71
3
72
14
73
10
40
0
40
0
40
0
40
0
40
0.25
40
0.25
40
0.5
40
0.5
40
0.75
40
0.75
40
1
40
1
40
1
40
1
41
1
10
107.2495
20
3.4699200664171
30
0
41
1
10
107.259575518723
20
3.48489662725496
30
0
41
1
10
107.26893994717
20
3.49971786226894
30
0
41
1
10
107.286161317257
20
3.52903680786167
30
0
41
1
10
107.294078365003
20
3.54364955104219
30
0
41
1
10
107.307745770548
20
3.57191416576279
30
0
41
1
10
107.313467963412
20
3.58545850913299
30
0
41
1
10
107.321870739995
20
3.61093757278294
30
0
41
1
10
107.324500000008
20
3.62278146348959
30
0
41
1
10
107.324500000009
20
3.63241239460794
30
0
0
SPLINE
5
1DA
100
AcDbEntity
8
1
62
256
6
ByLayer
370
18
48
1
60
0
100
AcDbSpline
70
4
71
3
72
22
73
18
40
0
40
0
40
0
40
0
40
0.0624999999999909
40
0.0624999999999909
40
0.124999999999982
40
0.124999999999982
40
0.187499999999973
40
0.187499999999973
40
0.249999999999963
40
0.249999999999963
40
0.37499999999997
40
0.37499999999997
40
0.499999999999976
40
0.499999999999976
40
0.749999999999988
40
0.749999999999988
40
1
40
1
40
1
40
1
41
1
10
106.6055
20
34.5100772776504
30
0
41
1
10
106.597953135099
20
34.5163237035143
30
0
41
1
10
106.590330974831
20
34.5219282456636
30
0
41
1
10
106.575215001469
20
34.5310758420371
30
0
41
1
10
106.567808263291
20
34.534541370949
30
0
41
1
10
106.554107443175
20
34.5383181156671
30
0
41
1
10
106.547904073598
20
34.5385925023582
30
0
41
1
10
106.537369962298
20
34.5357904907594
30
0
41
1
10
106.533213831342
20
34.532825207766
30
0
41
1
10
106.52342445853
20
34.52014194122
30
0
41
1
10
106.520891479662
20
34.5072078372264
30
0
41
1
10
106.520192653502
20
34.4789157426782
30
0
41
1
10
106.521965579882
20
34.4633166237993
30
0
41
1
10
106.53125227634
20
34.4137784840492
30
0
41
1
10
106.542520094208
20
34.3781366276165
30
0
41
1
10
106.570215633343
20
34.3062248876232
30
0
41
1
10
106.586679720459
20
34.2699815629601
30
0
41
1
10
106.6055
20
34.2334897125276
30
0
0
SPLINE
5
1DB
100
AcDbEntity
8
1
62
256
6
ByLayer
370
18
48
1
60
0
100
AcDbSpline
70
4
71
3
72
8
73
4
40
0
40
0
40
0
40
0
40
1
40
1
40
1
40
1
41
1
10
107.2495
20
36.255338212375
30
0
41
1
10
107.034840117021
20
36.4311362953957
30
0
41
1
10
106.820173237194
20
36.6069229874504
30
0
41
1
10
106.6055
20
36.7826993267326
30
0
0
SPLINE
5
1DC
100
AcDbEntity
8
1
62
256
6
ByLayer
370
18
48
1
60
0
100
AcDbSpline
70
4
71
3
72
14
73
10
40
0
40
0
40
0
40
0
40
0.25
40
0.25
40
0.5
40
0.5
40
0.75
40
0.75
40
1
40
1
40
1
40
1
41
1
10
107.2495
20
38.654960886978
30
0
41
1
10
107.259215998502
20
38.646223193626
30
0
41
1
10
107.268726165071
20
38.6379823211317
30
0
41
1
10
107.286346638797
20
38.6235082432094
30
0
41
1
10
107.294625799941
20
38.6171378972796
30
0
41
1
10
107.308773781988
20
38.6074583306913
30
0
41
1
10
107.314644882502
20
38.6041706494088
30
0
41
1
10
107.322485000347
20
38.6018182843393
30
0
41
1
10
107.3245
20
38.6027592296193
30
0
41
1
10
107.3245
20
38.6056268367875
30
0
0
SPLINE
5
1DD
100
AcDbEntity
8
1
62
256
6
ByLayer
370
18
48
1
60
0
100
AcDbSpline
70
4
71
3
72
16
73
12
40
0
40
0
40
0
40
0
40
0.249999999999994
40
0.249999999999994
40
0.499999999999988
40
0.499999999999988
40
0.624999999999996
40
0.624999999999996
40
0.750000000000005
40
0.750000000000005
40
1
40
1
40
1
40
1
41
1
10
107.324500000002
20
7.54820793043424
30
0
41
1
10
107.324500000002
20
7.5596326160269
30
0
41
1
10
107.323574330635
20
7.57037424556896
30
0
41
1
10
107.318509386911
20
7.58946563159716
30
0
41
1
10
107.314345247719
20
7.59763329026234
30
0
41
1
10
107.304383043625
20
7.60473138043633
30
0
41
1
10
107.300413994865
20
7.6061968906067
30
0
41
1
10
107.291511208776
20
7.6068415651232
30
0
41
1
10
107.286527021205
20
7.60602039536226
30
0
41
1
10
107.271023676201
20
7.60055720705046
30
0
41
1
10
107.260027379858
20
7.59307231529408
30
0
41
1
10
107.2495
20
7.58398770028418
30
0
0
SPLINE
5
1DE
100
AcDbEntity
8
1
62
256
6
ByLayer
370
18
48
1
60
0
100
AcDbSpline
70
4
71
3
72
24
73
20
40
0
40
0
40
0
40
0
40
0.249999999999991
40
0.249999999999991
40
0.374999999999989
40
0.374999999999989
40
0.499999999999987
40
0.499999999999987
40
0.624999999999985
40
0.624999999999985
40
0.749999999999983
40
0.749999999999983
40
0.812499999999988
40
0.812499999999988
40
0.874999999999992
40
0.874999999999992
40
0.937499999999996
40
0.937499999999996
40
1
40
1
40
1
40
1
41
1
10
106.6055
20
3.40254310719593
30
0
41
1
10
106.585930635048
20
3.37204538232899
30
0
41
1
10
106.568404377661
20
3.34150756209587
30
0
41
1
10
106.546981041172
20
3.29783875424579
30
0
41
1
10
106.540636798332
20
3.28361479604129
30
0
41
1
10
106.530004961665
20
3.25602508787227
30
0
41
1
10
106.525755068741
20
3.24272510414627
30
0
41
1
10
106.520602301041
20
3.21863023868471
30
0
41
1
10
106.519658004616
20
3.20754870602468
30
0
41
1
10
106.523058586786
20
3.19052188155047
30
0
41
1
10
106.527571821705
20
3.18450343829986
30
0
41
1
10
106.539293203759
20
3.18208666859582
30
0
41
1
10
106.543873715488
20
3.18235790489197
30
0
41
1
10
106.55432599517
20
3.18495867525183
30
0
41
1
10
106.56020425055
20
3.1873222830543
30
0
41
1
10
106.572428193163
20
3.19361326880082
30
0
41
1
10
106.578926831088
20
3.19760695358471
30
0
41
1
10
106.592111319828
20
3.20671181801413
30
0
41
1
10
106.598776586911
20
3.21179548335255
30
0
41
1
10
106.6055
20
3.21730067326723
30
0
0
SPLINE
5
1DF
100
AcDbEntity
8
1
62
256
6
ByLayer
370
18
48
1
60
0
100
AcDbSpline
70
4
71
3
72
8
73
4
40
0
40
0
40
0
40
0
40
1
40
1
40
1
40
1
41
1
10
107.2495
20
1.25241356028309
30
0
41
1
10
107.03575253422
20
1.01176885726727
30
0
41
1
10
106.821059437748
20
0.772254041805184
30
0
41
1
10
106.6055
20
0.533774374878419
30
0
0
SPLINE
5
1E0
100
AcDbEntity
8
1
62
256
6
ByLayer
370
18
48
1
60
0
100
AcDbSpline
70
4
71
3
72
24
73
20
40
0
40
0
40
0
40
0
40
0.0624999999999839
40
0.0624999999999839
40
0.124999999999968
40
0.124999999999968
40
0.187499999999952
40
0.187499999999952
40
0.249999999999936
40
0.249999999999936
40
0.374999999999941
40
0.374999999999941
40
0.499999999999946
40
0.499999999999946
40
0.624999999999951
40
0.624999999999951
40
0.749999999999956
40
0.749999999999956
40
1
40
1
40
1
40
1
41
1
10
106.6055
20
32.9705056015292
30
0
41
1
10
106.597228437567
20
32.9776122011716
30
0
41
1
10
106.588914419841
20
32.9837280890158
30
0
41
1
10
106.57215708379
20
32.9929284146394
30
0
41
1
10
106.563911018039
20
32.9957843445632
30
0
41
1
10
106.549332527511
20
32.9966079268731
30
0
41
1
10
106.543058514406
20
32.9945698287035
30
0
41
1
10
106.533175608736
20
32.9866643331887
30
0
41
1
10
106.529511798149
20
32.9808577601684
30
0
41
1
10
106.521618643724
20
32.9606395868765
30
0
41
1
10
106.520184061725
20
32.9433949621493
30
0
41
1
10
106.520919902298
20
32.9077348478639
30
0
41
1
10
106.523123853493
20
32.8888737778533
30
0
41
1
10
106.529813307373
20
32.8498542855239
30
0
41
1
10
106.534358710199
20
32.829630606807
30
0
41
1
10
106.544946601497
20
32.789293864749
30
0
41
1
10
106.551022507126
20
32.7690160851208
30
0
41
1
10
106.571175868445
20
32.7079111464973
30
0
41
1
10
106.58712561472
20
32.6668188134641
30
0
41
1
10
106.6055
20
32.6253933182574
30
0
0
SPLINE
5
1E1
100
AcDbEntity
8
1
62
256
6
ByLayer
370
18
48
1
60
0
100
AcDbSpline
70
4
71
3
72
8
73
4
40
0
40
0
40
0
40
0
40
1
40
1
40
1
40
1
41
1
10
106.6055
20
34.2334897125276
30
0
41
1
10
106.826510348702
20
33.8049585330932
30
0
41
1
10
107.04140572646
20
33.3723826835176
30
0
41
1
10
107.2495
20
32.9353083296312
30
0
0
SPLINE
5
1E2
100
AcDbEntity
8
1
62
256
6
ByLayer
370
18
48
1
60
0
100
AcDbSpline
70
4
71
3
72
8
73
4
40
0
40
0
40
0
40
0
40
1
40
1
40
1
40
1
41
1
10
107.2495
20
33.9767752987127
30
0
41
1
10
107.034872069188
20
34.1546049768551
30
0
41
1
10
106.820203979195
20
34.3323700434185
30
0
41
1
10
106.6055
20
34.5100772776499
30
0
0
SPLINE
5
1E3
100
AcDbEntity
8
1
62
256
6
ByLayer
370
18
48
1
60
0
100
AcDbSpline
70
4
71
3
72
64
73
60
40
0
40
0
40
0
40
0
40
0.0625046837102161
40
0.0625046837102161
40
0.0937570255653242
40
0.0937570255653242
40
0.109383196492878
40
0.109383196492878
40
0.125009367420432
40
0.125009367420432
40
0.187514051130649
40
0.187514051130649
40
0.203140222058203
40
0.203140222058203
40
0.218766392985757
40
0.218766392985757
40
0.250018734840866
40
0.250018734840866
40
0.312523418551082
40
0.312523418551082
40
0.328149589478637
40
0.328149589478637
40
0.343775760406191
40
0.343775760406191
40
0.3750281022613
40
0.406280444116409
40
0.406280444116409
40
0.421906615043963
40
0.421906615043963
40
0.437532785971518
40
0.437532785971518
40
0.500037469681736
40
0.500037469681736
40
0.531289811536845
40
0.531289811536845
40
0.546915982464399
40
0.546915982464399
40
0.562542153391954
40
0.562542153391954
40
0.625046837102171
40
0.625046837102171
40
0.65629917895728
40
0.65629917895728
40
0.687551520812389
40
0.687551520812389
40
0.750056204522606
40
0.750056204522606
40
0.781308546377715
40
0.781308546377715
40
0.812560888232823
40
0.843813230087932
40
0.843813230087932
40
0.87506557194304
40
0.87506557194304
40
0.937570255653257
40
0.937570255653257
40
0.968822597508366
40
0.968822597508366
40
1
40
1
40
1
40
1
41
1
10
8.46560193962284
20
40.0000001378745
30
0
41
1
10
8.46560835266692
20
39.9999995699302
30
0
41
1
10
8.4884783094891
20
39.9979747461877
30
0
41
1
10
8.55572163042419
20
39.9921912760157
30
0
41
1
10
8.58366624774905
20
39.9898055594211
30
0
41
1
10
8.63407866061738
20
39.9855764726454
30
0
41
1
10
8.65234489196922
20
39.9840547812479
30
0
41
1
10
8.69157676457232
20
39.9808177367023
30
0
41
1
10
8.71246978219006
20
39.9791083492675
30
0
41
1
10
8.82319483454236
20
39.9701472798357
30
0
41
1
10
8.93162623282768
20
39.9616541219763
30
0
41
1
10
9.09184891783184
20
39.9499997168885
30
0
41
1
10
9.12513885454348
20
39.9476169422046
30
0
41
1
10
9.19425219124477
20
39.9427634577752
30
0
41
1
10
9.23018258133206
20
39.9402856177804
30
0
41
1
10
9.34088475543351
20
39.9328105613474
30
0
41
1
10
9.41856002006517
20
39.927770728362
30
0
41
1
10
9.66286474917226
20
39.9127041134212
30
0
41
1
10
9.84066663349
20
39.9027280215227
30
0
41
1
10
10.0820916790163
20
39.8910698982739
30
0
41
1
10
10.1314429810551
20
39.8887750412624
30
0
41
1
10
10.231037780564
20
39.8843330179871
30
0
41
1
10
10.2813898550027
20
39.8821802637477
30
0
41
1
10
10.4340801620573
20
39.8759464110358
30
0
41
1
10
10.642017204579
20
39.8682333440656
30
0
41
1
10
10.8585271859037
20
39.8619193353376
30
0
41
1
10
11.0241682733991
20
39.8577838543012
30
0
41
1
10
11.0799260136292
20
39.8565053745471
30
0
41
1
10
11.1925488160635
20
39.8541613427481
30
0
41
1
10
11.2493864537995
20
39.8530972222424
30
0
41
1
10
11.5332120746648
20
39.8483855211969
30
0
41
1
10
11.7615890252219
20
39.846510416421
30
0
41
1
10
12.1060747504328
20
39.8466189921483
30
0
41
1
10
12.2212256367973
20
39.8471419531851
30
0
41
1
10
12.3944495633681
20
39.8486663892826
30
0
41
1
10
12.452065005807
20
39.8492965569764
30
0
41
1
10
12.5662971938395
20
39.850784394837
30
0
41
1
10
12.623029394691
20
39.8516430340458
30
0
41
1
10
12.904801900821
20
39.8564853823282
30
0
41
1
10
13.1242304792687
20
39.8621163387752
30
0
41
1
10
13.4443255845229
20
39.8727425624128
30
0
41
1
10
13.5499767453307
20
39.8766698676363
30
0
41
1
10
13.754096378975
20
39.8849976421062
30
0
41
1
10
13.8529443080485
20
39.8894068908714
30
0
41
1
10
14.1400487102623
20
39.9031708213401
30
0
41
1
10
14.3189609541116
20
39.9130646653182
30
0
41
1
10
14.5676959715575
20
39.9281816389475
30
0
41
1
10
14.6461464732108
20
39.933195018204
30
0
41
1
10
14.7937026092133
20
39.9429887729526
30
0
41
1
10
14.9321457377574
20
39.9525639464924
30
0
41
1
10
15.0524106884507
20
39.9614349701798
30
0
41
1
10
15.1633406922458
20
39.9698173877436
30
0
41
1
10
15.2143315826573
20
39.9737802432595
30
0
41
1
10
15.349838020544
20
39.9845045367533
30
0
41
1
10
15.4180435288736
20
39.9901733129365
30
0
41
1
10
15.487356995282
20
39.9959928311032
30
0
41
1
10
15.5049316783085
20
39.9974861889544
30
0
41
1
10
15.5284856886704
20
39.999492785314
30
0
41
1
10
15.5343087232514
20
39.9999924796186
30
0
41
1
10
15.5343955199167
20
39.9999999157514
30
0
0
SPLINE
5
1E4
100
AcDbEntity
8
1
62
256
6
ByLayer
370
18
48
1
60
0
100
AcDbSpline
70
4
71
3
72
14
73
10
40
0
40
0
40
0
40
0
40
0.25
40
0.25
40
0.5
40
0.5
40
0.75
40
0.75
40
1
40
1
40
1
40
1
41
1
10
107.3245
20
37.7986396737458
30
0
41
1
10
107.3245
20
37.80466776027
30
0
41
1
10
107.321958595129
20
37.8129038412025
30
0
41
1
10
107.31345050483
20
37.8320919898525
30
0
41
1
10
107.30764570247
20
37.8426975094091
30
0
41
1
10
107.293816071692
20
37.8653586799415
30
0
41
1
10
107.285845445367
20
37.8772918268094
30
0
41
1
10
107.268672225887
20
37.9014801599265
30
0
41
1
10
107.259398489399
20
37.9138435403137
30
0
41
1
10
107.2495
20
37.9264544727241
30
0
0
LINE
5
75
100
AcDbEntity
8
1
62
256
6
ByLayer
370
18
48
1
60
0
100
AcDbLine
10
106.3245
20
0
30
0
11
106.521897
21
0.197397
31
0
39
0
210
0
220
0
230
1
0
LINE
5
77
100
AcDbEntity
8
1
62
256
6
ByLayer
370
18
48
1
60
0
100
AcDbLine
10
107.324484
20
7.100505
30
0
11
111.4255
21
7.100505
31
0
39
0
210
0
220
0
230
1
0
LINE
5
78
100
AcDbEntity
8
1
62
256
6
ByLayer
370
18
48
1
60
0
100
AcDbLine
10
30
20
-40
30
0
11
34.659608
21
-13.312024
31
0
39
0
210
0
220
0
230
1
0
LINE
5
79
100
AcDbEntity
8
1
62
256
6
ByLayer
370
18
48
1
60
0
100
AcDbLine
10
111.6755
20
5.100505
30
0
11
116.9255
21
5.100505
31
0
39
0
210
0
220
0
230
1
0
LINE
5
7A
100
AcDbEntity
8
1
62
256
6
ByLayer
370
18
48
1
60
0
100
AcDbLine
10
116.9255
20
15.100505
30
0
11
111.6755
21
15.100505
31
0
39
0
210
0
220
0
230
1
0
LINE
5
7B
100
AcDbEntity
8
1
62
256
6
ByLayer
370
18
48
1
60
0
100
AcDbLine
10
111.4255
20
13.100505
30
0
11
107.324484
21
13.100505
31
0
39
0
210
0
220
0
230
1
0
LINE
5
7C
100
AcDbEntity
8
1
62
256
6
ByLayer
370
18
48
1
60
0
100
AcDbLine
10
99.353181
20
-10
30
0
11
101.834074
21
-0.741181
31
0
39
0
210
0
220
0
230
1
0
LINE
5
7D
100
AcDbEntity
8
1
62
256
6
ByLayer
370
18
48
1
60
0
100
AcDbLine
10
102.8
20
40
30
0
11
38.6
21
40
31
0
39
0
210
0
220
0
230
1
0
LINE
5
7E
100
AcDbEntity
8
1
62
256
6
ByLayer
370
18
48
1
60
0
100
AcDbLine
10
38.6
20
-10
30
0
11
99.353543
21
-10
31
0
39
0
210
0
220
0
230
1
0
LINE
5
7F
100
AcDbEntity
8
SK1
62
256
6
ByLayer
370
18
48
1
60
0
100
AcDbLine
10
-0.2
20
-27.570333
30
0
11
0
21
-27.570333
31
0
39
0
210
0
220
0
230
1
0
LINE
5
81
100
AcDbEntity
8
1
62
256
6
ByLayer
370
18
48
1
60
0
100
AcDbLine
10
0
20
-39.7
30
0
11
0.3
21
-40
31
0
39
0
210
0
220
0
230
1
0
LINE
5
82
100
AcDbEntity
8
1
62
256
6
ByLayer
370
18
48
1
60
0
100
AcDbLine
10
0.3
20
40
30
0
11
0
21
39.7
31
0
39
0
210
0
220
0
230
1
0
LINE
5
83
100
AcDbEntity
8
1
62
256
6
ByLayer
370
18
48
1
60
0
100
AcDbLine
10
38.6
20
40
30
0
11
15.523151
21
40
31
0
39
0
210
0
220
0
230
1
0
LINE
5
84
100
AcDbEntity
8
1
62
256
6
ByLayer
370
18
48
1
60
0
100
AcDbLine
10
8.465603
20
40
30
0
11
0.3
21
40
31
0
39
0
210
0
220
0
230
1
0
LINE
5
85
100
AcDbEntity
8
1
62
256
6
ByLayer
370
18
48
1
60
0
100
AcDbLine
10
0.3
20
-40
30
0
11
30.000422
21
-40
31
0
39
0
210
0
220
0
230
1
0
LINE
5
86
100
AcDbEntity
8
1
62
256
6
ByLayer
370
18
48
1
60
0
100
AcDbLine
10
106.521897
20
39.802603
30
0
11
106.3245
21
40
31
0
39
0
210
0
220
0
230
1
0
LINE
5
87
100
AcDbEntity
8
1
62
256
6
ByLayer
370
18
48
1
60
0
100
AcDbLine
10
102.8
20
0
30
0
11
106.3245
21
0
31
0
39
0
210
0
220
0
230
1
0
LINE
5
88
100
AcDbEntity
8
1
62
256
6
ByLayer
370
18
48
1
60
0
100
AcDbLine
10
106.3245
20
40
30
0
11
102.8
21
40
31
0
39
0
210
0
220
0
230
1
0
LINE
5
89
100
AcDbEntity
8
1
62
256
6
ByLayer
370
18
48
1
60
0
100
AcDbLine
10
116.9255
20
34.899495
30
0
11
111.6755
21
34.899495
31
0
39
0
210
0
220
0
230
1
0
LINE
5
8A
100
AcDbEntity
8
1
62
256
6
ByLayer
370
18
48
1
60
0
100
AcDbLine
10
111.6755
20
24.899495
30
0
11
116.9255
21
24.899495
31
0
39
0
210
0
220
0
230
1
0
LINE
5
8B
100
AcDbEntity
8
1
62
256
6
ByLayer
370
18
48
1
60
0
100
AcDbLine
10
116.9255
20
34.899495
30
0
11
111.6755
21
34.899495
31
0
39
0
210
0
220
0
230
1
0
LINE
5
8C
100
AcDbEntity
8
1
62
256
6
ByLayer
370
18
48
1
60
0
100
AcDbLine
10
111.6755
20
24.899495
30
0
11
116.9255
21
24.899495
31
0
39
0
210
0
220
0
230
1
0
LINE
5
8D
100
AcDbEntity
8
1
62
256
6
ByLayer
370
18
48
1
60
0
100
AcDbLine
10
111.4255
20
32.899495
30
0
11
107.324484
21
32.899495
31
0
39
0
210
0
220
0
230
1
0
LINE
5
8E
100
AcDbEntity
8
1
62
256
6
ByLayer
370
18
48
1
60
0
100
AcDbLine
10
107.324484
20
26.899495
30
0
11
111.4255
21
26.899495
31
0
39
0
210
0
220
0
230
1
0
LINE
5
8F
100
AcDbEntity
8
SK1
62
256
6
ByLayer
370
18
48
1
60
0
100
AcDbLine
10
0
20
27.570333
30
0
11
-0.2
21
27.570333
31
0
39
0
210
0
220
0
230
1
0
LINE
5
90
100
AcDbEntity
8
1
62
256
6
ByLayer
370
18
48
1
60
0
100
AcDbLine
10
111.4255
20
32.899495
30
0
11
107.324484
21
32.899495
31
0
39
0
210
0
220
0
230
1
0
LINE
5
91
100
AcDbEntity
8
1
62
256
6
ByLayer
370
18
48
1
60
0
100
AcDbLine
10
107.324484
20
26.899495
30
0
11
111.4255
21
26.899495
31
0
39
0
210
0
220
0
230
1
0
LINE
5
92
100
AcDbEntity
8
1
62
256
6
ByLayer
370
13
48
1
60
0
100
AcDbLine
10
107.324383
20
32.285995
30
0
11
111.4255
21
32.285995
31
0
39
0
210
0
220
0
230
1
0
LINE
5
93
100
AcDbEntity
8
1
62
256
6
ByLayer
370
13
48
1
60
0
100
AcDbLine
10
107.324383
20
27.512995
30
0
11
111.4255
21
27.512995
31
0
39
0
210
0
220
0
230
1
0
LINE
5
94
100
AcDbEntity
8
1
62
256
6
ByLayer
370
18
48
1
60
0
100
AcDbLine
10
111.4255
20
27.603276
30
0
11
111.4255
21
26.899495
31
0
39
0
210
0
220
0
230
1
0
LINE
5
95
100
AcDbEntity
8
80
62
256
6
ByLayer
370
18
48
1
60
0
100
AcDbLine
10
0
20
0
30
0
11
-5
21
0
31
0
39
0
210
0
220
0
230
1
0
LINE
5
96
100
AcDbEntity
8
81
62
256
6
ByLayer
370
18
48
1
60
0
100
AcDbLine
10
107
20
20
30
0
11
112
21
20
31
0
39
0
210
0
220
0
230
1
0
LINE
5
97
100
AcDbEntity
8
4
62
256
6
ByLayer
370
18
48
0.05
60
0
100
AcDbLine
10
0
20
0
30
0
11
107
21
0
31
0
39
0
210
0
220
0
230
1
0
LINE
5
99
100
AcDbEntity
8
SK4
62
256
6
ByLayer
370
18
48
0.05
60
0
100
AcDbLine
10
-53
20
0
30
0
11
112
21
0
31
0
39
0
210
0
220
0
230
1
0
LINE
5
9B
100
AcDbEntity
8
SK1
62
256
6
ByLayer
370
18
48
1
60
0
100
AcDbLine
10
-0.2
20
6.600738
30
0
11
-0.2
21
6.552279
31
0
39
0
210
0
220
0
230
1
0
LINE
5
9C
100
AcDbEntity
8
SK1
62
256
6
ByLayer
370
13
48
1
60
0
100
AcDbLine
10
-1.307107
20
4.393309
30
0
11
-1.307107
21
-4.393312
31
0
39
0
210
0
220
0
230
1
0
LINE
5
9D
100
AcDbEntity
8
SK1
62
256
6
ByLayer
370
18
48
1
60
0
100
AcDbLine
10
-0.2
20
-6.552277
30
0
11
-0.2
21
-6.600736
31
0
39
0
210
0
220
0
230
1
0
LINE
5
9E
100
AcDbEntity
8
1
62
256
6
ByLayer
370
13
48
1
60
0
100
AcDbLine
10
107.2495
20
12.366417
30
0
11
107.2495
21
15.428438
31
0
39
0
210
0
220
0
230
1
0
LINE
5
9F
100
AcDbEntity
8
1
62
256
6
ByLayer
370
13
48
1
60
0
100
AcDbLine
10
107.2495
20
24.571562
30
0
11
107.2495
21
27.633583
31
0
39
0
210
0
220
0
230
1
0
LINE
5
A0
100
AcDbEntity
8
1
62
256
6
ByLayer
370
18
48
1
60
0
100
AcDbLine
10
107.3245
20
37.066336
30
0
11
107.3245
21
36.367557
31
0
39
0
210
0
220
0
230
1
0
LINE
5
A1
100
AcDbEntity
8
1
62
256
6
ByLayer
370
18
48
1
60
0
100
AcDbLine
10
10.538675
20
38.115458
30
0
11
13.461325
21
38.115458
31
0
39
0
210
0
220
0
230
1
0
LINE
5
A2
100
AcDbEntity
8
1
62
256
6
ByLayer
370
18
48
1
60
0
100
AcDbLine
10
107.3245
20
27.742143
30
0
11
107.3245
21
23.63542
31
0
39
0
210
0
220
0
230
1
0
LINE
5
A3
100
AcDbEntity
8
1
62
256
6
ByLayer
370
18
48
1
60
0
100
AcDbLine
10
107.3245
20
16.36458
30
0
11
107.3245
21
12.257857
31
0
39
0
210
0
220
0
230
1
0
LINE
5
A4
100
AcDbEntity
8
1
62
256
6
ByLayer
370
13
48
1
60
0
100
AcDbLine
10
107.2495
20
2.914073
30
0
11
107.2495
21
3.469951
31
0
39
0
210
0
220
0
230
1
0
LINE
5
A5
100
AcDbEntity
8
1
62
256
6
ByLayer
370
13
48
1
60
0
100
AcDbLine
10
106.6055
20
1.263733
30
0
11
106.6055
21
1.1696
31
0
39
0
210
0
220
0
230
1
0
LINE
5
A6
100
AcDbEntity
8
1
62
256
6
ByLayer
370
13
48
1
60
0
100
AcDbLine
10
107.2495
20
37.30746
30
0
11
107.2495
21
37.75167
31
0
39
0
210
0
220
0
230
1
0
LINE
5
A7
100
AcDbEntity
8
1
62
256
6
ByLayer
370
13
48
1
60
0
100
AcDbLine
10
107.2495
20
38.747456
30
0
11
107.2495
21
38.91297
31
0
39
0
210
0
220
0
230
1
0
LINE
5
A8
100
AcDbEntity
8
1
62
256
6
ByLayer
370
18
48
1
60
0
100
AcDbLine
10
107.3245
20
2.278177
30
0
11
107.3245
21
2.20136
31
0
39
0
210
0
220
0
230
1
0
LINE
5
A9
100
AcDbEntity
8
1
62
256
6
ByLayer
370
13
48
1
60
0
100
AcDbLine
10
106.6055
20
35.759146
30
0
11
106.6055
21
35.533307
31
0
39
0
210
0
220
0
230
1
0
LINE
5
AA
100
AcDbEntity
8
1
62
256
6
ByLayer
370
13
48
1
60
0
100
AcDbLine
10
102.8
20
40
30
0
11
102.8
21
0
31
0
39
0
210
0
220
0
230
1
0
LINE
5
AB
100
AcDbEntity
8
1
62
256
6
ByLayer
370
13
48
1
60
0
100
AcDbLine
10
106.6055
20
39.511551
30
0
11
106.6055
21
39.466108
31
0
39
0
210
0
220
0
230
1
0
LINE
5
AC
100
AcDbEntity
8
1
62
256
6
ByLayer
370
13
48
1
60
0
100
AcDbLine
10
107.2495
20
4.767038
30
0
11
107.2495
21
5.608026
31
0
39
0
210
0
220
0
230
1
0
LINE
5
AD
100
AcDbEntity
8
1
62
256
6
ByLayer
370
13
48
1
60
0
100
AcDbLine
10
13.461325
20
-12.13309
30
0
11
13.461325
21
-38.115458
31
0
39
0
210
0
220
0
230
1
0
LINE
5
AE
100
AcDbEntity
8
1
62
256
6
ByLayer
370
13
48
1
60
0
100
AcDbLine
10
107.2495
20
36.530049
30
0
11
107.2495
21
37.085927
31
0
39
0
210
0
220
0
230
1
0
LINE
5
AF
100
AcDbEntity
8
1
62
256
6
ByLayer
370
13
48
1
60
0
100
AcDbLine
10
13.461325
20
38.115458
30
0
11
13.461325
21
12.13309
31
0
39
0
210
0
220
0
230
1
0
LINE
5
B0
100
AcDbEntity
8
1
62
256
6
ByLayer
370
13
48
1
60
0
100
AcDbLine
10
106.6055
20
0.836572
30
0
11
106.6055
21
0.767416
31
0
39
0
210
0
220
0
230
1
0
LINE
5
B1
100
AcDbEntity
8
1
62
256
6
ByLayer
370
13
48
1
60
0
100
AcDbLine
10
106.6055
20
32.970506
30
0
11
106.6055
21
32.625166
31
0
39
0
210
0
220
0
230
1
0
LINE
5
B2
100
AcDbEntity
8
1
62
256
6
ByLayer
370
13
48
1
60
0
100
AcDbLine
10
106.6055
20
7.374834
30
0
11
106.6055
21
7.029494
31
0
39
0
210
0
220
0
230
1
0
LINE
5
B3
100
AcDbEntity
8
1
62
256
6
ByLayer
370
18
48
1
60
0
100
AcDbLine
10
107.3245
20
32.451792
30
0
11
107.3245
21
30.77508
31
0
39
0
210
0
220
0
230
1
0
LINE
5
B4
100
AcDbEntity
8
1
62
256
6
ByLayer
370
18
48
1
60
0
100
AcDbLine
10
107.3245
20
9.22492
30
0
11
107.3245
21
7.548208
31
0
39
0
210
0
220
0
230
1
0
LINE
5
B5
100
AcDbEntity
8
1
62
256
6
ByLayer
370
18
48
1
60
0
100
AcDbLine
10
107.3245
20
1.122101
30
0
11
107.3245
21
1.01907
31
0
39
0
210
0
220
0
230
1
0
LINE
5
B6
100
AcDbEntity
8
1
62
256
6
ByLayer
370
18
48
1
60
0
100
AcDbLine
10
107.3245
20
32.680988
30
0
11
107.3245
21
32.451792
31
0
39
0
210
0
220
0
230
1
0
LINE
5
B7
100
AcDbEntity
8
1
62
256
6
ByLayer
370
13
48
1
60
0
100
AcDbLine
10
13.894338
20
37.944501
30
0
11
13.894338
21
12.6576
31
0
39
0
210
0
220
0
230
1
0
LINE
5
B8
100
AcDbEntity
8
1
62
256
6
ByLayer
370
18
48
1
60
0
100
AcDbLine
10
107.3245
20
34.177598
30
0
11
107.3245
21
33.994653
31
0
39
0
210
0
220
0
230
1
0
LINE
5
B9
100
AcDbEntity
8
1
62
256
6
ByLayer
370
18
48
1
60
0
100
AcDbLine
10
107.3245
20
36.367588
30
0
11
107.3245
21
36.246743
31
0
39
0
210
0
220
0
230
1
0
LINE
5
BA
100
AcDbEntity
8
1
62
256
6
ByLayer
370
18
48
1
60
0
100
AcDbLine
10
107.3245
20
5.822379
30
0
11
107.3245
21
4.763417
31
0
39
0
210
0
220
0
230
1
0
LINE
5
BB
100
AcDbEntity
8
1
62
256
6
ByLayer
370
13
48
1
60
0
100
AcDbLine
10
106.6055
20
28.373611
30
0
11
106.6055
21
27.714713
31
0
39
0
210
0
220
0
230
1
0
LINE
5
BC
100
AcDbEntity
8
1
62
256
6
ByLayer
370
13
48
1
60
0
100
AcDbLine
10
106.6055
20
12.285287
30
0
11
106.6055
21
11.626389
31
0
39
0
210
0
220
0
230
1
0
LINE
5
BD
100
AcDbEntity
8
1
62
256
6
ByLayer
370
18
48
1
60
0
100
AcDbLine
10
107.3245
20
35.236583
30
0
11
107.3245
21
34.177621
31
0
39
0
210
0
220
0
230
1
0
LINE
5
BE
100
AcDbEntity
8
1
62
256
6
ByLayer
370
18
48
1
60
0
100
AcDbLine
10
10.538675
20
-12.13309
30
0
11
13.461325
21
-12.13309
31
0
39
0
210
0
220
0
230
1
0
LINE
5
BF
100
AcDbEntity
8
1
62
256
6
ByLayer
370
13
48
1
60
0
100
AcDbLine
10
107.2495
20
1.729404
30
0
11
107.2495
21
2.073555
31
0
39
0
210
0
220
0
230
1
0
LINE
5
C0
100
AcDbEntity
8
1
62
256
6
ByLayer
370
18
48
1
60
0
100
AcDbLine
10
107.3245
20
1.710985
30
0
11
107.3245
21
1.394373
31
0
39
0
210
0
220
0
230
1
0
LINE
5
C1
100
AcDbEntity
8
1
62
256
6
ByLayer
370
18
48
1
60
0
100
AcDbLine
10
107.3245
20
38.605627
30
0
11
107.3245
21
38.289015
31
0
39
0
210
0
220
0
230
1
0
LINE
5
C2
100
AcDbEntity
8
1
62
256
6
ByLayer
370
18
48
1
60
0
100
AcDbLine
10
107.3245
20
30.475875
30
0
11
107.3245
21
28.180021
31
0
39
0
210
0
220
0
230
1
0
LINE
5
C3
100
AcDbEntity
8
1
62
256
6
ByLayer
370
18
48
1
60
0
100
AcDbLine
10
107.3245
20
11.819979
30
0
11
107.3245
21
9.524125
31
0
39
0
210
0
220
0
230
1
0
LINE
5
C4
100
AcDbEntity
8
1
62
256
6
ByLayer
370
13
48
1
60
0
100
AcDbLine
10
107.2495
20
6.023225
30
0
11
107.2495
21
7.064689
31
0
39
0
210
0
220
0
230
1
0
LINE
5
C5
100
AcDbEntity
8
1
62
256
6
ByLayer
370
18
48
1
60
0
100
AcDbLine
10
107.3245
20
17.625637
30
0
11
107.3245
21
16.364484
31
0
39
0
210
0
220
0
230
1
0
LINE
5
C6
100
AcDbEntity
8
1
62
256
6
ByLayer
370
18
48
1
60
0
100
AcDbLine
10
107.3245
20
3.753257
30
0
11
107.3245
21
3.632412
31
0
39
0
210
0
220
0
230
1
0
LINE
5
C7
100
AcDbEntity
8
1
62
256
6
ByLayer
370
18
48
1
60
0
100
AcDbLine
10
13.461325
20
12.13309
30
0
11
10.538675
21
12.13309
31
0
39
0
210
0
220
0
230
1
0
LINE
5
C8
100
AcDbEntity
8
1
62
256
6
ByLayer
370
18
48
1
60
0
100
AcDbLine
10
107.3245
20
38.878084
30
0
11
107.3245
21
38.853979
31
0
39
0
210
0
220
0
230
1
0
LINE
5
C9
100
AcDbEntity
8
1
62
256
6
ByLayer
370
13
48
1
60
0
100
AcDbLine
10
107.2495
20
35.570347
30
0
11
107.2495
21
36.255338
31
0
39
0
210
0
220
0
230
1
0
LINE
5
CA
100
AcDbEntity
8
1
62
256
6
ByLayer
370
13
48
1
60
0
100
AcDbLine
10
13.894338
20
-12.6576
30
0
11
13.894338
21
-37.944501
31
0
39
0
210
0
220
0
230
1
0
LINE
5
CB
100
AcDbEntity
8
1
62
256
6
ByLayer
370
18
48
1
60
0
100
AcDbLine
10
107.3245
20
38.853979
30
0
11
107.3245
21
38.646315
31
0
39
0
210
0
220
0
230
1
0
LINE
5
CC
100
AcDbEntity
8
1
62
256
6
ByLayer
370
18
48
1
60
0
100
AcDbLine
10
107.3245
20
9.524125
30
0
11
107.3245
21
9.224536
31
0
39
0
210
0
220
0
230
1
0
LINE
5
CD
100
AcDbEntity
8
1
62
256
6
ByLayer
370
13
48
1
60
0
100
AcDbLine
10
106.6055
20
2.531008
30
0
11
106.6055
21
2.379917
31
0
39
0
210
0
220
0
230
1
0
LINE
5
CE
100
AcDbEntity
8
1
62
256
6
ByLayer
370
13
48
1
60
0
100
AcDbLine
10
10.538675
20
-12.13309
30
0
11
10.538675
21
-38.115458
31
0
39
0
210
0
220
0
230
1
0
LINE
5
CF
100
AcDbEntity
8
1
62
256
6
ByLayer
370
18
48
1
60
0
100
AcDbLine
10
107.3245
20
37.79864
30
0
11
107.3245
21
37.721823
31
0
39
0
210
0
220
0
230
1
0
LINE
5
D0
100
AcDbEntity
8
1
62
256
6
ByLayer
370
13
48
1
60
0
100
AcDbLine
10
106.6055
20
34.510077
30
0
11
106.6055
21
34.233479
31
0
39
0
210
0
220
0
230
1
0
LINE
5
D1
100
AcDbEntity
8
1
62
256
6
ByLayer
370
13
48
1
60
0
100
AcDbLine
10
106.6055
20
5.766521
30
0
11
106.6055
21
5.489923
31
0
39
0
210
0
220
0
230
1
0
LINE
5
D2
100
AcDbEntity
8
1
62
256
6
ByLayer
370
18
48
1
60
0
100
AcDbLine
10
107.3245
20
1.146021
30
0
11
107.3245
21
1.121916
31
0
39
0
210
0
220
0
230
1
0
LINE
5
D3
100
AcDbEntity
8
1
62
256
6
ByLayer
370
13
48
1
60
0
100
AcDbLine
10
106.6055
20
36.782699
30
0
11
106.6055
21
36.597446
31
0
39
0
210
0
220
0
230
1
0
LINE
5
D4
100
AcDbEntity
8
1
62
256
6
ByLayer
370
13
48
1
60
0
100
AcDbLine
10
107.2495
20
7.583988
30
0
11
107.2495
21
8.909009
31
0
39
0
210
0
220
0
230
1
0
LINE
5
D5
100
AcDbEntity
8
1
62
256
6
ByLayer
370
13
48
1
60
0
100
AcDbLine
10
107.2495
20
31.090991
30
0
11
107.2495
21
32.416012
31
0
39
0
210
0
220
0
230
1
0
LINE
5
D6
100
AcDbEntity
8
1
62
256
6
ByLayer
370
13
48
1
60
0
100
AcDbLine
10
101.834074
20
-0.741181
30
0
11
101.834074
21
36.980341
31
0
39
0
210
0
220
0
230
1
0
LINE
5
D7
100
AcDbEntity
8
1
62
256
6
ByLayer
370
18
48
1
60
0
100
AcDbLine
10
107.3245
20
38.988915
30
0
11
107.3245
21
38.98093
31
0
39
0
210
0
220
0
230
1
0
LINE
5
D8
100
AcDbEntity
8
1
62
256
6
ByLayer
370
13
48
1
60
0
100
AcDbLine
10
107.2495
20
2.24833
30
0
11
107.2495
21
2.69254
31
0
39
0
210
0
220
0
230
1
0
LINE
5
D9
100
AcDbEntity
8
1
62
256
6
ByLayer
370
18
48
1
60
0
100
AcDbLine
10
107.3245
20
12.257857
30
0
11
107.3245
21
11.819915
31
0
39
0
210
0
220
0
230
1
0
LINE
5
DA
100
AcDbEntity
8
1
62
256
6
ByLayer
370
18
48
1
60
0
100
AcDbLine
10
0
20
-39.7
30
0
11
0
21
39.7
31
0
39
0
210
0
220
0
230
1
0
LINE
5
DB
100
AcDbEntity
8
1
62
256
6
ByLayer
370
13
48
1
60
0
100
AcDbLine
10
106.6055
20
0.350092
30
0
11
106.6055
21
0.327457
31
0
39
0
210
0
220
0
230
1
0
LINE
5
DC
100
AcDbEntity
8
1
62
256
6
ByLayer
370
13
48
1
60
0
100
AcDbLine
10
107.2495
20
0.95024
30
0
11
107.2495
21
1.032173
31
0
39
0
210
0
220
0
230
1
0
LINE
5
DD
100
AcDbEntity
8
1
62
256
6
ByLayer
370
13
48
1
60
0
100
AcDbLine
10
106.6055
20
39.672543
30
0
11
106.6055
21
39.649908
31
0
39
0
210
0
220
0
230
1
0
LINE
5
DE
100
AcDbEntity
8
1
62
256
6
ByLayer
370
13
48
1
60
0
100
AcDbLine
10
34.659608
20
34.11431
30
0
11
34.659608
21
-13.312024
31
0
39
0
210
0
220
0
230
1
0
LINE
5
DF
100
AcDbEntity
8
1
62
256
6
ByLayer
370
13
48
1
60
0
100
AcDbLine
10
38.6
20
40
30
0
11
38.6
21
-10
31
0
39
0
210
0
220
0
230
1
0
LINE
5
E0
100
AcDbEntity
8
1
62
256
6
ByLayer
370
18
48
1
60
0
100
AcDbLine
10
107.3245
20
38.98093
30
0
11
107.3245
21
38.877899
31
0
39
0
210
0
220
0
230
1
0
LINE
5
E1
100
AcDbEntity
8
1
62
256
6
ByLayer
370
18
48
1
60
0
100
AcDbLine
10
107.3245
20
22.374363
30
0
11
107.3245
21
17.625637
31
0
39
0
210
0
220
0
230
1
0
LINE
5
E2
100
AcDbEntity
8
1
62
256
6
ByLayer
370
18
48
1
60
0
100
AcDbLine
10
107.3245
20
30.775464
30
0
11
107.3245
21
30.475875
31
0
39
0
210
0
220
0
230
1
0
LINE
5
E3
100
AcDbEntity
8
1
62
256
6
ByLayer
370
13
48
1
60
0
100
AcDbLine
10
106.6055
20
37.620083
30
0
11
106.6055
21
37.468992
31
0
39
0
210
0
220
0
230
1
0
LINE
5
E4
100
AcDbEntity
8
1
62
256
6
ByLayer
370
18
48
1
60
0
100
AcDbLine
10
107.3245
20
33.994653
30
0
11
107.3245
21
32.681014
31
0
39
0
210
0
220
0
230
1
0
LINE
5
E5
100
AcDbEntity
8
1
62
256
6
ByLayer
370
13
48
1
60
0
100
AcDbLine
10
107.2495
20
37.926445
30
0
11
107.2495
21
38.270596
31
0
39
0
210
0
220
0
230
1
0
LINE
5
E6
100
AcDbEntity
8
1
62
256
6
ByLayer
370
18
48
1
60
0
100
AcDbLine
10
107.3245
20
37.163763
30
0
11
107.3245
21
37.066336
31
0
39
0
210
0
220
0
230
1
0
LINE
5
E7
100
AcDbEntity
8
1
62
256
6
ByLayer
370
13
48
1
60
0
100
AcDbLine
10
106.6055
20
38.296875
30
0
11
106.6055
21
38.175685
31
0
39
0
210
0
220
0
230
1
0
LINE
5
E8
100
AcDbEntity
8
1
62
256
6
ByLayer
370
18
48
1
60
0
100
AcDbLine
10
107.3245
20
1.01907
30
0
11
107.3245
21
1.011085
31
0
39
0
210
0
220
0
230
1
0
LINE
5
E9
100
AcDbEntity
8
1
62
256
6
ByLayer
370
18
48
1
60
0
100
AcDbLine
10
107.3245
20
4.614928
30
0
11
107.3245
21
3.753257
31
0
39
0
210
0
220
0
230
1
0
LINE
5
EA
100
AcDbEntity
8
1
62
256
6
ByLayer
370
18
48
1
60
0
100
AcDbLine
10
107.3245
20
4.763417
30
0
11
107.3245
21
4.614907
31
0
39
0
210
0
220
0
230
1
0
LINE
5
EB
100
AcDbEntity
8
1
62
256
6
ByLayer
370
13
48
1
60
0
100
AcDbLine
10
106.6055
20
3.402554
30
0
11
106.6055
21
3.217301
31
0
39
0
210
0
220
0
230
1
0
LINE
5
EC
100
AcDbEntity
8
1
62
256
6
ByLayer
370
18
48
1
60
0
100
AcDbLine
10
107.3245
20
28.180085
30
0
11
107.3245
21
27.742143
31
0
39
0
210
0
220
0
230
1
0
LINE
5
ED
100
AcDbEntity
8
1
62
256
6
ByLayer
370
13
48
1
60
0
100
AcDbLine
10
106.6055
20
4.466693
30
0
11
106.6055
21
4.240854
31
0
39
0
210
0
220
0
230
1
0
LINE
5
EE
100
AcDbEntity
8
1
62
256
6
ByLayer
370
13
48
1
60
0
100
AcDbLine
10
10.105662
20
37.944501
30
0
11
10.105662
21
12.6576
31
0
39
0
210
0
220
0
230
1
0
LINE
5
EF
100
AcDbEntity
8
1
62
256
6
ByLayer
370
18
48
1
60
0
100
AcDbLine
10
107.3245
20
23.635516
30
0
11
107.3245
21
22.374363
31
0
39
0
210
0
220
0
230
1
0
LINE
5
F0
100
AcDbEntity
8
1
62
256
6
ByLayer
370
13
48
1
60
0
100
AcDbLine
10
107.2495
20
38.402698
30
0
11
107.2495
21
38.654961
31
0
39
0
210
0
220
0
230
1
0
LINE
5
F1
100
AcDbEntity
8
1
62
256
6
ByLayer
370
18
48
1
60
0
100
AcDbLine
10
107.3245
20
7.318986
30
0
11
107.3245
21
6.005347
31
0
39
0
210
0
220
0
230
1
0
LINE
5
F2
100
AcDbEntity
8
1
62
256
6
ByLayer
370
18
48
1
60
0
100
AcDbLine
10
0.3
20
-40
30
0
11
0.3
21
40
31
0
39
0
210
0
220
0
230
1
0
LINE
5
F3
100
AcDbEntity
8
1
62
256
6
ByLayer
370
13
48
1
60
0
100
AcDbLine
10
107.2495
20
32.935311
30
0
11
107.2495
21
33.976775
31
0
39
0
210
0
220
0
230
1
0
LINE
5
F4
100
AcDbEntity
8
1
62
256
6
ByLayer
370
18
48
1
60
0
100
AcDbLine
10
107.3245
20
38.289024
30
0
11
107.3245
21
38.230913
31
0
39
0
210
0
220
0
230
1
0
LINE
5
F5
100
AcDbEntity
8
1
62
256
6
ByLayer
370
13
48
1
60
0
100
AcDbLine
10
10.105662
20
-12.6576
30
0
11
10.105662
21
-37.944501
31
0
39
0
210
0
220
0
230
1
0
LINE
5
F6
100
AcDbEntity
8
1
62
256
6
ByLayer
370
13
48
1
60
0
100
AcDbLine
10
107.2495
20
1.08703
30
0
11
107.2495
21
1.252544
31
0
39
0
210
0
220
0
230
1
0
LINE
5
F7
100
AcDbEntity
8
1
62
256
6
ByLayer
370
13
48
1
60
0
100
AcDbLine
10
107.2495
20
9.585372
30
0
11
107.2495
21
11.385801
31
0
39
0
210
0
220
0
230
1
0
LINE
5
F8
100
AcDbEntity
8
1
62
256
6
ByLayer
370
13
48
1
60
0
100
AcDbLine
10
107.2495
20
28.614199
30
0
11
107.2495
21
30.414628
31
0
39
0
210
0
220
0
230
1
0
LINE
5
F9
100
AcDbEntity
8
1
62
256
6
ByLayer
370
13
48
1
60
0
100
AcDbLine
10
107.2495
20
38.967827
30
0
11
107.2495
21
39.04976
31
0
39
0
210
0
220
0
230
1
0
LINE
5
FA
100
AcDbEntity
8
1
62
256
6
ByLayer
370
13
48
1
60
0
100
AcDbLine
10
107.2495
20
18.108254
30
0
11
107.2495
21
21.891746
31
0
39
0
210
0
220
0
230
1
0
LINE
5
FB
100
AcDbEntity
8
1
62
256
6
ByLayer
370
18
48
1
60
0
100
AcDbLine
10
107.3245
20
7.548208
30
0
11
107.3245
21
7.319012
31
0
39
0
210
0
220
0
230
1
0
LINE
5
FC
100
AcDbEntity
8
1
62
256
6
ByLayer
370
18
48
1
60
0
100
AcDbLine
10
107.3245
20
6.005347
30
0
11
107.3245
21
5.822402
31
0
39
0
210
0
220
0
230
1
0
LINE
5
FD
100
AcDbEntity
8
1
62
256
6
ByLayer
370
18
48
1
60
0
100
AcDbLine
10
107.3245
20
38.646319
30
0
11
107.3245
21
38.605627
31
0
39
0
210
0
220
0
230
1
0
LINE
5
FE
100
AcDbEntity
8
1
62
256
6
ByLayer
370
18
48
1
60
0
100
AcDbLine
10
107.3245
20
38.230913
30
0
11
107.3245
21
37.798581
31
0
39
0
210
0
220
0
230
1
0
LINE
5
FF
100
AcDbEntity
8
1
62
256
6
ByLayer
370
18
48
1
60
0
100
AcDbLine
10
107.3245
20
3.632443
30
0
11
107.3245
21
2.933664
31
0
39
0
210
0
220
0
230
1
0
LINE
5
100
100
AcDbEntity
8
1
62
256
6
ByLayer
370
13
48
1
60
0
100
AcDbLine
10
106.6055
20
39.232584
30
0
11
106.6055
21
39.163428
31
0
39
0
210
0
220
0
230
1
0
LINE
5
101
100
AcDbEntity
8
1
62
256
6
ByLayer
370
13
48
1
60
0
100
AcDbLine
10
106.6055
20
0.533892
30
0
11
106.6055
21
0.488449
31
0
39
0
210
0
220
0
230
1
0
LINE
5
102
100
AcDbEntity
8
1
62
256
6
ByLayer
370
18
48
1
60
0
100
AcDbLine
10
13.461325
20
-38.115458
30
0
11
10.538675
21
-38.115458
31
0
39
0
210
0
220
0
230
1
0
LINE
5
103
100
AcDbEntity
8
1
62
256
6
ByLayer
370
18
48
1
60
0
100
AcDbLine
10
107.3245
20
35.385093
30
0
11
107.3245
21
35.236583
31
0
39
0
210
0
220
0
230
1
0
LINE
5
104
100
AcDbEntity
8
1
62
256
6
ByLayer
370
13
48
1
60
0
100
AcDbLine
10
107.2495
20
34.391974
30
0
11
107.2495
21
35.232962
31
0
39
0
210
0
220
0
230
1
0
LINE
5
105
100
AcDbEntity
8
1
62
256
6
ByLayer
370
13
48
1
60
0
100
AcDbLine
10
106.6055
20
38.8304
30
0
11
106.6055
21
38.736267
31
0
39
0
210
0
220
0
230
1
0
LINE
5
106
100
AcDbEntity
8
1
62
256
6
ByLayer
370
13
48
1
60
0
100
AcDbLine
10
10.538675
20
38.115458
30
0
11
10.538675
21
12.13309
31
0
39
0
210
0
220
0
230
1
0
LINE
5
107
100
AcDbEntity
8
1
62
256
6
ByLayer
370
13
48
1
60
0
100
AcDbLine
10
106.6055
20
1.824315
30
0
11
106.6055
21
1.703125
31
0
39
0
210
0
220
0
230
1
0
LINE
5
108
100
AcDbEntity
8
1
62
256
6
ByLayer
370
18
48
1
60
0
100
AcDbLine
10
107.3245
20
2.836316
30
0
11
107.3245
21
2.278177
31
0
39
0
210
0
220
0
230
1
0
LINE
5
109
100
AcDbEntity
8
1
62
256
6
ByLayer
370
18
48
1
60
0
100
AcDbLine
10
107.3245
20
37.721823
30
0
11
107.3245
21
37.163684
31
0
39
0
210
0
220
0
230
1
0
LINE
5
10A
100
AcDbEntity
8
1
62
256
6
ByLayer
370
13
48
1
60
0
100
AcDbLine
10
106.6055
20
23.782728
30
0
11
106.6055
21
21.680832
31
0
39
0
210
0
220
0
230
1
0
LINE
5
10B
100
AcDbEntity
8
1
62
256
6
ByLayer
370
13
48
1
60
0
100
AcDbLine
10
106.6055
20
18.319168
30
0
11
106.6055
21
16.217272
31
0
39
0
210
0
220
0
230
1
0
LINE
5
10C
100
AcDbEntity
8
1
62
256
6
ByLayer
370
13
48
1
60
0
100
AcDbLine
10
106.6055
20
31.019332
30
0
11
106.6055
21
30.568917
31
0
39
0
210
0
220
0
230
1
0
LINE
5
10D
100
AcDbEntity
8
1
62
256
6
ByLayer
370
13
48
1
60
0
100
AcDbLine
10
106.6055
20
9.431083
30
0
11
106.6055
21
8.980668
31
0
39
0
210
0
220
0
230
1
0
LINE
5
10E
100
AcDbEntity
8
1
62
256
6
ByLayer
370
18
48
1
60
0
100
AcDbLine
10
107.3245
20
36.246743
30
0
11
107.3245
21
35.385072
31
0
39
0
210
0
220
0
230
1
0
LINE
5
10F
100
AcDbEntity
8
1
62
256
6
ByLayer
370
13
48
1
60
0
100
AcDbLine
10
107.2495
20
3.744662
30
0
11
107.2495
21
4.429653
31
0
39
0
210
0
220
0
230
1
0
LINE
5
110
100
AcDbEntity
8
1
62
256
6
ByLayer
370
18
48
1
60
0
100
AcDbLine
10
106.3245
20
40
30
0
11
106.3245
21
0
31
0
39
0
210
0
220
0
230
1
0
LINE
5
111
100
AcDbEntity
8
1
62
256
6
ByLayer
370
13
48
1
60
0
100
AcDbLine
10
107.2495
20
1.345039
30
0
11
107.2495
21
1.597302
31
0
39
0
210
0
220
0
230
1
0
LINE
5
112
100
AcDbEntity
8
1
62
256
6
ByLayer
370
18
48
1
60
0
100
AcDbLine
10
107.3245
20
2.933664
30
0
11
107.3245
21
2.836237
31
0
39
0
210
0
220
0
230
1
0
LINE
5
113
100
AcDbEntity
8
1
62
256
6
ByLayer
370
18
48
1
60
0
100
AcDbLine
10
107.3245
20
1.769087
30
0
11
107.3245
21
1.710976
31
0
39
0
210
0
220
0
230
1
0
LINE
5
114
100
AcDbEntity
8
1
62
256
6
ByLayer
370
18
48
1
60
0
100
AcDbLine
10
107.3245
20
2.201419
30
0
11
107.3245
21
1.769087
31
0
39
0
210
0
220
0
230
1
0
LINE
5
115
100
AcDbEntity
8
1
62
256
6
ByLayer
370
18
48
1
60
0
100
AcDbLine
10
107.3245
20
1.353685
30
0
11
107.3245
21
1.146021
31
0
39
0
210
0
220
0
230
1
0
LINE
5
116
100
AcDbEntity
8
1
62
256
6
ByLayer
370
18
48
1
60
0
100
AcDbLine
10
107.3245
20
1.394373
30
0
11
107.3245
21
1.353681
31
0
39
0
210
0
220
0
230
1
0
LINE
5
117
100
AcDbEntity
8
1
62
256
6
ByLayer
370
13
48
1
60
0
100
AcDbLine
10
116.9255
20
15.100505
30
0
11
116.9255
21
5.100505
31
0
39
0
210
0
220
0
230
1
0
LINE
5
118
100
AcDbEntity
8
1
62
256
6
ByLayer
370
18
48
1
60
0
100
AcDbLine
10
111.6755
20
34.899495
30
0
11
111.6755
21
24.899495
31
0
39
0
210
0
220
0
230
1
0
LINE
5
119
100
AcDbEntity
8
1
62
256
6
ByLayer
370
18
48
1
60
0
100
AcDbLine
10
111.6755
20
5.100505
30
0
11
111.6755
21
15.100505
31
0
39
0
210
0
220
0
230
1
0
LINE
5
11A
100
AcDbEntity
8
1
62
256
6
ByLayer
370
13
48
1
60
0
100
AcDbLine
10
111.4255
20
13.100505
30
0
11
111.4255
21
7.100505
31
0
39
0
210
0
220
0
230
1
0
LINE
5
11B
100
AcDbEntity
8
1
62
256
6
ByLayer
370
18
48
1
60
0
100
AcDbLine
10
117.5255
20
5.700505
30
0
11
117.5255
21
14.500505
31
0
39
0
210
0
220
0
230
1
0
LINE
5
11C
100
AcDbEntity
8
1
62
256
6
ByLayer
370
18
48
1
60
0
100
AcDbLine
10
117.5255
20
10.100505
30
0
11
117.5255
21
14.500505
31
0
39
0
210
0
220
0
230
1
0
LINE
5
11D
100
AcDbEntity
8
1
62
256
6
ByLayer
370
13
48
1
60
0
100
AcDbLine
10
116.9255
20
34.899495
30
0
11
116.9255
21
24.899495
31
0
39
0
210
0
220
0
230
1
0
LINE
5
11E
100
AcDbEntity
8
1
62
256
6
ByLayer
370
18
48
1
60
0
100
AcDbLine
10
111.6755
20
34.899495
30
0
11
111.6755
21
24.899495
31
0
39
0
210
0
220
0
230
1
0
LINE
5
11F
100
AcDbEntity
8
1
62
256
6
ByLayer
370
18
48
1
60
0
100
AcDbLine
10
117.5255
20
34.299495
30
0
11
117.5255
21
25.499495
31
0
39
0
210
0
220
0
230
1
0
LINE
5
120
100
AcDbEntity
8
1
62
256
6
ByLayer
370
13
48
1
60
0
100
AcDbLine
10
111.4255
20
32.899495
30
0
11
111.4255
21
26.899495
31
0
39
0
210
0
220
0
230
1
0
LINE
5
121
100
AcDbEntity
8
1
62
256
6
ByLayer
370
13
48
1
60
0
100
AcDbLine
10
116.9255
20
34.899495
30
0
11
116.9255
21
24.899495
31
0
39
0
210
0
220
0
230
1
0
LINE
5
122
100
AcDbEntity
8
1
62
256
6
ByLayer
370
18
48
1
60
0
100
AcDbLine
10
117.5255
20
34.299495
30
0
11
117.5255
21
25.499495
31
0
39
0
210
0
220
0
230
1
0
LINE
5
123
100
AcDbEntity
8
1
62
256
6
ByLayer
370
13
48
1
60
0
100
AcDbLine
10
111.4255
20
32.899495
30
0
11
111.4255
21
26.899495
31
0
39
0
210
0
220
0
230
1
0
MTEXT
5
1E5
100
AcDbEntity
8
SK6
62
256
6
ByLayer
370
18
48
1
60
0
100
AcDbMText
10
0.875
20
49.125134
30
0
210
0
220
0
230
1
1
\W0.7156;C8-570-2C 50 107-40R
40
3.5
41
0
44
1.084337
50
0
71
7
72
5
7
iso_b_vert
0
DIMENSION
5
1F2
100
AcDbEntity
8
SK2
62
256
6
ByLayer
370
13
48
1
60
0
100
AcDbDimension
2
DimnDraft3D1
10
107
20
-50.1
30
0
11
68.508534
21
-50.1
31
0
70
32
71
5
72
1
41
1
210
0
220
0
230
1
3
Standard
100
AcDbAlignedDimension
13
38.6
23
-11.5875
33
0
14
107
24
-1.5875
34
0
50
0
100
AcDbRotatedDimension
1001
ACAD
1000
DSTYLE
1002
{
1070
   279
1070
     0
1070
   172
1070
     1
1070
   173
1070
     1
1070
   340
1005
1E6
1070
   271
1070
     2
1070
   272
1070
     2
1070
    77
1070
     1
1070
    73
1070
     0
1070
   171
1070
     3
1070
   274
1070
     4
1070
   177
1070
     2
1070
   176
1070
     2
1070
   178
1070
     2
1070
    78
1070
     8
1070
    48
1040
-0.005
1070
    41
1041
3.5
1070
   147
1041
1.75
1070
    42
1041
1.5875
1070
    44
1041
2.0
1070
   140
1041
3.5
1070
   343
1005
0
1070
   344
1005
0
1002
}
0
DIMENSION
5
1FD
100
AcDbEntity
8
SK2
62
256
6
ByLayer
370
13
48
1
60
0
100
AcDbDimension
2
DimnDraft3D2
10
149.888211
20
-10
30
0
11
145.263211
21
17.284534
31
0
70
33
71
5
72
1
41
1
210
0
220
0
230
1
3
Standard
100
AcDbAlignedDimension
13
108.5875
23
40
33
0
14
101.708008
24
-10
34
0
1001
ACAD
1000
DSTYLE
1002
{
1070
   279
1070
     0
1070
    74
1070
     0
1070
   173
1070
     1
1070
   340
1005
1E6
1070
   271
1070
     2
1070
   272
1070
     2
1070
    77
1070
     1
1070
    73
1070
     0
1070
   171
1070
     3
1070
   274
1070
     4
1070
   177
1070
     2
1070
   176
1070
     2
1070
   178
1070
     2
1070
    78
1070
     8
1070
    48
1040
-0.005
1070
    41
1041
3.5
1070
   147
1041
1.75
1070
    42
1041
1.5875
1070
    44
1041
2.0
1070
   140
1041
3.5
1070
   343
1005
0
1070
   344
1005
0
1002
}
0
DIMENSION
5
207
100
AcDbEntity
8
SK2
62
256
6
ByLayer
370
13
48
1
60
0
100
AcDbDimension
2
DimnDraft3D3
10
127.888211
20
0
30
0
11
127.888211
21
5.892801
31
0
70
32
71
5
72
1
41
1
210
0
220
0
230
1
3
Standard
100
AcDbAlignedDimension
13
108.5875
23
20
33
0
14
108.5875
24
0
34
0
50
90
100
AcDbRotatedDimension
1001
ACAD
1000
DSTYLE
1002
{
1070
    74
1070
     0
1070
   279
1070
     0
1070
   172
1070
     1
1070
   173
1070
     1
1070
   340
1005
1E6
1070
   271
1070
     2
1070
   272
1070
     2
1070
    77
1070
     1
1070
    73
1070
     0
1070
   171
1070
     3
1070
   274
1070
     4
1070
   177
1070
     2
1070
   176
1070
     2
1070
   178
1070
     2
1070
    78
1070
     8
1070
    48
1040
-0.005
1070
    41
1041
3.5
1070
   147
1041
1.75
1070
    42
1041
1.5875
1070
    44
1041
2.0
1070
   140
1041
3.5
1070
   343
1005
0
1070
   344
1005
0
1002
}
0
DIMENSION
5
212
100
AcDbEntity
8
2
62
256
6
ByLayer
370
13
48
1
60
0
100
AcDbDimension
2
DimnDraft3D4
10
107
20
-60.1
30
0
11
48.522501
21
-60.1
31
0
70
32
71
5
72
1
41
1
210
0
220
0
230
1
3
Standard
100
AcDbAlignedDimension
13
0
23
-41.5875
33
0
14
107
24
-1.5875
34
0
50
0
100
AcDbRotatedDimension
1001
ACAD
1000
DSTYLE
1002
{
1070
   279
1070
     0
1070
   172
1070
     1
1070
   173
1070
     1
1070
   340
1005
1E6
1070
   271
1070
     2
1070
   272
1070
     2
1070
    77
1070
     1
1070
    73
1070
     0
1070
   171
1070
     3
1070
   274
1070
     4
1070
   177
1070
     2
1070
   176
1070
     2
1070
   178
1070
     2
1070
    78
1070
     8
1070
    48
1040
-0.005
1070
    41
1041
3.5
1070
   147
1041
1.75
1070
    42
1041
1.5875
1070
    44
1041
2.0
1070
   140
1041
3.5
1070
   343
1005
0
1070
   344
1005
0
1002
}
0
DIMENSION
5
21D
100
AcDbEntity
8
SK2
62
256
6
ByLayer
370
13
48
1
60
0
100
AcDbDimension
2
DimnDraft3D5
10
-71.6
20
-40
30
0
11
-72.225
21
2.284534
31
0
70
33
71
5
72
1
41
1
210
0
220
0
230
1
3
Standard
100
AcDbAlignedDimension
13
-1.5875
23
40
33
0
14
-1.5875
24
-40
34
0
1001
ACAD
1000
DSTYLE
1002
{
1070
   279
1070
     0
1070
    74
1070
     0
1070
   173
1070
     1
1070
   340
1005
1E6
1070
   271
1070
     2
1070
   272
1070
     2
1070
    77
1070
     1
1070
    73
1070
     0
1070
   171
1070
     3
1070
   274
1070
     4
1070
   177
1070
     2
1070
   176
1070
     2
1070
   178
1070
     2
1070
    78
1070
     8
1070
    48
1040
-0.005
1070
    41
1041
3.5
1070
   147
1041
1.75
1070
    42
1041
1.5875
1070
    44
1041
2.0
1070
   140
1041
3.5
1070
   343
1005
0
1070
   344
1005
0
1002
}
0
DIMENSION
5
228
100
AcDbEntity
8
SK2
62
256
6
ByLayer
370
13
48
1
60
0
100
AcDbDimension
2
DimnDraft3D6
10
139.888211
20
0
30
0
11
135.263211
21
22.100267
31
0
70
33
71
5
72
1
41
1
210
0
220
0
230
1
3
Standard
100
AcDbAlignedDimension
13
108.5875
23
40
33
0
14
108.5875
24
0
34
0
1001
ACAD
1000
DSTYLE
1002
{
1070
   279
1070
     0
1070
    74
1070
     0
1070
   173
1070
     1
1070
   340
1005
1E6
1070
   271
1070
     2
1070
   272
1070
     2
1070
    77
1070
     1
1070
    73
1070
     0
1070
   171
1070
     3
1070
   274
1070
     4
1070
   177
1070
     2
1070
   176
1070
     2
1070
   178
1070
     2
1070
    78
1070
     8
1070
    48
1040
-0.005
1070
    41
1041
3.5
1070
   147
1041
1.75
1070
    42
1041
1.5875
1070
    44
1041
2.0
1070
   140
1041
3.5
1070
   343
1005
0
1070
   344
1005
0
1002
}
0
ENDSEC
0
SECTION
2
OBJECTS
0
DICTIONARY
5
293
330
0
100
AcDbDictionary
280
0
281
1
3
ACAD_GROUP
350
294
3
ACAD_MLINESTYLE
350
295
0
DICTIONARY
5
294
330
0
100
AcDbDictionary
280
0
281
1
0
DICTIONARY
5
295
330
0
100
AcDbDictionary
280
0
281
1
3
Standard
350
18
0
MLINESTYLE
5
18
330
295
100
AcDbMlineStyle
2
Standard
70
0
3

62
256
51
90
52
90
71
2
49
-0.5
62
256
6
ByLayer
49
0.5
62
256
6
ByLayer
0
RASTERVARIABLES
5
281
330

100
AcDbRasterVariables
90
0
70
1
71
1
72
1
0
ENDSEC
0
EOF
