0
SECTION
2
HEADER
9
$ACADVER
1
AC1015
9
$DWGCODEPAGE
3
ANSI_1252
9
$HANDSEED
5
2de
9
$ANGBASE
50
0
9
$ANGDIR
70
0
9
$ATTMODE
70
1
9
$AUNITS
70
0
9
$AUPREC
70
0
9
$CECOLOR
62
256
9
$CELTSCALE
40
1
9
$CELTYPE
6
ByLayer
9
$CELWEIGHT
370
18
9
$CLAYER
8
0
9
$CMLJUST
70
0
9
$CMLSCALE
40
1
9
$CMLSTYLE
2
Standard
9
$DIMSTYLE
2
Standard
9
$TEXTSIZE
40
0.2
9
$TEXTSTYLE
7
Standard
9
$LUNITS
70
2
9
$LUPREC
70
4
9
$EXTNAMES
290
1
9
$INSUNITS
70
4
9
$LTSCALE
40
1
9
$LWDISPLAY
290
1
9
$PDMODE
70
0
9
$PDSIZE
40
0
9
$PLINEGEN
70
0
0
ENDSEC
0
SECTION
2
CLASSES
0
CLASS
1
RASTERVARIABLES
2
AcDbRasterVariables
3
ISM
90
0
280
0
281
0
0
ENDSEC
0
SECTION
2
TABLES
0
TABLE
2
VPORT
5
2d4
100
AcDbSymbolTable
0
VPORT
5
1
100
AcDbSymbolTableRecord
100
AcDbViewportTableRecord
2
*Active
70
0
10
0
20
0
11
1
21
1
12
-1
22
1
13
0
23
0
14
0.5
24
0.5
15
10
25
10
16
0
26
0
36
1
17
0
27
0
37
0
0
ENDTAB
0
TABLE
2
LTYPE
5
2d5
100
AcDbSymbolTable
0
LTYPE
5
14
100
AcDbSymbolTableRecord
100
AcDbLinetypeTableRecord
70
0
2
ByBlock
3

72
65
73
0
40
0
0
LTYPE
5
15
100
AcDbSymbolTableRecord
100
AcDbLinetypeTableRecord
70
0
2
ByLayer
3

72
65
73
0
40
0
0
LTYPE
5
16
100
AcDbSymbolTableRecord
100
AcDbLinetypeTableRecord
70
0
2
CONTINUOUS
3
Solid line
72
65
73
0
40
0
0
LTYPE
5
6A
100
AcDbSymbolTableRecord
100
AcDbLinetypeTableRecord
70
0
2
CENTER
3
____ _ ____ _ ____ _ ____
72
65
73
4
40
47.5
49
22
74
0
49
-8.5
74
0
49
8.5
74
0
49
-8.5
74
0
0
LTYPE
5
6B
100
AcDbSymbolTableRecord
100
AcDbLinetypeTableRecord
70
0
2
DASHED
3
__ __ __ __ __ __ __ __ __
72
65
73
2
40
25.72
49
12.86
74
0
49
-12.86
74
0
0
ENDTAB
0
TABLE
2
LAYER
5
2d6
100
AcDbSymbolTable
0
LAYER
5
10
100
AcDbSymbolTableRecord
100
AcDbLayerTableRecord
2
0
70
0
62
7
6
CONTINUOUS
290
1
370
-3
390
0
0
LAYER
5
6D
100
AcDbSymbolTableRecord
100
AcDbLayerTableRecord
2
80
70
0
62
-6
6
CONTINUOUS
290
1
370
-3
390
0
0
LAYER
5
6F
100
AcDbSymbolTableRecord
100
AcDbLayerTableRecord
2
81
70
0
62
-3
6
CONTINUOUS
290
1
370
-3
390
0
0
LAYER
5
71
100
AcDbSymbolTableRecord
100
AcDbLayerTableRecord
2
1
70
0
62
4
6
CONTINUOUS
290
1
370
-3
390
0
0
LAYER
5
74
100
AcDbSymbolTableRecord
100
AcDbLayerTableRecord
2
4
70
0
62
-2
6
CENTER
290
1
370
-3
390
0
0
LAYER
5
7A
100
AcDbSymbolTableRecord
100
AcDbLayerTableRecord
2
2
70
0
62
7
6
CONTINUOUS
290
1
370
-3
390
0
0
LAYER
5
2be
100
AcDbSymbolTableRecord
100
AcDbLayerTableRecord
2
SK4
70
0
62
2
6
CENTER
290
1
370
-3
390
0
0
LAYER
5
2bf
100
AcDbSymbolTableRecord
100
AcDbLayerTableRecord
2
SK1
70
0
62
4
6
CONTINUOUS
290
1
370
-3
390
0
0
LAYER
5
2c0
100
AcDbSymbolTableRecord
100
AcDbLayerTableRecord
2
SK6
70
0
62
5
6
CONTINUOUS
290
1
370
-3
390
0
0
LAYER
5
2c1
100
AcDbSymbolTableRecord
100
AcDbLayerTableRecord
2
SK2
70
0
62
7
6
CONTINUOUS
290
1
370
-3
390
0
0
ENDTAB
0
TABLE
2
STYLE
5
2d7
100
AcDbSymbolTable
0
STYLE
5
11
100
AcDbSymbolTableRecord
100
AcDbTextStyleTableRecord
2
Standard
3
txt
70
0
71
0
40
0
41
1
42
0
50
0
0
STYLE
5
21E
100
AcDbSymbolTableRecord
100
AcDbTextStyleTableRecord
2
iso_b_vert
3
simplex.shx
70
0
71
0
40
0
41
1
42
0
50
0
0
STYLE
5
21F
100
AcDbSymbolTableRecord
100
AcDbTextStyleTableRecord
2
DWGDirectTextStyle
3
simplex
70
0
71
0
40
0
41
1
42
0
50
0
0
ENDTAB
0
TABLE
2
DIMSTYLE
5
2d8
100
AcDbSymbolTable
100
AcDbDimStyleTable
0
DIMSTYLE
105
27
100
AcDbSymbolTableRecord
100
AcDbDimStyleTableRecord
2
Standard
70
0
3
<>
41
0.18
42
0.0625
44
0.18
140
0.18
147
0.09
73
0
74
0
77
1
271
2
275
0
278
52
280
0
340
11
0
ENDTAB
0
TABLE
2
VIEW
5
2d9
100
AcDbSymbolTable
0
ENDTAB
0
TABLE
2
UCS
5
2da
100
AcDbSymbolTable
0
ENDTAB
0
TABLE
2
APPID
5
2db
100
AcDbSymbolTable
0
APPID
5
12
100
AcDbSymbolTableRecord
100
AcDbRegAppTableRecord
2
ACAD
70
0
0
ENDTAB
0
TABLE
2
BLOCK_RECORD
5
2dc
100
AcDbSymbolTable
0
BLOCK_RECORD
5
1F
100
AcDbSymbolTableRecord
100
AcDbBlockTableRecord
2
*Model_Space
340
0
70
0
0
BLOCK_RECORD
5
1B
100
AcDbSymbolTableRecord
100
AcDbBlockTableRecord
2
*Paper_Space
340
0
70
0
0
BLOCK_RECORD
5
23
100
AcDbSymbolTableRecord
100
AcDbBlockTableRecord
2
*Paper_Space0
340
0
70
0
0
BLOCK_RECORD
5
222
100
AcDbSymbolTableRecord
100
AcDbBlockTableRecord
2
DimnDraft3D1
340
0
70
0
0
BLOCK_RECORD
5
22D
100
AcDbSymbolTableRecord
100
AcDbBlockTableRecord
2
DimnDraft3D2
340
0
70
0
0
BLOCK_RECORD
5
237
100
AcDbSymbolTableRecord
100
AcDbBlockTableRecord
2
DimnDraft3D3
340
0
70
0
0
BLOCK_RECORD
5
241
100
AcDbSymbolTableRecord
100
AcDbBlockTableRecord
2
DimnDraft3D4
340
0
70
0
0
BLOCK_RECORD
5
24B
100
AcDbSymbolTableRecord
100
AcDbBlockTableRecord
2
DimnDraft3D5
340
0
70
0
0
BLOCK_RECORD
5
255
100
AcDbSymbolTableRecord
100
AcDbBlockTableRecord
2
DimnDraft3D6
340
0
70
0
0
ENDTAB
0
ENDSEC
0
SECTION
2
BLOCKS
0
BLOCK
5
20
100
AcDbEntity
8
0
100
AcDbBlockBegin
2
*Model_Space
70
0
10
0
20
0
30
0
3
*Model_Space
0
ENDBLK
5
21
100
AcDbEntity
8
0
100
AcDbBlockEnd
0
BLOCK
5
1C
100
AcDbEntity
8
0
100
AcDbBlockBegin
2
*Paper_Space
70
0
10
0
20
0
30
0
3
*Paper_Space
0
ENDBLK
5
1D
100
AcDbEntity
8
0
100
AcDbBlockEnd
0
BLOCK
5
24
100
AcDbEntity
8
0
100
AcDbBlockBegin
2
*Paper_Space0
70
0
10
0
20
0
30
0
3
*Paper_Space0
0
ENDBLK
5
25
100
AcDbEntity
8
0
100
AcDbBlockEnd
0
BLOCK
5
22A
100
AcDbEntity
8
0
100
AcDbBlockBegin
2
DimnDraft3D1
70
0
10
0
20
0
30
0
3
DimnDraft3D1
0
MTEXT
5
223
100
AcDbEntity
8
SK2
62
256
6
ByLayer
370
18
48
1
60
0
100
AcDbMText
10
-74.250114
20
-3.401312
30
0
210
0
220
0
230
1
1
\W0.8320;%%c 80
40
3
41
0
44
1.084337
50
90
71
7
72
5
7
iso_b_vert
0
LINE
5
225
100
AcDbEntity
8
SK2
62
256
6
ByLayer
370
18
48
1
60
0
100
AcDbLine
10
-1.7
20
40
30
0
11
-75.5
21
40
31
0
39
0
210
0
220
0
230
1
0
LINE
5
226
100
AcDbEntity
8
SK2
62
256
6
ByLayer
370
18
48
1
60
0
100
AcDbLine
10
-1.7
20
-40
30
0
11
-75.5
21
-40
31
0
39
0
210
0
220
0
230
1
0
LINE
5
227
100
AcDbEntity
8
SK2
62
256
6
ByLayer
370
18
48
1
60
0
100
AcDbLine
10
-73.5
20
40
30
0
11
-73.5
21
-40
31
0
39
0
210
0
220
0
230
1
0
SOLID
5
228
100
AcDbEntity
8
SK2
62
256
6
ByLayer
370
18
48
1
60
0
100
AcDbTrace
10
-73.5
20
40
30
0
11
-73.082003
21
36.825002
31
0
12
-73.917997
22
36.824998
32
0
13
-73.5
23
40
33
0
39
0
210
0
220
0
230
1
0
SOLID
5
229
100
AcDbEntity
8
SK2
62
256
6
ByLayer
370
18
48
1
60
0
100
AcDbTrace
10
-73.5
20
-40
30
0
11
-73.917997
21
-36.825002
31
0
12
-73.082003
22
-36.824998
32
0
13
-73.5
23
-40
33
0
39
0
210
0
220
0
230
1
0
ENDBLK
5
22B
100
AcDbEntity
8
0
100
AcDbBlockEnd
0
BLOCK
5
234
100
AcDbEntity
8
0
100
AcDbBlockBegin
2
DimnDraft3D2
70
0
10
0
20
0
30
0
3
DimnDraft3D2
0
MTEXT
5
22E
100
AcDbEntity
8
SK2
62
256
6
ByLayer
370
18
48
1
60
0
100
AcDbMText
10
189.609774
20
-60.749886
30
0
210
0
220
0
230
1
1
\W0.7305;387.0
40
3
41
0
44
1.084337
50
0
71
7
72
5
7
iso_b_vert
0
LINE
5
22F
100
AcDbEntity
8
SK2
62
256
6
ByLayer
370
18
48
1
60
0
100
AcDbLine
10
0
20
-41.7
30
0
11
0
21
-63.5
31
0
39
0
210
0
220
0
230
1
0
LINE
5
230
100
AcDbEntity
8
SK2
62
256
6
ByLayer
370
18
48
1
60
0
100
AcDbLine
10
387
20
-44.708531
30
0
11
387
21
-63.5
31
0
39
0
210
0
220
0
230
1
0
LINE
5
231
100
AcDbEntity
8
SK2
62
256
6
ByLayer
370
18
48
1
60
0
100
AcDbLine
10
0
20
-61.5
30
0
11
387
21
-61.5
31
0
39
0
210
0
220
0
230
1
0
SOLID
5
232
100
AcDbEntity
8
SK2
62
256
6
ByLayer
370
18
48
1
60
0
100
AcDbTrace
10
0
20
-61.5
30
0
11
3.174998
21
-61.082003
31
0
12
3.175002
22
-61.917997
32
0
13
0
23
-61.5
33
0
39
0
210
0
220
0
230
1
0
SOLID
5
233
100
AcDbEntity
8
SK2
62
256
6
ByLayer
370
18
48
1
60
0
100
AcDbTrace
10
387
20
-61.5
30
0
11
383.825002
21
-61.917997
31
0
12
383.824998
22
-61.082003
32
0
13
387
23
-61.5
33
0
39
0
210
0
220
0
230
1
0
ENDBLK
5
235
100
AcDbEntity
8
0
100
AcDbBlockEnd
0
BLOCK
5
23E
100
AcDbEntity
8
0
100
AcDbBlockBegin
2
DimnDraft3D3
70
0
10
0
20
0
30
0
3
DimnDraft3D3
0
MTEXT
5
238
100
AcDbEntity
8
SK2
62
256
6
ByLayer
370
18
48
1
60
0
100
AcDbMText
10
189.609774
20
-75.749886
30
0
210
0
220
0
230
1
1
\W0.7305;387.0
40
3
41
0
44
1.084337
50
0
71
7
72
5
7
iso_b_vert
0
LINE
5
239
100
AcDbEntity
8
SK2
62
256
6
ByLayer
370
18
48
1
60
0
100
AcDbLine
10
0
20
-41.7
30
0
11
0
21
-78.5
31
0
39
0
210
0
220
0
230
1
0
LINE
5
23A
100
AcDbEntity
8
SK2
62
256
6
ByLayer
370
18
48
1
60
0
100
AcDbLine
10
387
20
-44.708531
30
0
11
387
21
-78.5
31
0
39
0
210
0
220
0
230
1
0
LINE
5
23B
100
AcDbEntity
8
SK2
62
256
6
ByLayer
370
18
48
1
60
0
100
AcDbLine
10
0
20
-76.5
30
0
11
387
21
-76.5
31
0
39
0
210
0
220
0
230
1
0
SOLID
5
23C
100
AcDbEntity
8
SK2
62
256
6
ByLayer
370
18
48
1
60
0
100
AcDbTrace
10
0
20
-76.5
30
0
11
3.174998
21
-76.082003
31
0
12
3.175002
22
-76.917997
32
0
13
0
23
-76.5
33
0
39
0
210
0
220
0
230
1
0
SOLID
5
23D
100
AcDbEntity
8
SK2
62
256
6
ByLayer
370
18
48
1
60
0
100
AcDbTrace
10
387
20
-76.5
30
0
11
383.825002
21
-76.917997
31
0
12
383.824998
22
-76.082003
32
0
13
387
23
-76.5
33
0
39
0
210
0
220
0
230
1
0
ENDBLK
5
23F
100
AcDbEntity
8
0
100
AcDbBlockEnd
0
BLOCK
5
248
100
AcDbEntity
8
0
100
AcDbBlockBegin
2
DimnDraft3D4
70
0
10
0
20
0
30
0
3
DimnDraft3D4
0
MTEXT
5
242
100
AcDbEntity
8
SK2
62
256
6
ByLayer
370
18
48
1
60
0
100
AcDbMText
10
174.793888
20
-90.749886
30
0
210
0
220
0
230
1
1
\W0.7824;454.0
40
3
41
0
44
1.084337
50
0
71
7
72
5
7
iso_b_vert
0
LINE
5
243
100
AcDbEntity
8
SK2
62
256
6
ByLayer
370
18
48
1
60
0
100
AcDbLine
10
-48
20
-26.575089
30
0
11
-48
21
-93.5
31
0
39
0
210
0
220
0
230
1
0
LINE
5
244
100
AcDbEntity
8
SK2
62
256
6
ByLayer
370
18
48
1
60
0
100
AcDbLine
10
406
20
-36.62
30
0
11
406
21
-93.5
31
0
39
0
210
0
220
0
230
1
0
LINE
5
245
100
AcDbEntity
8
SK2
62
256
6
ByLayer
370
18
48
1
60
0
100
AcDbLine
10
-48
20
-91.5
30
0
11
406
21
-91.5
31
0
39
0
210
0
220
0
230
1
0
SOLID
5
246
100
AcDbEntity
8
SK2
62
256
6
ByLayer
370
18
48
1
60
0
100
AcDbTrace
10
-48
20
-91.5
30
0
11
-44.825002
21
-91.082003
31
0
12
-44.824998
22
-91.917997
32
0
13
-48
23
-91.5
33
0
39
0
210
0
220
0
230
1
0
SOLID
5
247
100
AcDbEntity
8
SK2
62
256
6
ByLayer
370
18
48
1
60
0
100
AcDbTrace
10
406
20
-91.5
30
0
11
402.825002
21
-91.917997
31
0
12
402.824998
22
-91.082003
32
0
13
406
23
-91.5
33
0
39
0
210
0
220
0
230
1
0
ENDBLK
5
249
100
AcDbEntity
8
0
100
AcDbBlockEnd
0
BLOCK
5
252
100
AcDbEntity
8
0
100
AcDbBlockBegin
2
DimnDraft3D5
70
0
10
0
20
0
30
0
3
DimnDraft3D5
0
MTEXT
5
24C
100
AcDbEntity
8
2
62
256
6
ByLayer
370
18
48
1
60
0
100
AcDbMText
10
201.326774
20
74.250114
30
0
210
0
220
0
230
1
1
\W0.7296;410.0
40
3
41
0
44
1.084337
50
0
71
7
72
5
7
iso_b_vert
0
LINE
5
24D
100
AcDbEntity
8
2
62
256
6
ByLayer
370
18
48
1
60
0
100
AcDbLine
10
0
20
41.7
30
0
11
0
21
75.5
31
0
39
0
210
0
220
0
230
1
0
LINE
5
24E
100
AcDbEntity
8
2
62
256
6
ByLayer
370
18
48
1
60
0
100
AcDbLine
10
410
20
50.291469
30
0
11
410
21
75.5
31
0
39
0
210
0
220
0
230
1
0
LINE
5
24F
100
AcDbEntity
8
2
62
256
6
ByLayer
370
18
48
1
60
0
100
AcDbLine
10
0
20
73.5
30
0
11
410
21
73.5
31
0
39
0
210
0
220
0
230
1
0
SOLID
5
250
100
AcDbEntity
8
2
62
256
6
ByLayer
370
18
48
1
60
0
100
AcDbTrace
10
0
20
73.5
30
0
11
3.174998
21
73.917997
31
0
12
3.175002
22
73.082003
32
0
13
0
23
73.5
33
0
39
0
210
0
220
0
230
1
0
SOLID
5
251
100
AcDbEntity
8
2
62
256
6
ByLayer
370
18
48
1
60
0
100
AcDbTrace
10
410
20
73.5
30
0
11
406.825002
21
73.082003
31
0
12
406.824998
22
73.917997
32
0
13
410
23
73.5
33
0
39
0
210
0
220
0
230
1
0
ENDBLK
5
253
100
AcDbEntity
8
0
100
AcDbBlockEnd
0
BLOCK
5
25C
100
AcDbEntity
8
0
100
AcDbBlockBegin
2
DimnDraft3D6
70
0
10
0
20
0
30
0
3
DimnDraft3D6
0
MTEXT
5
256
100
AcDbEntity
8
2
62
256
6
ByLayer
370
18
48
1
60
0
100
AcDbMText
10
422.077562
20
30.443236
30
0
210
0
220
0
230
1
1
\W0.6673;92.0%%d
40
3
41
0
44
1.084337
50
44
71
7
72
5
7
iso_b_vert
0
LINE
5
257
100
AcDbEntity
8
2
62
256
6
ByLayer
370
13
48
1
60
0
100
AcDbLine
10
409.594104
20
36.181266
30
0
11
409.180565
21
24.339041
31
0
39
0
210
0
220
0
230
1
0
LINE
5
258
100
AcDbEntity
8
2
62
256
6
ByLayer
370
13
48
1
60
0
100
AcDbLine
10
412
20
48.291469
30
0
11
433.984029
21
48.291469
31
0
39
0
210
0
220
0
230
1
0
ARC
5
259
100
AcDbEntity
8
2
62
256
6
ByLayer
370
13
48
1
60
0
100
AcDbCircle
39
0
10
410.017002
20
48.291469
30
0
40
21.9670274491832
210
0
220
0
230
1
100
AcDbArc
50
268
51
0
0
SOLID
5
25A
100
AcDbEntity
8
2
62
256
6
ByLayer
370
13
48
1
60
0
100
AcDbTrace
10
409.250364
20
26.337823
30
0
11
412.424873
21
26.759516
31
0
12
412.42585
22
25.923523
32
0
13
409.250364
23
26.337823
33
0
39
0
210
0
220
0
230
1
0
SOLID
5
25B
100
AcDbEntity
8
2
62
256
6
ByLayer
370
13
48
1
60
0
100
AcDbTrace
10
431.984029
20
48.291469
30
0
11
432.287253
21
45.103461
31
0
12
431.451804
22
45.133607
32
0
13
431.984029
23
48.291469
33
0
39
0
210
0
220
0
230
1
0
ENDBLK
5
25D
100
AcDbEntity
8
0
100
AcDbBlockEnd
0
ENDSEC
0
SECTION
2
ENTITIES
0
ARC
5
134
100
AcDbEntity
8
1
62
256
6
ByLayer
370
18
48
1
60
0
100
AcDbCircle
39
0
10
-401.105903
20
43.293687
30
0
40
0.396875
210
0
220
0
230
-1
100
AcDbArc
50
302
51
62
0
ARC
5
135
100
AcDbEntity
8
1
62
256
6
ByLayer
370
18
48
1
60
0
100
AcDbCircle
39
0
10
-409.603132
20
47.811743
30
0
40
0.396875
210
0
220
0
230
-1
100
AcDbArc
50
62
51
182
0
ARC
5
136
100
AcDbEntity
8
1
62
256
6
ByLayer
370
18
48
1
60
0
100
AcDbCircle
39
0
10
-409.26727
20
38.193899
30
0
40
0.396875
210
0
220
0
230
-1
100
AcDbArc
50
182
51
302
0
ARC
5
139
100
AcDbEntity
8
1
62
256
6
ByLayer
370
18
48
1
60
0
100
AcDbCircle
39
0
10
-406.658769
20
43.099776
30
0
40
1.035
210
0
220
0
230
-1
100
AcDbArc
50
181.950841
51
242.049159
0
ARC
5
13A
100
AcDbEntity
8
1
62
256
6
ByLayer
370
18
48
1
60
0
100
AcDbCircle
39
0
10
406.658769
20
43.099776
30
0
40
0.747999999999999
210
0
220
0
230
1
100
AcDbArc
50
325.838153
51
330.161847
0
ARC
5
13B
100
AcDbEntity
8
1
62
256
6
ByLayer
370
18
48
1
60
0
100
AcDbCircle
39
0
10
-406.658769
20
43.099776
30
0
40
1.035
210
0
220
0
230
-1
100
AcDbArc
50
302
51
1.950841
0
ARC
5
13C
100
AcDbEntity
8
1
62
256
6
ByLayer
370
18
48
1
60
0
100
AcDbCircle
39
0
10
-406.658769
20
43.099776
30
0
40
1.035
210
0
220
0
230
-1
100
AcDbArc
50
62.049159
51
122
0
ARC
5
13D
100
AcDbEntity
8
1
62
256
6
ByLayer
370
18
48
1
60
0
100
AcDbCircle
39
0
10
406.658769
20
43.099776
30
0
40
0.747999999999999
210
0
220
0
230
1
100
AcDbArc
50
145.838153
51
150.161847
0
ARC
5
13E
100
AcDbEntity
8
1
62
256
6
ByLayer
370
18
48
1
60
0
100
AcDbCircle
39
0
10
-406.658769
20
43.099776
30
0
40
1.035
210
0
220
0
230
-1
100
AcDbArc
50
1.950841
51
62.049159
0
ARC
5
140
100
AcDbEntity
8
1
62
256
6
ByLayer
370
18
48
1
60
0
100
AcDbCircle
39
0
10
-406.658769
20
43.099776
30
0
40
1.035
210
0
220
0
230
-1
100
AcDbArc
50
122
51
181.950841
0
ARC
5
141
100
AcDbEntity
8
1
62
256
6
ByLayer
370
18
48
1
60
0
100
AcDbCircle
39
0
10
-406.658769
20
43.099776
30
0
40
1.035
210
0
220
0
230
-1
100
AcDbArc
50
242.049159
51
302
0
ARC
5
143
100
AcDbEntity
8
1
62
256
6
ByLayer
370
18
48
1
60
0
100
AcDbCircle
39
0
10
406.658769
20
43.099776
30
0
40
0.747999999999999
210
0
220
0
230
1
100
AcDbArc
50
150.161847
51
208.024579
0
ARC
5
144
100
AcDbEntity
8
1
62
256
6
ByLayer
370
18
48
1
60
0
100
AcDbCircle
39
0
10
406.658769
20
43.099776
30
0
40
0.747999999999999
210
0
220
0
230
1
100
AcDbArc
50
87.975421
51
145.838153
0
ARC
5
145
100
AcDbEntity
8
1
62
256
6
ByLayer
370
18
48
1
60
0
100
AcDbCircle
39
0
10
406.658769
20
43.099776
30
0
40
0.747999999999999
210
0
220
0
230
1
100
AcDbArc
50
28.024579
51
87.975421
0
ARC
5
146
100
AcDbEntity
8
1
62
256
6
ByLayer
370
18
48
1
60
0
100
AcDbCircle
39
0
10
406.658769
20
43.099776
30
0
40
0.747999999999999
210
0
220
0
230
1
100
AcDbArc
50
330.161847
51
28.024579
0
ARC
5
147
100
AcDbEntity
8
1
62
256
6
ByLayer
370
18
48
1
60
0
100
AcDbCircle
39
0
10
406.658769
20
43.099776
30
0
40
0.747999999999999
210
0
220
0
230
1
100
AcDbArc
50
267.975421
51
325.838153
0
ARC
5
148
100
AcDbEntity
8
1
62
256
6
ByLayer
370
18
48
1
60
0
100
AcDbCircle
39
0
10
406.658769
20
43.099776
30
0
40
0.747999999999999
210
0
220
0
230
1
100
AcDbArc
50
208.024579
51
267.975421
0
ARC
5
149
100
AcDbEntity
8
1
62
256
6
ByLayer
370
18
48
1
60
0
100
AcDbCircle
39
0
10
-402.271646
20
44.174237
30
0
40
1.25000000000677
210
0
220
0
230
-1
100
AcDbArc
50
54
51
120.747656
0
ARC
5
14A
100
AcDbEntity
8
1
62
256
6
ByLayer
370
18
48
1
60
0
100
AcDbCircle
39
0
10
-402.252464
20
44.068305
30
0
40
1.25
210
0
220
0
230
-1
100
AcDbArc
50
32
51
122
0
ARC
5
14B
100
AcDbEntity
8
1
62
256
6
ByLayer
370
18
48
1
60
0
100
AcDbCircle
39
0
10
-402.146481
20
43.898696
30
0
40
1.25
210
0
220
0
230
-1
100
AcDbArc
50
20.769869
51
32
0
ARC
5
14C
100
AcDbEntity
8
1
62
256
6
ByLayer
370
18
48
1
60
0
100
AcDbCircle
39
0
10
401.061961
20
43.29535
30
0
40
1.05000000000009
210
0
220
0
230
1
100
AcDbArc
50
94.602037
51
307.073559
0
ARC
5
14D
100
AcDbEntity
8
1
62
256
6
ByLayer
370
18
48
1
60
0
100
AcDbCircle
39
0
10
-401.061961
20
43.29535
30
0
40
1.05000000000009
210
0
220
0
230
-1
100
AcDbArc
50
85.397963
51
131.088346
0
ARC
5
14E
100
AcDbEntity
8
1
62
256
6
ByLayer
370
18
48
1
60
0
100
AcDbCircle
39
0
10
366.7
20
-39.7
30
0
40
0.3
210
0
220
0
230
1
100
AcDbArc
50
270
51
0
0
ARC
5
14F
100
AcDbEntity
8
1
62
256
6
ByLayer
370
18
48
1
60
0
100
AcDbCircle
39
0
10
366.7
20
39.7
30
0
40
0.3
210
0
220
0
230
1
100
AcDbArc
50
0
51
90
0
ARC
5
154
100
AcDbEntity
8
1
62
256
6
ByLayer
370
18
48
1
60
0
100
AcDbCircle
39
0
10
-387
20
14.5
30
0
40
2
210
0
220
0
230
-1
100
AcDbArc
50
57.840147
51
117.840147
0
ARC
5
155
100
AcDbEntity
8
1
62
256
6
ByLayer
370
18
48
1
60
0
100
AcDbCircle
39
0
10
-387
20
14.5
30
0
40
2
210
0
220
0
230
-1
100
AcDbArc
50
117.840147
51
177.840147
0
ARC
5
156
100
AcDbEntity
8
1
62
256
6
ByLayer
370
18
48
1
60
0
100
AcDbCircle
39
0
10
-387
20
14.5
30
0
40
2
210
0
220
0
230
-1
100
AcDbArc
50
357.840147
51
57.840147
0
ARC
5
157
100
AcDbEntity
8
1
62
256
6
ByLayer
370
18
48
1
60
0
100
AcDbCircle
39
0
10
-387
20
14.5
30
0
40
2
210
0
220
0
230
-1
100
AcDbArc
50
177.840147
51
237.840147
0
ARC
5
158
100
AcDbEntity
8
1
62
256
6
ByLayer
370
18
48
1
60
0
100
AcDbCircle
39
0
10
-387
20
14.5
30
0
40
2
210
0
220
0
230
-1
100
AcDbArc
50
297.840147
51
357.840147
0
ARC
5
159
100
AcDbEntity
8
1
62
256
6
ByLayer
370
18
48
1
60
0
100
AcDbCircle
39
0
10
-387
20
14.5
30
0
40
2
210
0
220
0
230
-1
100
AcDbArc
50
237.840147
51
297.840147
0
CIRCLE
5
133
100
AcDbEntity
8
1
62
256
6
ByLayer
370
18
48
1
60
0
100
AcDbCircle
10
-406.658769
20
43.099776
30
0
40
1.90468944117779
39
0
210
0
220
0
230
-1
0
CIRCLE
5
137
100
AcDbEntity
8
1
62
256
6
ByLayer
370
13
48
1
60
0
100
AcDbCircle
10
-406.658769
20
43.099776
30
0
40
1.88122167929295
39
0
210
0
220
0
230
-1
0
CIRCLE
5
138
100
AcDbEntity
8
1
62
256
6
ByLayer
370
13
48
1
60
0
100
AcDbCircle
10
406.658769
20
43.099776
30
0
40
1.8014146404184
39
0
210
0
220
0
230
1
0
CIRCLE
5
13F
100
AcDbEntity
8
1
62
256
6
ByLayer
370
18
48
1
60
0
100
AcDbCircle
10
-406.658769
20
43.099776
30
0
40
1.3
39
0
210
0
220
0
230
-1
0
CIRCLE
5
142
100
AcDbEntity
8
1
62
256
6
ByLayer
370
18
48
1
60
0
100
AcDbCircle
10
-406.658769
20
43.099776
30
0
40
1.725
39
0
210
0
220
0
230
-1
0
CIRCLE
5
150
100
AcDbEntity
8
1
62
256
6
ByLayer
370
18
48
1
60
0
100
AcDbCircle
10
387
20
14.5
30
0
40
4.25
39
0
210
0
220
0
230
1
0
CIRCLE
5
151
100
AcDbEntity
8
1
62
256
6
ByLayer
370
18
48
1
60
0
100
AcDbCircle
10
397.75
20
14.5
30
0
40
4.009
39
0
210
0
220
0
230
1
0
CIRCLE
5
152
100
AcDbEntity
8
1
62
256
6
ByLayer
370
18
48
1
60
0
100
AcDbCircle
10
387
20
14.5
30
0
40
4
39
0
210
0
220
0
230
1
0
CIRCLE
5
153
100
AcDbEntity
8
1
62
256
6
ByLayer
370
18
48
1
60
0
100
AcDbCircle
10
387
20
14.5
30
0
40
3.5
39
0
210
0
220
0
230
1
0
CIRCLE
5
15A
100
AcDbEntity
8
1
62
256
6
ByLayer
370
18
48
1
60
0
100
AcDbCircle
10
397.75
20
14.5
30
0
40
4
39
0
210
0
220
0
230
1
0
ELLIPSE
5
15B
100
AcDbEntity
8
1
62
256
6
ByLayer
370
18
48
1
60
0
100
AcDbEllipse
10
408.642593
20
22.425215
30
0
11
43.3315429941955
21
4.03307710098482
31
0
210
0
220
0
230
-1
40
0.573509
41
-1.59737151638389
42
-1.5736985679933
0
ELLIPSE
5
15C
100
AcDbEntity
8
1
62
256
6
ByLayer
370
18
48
1
60
0
100
AcDbEllipse
10
432.862257
20
23.692753
30
0
11
285.758785660689
21
15.091314561353
31
0
210
0
220
0
230
-1
40
0.08737
41
-1.67642383960552
42
-1.66320969948103
0
ELLIPSE
5
15D
100
AcDbEntity
8
1
62
256
6
ByLayer
370
18
48
1
60
0
100
AcDbEllipse
10
-6.763884
20
0
30
0
11
18.7348357595701
21
39.4834983055082
31
0
210
0
220
0
230
-1
40
0.341999
41
0.161099005228937
42
1.08794676716913
0
ELLIPSE
5
15E
100
AcDbEntity
8
1
62
256
6
ByLayer
370
18
48
1
60
0
100
AcDbEllipse
10
30.763884
20
0
30
0
11
18.7348357595691
21
-39.4834983055065
31
0
210
0
220
0
230
-1
40
0.341999
41
2.05364588642063
42
2.98049364836085
0
ELLIPSE
5
15F
100
AcDbEntity
8
1
62
256
6
ByLayer
370
18
48
1
60
0
100
AcDbEllipse
10
-6.763884
20
0
30
0
11
18.7348357595702
21
-39.4834983055082
31
0
210
0
220
0
230
-1
40
0.341999
41
-1.08794676716913
42
-0.161099005228937
0
ELLIPSE
5
160
100
AcDbEntity
8
1
62
256
6
ByLayer
370
18
48
1
60
0
100
AcDbEllipse
10
30.763884
20
0
30
0
11
18.7348357595653
21
39.4834983055017
31
0
210
0
220
0
230
-1
40
0.341999
41
-2.98049364836084
42
-2.05364588642054
0
ELLIPSE
5
161
100
AcDbEntity
8
1
62
256
6
ByLayer
370
18
48
1
60
0
100
AcDbEllipse
10
386.371315
20
0
30
0
11
-2.44921270764476E-15
21
40.0000000000001
31
0
210
0
220
0
230
-1
40
0.36397
41
-2.40239257587871
42
-0.739200077711087
0
ELLIPSE
5
162
100
AcDbEntity
8
1
62
256
6
ByLayer
370
18
48
1
60
0
100
AcDbEllipse
10
173.544232
20
-4.661947
30
0
11
423.18754892947
21
15.3487615799898
31
0
210
0
220
0
230
-1
40
0.09911
41
-1.07883271338104
42
-1.07738296983223
0
ELLIPSE
5
163
100
AcDbEntity
8
1
62
256
6
ByLayer
370
18
48
1
60
0
100
AcDbEllipse
10
163.058118
20
-0.118404
30
0
11
396.341731478513
21
12.6414874087038
31
0
210
0
220
0
230
-1
40
0.096065
41
-1.01149687642158
42
-1.00934659556413
0
POINT
5
6C
100
AcDbEntity
8
80
62
256
6
ByLayer
370
18
48
0.05
60
0
100
AcDbPoint
10
0
20
0
30
0
39
0
210
0
220
0
230
1
50
360
0
POINT
5
6E
100
AcDbEntity
8
81
62
256
6
ByLayer
370
18
48
0.05
60
0
100
AcDbPoint
10
410
20
48.291469
30
0
39
0
210
0
220
0
230
1
50
360
0
POINT
5
70
100
AcDbEntity
8
1
62
256
6
ByLayer
370
18
48
1
60
0
100
AcDbPoint
10
410
20
48.208531
30
0
39
0
210
0
220
0
230
1
50
360
0
SPLINE
5
164
100
AcDbEntity
8
SK1
62
256
6
ByLayer
370
18
48
1
60
0
100
AcDbSpline
70
4
71
3
72
28
73
24
40
0
40
0
40
0
40
0
40
0.533250730054745
40
0.533250730054745
40
0.615777827787283
40
0.615777827787283
40
0.699198596027313
40
0.699198596027313
40
0.729416039268633
40
0.729416039268633
40
0.760074959750417
40
0.760074959750417
40
0.779319787413178
40
0.779319787413178
40
0.798665019454715
40
0.798665019454715
40
0.822099441306898
40
0.822099441306898
40
0.86143675643697
40
0.86143675643697
40
0.977101147328899
40
0.977101147328899
40
1
40
1
40
1
40
1
41
1
10
0
20
27.4140254419659
30
0
41
1
10
0
20
27.3730477373553
30
0
41
1
10
-0.0022321537440888
20
27.3286353487808
30
0
41
1
10
-0.0272570024394838
20
27.2634157162243
30
0
41
1
10
-0.0312351655533263
20
27.2542518263515
30
0
41
1
10
-0.0414347357474441
20
27.2347646258868
30
0
41
1
10
-0.047600620031119
20
27.224362497206
30
0
41
1
10
-0.0596855137174259
20
27.2089035986666
30
0
41
1
10
-0.0633134736516041
20
27.2046202407728
30
0
41
1
10
-0.0717711513547954
20
27.1957802519915
30
0
41
1
10
-0.0767266033180505
20
27.1911121098636
30
0
41
1
10
-0.0860232725879655
20
27.1837169106295
30
0
41
1
10
-0.0899979304273302
20
27.1808582426265
30
0
41
1
10
-0.0982231679151795
20
27.1756413184972
30
0
41
1
10
-0.102572467501446
20
27.1732284179764
30
0
41
1
10
-0.111838420002798
20
27.1687544076928
30
0
41
1
10
-0.116821259822899
20
27.1667910614834
30
0
41
1
10
-0.129155630730821
20
27.1627307448198
30
0
41
1
10
-0.136135025510924
20
27.1612859818144
30
0
41
1
10
-0.160867267776851
20
27.1578959700864
30
0
41
1
10
-0.175020437469655
20
27.1596766426528
30
0
41
1
10
-0.190144233354218
20
27.1629148892922
30
0
41
1
10
-0.192590171002621
20
27.1635071851222
30
0
41
1
10
-0.194976888875288
20
27.1641448091073
30
0
0
SPLINE
5
165
100
AcDbEntity
8
SK1
62
256
6
ByLayer
370
18
48
1
60
0
100
AcDbSpline
70
4
71
3
72
18
73
14
40
0
40
0
40
0
40
0
40
0.0418587853870226
40
0.0418587853870226
40
0.125923324624864
40
0.125923324624864
40
0.227916528318073
40
0.227916528318073
40
0.399272855688626
40
0.399272855688626
40
0.903572315361453
40
0.903572315361453
40
1
40
1
40
1
40
1
41
1
10
-0.0881052980999044
20
-21.6820889553384
30
0
41
1
10
-0.0900649342956257
20
-21.681783992979
30
0
41
1
10
-0.0920881991826263
20
-21.6813357170027
30
0
41
1
10
-0.0982659956185472
20
-21.6795285998721
30
0
41
1
10
-0.102616264711998
20
-21.6776707068767
30
0
41
1
10
-0.111891047173941
20
-21.6726056509048
30
0
41
1
10
-0.11688108802845
20
-21.6691468388434
30
0
41
1
10
-0.129239031304437
20
-21.6592830356822
30
0
41
1
10
-0.136232333275785
20
-21.6523163984789
30
0
41
1
10
-0.161029691701287
20
-21.6248605161811
30
0
41
1
10
-0.175217524472657
20
-21.6032206285962
30
0
41
1
10
-0.19029203907192
20
-21.5780871246871
30
0
41
1
10
-0.192662310391853
20
-21.5740318554878
30
0
41
1
10
-0.194976888875288
20
-21.5699808853227
30
0
0
SPLINE
5
166
100
AcDbEntity
8
SK1
62
256
6
ByLayer
370
18
48
1
60
0
100
AcDbSpline
70
4
71
3
72
28
73
24
40
0
40
0
40
0
40
0
40
0.533063946564248
40
0.533063946564248
40
0.615677731546553
40
0.615677731546553
40
0.699137707515984
40
0.699137707515984
40
0.729324278668642
40
0.729324278668642
40
0.759950551007435
40
0.759950551007435
40
0.779180248418969
40
0.779180248418969
40
0.79851138719828
40
0.79851138719828
40
0.821894637815005
40
0.821894637815005
40
0.861114982965007
40
0.861114982965007
40
0.976344341081211
40
0.976344341081211
40
1
40
1
40
1
40
1
41
1
10
0
20
-6.05669285502336
30
0
41
1
10
0
20
-5.92608709513712
30
0
41
1
10
-0.0022379016399725
20
-5.79321283245361
30
0
41
1
10
-0.0272394005765051
20
-5.64130401614443
30
0
41
1
10
-0.031218970958534
20
-5.62080968412596
30
0
41
1
10
-0.0414216385291297
20
-5.58021432061008
30
0
41
1
10
-0.0475876079980395
20
-5.5598212256927
30
0
41
1
10
-0.0596716467606058
20
-5.53401288355332
30
0
41
1
10
-0.063295106132415
20
-5.52729576246503
30
0
41
1
10
-0.0717416607094492
20
-5.51484651517518
30
0
41
1
10
-0.0766898902250404
20
-5.50898703388901
30
0
41
1
10
-0.0859752800625273
20
-5.50172439214833
30
0
41
1
10
-0.0899460896655455
20
-5.49944780594746
30
0
41
1
10
-0.0981654865798731
20
-5.49662043549642
30
0
41
1
10
-0.102512847294847
20
-5.49605636772503
30
0
41
1
10
-0.111768377542958
20
-5.49662652519027
30
0
41
1
10
-0.116743330407758
20
-5.49810535458238
30
0
41
1
10
-0.129053021840363
20
-5.50385584975851
30
0
41
1
10
-0.136017983219105
20
-5.50933616384225
30
0
41
1
10
-0.1606855088732
20
-5.53320723705565
30
0
41
1
10
-0.174804308508584
20
-5.55645956160583
30
0
41
1
10
-0.189984540931078
20
-5.58495077378961
30
0
41
1
10
-0.192512281537589
20
-5.58988652271256
30
0
41
1
10
-0.194976888875288
20
-5.59486561641216
30
0
0
SPLINE
5
167
100
AcDbEntity
8
SK1
62
256
6
ByLayer
370
18
48
1
60
0
100
AcDbSpline
70
4
71
3
72
24
73
20
40
0
40
0
40
0
40
0
40
0.0818083107272343
40
0.0818083107272343
40
0.16475565535235
40
0.16475565535235
40
0.196837586968118
40
0.196837586968118
40
0.229441190741102
40
0.229441190741102
40
0.258402406597506
40
0.258402406597506
40
0.29488743341136
40
0.29488743341136
40
0.359191989028868
40
0.359191989028868
40
0.559662388378514
40
0.559662388378514
40
1
40
1
40
1
40
1
41
1
10
-0.194976888875288
20
-5.59486561641216
30
0
41
1
10
-0.223329335851929
20
-5.65214431064879
30
0
41
1
10
-0.254848440292093
20
-5.70823254343719
30
0
41
1
10
-0.328984510766617
20
-5.81397530077459
30
0
41
1
10
-0.372256681199133
20
-5.86519840588574
30
0
41
1
10
-0.447285543692416
20
-5.91920456599911
30
0
41
1
10
-0.470384083964433
20
-5.93251818947715
30
0
41
1
10
-0.520049347295696
20
-5.95176066961744
30
0
41
1
10
-0.547409294952658
20
-5.95763888003245
30
0
41
1
10
-0.598801772865386
20
-5.95845211545708
30
0
41
1
10
-0.623454388624964
20
-5.95453594316967
30
0
41
1
10
-0.67536832181608
20
-5.93806311297527
30
0
41
1
10
-0.702536203793258
20
-5.92350895781163
30
0
41
1
10
-0.769934734265206
20
-5.87654085269111
30
0
41
1
10
-0.806331221632888
20
-5.83847396191157
30
0
41
1
10
-0.937034670252146
20
-5.67484935216652
30
0
41
1
10
-1.00218808599797
20
-5.5291423992856
30
0
41
1
10
-1.18082117842569
20
-5.06364228087051
30
0
41
1
10
-1.25513668915694
20
-4.72514722061266
30
0
41
1
10
-1.31543506509628
20
-4.38400264074443
30
0
0
SPLINE
5
168
100
AcDbEntity
8
SK1
62
256
6
ByLayer
370
18
48
1
60
0
100
AcDbSpline
70
4
71
3
72
12
73
8
40
0
40
0
40
0
40
0
40
0.500000000000014
40
0.500000000000014
40
0.750000000000007
40
0.750000000000007
40
1
40
1
40
1
40
1
41
1
10
-1.31543506509497
20
4.38399907131424
30
0
41
1
10
-1.24700119464249
20
4.7711727396748
30
0
41
1
10
-1.16579385952876
20
5.15013432870938
30
0
41
1
10
-0.928819019228328
20
5.68295696907956
30
0
41
1
10
-0.835741475097493
20
5.90239220086784
30
0
41
1
10
-0.423973635603858
20
6.00134246061475
30
0
41
1
10
-0.282376096655625
20
5.77143424901635
30
0
41
1
10
-0.194976888875288
20
5.59486670063148
30
0
0
SPLINE
5
169
100
AcDbEntity
8
SK1
62
256
6
ByLayer
370
18
48
1
60
0
100
AcDbSpline
70
4
71
2
72
6
73
3
40
0
40
0
40
0
40
1
40
1
40
1
41
1
10
-46.5
20
-26.3942121249598
30
0
41
1
10
-24.2499999944402
20
-26.9527153350038
30
0
41
1
10
-2
20
-27.5112150367615
30
0
0
SPLINE
5
16A
100
AcDbEntity
8
SK1
62
256
6
ByLayer
370
18
48
1
60
0
100
AcDbSpline
70
4
71
2
72
6
73
3
40
0
40
0
40
0
40
1
40
1
40
1
41
1
10
-2
20
27.5112149532756
30
0
41
1
10
-24.2499999944407
20
26.9527152505108
30
0
41
1
10
-46.5
20
26.3942120396763
30
0
0
SPLINE
5
16B
100
AcDbEntity
8
SK1
62
256
6
ByLayer
370
18
48
1
60
0
100
AcDbSpline
70
4
71
3
72
45
73
41
40
0
40
0
40
0
40
0
40
0.0184134321063854
40
0.0467420403623803
40
0.0750706486183752
40
0.10339925687437
40
0.16005647338636
40
0.21671368989835
40
0.245042298154345
40
0.27337090641034
40
0.301699514666334
40
0.330028122922329
40
0.358356731178324
40
0.386685339434319
40
0.415013947690314
40
0.443342555946309
40
0.457506860074307
40
0.471671164202304
40
0.485835468330301
40
0.4929176203943
40
0.499999772458299
40
0.507081924522298
40
0.514164076586296
40
0.528328380714294
40
0.542492684842291
40
0.556656988970289
40
0.584985597226284
40
0.613314205482279
40
0.641642813738273
40
0.669971421994268
40
0.698300030250263
40
0.726628638506258
40
0.754957246762253
40
0.783285855018248
40
0.839943071530238
40
0.896600288042228
40
0.924928896298223
40
0.953257504554217
40
0.981586112810212
40
1
40
1
40
1
40
1
41
1
10
-2
20
27.5113148295508
30
0
41
1
10
-2
20
27.4931239834141
30
0
41
1
10
-2
20
27.4019637876331
30
0
41
1
10
-2
20
27.0892770054731
30
0
41
1
10
-2
20
26.5321468226081
30
0
41
1
10
-2
20
25.542259669074
30
0
41
1
10
-2
20
23.8766923262168
30
0
41
1
10
-2
20
21.702208917063
30
0
41
1
10
-2
20
19.6790533569495
30
0
41
1
10
-2
20
18.0238296493219
30
0
41
1
10
-2
20
16.2329033590101
30
0
41
1
10
-2
20
14.3089537138221
30
0
41
1
10
-2
20
12.2524061779463
30
0
41
1
10
-2
20
10.0637595764898
30
0
41
1
10
-2
20
7.74249262348104
30
0
41
1
10
-2
20
5.6968741246605
30
0
41
1
10
-2
20
3.99511747669322
30
0
41
1
10
-2
20
2.68756528296029
30
0
41
1
10
-2
20
1.57505595835931
30
0
41
1
10
-2
20
0.676418049162749
30
0
41
1
10
-2
20
-8.18359922E-08
30
0
41
1
10
-2
20
-0.676418190353559
30
0
41
1
10
-2
20
-1.57505605731836
30
0
41
1
10
-2
20
-2.6875654958946
30
0
41
1
10
-2
20
-3.99511793703579
30
0
41
1
10
-2
20
-5.69687408318981
30
0
41
1
10
-2
20
-7.74249276938195
30
0
41
1
10
-2
20
-10.0637597446106
30
0
41
1
10
-2
20
-12.2524062028726
30
0
41
1
10
-2
20
-14.3089537361689
30
0
41
1
10
-2
20
-16.232903025313
30
0
41
1
10
-2
20
-18.0238292606517
30
0
41
1
10
-2
20
-19.6790531812329
30
0
41
1
10
-2
20
-21.7022096763189
30
0
41
1
10
-2
20
-23.87668963589
30
0
41
1
10
-2
20
-25.5422639371944
30
0
41
1
10
-2
20
-26.5321468249087
30
0
41
1
10
-2
20
-27.0892772667924
30
0
41
1
10
-2
20
-27.4019656627741
30
0
41
1
10
-2
20
-27.4931257428403
30
0
41
1
10
-2
20
-27.5113161696202
30
0
0
SPLINE
5
16C
100
AcDbEntity
8
SK1
62
256
6
ByLayer
370
18
48
1
60
0
100
AcDbSpline
70
4
71
3
72
45
73
41
40
0
40
0
40
0
40
0
40
0.0184335563982699
40
0.0467610063920373
40
0.0750884563858046
40
0.103415906379572
40
0.160070806367107
40
0.216725706354642
40
0.245053156348409
40
0.273380606342176
40
0.301708056335944
40
0.330035506329711
40
0.358362956323479
40
0.386690406317246
40
0.415017856311013
40
0.443345306304781
40
0.457509031301664
40
0.471672756298548
40
0.485836481295432
40
0.492918343793874
40
0.500000206292316
40
0.507082068790757
40
0.514163931289199
40
0.528327656286083
40
0.542491381282967
40
0.55665510627985
40
0.584982556273618
40
0.613310006267385
40
0.641637456261153
40
0.66996490625492
40
0.698292356248687
40
0.726619806242455
40
0.754947256236222
40
0.78327470622999
40
0.839929606217524
40
0.896584506205059
40
0.924911956198827
40
0.953239406192594
40
0.981566856186361
40
1
40
1
40
1
40
1
41
1
10
-46.5
20
26.394272094223
30
0
41
1
10
-46.5
20
26.3767092163171
30
0
41
1
10
-46.5
20
26.2888439710512
30
0
41
1
10
-46.5
20
25.9864884897081
30
0
41
1
10
-46.5
20
25.4462941395275
30
0
41
1
10
-46.5
20
24.4826071472144
30
0
41
1
10
-46.5
20
22.8634674814268
30
0
41
1
10
-46.5
20
20.7477978818629
30
0
41
1
10
-46.5
20
18.7736711094486
30
0
41
1
10
-46.5
20
17.1623226058104
30
0
41
1
10
-46.5
20
15.4206187950807
30
0
41
1
10
-46.5
20
13.5524250589531
30
0
41
1
10
-46.5
20
11.5601449976774
30
0
41
1
10
-46.5
20
9.44716984252187
30
0
41
1
10
-46.5
20
7.21817811646048
30
0
41
1
10
-46.5
20
5.27511525414349
30
0
41
1
10
-46.5
20
3.665786778474
30
0
41
1
10
-46.5
20
2.44929422361162
30
0
41
1
10
-46.5
20
1.43224163583795
30
0
41
1
10
-46.5
20
0.611404309556463
30
0
41
1
10
-46.5
20
2.926823868E-07
30
0
41
1
10
-46.5
20
-0.611403917687028
30
0
41
1
10
-46.5
20
-1.43224195164237
30
0
41
1
10
-46.5
20
-2.44929526971754
30
0
41
1
10
-46.5
20
-3.66578709604494
30
0
41
1
10
-46.5
20
-5.27511481425796
30
0
41
1
10
-46.5
20
-7.21817840922165
30
0
41
1
10
-46.5
20
-9.44716998233639
30
0
41
1
10
-46.5
20
-11.5601449487444
30
0
41
1
10
-46.5
20
-13.5524250004931
30
0
41
1
10
-46.5
20
-15.4206184072864
30
0
41
1
10
-46.5
20
-17.1623222405148
30
0
41
1
10
-46.5
20
-18.7736710724967
30
0
41
1
10
-46.5
20
-20.7477984607116
30
0
41
1
10
-46.5
20
-22.8634650617874
30
0
41
1
10
-46.5
20
-24.482611412206
30
0
41
1
10
-46.5
20
-25.4462940150439
30
0
41
1
10
-46.5
20
-25.986488744709
30
0
41
1
10
-46.5
20
-26.2888422876916
30
0
41
1
10
-46.5
20
-26.3767076490665
30
0
41
1
10
-46.5
20
-26.3942709054188
30
0
0
SPLINE
5
16D
100
AcDbEntity
8
SK1
62
256
6
ByLayer
370
18
48
1
60
0
100
AcDbSpline
70
4
71
3
72
13
73
9
40
0
40
0
40
0
40
0
40
0.239404237444312
40
0.368290935227324
40
0.499924386713181
40
0.631570377731019
40
0.760491679444801
40
1
40
1
40
1
40
1
41
1
10
-2
20
-27.5251040814076
30
0
41
1
10
-1.99909118353403
20
-27.4990573435655
30
0
41
1
10
-1.99103204131599
20
-27.4617007168948
30
0
41
1
10
-1.96563486157083
20
-27.4155034456483
30
0
41
1
10
-1.93886237725941
20
-27.3842363671187
30
0
41
1
10
-1.9062756087901
20
-27.3590808959352
30
0
41
1
10
-1.8588385310216
20
-27.3360479605511
30
0
41
1
10
-1.82110920461693
20
-27.3298784616368
30
0
41
1
10
-1.7950399779393
20
-27.330280595868
30
0
0
SPLINE
5
16E
100
AcDbEntity
8
SK1
62
256
6
ByLayer
370
18
48
1
60
0
100
AcDbSpline
70
4
71
3
72
13
73
9
40
0
40
0
40
0
40
0
40
0.239508320587689
40
0.368429622314875
40
0.500075613338397
40
0.631709064821884
40
0.760595762593252
40
1
40
1
40
1
40
1
41
1
10
-1.7950399779393
20
27.3302805930528
30
0
41
1
10
-1.82110920461648
20
27.3298784588218
30
0
41
1
10
-1.85883853102087
20
27.3360479577336
30
0
41
1
10
-1.90627560878894
20
27.3590808931095
30
0
41
1
10
-1.93886237725854
20
27.3842363642833
30
0
41
1
10
-1.96563486156992
20
27.4155034428019
30
0
41
1
10
-1.99103204131541
20
27.4617007140312
30
0
41
1
10
-1.99909118353341
20
27.4990573406898
30
0
41
1
10
-2
20
27.5251040785232
30
0
0
SPLINE
5
16F
100
AcDbEntity
8
SK1
62
256
6
ByLayer
370
13
48
1
60
0
100
AcDbSpline
70
4
71
3
72
45
73
41
40
0
40
0
40
0
40
0
40
0.0271961856895324
40
0.0550108126085762
40
0.08282543952762
40
0.110640066446664
40
0.166269320284751
40
0.221898574122839
40
0.249713201041883
40
0.277527827960927
40
0.30534245487997
40
0.333157081799014
40
0.360971708718058
40
0.388786335637102
40
0.416600962556145
40
0.444415589475189
40
0.458322902934711
40
0.472230216394233
40
0.486137529853755
40
0.493091186583516
40
0.500044843313277
40
0.506998500043038
40
0.513952156772799
40
0.527859470232321
40
0.541766783691843
40
0.555674097151365
40
0.583488724070408
40
0.611303350989452
40
0.639117977908496
40
0.66693260482754
40
0.694747231746584
40
0.722561858665627
40
0.750376485584671
40
0.778191112503715
40
0.833820366341803
40
0.88944962017989
40
0.917264247098934
40
0.945078874017978
40
0.972893500937022
40
1
40
1
40
1
40
1
41
1
10
-1.7950399779393
20
27.3302803422792
30
0
41
1
10
-1.7950399779393
20
27.330398541206
30
0
41
1
10
-1.7950399779393
20
27.2463361381615
30
0
41
1
10
-1.7950399779393
20
26.8970143201696
30
0
41
1
10
-1.7950399779393
20
26.3428367693127
30
0
41
1
10
-1.7950399779393
20
25.3575174121237
30
0
41
1
10
-1.7950399779393
20
23.7000443772305
30
0
41
1
10
-1.7950399779393
20
21.5358147028617
30
0
41
1
10
-1.7950399779393
20
19.5212069343198
30
0
41
1
10
-1.7950399779393
20
17.8736325306309
30
0
41
1
10
-1.7950399779393
20
16.0912878005788
30
0
41
1
10
-1.7950399779393
20
14.177058768767
30
0
41
1
10
-1.7950399779393
20
12.131715772173
30
0
41
1
10
-1.7950399779393
20
9.95626190464384
30
0
41
1
10
-1.7950399779393
20
7.65108242685466
30
0
41
1
10
-1.7950399779393
20
5.62334371349192
30
0
41
1
10
-1.7950399779393
20
3.93770120558833
30
0
41
1
10
-1.7950399779393
20
2.64602455865491
30
0
41
1
10
-1.7950399779393
20
1.55015738102088
30
0
41
1
10
-1.7950399779393
20
0.665083404324093
30
0
41
1
10
-1.7950399779393
20
-1.65416054E-08
30
0
41
1
10
-1.7950399779393
20
-0.66508345257995
30
0
41
1
10
-1.7950399779393
20
-1.55015751778518
30
0
41
1
10
-1.7950399779393
20
-2.64602491684633
30
0
41
1
10
-1.7950399779393
20
-3.93770164103978
30
0
41
1
10
-1.7950399779393
20
-5.62334360256068
30
0
41
1
10
-1.7950399779393
20
-7.65108259835955
30
0
41
1
10
-1.7950399779393
20
-9.9562620678297
30
0
41
1
10
-1.7950399779393
20
-12.1317157842225
30
0
41
1
10
-1.7950399779393
20
-14.1770587770258
30
0
41
1
10
-1.7950399779393
20
-16.0912874574504
30
0
41
1
10
-1.7950399779393
20
-17.8736321460359
30
0
41
1
10
-1.7950399779393
20
-19.5212067827957
30
0
41
1
10
-1.7950399779393
20
-21.5358154306651
30
0
41
1
10
-1.7950399779393
20
-23.700041734096
30
0
41
1
10
-1.7950399779393
20
-25.3575216796987
30
0
41
1
10
-1.7950399779393
20
-26.3428367495094
30
0
41
1
10
-1.7950399779393
20
-26.8970145803873
30
0
41
1
10
-1.7950399779393
20
-27.245957823772
30
0
41
1
10
-1.7950399779393
20
-27.3301240394586
30
0
41
1
10
-1.7950399779393
20
-27.3302801548742
30
0
0
SPLINE
5
170
100
AcDbEntity
8
SK1
62
256
6
ByLayer
370
18
48
1
60
0
100
AcDbSpline
70
4
71
3
72
10
73
6
40
0
40
0
40
0
40
0
40
0.5
40
0.5
40
1
40
1
40
1
40
1
41
1
10
-1.31543506509497
20
-4.38400264074409
30
0
41
1
10
-1.56439631051781
20
-2.97547748314099
30
0
41
1
10
-1.75242867689093
20
-1.49009306398449
30
0
41
1
10
-1.75240608573227
20
1.49039849686221
30
0
41
1
10
-1.56449925027111
20
2.97488551987459
30
0
41
1
10
-1.3154350650947
20
4.38399907131412
30
0
0
SPLINE
5
171
100
AcDbEntity
8
SK1
62
256
6
ByLayer
370
18
48
1
60
0
100
AcDbSpline
70
4
71
2
72
6
73
3
40
0
40
0
40
0
40
1
40
1
40
1
41
1
10
-1.7950399779393
20
-27.3302802805385
30
0
41
1
10
-0.995008433390495
20
-27.3503705409136
30
0
41
1
10
-0.194976888875288
20
-27.3704608021962
30
0
0
SPLINE
5
172
100
AcDbEntity
8
SK1
62
256
6
ByLayer
370
18
48
1
60
0
100
AcDbSpline
70
4
71
2
72
6
73
3
40
0
40
0
40
0
40
1
40
1
40
1
41
1
10
-0.194976888875288
20
27.3704607993534
30
0
41
1
10
-0.995008433390495
20
27.350370538078
30
0
41
1
10
-1.7950399779393
20
27.3302802777101
30
0
0
SPLINE
5
173
100
AcDbEntity
8
SK1
62
256
6
ByLayer
370
18
48
1
60
0
100
AcDbSpline
70
4
71
2
72
6
73
3
40
0
40
0
40
0
40
1
40
1
40
1
41
1
10
-48
20
-25.5419663287412
30
0
41
1
10
-47.2499999132885
20
-25.9747784724426
30
0
41
1
10
-46.5
20
-26.4075907397315
30
0
0
SPLINE
5
174
100
AcDbEntity
8
SK1
62
256
6
ByLayer
370
18
48
1
60
0
100
AcDbSpline
70
4
71
2
72
6
73
3
40
0
40
0
40
0
40
1
40
1
40
1
41
1
10
-46.5
20
26.4075907442629
30
0
41
1
10
-47.2499999132837
20
25.9747784772615
30
0
41
1
10
-48
20
25.5419663338579
30
0
0
SPLINE
5
175
100
AcDbEntity
8
SK1
62
256
6
ByLayer
370
18
48
1
60
0
100
AcDbSpline
70
4
71
3
72
45
73
41
40
0
40
0
40
0
40
0
40
0.0277074455770838
40
0.0554893964597622
40
0.0832713473424406
40
0.111053298225119
40
0.166617199990476
40
0.222181101755833
40
0.249963052638511
40
0.27774500352119
40
0.305526954403868
40
0.333308905286546
40
0.361090856169225
40
0.388872807051903
40
0.416654757934582
40
0.44443670881726
40
0.458327684258599
40
0.472218659699938
40
0.486109635141277
40
0.493055122861947
40
0.500000610582617
40
0.506946098303286
40
0.513891586023956
40
0.527782561465295
40
0.541673536906634
40
0.555564512347973
40
0.583346463230652
40
0.61112841411333
40
0.638910364996009
40
0.666692315878687
40
0.694474266761365
40
0.722256217644044
40
0.750038168526722
40
0.777820119409401
40
0.833384021174758
40
0.888947922940114
40
0.916729873822793
40
0.944511824705471
40
0.972293775588149
40
1
40
1
40
1
40
1
41
1
10
-48
20
25.5419696485707
30
0
41
1
10
-48
20
25.5433532555109
30
0
41
1
10
-48
20
25.4650057795344
30
0
41
1
10
-48
20
25.1322423058368
30
0
41
1
10
-48
20
24.6051668540076
30
0
41
1
10
-48
20
23.6617751290281
30
0
41
1
10
-48
20
22.0785994449066
30
0
41
1
10
-48
20
20.0084884195235
30
0
41
1
10
-48
20
18.0723405108652
30
0
41
1
10
-48
20
16.4949787826047
30
0
41
1
10
-48
20
14.7914038739651
30
0
41
1
10
-48
20
12.9663999896199
30
0
41
1
10
-48
20
11.0239030410075
30
0
41
1
10
-48
20
8.96954478592528
30
0
41
1
10
-48
20
6.81203164289121
30
0
41
1
10
-48
20
4.94841081308101
30
0
41
1
10
-48
20
3.41067939554097
30
0
41
1
10
-48
20
2.26472380030219
30
0
41
1
10
-48
20
1.32161426869368
30
0
41
1
10
-48
20
0.561043122289902
30
0
41
1
10
-48
20
5.827932341E-07
30
0
41
1
10
-48
20
-0.561042317499357
30
0
41
1
10
-48
20
-1.3216147524717
30
0
41
1
10
-48
20
-2.26472549180261
30
0
41
1
10
-48
20
-3.41067960251758
30
0
41
1
10
-48
20
-4.94841006457398
30
0
41
1
10
-48
20
-6.81203204941386
30
0
41
1
10
-48
20
-8.96954490381307
30
0
41
1
10
-48
20
-11.0239029348613
30
0
41
1
10
-48
20
-12.966399868565
30
0
41
1
10
-48
20
-14.7914034442658
30
0
41
1
10
-48
20
-16.4949784354157
30
0
41
1
10
-48
20
-18.0723405814037
30
0
41
1
10
-48
20
-20.0084888586245
30
0
41
1
10
-48
20
-22.078597234948
30
0
41
1
10
-48
20
-23.6617793915961
30
0
41
1
10
-48
20
-24.6051666313139
30
0
41
1
10
-48
20
-25.1322425559434
30
0
41
1
10
-48
20
-25.465000840627
30
0
41
1
10
-48
20
-25.5433497995918
30
0
41
1
10
-48
20
-25.5419698340081
30
0
0
SPLINE
5
176
100
AcDbEntity
8
1
62
256
6
ByLayer
370
18
48
1
60
0
100
AcDbSpline
70
4
71
3
72
8
73
4
40
0
40
0
40
0
40
0
40
1
40
1
40
1
40
1
41
1
10
388.442837197837
20
-37.6199992418811
30
0
41
1
10
388.442196656266
20
-37.6251099242011
30
0
41
1
10
388.441556114694
20
-37.6302206065044
30
0
41
1
10
388.440915573119
20
-37.6353312887909
30
0
0
SPLINE
5
177
100
AcDbEntity
8
1
62
256
6
ByLayer
370
18
48
1
60
0
100
AcDbSpline
70
4
71
3
72
8
73
4
40
0
40
0
40
0
40
0
40
1
40
1
40
1
40
1
41
1
10
387.0375
20
-37.6199992887908
30
0
41
1
10
387.0375
20
-37.6251099554742
30
0
41
1
10
387.0375
20
-37.6302206221409
30
0
41
1
10
387.0375
20
-37.6353312887908
30
0
0
SPLINE
5
178
100
AcDbEntity
8
1
62
256
6
ByLayer
370
18
48
1
60
0
100
AcDbSpline
70
4
71
3
72
8
73
4
40
0
40
0
40
0
40
0
40
1
40
1
40
1
40
1
41
1
10
386.9625
20
-37.6199992887908
30
0
41
1
10
386.9625
20
-37.6251099554742
30
0
41
1
10
386.9625
20
-37.6302206221409
30
0
41
1
10
386.9625
20
-37.6353312887908
30
0
0
SPLINE
5
179
100
AcDbEntity
8
1
62
256
6
ByLayer
370
18
48
1
60
0
100
AcDbSpline
70
4
71
3
72
8
73
4
40
0
40
0
40
0
40
0
40
1
40
1
40
1
40
1
41
1
10
385.557162802163
20
-37.6199992418812
30
0
41
1
10
385.557803343734
20
-37.6251099242011
30
0
41
1
10
385.558443885306
20
-37.6302206065044
30
0
41
1
10
385.559084426881
20
-37.6353312887909
30
0
0
SPLINE
5
17A
100
AcDbEntity
8
1
62
256
6
ByLayer
370
18
48
1
60
0
100
AcDbSpline
70
4
71
3
72
8
73
4
40
0
40
0
40
0
40
0
40
1
40
1
40
1
40
1
41
1
10
385.482754199564
20
-37.6199992418812
30
0
41
1
10
385.483394741135
20
-37.6251099242011
30
0
41
1
10
385.484035282708
20
-37.6302206065044
30
0
41
1
10
385.484675824282
20
-37.6353312887909
30
0
0
SPLINE
5
17B
100
AcDbEntity
8
1
62
256
6
ByLayer
370
18
48
1
60
0
100
AcDbSpline
70
4
71
3
72
8
73
4
40
0
40
0
40
0
40
0
40
1
40
1
40
1
40
1
41
1
10
384.099580022635
20
-37.6199992973292
30
0
41
1
10
384.100850999456
20
-37.6251099611665
30
0
41
1
10
384.102121976282
20
-37.6302206249871
30
0
41
1
10
384.103392953112
20
-37.6353312887908
30
0
0
SPLINE
5
17C
100
AcDbEntity
8
1
62
256
6
ByLayer
370
18
48
1
60
0
100
AcDbSpline
70
4
71
3
72
8
73
4
40
0
40
0
40
0
40
0
40
1
40
1
40
1
40
1
41
1
10
384.02693628555
20
-37.6199992973292
30
0
41
1
10
384.028207262372
20
-37.6251099611665
30
0
41
1
10
384.029478239197
20
-37.6302206249871
30
0
41
1
10
384.030749216027
20
-37.6353312887908
30
0
0
SPLINE
5
17D
100
AcDbEntity
8
1
62
256
6
ByLayer
370
18
48
1
60
0
100
AcDbSpline
70
4
71
3
72
8
73
4
40
0
40
0
40
0
40
0
40
1
40
1
40
1
40
1
41
1
10
382.687738546441
20
-37.6199991740393
30
0
41
1
10
382.689619931894
20
-37.6251098789733
30
0
41
1
10
382.691501317354
20
-37.6302205838905
30
0
41
1
10
382.693382702821
20
-37.6353312887909
30
0
0
SPLINE
5
17E
100
AcDbEntity
8
1
62
256
6
ByLayer
370
18
48
1
60
0
100
AcDbSpline
70
4
71
3
72
8
73
4
40
0
40
0
40
0
40
0
40
1
40
1
40
1
40
1
41
1
10
382.618005309999
20
-37.6199991740393
30
0
41
1
10
382.619886695453
20
-37.6251098789732
30
0
41
1
10
382.621768080913
20
-37.6302205838904
30
0
41
1
10
382.623649466379
20
-37.6353312887908
30
0
0
SPLINE
5
17F
100
AcDbEntity
8
1
62
256
6
ByLayer
370
18
48
1
60
0
100
AcDbSpline
70
4
71
3
72
8
73
4
40
0
40
0
40
0
40
0
40
1
40
1
40
1
40
1
41
1
10
381.343903853871
20
-37.6199987875792
30
0
41
1
10
381.346366029224
20
-37.6251096213331
30
0
41
1
10
381.348828204585
20
-37.6302204550704
30
0
41
1
10
381.351290379955
20
-37.6353312887909
30
0
0
SPLINE
5
180
100
AcDbEntity
8
1
62
256
6
ByLayer
370
18
48
1
60
0
100
AcDbSpline
70
4
71
3
72
8
73
4
40
0
40
0
40
0
40
0
40
1
40
1
40
1
40
1
41
1
10
381.278180852867
20
-37.6199987875792
30
0
41
1
10
381.280643028221
20
-37.6251096213331
30
0
41
1
10
381.283105203582
20
-37.6302204550704
30
0
41
1
10
381.285567378952
20
-37.6353312887909
30
0
0
SPLINE
5
181
100
AcDbEntity
8
1
62
256
6
ByLayer
370
18
48
1
60
0
100
AcDbSpline
70
4
71
3
72
8
73
4
40
0
40
0
40
0
40
0
40
1
40
1
40
1
40
1
41
1
10
380.089269322333
20
-37.619998793965
30
0
41
1
10
380.092273408936
20
-37.6251096255903
30
0
41
1
10
380.09527749555
20
-37.630220457199
30
0
41
1
10
380.098281582172
20
-37.6353312887908
30
0
0
SPLINE
5
182
100
AcDbEntity
8
1
62
256
6
ByLayer
370
18
48
1
60
0
100
AcDbSpline
70
4
71
3
72
8
73
4
40
0
40
0
40
0
40
0
40
1
40
1
40
1
40
1
41
1
10
380.028593047755
20
-37.619998793965
30
0
41
1
10
380.031597134358
20
-37.6251096255903
30
0
41
1
10
380.034601220971
20
-37.630220457199
30
0
41
1
10
380.037605307594
20
-37.6353312887908
30
0
0
SPLINE
5
183
100
AcDbEntity
8
1
62
256
6
ByLayer
370
18
48
1
60
0
100
AcDbSpline
70
4
71
3
72
8
73
4
40
0
40
0
40
0
40
0
40
1
40
1
40
1
40
1
41
1
10
378.943621628875
20
-37.6199995099068
30
0
41
1
10
378.947120088147
20
-37.6251101028849
30
0
41
1
10
378.950618547431
20
-37.6302206958463
30
0
41
1
10
378.954117006726
20
-37.6353312887908
30
0
0
SPLINE
5
184
100
AcDbEntity
8
1
62
256
6
ByLayer
370
18
48
1
60
0
100
AcDbSpline
70
4
71
3
72
8
73
4
40
0
40
0
40
0
40
0
40
1
40
1
40
1
40
1
41
1
10
378.888948981818
20
-37.6199995099068
30
0
41
1
10
378.89244744109
20
-37.6251101028849
30
0
41
1
10
378.895945900374
20
-37.6302206958463
30
0
41
1
10
378.89944435967
20
-37.6353312887908
30
0
0
SPLINE
5
185
100
AcDbEntity
8
1
62
256
6
ByLayer
370
18
48
1
60
0
100
AcDbSpline
70
4
71
3
72
8
73
4
40
0
40
0
40
0
40
0
40
1
40
1
40
1
40
1
41
1
10
377.925026863692
20
-37.6199987955012
30
0
41
1
10
377.928964846602
20
-37.6251096266145
30
0
41
1
10
377.932902829525
20
-37.6302204577111
30
0
41
1
10
377.936840812461
20
-37.6353312887908
30
0
0
SPLINE
5
186
100
AcDbEntity
8
1
62
256
6
ByLayer
370
18
48
1
60
0
100
AcDbSpline
70
4
71
3
72
8
73
4
40
0
40
0
40
0
40
0
40
1
40
1
40
1
40
1
41
1
10
377.877220064461
20
-37.6199987955012
30
0
41
1
10
377.881158047371
20
-37.6251096266145
30
0
41
1
10
377.885096030294
20
-37.6302204577111
30
0
41
1
10
377.88903401323
20
-37.6353312887908
30
0
0
SPLINE
5
187
100
AcDbEntity
8
1
62
256
6
ByLayer
370
18
48
1
60
0
100
AcDbSpline
70
4
71
3
72
8
73
4
40
0
40
0
40
0
40
0
40
1
40
1
40
1
40
1
41
1
10
377.049550859066
20
-37.619999416139
30
0
41
1
10
377.053865923581
20
-37.625110040373
30
0
41
1
10
377.05818098811
20
-37.6302206645903
30
0
41
1
10
377.062496052653
20
-37.6353312887908
30
0
0
SPLINE
5
188
100
AcDbEntity
8
1
62
256
6
ByLayer
370
18
48
1
60
0
100
AcDbSpline
70
4
71
3
72
8
73
4
40
0
40
0
40
0
40
0
40
1
40
1
40
1
40
1
41
1
10
377.009363849443
20
-37.619999416139
30
0
41
1
10
377.013678913958
20
-37.625110040373
30
0
41
1
10
377.017993978486
20
-37.6302206645903
30
0
41
1
10
377.022309043029
20
-37.6353312887908
30
0
0
SPLINE
5
189
100
AcDbEntity
8
1
62
256
6
ByLayer
370
18
48
1
60
0
100
AcDbSpline
70
4
71
3
72
8
73
4
40
0
40
0
40
0
40
0
40
1
40
1
40
1
40
1
41
1
10
376.33099860392
20
-37.6199990852808
30
0
41
1
10
376.335622958089
20
-37.6251098198009
30
0
41
1
10
376.340247312272
20
-37.6302205543043
30
0
41
1
10
376.344871666471
20
-37.6353312887908
30
0
0
SPLINE
5
18A
100
AcDbEntity
8
1
62
256
6
ByLayer
370
18
48
1
60
0
100
AcDbSpline
70
4
71
3
72
8
73
4
40
0
40
0
40
0
40
0
40
1
40
1
40
1
40
1
41
1
10
376.299065157053
20
-37.6199990852809
30
0
41
1
10
376.303689511221
20
-37.6251098198009
30
0
41
1
10
376.308313865405
20
-37.6302205543043
30
0
41
1
10
376.312938219604
20
-37.6353312887908
30
0
0
SPLINE
5
18B
100
AcDbEntity
8
1
62
256
6
ByLayer
370
18
48
1
60
0
100
AcDbSpline
70
4
71
3
72
8
73
4
40
0
40
0
40
0
40
0
40
1
40
1
40
1
40
1
41
1
10
375.780703218476
20
-37.6199991536033
30
0
41
1
10
375.785563818693
20
-37.6251098653492
30
0
41
1
10
375.790424418926
20
-37.6302205770784
30
0
41
1
10
375.795285019174
20
-37.6353312887908
30
0
0
SPLINE
5
18C
100
AcDbEntity
8
1
62
256
6
ByLayer
370
18
48
1
60
0
100
AcDbSpline
70
4
71
3
72
8
73
4
40
0
40
0
40
0
40
0
40
1
40
1
40
1
40
1
41
1
10
375.757526943898
20
-37.6199991536033
30
0
41
1
10
375.762387544115
20
-37.6251098653492
30
0
41
1
10
375.767248144347
20
-37.6302205770784
30
0
41
1
10
375.772108744596
20
-37.6353312887908
30
0
0
SPLINE
5
18D
100
AcDbEntity
8
1
62
256
6
ByLayer
370
18
48
1
60
0
100
AcDbSpline
70
4
71
3
72
8
73
4
40
0
40
0
40
0
40
0
40
1
40
1
40
1
40
1
41
1
10
375.407342638296
20
-37.6199990057417
30
0
41
1
10
375.412362899013
20
-37.6251097667748
30
0
41
1
10
375.417383159747
20
-37.6302205277912
30
0
41
1
10
375.422403420497
20
-37.6353312887908
30
0
0
SPLINE
5
18E
100
AcDbEntity
8
1
62
256
6
ByLayer
370
18
48
1
60
0
100
AcDbSpline
70
4
71
3
72
8
73
4
40
0
40
0
40
0
40
0
40
1
40
1
40
1
40
1
41
1
10
375.393289039702
20
-37.6199990057418
30
0
41
1
10
375.398309300419
20
-37.6251097667749
30
0
41
1
10
375.403329561153
20
-37.6302205277913
30
0
41
1
10
375.408349821903
20
-37.6353312887909
30
0
0
SPLINE
5
18F
100
AcDbEntity
8
1
62
256
6
ByLayer
370
18
48
1
60
0
100
AcDbSpline
70
4
71
3
72
8
73
4
40
0
40
0
40
0
40
0
40
1
40
1
40
1
40
1
41
1
10
375.216805185232
20
-37.619998860234
30
0
41
1
10
375.221905935471
20
-37.6251096697697
30
0
41
1
10
375.227006685727
20
-37.6302204792887
30
0
41
1
10
375.232107436
20
-37.6353312887908
30
0
0
SPLINE
5
190
100
AcDbEntity
8
1
62
256
6
ByLayer
370
18
48
1
60
0
100
AcDbSpline
70
4
71
3
72
8
73
4
40
0
40
0
40
0
40
0
40
1
40
1
40
1
40
1
41
1
10
375.212095896268
20
-37.6199988602341
30
0
41
1
10
375.217196646507
20
-37.6251096697698
30
0
41
1
10
375.222297396762
20
-37.6302204792887
30
0
41
1
10
375.227398147035
20
-37.6353312887908
30
0
0
SPLINE
5
191
100
AcDbEntity
8
1
62
256
6
ByLayer
370
18
48
1
60
0
100
AcDbSpline
70
4
71
3
72
8
73
4
40
0
40
0
40
0
40
0
40
1
40
1
40
1
40
1
41
1
10
398.787904103732
20
-37.6199988602341
30
0
41
1
10
398.782803353493
20
-37.6251096697698
30
0
41
1
10
398.777702603238
20
-37.6302204792888
30
0
41
1
10
398.772601852965
20
-37.6353312887909
30
0
0
SPLINE
5
192
100
AcDbEntity
8
1
62
256
6
ByLayer
370
18
48
1
60
0
100
AcDbSpline
70
4
71
3
72
8
73
4
40
0
40
0
40
0
40
0
40
1
40
1
40
1
40
1
41
1
10
398.783194814768
20
-37.6199988602341
30
0
41
1
10
398.778094064528
20
-37.6251096697698
30
0
41
1
10
398.772993314273
20
-37.6302204792887
30
0
41
1
10
398.767892564
20
-37.6353312887908
30
0
0
SPLINE
5
193
100
AcDbEntity
8
1
62
256
6
ByLayer
370
18
48
1
60
0
100
AcDbSpline
70
4
71
3
72
8
73
4
40
0
40
0
40
0
40
0
40
1
40
1
40
1
40
1
41
1
10
398.606710960298
20
-37.6199990057418
30
0
41
1
10
398.60169069958
20
-37.6251097667749
30
0
41
1
10
398.596670438847
20
-37.6302205277913
30
0
41
1
10
398.591650178097
20
-37.6353312887909
30
0
0
SPLINE
5
194
100
AcDbEntity
8
1
62
256
6
ByLayer
370
18
48
1
60
0
100
AcDbSpline
70
4
71
3
72
8
73
4
40
0
40
0
40
0
40
0
40
1
40
1
40
1
40
1
41
1
10
398.592657361704
20
-37.6199990057417
30
0
41
1
10
398.587637100987
20
-37.6251097667748
30
0
41
1
10
398.582616840253
20
-37.6302205277912
30
0
41
1
10
398.577596579503
20
-37.6353312887908
30
0
0
SPLINE
5
195
100
AcDbEntity
8
1
62
256
6
ByLayer
370
18
48
1
60
0
100
AcDbSpline
70
4
71
3
72
8
73
4
40
0
40
0
40
0
40
0
40
1
40
1
40
1
40
1
41
1
10
398.242473056102
20
-37.6199991536033
30
0
41
1
10
398.237612455885
20
-37.6251098653493
30
0
41
1
10
398.232751855653
20
-37.6302205770785
30
0
41
1
10
398.227891255404
20
-37.6353312887909
30
0
0
SPLINE
5
196
100
AcDbEntity
8
1
62
256
6
ByLayer
370
18
48
1
60
0
100
AcDbSpline
70
4
71
3
72
8
73
4
40
0
40
0
40
0
40
0
40
1
40
1
40
1
40
1
41
1
10
398.219296781524
20
-37.6199991536033
30
0
41
1
10
398.214436181307
20
-37.6251098653493
30
0
41
1
10
398.209575581074
20
-37.6302205770785
30
0
41
1
10
398.204714980826
20
-37.6353312887909
30
0
0
SPLINE
5
197
100
AcDbEntity
8
1
62
256
6
ByLayer
370
18
48
1
60
0
100
AcDbSpline
70
4
71
3
72
8
73
4
40
0
40
0
40
0
40
0
40
1
40
1
40
1
40
1
41
1
10
397.700934842947
20
-37.6199990852809
30
0
41
1
10
397.696310488779
20
-37.625109819801
30
0
41
1
10
397.691686134595
20
-37.6302205543043
30
0
41
1
10
397.687061780396
20
-37.6353312887909
30
0
0
SPLINE
5
198
100
AcDbEntity
8
1
62
256
6
ByLayer
370
18
48
1
60
0
100
AcDbSpline
70
4
71
3
72
8
73
4
40
0
40
0
40
0
40
0
40
1
40
1
40
1
40
1
41
1
10
397.66900139608
20
-37.6199990852809
30
0
41
1
10
397.664377041911
20
-37.625109819801
30
0
41
1
10
397.659752687728
20
-37.6302205543043
30
0
41
1
10
397.655128333529
20
-37.6353312887909
30
0
0
SPLINE
5
199
100
AcDbEntity
8
1
62
256
6
ByLayer
370
18
48
1
60
0
100
AcDbSpline
70
4
71
3
72
8
73
4
40
0
40
0
40
0
40
0
40
1
40
1
40
1
40
1
41
1
10
396.990636150557
20
-37.6199994161391
30
0
41
1
10
396.986321086042
20
-37.6251100403731
30
0
41
1
10
396.982006021514
20
-37.6302206645904
30
0
41
1
10
396.977690956971
20
-37.6353312887909
30
0
0
SPLINE
5
19A
100
AcDbEntity
8
1
62
256
6
ByLayer
370
18
48
1
60
0
100
AcDbSpline
70
4
71
3
72
8
73
4
40
0
40
0
40
0
40
0
40
1
40
1
40
1
40
1
41
1
10
396.950449140933
20
-37.6199994161391
30
0
41
1
10
396.946134076419
20
-37.6251100403731
30
0
41
1
10
396.94181901189
20
-37.6302206645904
30
0
41
1
10
396.937503947347
20
-37.6353312887909
30
0
0
SPLINE
5
19B
100
AcDbEntity
8
1
62
256
6
ByLayer
370
18
48
1
60
0
100
AcDbSpline
70
4
71
3
72
8
73
4
40
0
40
0
40
0
40
0
40
1
40
1
40
1
40
1
41
1
10
396.122779935539
20
-37.6199987955013
30
0
41
1
10
396.118841952629
20
-37.6251096266146
30
0
41
1
10
396.114903969706
20
-37.6302204577111
30
0
41
1
10
396.11096598677
20
-37.6353312887909
30
0
0
SPLINE
5
19C
100
AcDbEntity
8
1
62
256
6
ByLayer
370
18
48
1
60
0
100
AcDbSpline
70
4
71
3
72
8
73
4
40
0
40
0
40
0
40
0
40
1
40
1
40
1
40
1
41
1
10
396.074973136308
20
-37.6199987955013
30
0
41
1
10
396.071035153398
20
-37.6251096266146
30
0
41
1
10
396.067097170475
20
-37.6302204577111
30
0
41
1
10
396.063159187539
20
-37.6353312887909
30
0
0
SPLINE
5
19D
100
AcDbEntity
8
1
62
256
6
ByLayer
370
18
48
1
60
0
100
AcDbSpline
70
4
71
3
72
8
73
4
40
0
40
0
40
0
40
0
40
1
40
1
40
1
40
1
41
1
10
395.111051018182
20
-37.6199995099067
30
0
41
1
10
395.10755255891
20
-37.6251101028848
30
0
41
1
10
395.104054099626
20
-37.6302206958462
30
0
41
1
10
395.10055564033
20
-37.6353312887908
30
0
0
SPLINE
5
19E
100
AcDbEntity
8
1
62
256
6
ByLayer
370
18
48
1
60
0
100
AcDbSpline
70
4
71
3
72
8
73
4
40
0
40
0
40
0
40
0
40
1
40
1
40
1
40
1
41
1
10
395.056378371125
20
-37.6199995099068
30
0
41
1
10
395.052879911853
20
-37.6251101028849
30
0
41
1
10
395.049381452569
20
-37.6302206958463
30
0
41
1
10
395.045882993274
20
-37.6353312887908
30
0
0
SPLINE
5
19F
100
AcDbEntity
8
1
62
256
6
ByLayer
370
18
48
1
60
0
100
AcDbSpline
70
4
71
3
72
8
73
4
40
0
40
0
40
0
40
0
40
1
40
1
40
1
40
1
41
1
10
393.971406952245
20
-37.6199987939651
30
0
41
1
10
393.968402865642
20
-37.6251096255904
30
0
41
1
10
393.965398779028
20
-37.6302204571991
30
0
41
1
10
393.962394692406
20
-37.6353312887909
30
0
0
SPLINE
5
1A0
100
AcDbEntity
8
1
62
256
6
ByLayer
370
18
48
1
60
0
100
AcDbSpline
70
4
71
3
72
8
73
4
40
0
40
0
40
0
40
0
40
1
40
1
40
1
40
1
41
1
10
393.910730677667
20
-37.6199987939651
30
0
41
1
10
393.907726591064
20
-37.6251096255904
30
0
41
1
10
393.90472250445
20
-37.6302204571991
30
0
41
1
10
393.901718417827
20
-37.6353312887909
30
0
0
SPLINE
5
1A1
100
AcDbEntity
8
1
62
256
6
ByLayer
370
18
48
1
60
0
100
AcDbSpline
70
4
71
3
72
8
73
4
40
0
40
0
40
0
40
0
40
1
40
1
40
1
40
1
41
1
10
392.721819147133
20
-37.6199987875792
30
0
41
1
10
392.719356971779
20
-37.6251096213331
30
0
41
1
10
392.716894796418
20
-37.6302204550704
30
0
41
1
10
392.714432621048
20
-37.6353312887909
30
0
0
SPLINE
5
1A2
100
AcDbEntity
8
1
62
256
6
ByLayer
370
18
48
1
60
0
100
AcDbSpline
70
4
71
3
72
8
73
4
40
0
40
0
40
0
40
0
40
1
40
1
40
1
40
1
41
1
10
392.656096146129
20
-37.6199987875791
30
0
41
1
10
392.653633970776
20
-37.6251096213331
30
0
41
1
10
392.651171795415
20
-37.6302204550704
30
0
41
1
10
392.648709620045
20
-37.6353312887908
30
0
0
SPLINE
5
1A3
100
AcDbEntity
8
1
62
256
6
ByLayer
370
18
48
1
60
0
100
AcDbSpline
70
4
71
3
72
8
73
4
40
0
40
0
40
0
40
0
40
1
40
1
40
1
40
1
41
1
10
391.381994690001
20
-37.6199991740393
30
0
41
1
10
391.380113304547
20
-37.6251098789733
30
0
41
1
10
391.378231919087
20
-37.6302205838905
30
0
41
1
10
391.376350533621
20
-37.6353312887909
30
0
0
SPLINE
5
1A4
100
AcDbEntity
8
1
62
256
6
ByLayer
370
18
48
1
60
0
100
AcDbSpline
70
4
71
3
72
8
73
4
40
0
40
0
40
0
40
0
40
1
40
1
40
1
40
1
41
1
10
391.312261453559
20
-37.6199991740393
30
0
41
1
10
391.310380068105
20
-37.6251098789732
30
0
41
1
10
391.308498682645
20
-37.6302205838904
30
0
41
1
10
391.306617297179
20
-37.6353312887908
30
0
0
SPLINE
5
1A5
100
AcDbEntity
8
1
62
256
6
ByLayer
370
18
48
1
60
0
100
AcDbSpline
70
4
71
3
72
8
73
4
40
0
40
0
40
0
40
0
40
1
40
1
40
1
40
1
41
1
10
389.97306371445
20
-37.6199992973293
30
0
41
1
10
389.971792737628
20
-37.6251099611666
30
0
41
1
10
389.970521760803
20
-37.6302206249872
30
0
41
1
10
389.969250783973
20
-37.6353312887909
30
0
0
SPLINE
5
1A6
100
AcDbEntity
8
1
62
256
6
ByLayer
370
18
48
1
60
0
100
AcDbSpline
70
4
71
3
72
8
73
4
40
0
40
0
40
0
40
0
40
1
40
1
40
1
40
1
41
1
10
389.900419977365
20
-37.6199992973292
30
0
41
1
10
389.899149000544
20
-37.6251099611665
30
0
41
1
10
389.897878023718
20
-37.6302206249871
30
0
41
1
10
389.896607046888
20
-37.6353312887908
30
0
0
SPLINE
5
1A7
100
AcDbEntity
8
1
62
256
6
ByLayer
370
18
48
1
60
0
100
AcDbSpline
70
4
71
3
72
8
73
4
40
0
40
0
40
0
40
0
40
1
40
1
40
1
40
1
41
1
10
388.517245800435
20
-37.6199992418812
30
0
41
1
10
388.516605258865
20
-37.6251099242011
30
0
41
1
10
388.515964717292
20
-37.6302206065044
30
0
41
1
10
388.515324175717
20
-37.6353312887909
30
0
0
SPLINE
5
1A8
100
AcDbEntity
8
1
62
256
6
ByLayer
370
18
48
1
60
0
100
AcDbSpline
70
4
71
3
72
8
73
4
40
0
40
0
40
0
40
0
40
1
40
1
40
1
40
1
41
1
10
389.896607046888
20
-37.6353312887908
30
0
41
1
10
389.726831698469
20
-37.7817478409851
30
0
41
1
10
389.557056343785
20
-37.9281642757224
30
0
41
1
10
389.387280977835
20
-38.0745804992501
30
0
0
SPLINE
5
1A9
100
AcDbEntity
8
1
62
256
6
ByLayer
370
18
48
1
60
0
100
AcDbSpline
70
4
71
3
72
8
73
4
40
0
40
0
40
0
40
0
40
1
40
1
40
1
40
1
41
1
10
389.45992471492
20
-38.0745804992501
30
0
41
1
10
389.435711195842
20
-38.0746002238945
30
0
41
1
10
389.411496601047
20
-38.0746002238945
30
0
41
1
10
389.387280977835
20
-38.0745804992501
30
0
0
SPLINE
5
1AA
100
AcDbEntity
8
1
62
256
6
ByLayer
370
18
48
1
60
0
100
AcDbSpline
70
4
71
3
72
8
73
4
40
0
40
0
40
0
40
0
40
1
40
1
40
1
40
1
41
1
10
389.969250783973
20
-37.6353312887908
30
0
41
1
10
389.799475435554
20
-37.7817478409851
30
0
41
1
10
389.62970008087
20
-37.9281642757224
30
0
41
1
10
389.45992471492
20
-38.0745804992501
30
0
0
SPLINE
5
1AB
100
AcDbEntity
8
1
62
256
6
ByLayer
370
18
48
1
60
0
100
AcDbSpline
70
4
71
3
72
8
73
4
40
0
40
0
40
0
40
0
40
1
40
1
40
1
40
1
41
1
10
391.306617297179
20
-37.6353312887908
30
0
41
1
10
391.05530641797
20
-37.7817478409851
30
0
41
1
10
390.803995529488
20
-37.9281642757224
30
0
41
1
10
390.55268462433
20
-38.0745804992501
30
0
0
SPLINE
5
1AC
100
AcDbEntity
8
1
62
256
6
ByLayer
370
18
48
1
60
0
100
AcDbSpline
70
4
71
3
72
8
73
4
40
0
40
0
40
0
40
0
40
1
40
1
40
1
40
1
41
1
10
390.622417860772
20
-38.0745804992501
30
0
41
1
10
390.599175013519
20
-38.0746002238945
30
0
41
1
10
390.575930586237
20
-38.0746002238945
30
0
41
1
10
390.55268462433
20
-38.0745804992501
30
0
0
SPLINE
5
1AD
100
AcDbEntity
8
1
62
256
6
ByLayer
370
18
48
1
60
0
100
AcDbSpline
70
4
71
3
72
8
73
4
40
0
40
0
40
0
40
0
40
1
40
1
40
1
40
1
41
1
10
391.376350533621
20
-37.6353312887908
30
0
41
1
10
391.125039654412
20
-37.7817478409851
30
0
41
1
10
390.87372876593
20
-37.9281642757224
30
0
41
1
10
390.622417860772
20
-38.0745804992501
30
0
0
SPLINE
5
1AE
100
AcDbEntity
8
1
62
256
6
ByLayer
370
18
48
1
60
0
100
AcDbSpline
70
4
71
3
72
8
73
4
40
0
40
0
40
0
40
0
40
1
40
1
40
1
40
1
41
1
10
392.648709620045
20
-37.6353312887908
30
0
41
1
10
392.319826532738
20
-37.7817478409851
30
0
41
1
10
391.990943433295
20
-37.9281642757224
30
0
41
1
10
391.662060312028
20
-38.0745804992501
30
0
0
SPLINE
5
1AF
100
AcDbEntity
8
1
62
256
6
ByLayer
370
18
48
1
60
0
100
AcDbSpline
70
4
71
3
72
8
73
4
40
0
40
0
40
0
40
0
40
1
40
1
40
1
40
1
41
1
10
391.727783313032
20
-38.0745804992501
30
0
41
1
10
391.705877691191
20
-38.0746002238945
30
0
41
1
10
391.683970009925
20
-38.0746002238945
30
0
41
1
10
391.662060312028
20
-38.0745804992501
30
0
0
SPLINE
5
1B0
100
AcDbEntity
8
1
62
256
6
ByLayer
370
18
48
1
60
0
100
AcDbSpline
70
4
71
3
72
8
73
4
40
0
40
0
40
0
40
0
40
1
40
1
40
1
40
1
41
1
10
392.714432621048
20
-37.6353312887908
30
0
41
1
10
392.385549533741
20
-37.7817478409851
30
0
41
1
10
392.056666434298
20
-37.9281642757224
30
0
41
1
10
391.727783313032
20
-38.0745804992501
30
0
0
SPLINE
5
1B1
100
AcDbEntity
8
1
62
256
6
ByLayer
370
18
48
1
60
0
100
AcDbSpline
70
4
71
3
72
8
73
4
40
0
40
0
40
0
40
0
40
1
40
1
40
1
40
1
41
1
10
393.901718417827
20
-37.6353312887908
30
0
41
1
10
393.304521344185
20
-37.853239028758
30
0
41
1
10
392.707324240399
20
-38.0711465296043
30
0
41
1
10
392.110127058088
20
-38.2890534075615
30
0
0
SPLINE
5
1B2
100
AcDbEntity
8
1
62
256
6
ByLayer
370
18
48
1
60
0
100
AcDbSpline
70
4
71
3
72
8
73
4
40
0
40
0
40
0
40
0
40
1
40
1
40
1
40
1
41
1
10
392.110127058088
20
-38.2890534075615
30
0
41
1
10
392.130355245682
20
-38.2890753875771
30
0
41
1
10
392.150580686895
20
-38.2890753875771
30
0
41
1
10
392.170803332666
20
-38.2890534075615
30
0
0
SPLINE
5
1B3
100
AcDbEntity
8
1
62
256
6
ByLayer
370
18
48
1
60
0
100
AcDbSpline
70
4
71
3
72
8
73
4
40
0
40
0
40
0
40
0
40
1
40
1
40
1
40
1
41
1
10
393.962394692406
20
-37.6353312887908
30
0
41
1
10
393.365197618763
20
-37.853239028758
30
0
41
1
10
392.768000514977
20
-38.0711465296043
30
0
41
1
10
392.170803332666
20
-38.2890534075615
30
0
0
SPLINE
5
1B4
100
AcDbEntity
8
1
62
256
6
ByLayer
370
18
48
1
60
0
100
AcDbSpline
70
4
71
3
72
8
73
4
40
0
40
0
40
0
40
0
40
1
40
1
40
1
40
1
41
1
10
395.045882993274
20
-37.6353312887908
30
0
41
1
10
394.578557101001
20
-37.7817478409851
30
0
41
1
10
394.111231191484
20
-37.9281642757224
30
0
41
1
10
393.643905250958
20
-38.0745804992501
30
0
0
SPLINE
5
1B5
100
AcDbEntity
8
1
62
256
6
ByLayer
370
18
48
1
60
0
100
AcDbSpline
70
4
71
3
72
8
73
4
40
0
40
0
40
0
40
0
40
1
40
1
40
1
40
1
41
1
10
393.698577898015
20
-38.0745804992501
30
0
41
1
10
393.680356584195
20
-38.0746002238945
30
0
41
1
10
393.662132356643
20
-38.0746002238945
30
0
41
1
10
393.643905250958
20
-38.0745804992501
30
0
0
SPLINE
5
1B6
100
AcDbEntity
8
1
62
256
6
ByLayer
370
18
48
1
60
0
100
AcDbSpline
70
4
71
3
72
8
73
4
40
0
40
0
40
0
40
0
40
1
40
1
40
1
40
1
41
1
10
395.10055564033
20
-37.6353312887908
30
0
41
1
10
394.633229748058
20
-37.7817478409851
30
0
41
1
10
394.165903838541
20
-37.9281642757224
30
0
41
1
10
393.698577898015
20
-38.0745804992501
30
0
0
SPLINE
5
1B7
100
AcDbEntity
8
1
62
256
6
ByLayer
370
18
48
1
60
0
100
AcDbSpline
70
4
71
3
72
8
73
4
40
0
40
0
40
0
40
0
40
1
40
1
40
1
40
1
41
1
10
396.063159187539
20
-37.6353312887908
30
0
41
1
10
395.537146024136
20
-37.7817478409851
30
0
41
1
10
395.011132841322
20
-37.9281642757224
30
0
41
1
10
394.485119623606
20
-38.0745804992501
30
0
0
SPLINE
5
1B8
100
AcDbEntity
8
1
62
256
6
ByLayer
370
18
48
1
60
0
100
AcDbSpline
70
4
71
3
72
8
73
4
40
0
40
0
40
0
40
0
40
1
40
1
40
1
40
1
41
1
10
394.532926422837
20
-38.0745804992501
30
0
41
1
10
394.516994087888
20
-38.0746002238945
30
0
41
1
10
394.501058477768
20
-38.0746002238945
30
0
41
1
10
394.485119623606
20
-38.0745804992501
30
0
0
SPLINE
5
1B9
100
AcDbEntity
8
1
62
256
6
ByLayer
370
18
48
1
60
0
100
AcDbSpline
70
4
71
3
72
8
73
4
40
0
40
0
40
0
40
0
40
1
40
1
40
1
40
1
41
1
10
396.11096598677
20
-37.6353312887908
30
0
41
1
10
395.584952823367
20
-37.7817478409851
30
0
41
1
10
395.058939640554
20
-37.9281642757224
30
0
41
1
10
394.532926422837
20
-38.0745804992501
30
0
0
SPLINE
5
1BA
100
AcDbEntity
8
1
62
256
6
ByLayer
370
18
48
1
60
0
100
AcDbSpline
70
4
71
3
72
8
73
4
40
0
40
0
40
0
40
0
40
1
40
1
40
1
40
1
41
1
10
396.937503947347
20
-37.6353312887909
30
0
41
1
10
396.361099054626
20
-37.7817478409851
30
0
41
1
10
395.784694140634
20
-37.9281642757224
30
0
41
1
10
395.208289188396
20
-38.0745804992501
30
0
0
SPLINE
5
1BB
100
AcDbEntity
8
1
62
256
6
ByLayer
370
18
48
1
60
0
100
AcDbSpline
70
4
71
3
72
8
73
4
40
0
40
0
40
0
40
0
40
1
40
1
40
1
40
1
41
1
10
395.248476198019
20
-38.0745804992501
30
0
41
1
10
395.235084104381
20
-38.0746002238945
30
0
41
1
10
395.221688425784
20
-38.0746002238945
30
0
41
1
10
395.208289188396
20
-38.0745804992501
30
0
0
SPLINE
5
1BC
100
AcDbEntity
8
1
62
256
6
ByLayer
370
18
48
1
60
0
100
AcDbSpline
70
4
71
3
72
8
73
4
40
0
40
0
40
0
40
0
40
1
40
1
40
1
40
1
41
1
10
396.977690956971
20
-37.6353312887909
30
0
41
1
10
396.401286064249
20
-37.7817478409851
30
0
41
1
10
395.824881150258
20
-37.9281642757224
30
0
41
1
10
395.248476198019
20
-38.0745804992501
30
0
0
SPLINE
5
1BD
100
AcDbEntity
8
1
62
256
6
ByLayer
370
18
48
1
60
0
100
AcDbSpline
70
4
71
3
72
8
73
4
40
0
40
0
40
0
40
0
40
1
40
1
40
1
40
1
41
1
10
397.655128333529
20
-37.6353312887908
30
0
41
1
10
397.037421960975
20
-37.7817478409851
30
0
41
1
10
396.419715565626
20
-37.9281642757224
30
0
41
1
10
395.80200912929
20
-38.0745804992501
30
0
0
SPLINE
5
1BE
100
AcDbEntity
8
1
62
256
6
ByLayer
370
18
48
1
60
0
100
AcDbSpline
70
4
71
3
72
8
73
4
40
0
40
0
40
0
40
0
40
1
40
1
40
1
40
1
41
1
10
395.833942576158
20
-38.0745804992501
30
0
41
1
10
395.823301925146
20
-38.0746002238945
30
0
41
1
10
395.812657435926
20
-38.0746002238945
30
0
41
1
10
395.802009129291
20
-38.0745804992501
30
0
0
SPLINE
5
1BF
100
AcDbEntity
8
1
62
256
6
ByLayer
370
18
48
1
60
0
100
AcDbSpline
70
4
71
3
72
8
73
4
40
0
40
0
40
0
40
0
40
1
40
1
40
1
40
1
41
1
10
397.687061780396
20
-37.6353312887908
30
0
41
1
10
397.069355407842
20
-37.7817478409851
30
0
41
1
10
396.451649012494
20
-37.9281642757224
30
0
41
1
10
395.833942576158
20
-38.0745804992501
30
0
0
SPLINE
5
1C0
100
AcDbEntity
8
1
62
256
6
ByLayer
370
18
48
1
60
0
100
AcDbSpline
70
4
71
3
72
8
73
4
40
0
40
0
40
0
40
0
40
1
40
1
40
1
40
1
41
1
10
398.204714980826
20
-37.6353312887909
30
0
41
1
10
397.238429817691
20
-37.8532390287581
30
0
41
1
10
396.272144605781
20
-38.0711465296043
30
0
41
1
10
395.305859266817
20
-38.2890534075615
30
0
0
SPLINE
5
1C1
100
AcDbEntity
8
1
62
256
6
ByLayer
370
18
48
1
60
0
100
AcDbSpline
70
4
71
3
72
8
73
4
40
0
40
0
40
0
40
0
40
1
40
1
40
1
40
1
41
1
10
395.305859266817
20
-38.2890534075615
30
0
41
1
10
395.313589171982
20
-38.2890753875771
30
0
41
1
10
395.321314603087
20
-38.2890753875771
30
0
41
1
10
395.329035541396
20
-38.2890534075615
30
0
0
SPLINE
5
1C2
100
AcDbEntity
8
1
62
256
6
ByLayer
370
18
48
1
60
0
100
AcDbSpline
70
4
71
3
72
8
73
4
40
0
40
0
40
0
40
0
40
1
40
1
40
1
40
1
41
1
10
398.227891255404
20
-37.6353312887909
30
0
41
1
10
397.261606092269
20
-37.8532390287581
30
0
41
1
10
396.29532088036
20
-38.0711465296043
30
0
41
1
10
395.329035541396
20
-38.2890534075615
30
0
0
SPLINE
5
1C3
100
AcDbEntity
8
1
62
256
6
ByLayer
370
18
48
1
60
0
100
AcDbSpline
70
4
71
3
72
8
73
4
40
0
40
0
40
0
40
0
40
1
40
1
40
1
40
1
41
1
10
398.577596579503
20
-37.6353312887909
30
0
41
1
10
397.90700976095
20
-37.7817478409851
30
0
41
1
10
397.236422917651
20
-37.9281642757224
30
0
41
1
10
396.565836029856
20
-38.0745804992501
30
0
0
SPLINE
5
1C4
100
AcDbEntity
8
1
62
256
6
ByLayer
370
18
48
1
60
0
100
AcDbSpline
70
4
71
3
72
8
73
4
40
0
40
0
40
0
40
0
40
1
40
1
40
1
40
1
41
1
10
396.57988962845
20
-38.0745804992501
30
0
41
1
10
396.575209252613
20
-38.0746002238945
30
0
41
1
10
396.570524716699
20
-38.0746002238945
30
0
41
1
10
396.565836029856
20
-38.0745804992501
30
0
0
SPLINE
5
1C5
100
AcDbEntity
8
1
62
256
6
ByLayer
370
18
48
1
60
0
100
AcDbSpline
70
4
71
3
72
8
73
4
40
0
40
0
40
0
40
0
40
1
40
1
40
1
40
1
41
1
10
398.591650178097
20
-37.6353312887909
30
0
41
1
10
397.921063359544
20
-37.7817478409851
30
0
41
1
10
397.250476516245
20
-37.9281642757224
30
0
41
1
10
396.57988962845
20
-38.0745804992501
30
0
0
SPLINE
5
1C6
100
AcDbEntity
8
1
62
256
6
ByLayer
370
18
48
1
60
0
100
AcDbSpline
70
4
71
3
72
8
73
4
40
0
40
0
40
0
40
0
40
1
40
1
40
1
40
1
41
1
10
398.767892564
20
-37.6353312887908
30
0
41
1
10
398.086560735504
20
-37.7817478409851
30
0
41
1
10
397.405228881865
20
-37.9281642757224
30
0
41
1
10
396.723896983018
20
-38.0745804992501
30
0
0
SPLINE
5
1C7
100
AcDbEntity
8
1
62
256
6
ByLayer
370
18
48
1
60
0
100
AcDbSpline
70
4
71
3
72
8
73
4
40
0
40
0
40
0
40
0
40
1
40
1
40
1
40
1
41
1
10
396.728606271983
20
-38.0745804992501
30
0
41
1
10
396.727040731593
20
-38.0746002238945
30
0
41
1
10
396.725470967582
20
-38.0746002238945
30
0
41
1
10
396.723896983018
20
-38.0745804992501
30
0
0
SPLINE
5
1C8
100
AcDbEntity
8
1
62
256
6
ByLayer
370
18
48
1
60
0
100
AcDbSpline
70
4
71
3
72
8
73
4
40
0
40
0
40
0
40
0
40
1
40
1
40
1
40
1
41
1
10
398.772601852965
20
-37.6353312887908
30
0
41
1
10
398.091270024468
20
-37.7817478409851
30
0
41
1
10
397.40993817083
20
-37.9281642757224
30
0
41
1
10
396.728606271983
20
-38.0745804992501
30
0
0
SPLINE
5
1C9
100
AcDbEntity
8
1
62
256
6
ByLayer
370
18
48
1
60
0
100
AcDbSpline
70
4
71
3
72
8
73
4
40
0
40
0
40
0
40
0
40
1
40
1
40
1
40
1
41
1
10
375.227398147035
20
-37.6353312887908
30
0
41
1
10
375.908729975532
20
-37.7817478409851
30
0
41
1
10
376.59006182917
20
-37.9281642757224
30
0
41
1
10
377.271393728017
20
-38.0745804992501
30
0
0
SPLINE
5
1CA
100
AcDbEntity
8
1
62
256
6
ByLayer
370
18
48
1
60
0
100
AcDbSpline
70
4
71
3
72
8
73
4
40
0
40
0
40
0
40
0
40
1
40
1
40
1
40
1
41
1
10
377.276103016982
20
-38.0745804992501
30
0
41
1
10
377.274529032418
20
-38.0746002238945
30
0
41
1
10
377.272959268407
20
-38.0746002238945
30
0
41
1
10
377.271393728017
20
-38.0745804992501
30
0
0
SPLINE
5
1CB
100
AcDbEntity
8
1
62
256
6
ByLayer
370
18
48
1
60
0
100
AcDbSpline
70
4
71
3
72
8
73
4
40
0
40
0
40
0
40
0
40
1
40
1
40
1
40
1
41
1
10
375.232107436
20
-37.6353312887908
30
0
41
1
10
375.913439264496
20
-37.7817478409851
30
0
41
1
10
376.594771118134
20
-37.9281642757224
30
0
41
1
10
377.276103016982
20
-38.0745804992501
30
0
0
SPLINE
5
1CC
100
AcDbEntity
8
1
62
256
6
ByLayer
370
18
48
1
60
0
100
AcDbSpline
70
4
71
3
72
8
73
4
40
0
40
0
40
0
40
0
40
1
40
1
40
1
40
1
41
1
10
375.408349821903
20
-37.6353312887908
30
0
41
1
10
376.078936640456
20
-37.7817478409851
30
0
41
1
10
376.749523483755
20
-37.9281642757224
30
0
41
1
10
377.42011037155
20
-38.0745804992501
30
0
0
SPLINE
5
1CD
100
AcDbEntity
8
1
62
256
6
ByLayer
370
18
48
1
60
0
100
AcDbSpline
70
4
71
3
72
8
73
4
40
0
40
0
40
0
40
0
40
1
40
1
40
1
40
1
41
1
10
377.434163970144
20
-38.0745804992501
30
0
41
1
10
377.429475283301
20
-38.0746002238945
30
0
41
1
10
377.424790747387
20
-38.0746002238945
30
0
41
1
10
377.42011037155
20
-38.0745804992501
30
0
0
SPLINE
5
1CE
100
AcDbEntity
8
1
62
256
6
ByLayer
370
18
48
1
60
0
100
AcDbSpline
70
4
71
3
72
8
73
4
40
0
40
0
40
0
40
0
40
1
40
1
40
1
40
1
41
1
10
375.422403420497
20
-37.6353312887908
30
0
41
1
10
376.09299023905
20
-37.7817478409851
30
0
41
1
10
376.763577082349
20
-37.9281642757224
30
0
41
1
10
377.434163970144
20
-38.0745804992501
30
0
0
SPLINE
5
1CF
100
AcDbEntity
8
1
62
256
6
ByLayer
370
18
48
1
60
0
100
AcDbSpline
70
4
71
3
72
8
73
4
40
0
40
0
40
0
40
0
40
1
40
1
40
1
40
1
41
1
10
375.772108744596
20
-37.6353312887908
30
0
41
1
10
376.73839390773
20
-37.853239028758
30
0
41
1
10
377.70467911964
20
-38.0711465296043
30
0
41
1
10
378.670964458604
20
-38.2890534075615
30
0
0
SPLINE
5
1D0
100
AcDbEntity
8
1
62
256
6
ByLayer
370
18
48
1
60
0
100
AcDbSpline
70
4
71
3
72
8
73
4
40
0
40
0
40
0
40
0
40
1
40
1
40
1
40
1
41
1
10
378.670964458604
20
-38.2890534075615
30
0
41
1
10
378.678685396913
20
-38.2890753875771
30
0
41
1
10
378.686410828018
20
-38.2890753875771
30
0
41
1
10
378.694140733182
20
-38.2890534075615
30
0
0
SPLINE
5
1D1
100
AcDbEntity
8
1
62
256
6
ByLayer
370
18
48
1
60
0
100
AcDbSpline
70
4
71
3
72
8
73
4
40
0
40
0
40
0
40
0
40
1
40
1
40
1
40
1
41
1
10
375.795285019174
20
-37.6353312887908
30
0
41
1
10
376.761570182309
20
-37.853239028758
30
0
41
1
10
377.727855394218
20
-38.0711465296043
30
0
41
1
10
378.694140733182
20
-38.2890534075615
30
0
0
SPLINE
5
1D2
100
AcDbEntity
8
1
62
256
6
ByLayer
370
18
48
1
60
0
100
AcDbSpline
70
4
71
3
72
8
73
4
40
0
40
0
40
0
40
0
40
1
40
1
40
1
40
1
41
1
10
376.312938219604
20
-37.6353312887909
30
0
41
1
10
376.930644592158
20
-37.7817478409851
30
0
41
1
10
377.548350987506
20
-37.9281642757224
30
0
41
1
10
378.166057423842
20
-38.0745804992501
30
0
0
SPLINE
5
1D3
100
AcDbEntity
8
1
62
256
6
ByLayer
370
18
48
1
60
0
100
AcDbSpline
70
4
71
3
72
8
73
4
40
0
40
0
40
0
40
0
40
1
40
1
40
1
40
1
41
1
10
378.197990870709
20
-38.0745804992501
30
0
41
1
10
378.187342564074
20
-38.0746002238945
30
0
41
1
10
378.176698074854
20
-38.0746002238945
30
0
41
1
10
378.166057423842
20
-38.0745804992501
30
0
0
SPLINE
5
1D4
100
AcDbEntity
8
1
62
256
6
ByLayer
370
18
48
1
60
0
100
AcDbSpline
70
4
71
3
72
8
73
4
40
0
40
0
40
0
40
0
40
1
40
1
40
1
40
1
41
1
10
376.344871666471
20
-37.6353312887908
30
0
41
1
10
376.962578039025
20
-37.7817478409851
30
0
41
1
10
377.580284434374
20
-37.9281642757224
30
0
41
1
10
378.197990870709
20
-38.0745804992501
30
0
0
SPLINE
5
1D5
100
AcDbEntity
8
1
62
256
6
ByLayer
370
18
48
1
60
0
100
AcDbSpline
70
4
71
3
72
8
73
4
40
0
40
0
40
0
40
0
40
1
40
1
40
1
40
1
41
1
10
377.022309043029
20
-37.6353312887908
30
0
41
1
10
377.598713935751
20
-37.7817478409851
30
0
41
1
10
378.175118849742
20
-37.9281642757224
30
0
41
1
10
378.751523801981
20
-38.0745804992501
30
0
0
SPLINE
5
1D6
100
AcDbEntity
8
1
62
256
6
ByLayer
370
18
48
1
60
0
100
AcDbSpline
70
4
71
3
72
8
73
4
40
0
40
0
40
0
40
0
40
1
40
1
40
1
40
1
41
1
10
378.791710811604
20
-38.0745804992501
30
0
41
1
10
378.778311574216
20
-38.0746002238945
30
0
41
1
10
378.764915895619
20
-38.0746002238945
30
0
41
1
10
378.751523801981
20
-38.0745804992501
30
0
0
SPLINE
5
1D7
100
AcDbEntity
8
1
62
256
6
ByLayer
370
18
48
1
60
0
100
AcDbSpline
70
4
71
3
72
8
73
4
40
0
40
0
40
0
40
0
40
1
40
1
40
1
40
1
41
1
10
377.062496052653
20
-37.6353312887908
30
0
41
1
10
377.638900945374
20
-37.7817478409851
30
0
41
1
10
378.215305859366
20
-37.9281642757224
30
0
41
1
10
378.791710811604
20
-38.0745804992501
30
0
0
SPLINE
5
1D8
100
AcDbEntity
8
1
62
256
6
ByLayer
370
18
48
1
60
0
100
AcDbSpline
70
4
71
3
72
8
73
4
40
0
40
0
40
0
40
0
40
1
40
1
40
1
40
1
41
1
10
377.88903401323
20
-37.6353312887908
30
0
41
1
10
378.415047176633
20
-37.7817478409851
30
0
41
1
10
378.941060359446
20
-37.9281642757224
30
0
41
1
10
379.467073577163
20
-38.0745804992501
30
0
0
SPLINE
5
1D9
100
AcDbEntity
8
1
62
256
6
ByLayer
370
18
48
1
60
0
100
AcDbSpline
70
4
71
3
72
8
73
4
40
0
40
0
40
0
40
0
40
1
40
1
40
1
40
1
41
1
10
379.514880376394
20
-38.0745804992501
30
0
41
1
10
379.498941522232
20
-38.0746002238945
30
0
41
1
10
379.483005912112
20
-38.0746002238945
30
0
41
1
10
379.467073577163
20
-38.0745804992501
30
0
0
SPLINE
5
1DA
100
AcDbEntity
8
1
62
256
6
ByLayer
370
18
48
1
60
0
100
AcDbSpline
70
4
71
3
72
8
73
4
40
0
40
0
40
0
40
0
40
1
40
1
40
1
40
1
41
1
10
377.936840812461
20
-37.6353312887908
30
0
41
1
10
378.462853975864
20
-37.7817478409851
30
0
41
1
10
378.988867158677
20
-37.9281642757224
30
0
41
1
10
379.514880376394
20
-38.0745804992501
30
0
0
SPLINE
5
1DB
100
AcDbEntity
8
1
62
256
6
ByLayer
370
18
48
1
60
0
100
AcDbSpline
70
4
71
3
72
8
73
4
40
0
40
0
40
0
40
0
40
1
40
1
40
1
40
1
41
1
10
378.89944435967
20
-37.6353312887908
30
0
41
1
10
379.366770251942
20
-37.7817478409851
30
0
41
1
10
379.834096161459
20
-37.9281642757224
30
0
41
1
10
380.301422101985
20
-38.0745804992501
30
0
0
SPLINE
5
1DC
100
AcDbEntity
8
1
62
256
6
ByLayer
370
18
48
1
60
0
100
AcDbSpline
70
4
71
3
72
8
73
4
40
0
40
0
40
0
40
0
40
1
40
1
40
1
40
1
41
1
10
380.356094749042
20
-38.0745804992501
30
0
41
1
10
380.337867643357
20
-38.0746002238945
30
0
41
1
10
380.319643415805
20
-38.0746002238945
30
0
41
1
10
380.301422101985
20
-38.0745804992501
30
0
0
SPLINE
5
1DD
100
AcDbEntity
8
1
62
256
6
ByLayer
370
18
48
1
60
0
100
AcDbSpline
70
4
71
3
72
8
73
4
40
0
40
0
40
0
40
0
40
1
40
1
40
1
40
1
41
1
10
378.954117006726
20
-37.6353312887908
30
0
41
1
10
379.421442898999
20
-37.7817478409851
30
0
41
1
10
379.888768808516
20
-37.9281642757224
30
0
41
1
10
380.356094749042
20
-38.0745804992501
30
0
0
SPLINE
5
1DE
100
AcDbEntity
8
1
62
256
6
ByLayer
370
18
48
1
60
0
100
AcDbSpline
70
4
71
3
72
8
73
4
40
0
40
0
40
0
40
0
40
1
40
1
40
1
40
1
41
1
10
380.037605307594
20
-37.6353312887908
30
0
41
1
10
380.634802381236
20
-37.853239028758
30
0
41
1
10
381.231999485023
20
-38.0711465296043
30
0
41
1
10
381.829196667334
20
-38.2890534075615
30
0
0
SPLINE
5
1DF
100
AcDbEntity
8
1
62
256
6
ByLayer
370
18
48
1
60
0
100
AcDbSpline
70
4
71
3
72
8
73
4
40
0
40
0
40
0
40
0
40
1
40
1
40
1
40
1
41
1
10
381.829196667334
20
-38.2890534075615
30
0
41
1
10
381.849419313105
20
-38.2890753875771
30
0
41
1
10
381.869644754318
20
-38.2890753875771
30
0
41
1
10
381.889872941912
20
-38.2890534075615
30
0
0
SPLINE
5
1E0
100
AcDbEntity
8
1
62
256
6
ByLayer
370
18
48
1
60
0
100
AcDbSpline
70
4
71
3
72
8
73
4
40
0
40
0
40
0
40
0
40
1
40
1
40
1
40
1
41
1
10
380.098281582172
20
-37.6353312887908
30
0
41
1
10
380.695478655814
20
-37.853239028758
30
0
41
1
10
381.292675759601
20
-38.0711465296043
30
0
41
1
10
381.889872941912
20
-38.2890534075615
30
0
0
SPLINE
5
1E1
100
AcDbEntity
8
1
62
256
6
ByLayer
370
18
48
1
60
0
100
AcDbSpline
70
4
71
3
72
8
73
4
40
0
40
0
40
0
40
0
40
1
40
1
40
1
40
1
41
1
10
381.285567378952
20
-37.6353312887908
30
0
41
1
10
381.614450466259
20
-37.7817478409851
30
0
41
1
10
381.943333565702
20
-37.9281642757224
30
0
41
1
10
382.272216686968
20
-38.0745804992501
30
0
0
SPLINE
5
1E2
100
AcDbEntity
8
1
62
256
6
ByLayer
370
18
48
1
60
0
100
AcDbSpline
70
4
71
3
72
8
73
4
40
0
40
0
40
0
40
0
40
1
40
1
40
1
40
1
41
1
10
382.337939687972
20
-38.0745804992501
30
0
41
1
10
382.316029990075
20
-38.0746002238945
30
0
41
1
10
382.294122308809
20
-38.0746002238945
30
0
41
1
10
382.272216686968
20
-38.0745804992501
30
0
0
SPLINE
5
1E3
100
AcDbEntity
8
1
62
256
6
ByLayer
370
18
48
1
60
0
100
AcDbSpline
70
4
71
3
72
8
73
4
40
0
40
0
40
0
40
0
40
1
40
1
40
1
40
1
41
1
10
381.351290379955
20
-37.6353312887908
30
0
41
1
10
381.680173467262
20
-37.7817478409851
30
0
41
1
10
382.009056566705
20
-37.9281642757224
30
0
41
1
10
382.337939687972
20
-38.0745804992501
30
0
0
SPLINE
5
1E4
100
AcDbEntity
8
1
62
256
6
ByLayer
370
18
48
1
60
0
100
AcDbSpline
70
4
71
3
72
8
73
4
40
0
40
0
40
0
40
0
40
1
40
1
40
1
40
1
41
1
10
382.623649466379
20
-37.6353312887908
30
0
41
1
10
382.874960345588
20
-37.7817478409851
30
0
41
1
10
383.12627123407
20
-37.9281642757224
30
0
41
1
10
383.377582139228
20
-38.0745804992501
30
0
0
SPLINE
5
1E5
100
AcDbEntity
8
1
62
256
6
ByLayer
370
18
48
1
60
0
100
AcDbSpline
70
4
71
3
72
8
73
4
40
0
40
0
40
0
40
0
40
1
40
1
40
1
40
1
41
1
10
383.44731537567
20
-38.0745804992501
30
0
41
1
10
383.424069413763
20
-38.0746002238945
30
0
41
1
10
383.40082498648
20
-38.0746002238945
30
0
41
1
10
383.377582139228
20
-38.0745804992501
30
0
0
SPLINE
5
1E6
100
AcDbEntity
8
1
62
256
6
ByLayer
370
18
48
1
60
0
100
AcDbSpline
70
4
71
3
72
8
73
4
40
0
40
0
40
0
40
0
40
1
40
1
40
1
40
1
41
1
10
382.693382702821
20
-37.6353312887908
30
0
41
1
10
382.94469358203
20
-37.7817478409851
30
0
41
1
10
383.196004470512
20
-37.9281642757224
30
0
41
1
10
383.44731537567
20
-38.0745804992501
30
0
0
SPLINE
5
1E7
100
AcDbEntity
8
1
62
256
6
ByLayer
370
18
48
1
60
0
100
AcDbSpline
70
4
71
3
72
8
73
4
40
0
40
0
40
0
40
0
40
1
40
1
40
1
40
1
41
1
10
384.030749216027
20
-37.6353312887908
30
0
41
1
10
384.200524564446
20
-37.7817478409851
30
0
41
1
10
384.37029991913
20
-37.9281642757224
30
0
41
1
10
384.54007528508
20
-38.0745804992501
30
0
0
SPLINE
5
1E8
100
AcDbEntity
8
1
62
256
6
ByLayer
370
18
48
1
60
0
100
AcDbSpline
70
4
71
3
72
8
73
4
40
0
40
0
40
0
40
0
40
1
40
1
40
1
40
1
41
1
10
384.612719022164
20
-38.0745804992501
30
0
41
1
10
384.588503398953
20
-38.0746002238945
30
0
41
1
10
384.564288804158
20
-38.0746002238945
30
0
41
1
10
384.54007528508
20
-38.0745804992501
30
0
0
SPLINE
5
1E9
100
AcDbEntity
8
1
62
256
6
ByLayer
370
18
48
1
60
0
100
AcDbSpline
70
4
71
3
72
8
73
4
40
0
40
0
40
0
40
0
40
1
40
1
40
1
40
1
41
1
10
384.103392953112
20
-37.6353312887908
30
0
41
1
10
384.273168301531
20
-37.7817478409851
30
0
41
1
10
384.442943656215
20
-37.9281642757224
30
0
41
1
10
384.612719022164
20
-38.0745804992501
30
0
0
SPLINE
5
1EA
100
AcDbEntity
8
1
62
256
6
ByLayer
370
18
48
1
60
0
100
AcDbSpline
70
4
71
3
72
8
73
4
40
0
40
0
40
0
40
0
40
1
40
1
40
1
40
1
41
1
10
385.484675824282
20
-37.6353312887908
30
0
41
1
10
385.570238183249
20
-37.7817478409851
30
0
41
1
10
385.655800545372
20
-37.9281642757224
30
0
41
1
10
385.741362913174
20
-38.0745804992501
30
0
0
SPLINE
5
1EB
100
AcDbEntity
8
1
62
256
6
ByLayer
370
18
48
1
60
0
100
AcDbSpline
70
4
71
3
72
8
73
4
40
0
40
0
40
0
40
0
40
1
40
1
40
1
40
1
41
1
10
385.815771515772
20
-38.0745804992501
30
0
41
1
10
385.7909681261
20
-38.0746002238945
30
0
41
1
10
385.766165242417
20
-38.0746002238945
30
0
41
1
10
385.741362913174
20
-38.0745804992501
30
0
0
SPLINE
5
1EC
100
AcDbEntity
8
1
62
256
6
ByLayer
370
18
48
1
60
0
100
AcDbSpline
70
4
71
3
72
8
73
4
40
0
40
0
40
0
40
0
40
1
40
1
40
1
40
1
41
1
10
385.559084426881
20
-37.6353312887908
30
0
41
1
10
385.644646785847
20
-37.7817478409851
30
0
41
1
10
385.730209147971
20
-37.9281642757224
30
0
41
1
10
385.815771515772
20
-38.0745804992501
30
0
0
SPLINE
5
1ED
100
AcDbEntity
8
1
62
256
6
ByLayer
370
18
48
1
60
0
100
AcDbSpline
70
4
71
3
72
8
73
4
40
0
40
0
40
0
40
0
40
1
40
1
40
1
40
1
41
1
10
386.9625
20
-38.2890534075615
30
0
41
1
10
386.987499989893
20
-38.2890753875771
30
0
41
1
10
387.012500010107
20
-38.2890753875771
30
0
41
1
10
387.0375
20
-38.2890534075615
30
0
0
SPLINE
5
1EE
100
AcDbEntity
8
1
62
256
6
ByLayer
370
18
48
1
60
0
100
AcDbSpline
70
4
71
3
72
8
73
4
40
0
40
0
40
0
40
0
40
1
40
1
40
1
40
1
41
1
10
388.440915573119
20
-37.6353312887908
30
0
41
1
10
388.355353214153
20
-37.7817478409851
30
0
41
1
10
388.269790852029
20
-37.9281642757224
30
0
41
1
10
388.184228484228
20
-38.0745804992501
30
0
0
SPLINE
5
1EF
100
AcDbEntity
8
1
62
256
6
ByLayer
370
18
48
1
60
0
100
AcDbSpline
70
4
71
3
72
8
73
4
40
0
40
0
40
0
40
0
40
1
40
1
40
1
40
1
41
1
10
388.258637086826
20
-38.0745804992501
30
0
41
1
10
388.233834757583
20
-38.0746002238945
30
0
41
1
10
388.2090318739
20
-38.0746002238945
30
0
41
1
10
388.184228484228
20
-38.0745804992501
30
0
0
SPLINE
5
1F0
100
AcDbEntity
8
1
62
256
6
ByLayer
370
18
48
1
60
0
100
AcDbSpline
70
4
71
3
72
8
73
4
40
0
40
0
40
0
40
0
40
1
40
1
40
1
40
1
41
1
10
388.515324175717
20
-37.6353312887908
30
0
41
1
10
388.429761816751
20
-37.7817478409851
30
0
41
1
10
388.344199454627
20
-37.9281642757224
30
0
41
1
10
388.258637086826
20
-38.0745804992501
30
0
0
SPLINE
5
1F1
100
AcDbEntity
8
1
62
256
6
ByLayer
370
18
48
1
60
0
100
AcDbSpline
70
4
71
3
72
10
73
6
40
0
40
0
40
0
40
0
40
0.876183133825516
40
0.876183133825516
40
1
40
1
40
1
40
1
41
1
10
387.0375
20
-37.6353312887908
30
0
41
1
10
387.0375
20
-37.8262583752801
30
0
41
1
10
387.0375
20
-38.0171852707222
30
0
41
1
10
387.0375
20
-38.2350923038532
30
0
41
1
10
387.0375
20
-38.262072860815
30
0
41
1
10
387.0375
20
-38.2890534075615
30
0
0
SPLINE
5
1F2
100
AcDbEntity
8
1
62
256
6
ByLayer
370
18
48
1
60
0
100
AcDbSpline
70
4
71
3
72
10
73
6
40
0
40
0
40
0
40
0
40
0.876183133825516
40
0.876183133825516
40
1
40
1
40
1
40
1
41
1
10
386.9625
20
-37.6353312887908
30
0
41
1
10
386.9625
20
-37.8262583752801
30
0
41
1
10
386.9625
20
-38.0171852707222
30
0
41
1
10
386.9625
20
-38.2350923038532
30
0
41
1
10
386.9625
20
-38.262072860815
30
0
41
1
10
386.9625
20
-38.2890534075615
30
0
0
SPLINE
5
1F3
100
AcDbEntity
8
1
62
256
6
ByLayer
370
18
48
1
60
0
100
AcDbSpline
70
4
71
3
72
23
73
19
40
0
40
0
40
0
40
0
40
0.12500000000084
40
0.12500000000084
40
0.187500000000939
40
0.187500000000939
40
0.250000000001039
40
0.250000000001039
40
0.375000000001238
40
0.375000000001238
40
0.500000000001436
40
0.500000000001436
40
0.625000000001635
40
0.687500000001535
40
0.687500000001535
40
0.750000000001434
40
0.750000000001434
40
1
40
1
40
1
40
1
41
1
10
407.693168684232
20
43.0645426824976
30
0
41
1
10
407.692810181571
20
43.054017607904
30
0
41
1
10
407.691562125908
20
43.043601126889
30
0
41
1
10
407.688357309482
20
43.0281392393501
30
0
41
1
10
407.687056538089
20
43.0229839727008
30
0
41
1
10
407.684043297294
20
43.0128871859565
30
0
41
1
10
407.682336563987
20
43.0079535739706
30
0
41
1
10
407.676644705991
20
42.993481332191
30
0
41
1
10
407.672091610757
20
42.9842691248937
30
0
41
1
10
407.661518853645
20
42.9666925834397
30
0
41
1
10
407.655448385431
20
42.9582960083141
30
0
41
1
10
407.642391282468
20
42.943016134932
30
0
41
1
10
407.631839347458
20
42.9325459382639
30
0
41
1
10
407.620226935468
20
42.9234766456118
30
0
41
1
10
407.612249726979
20
42.9177438522357
30
0
41
1
10
407.608131321426
20
42.9150279277453
30
0
41
1
10
407.587322389658
20
42.902450979061
30
0
41
1
10
407.569754928381
20
42.8953354151669
30
0
41
1
10
407.551388701789
20
42.8909341286124
30
0
0
SPLINE
5
1F4
100
AcDbEntity
8
1
62
256
6
ByLayer
370
18
48
1
60
0
100
AcDbSpline
70
4
71
3
72
24
73
20
40
0
40
0
40
0
40
0
40
0.12499999999945
40
0.12499999999945
40
0.2499999999989
40
0.2499999999989
40
0.312499999998845
40
0.312499999998845
40
0.37499999999879
40
0.37499999999879
40
0.499999999999032
40
0.499999999999032
40
0.624999999999274
40
0.624999999999274
40
0.749999999999516
40
0.749999999999516
40
0.874999999999758
40
0.874999999999758
40
1
40
1
40
1
40
1
41
1
10
407.143887391293
20
42.1855088632514
30
0
41
1
10
407.153155383766
20
42.1904265470832
30
0
41
1
10
407.162145661243
20
42.1962327450741
30
0
41
1
10
407.178716753759
20
42.2090626729591
30
0
41
1
10
407.186373482202
20
42.2161087027445
30
0
41
1
10
407.196933747777
20
42.22760402561
30
0
41
1
10
407.200314052021
20
42.2316119063464
30
0
41
1
10
407.206662740637
20
42.2398166627941
30
0
41
1
10
407.209634969695
20
42.2440136155501
30
0
41
1
10
407.217971670588
20
42.2568746200474
30
0
41
1
10
407.222759789809
20
42.2658071758339
30
0
41
1
10
407.230837669218
20
42.2843625301367
30
0
41
1
10
407.234065351732
20
42.2938675273148
30
0
41
1
10
407.238907658462
20
42.3129402229975
30
0
41
1
10
407.240545888487
20
42.3225632836443
30
0
41
1
10
407.24230075744
20
42.3419666515952
30
0
41
1
10
407.242399125398
20
42.3515915188688
30
0
41
1
10
407.241155814545
20
42.3705185925508
30
0
41
1
10
407.239816027974
20
42.3798495224841
30
0
41
1
10
407.237773472417
20
42.3890448482144
30
0
0
SPLINE
5
1F5
100
AcDbEntity
8
1
62
256
6
ByLayer
370
18
48
1
60
0
100
AcDbSpline
70
4
71
3
72
16
73
12
40
0
40
0
40
0
40
0
40
0.249999999999592
40
0.249999999999592
40
0.499999999999185
40
0.499999999999185
40
0.624999999999227
40
0.624999999999227
40
0.749999999999269
40
0.749999999999269
40
1
40
1
40
1
40
1
41
1
10
407.237773472417
20
42.3890448482144
30
0
41
1
10
407.232644808486
20
42.4121334419325
30
0
41
1
10
407.229412373269
20
42.4357938818674
30
0
41
1
10
407.227052075094
20
42.4842497577348
30
0
41
1
10
407.227934553856
20
42.5086703037889
30
0
41
1
10
407.232609878276
20
42.5457279943991
30
0
41
1
10
407.234732281704
20
42.558159403704
30
0
41
1
10
407.240199549459
20
42.5831722356137
30
0
41
1
10
407.243499507002
20
42.5955480268621
30
0
41
1
10
407.25512017272
20
42.6322939912455
30
0
41
1
10
407.265142505034
20
42.6562882593043
30
0
41
1
10
407.277704666685
20
42.6797498649814
30
0
0
SPLINE
5
1F6
100
AcDbEntity
8
1
62
256
6
ByLayer
370
18
48
1
60
0
100
AcDbSpline
70
4
71
3
72
18
73
14
40
0
40
0
40
0
40
0
40
0.124999999999764
40
0.124999999999764
40
0.249999999999529
40
0.249999999999529
40
0.499999999999411
40
0.499999999999411
40
0.624999999999558
40
0.624999999999558
40
0.749999999999706
40
0.749999999999706
40
1
40
1
40
1
40
1
41
1
10
407.307609446914
20
42.7276075173647
30
0
41
1
10
407.315407560074
20
42.7384064144735
30
0
41
1
10
407.323660621491
20
42.7487606691819
30
0
41
1
10
407.341053173992
20
42.7686073434396
30
0
41
1
10
407.350163011588
20
42.7780567100252
30
0
41
1
10
407.378241155618
20
42.8046538992843
30
0
41
1
10
407.398109808003
20
42.8202544792987
30
0
41
1
10
407.429560912538
20
42.8407825952845
30
0
41
1
10
407.440305304394
20
42.8471239777465
30
0
41
1
10
407.461908009456
20
42.8586482213815
30
0
41
1
10
407.472820597781
20
42.8638676598787
30
0
41
1
10
407.505897634254
20
42.8780084516101
30
0
41
1
10
407.528399763551
20
42.8854250544288
30
0
41
1
10
407.551388701789
20
42.8909341286124
30
0
0
SPLINE
5
1F7
100
AcDbEntity
8
1
62
256
6
ByLayer
370
18
48
1
60
0
100
AcDbSpline
70
4
71
3
72
23
73
19
40
0
40
0
40
0
40
0
40
0.125000000000506
40
0.125000000000506
40
0.250000000001012
40
0.250000000001012
40
0.312500000001167
40
0.312500000001167
40
0.375000000001323
40
0.500000000001058
40
0.500000000001058
40
0.625000000000793
40
0.625000000000793
40
0.750000000000529
40
0.750000000000529
40
0.875000000000264
40
0.875000000000264
40
1
40
1
40
1
40
1
41
1
10
405.624368451609
20
43.1350096783059
30
0
41
1
10
405.624012235213
20
43.1245517248462
30
0
41
1
10
405.624559977088
20
43.1138937096718
30
0
41
1
10
405.627402296286
20
43.0931948666188
30
0
41
1
10
405.629679210918
20
43.083071703732
30
0
41
1
10
405.634353272803
20
43.0682210784561
30
0
41
1
10
405.636132666843
20
43.0633035872469
30
0
41
1
10
405.64005714067
20
43.0537337510666
30
0
41
1
10
405.646491339705
20
43.0397602891407
30
0
41
1
10
405.654483259672
20
43.0268755229621
30
0
41
1
10
405.666480560621
20
43.0106418020258
30
0
41
1
10
405.673076704079
20
43.0031130303354
30
0
41
1
10
405.687128301449
20
42.9894106124171
30
0
41
1
10
405.694618887852
20
42.983190264084
30
0
41
1
10
405.710493893182
20
42.9719814750337
30
0
41
1
10
405.718753309
20
42.9670863523738
30
0
41
1
10
405.73571275988
20
42.9586968307804
30
0
41
1
10
405.744436424798
20
42.9551866006459
30
0
41
1
10
405.753393782978
20
42.9523491271786
30
0
0
SPLINE
5
1F8
100
AcDbEntity
8
1
62
256
6
ByLayer
370
18
48
1
60
0
100
AcDbSpline
70
4
71
3
72
32
73
28
40
0
40
0
40
0
40
0
40
0.0624999999997846
40
0.0624999999997846
40
0.124999999999569
40
0.124999999999569
40
0.249999999999334
40
0.249999999999334
40
0.312499999999145
40
0.312499999999145
40
0.374999999998955
40
0.374999999998955
40
0.437499999998765
40
0.437499999998765
40
0.499999999998575
40
0.562499999998385
40
0.593749999998402
40
0.593749999998402
40
0.624999999998419
40
0.624999999998419
40
0.74999999999878
40
0.74999999999878
40
0.812499999999085
40
0.812499999999085
40
0.87499999999939
40
0.87499999999939
40
1
40
1
40
1
40
1
41
1
10
405.753393782978
20
42.9523491271786
30
0
41
1
10
405.765649013885
20
42.9484669677474
30
0
41
1
10
405.777773070018
20
42.9440118933102
30
0
41
1
10
405.801766830989
20
42.9339053144126
30
0
41
1
10
405.813587580216
20
42.928271054255
30
0
41
1
10
405.84826433907
20
42.909704601223
30
0
41
1
10
405.870453291648
20
42.8950897137226
30
0
41
1
10
405.902293398335
20
42.8692817830867
30
0
41
1
10
405.912701836097
20
42.8599781045854
30
0
41
1
10
405.932514052075
20
42.8403958243503
30
0
41
1
10
405.941975808305
20
42.8300772661699
30
0
41
1
10
405.959983313907
20
42.8083317660896
30
0
41
1
10
405.968550639599
20
42.7968731207212
30
0
41
1
10
405.984614869321
20
42.7728873376798
30
0
41
1
10
405.999313112748
20
42.748286817609
30
0
41
1
10
406.014390161657
20
42.7160545316969
30
0
41
1
10
406.02195971301
20
42.6960505704008
30
0
41
1
10
406.026673944177
20
42.6825648929577
30
0
41
1
10
406.028871373523
20
42.6757231911009
30
0
41
1
10
406.038880789741
20
42.6416219332805
30
0
41
1
10
406.043906529616
20
42.6144348785281
30
0
41
1
10
406.047514651302
20
42.5736740194612
30
0
41
1
10
406.048050698022
20
42.5600204502845
30
0
41
1
10
406.04783259696
20
42.5332152292573
30
0
41
1
10
406.047089031615
20
42.520025849153
30
0
41
1
10
406.043090258517
20
42.4810134814131
30
0
41
1
10
406.038083516874
20
42.455739294191
30
0
41
1
10
406.03084033685
20
42.4310876326777
30
0
0
SPLINE
5
1F9
100
AcDbEntity
8
1
62
256
6
ByLayer
370
18
48
1
60
0
100
AcDbSpline
70
4
71
3
72
24
73
20
40
0
40
0
40
0
40
0
40
0.125000000000118
40
0.125000000000118
40
0.187499999999932
40
0.187499999999932
40
0.249999999999747
40
0.249999999999747
40
0.374999999999783
40
0.374999999999783
40
0.499999999999819
40
0.499999999999819
40
0.624999999999855
40
0.624999999999855
40
0.687499999999874
40
0.687499999999874
40
0.749999999999892
40
0.749999999999892
40
1
40
1
40
1
40
1
41
1
10
406.110302129439
20
42.2220464008798
30
0
41
1
10
406.101398922516
20
42.22760974202
30
0
41
1
10
406.09302917676
20
42.2338859460914
30
0
41
1
10
406.081275241117
20
42.2443699849971
30
0
41
1
10
406.077471110907
20
42.2480664890517
30
0
41
1
10
406.070258190436
20
42.2557007019875
30
0
41
1
10
406.066849460643
20
42.2596334344785
30
0
41
1
10
406.057189211963
20
42.2717618834848
30
0
41
1
10
406.05149995697
20
42.2802857577061
30
0
41
1
10
406.041579433358
20
42.2981794931138
30
0
41
1
10
406.037347697326
20
42.3076049367964
30
0
41
1
10
406.030642973331
20
42.326493021377
30
0
41
1
10
406.028109933749
20
42.3360469591125
30
0
41
1
10
406.025465792447
20
42.3505254512037
30
0
41
1
10
406.024777979209
20
42.3553763450058
30
0
41
1
10
406.023788241171
20
42.3651261117633
30
0
41
1
10
406.023487657578
20
42.3700374491744
30
0
41
1
10
406.022956909007
20
42.3942816869298
30
0
41
1
10
406.025529403555
20
42.4130122390689
30
0
41
1
10
406.03084033685
20
42.4310876326777
30
0
0
SPLINE
5
1FA
100
AcDbEntity
8
1
62
256
6
ByLayer
370
18
48
1
60
0
100
AcDbSpline
70
4
71
3
72
24
73
20
40
0
40
0
40
0
40
0
40
0.124999999999894
40
0.124999999999894
40
0.249999999999788
40
0.249999999999788
40
0.312499999999806
40
0.312499999999806
40
0.374999999999823
40
0.374999999999823
40
0.499999999999859
40
0.499999999999859
40
0.624999999999894
40
0.624999999999894
40
0.749999999999929
40
0.749999999999929
40
0.874999999999965
40
0.874999999999965
40
1
40
1
40
1
40
1
41
1
10
407.207235006402
20
43.9775059599237
30
0
41
1
10
407.198363221655
20
43.9830496663089
30
0
41
1
10
407.188864720731
20
43.9879123163642
30
0
41
1
10
407.169520356553
20
43.9958187362877
30
0
41
1
10
407.159618086582
20
43.9989164399893
30
0
41
1
10
407.144427975905
20
44.0023060822
30
0
41
1
10
407.139282610912
20
44.0032281180447
30
0
41
1
10
407.129030271779
20
44.0046239172235
30
0
41
1
10
407.123923344161
20
44.0051006151925
30
0
41
1
10
407.108658830405
20
44.0058967070409
30
0
41
1
10
407.098557119851
20
44.0055860255296
30
0
41
1
10
407.078505526302
20
44.0033317027819
30
0
41
1
10
407.06867835517
20
44.001391248004
30
0
41
1
10
407.049780848335
20
43.9960897852697
30
0
41
1
10
407.04064747625
20
43.9927213792989
30
0
41
1
10
407.023002690308
20
43.9845968484783
30
0
41
1
10
407.014622042912
20
43.9798952905634
30
0
41
1
10
406.998864890347
20
43.9694146071674
30
0
41
1
10
406.991457591596
20
43.9636206363289
30
0
41
1
10
406.984516234688
20
43.9572881015014
30
0
0
SPLINE
5
1FB
100
AcDbEntity
8
1
62
256
6
ByLayer
370
18
48
1
60
0
100
AcDbSpline
70
4
71
3
72
32
73
28
40
0
40
0
40
0
40
0
40
0.0625000000000593
40
0.0625000000000593
40
0.125000000000119
40
0.125000000000119
40
0.250000000000237
40
0.250000000000237
40
0.312500000000404
40
0.312500000000404
40
0.37500000000057
40
0.37500000000057
40
0.437500000000736
40
0.437500000000736
40
0.500000000000903
40
0.562500000001069
40
0.593750000001033
40
0.593750000001033
40
0.625000000000996
40
0.625000000000996
40
0.750000000000738
40
0.750000000000738
40
0.812500000000553
40
0.812500000000553
40
0.875000000000369
40
0.875000000000369
40
1
40
1
40
1
40
1
41
1
10
406.984516234688
20
43.9572881015014
30
0
41
1
10
406.975019134833
20
43.9486239863455
30
0
41
1
10
406.965091806132
20
43.940360297788
30
0
41
1
10
406.944328886254
20
43.9246521885597
30
0
41
1
10
406.933532741283
20
43.9172415124971
30
0
41
1
10
406.900097558672
20
43.8965224664819
30
0
41
1
10
406.876336010865
20
43.8846340951491
30
0
41
1
10
406.838053055513
20
43.8699965566651
30
0
41
1
10
406.824787877878
20
43.8656458042254
30
0
41
1
10
406.797916711411
20
43.858302114674
30
0
41
1
10
406.784247101775
20
43.8552789992726
30
0
41
1
10
406.756407150559
20
43.8505806752704
30
0
41
1
10
406.742198554267
20
43.8489026650954
30
0
41
1
10
406.71339251709
20
43.8470082401795
30
0
41
1
10
406.684738369152
20
43.8466040314102
30
0
41
1
10
406.649288501022
20
43.8496934818738
30
0
41
1
10
406.628182745064
20
43.8531581488116
30
0
41
1
10
406.614148972436
20
43.855830386048
30
0
41
1
10
406.60712647395
20
43.8573542333187
30
0
41
1
10
406.572596426477
20
43.8657660793866
30
0
41
1
10
406.546546814602
20
43.8750295396855
30
0
41
1
10
406.509457624241
20
43.8923170754084
30
0
41
1
10
406.497370724484
20
43.8986900037066
30
0
41
1
10
406.474277448407
20
43.912301309751
30
0
41
1
10
406.463233108861
20
43.9195494233161
30
0
41
1
10
406.431466513145
20
43.942545907963
30
0
41
1
10
406.412096360988
20
43.9595355945173
30
0
41
1
10
406.394384942871
20
43.9781494131669
30
0
0
SPLINE
5
1FC
100
AcDbEntity
8
1
62
256
6
ByLayer
370
18
48
1
60
0
100
AcDbSpline
70
4
71
3
72
24
73
20
40
0
40
0
40
0
40
0
40
0.124999999999771
40
0.124999999999771
40
0.187499999999969
40
0.187499999999969
40
0.250000000000166
40
0.250000000000166
40
0.375000000000464
40
0.375000000000464
40
0.500000000000762
40
0.500000000000762
40
0.62500000000106
40
0.62500000000106
40
0.68750000000102
40
0.68750000000102
40
0.750000000000981
40
0.750000000000981
40
1
40
1
40
1
40
1
41
1
10
406.173649744547
20
44.0140434975522
30
0
41
1
10
406.18292356428
20
44.0189642733825
30
0
41
1
10
406.19254731249
20
44.0230663292325
30
0
41
1
10
406.207507962475
20
44.0279906849085
30
0
41
1
10
406.212612537392
20
44.0294325280467
30
0
41
1
10
406.222832491739
20
44.0318532239688
30
0
41
1
10
406.2279435435
20
44.0328345190223
30
0
41
1
10
406.243279176073
20
44.0351231580578
30
0
41
1
10
406.253506262878
20
44.0357794870036
30
0
41
1
10
406.273962652597
20
44.0354064936448
30
0
41
1
10
406.28424028682
20
44.0343497441992
30
0
41
1
10
406.303947071416
20
44.030695256592
30
0
41
1
10
406.313485323661
20
44.0281037810964
30
0
41
1
10
406.327341889643
20
44.0231425372392
30
0
41
1
10
406.331885224504
20
44.0213088545498
30
0
41
1
10
406.340820195584
20
44.0172834390358
30
0
41
1
10
406.3452219438
20
44.0150843063834
30
0
41
1
10
406.366473414743
20
44.0034036004813
30
0
41
1
10
406.381398353783
20
43.9917976717402
30
0
41
1
10
406.394384942871
20
43.9781494131669
30
0
0
SPLINE
5
1FD
100
AcDbEntity
8
1
62
256
6
ByLayer
370
18
48
1
60
0
100
AcDbSpline
70
4
71
3
72
16
73
12
40
0
40
0
40
0
40
0
40
0.25000000000007
40
0.25000000000007
40
0.500000000000141
40
0.500000000000141
40
0.625000000000145
40
0.625000000000145
40
0.750000000000148
40
0.750000000000148
40
1
40
1
40
1
40
1
41
1
10
406.079763663424
20
43.8105075125891
30
0
41
1
10
406.084892327355
20
43.7874189188713
30
0
41
1
10
406.088124762572
20
43.7637584789352
30
0
41
1
10
406.090485060746
20
43.7153026030691
30
0
41
1
10
406.089602581985
20
43.6908820570151
30
0
41
1
10
406.084927257565
20
43.6538243664048
30
0
41
1
10
406.082804854137
20
43.641392957099
30
0
41
1
10
406.077337586381
20
43.61638012519
30
0
41
1
10
406.074037628839
20
43.604004333942
30
0
41
1
10
406.062416963121
20
43.5672583695589
30
0
41
1
10
406.052394630807
20
43.5432641015
30
0
41
1
10
406.039832469155
20
43.5198024958222
30
0
0
SPLINE
5
1FE
100
AcDbEntity
8
1
62
256
6
ByLayer
370
18
48
1
60
0
100
AcDbSpline
70
4
71
3
72
18
73
14
40
0
40
0
40
0
40
0
40
0.124999999999697
40
0.124999999999697
40
0.249999999999394
40
0.249999999999394
40
0.499999999999141
40
0.499999999999141
40
0.624999999999356
40
0.624999999999356
40
0.749999999999571
40
0.749999999999571
40
1
40
1
40
1
40
1
41
1
10
406.009927688927
20
43.4719448434389
30
0
41
1
10
406.002129575767
20
43.4611459463303
30
0
41
1
10
405.993876514349
20
43.4507916916218
30
0
41
1
10
405.976483961849
20
43.4309450173643
30
0
41
1
10
405.967374124252
20
43.4214956507783
30
0
41
1
10
405.939295980223
20
43.3948984615193
30
0
41
1
10
405.919427327838
20
43.3792978815052
30
0
41
1
10
405.887976223303
20
43.3587697655192
30
0
41
1
10
405.877231831447
20
43.352428383057
30
0
41
1
10
405.855629126385
20
43.340904139422
30
0
41
1
10
405.844716538059
20
43.3356847009249
30
0
41
1
10
405.811639501587
20
43.3215439091933
30
0
41
1
10
405.789137372289
20
43.3141273063746
30
0
41
1
10
405.766148434052
20
43.3086182321911
30
0
0
SPLINE
5
1FF
100
AcDbEntity
8
1
62
256
6
ByLayer
370
18
48
1
60
0
100
AcDbSpline
70
4
71
3
72
24
73
20
40
0
40
0
40
0
40
0
40
0.125000000000577
40
0.125000000000577
40
0.250000000001153
40
0.250000000001153
40
0.312500000001202
40
0.312500000001202
40
0.375000000001252
40
0.375000000001252
40
0.500000000001001
40
0.500000000001001
40
0.625000000000751
40
0.625000000000751
40
0.750000000000501
40
0.750000000000501
40
0.87500000000025
40
0.87500000000025
40
1
40
1
40
1
40
1
41
1
10
406.173649744547
20
44.0140434975522
30
0
41
1
10
406.164381752074
20
44.0091258137202
30
0
41
1
10
406.155391474597
20
44.0033196157295
30
0
41
1
10
406.138820382081
20
43.9904896878447
30
0
41
1
10
406.131163653638
20
43.9834436580591
30
0
41
1
10
406.120603388063
20
43.9719483351935
30
0
41
1
10
406.11722308382
20
43.9679404544572
30
0
41
1
10
406.110874395204
20
43.9597356980096
30
0
41
1
10
406.107902166146
20
43.9555387452536
30
0
41
1
10
406.099565465252
20
43.9426777407563
30
0
41
1
10
406.094777346032
20
43.9337451849697
30
0
41
1
10
406.086699466623
20
43.915189830667
30
0
41
1
10
406.083471784108
20
43.9056848334889
30
0
41
1
10
406.078629477379
20
43.8866121378063
30
0
41
1
10
406.076991247353
20
43.8769890771594
30
0
41
1
10
406.075236378401
20
43.8575857092086
30
0
41
1
10
406.075138010443
20
43.8479608419349
30
0
41
1
10
406.076381321295
20
43.8290337682529
30
0
41
1
10
406.077721107867
20
43.8197028383196
30
0
41
1
10
406.079763663424
20
43.8105075125892
30
0
0
SPLINE
5
200
100
AcDbEntity
8
1
62
256
6
ByLayer
370
18
48
1
60
0
100
AcDbSpline
70
4
71
3
72
23
73
19
40
0
40
0
40
0
40
0
40
0.12500000000028
40
0.12500000000028
40
0.18750000000042
40
0.18750000000042
40
0.25000000000056
40
0.25000000000056
40
0.37500000000084
40
0.37500000000084
40
0.50000000000112
40
0.50000000000112
40
0.6250000000014
40
0.68750000000134
40
0.68750000000134
40
0.750000000001279
40
0.750000000001279
40
1
40
1
40
1
40
1
41
1
10
405.624368451609
20
43.1350096783059
30
0
41
1
10
405.624726954269
20
43.1455347528996
30
0
41
1
10
405.625975009932
20
43.1559512339146
30
0
41
1
10
405.629179826359
20
43.1714131214533
30
0
41
1
10
405.630480597752
20
43.1765683881027
30
0
41
1
10
405.633493838547
20
43.186665174847
30
0
41
1
10
405.635200571854
20
43.1915987868329
30
0
41
1
10
405.640892429849
20
43.2060710286125
30
0
41
1
10
405.645445525084
20
43.2152832359096
30
0
41
1
10
405.656018282196
20
43.2328597773637
30
0
41
1
10
405.66208875041
20
43.2412563524894
30
0
41
1
10
405.675145853373
20
43.2565362258715
30
0
41
1
10
405.685697788383
20
43.2670064225397
30
0
41
1
10
405.697310200373
20
43.2760757151918
30
0
41
1
10
405.705287408862
20
43.2818085085678
30
0
41
1
10
405.709405814415
20
43.2845244330584
30
0
41
1
10
405.730214746183
20
43.2971013817426
30
0
41
1
10
405.74778220746
20
43.3042169456367
30
0
41
1
10
405.766148434052
20
43.3086182321911
30
0
0
SPLINE
5
201
100
AcDbEntity
8
1
62
256
6
ByLayer
370
18
48
1
60
0
100
AcDbSpline
70
4
71
3
72
32
73
28
40
0
40
0
40
0
40
0
40
0.0625000000000572
40
0.0625000000000572
40
0.125000000000114
40
0.125000000000114
40
0.250000000000229
40
0.250000000000229
40
0.312500000000214
40
0.312500000000214
40
0.3750000000002
40
0.3750000000002
40
0.437500000000185
40
0.437500000000185
40
0.50000000000017
40
0.562500000000156
40
0.59375000000026
40
0.59375000000026
40
0.625000000000365
40
0.625000000000365
40
0.750000000000395
40
0.750000000000395
40
0.812500000000297
40
0.812500000000297
40
0.875000000000198
40
0.875000000000198
40
1
40
1
40
1
40
1
41
1
10
407.564143352863
20
43.2472032336249
30
0
41
1
10
407.551888121956
20
43.2510853930562
30
0
41
1
10
407.539764065823
20
43.2555404674933
30
0
41
1
10
407.515770304851
20
43.265647046391
30
0
41
1
10
407.503949555624
20
43.2712813065486
30
0
41
1
10
407.469272796771
20
43.2898477595807
30
0
41
1
10
407.447083844192
20
43.3044626470809
30
0
41
1
10
407.415243737506
20
43.3302705777167
30
0
41
1
10
407.404835299744
20
43.3395742562181
30
0
41
1
10
407.385023083766
20
43.3591565364532
30
0
41
1
10
407.375561327535
20
43.3694750946336
30
0
41
1
10
407.357553821933
20
43.3912205947138
30
0
41
1
10
407.348986496241
20
43.4026792400823
30
0
41
1
10
407.33292226652
20
43.4266650231238
30
0
41
1
10
407.318224023092
20
43.4512655431945
30
0
41
1
10
407.303146974184
20
43.4834978291065
30
0
41
1
10
407.29557742283
20
43.5035017904029
30
0
41
1
10
407.290863191664
20
43.5169874678459
30
0
41
1
10
407.288665762318
20
43.5238291697025
30
0
41
1
10
407.278656346099
20
43.557930427523
30
0
41
1
10
407.273630606224
20
43.5851174822755
30
0
41
1
10
407.270022484539
20
43.6258783413423
30
0
41
1
10
407.269486437819
20
43.639531910519
30
0
41
1
10
407.269704538881
20
43.6663371315461
30
0
41
1
10
407.270448104226
20
43.6795265116505
30
0
41
1
10
407.274446877323
20
43.7185388793905
30
0
41
1
10
407.279453618966
20
43.7438130666124
30
0
41
1
10
407.28669679899
20
43.7684647281259
30
0
0
SPLINE
5
202
100
AcDbEntity
8
1
62
256
6
ByLayer
370
18
48
1
60
0
100
AcDbSpline
70
4
71
3
72
24
73
20
40
0
40
0
40
0
40
0
40
0.125000000000501
40
0.125000000000501
40
0.187500000000507
40
0.187500000000507
40
0.250000000000513
40
0.250000000000513
40
0.375000000000421
40
0.375000000000421
40
0.500000000000329
40
0.500000000000329
40
0.625000000000236
40
0.625000000000236
40
0.68750000000019
40
0.68750000000019
40
0.750000000000144
40
0.750000000000144
40
1
40
1
40
1
40
1
41
1
10
407.207235006402
20
43.9775059599237
30
0
41
1
10
407.216138213325
20
43.9719426187838
30
0
41
1
10
407.22450795908
20
43.9656664147123
30
0
41
1
10
407.236261894723
20
43.9551823758065
30
0
41
1
10
407.240066024934
20
43.9514858717517
30
0
41
1
10
407.247278945405
20
43.9438516588161
30
0
41
1
10
407.250687675197
20
43.939918926325
30
0
41
1
10
407.260347923877
20
43.9277904773188
30
0
41
1
10
407.266037178871
20
43.9192666030974
30
0
41
1
10
407.275957702482
20
43.9013728676897
30
0
41
1
10
407.280189438514
20
43.8919474240071
30
0
41
1
10
407.28689416251
20
43.8730593394267
30
0
41
1
10
407.289427202091
20
43.863505401691
30
0
41
1
10
407.292071343393
20
43.8490269095998
30
0
41
1
10
407.292759156631
20
43.8441760157976
30
0
41
1
10
407.29374889467
20
43.8344262490402
30
0
41
1
10
407.294049478262
20
43.829514911629
30
0
41
1
10
407.294580226833
20
43.8052706738737
30
0
41
1
10
407.292007732286
20
43.7865401217347
30
0
41
1
10
407.28669679899
20
43.7684647281259
30
0
0
SPLINE
5
203
100
AcDbEntity
8
1
62
256
6
ByLayer
370
18
48
1
60
0
100
AcDbSpline
70
4
71
3
72
23
73
19
40
0
40
0
40
0
40
0
40
0.125000000000506
40
0.125000000000506
40
0.250000000001013
40
0.250000000001013
40
0.312500000001168
40
0.312500000001168
40
0.375000000001324
40
0.500000000001059
40
0.500000000001059
40
0.625000000000794
40
0.625000000000794
40
0.75000000000053
40
0.75000000000053
40
0.875000000000265
40
0.875000000000265
40
1
40
1
40
1
40
1
41
1
10
407.693168684232
20
43.0645426824976
30
0
41
1
10
407.693524900628
20
43.0750006359573
30
0
41
1
10
407.692977158752
20
43.0856586511317
30
0
41
1
10
407.690134839554
20
43.1063574941848
30
0
41
1
10
407.687857924922
20
43.1164806570715
30
0
41
1
10
407.683183863038
20
43.1313312823473
30
0
41
1
10
407.681404468998
20
43.1362487735565
30
0
41
1
10
407.677479995171
20
43.145818609737
30
0
41
1
10
407.671045796135
20
43.1597920716627
30
0
41
1
10
407.663053876168
20
43.1726768378412
30
0
41
1
10
407.651056575219
20
43.1889105587777
30
0
41
1
10
407.644460431762
20
43.1964393304678
30
0
41
1
10
407.630408834392
20
43.2101417483863
30
0
41
1
10
407.622918247989
20
43.2163620967194
30
0
41
1
10
407.607043242659
20
43.2275708857696
30
0
41
1
10
407.598783826841
20
43.2324660084298
30
0
41
1
10
407.581824375961
20
43.2408555300229
30
0
41
1
10
407.573100711043
20
43.2443657601576
30
0
41
1
10
407.564143352863
20
43.2472032336249
30
0
0
SPLINE
5
204
100
AcDbEntity
8
1
62
256
6
ByLayer
370
18
48
1
60
0
100
AcDbSpline
70
4
71
3
72
24
73
20
40
0
40
0
40
0
40
0
40
0.124999999999332
40
0.124999999999332
40
0.18749999999931
40
0.18749999999931
40
0.249999999999288
40
0.249999999999288
40
0.374999999999147
40
0.374999999999147
40
0.499999999999005
40
0.499999999999005
40
0.624999999998864
40
0.624999999998864
40
0.68749999999919
40
0.68749999999919
40
0.749999999999517
40
0.749999999999517
40
1
40
1
40
1
40
1
41
1
10
407.143887391293
20
42.1855088632514
30
0
41
1
10
407.134613571561
20
42.1805880874211
30
0
41
1
10
407.124989823351
20
42.1764860315711
30
0
41
1
10
407.110029173365
20
42.1715616758951
30
0
41
1
10
407.104924598449
20
42.1701198327568
30
0
41
1
10
407.094704644102
20
42.1676991368345
30
0
41
1
10
407.089593592341
20
42.1667178417811
30
0
41
1
10
407.074257959768
20
42.1644292027457
30
0
41
1
10
407.064030872963
20
42.1637728738
30
0
41
1
10
407.043574483244
20
42.1641458671588
30
0
41
1
10
407.033296849021
20
42.1652026166042
30
0
41
1
10
407.013590064425
20
42.1688571042114
30
0
41
1
10
407.00405181218
20
42.1714485797071
30
0
41
1
10
406.990195246198
20
42.1764098235643
30
0
41
1
10
406.985651911336
20
42.1782435062536
30
0
41
1
10
406.976716940257
20
42.1822689217676
30
0
41
1
10
406.97231519204
20
42.1844680544202
30
0
41
1
10
406.951063721098
20
42.1961487603223
30
0
41
1
10
406.936138782057
20
42.2077546890633
30
0
41
1
10
406.923152192969
20
42.2214029476366
30
0
0
SPLINE
5
205
100
AcDbEntity
8
1
62
256
6
ByLayer
370
18
48
1
60
0
100
AcDbSpline
70
4
71
3
72
24
73
20
40
0
40
0
40
0
40
0
40
0.12499999999949
40
0.12499999999949
40
0.24999999999898
40
0.24999999999898
40
0.312499999998796
40
0.312499999998796
40
0.374999999998613
40
0.374999999998613
40
0.49999999999889
40
0.49999999999889
40
0.624999999999168
40
0.624999999999168
40
0.749999999999445
40
0.749999999999445
40
0.874999999999723
40
0.874999999999723
40
1
40
1
40
1
40
1
41
1
10
406.110302129439
20
42.2220464008798
30
0
41
1
10
406.119173914186
20
42.2165026944947
30
0
41
1
10
406.12867241511
20
42.2116400444394
30
0
41
1
10
406.148016779287
20
42.2037336245158
30
0
41
1
10
406.157919049259
20
42.2006359208141
30
0
41
1
10
406.173109159936
20
42.1972462786035
30
0
41
1
10
406.178254524929
20
42.1963242427586
30
0
41
1
10
406.188506864061
20
42.19492844358
30
0
41
1
10
406.19361379168
20
42.194451745611
30
0
41
1
10
406.208878305436
20
42.1936556537627
30
0
41
1
10
406.21898001599
20
42.1939663352738
30
0
41
1
10
406.239031609539
20
42.1962206580216
30
0
41
1
10
406.248858780671
20
42.1981611127994
30
0
41
1
10
406.267756287505
20
42.2034625755337
30
0
41
1
10
406.27688965959
20
42.2068309815046
30
0
41
1
10
406.294534445533
20
42.2149555123251
30
0
41
1
10
406.302915092929
20
42.2196570702402
30
0
41
1
10
406.318672245494
20
42.2301377536361
30
0
41
1
10
406.326079544245
20
42.2359317244747
30
0
41
1
10
406.333020901153
20
42.2422642593021
30
0
0
SPLINE
5
206
100
AcDbEntity
8
1
62
256
6
ByLayer
370
18
48
1
60
0
100
AcDbSpline
70
4
71
3
72
32
73
28
40
0
40
0
40
0
40
0
40
0.0624999999998501
40
0.0624999999998501
40
0.1249999999997
40
0.1249999999997
40
0.2499999999994
40
0.2499999999994
40
0.312499999999357
40
0.312499999999357
40
0.374999999999314
40
0.374999999999314
40
0.437499999999271
40
0.437499999999271
40
0.499999999999228
40
0.562499999999185
40
0.593749999999283
40
0.593749999999283
40
0.624999999999381
40
0.624999999999381
40
0.749999999999661
40
0.749999999999661
40
0.812499999999746
40
0.812499999999746
40
0.874999999999831
40
0.874999999999831
40
1
40
1
40
1
40
1
41
1
10
406.333020901153
20
42.2422642593021
30
0
41
1
10
406.342518001008
20
42.250928374458
30
0
41
1
10
406.352445329709
20
42.2591920630156
30
0
41
1
10
406.373208249586
20
42.2749001722437
30
0
41
1
10
406.384004394558
20
42.2823108483064
30
0
41
1
10
406.417439577169
20
42.3030298943215
30
0
41
1
10
406.441201124976
20
42.3149182656543
30
0
41
1
10
406.479484080328
20
42.3295558041383
30
0
41
1
10
406.492749257963
20
42.3339065565779
30
0
41
1
10
406.51962042443
20
42.3412502461296
30
0
41
1
10
406.533290034066
20
42.344273361531
30
0
41
1
10
406.561129985282
20
42.348971685533
30
0
41
1
10
406.575338581573
20
42.3506496957081
30
0
41
1
10
406.60414461875
20
42.3525441206239
30
0
41
1
10
406.632798766689
20
42.3529483293933
30
0
41
1
10
406.668248634819
20
42.3498588789298
30
0
41
1
10
406.689354390777
20
42.346394211992
30
0
41
1
10
406.703388163405
20
42.3437219747554
30
0
41
1
10
406.710410661891
20
42.3421981274849
30
0
41
1
10
406.744940709364
20
42.3337862814169
30
0
41
1
10
406.770990321238
20
42.3245228211182
30
0
41
1
10
406.8080795116
20
42.3072352853951
30
0
41
1
10
406.820166411356
20
42.300862357097
30
0
41
1
10
406.843259687434
20
42.2872510510524
30
0
41
1
10
406.85430402698
20
42.2800029374874
30
0
41
1
10
406.886070622696
20
42.2570064528405
30
0
41
1
10
406.905440774853
20
42.2400167662861
30
0
41
1
10
406.923152192969
20
42.2214029476366
30
0
0
SPLINE
5
207
100
AcDbEntity
8
1
62
256
6
ByLayer
370
18
48
1
60
0
100
AcDbSpline
70
4
71
3
72
8
73
4
40
0
40
0
40
0
40
0
40
1
40
1
40
1
40
1
41
1
10
378.824084969098
20
45.882702819724
30
0
41
1
10
378.824131552542
20
45.8827056882031
30
0
41
1
10
378.837372422176
20
45.8835210241775
30
0
41
1
10
378.863968426504
20
45.8851587322514
30
0
0
SPLINE
5
208
100
AcDbEntity
8
1
62
256
6
ByLayer
370
18
48
1
60
0
100
AcDbSpline
70
4
71
3
72
12
73
8
40
0
40
0
40
0
40
0
40
0.5
40
0.5
40
0.75
40
0.75
40
1
40
1
40
1
40
1
41
1
10
378.863968426504
20
45.8851587322515
30
0
41
1
10
379.020933621686
20
45.8063860975291
30
0
41
1
10
379.942977672377
20
45.311271825477
30
0
41
1
10
382.230527433695
20
44.3835420067438
30
0
41
1
10
383.157482320183
20
44.0379728144353
30
0
41
1
10
385.384260156421
20
43.5212028824088
30
0
41
1
10
386.734051673799
20
43.3816264751725
30
0
41
1
10
388.06
20
43.5276124094315
30
0
0
SPLINE
5
209
100
AcDbEntity
8
1
62
256
6
ByLayer
370
18
48
1
60
0
100
AcDbSpline
70
4
71
3
72
59
73
55
40
0
40
0
40
0
40
0
40
1.47343220751E-05
40
1.47343220751E-05
40
0.0625138134269161
40
0.0625138134269161
40
0.125012892531757
40
0.125012892531757
40
0.187511971636598
40
0.187511971636598
40
0.195324356524704
40
0.195324356524704
40
0.20313674141281
40
0.218761511189022
40
0.250011050741449
40
0.250011050741449
40
0.3125101298463
40
0.3125101298463
40
0.37500920895115
40
0.37500920895115
40
0.39063397872736
40
0.39063397872736
40
0.398446363615467
40
0.398446363615467
40
0.406258748503575
40
0.437508288056014
40
0.437508288056014
40
0.500007367160887
40
0.562506446265761
40
0.562506446265761
40
0.593755985818197
40
0.593755985818197
40
0.601568370706308
40
0.601568370706308
40
0.609380755594419
40
0.625005525370648
40
0.625005525370648
40
0.687504604475569
40
0.687504604475569
40
0.750003683580491
40
0.750003683580491
40
0.781253223132948
40
0.781253223132948
40
0.796877992909172
40
0.796877992909172
40
0.804690377797283
40
0.804690377797283
40
0.812502762685395
40
0.812502762685395
40
0.875001841790263
40
0.875001841790263
40
0.937500920895132
40
0.937500920895132
40
1
40
1
40
1
40
1
41
1
10
375.249999513764
20
42.3085313624108
30
0
41
1
10
375.250000510457
20
42.308531444886
30
0
41
1
10
375.250001507151
20
42.3085315273603
30
0
41
1
10
375.250128247775
20
42.3085420148749
30
0
41
1
10
375.271686506562
20
42.310325561383
30
0
41
1
10
375.356301399104
20
42.3173301582325
30
0
41
1
10
375.419361664562
20
42.3225515052622
30
0
41
1
10
375.586998566107
20
42.3364458410886
30
0
41
1
10
375.691571451943
20
42.3451184653591
30
0
41
1
10
375.833344304892
20
42.3568931149792
30
0
41
1
10
375.849443483943
20
42.3582304002002
30
0
41
1
10
375.882266476298
20
42.3609573021665
30
0
41
1
10
375.932403714332
20
42.3651233105039
30
0
41
1
10
376.055669352519
20
42.3753707369771
30
0
41
1
10
376.171962154518
20
42.3850484901425
30
0
41
1
10
376.418501799903
20
42.4055827444208
30
0
41
1
10
376.601430237293
20
42.4208406211491
30
0
41
1
10
377.004133429427
20
42.4545028013205
30
0
41
1
10
377.223906530855
20
42.472906878457
30
0
41
1
10
377.522219883089
20
42.4979522186864
30
0
41
1
10
377.583065459304
20
42.5030635784187
30
0
41
1
10
377.676128355462
20
42.5108863138173
30
0
41
1
10
377.707472050574
20
42.5135218308436
30
0
41
1
10
377.770618139006
20
42.5188331285698
30
0
41
1
10
377.929633213601
20
42.5322122876537
30
0
41
1
10
378.09435415065
20
42.5460933068973
30
0
41
1
10
378.500420367982
20
42.5803604553678
30
0
41
1
10
379.070414723352
20
42.6285854320654
30
0
41
1
10
379.696659562329
20
42.6818934320432
30
0
41
1
10
380.187785424155
20
42.7238474425053
30
0
41
1
10
380.355074830439
20
42.7381616147695
30
0
41
1
10
380.568755309666
20
42.7564784920729
30
0
41
1
10
380.611749607112
20
42.7601656322262
30
0
41
1
10
380.697975798168
20
42.7675636271862
30
0
41
1
10
380.827716067203
20
42.7787000066612
30
0
41
1
10
380.958651440431
20
42.7899541926323
30
0
41
1
10
381.397729232796
20
42.827728855272
30
0
41
1
10
381.757374858445
20
42.8587809138546
30
0
41
1
10
382.493041824585
20
42.9225538658017
30
0
41
1
10
382.869063815322
20
42.9552747475983
30
0
41
1
10
383.44548511093
20
43.0056476212719
30
0
41
1
10
383.639694325336
20
43.022654219308
30
0
41
1
10
383.934162747873
20
43.0484962255837
30
0
41
1
10
384.032844930502
20
43.0571656058453
30
0
41
1
10
384.181666277821
20
43.0702540766035
30
0
41
1
10
384.231439952727
20
43.0746339225918
30
0
41
1
10
384.331002311797
20
43.0833997328707
30
0
41
1
10
384.380808239397
20
43.0877872102623
30
0
41
1
10
384.829282949219
20
43.1273156713313
30
0
41
1
10
385.229496883888
20
43.1627443996731
30
0
41
1
10
386.032969847508
20
43.2341938032012
30
0
41
1
10
386.436229104104
20
43.2702144835756
30
0
41
1
10
387.245799291369
20
43.3428647540978
30
0
41
1
10
387.652109909284
20
43.3794942993111
30
0
41
1
10
388.06
20
43.4164418456489
30
0
0
SPLINE
5
20A
100
AcDbEntity
8
1
62
256
6
ByLayer
370
18
48
1
60
0
100
AcDbSpline
70
4
71
3
72
8
73
4
40
0
40
0
40
0
40
0
40
1
40
1
40
1
40
1
41
1
10
401.423183662897
20
46.9292632804434
30
0
41
1
10
399.727945381584
20
46.8239806544892
30
0
41
1
10
398.191592201353
20
46.6442036639502
30
0
41
1
10
397.423451219431
20
46.2754164546439
30
0
0
SPLINE
5
20B
100
AcDbEntity
8
1
62
256
6
ByLayer
370
18
48
1
60
0
100
AcDbSpline
70
4
71
3
72
10
73
6
40
0
40
0
40
0
40
0
40
0.5
40
0.5
40
1
40
1
40
1
40
1
41
1
10
388.06
20
43.4690027792903
30
0
41
1
10
390.061928546068
20
43.6701056455677
30
0
41
1
10
391.977472013297
20
44.1516680181842
30
0
41
1
10
395.184709556353
20
45.2376302525002
30
0
41
1
10
396.506394422734
20
45.8351342345975
30
0
41
1
10
397.423451219431
20
46.2754164546439
30
0
0
SPLINE
5
20C
100
AcDbEntity
8
1
62
256
6
ByLayer
370
18
48
1
60
0
100
AcDbSpline
70
4
71
3
72
105
73
101
40
0
40
0
40
0
40
0
40
0.0078084921240775
40
0.0078084921240775
40
0.0156169842481549
40
0.0156169842481549
40
0.0312339684963096
40
0.0312339684963096
40
0.0624679369926208
40
0.0624679369926208
40
0.093701905488932
40
0.093701905488932
40
0.101510397613008
40
0.101510397613008
40
0.109318889737085
40
0.124935873985237
40
0.124935873985237
40
0.156169842481538
40
0.156169842481538
40
0.187403810977839
40
0.187403810977839
40
0.195212303101914
40
0.195212303101914
40
0.203020795225989
40
0.218637779474144
40
0.218637779474144
40
0.249871747970458
40
0.249871747970458
40
0.281105716466772
40
0.281105716466772
40
0.288914208590851
40
0.288914208590851
40
0.29672270071493
40
0.29672270071493
40
0.312339684963087
40
0.312339684963087
40
0.343573653459409
40
0.343573653459409
40
0.374807621955731
40
0.406041590452054
40
0.406041590452054
40
0.413850082576134
40
0.413850082576134
40
0.421658574700215
40
0.437275558948376
40
0.437275558948376
40
0.468509527444704
40
0.499743495941033
40
0.499743495941033
40
0.530977464437362
40
0.530977464437362
40
0.538785956561447
40
0.538785956561447
40
0.546594448685532
40
0.562211432933703
40
0.562211432933703
40
0.593445401430046
40
0.593445401430046
40
0.624679369926389
40
0.624679369926389
40
0.655913338422732
40
0.655913338422732
40
0.663721830546818
40
0.663721830546818
40
0.671530322670904
40
0.687147306919075
40
0.687147306919075
40
0.718381275415424
40
0.718381275415424
40
0.749615243911773
40
0.749615243911773
40
0.780849212408122
40
0.780849212408122
40
0.78865770453221
40
0.78865770453221
40
0.796466196656299
40
0.796466196656299
40
0.81208318090448
40
0.81208318090448
40
0.843317149400845
40
0.843317149400845
40
0.87455111789721
40
0.87455111789721
40
0.890168102145393
40
0.890168102145393
40
0.905785086393575
40
0.905785086393575
40
0.937019054889939
40
0.937019054889939
40
0.968253023386304
40
0.968253023386304
40
0.983870007634485
40
0.983870007634485
40
0.987774253696531
40
0.987774253696531
40
0.991678499758576
40
0.991678499758576
40
0.999486991882667
40
0.999486991882667
40
1
40
1
40
1
40
1
41
1
10
378.863968426504
20
45.8851587322514
30
0
41
1
10
378.87214752634
20
45.8834628598882
30
0
41
1
10
378.881284303497
20
45.8815710974771
30
0
41
1
10
378.901493212986
20
45.8773959519661
30
0
41
1
10
378.912572860374
20
45.8751110459702
30
0
41
1
10
378.948477150263
20
45.8677255374191
30
0
41
1
10
378.976029867889
20
45.8620808242452
30
0
41
1
10
379.069204751134
20
45.8431239106177
30
0
41
1
10
379.145315646586
20
45.8277892758047
30
0
41
1
10
379.324494285049
20
45.7924515127457
30
0
41
1
10
379.427564701933
20
45.772446928238
30
0
41
1
10
379.57315449756
20
45.7449784685554
30
0
41
1
10
379.603153552772
20
45.7393540613778
30
0
41
1
10
379.664525501281
20
45.7279286355461
30
0
41
1
10
379.758700551514
20
45.7105147247743
30
0
41
1
10
379.859096507857
20
45.6923480724876
30
0
41
1
10
380.067912583398
20
45.6552023561541
30
0
41
1
10
380.217800709092
20
45.6293560350943
30
0
41
1
10
380.538068948441
20
45.5764798184549
30
0
41
1
10
380.708451774773
20
45.5494480889986
30
0
41
1
10
380.934115245305
20
45.5155288918521
30
0
41
1
10
380.97987765523
20
45.5087398586939
30
0
41
1
10
381.072222028912
20
45.4952299453577
30
0
41
1
10
381.212131482113
20
45.4750425555686
30
0
41
1
10
381.356145383309
20
45.455152977005
30
0
41
1
10
381.649493895606
20
45.4159403535366
30
0
41
1
10
381.852140932144
20
45.3905543000577
30
0
41
1
10
382.271134070997
20
45.3421745316016
30
0
41
1
10
382.487481778042
20
45.319179550836
30
0
41
1
10
382.766439156632
20
45.2924827871718
30
0
41
1
10
382.822657688451
20
45.2872458447757
30
0
41
1
10
382.935951492565
20
45.2769909368933
30
0
41
1
10
382.993071567111
20
45.2719694326875
30
0
41
1
10
383.164978867888
20
45.2573166537021
30
0
41
1
10
383.280518802608
20
45.2480776004675
30
0
41
1
10
383.629871073771
20
45.2220567752607
30
0
41
1
10
383.866410100424
20
45.206971944653
30
0
41
1
10
384.3465296085
20
45.1818818405637
30
0
41
1
10
384.833692076595
20
45.1618707516232
30
0
41
1
10
385.33482760804
20
45.1530975920167
30
0
41
1
10
385.652471361221
20
45.1514648117902
30
0
41
1
10
385.716190603971
20
45.1513314825205
30
0
41
1
10
385.843504896545
20
45.1514550874178
30
0
41
1
10
386.03449663837
20
45.1522245253148
30
0
41
1
10
386.225547440689
20
45.1547487429779
30
0
41
1
10
386.607724068
20
45.1621419618942
30
0
41
1
10
387.117492203398
20
45.1782538043468
30
0
41
1
10
387.627638369072
20
45.2068931181175
30
0
41
1
10
388.137975060677
20
45.2417838518516
30
0
41
1
10
388.393238641208
20
45.2623548619596
30
0
41
1
10
388.712445609823
20
45.2919553855634
30
0
41
1
10
388.776176046489
20
45.2980591782926
30
0
41
1
10
388.903135551864
20
45.3105998730756
30
0
41
1
10
389.092954528513
20
45.329922758361
30
0
41
1
10
389.280932615049
20
45.3507452456809
30
0
41
1
10
389.654474241264
20
45.3942947210021
30
0
41
1
10
389.900287005077
20
45.4258671208886
30
0
41
1
10
390.385586878557
20
45.4935864758198
30
0
41
1
10
390.625074217922
20
45.5297338726118
30
0
41
1
10
391.09768347409
20
45.6060919523566
30
0
41
1
10
391.330806280369
20
45.6463032011812
30
0
41
1
10
391.618106740455
20
45.6987731944494
30
0
41
1
10
391.675422246083
20
45.7093890603538
30
0
41
1
10
391.789158152457
20
45.7307417859852
30
0
41
1
10
391.958529936386
20
45.7629716325116
30
0
41
1
10
392.124232023427
20
45.795746381663
30
0
41
1
10
392.45078194039
20
45.8618709383881
30
0
41
1
10
392.662021011608
20
45.9067212898412
30
0
41
1
10
393.071509787054
20
45.9971474269217
30
0
41
1
10
393.269761167402
20
46.0427246250704
30
0
41
1
10
393.652821437957
20
46.1337629263246
30
0
41
1
10
393.837634296403
20
46.1792259732719
30
0
41
1
10
394.059673716574
20
46.2354039813542
30
0
41
1
10
394.10363142871
20
46.2466067492198
30
0
41
1
10
394.190626249094
20
46.2689307625546
30
0
41
1
10
394.233661483372
20
46.2800517964994
30
0
41
1
10
394.360646545541
20
46.3130826841776
30
0
41
1
10
394.442722250378
20
46.3347230674354
30
0
41
1
10
394.681159223378
20
46.3983279827212
30
0
41
1
10
394.829752526529
20
46.4389793840055
30
0
41
1
10
395.105451370665
20
46.5157879958792
30
0
41
1
10
395.232562795254
20
46.5519478487413
30
0
41
1
10
395.405966442713
20
46.6019796613489
30
0
41
1
10
395.460883822988
20
46.6179543523767
30
0
41
1
10
395.564665426009
20
46.6483385982816
30
0
41
1
10
395.612990156772
20
46.6625898481771
30
0
41
1
10
395.747293878954
20
46.7024084032991
30
0
41
1
10
395.822642990503
20
46.7250468451944
30
0
41
1
10
395.944620734659
20
46.7619099472197
30
0
41
1
10
395.991252853815
20
46.7761360448753
30
0
41
1
10
396.038718213301
20
46.7906468771611
30
0
41
1
10
396.050785449849
20
46.7943449076768
30
0
41
1
10
396.061015474024
20
46.7974816126823
30
0
41
1
10
396.062818597583
20
46.7980346370115
30
0
41
1
10
396.065934316901
20
46.7989903927307
30
0
41
1
10
396.067247686358
20
46.799393361521
30
0
41
1
10
396.070434966646
20
46.8003713823732
30
0
41
1
10
396.071560747408
20
46.8007169614599
30
0
41
1
10
396.071710656654
20
46.8007629740096
30
0
41
1
10
396.071715559077
20
46.8007644764058
30
0
41
1
10
396.071716516595
20
46.8007647651189
30
0
0
SPLINE
5
20D
100
AcDbEntity
8
1
62
256
6
ByLayer
370
18
48
1
60
0
100
AcDbSpline
70
4
71
3
72
63
73
59
40
0
40
0
40
0
40
0
40
0.0625000000000454
40
0.0625000000000454
40
0.0937500000000702
40
0.0937500000000702
40
0.125000000000095
40
0.125000000000095
40
0.187500000000148
40
0.187500000000148
40
0.218750000000147
40
0.218750000000147
40
0.234375000000139
40
0.234375000000139
40
0.25000000000013
40
0.25000000000013
40
0.312500000000278
40
0.312500000000278
40
0.343750000000352
40
0.343750000000352
40
0.359375000000403
40
0.359375000000403
40
0.375000000000454
40
0.375000000000454
40
0.437500000000629
40
0.437500000000629
40
0.468750000000716
40
0.468750000000716
40
0.48437500000074
40
0.48437500000074
40
0.500000000000764
40
0.500000000000764
40
0.562500000000775
40
0.562500000000775
40
0.593750000000781
40
0.593750000000781
40
0.609375000000779
40
0.609375000000779
40
0.625000000000778
40
0.625000000000778
40
0.687500000000776
40
0.687500000000776
40
0.70312500000075
40
0.70312500000075
40
0.718750000000724
40
0.718750000000724
40
0.750000000000618
40
0.750000000000618
40
0.812500000000371
40
0.812500000000371
40
0.828125000000341
40
0.828125000000341
40
0.84375000000031
40
0.875000000000248
40
0.875000000000248
40
0.937500000000124
40
0.937500000000124
40
1
40
1
40
1
40
1
41
1
10
401.393035694374
20
42.0899911636377
30
0
41
1
10
401.32184986471
20
42.0704386441219
30
0
41
1
10
401.250033889619
20
42.0574423242317
30
0
41
1
10
401.141438916356
20
42.0473495599993
30
0
41
1
10
401.105094269706
20
42.0455614740582
30
0
41
1
10
401.032111353974
20
42.0451736986685
30
0
41
1
10
400.995332605222
20
42.0465971621716
30
0
41
1
10
400.886587784804
20
42.0555775035972
30
0
41
1
10
400.815658574545
20
42.0677563756739
30
0
41
1
10
400.711493682741
20
42.094949941367
30
0
41
1
10
400.67714538422
20
42.1055109358174
30
0
41
1
10
400.626183871424
20
42.1236319609837
30
0
41
1
10
400.609254316902
20
42.1300684028912
30
0
41
1
10
400.575851257304
20
42.143602704009
30
0
41
1
10
400.55935906312
20
42.1507052569732
30
0
41
1
10
400.477919747875
20
42.1878645807801
30
0
41
1
10
400.416014639461
20
42.2228206669969
30
0
41
1
10
400.327834407491
20
42.2830139466473
30
0
41
1
10
400.299225038343
20
42.304379402414
30
0
41
1
10
400.257504230037
20
42.3384429195341
30
0
41
1
10
400.243792081568
20
42.3501406988599
30
0
41
1
10
400.217018076094
20
42.373996411366
30
0
41
1
10
400.203923516309
20
42.3861801225015
30
0
41
1
10
400.139888416135
20
42.448366601385
30
0
41
1
10
400.093225868006
20
42.5021414953542
30
0
41
1
10
400.030039613566
20
42.5890075822677
30
0
41
1
10
400.010118911273
20
42.6190030064114
30
0
41
1
10
399.982011212793
20
42.6656380200291
30
0
41
1
10
399.972923736454
20
42.6814870208802
30
0
41
1
10
399.955528930297
20
42.713423907259
30
0
41
1
10
399.9472001965
20
42.7295445388052
30
0
41
1
10
399.907377526739
20
42.8109043456714
30
0
41
1
10
399.881302382531
20
42.8783962339853
30
0
41
1
10
399.850973084833
20
42.9833661316572
30
0
41
1
10
399.842335760826
20
43.0189814329224
30
0
41
1
10
399.831686601645
20
43.0733914902081
30
0
41
1
10
399.828518925169
20
43.091727687513
30
0
41
1
10
399.823033131251
20
43.1283196854453
30
0
41
1
10
399.820704570317
20
43.1466207354928
30
0
41
1
10
399.8111020337
20
43.2381509083199
30
0
41
1
10
399.80990170372
20
43.3114542920516
30
0
41
1
10
399.816485370871
20
43.4031824624847
30
0
41
1
10
399.818209250915
20
43.4215330752369
30
0
41
1
10
399.822482883938
20
43.4582443845462
30
0
41
1
10
399.82503939611
20
43.4766455249413
30
0
41
1
10
399.83392500255
20
43.531576209378
30
0
41
1
10
399.841422542629
20
43.5676075890104
30
0
41
1
10
399.868449995426
20
43.6740154388551
30
0
41
1
10
399.892479469498
20
43.7427175275978
30
0
41
1
10
399.929981822881
20
43.8258734359918
30
0
41
1
10
399.937875761152
20
43.8424013574637
30
0
41
1
10
399.954341253321
20
43.8750148314676
30
0
41
1
10
399.979999479973
20
43.9231699359252
30
0
41
1
10
400.008468196851
20
43.9691009805535
30
0
41
1
10
400.069063222205
20
44.0581123711335
30
0
41
1
10
400.114306420368
20
44.1136751449878
30
0
41
1
10
400.2147577395
20
44.2172783819303
30
0
41
1
10
400.26898465643
20
44.2643036144671
30
0
41
1
10
400.327229796343
20
44.3066211856635
30
0
0
SPLINE
5
20E
100
AcDbEntity
8
1
62
256
6
ByLayer
370
18
48
1
60
0
100
AcDbSpline
70
4
71
3
72
15
73
11
40
0
40
0
40
0
40
0
40
0.249999999999794
40
0.499999999999588
40
0.499999999999588
40
0.624999999999655
40
0.624999999999655
40
0.749999999999722
40
0.749999999999722
40
1
40
1
40
1
40
1
41
1
10
400.460603691393
20
38.2085314026469
30
0
41
1
10
400.497579561905
20
38.2085314026469
30
0
41
1
10
400.570949892647
20
38.2034283168094
30
0
41
1
10
400.643158845113
20
38.1883120206772
30
0
41
1
10
400.696847181936
20
38.1730803299744
30
0
41
1
10
400.714702787885
20
38.1673378867453
30
0
41
1
10
400.750075985571
20
38.1545605053303
30
0
41
1
10
400.767503996628
20
38.1475610648131
30
0
41
1
10
400.819010824377
20
38.1247400891939
30
0
41
1
10
400.852316504038
20
38.1071047939642
30
0
41
1
10
400.88453910278
20
38.086969879572
30
0
0
SPLINE
5
20F
100
AcDbEntity
8
1
62
256
6
ByLayer
370
18
48
1
60
0
100
AcDbSpline
70
4
71
3
72
16
73
12
40
0
40
0
40
0
40
0
40
0.463076323289434
40
0.463076323289434
40
0.64541792213893
40
0.64541792213893
40
0.830321639273293
40
0.830321639273293
40
0.944651290970171
40
0.944651290970171
40
1
40
1
40
1
40
1
41
1
10
13.8943375672975
20
12.6576002058708
30
0
41
1
10
13.8656875508895
20
12.5522940543954
30
0
41
1
10
13.8264948630639
20
12.4476658274366
30
0
41
1
10
13.745903860571
20
12.3160508976665
30
0
41
1
10
13.7197885089046
20
12.2800720868294
30
0
41
1
10
13.6590638298547
20
12.2151290969616
30
0
41
1
10
13.6235548234215
20
12.1854983827965
30
0
41
1
10
13.5583782361156
20
12.1514192676289
30
0
41
1
10
13.5310225116492
20
12.141560384793
30
0
41
1
10
13.4892613583297
20
12.1343167157604
30
0
41
1
10
13.4752661839162
20
12.1330899674711
30
0
41
1
10
13.4613248654054
20
12.1330899674711
30
0
0
SPLINE
5
210
100
AcDbEntity
8
1
62
256
6
ByLayer
370
18
48
1
60
0
100
AcDbSpline
70
4
71
3
72
16
73
12
40
0
40
0
40
0
40
0
40
0.111412770144095
40
0.111412770144095
40
0.248965452398478
40
0.248965452398478
40
0.467123877727718
40
0.467123877727718
40
0.889866934614052
40
0.889866934614052
40
1
40
1
40
1
40
1
41
1
10
13.4613248654053
20
38.1154578595252
30
0
41
1
10
13.4891025941391
20
38.1154578595252
30
0
41
1
10
13.5172256117114
20
38.1138543599701
30
0
41
1
10
13.5755663174454
20
38.1074356116131
30
0
41
1
10
13.6057164246603
20
38.1019214555354
30
0
41
1
10
13.6749461812578
20
38.0851194427548
30
0
41
1
10
13.7106943542744
20
38.0721266199018
30
0
41
1
10
13.7995108663106
20
38.0315976751079
30
0
41
1
10
13.8406224917981
20
38.0009250413254
30
0
41
1
10
13.8799825988555
20
37.9612613686124
30
0
41
1
10
13.8874729933639
20
37.95291777245
30
0
41
1
10
13.8943375672976
20
37.9445010117188
30
0
0
SPLINE
5
211
100
AcDbEntity
8
1
62
256
6
ByLayer
370
18
48
1
60
0
100
AcDbSpline
70
4
71
3
72
16
73
12
40
0
40
0
40
0
40
0
40
0.463076323289424
40
0.463076323289424
40
0.645417922138915
40
0.645417922138915
40
0.830321639273309
40
0.830321639273309
40
0.944651290970174
40
0.944651290970174
40
1
40
1
40
1
40
1
41
1
10
10.1056624327028
20
37.9445010117188
30
0
41
1
10
10.1343124491108
20
37.9796292418722
30
0
41
1
10
10.1735051369364
20
38.0140162383098
30
0
41
1
10
10.2540961394293
20
38.0567528229609
30
0
41
1
10
10.2802114910958
20
38.0683724898048
30
0
41
1
10
10.3409361701456
20
38.089260870453
30
0
41
1
10
10.3764451765788
20
38.0987416550404
30
0
41
1
10
10.4416217638848
20
38.1096208051143
30
0
41
1
10
10.4689774883511
20
38.1127608221447
30
0
41
1
10
10.5107386416706
20
38.1150674153358
30
0
41
1
10
10.5247338160841
20
38.1154578595253
30
0
41
1
10
10.5386751345949
20
38.1154578595253
30
0
0
SPLINE
5
212
100
AcDbEntity
8
1
62
256
6
ByLayer
370
18
48
1
60
0
100
AcDbSpline
70
4
71
3
72
16
73
12
40
0
40
0
40
0
40
0
40
0.111412770144027
40
0.111412770144027
40
0.248965452398395
40
0.248965452398395
40
0.46712387772763
40
0.46712387772763
40
0.889866934613988
40
0.889866934613988
40
1
40
1
40
1
40
1
41
1
10
10.5386751345949
20
12.1330899674712
30
0
41
1
10
10.5108974058612
20
12.1330899674712
30
0
41
1
10
10.4827743882889
20
12.1381298129194
30
0
41
1
10
10.4244336825549
20
12.1582682733021
30
0
41
1
10
10.3942835753399
20
12.1755507890906
30
0
41
1
10
10.3250538187425
20
12.2280340568697
30
0
41
1
10
10.289305645726
20
12.2684634146659
30
0
41
1
10
10.2004891336897
20
12.3937525277227
30
0
41
1
10
10.1593775082022
20
12.4875806371419
30
0
41
1
10
10.1200174011448
20
12.6072726192709
30
0
41
1
10
10.1125270066364
20
12.6323687417003
30
0
41
1
10
10.1056624327027
20
12.6576002058708
30
0
0
SPLINE
5
213
100
AcDbEntity
8
1
62
256
6
ByLayer
370
18
48
1
60
0
100
AcDbSpline
70
4
71
3
72
16
73
12
40
0
40
0
40
0
40
0
40
0.463076323289481
40
0.463076323289481
40
0.645417922138942
40
0.645417922138942
40
0.830321639273339
40
0.830321639273339
40
0.944651290970204
40
0.944651290970204
40
1
40
1
40
1
40
1
41
1
10
13.8943375672975
20
-37.944501011719
30
0
41
1
10
13.8656875508895
20
-37.9796292418724
30
0
41
1
10
13.8264948630639
20
-38.01401623831
30
0
41
1
10
13.745903860571
20
-38.0567528229611
30
0
41
1
10
13.7197885089045
20
-38.068372489805
30
0
41
1
10
13.6590638298546
20
-38.0892608704531
30
0
41
1
10
13.6235548234215
20
-38.0987416550406
30
0
41
1
10
13.5583782361155
20
-38.1096208051145
30
0
41
1
10
13.5310225116492
20
-38.1127608221449
30
0
41
1
10
13.4892613583297
20
-38.115067415336
30
0
41
1
10
13.4752661839162
20
-38.1154578595255
30
0
41
1
10
13.4613248654054
20
-38.1154578595255
30
0
0
SPLINE
5
214
100
AcDbEntity
8
1
62
256
6
ByLayer
370
18
48
1
60
0
100
AcDbSpline
70
4
71
3
72
16
73
12
40
0
40
0
40
0
40
0
40
0.111412770144096
40
0.111412770144096
40
0.248965452398481
40
0.248965452398481
40
0.467123877727724
40
0.467123877727724
40
0.889866934614141
40
0.889866934614141
40
1
40
1
40
1
40
1
41
1
10
13.4613248654053
20
-12.1330899674713
30
0
41
1
10
13.4891025941391
20
-12.1330899674713
30
0
41
1
10
13.5172256117114
20
-12.1381298129195
30
0
41
1
10
13.5755663174454
20
-12.1582682733023
30
0
41
1
10
13.6057164246604
20
-12.1755507890907
30
0
41
1
10
13.6749461812578
20
-12.2280340568698
30
0
41
1
10
13.7106943542744
20
-12.2684634146661
30
0
41
1
10
13.7995108663106
20
-12.3937525277229
30
0
41
1
10
13.8406224917981
20
-12.4875806371422
30
0
41
1
10
13.8799825988555
20
-12.6072726192711
30
0
41
1
10
13.8874729933639
20
-12.6323687417005
30
0
41
1
10
13.8943375672976
20
-12.6576002058709
30
0
0
SPLINE
5
215
100
AcDbEntity
8
1
62
256
6
ByLayer
370
18
48
1
60
0
100
AcDbSpline
70
4
71
3
72
16
73
12
40
0
40
0
40
0
40
0
40
0.463076323289473
40
0.463076323289473
40
0.645417922138923
40
0.645417922138923
40
0.830321639273311
40
0.830321639273311
40
0.944651290970175
40
0.944651290970175
40
1
40
1
40
1
40
1
41
1
10
10.1056624327028
20
-12.657600205871
30
0
41
1
10
10.1343124491108
20
-12.5522940543955
30
0
41
1
10
10.1735051369364
20
-12.4476658274368
30
0
41
1
10
10.2540961394293
20
-12.3160508976666
30
0
41
1
10
10.2802114910958
20
-12.2800720868295
30
0
41
1
10
10.3409361701456
20
-12.2151290969617
30
0
41
1
10
10.3764451765788
20
-12.1854983827967
30
0
41
1
10
10.4416217638848
20
-12.1514192676291
30
0
41
1
10
10.4689774883511
20
-12.1415603847932
30
0
41
1
10
10.5107386416706
20
-12.1343167157606
30
0
41
1
10
10.5247338160841
20
-12.1330899674712
30
0
41
1
10
10.5386751345949
20
-12.1330899674712
30
0
0
SPLINE
5
216
100
AcDbEntity
8
1
62
256
6
ByLayer
370
18
48
1
60
0
100
AcDbSpline
70
4
71
3
72
16
73
12
40
0
40
0
40
0
40
0
40
0.111412770144029
40
0.111412770144029
40
0.248965452398423
40
0.248965452398423
40
0.467123877727626
40
0.467123877727626
40
0.889866934614034
40
0.889866934614034
40
1
40
1
40
1
40
1
41
1
10
10.5386751345949
20
-38.1154578595254
30
0
41
1
10
10.5108974058612
20
-38.1154578595254
30
0
41
1
10
10.4827743882889
20
-38.1138543599703
30
0
41
1
10
10.4244336825549
20
-38.1074356116132
30
0
41
1
10
10.3942835753399
20
-38.1019214555356
30
0
41
1
10
10.3250538187425
20
-38.0851194427551
30
0
41
1
10
10.289305645726
20
-38.072126619902
30
0
41
1
10
10.2004891336897
20
-38.0315976751081
30
0
41
1
10
10.1593775082022
20
-38.0009250413256
30
0
41
1
10
10.1200174011448
20
-37.9612613686126
30
0
41
1
10
10.1125270066364
20
-37.9529177724502
30
0
41
1
10
10.1056624327027
20
-37.944501011719
30
0
0
SPLINE
5
217
100
AcDbEntity
8
1
62
256
6
ByLayer
370
18
48
1
60
0
100
AcDbSpline
70
4
71
3
72
26
73
22
40
0
40
0
40
0
40
0
40
0.0755865112246341
40
0.0755865112246341
40
0.175416143242353
40
0.175416143242353
40
0.296375862620517
40
0.296375862620517
40
0.437308120595568
40
0.437308120595568
40
0.58305808159685
40
0.58305808159685
40
0.680752532153699
40
0.680752532153699
40
0.779363617044453
40
0.779363617044453
40
0.864964158475034
40
0.864964158475034
40
0.945052664325134
40
0.945052664325134
40
1
40
1
40
1
40
1
41
1
10
372.324711419704
20
38.8622233233671
30
0
41
1
10
372.188878743338
20
38.8660517578758
30
0
41
1
10
372.054401010683
20
38.8743343840485
30
0
41
1
10
371.758550377934
20
38.901212206319
30
0
41
1
10
371.598964305919
20
38.9225157070755
30
0
41
1
10
371.280784606085
20
38.9773204342998
30
0
41
1
10
371.125361821435
20
39.0130758315187
30
0
41
1
10
370.845817679524
20
39.0953913196758
30
0
41
1
10
370.726829049272
20
39.143938413979
30
0
41
1
10
370.571982607228
20
39.2420881214692
30
0
41
1
10
370.536659778386
20
39.2934022081609
30
0
41
1
10
370.574722219051
20
39.372249723163
30
0
41
1
10
370.617162801086
20
39.4029149337771
30
0
41
1
10
370.760012320787
20
39.4573897342628
30
0
41
1
10
370.863708693748
20
39.4819575142304
30
0
41
1
10
371.102905897031
20
39.5182165490571
30
0
41
1
10
371.235816092077
20
39.5316949907051
30
0
41
1
10
371.510999967787
20
39.5496245492411
30
0
41
1
10
371.655526901384
20
39.5548623488259
30
0
41
1
10
371.899422014327
20
39.5580240602638
30
0
41
1
10
372.000145693312
20
39.5577684595835
30
0
41
1
10
372.099256514712
20
39.5561021728359
30
0
0
SPLINE
5
218
100
AcDbEntity
8
1
62
256
6
ByLayer
370
18
48
1
60
0
100
AcDbSpline
70
4
71
3
72
37
73
33
40
0
40
0
40
0
40
0
40
0.0625000000002041
40
0.0625000000002041
40
0.0937500000002451
40
0.0937500000002451
40
0.125000000000286
40
0.125000000000286
40
0.187500000000277
40
0.187500000000277
40
0.218750000000323
40
0.218750000000323
40
0.25000000000037
40
0.25000000000037
40
0.312500000000412
40
0.312500000000412
40
0.375000000000454
40
0.375000000000454
40
0.406250000000456
40
0.406250000000456
40
0.437500000000458
40
0.500000000000433
40
0.500000000000433
40
0.625000000000277
40
0.625000000000277
40
0.750000000000121
40
0.750000000000121
40
0.81250000000007
40
0.81250000000007
40
0.875000000000019
40
0.875000000000019
40
1
40
1
40
1
40
1
41
1
10
374.861880215352
20
36.4999999999999
30
0
41
1
10
374.83431569129
20
36.4999999999999
30
0
41
1
10
374.807383072849
20
36.5014183751366
30
0
41
1
10
374.76782822645
20
36.5054373146747
30
0
41
1
10
374.754767710049
20
36.5070959039591
30
0
41
1
10
374.728986380649
20
36.5110074632742
30
0
41
1
10
374.716471525101
20
36.5132275648386
30
0
41
1
10
374.679906686863
20
36.5205746715363
30
0
41
1
10
374.656829231903
20
36.5263833994705
30
0
41
1
10
374.623762519121
20
36.5361727287211
30
0
41
1
10
374.612963473484
20
36.5396301620996
30
0
41
1
10
374.592080044722
20
36.5467870801033
30
0
41
1
10
374.581983442852
20
36.5504879763272
30
0
41
1
10
374.552591077024
20
36.5619064175493
30
0
41
1
10
374.53418619562
20
36.5699372966801
30
0
41
1
10
374.499250295579
20
36.5866456261911
30
0
41
1
10
374.482722834142
20
36.5953243826255
30
0
41
1
10
374.459095645527
20
36.6087355052694
30
0
41
1
10
374.45140233376
20
36.6132797461021
30
0
41
1
10
374.436457510876
20
36.6224364820135
30
0
41
1
10
374.414691553245
20
36.6362793586097
30
0
41
1
10
374.394676706867
20
36.650405793622
30
0
41
1
10
374.356592157543
20
36.6789597566686
30
0
41
1
10
374.333776256183
20
36.6983933672614
30
0
41
1
10
374.292008369072
20
36.7377986027563
30
0
41
1
10
374.273069475638
20
36.7577727483978
30
0
41
1
10
374.247014885659
20
36.7880256390795
30
0
41
1
10
374.23872144419
20
36.7981647129594
30
0
41
1
10
374.222907507599
20
36.8184614364961
30
0
41
1
10
374.215380185087
20
36.8286266154988
30
0
41
1
10
374.193837413312
20
36.8591605262332
30
0
41
1
10
374.180856812095
20
36.8795671355841
30
0
41
1
10
374.169059892324
20
36.8999999999999
30
0
0
SPLINE
5
219
100
AcDbEntity
8
1
62
256
6
ByLayer
370
18
48
1
60
0
100
AcDbSpline
70
4
71
3
72
10
73
6
40
0
40
0
40
0
40
0
40
0.5
40
0.5
40
1
40
1
40
1
40
1
41
1
10
376.563089504543
20
29.5603080135081
30
0
41
1
10
376.91847413406
20
30.4504277038847
30
0
41
1
10
377.555614848071
20
31.2322391776638
30
0
41
1
10
379.499388563863
20
32.3802315681784
30
0
41
1
10
380.822969289035
20
32.726136343907
30
0
41
1
10
382.201245229258
20
32.7261363439071
30
0
0
SPLINE
5
21A
100
AcDbEntity
8
1
62
256
6
ByLayer
370
18
48
1
60
0
100
AcDbSpline
70
4
71
3
72
10
73
6
40
0
40
0
40
0
40
0
40
0.5
40
0.5
40
1
40
1
40
1
40
1
41
1
10
382.201245229258
20
-32.7261363439072
30
0
41
1
10
380.825335097272
20
-32.7261363439072
30
0
41
1
10
379.505336486007
20
-32.3829362766831
30
0
41
1
10
377.555439482713
20
-31.2329413505499
30
0
41
1
10
376.918331750843
20
-30.4500710815238
30
0
41
1
10
376.563089504543
20
-29.5603080135082
30
0
0
SPLINE
5
21B
100
AcDbEntity
8
1
62
256
6
ByLayer
370
18
48
1
60
0
100
AcDbSpline
70
4
71
3
72
18
73
14
40
0
40
0
40
0
40
0
40
0.0023855590216819
40
0.0023855590216819
40
0.227189706814844
40
0.227189706814844
40
0.439783126697303
40
0.439783126697303
40
0.631654749383839
40
0.631654749383839
40
0.815554635610152
40
0.815554635610152
40
1
40
1
40
1
40
1
41
1
10
406
20
-31.1287648325468
30
0
41
1
10
406
20
-31.1306727854181
30
0
41
1
10
405.999993896296
20
-31.1325808756332
30
0
41
1
10
405.998829900545
20
-31.3144822170059
30
0
41
1
10
405.942440230637
20
-31.4951594733765
30
0
41
1
10
405.72726512799
20
-31.8255193621883
30
0
41
1
10
405.571708536959
20
-31.9798342248047
30
0
41
1
10
405.189578671448
20
-32.2407290945902
30
0
41
1
10
404.967233650271
20
-32.3530894466975
30
0
41
1
10
404.473565686278
20
-32.5333235959883
30
0
41
1
10
404.198819313354
20
-32.6047871960895
30
0
41
1
10
403.619852757912
20
-32.7006920152521
30
0
41
1
10
403.307799121242
20
-32.7261363439088
30
0
41
1
10
403
20
-32.7261363439088
30
0
0
SPLINE
5
21C
100
AcDbEntity
8
1
62
256
6
ByLayer
370
18
48
1
60
0
100
AcDbSpline
70
4
71
3
72
49
73
45
40
0
40
0
40
0
40
0
40
0.0019531249999776
40
0.0019531249999776
40
0.0039062499999552
40
0.0039062499999552
40
0.0078124999999444
40
0.0156249999999577
40
0.0312499999999841
40
0.0625000000000027
40
0.0625000000000027
40
0.125000000000077
40
0.187500000000152
40
0.187500000000152
40
0.218750000000173
40
0.218750000000173
40
0.2343750000002
40
0.2343750000002
40
0.250000000000226
40
0.312500000000256
40
0.375000000000285
40
0.375000000000285
40
0.437500000000315
40
0.437500000000315
40
0.453125000000317
40
0.453125000000317
40
0.468750000000318
40
0.500000000000299
40
0.500000000000299
40
0.562500000000211
40
0.625000000000123
40
0.625000000000123
40
0.656250000000094
40
0.656250000000094
40
0.671875000000094
40
0.671875000000094
40
0.687500000000094
40
0.750000000000075
40
0.812500000000056
40
0.812500000000056
40
0.875000000000038
40
0.875000000000038
40
0.937500000000019
40
1
40
1
40
1
40
1
41
1
10
406
20
-34.6200000000001
30
0
41
1
10
406
20
-34.6230256827299
30
0
41
1
10
405.999995422707
20
-34.6260513520645
30
0
41
1
10
405.999977113429
20
-34.6321026639419
30
0
41
1
10
405.999963642165
20
-34.6350852257828
30
0
41
1
10
405.999907928446
20
-34.6442918553834
30
0
41
1
10
405.999740047944
20
-34.6626954259476
30
0
41
1
10
405.998954334702
20
-34.7055694720557
30
0
41
1
10
405.995815737356
20
-34.7910485952767
30
0
41
1
10
405.990466768809
20
-34.863860084306
30
0
41
1
10
405.976273986052
20
-35.0088831498351
30
0
41
1
10
405.948046535696
20
-35.2006502093387
30
0
41
1
10
405.901342900912
20
-35.3892444401809
30
0
41
1
10
405.859237489846
20
-35.5294739611538
30
0
41
1
10
405.84402066372
20
-35.5760140838849
30
0
41
1
10
405.819384213357
20
-35.6455129319206
30
0
41
1
10
405.810873011416
20
-35.6686158989309
30
0
41
1
10
405.793340014988
20
-35.7144651435587
30
0
41
1
10
405.748174143324
20
-35.8283519278397
30
0
41
1
10
405.655034661412
20
-36.0268088403728
30
0
41
1
10
405.555728669106
20
-36.1940913220878
30
0
41
1
10
405.44809022482
20
-36.3567690610748
30
0
41
1
10
405.390105729241
20
-36.4358060887514
30
0
41
1
10
405.312216943891
20
-36.5316125721988
30
0
41
1
10
405.296369390375
20
-36.5506206677239
30
0
41
1
10
405.264310548366
20
-36.5881225267377
30
0
41
1
10
405.215610923585
20
-36.643685502086
30
0
41
1
10
405.165095654474
20
-36.6971997205748
30
0
41
1
10
405.061676200064
20
-36.8015321988901
30
0
41
1
10
404.917424090644
20
-36.9334652872937
30
0
41
1
10
404.760515269522
20
-37.0511115115712
30
0
41
1
10
404.637971938434
20
-37.1338570420539
30
0
41
1
10
404.596312417736
20
-37.1605223838638
30
0
41
1
10
404.532576909356
20
-37.1991131899148
30
0
41
1
10
404.51114292546
20
-37.2117294920999
30
0
41
1
10
404.46810131223
20
-37.2363511305665
30
0
41
1
10
404.35992093398
20
-37.2964615519739
30
0
41
1
10
404.160079260031
20
-37.3918423026221
30
0
41
1
10
403.975306339387
20
-37.4587473181858
30
0
41
1
10
403.786931406073
20
-37.5166269615349
30
0
41
1
10
403.690909975264
20
-37.5410619080638
30
0
41
1
10
403.495256959806
20
-37.5805201922001
30
0
41
1
10
403.298576320749
20
-37.6100512683444
30
0
41
1
10
403.099868700874
20
-37.6200000000007
30
0
41
1
10
403
20
-37.6200000000008
30
0
0
LINE
5
72
100
AcDbEntity
8
80
62
256
6
ByLayer
370
18
48
0.05
60
0
100
AcDbLine
10
0
20
0
30
0
11
-30
21
0
31
0
39
0
210
0
220
0
230
1
0
LINE
5
73
100
AcDbEntity
8
4
62
256
6
ByLayer
370
18
48
0.05
60
0
100
AcDbLine
10
387
20
38.291469
30
0
11
387
21
-42.708531
31
0
39
0
210
0
220
0
230
1
0
LINE
5
75
100
AcDbEntity
8
SK4
62
256
6
ByLayer
370
18
48
0.05
60
0
100
AcDbLine
10
387
20
-43.041138
30
0
11
387
21
49.846117
31
0
39
0
210
0
220
0
230
1
0
LINE
5
77
100
AcDbEntity
8
4
62
256
6
ByLayer
370
18
48
0.05
60
0
100
AcDbLine
10
0
20
0
30
0
11
412.694518
21
0
31
0
39
0
210
0
220
0
230
1
0
LINE
5
78
100
AcDbEntity
8
SK4
62
256
6
ByLayer
370
18
48
0.05
60
0
100
AcDbLine
10
412.694518
20
0
30
0
11
-57.305482
21
0
31
0
39
0
210
0
220
0
230
1
0
LINE
5
79
100
AcDbEntity
8
2
62
256
6
ByLayer
370
13
48
1
60
0
100
AcDbLine
10
440
20
48.291469
30
0
11
440
21
-11.708531
31
0
39
0
210
0
220
0
230
1
0
LINE
5
7B
100
AcDbEntity
8
2
62
256
6
ByLayer
370
13
48
1
60
0
100
AcDbLine
10
440
20
48.291469
30
0
11
439.582003
21
45.116469
31
0
39
0
210
0
220
0
230
1
0
LINE
5
7C
100
AcDbEntity
8
2
62
256
6
ByLayer
370
13
48
1
60
0
100
AcDbLine
10
439.582003
20
45.116469
30
0
11
440.417997
21
45.116469
31
0
39
0
210
0
220
0
230
1
0
LINE
5
7D
100
AcDbEntity
8
2
62
256
6
ByLayer
370
13
48
1
60
0
100
AcDbLine
10
440.077346
20
47.116469
30
0
11
440.208998
21
45.116469
31
0
39
0
210
0
220
0
230
1
0
LINE
5
7E
100
AcDbEntity
8
2
62
256
6
ByLayer
370
13
48
1
60
0
100
AcDbLine
10
440
20
48.291469
30
0
11
440.417997
21
45.116469
31
0
39
0
210
0
220
0
230
1
0
LINE
5
7F
100
AcDbEntity
8
2
62
256
6
ByLayer
370
13
48
1
60
0
100
AcDbLine
10
439.922654
20
47.116469
30
0
11
439.791002
21
45.116469
31
0
39
0
210
0
220
0
230
1
0
LINE
5
80
100
AcDbEntity
8
81
62
256
6
ByLayer
370
18
48
0.05
60
0
100
AcDbLine
10
410
20
48.291469
30
0
11
420.236752
21
48.291469
31
0
39
0
210
0
220
0
230
1
0
LINE
5
81
100
AcDbEntity
8
2
62
256
6
ByLayer
370
13
48
1
60
0
100
AcDbLine
10
440
20
48.291469
30
0
11
439.582003
21
45.116469
31
0
39
0
210
0
220
0
230
1
0
LINE
5
82
100
AcDbEntity
8
2
62
256
6
ByLayer
370
13
48
1
60
0
100
AcDbLine
10
412
20
48.291469
30
0
11
442
21
48.291469
31
0
39
0
210
0
220
0
230
1
0
LINE
5
83
100
AcDbEntity
8
2
62
256
6
ByLayer
370
13
48
1
60
0
100
AcDbLine
10
439.582003
20
45.116469
30
0
11
440.417997
21
45.116469
31
0
39
0
210
0
220
0
230
1
0
LINE
5
84
100
AcDbEntity
8
2
62
256
6
ByLayer
370
13
48
1
60
0
100
AcDbLine
10
440
20
48.291469
30
0
11
440.417997
21
45.116469
31
0
39
0
210
0
220
0
230
1
0
LINE
5
85
100
AcDbEntity
8
2
62
256
6
ByLayer
370
13
48
1
60
0
100
AcDbLine
10
439.922654
20
47.116469
30
0
11
439.791002
21
45.116469
31
0
39
0
210
0
220
0
230
1
0
LINE
5
86
100
AcDbEntity
8
2
62
256
6
ByLayer
370
13
48
1
60
0
100
AcDbLine
10
440.077346
20
47.116469
30
0
11
440.208998
21
45.116469
31
0
39
0
210
0
220
0
230
1
0
LINE
5
87
100
AcDbEntity
8
2
62
256
6
ByLayer
370
13
48
1
60
0
100
AcDbLine
10
440
20
48.291469
30
0
11
440
21
-16.708531
31
0
39
0
210
0
220
0
230
1
0
LINE
5
88
100
AcDbEntity
8
1
62
256
6
ByLayer
370
18
48
1
60
1
100
AcDbLine
10
0
20
0
30
0
11
0
21
841
31
0
39
0
210
0
220
0
230
1
0
LINE
5
89
100
AcDbEntity
8
1
62
256
6
ByLayer
370
18
48
1
60
1
100
AcDbLine
10
1189
20
841
30
0
11
0
21
841
31
0
39
0
210
0
220
0
230
1
0
LINE
5
8A
100
AcDbEntity
8
1
62
256
6
ByLayer
370
18
48
1
60
1
100
AcDbLine
10
1189
20
841
30
0
11
1189
21
0
31
0
39
0
210
0
220
0
230
1
0
LINE
5
8B
100
AcDbEntity
8
1
62
256
6
ByLayer
370
18
48
1
60
1
100
AcDbLine
10
0
20
0
30
0
11
1189
21
0
31
0
39
0
210
0
220
0
230
1
0
LINE
5
8C
100
AcDbEntity
8
1
62
256
6
ByLayer
370
18
48
1
60
1
100
AcDbLine
10
0
20
0
30
0
11
0
21
841
31
0
39
0
210
0
220
0
230
1
0
LINE
5
8D
100
AcDbEntity
8
1
62
256
6
ByLayer
370
18
48
1
60
1
100
AcDbLine
10
1189
20
841
30
0
11
0
21
841
31
0
39
0
210
0
220
0
230
1
0
LINE
5
8E
100
AcDbEntity
8
1
62
256
6
ByLayer
370
18
48
1
60
1
100
AcDbLine
10
1189
20
841
30
0
11
1189
21
0
31
0
39
0
210
0
220
0
230
1
0
LINE
5
8F
100
AcDbEntity
8
1
62
256
6
ByLayer
370
18
48
1
60
1
100
AcDbLine
10
0
20
0
30
0
11
1189
21
0
31
0
39
0
210
0
220
0
230
1
0
LINE
5
90
100
AcDbEntity
8
SK1
62
256
6
ByLayer
370
13
48
1
60
0
100
AcDbLine
10
-1.315435
20
-4.384003
30
0
11
-1.315435
21
4.383999
31
0
39
0
210
0
220
0
230
1
0
LINE
5
92
100
AcDbEntity
8
1
62
256
6
ByLayer
370
18
48
1
60
1
100
AcDbLine
10
0
20
0
30
0
11
0
21
841
31
0
39
0
210
0
220
0
230
1
0
LINE
5
93
100
AcDbEntity
8
1
62
256
6
ByLayer
370
18
48
1
60
1
100
AcDbLine
10
1189
20
841
30
0
11
0
21
841
31
0
39
0
210
0
220
0
230
1
0
LINE
5
94
100
AcDbEntity
8
1
62
256
6
ByLayer
370
18
48
1
60
1
100
AcDbLine
10
1189
20
841
30
0
11
1189
21
0
31
0
39
0
210
0
220
0
230
1
0
LINE
5
95
100
AcDbEntity
8
1
62
256
6
ByLayer
370
18
48
1
60
1
100
AcDbLine
10
0
20
0
30
0
11
1189
21
0
31
0
39
0
210
0
220
0
230
1
0
LINE
5
96
100
AcDbEntity
8
1
62
256
6
ByLayer
370
18
48
1
60
0
100
AcDbLine
10
391.75
20
-39.176
30
0
11
391.75
21
-39.145991
31
0
39
0
210
0
220
0
230
1
0
LINE
5
97
100
AcDbEntity
8
1
62
256
6
ByLayer
370
18
48
1
60
0
100
AcDbLine
10
382.25
20
-39.145991
30
0
11
382.25
21
-39.176
31
0
39
0
210
0
220
0
230
1
0
LINE
5
98
100
AcDbEntity
8
1
62
256
6
ByLayer
370
18
48
1
60
0
100
AcDbLine
10
391.75
20
-39.176
30
0
11
382.25
21
-39.176
31
0
39
0
210
0
220
0
230
1
0
LINE
5
99
100
AcDbEntity
8
1
62
256
6
ByLayer
370
18
48
1
60
0
100
AcDbLine
10
400.895592
20
42.957117
30
0
11
409.056958
21
37.85733
31
0
39
0
210
0
220
0
230
1
0
LINE
5
9A
100
AcDbEntity
8
1
62
256
6
ByLayer
370
18
48
1
60
0
100
AcDbLine
10
409.416811
20
48.162163
30
0
11
400.919582
21
43.644106
31
0
39
0
210
0
220
0
230
1
0
LINE
5
9B
100
AcDbEntity
8
1
62
256
6
ByLayer
370
18
48
1
60
0
100
AcDbLine
10
409.663903
20
38.180048
30
0
11
409.999766
21
47.797893
31
0
39
0
210
0
220
0
230
1
0
LINE
5
9C
100
AcDbEntity
8
1
62
256
6
ByLayer
370
18
48
1
60
0
100
AcDbLine
10
375.191088
20
-37.619998
30
0
11
375.206421
21
-37.635331
31
0
39
0
210
0
220
0
230
1
0
LINE
5
9D
100
AcDbEntity
8
1
62
256
6
ByLayer
370
18
48
1
60
0
100
AcDbLine
10
398.793579
20
-37.635331
30
0
11
398.808912
21
-37.619998
31
0
39
0
210
0
220
0
230
1
0
LINE
5
9E
100
AcDbEntity
8
1
62
256
6
ByLayer
370
18
48
1
60
0
100
AcDbLine
10
387.0375
20
-37.635331
30
0
11
388.440916
21
-37.635331
31
0
39
0
210
0
220
0
230
1
0
LINE
5
9F
100
AcDbEntity
8
1
62
256
6
ByLayer
370
18
48
1
60
0
100
AcDbLine
10
385.559084
20
-37.635331
30
0
11
386.9625
21
-37.635331
31
0
39
0
210
0
220
0
230
1
0
LINE
5
A0
100
AcDbEntity
8
1
62
256
6
ByLayer
370
18
48
1
60
0
100
AcDbLine
10
384.103393
20
-37.635331
30
0
11
385.484676
21
-37.635331
31
0
39
0
210
0
220
0
230
1
0
LINE
5
A1
100
AcDbEntity
8
1
62
256
6
ByLayer
370
18
48
1
60
0
100
AcDbLine
10
382.693383
20
-37.635331
30
0
11
384.030749
21
-37.635331
31
0
39
0
210
0
220
0
230
1
0
LINE
5
A2
100
AcDbEntity
8
1
62
256
6
ByLayer
370
18
48
1
60
0
100
AcDbLine
10
381.35129
20
-37.635331
30
0
11
382.623649
21
-37.635331
31
0
39
0
210
0
220
0
230
1
0
LINE
5
A3
100
AcDbEntity
8
1
62
256
6
ByLayer
370
18
48
1
60
0
100
AcDbLine
10
380.098282
20
-37.635331
30
0
11
381.285567
21
-37.635331
31
0
39
0
210
0
220
0
230
1
0
LINE
5
A4
100
AcDbEntity
8
1
62
256
6
ByLayer
370
18
48
1
60
0
100
AcDbLine
10
378.954117
20
-37.635331
30
0
11
380.037605
21
-37.635331
31
0
39
0
210
0
220
0
230
1
0
LINE
5
A5
100
AcDbEntity
8
1
62
256
6
ByLayer
370
18
48
1
60
0
100
AcDbLine
10
377.936841
20
-37.635331
30
0
11
378.899444
21
-37.635331
31
0
39
0
210
0
220
0
230
1
0
LINE
5
A6
100
AcDbEntity
8
1
62
256
6
ByLayer
370
18
48
1
60
0
100
AcDbLine
10
377.062496
20
-37.635331
30
0
11
377.889034
21
-37.635331
31
0
39
0
210
0
220
0
230
1
0
LINE
5
A7
100
AcDbEntity
8
1
62
256
6
ByLayer
370
18
48
1
60
0
100
AcDbLine
10
376.344872
20
-37.635331
30
0
11
377.022309
21
-37.635331
31
0
39
0
210
0
220
0
230
1
0
LINE
5
A8
100
AcDbEntity
8
1
62
256
6
ByLayer
370
18
48
1
60
0
100
AcDbLine
10
375.795285
20
-37.635331
30
0
11
376.312938
21
-37.635331
31
0
39
0
210
0
220
0
230
1
0
LINE
5
A9
100
AcDbEntity
8
1
62
256
6
ByLayer
370
18
48
1
60
0
100
AcDbLine
10
375.422403
20
-37.635331
30
0
11
375.772109
21
-37.635331
31
0
39
0
210
0
220
0
230
1
0
LINE
5
AA
100
AcDbEntity
8
1
62
256
6
ByLayer
370
18
48
1
60
0
100
AcDbLine
10
375.232107
20
-37.635331
30
0
11
375.40835
21
-37.635331
31
0
39
0
210
0
220
0
230
1
0
LINE
5
AB
100
AcDbEntity
8
1
62
256
6
ByLayer
370
18
48
1
60
0
100
AcDbLine
10
375.206421
20
-37.635331
30
0
11
375.227398
21
-37.635331
31
0
39
0
210
0
220
0
230
1
0
LINE
5
AC
100
AcDbEntity
8
1
62
256
6
ByLayer
370
18
48
1
60
0
100
AcDbLine
10
398.772602
20
-37.635331
30
0
11
398.793579
21
-37.635331
31
0
39
0
210
0
220
0
230
1
0
LINE
5
AD
100
AcDbEntity
8
1
62
256
6
ByLayer
370
18
48
1
60
0
100
AcDbLine
10
398.59165
20
-37.635331
30
0
11
398.767893
21
-37.635331
31
0
39
0
210
0
220
0
230
1
0
LINE
5
AE
100
AcDbEntity
8
1
62
256
6
ByLayer
370
18
48
1
60
0
100
AcDbLine
10
398.227891
20
-37.635331
30
0
11
398.577597
21
-37.635331
31
0
39
0
210
0
220
0
230
1
0
LINE
5
AF
100
AcDbEntity
8
1
62
256
6
ByLayer
370
18
48
1
60
0
100
AcDbLine
10
397.687062
20
-37.635331
30
0
11
398.204715
21
-37.635331
31
0
39
0
210
0
220
0
230
1
0
LINE
5
B0
100
AcDbEntity
8
1
62
256
6
ByLayer
370
18
48
1
60
0
100
AcDbLine
10
396.977691
20
-37.635331
30
0
11
397.655128
21
-37.635331
31
0
39
0
210
0
220
0
230
1
0
LINE
5
B1
100
AcDbEntity
8
1
62
256
6
ByLayer
370
18
48
1
60
0
100
AcDbLine
10
396.110966
20
-37.635331
30
0
11
396.937504
21
-37.635331
31
0
39
0
210
0
220
0
230
1
0
LINE
5
B2
100
AcDbEntity
8
1
62
256
6
ByLayer
370
18
48
1
60
0
100
AcDbLine
10
395.100556
20
-37.635331
30
0
11
396.063159
21
-37.635331
31
0
39
0
210
0
220
0
230
1
0
LINE
5
B3
100
AcDbEntity
8
1
62
256
6
ByLayer
370
18
48
1
60
0
100
AcDbLine
10
393.962395
20
-37.635331
30
0
11
395.045883
21
-37.635331
31
0
39
0
210
0
220
0
230
1
0
LINE
5
B4
100
AcDbEntity
8
1
62
256
6
ByLayer
370
18
48
1
60
0
100
AcDbLine
10
392.714433
20
-37.635331
30
0
11
393.901718
21
-37.635331
31
0
39
0
210
0
220
0
230
1
0
LINE
5
B5
100
AcDbEntity
8
1
62
256
6
ByLayer
370
18
48
1
60
0
100
AcDbLine
10
391.376351
20
-37.635331
30
0
11
392.64871
21
-37.635331
31
0
39
0
210
0
220
0
230
1
0
LINE
5
B6
100
AcDbEntity
8
1
62
256
6
ByLayer
370
18
48
1
60
0
100
AcDbLine
10
389.969251
20
-37.635331
30
0
11
391.306617
21
-37.635331
31
0
39
0
210
0
220
0
230
1
0
LINE
5
B7
100
AcDbEntity
8
1
62
256
6
ByLayer
370
18
48
1
60
0
100
AcDbLine
10
388.515324
20
-37.635331
30
0
11
389.896607
21
-37.635331
31
0
39
0
210
0
220
0
230
1
0
LINE
5
B8
100
AcDbEntity
8
1
62
256
6
ByLayer
370
18
48
1
60
0
100
AcDbLine
10
387.0375
20
-38.240182
30
0
11
386.9625
21
-38.240182
31
0
39
0
210
0
220
0
230
1
0
LINE
5
B9
100
AcDbEntity
8
1
62
256
6
ByLayer
370
18
48
1
60
0
100
AcDbLine
10
375.206421
20
-37.635331
30
0
11
382.25
21
-39.146
31
0
39
0
210
0
220
0
230
1
0
LINE
5
BA
100
AcDbEntity
8
1
62
256
6
ByLayer
370
18
48
1
60
0
100
AcDbLine
10
391.75
20
-39.146
30
0
11
398.793579
21
-37.635331
31
0
39
0
210
0
220
0
230
1
0
LINE
5
BB
100
AcDbEntity
8
1
62
256
6
ByLayer
370
18
48
1
60
0
100
AcDbLine
10
382.25
20
-39.146
30
0
11
391.75
21
-39.146
31
0
39
0
210
0
220
0
230
1
0
LINE
5
BC
100
AcDbEntity
8
1
62
256
6
ByLayer
370
18
48
1
60
0
100
AcDbLine
10
385.78721
20
-38.025707
30
0
11
385.742677
21
-38.025707
31
0
39
0
210
0
220
0
230
1
0
LINE
5
BD
100
AcDbEntity
8
1
62
256
6
ByLayer
370
18
48
1
60
0
100
AcDbLine
10
385.505592
20
-37.62
30
0
11
385.742677
21
-38.025707
31
0
39
0
210
0
220
0
230
1
0
LINE
5
BE
100
AcDbEntity
8
1
62
256
6
ByLayer
370
18
48
1
60
0
100
AcDbLine
10
388.494408
20
-37.62
30
0
11
388.257323
21
-38.025707
31
0
39
0
210
0
220
0
230
1
0
LINE
5
BF
100
AcDbEntity
8
1
62
256
6
ByLayer
370
18
48
1
60
0
100
AcDbLine
10
388.257323
20
-38.025707
30
0
11
388.21279
21
-38.025707
31
0
39
0
210
0
220
0
230
1
0
LINE
5
C0
100
AcDbEntity
8
1
62
256
6
ByLayer
370
18
48
1
60
0
100
AcDbLine
10
385.742677
20
-38.025707
30
0
11
385.741363
21
-38.07458
31
0
39
0
210
0
220
0
230
1
0
LINE
5
C1
100
AcDbEntity
8
1
62
256
6
ByLayer
370
18
48
1
60
0
100
AcDbLine
10
388.257323
20
-38.025707
30
0
11
388.258637
21
-38.07458
31
0
39
0
210
0
220
0
230
1
0
LINE
5
C2
100
AcDbEntity
8
1
62
256
6
ByLayer
370
18
48
1
60
0
100
AcDbLine
10
389.927748
20
-37.62
30
0
11
389.457318
21
-38.025707
31
0
39
0
210
0
220
0
230
1
0
LINE
5
C3
100
AcDbEntity
8
1
62
256
6
ByLayer
370
18
48
1
60
0
100
AcDbLine
10
389.457318
20
-38.025707
30
0
11
389.443951
21
-38.025707
31
0
39
0
210
0
220
0
230
1
0
LINE
5
C4
100
AcDbEntity
8
1
62
256
6
ByLayer
370
18
48
1
60
0
100
AcDbLine
10
384.556049
20
-38.025707
30
0
11
384.542682
21
-38.025707
31
0
39
0
210
0
220
0
230
1
0
LINE
5
C5
100
AcDbEntity
8
1
62
256
6
ByLayer
370
18
48
1
60
0
100
AcDbLine
10
384.072252
20
-37.62
30
0
11
384.542682
21
-38.025707
31
0
39
0
210
0
220
0
230
1
0
LINE
5
C6
100
AcDbEntity
8
1
62
256
6
ByLayer
370
18
48
1
60
0
100
AcDbLine
10
384.542682
20
-38.025707
30
0
11
384.540075
21
-38.07458
31
0
39
0
210
0
220
0
230
1
0
LINE
5
C7
100
AcDbEntity
8
1
62
256
6
ByLayer
370
18
48
1
60
0
100
AcDbLine
10
389.457318
20
-38.025707
30
0
11
389.459925
21
-38.07458
31
0
39
0
210
0
220
0
230
1
0
LINE
5
C8
100
AcDbEntity
8
1
62
256
6
ByLayer
370
18
48
1
60
0
100
AcDbLine
10
382.685085
20
-37.62
30
0
11
382.688468
21
-37.621971
31
0
39
0
210
0
220
0
230
1
0
LINE
5
C9
100
AcDbEntity
8
1
62
256
6
ByLayer
370
18
48
1
60
0
100
AcDbLine
10
391.314915
20
-37.62
30
0
11
391.311532
21
-37.621971
31
0
39
0
210
0
220
0
230
1
0
LINE
5
CA
100
AcDbEntity
8
1
62
256
6
ByLayer
370
18
48
1
60
0
100
AcDbLine
10
383.380649
20
-38.03574
30
0
11
383.377582
21
-38.07458
31
0
39
0
210
0
220
0
230
1
0
LINE
5
CB
100
AcDbEntity
8
1
62
256
6
ByLayer
370
18
48
1
60
0
100
AcDbLine
10
390.619351
20
-38.03574
30
0
11
390.622418
21
-38.07458
31
0
39
0
210
0
220
0
230
1
0
LINE
5
CC
100
AcDbEntity
8
1
62
256
6
ByLayer
370
18
48
1
60
0
100
AcDbLine
10
391.724893
20
-38.046608
30
0
11
391.727783
21
-38.07458
31
0
39
0
210
0
220
0
230
1
0
LINE
5
CD
100
AcDbEntity
8
1
62
256
6
ByLayer
370
18
48
1
60
0
100
AcDbLine
10
382.275107
20
-38.046608
30
0
11
382.272217
21
-38.07458
31
0
39
0
210
0
220
0
230
1
0
LINE
5
CE
100
AcDbEntity
8
1
62
256
6
ByLayer
370
18
48
1
60
0
100
AcDbLine
10
381.829197
20
-38.289053
30
0
11
381.831865
21
-38.267887
31
0
39
0
210
0
220
0
230
1
0
LINE
5
CF
100
AcDbEntity
8
1
62
256
6
ByLayer
370
18
48
1
60
0
100
AcDbLine
10
392.170803
20
-38.289053
30
0
11
392.168135
21
-38.267887
31
0
39
0
210
0
220
0
230
1
0
LINE
5
D0
100
AcDbEntity
8
1
62
256
6
ByLayer
370
18
48
1
60
0
100
AcDbLine
10
380.303826
20
-38.058204
30
0
11
380.301422
21
-38.07458
31
0
39
0
210
0
220
0
230
1
0
LINE
5
D1
100
AcDbEntity
8
1
62
256
6
ByLayer
370
18
48
1
60
0
100
AcDbLine
10
393.696174
20
-38.058204
30
0
11
393.698578
21
-38.07458
31
0
39
0
210
0
220
0
230
1
0
LINE
5
D2
100
AcDbEntity
8
1
62
256
6
ByLayer
370
18
48
1
60
0
100
AcDbLine
10
379.469176
20
-38.061858
30
0
11
379.467074
21
-38.07458
31
0
39
0
210
0
220
0
230
1
0
LINE
5
D3
100
AcDbEntity
8
1
62
256
6
ByLayer
370
18
48
1
60
0
100
AcDbLine
10
394.530824
20
-38.061858
30
0
11
394.532926
21
-38.07458
31
0
39
0
210
0
220
0
230
1
0
LINE
5
D4
100
AcDbEntity
8
1
62
256
6
ByLayer
370
18
48
1
60
0
100
AcDbLine
10
378.753291
20
-38.064821
30
0
11
378.751524
21
-38.07458
31
0
39
0
210
0
220
0
230
1
0
LINE
5
D5
100
AcDbEntity
8
1
62
256
6
ByLayer
370
18
48
1
60
0
100
AcDbLine
10
395.246709
20
-38.064821
30
0
11
395.248476
21
-38.07458
31
0
39
0
210
0
220
0
230
1
0
LINE
5
D6
100
AcDbEntity
8
1
62
256
6
ByLayer
370
18
48
1
60
0
100
AcDbLine
10
378.167462
20
-38.067343
30
0
11
378.166057
21
-38.07458
31
0
39
0
210
0
220
0
230
1
0
LINE
5
D7
100
AcDbEntity
8
1
62
256
6
ByLayer
370
18
48
1
60
0
100
AcDbLine
10
395.832538
20
-38.067343
30
0
11
395.833943
21
-38.07458
31
0
39
0
210
0
220
0
230
1
0
LINE
5
D8
100
AcDbEntity
8
1
62
256
6
ByLayer
370
18
48
1
60
0
100
AcDbLine
10
395.329036
20
-38.289053
30
0
11
395.328016
21
-38.284056
31
0
39
0
210
0
220
0
230
1
0
LINE
5
D9
100
AcDbEntity
8
1
62
256
6
ByLayer
370
18
48
1
60
0
100
AcDbLine
10
378.670964
20
-38.289053
30
0
11
378.671984
21
-38.284056
31
0
39
0
210
0
220
0
230
1
0
LINE
5
DA
100
AcDbEntity
8
1
62
256
6
ByLayer
370
18
48
1
60
0
100
AcDbLine
10
377.420728
20
-38.071647
30
0
11
377.42011
21
-38.07458
31
0
39
0
210
0
220
0
230
1
0
LINE
5
DB
100
AcDbEntity
8
1
62
256
6
ByLayer
370
18
48
1
60
0
100
AcDbLine
10
396.579272
20
-38.071647
30
0
11
396.57989
21
-38.07458
31
0
39
0
210
0
220
0
230
1
0
LINE
5
DC
100
AcDbEntity
8
1
62
256
6
ByLayer
370
18
48
1
60
0
100
AcDbLine
10
396.728399
20
-38.073613
30
0
11
396.728606
21
-38.07458
31
0
39
0
210
0
220
0
230
1
0
LINE
5
DD
100
AcDbEntity
8
1
62
256
6
ByLayer
370
18
48
1
60
0
100
AcDbLine
10
377.271601
20
-38.073613
30
0
11
377.271394
21
-38.07458
31
0
39
0
210
0
220
0
230
1
0
LINE
5
DE
100
AcDbEntity
8
1
62
256
6
ByLayer
370
18
48
1
60
0
100
AcDbLine
10
399
20
38.058531
30
0
11
398.85
21
38.208531
31
0
39
0
210
0
220
0
230
1
0
LINE
5
DF
100
AcDbEntity
8
1
62
256
6
ByLayer
370
18
48
1
60
0
100
AcDbLine
10
375.15
20
38.208531
30
0
11
375
21
38.058531
31
0
39
0
210
0
220
0
230
1
0
LINE
5
E0
100
AcDbEntity
8
1
62
256
6
ByLayer
370
18
48
1
60
0
100
AcDbLine
10
375
20
38.058531
30
0
11
399
21
38.058531
31
0
39
0
210
0
220
0
230
1
0
LINE
5
E1
100
AcDbEntity
8
1
62
256
6
ByLayer
370
18
48
1
60
0
100
AcDbLine
10
375.15
20
38.208531
30
0
11
397.872156
21
38.208531
31
0
39
0
210
0
220
0
230
1
0
LINE
5
E2
100
AcDbEntity
8
1
62
256
6
ByLayer
370
18
48
1
60
0
100
AcDbLine
10
399
20
32.563952
30
0
11
399
21
38.058531
31
0
39
0
210
0
220
0
230
1
0
LINE
5
E3
100
AcDbEntity
8
1
62
256
6
ByLayer
370
18
48
1
60
0
100
AcDbLine
10
375
20
38.058531
30
0
11
375
21
36.499566
31
0
39
0
210
0
220
0
230
1
0
LINE
5
E4
100
AcDbEntity
8
1
62
256
6
ByLayer
370
18
48
1
60
0
100
AcDbLine
10
378.845298
20
45.903829
30
0
11
375.25
21
42.308531
31
0
39
0
210
0
220
0
230
1
0
LINE
5
E5
100
AcDbEntity
8
1
62
256
6
ByLayer
370
18
48
1
60
0
100
AcDbLine
10
407.208636
20
47.384426
30
0
11
396.034507
21
46.798815
31
0
39
0
210
0
220
0
230
1
0
LINE
5
E6
100
AcDbEntity
8
1
62
256
6
ByLayer
370
18
48
1
60
0
100
AcDbLine
10
407.977413
20
47.396814
30
0
11
407.20766
21
47.356473
31
0
39
0
210
0
220
0
230
1
0
LINE
5
E7
100
AcDbEntity
8
1
62
256
6
ByLayer
370
18
48
1
60
0
100
AcDbLine
10
407.206438
20
47.321488
30
0
11
407.208636
21
47.384426
31
0
39
0
210
0
220
0
230
1
0
LINE
5
E8
100
AcDbEntity
8
1
62
256
6
ByLayer
370
18
48
1
60
0
100
AcDbLine
10
407.206438
20
47.321488
30
0
11
406.203994
21
47.268952
31
0
39
0
210
0
220
0
230
1
0
LINE
5
E9
100
AcDbEntity
8
1
62
256
6
ByLayer
370
18
48
1
60
0
100
AcDbLine
10
406.203994
20
47.268952
30
0
11
406.203836
21
47.264451
31
0
39
0
210
0
220
0
230
1
0
LINE
5
EA
100
AcDbEntity
8
1
62
256
6
ByLayer
370
18
48
1
60
0
100
AcDbLine
10
388.06
20
43.469003
30
0
11
388.06
21
43.527612
31
0
39
0
210
0
220
0
230
1
0
LINE
5
EB
100
AcDbEntity
8
1
62
256
6
ByLayer
370
18
48
1
60
0
100
AcDbLine
10
375.25
20
42.309551
30
0
11
375.25
21
38.208531
31
0
39
0
210
0
220
0
230
1
0
LINE
5
EC
100
AcDbEntity
8
1
62
256
6
ByLayer
370
13
48
1
60
0
100
AcDbLine
10
397.423451
20
46.275416
30
0
11
397.423451
21
38.208531
31
0
39
0
210
0
220
0
230
1
0
LINE
5
ED
100
AcDbEntity
8
1
62
256
6
ByLayer
370
18
48
1
60
0
100
AcDbLine
10
388.06
20
43.469003
30
0
11
388.06
21
43.416442
31
0
39
0
210
0
220
0
230
1
0
LINE
5
EE
100
AcDbEntity
8
1
62
256
6
ByLayer
370
18
48
1
60
0
100
AcDbLine
10
400.32723
20
44.306621
30
0
11
401.423184
21
45.102878
31
0
39
0
210
0
220
0
230
1
0
LINE
5
EF
100
AcDbEntity
8
1
62
256
6
ByLayer
370
18
48
1
60
0
100
AcDbLine
10
401.423184
20
42.071153
30
0
11
401.393036
21
42.089991
31
0
39
0
210
0
220
0
230
1
0
LINE
5
F0
100
AcDbEntity
8
1
62
256
6
ByLayer
370
13
48
1
60
0
100
AcDbLine
10
401.423184
20
42.071153
30
0
11
401.423184
21
37.750387
31
0
39
0
210
0
220
0
230
1
0
LINE
5
F1
100
AcDbEntity
8
1
62
256
6
ByLayer
370
18
48
1
60
0
100
AcDbLine
10
401.423184
20
37.750387
30
0
11
400.884539
21
38.08697
31
0
39
0
210
0
220
0
230
1
0
LINE
5
F2
100
AcDbEntity
8
1
62
256
6
ByLayer
370
13
48
1
60
0
100
AcDbLine
10
401.423184
20
46.929263
30
0
11
401.423184
21
45.102878
31
0
39
0
210
0
220
0
230
1
0
LINE
5
F3
100
AcDbEntity
8
1
62
256
6
ByLayer
370
18
48
1
60
0
100
AcDbLine
10
400.460604
20
38.208531
30
0
11
397.423451
21
38.208531
31
0
39
0
210
0
220
0
230
1
0
LINE
5
F4
100
AcDbEntity
8
1
62
256
6
ByLayer
370
18
48
1
60
0
100
AcDbLine
10
408.888872
20
35.040767
30
0
11
408.969706
21
37.355562
31
0
39
0
210
0
220
0
230
1
0
LINE
5
F5
100
AcDbEntity
8
1
62
256
6
ByLayer
370
18
48
1
60
0
100
AcDbLine
10
408.888872
20
35.040767
30
0
11
405.25
21
35.359127
31
0
39
0
210
0
220
0
230
1
0
LINE
5
F6
100
AcDbEntity
8
1
62
256
6
ByLayer
370
18
48
1
60
0
100
AcDbLine
10
408.969706
20
37.355562
30
0
11
401.423184
21
42.071153
31
0
39
0
210
0
220
0
230
1
0
LINE
5
F7
100
AcDbEntity
8
1
62
256
6
ByLayer
370
18
48
1
60
0
100
AcDbLine
10
405.25
20
35.359127
30
0
11
401.423184
21
37.750387
31
0
39
0
210
0
220
0
230
1
0
LINE
5
F8
100
AcDbEntity
8
1
62
256
6
ByLayer
370
18
48
1
60
0
100
AcDbLine
10
405.153437
20
46.428473
30
0
11
405.178993
21
47.160318
31
0
39
0
210
0
220
0
230
1
0
LINE
5
F9
100
AcDbEntity
8
1
62
256
6
ByLayer
370
18
48
1
60
0
100
AcDbLine
10
405.153437
20
46.428473
30
0
11
402.910718
21
45.248521
31
0
39
0
210
0
220
0
230
1
0
LINE
5
FA
100
AcDbEntity
8
1
62
256
6
ByLayer
370
18
48
1
60
0
100
AcDbLine
10
401.423184
20
45.102878
30
0
11
401.536914
21
45.185508
31
0
39
0
210
0
220
0
230
1
0
LINE
5
FB
100
AcDbEntity
8
1
62
256
6
ByLayer
370
18
48
1
60
0
100
AcDbLine
10
406.203836
20
47.264451
30
0
11
406.193757
21
46.975812
31
0
39
0
210
0
220
0
230
1
0
LINE
5
FC
100
AcDbEntity
8
1
62
256
6
ByLayer
370
18
48
1
60
0
100
AcDbLine
10
406.193757
20
46.975812
30
0
11
405.153437
21
46.428473
31
0
39
0
210
0
220
0
230
1
0
LINE
5
FD
100
AcDbEntity
8
1
62
256
6
ByLayer
370
18
48
1
60
0
100
AcDbLine
10
402.914864
20
45.128365
30
0
11
403.280894
21
44.899644
31
0
39
0
210
0
220
0
230
1
0
LINE
5
FE
100
AcDbEntity
8
1
62
256
6
ByLayer
370
18
48
1
60
0
100
AcDbLine
10
401.192404
20
44.730704
30
0
11
401.086421
21
44.561095
31
0
39
0
210
0
220
0
230
1
0
LINE
5
FF
100
AcDbEntity
8
1
62
256
6
ByLayer
370
18
48
1
60
0
100
AcDbLine
10
407.206438
20
47.321488
30
0
11
407.194532
21
46.980559
31
0
39
0
210
0
220
0
230
1
0
LINE
5
100
100
AcDbEntity
8
1
62
256
6
ByLayer
370
18
48
1
60
0
100
AcDbLine
10
408.969706
20
37.355562
30
0
11
408.988717
21
37.899969
31
0
39
0
210
0
220
0
230
1
0
LINE
5
101
100
AcDbEntity
8
1
62
256
6
ByLayer
370
13
48
1
60
0
100
AcDbLine
10
366.7
20
40
30
0
11
366.7
21
0
31
0
39
0
210
0
220
0
230
1
0
LINE
5
102
100
AcDbEntity
8
1
62
256
6
ByLayer
370
13
48
1
60
0
100
AcDbLine
10
366.7
20
0
30
0
11
366.7
21
-40
31
0
39
0
210
0
220
0
230
1
0
LINE
5
103
100
AcDbEntity
8
1
62
256
6
ByLayer
370
18
48
1
60
0
100
AcDbLine
10
0.3
20
-40
30
0
11
366.7
21
-40
31
0
39
0
210
0
220
0
230
1
0
LINE
5
104
100
AcDbEntity
8
1
62
256
6
ByLayer
370
18
48
1
60
0
100
AcDbLine
10
366.7
20
40
30
0
11
0.3
21
40
31
0
39
0
210
0
220
0
230
1
0
LINE
5
105
100
AcDbEntity
8
1
62
256
6
ByLayer
370
18
48
1
60
0
100
AcDbLine
10
13.461325
20
12.13309
30
0
11
10.538675
21
12.13309
31
0
39
0
210
0
220
0
230
1
0
LINE
5
106
100
AcDbEntity
8
1
62
256
6
ByLayer
370
18
48
1
60
0
100
AcDbLine
10
10.538675
20
38.115458
30
0
11
13.461325
21
38.115458
31
0
39
0
210
0
220
0
230
1
0
LINE
5
107
100
AcDbEntity
8
1
62
256
6
ByLayer
370
18
48
1
60
0
100
AcDbLine
10
0.3
20
40
30
0
11
0.3
21
0
31
0
39
0
210
0
220
0
230
1
0
LINE
5
108
100
AcDbEntity
8
1
62
256
6
ByLayer
370
18
48
1
60
0
100
AcDbLine
10
0.3
20
0
30
0
11
0.3
21
-40
31
0
39
0
210
0
220
0
230
1
0
LINE
5
109
100
AcDbEntity
8
1
62
256
6
ByLayer
370
18
48
1
60
0
100
AcDbLine
10
13.461325
20
-38.115458
30
0
11
10.538675
21
-38.115458
31
0
39
0
210
0
220
0
230
1
0
LINE
5
10A
100
AcDbEntity
8
1
62
256
6
ByLayer
370
18
48
1
60
0
100
AcDbLine
10
10.538675
20
-12.13309
30
0
11
13.461325
21
-12.13309
31
0
39
0
210
0
220
0
230
1
0
LINE
5
10B
100
AcDbEntity
8
1
62
256
6
ByLayer
370
18
48
1
60
0
100
AcDbLine
10
0.3
20
40
30
0
11
0
21
39.7
31
0
39
0
210
0
220
0
230
1
0
LINE
5
10C
100
AcDbEntity
8
1
62
256
6
ByLayer
370
18
48
1
60
0
100
AcDbLine
10
0
20
-39.7
30
0
11
0.3
21
-40
31
0
39
0
210
0
220
0
230
1
0
LINE
5
10D
100
AcDbEntity
8
1
62
256
6
ByLayer
370
18
48
1
60
0
100
AcDbLine
10
0
20
39.7
30
0
11
0
21
0
31
0
39
0
210
0
220
0
230
1
0
LINE
5
10E
100
AcDbEntity
8
1
62
256
6
ByLayer
370
18
48
1
60
0
100
AcDbLine
10
0
20
0
30
0
11
0
21
-39.7
31
0
39
0
210
0
220
0
230
1
0
LINE
5
10F
100
AcDbEntity
8
1
62
256
6
ByLayer
370
13
48
1
60
0
100
AcDbLine
10
13.894338
20
12.6576
30
0
11
13.894338
21
37.944501
31
0
39
0
210
0
220
0
230
1
0
LINE
5
110
100
AcDbEntity
8
1
62
256
6
ByLayer
370
13
48
1
60
0
100
AcDbLine
10
13.461325
20
12.13309
30
0
11
13.461325
21
38.115458
31
0
39
0
210
0
220
0
230
1
0
LINE
5
111
100
AcDbEntity
8
1
62
256
6
ByLayer
370
13
48
1
60
0
100
AcDbLine
10
10.538675
20
-38.115458
30
0
11
10.538675
21
-12.13309
31
0
39
0
210
0
220
0
230
1
0
LINE
5
112
100
AcDbEntity
8
1
62
256
6
ByLayer
370
13
48
1
60
0
100
AcDbLine
10
10.105662
20
-37.944501
30
0
11
10.105662
21
-12.6576
31
0
39
0
210
0
220
0
230
1
0
LINE
5
113
100
AcDbEntity
8
1
62
256
6
ByLayer
370
13
48
1
60
0
100
AcDbLine
10
10.538675
20
12.13309
30
0
11
10.538675
21
38.115458
31
0
39
0
210
0
220
0
230
1
0
LINE
5
114
100
AcDbEntity
8
1
62
256
6
ByLayer
370
13
48
1
60
0
100
AcDbLine
10
10.105662
20
12.6576
30
0
11
10.105662
21
37.944501
31
0
39
0
210
0
220
0
230
1
0
LINE
5
115
100
AcDbEntity
8
1
62
256
6
ByLayer
370
13
48
1
60
0
100
AcDbLine
10
13.894338
20
-37.944501
30
0
11
13.894338
21
-12.6576
31
0
39
0
210
0
220
0
230
1
0
LINE
5
116
100
AcDbEntity
8
1
62
256
6
ByLayer
370
13
48
1
60
0
100
AcDbLine
10
13.461325
20
-38.115458
30
0
11
13.461325
21
-12.13309
31
0
39
0
210
0
220
0
230
1
0
LINE
5
117
100
AcDbEntity
8
1
62
256
6
ByLayer
370
13
48
1
60
0
100
AcDbLine
10
376.56309
20
-29.560308
30
0
11
376.56309
21
29.560308
31
0
39
0
210
0
220
0
230
1
0
LINE
5
118
100
AcDbEntity
8
1
62
256
6
ByLayer
370
18
48
1
60
0
100
AcDbLine
10
367
20
-40
30
0
11
371.12
21
-40
31
0
39
0
210
0
220
0
230
1
0
LINE
5
119
100
AcDbEntity
8
1
62
256
6
ByLayer
370
18
48
1
60
0
100
AcDbLine
10
372.379274
20
40
30
0
11
367
21
40
31
0
39
0
210
0
220
0
230
1
0
LINE
5
11A
100
AcDbEntity
8
1
62
256
6
ByLayer
370
18
48
1
60
0
100
AcDbLine
10
372.640844
20
39.546947
30
0
11
372.379274
21
40
31
0
39
0
210
0
220
0
230
1
0
LINE
5
11B
100
AcDbEntity
8
1
62
256
6
ByLayer
370
18
48
1
60
0
100
AcDbLine
10
373.047999
20
38.841734
30
0
11
374.16906
21
36.9
31
0
39
0
210
0
220
0
230
1
0
LINE
5
11C
100
AcDbEntity
8
1
62
256
6
ByLayer
370
18
48
1
60
0
100
AcDbLine
10
374.86188
20
36.5
30
0
11
386.534391
21
36.5
31
0
39
0
210
0
220
0
230
1
0
LINE
5
11D
100
AcDbEntity
8
1
62
256
6
ByLayer
370
18
48
1
60
0
100
AcDbLine
10
386.534391
20
36.5
30
0
11
398.486891
21
32.726136
31
0
39
0
210
0
220
0
230
1
0
LINE
5
11E
100
AcDbEntity
8
1
62
256
6
ByLayer
370
18
48
1
60
0
100
AcDbLine
10
382.201245
20
32.726136
30
0
11
398.486891
21
32.726136
31
0
39
0
210
0
220
0
230
1
0
LINE
5
11F
100
AcDbEntity
8
1
62
256
6
ByLayer
370
18
48
1
60
0
100
AcDbLine
10
403
20
-32.726136
30
0
11
382.201245
21
-32.726136
31
0
39
0
210
0
220
0
230
1
0
LINE
5
120
100
AcDbEntity
8
1
62
256
6
ByLayer
370
13
48
1
60
0
100
AcDbLine
10
403
20
-37.62
30
0
11
403
21
-32.726136
31
0
39
0
210
0
220
0
230
1
0
LINE
5
121
100
AcDbEntity
8
1
62
256
6
ByLayer
370
18
48
1
60
0
100
AcDbLine
10
373.5
20
-37.62
30
0
11
403
21
-37.62
31
0
39
0
210
0
220
0
230
1
0
LINE
5
122
100
AcDbEntity
8
1
62
256
6
ByLayer
370
18
48
1
60
0
100
AcDbLine
10
371.12
20
-40
30
0
11
373.5
21
-37.62
31
0
39
0
210
0
220
0
230
1
0
LINE
5
123
100
AcDbEntity
8
1
62
256
6
ByLayer
370
18
48
1
60
0
100
AcDbLine
10
367
20
40
30
0
11
367
21
-40
31
0
39
0
210
0
220
0
230
1
0
LINE
5
124
100
AcDbEntity
8
1
62
256
6
ByLayer
370
13
48
1
60
0
100
AcDbLine
10
382.201245
20
32.726136
30
0
11
382.201245
21
-32.726136
31
0
39
0
210
0
220
0
230
1
0
LINE
5
125
100
AcDbEntity
8
1
62
256
6
ByLayer
370
13
48
1
60
0
100
AcDbLine
10
403
20
-32.726136
30
0
11
403
21
30.219216
31
0
39
0
210
0
220
0
230
1
0
LINE
5
126
100
AcDbEntity
8
1
62
256
6
ByLayer
370
18
48
1
60
0
100
AcDbLine
10
403
20
30.219216
30
0
11
406
21
28.344608
31
0
39
0
210
0
220
0
230
1
0
LINE
5
127
100
AcDbEntity
8
1
62
256
6
ByLayer
370
18
48
1
60
0
100
AcDbLine
10
406
20
28.344608
30
0
11
406
21
-31.128765
31
0
39
0
210
0
220
0
230
1
0
LINE
5
128
100
AcDbEntity
8
1
62
256
6
ByLayer
370
18
48
1
60
0
100
AcDbLine
10
406
20
-31.128765
30
0
11
406
21
-34.62
31
0
39
0
210
0
220
0
230
1
0
LINE
5
129
100
AcDbEntity
8
1
62
256
6
ByLayer
370
18
48
1
60
0
100
AcDbLine
10
399.5
20
32.406259
30
0
11
398.486891
21
32.726136
31
0
39
0
210
0
220
0
230
1
0
LINE
5
12A
100
AcDbEntity
8
1
62
256
6
ByLayer
370
18
48
1
60
0
100
AcDbLine
10
403
20
30.219216
30
0
11
399.5
21
32.406259
31
0
39
0
210
0
220
0
230
1
0
LINE
5
12B
100
AcDbEntity
8
1
62
256
6
ByLayer
370
13
48
1
60
0
100
AcDbLine
10
372.099257
20
39.556102
30
0
11
372.324724
21
38.862185
31
0
39
0
210
0
220
0
230
1
0
LINE
5
12C
100
AcDbEntity
8
1
62
256
6
ByLayer
370
18
48
1
60
0
100
AcDbLine
10
373.048018
20
38.841701
30
0
11
372.640844
21
39.546947
31
0
39
0
210
0
220
0
230
1
0
LINE
5
12D
100
AcDbEntity
8
1
62
256
6
ByLayer
370
18
48
1
60
0
100
AcDbLine
10
387.087036
20
12.19224
30
0
11
389.042097
21
13.421495
31
0
39
0
210
0
220
0
230
1
0
LINE
5
12E
100
AcDbEntity
8
1
62
256
6
ByLayer
370
18
48
1
60
0
100
AcDbLine
10
389.042097
20
13.421495
30
0
11
388.955061
21
15.729255
31
0
39
0
210
0
220
0
230
1
0
LINE
5
12F
100
AcDbEntity
8
1
62
256
6
ByLayer
370
18
48
1
60
0
100
AcDbLine
10
388.955061
20
15.729255
30
0
11
386.912964
21
16.80776
31
0
39
0
210
0
220
0
230
1
0
LINE
5
130
100
AcDbEntity
8
1
62
256
6
ByLayer
370
18
48
1
60
0
100
AcDbLine
10
386.912964
20
16.80776
30
0
11
384.957903
21
15.578505
31
0
39
0
210
0
220
0
230
1
0
LINE
5
131
100
AcDbEntity
8
1
62
256
6
ByLayer
370
18
48
1
60
0
100
AcDbLine
10
384.957903
20
15.578505
30
0
11
385.044939
21
13.270745
31
0
39
0
210
0
220
0
230
1
0
LINE
5
132
100
AcDbEntity
8
1
62
256
6
ByLayer
370
18
48
1
60
0
100
AcDbLine
10
385.044939
20
13.270745
30
0
11
387.087036
21
12.19224
31
0
39
0
210
0
220
0
230
1
0
MTEXT
5
21D
100
AcDbEntity
8
2
62
256
6
ByLayer
370
18
48
1
60
0
100
AcDbMText
10
439.051282
20
-10.537619
30
0
210
0
220
0
230
1
1
\W0.7839;Dc = 86.0 - 107.0
40
3
41
0
44
1.084337
50
89.9999999999995
71
7
72
5
7
iso_b_vert
0
MTEXT
5
220
100
AcDbEntity
8
SK6
62
256
6
ByLayer
370
18
48
1
60
0
100
AcDbMText
10
420.75
20
59.250114
30
0
210
0
220
0
230
1
1
\W0.7335;825D-107TC11U-C8S
40
3
41
0
44
1.084337
50
0
71
7
72
5
7
iso_b_vert
0
DIMENSION
5
22C
100
AcDbEntity
8
SK2
62
256
6
ByLayer
370
18
48
1
60
0
100
AcDbDimension
2
DimnDraft3D1
10
-75.5
20
-40
30
0
11
-75
21
-4.151312
31
0
70
33
71
5
72
1
41
1
210
0
220
0
230
1
3
Standard
100
AcDbAlignedDimension
13
-1.7
23
40
33
0
14
-1.7
24
-40
34
0
1001
ACAD
1000
DSTYLE
1002
{
1070
   279
1070
     0
1070
    74
1070
     0
1070
   173
1070
     1
1070
   340
1005
21E
1070
   271
1070
     0
1070
    77
1070
     1
1070
    73
1070
     0
1070
   171
1070
     4
1070
   274
1070
     4
1070
   177
1070
     7
1070
   176
1070
     7
1070
   178
1070
     7
1070
    78
1070
     8
1070
    41
1041
3.175
1070
   147
1041
1.5
1070
    42
1041
2.0
1070
    44
1041
2.0
1070
   140
1041
3.0
1070
   343
1005
0
1070
   344
1005
0
1002
}
0
DIMENSION
5
236
100
AcDbEntity
8
SK2
62
256
6
ByLayer
370
18
48
1
60
0
100
AcDbDimension
2
DimnDraft3D2
10
387
20
-61.5
30
0
11
188.859774
21
-61.5
31
0
70
32
71
5
72
1
41
1
210
0
220
0
230
1
3
Standard
100
AcDbAlignedDimension
13
0
23
-41.7
33
0
14
387
24
-44.708531
34
0
50
0
100
AcDbRotatedDimension
1001
ACAD
1000
DSTYLE
1002
{
1070
   279
1070
     0
1070
   172
1070
     1
1070
   173
1070
     1
1070
   340
1005
21E
1070
   271
1070
     1
1070
    77
1070
     1
1070
    73
1070
     0
1070
   171
1070
     4
1070
   274
1070
     4
1070
   177
1070
     7
1070
   176
1070
     7
1070
   178
1070
     7
1070
    41
1041
3.175
1070
   147
1041
1.5
1070
    42
1041
2.0
1070
    44
1041
2.0
1070
   140
1041
3.0
1070
   343
1005
0
1070
   344
1005
0
1002
}
0
DIMENSION
5
240
100
AcDbEntity
8
SK2
62
256
6
ByLayer
370
18
48
1
60
0
100
AcDbDimension
2
DimnDraft3D3
10
387
20
-76.5
30
0
11
188.859774
21
-76.5
31
0
70
32
71
5
72
1
41
1
210
0
220
0
230
1
3
Standard
100
AcDbAlignedDimension
13
0
23
-41.7
33
0
14
387
24
-44.708531
34
0
50
0
100
AcDbRotatedDimension
1001
ACAD
1000
DSTYLE
1002
{
1070
   279
1070
     0
1070
   172
1070
     1
1070
   173
1070
     1
1070
   340
1005
21E
1070
   271
1070
     1
1070
    77
1070
     1
1070
    73
1070
     0
1070
   171
1070
     4
1070
   274
1070
     4
1070
   177
1070
     7
1070
   176
1070
     7
1070
   178
1070
     7
1070
    41
1041
3.175
1070
   147
1041
1.5
1070
    42
1041
2.0
1070
    44
1041
2.0
1070
   140
1041
3.0
1070
   343
1005
0
1070
   344
1005
0
1002
}
0
DIMENSION
5
24A
100
AcDbEntity
8
SK2
62
256
6
ByLayer
370
18
48
1
60
0
100
AcDbDimension
2
DimnDraft3D4
10
406
20
-91.5
30
0
11
174.043888
21
-91.5
31
0
70
32
71
5
72
1
41
1
210
0
220
0
230
1
3
Standard
100
AcDbAlignedDimension
13
-48
23
-26.575089
33
0
14
406
24
-36.62
34
0
50
0
100
AcDbRotatedDimension
1001
ACAD
1000
DSTYLE
1002
{
1070
   279
1070
     0
1070
   172
1070
     1
1070
   173
1070
     1
1070
   340
1005
21E
1070
   271
1070
     1
1070
    77
1070
     1
1070
    73
1070
     0
1070
   171
1070
     4
1070
   274
1070
     4
1070
   177
1070
     7
1070
   176
1070
     7
1070
   178
1070
     7
1070
    41
1041
3.175
1070
   147
1041
1.5
1070
    42
1041
2.0
1070
    44
1041
2.0
1070
   140
1041
3.0
1070
   343
1005
0
1070
   344
1005
0
1002
}
0
DIMENSION
5
254
100
AcDbEntity
8
2
62
256
6
ByLayer
370
18
48
1
60
0
100
AcDbDimension
2
DimnDraft3D5
10
410
20
73.5
30
0
11
200.576774
21
73.5
31
0
70
32
71
5
72
1
41
1
210
0
220
0
230
1
3
Standard
100
AcDbAlignedDimension
13
0
23
41.7
33
0
14
410
24
50.291469
34
0
50
0
100
AcDbRotatedDimension
1001
ACAD
1000
DSTYLE
1002
{
1070
   279
1070
     0
1070
   172
1070
     1
1070
   173
1070
     1
1070
   340
1005
21E
1070
   271
1070
     1
1070
    77
1070
     1
1070
    73
1070
     0
1070
   171
1070
     4
1070
   274
1070
     4
1070
   177
1070
     7
1070
   176
1070
     7
1070
   178
1070
     7
1070
    41
1041
3.175
1070
   147
1041
1.5
1070
    42
1041
2.0
1070
    44
1041
2.0
1070
   140
1041
3.0
1070
   343
1005
0
1070
   344
1005
0
1002
}
0
DIMENSION
5
25E
100
AcDbEntity
8
2
62
256
6
ByLayer
370
13
48
1
60
0
100
AcDbDimension
2
DimnDraft3D6
10
411
20
48.291469
30
0
11
423.192606
21
34.647731
31
0
70
34
71
5
72
1
41
1
210
0
220
0
230
1
3
Standard
100
AcDb2LineAngularDimension
13
409.663903
23
38.180048
33
0
14
409.999766
24
47.797893
34
0
15
410
25
48.291469
35
0
16
425.276581
26
32.489711
36
0
40
0
0
ENDSEC
0
SECTION
2
OBJECTS
0
DICTIONARY
5
2d0
330
0
100
AcDbDictionary
280
0
281
1
3
ACAD_GROUP
350
2d1
3
ACAD_GROUP
350
2d2
3
ACAD_MLINESTYLE
350
2d3
0
DICTIONARY
5
2d1
330
0
100
AcDbDictionary
280
0
281
1
0
DICTIONARY
5
2d2
330
0
100
AcDbDictionary
280
0
281
1
3
_DC
350
268
3
<202205005MOD000_00>
350
267
3
DIT-000-00-UG_TO_2D CONVERT_825D_SIZEF AND_G
350
26A
3
DIT-000-00-UG_TO_2D CONVERT_825D_SIZEF AND_G10
350
26C
3
DIT-000-00-UG_TO_2D CONVERT_825D_SIZEF AND_G9
350
26B
3
R825C_AF23STUC1103A_A1
350
269
0
DICTIONARY
5
2d3
330
0
100
AcDbDictionary
280
0
281
1
3
Standard
350
18
0
GROUP
5
268
330
2d2
100
AcDbGroup
300

70
0
71
1
340
7F
340
7B
340
7E
340
7D
340
7C
340
79
340
21D
0
GROUP
5
267
330
2d2
100
AcDbGroup
300

70
0
71
1
340
6C
340
6E
340
70
340
72
340
73
340
75
340
77
340
78
340
79
340
7B
340
7C
340
7D
340
7E
340
7F
340
80
340
81
340
82
340
83
340
84
340
85
340
86
340
87
340
88
340
89
340
8A
340
8B
340
8C
340
8D
340
8E
340
8F
340
90
340
92
340
93
340
94
340
95
340
96
340
97
340
98
340
99
340
9A
340
9B
340
9C
340
9D
340
9E
340
9F
340
A0
340
A1
340
A2
340
A3
340
A4
340
A5
340
A6
340
A7
340
A8
340
A9
340
AA
340
AB
340
AC
340
AD
340
AE
340
AF
340
B0
340
B1
340
B2
340
B3
340
B4
340
B5
340
B6
340
B7
340
B8
340
B9
340
BA
340
BB
340
BC
340
BD
340
BE
340
BF
340
C0
340
C1
340
C2
340
C3
340
C4
340
C5
340
C6
340
C7
340
C8
340
C9
340
CA
340
CB
340
CC
340
CD
340
CE
340
CF
340
D0
340
D1
340
D2
340
D3
340
D4
340
D5
340
D6
340
D7
340
D8
340
D9
340
DA
340
DB
340
DC
340
DD
340
DE
340
DF
340
E0
340
E1
340
E2
340
E3
340
E4
340
E5
340
E6
340
E7
340
E8
340
E9
340
EA
340
EB
340
EC
340
ED
340
EE
340
EF
340
F0
340
F1
340
F2
340
F3
340
F4
340
F5
340
F6
340
F7
340
F8
340
F9
340
FA
340
FB
340
FC
340
FD
340
FE
340
FF
340
100
340
101
340
102
340
103
340
104
340
105
340
106
340
107
340
108
340
109
340
10A
340
10B
340
10C
340
10D
340
10E
340
10F
340
110
340
111
340
112
340
113
340
114
340
115
340
116
340
117
340
118
340
119
340
11A
340
11B
340
11C
340
11D
340
11E
340
11F
340
120
340
121
340
122
340
123
340
124
340
125
340
126
340
127
340
128
340
129
340
12A
340
12B
340
12C
340
12D
340
12E
340
12F
340
130
340
131
340
132
340
133
340
134
340
135
340
136
340
137
340
138
340
139
340
13A
340
13B
340
13C
340
13D
340
13E
340
13F
340
140
340
141
340
142
340
143
340
144
340
145
340
146
340
147
340
148
340
149
340
14A
340
14B
340
14C
340
14D
340
14E
340
14F
340
150
340
151
340
152
340
153
340
154
340
155
340
156
340
157
340
158
340
159
340
15A
340
15B
340
15C
340
15D
340
15E
340
15F
340
160
340
161
340
162
340
163
340
164
340
165
340
166
340
167
340
168
340
169
340
16A
340
16B
340
16C
340
16D
340
16E
340
16F
340
170
340
171
340
172
340
173
340
174
340
175
340
176
340
177
340
178
340
179
340
17A
340
17B
340
17C
340
17D
340
17E
340
17F
340
180
340
181
340
182
340
183
340
184
340
185
340
186
340
187
340
188
340
189
340
18A
340
18B
340
18C
340
18D
340
18E
340
18F
340
190
340
191
340
192
340
193
340
194
340
195
340
196
340
197
340
198
340
199
340
19A
340
19B
340
19C
340
19D
340
19E
340
19F
340
1A0
340
1A1
340
1A2
340
1A3
340
1A4
340
1A5
340
1A6
340
1A7
340
1A8
340
1A9
340
1AA
340
1AB
340
1AC
340
1AD
340
1AE
340
1AF
340
1B0
340
1B1
340
1B2
340
1B3
340
1B4
340
1B5
340
1B6
340
1B7
340
1B8
340
1B9
340
1BA
340
1BB
340
1BC
340
1BD
340
1BE
340
1BF
340
1C0
340
1C1
340
1C2
340
1C3
340
1C4
340
1C5
340
1C6
340
1C7
340
1C8
340
1C9
340
1CA
340
1CB
340
1CC
340
1CD
340
1CE
340
1CF
340
1D0
340
1D1
340
1D2
340
1D3
340
1D4
340
1D5
340
1D6
340
1D7
340
1D8
340
1D9
340
1DA
340
1DB
340
1DC
340
1DD
340
1DE
340
1DF
340
1E0
340
1E1
340
1E2
340
1E3
340
1E4
340
1E5
340
1E6
340
1E7
340
1E8
340
1E9
340
1EA
340
1EB
340
1EC
340
1ED
340
1EE
340
1EF
340
1F0
340
1F1
340
1F2
340
1F3
340
1F4
340
1F5
340
1F6
340
1F7
340
1F8
340
1F9
340
1FA
340
1FB
340
1FC
340
1FD
340
1FE
340
1FF
340
200
340
201
340
202
340
203
340
204
340
205
340
206
340
207
340
208
340
209
340
20A
340
20B
340
20C
340
20D
340
20E
340
20F
340
210
340
211
340
212
340
213
340
214
340
215
340
216
340
217
340
218
340
219
340
21A
340
21B
340
21C
340
7F
340
7B
340
7E
340
7D
340
7C
340
79
340
21D
340
6E
340
80
340
81
340
82
340
83
340
84
340
85
340
86
340
87
340
220
340
25E
340
88
340
89
340
8A
340
8B
340
8C
340
8D
340
8E
340
8F
340
90
340
164
340
165
340
166
340
167
340
168
340
169
340
16A
340
16B
340
16C
340
16D
340
16E
340
16F
340
170
340
171
340
172
340
173
340
174
340
175
340
70
340
92
340
93
340
94
340
95
340
96
340
97
340
98
340
99
340
9A
340
9B
340
9C
340
9D
340
9E
340
9F
340
A0
340
A1
340
A2
340
A3
340
A4
340
A5
340
A6
340
A7
340
A8
340
A9
340
AA
340
AB
340
AC
340
AD
340
AE
340
AF
340
B0
340
B1
340
B2
340
B3
340
B4
340
B5
340
B6
340
B7
340
B8
340
B9
340
BA
340
BB
340
BC
340
BD
340
BE
340
BF
340
C0
340
C1
340
C2
340
C3
340
C4
340
C5
340
C6
340
C7
340
C8
340
C9
340
CA
340
CB
340
CC
340
CD
340
CE
340
CF
340
D0
340
D1
340
D2
340
D3
340
D4
340
D5
340
D6
340
D7
340
D8
340
D9
340
DA
340
DB
340
DC
340
DD
340
DE
340
DF
340
E0
340
E1
340
E2
340
E3
340
E4
340
E5
340
E6
340
E7
340
E8
340
E9
340
EA
340
EB
340
EC
340
ED
340
EE
340
EF
340
F0
340
F1
340
F2
340
F3
340
F4
340
F5
340
F6
340
F7
340
F8
340
F9
340
FA
340
FB
340
FC
340
FD
340
FE
340
FF
340
100
340
101
340
102
340
103
340
104
340
105
340
106
340
107
340
108
340
109
340
10A
340
10B
340
10C
340
10D
340
10E
340
10F
340
110
340
111
340
112
340
113
340
114
340
115
340
116
340
117
340
118
340
119
340
11A
340
11B
340
11C
340
11D
340
11E
340
11F
340
120
340
121
340
122
340
123
340
124
340
125
340
126
340
127
340
128
340
129
340
12A
340
12B
340
12C
340
12D
340
12E
340
12F
340
130
340
131
340
132
340
133
340
134
340
135
340
136
340
137
340
138
340
139
340
13A
340
13B
340
13C
340
13D
340
13E
340
13F
340
140
340
141
340
142
340
143
340
144
340
145
340
146
340
147
340
148
340
149
340
14A
340
14B
340
14C
340
14D
340
14E
340
14F
340
150
340
151
340
152
340
153
340
154
340
155
340
156
340
157
340
158
340
159
340
15A
340
15B
340
15C
340
15D
340
15E
340
15F
340
160
340
161
340
162
340
163
340
176
340
177
340
178
340
179
340
17A
340
17B
340
17C
340
17D
340
17E
340
17F
340
180
340
181
340
182
340
183
340
184
340
185
340
186
340
187
340
188
340
189
340
18A
340
18B
340
18C
340
18D
340
18E
340
18F
340
190
340
191
340
192
340
193
340
194
340
195
340
196
340
197
340
198
340
199
340
19A
340
19B
340
19C
340
19D
340
19E
340
19F
340
1A0
340
1A1
340
1A2
340
1A3
340
1A4
340
1A5
340
1A6
340
1A7
340
1A8
340
1A9
340
1AA
340
1AB
340
1AC
340
1AD
340
1AE
340
1AF
340
1B0
340
1B1
340
1B2
340
1B3
340
1B4
340
1B5
340
1B6
340
1B7
340
1B8
340
1B9
340
1BA
340
1BB
340
1BC
340
1BD
340
1BE
340
1BF
340
1C0
340
1C1
340
1C2
340
1C3
340
1C4
340
1C5
340
1C6
340
1C7
340
1C8
340
1C9
340
1CA
340
1CB
340
1CC
340
1CD
340
1CE
340
1CF
340
1D0
340
1D1
340
1D2
340
1D3
340
1D4
340
1D5
340
1D6
340
1D7
340
1D8
340
1D9
340
1DA
340
1DB
340
1DC
340
1DD
340
1DE
340
1DF
340
1E0
340
1E1
340
1E2
340
1E3
340
1E4
340
1E5
340
1E6
340
1E7
340
1E8
340
1E9
340
1EA
340
1EB
340
1EC
340
1ED
340
1EE
340
1EF
340
1F0
340
1F1
340
1F2
340
1F3
340
1F4
340
1F5
340
1F6
340
1F7
340
1F8
340
1F9
340
1FA
340
1FB
340
1FC
340
1FD
340
1FE
340
1FF
340
200
340
201
340
202
340
203
340
204
340
205
340
206
340
207
340
208
340
209
340
20A
340
20B
340
20C
340
20D
340
20E
340
20F
340
210
340
211
340
212
340
213
340
214
340
215
340
216
340
217
340
218
340
219
340
21A
340
21B
340
21C
340
21D
340
220
340
22C
340
236
340
240
340
24A
340
254
340
25E
0
GROUP
5
26A
330
2d2
100
AcDbGroup
300

70
0
71
1
340
88
340
89
340
8A
340
8B
0
GROUP
5
26C
330
2d2
100
AcDbGroup
300

70
0
71
1
340
70
340
92
340
93
340
94
340
95
340
96
340
97
340
98
340
99
340
9A
340
9B
340
9C
340
9D
340
9E
340
9F
340
A0
340
A1
340
A2
340
A3
340
A4
340
A5
340
A6
340
A7
340
A8
340
A9
340
AA
340
AB
340
AC
340
AD
340
AE
340
AF
340
B0
340
B1
340
B2
340
B3
340
B4
340
B5
340
B6
340
B7
340
B8
340
B9
340
BA
340
BB
340
BC
340
BD
340
BE
340
BF
340
C0
340
C1
340
C2
340
C3
340
C4
340
C5
340
C6
340
C7
340
C8
340
C9
340
CA
340
CB
340
CC
340
CD
340
CE
340
CF
340
D0
340
D1
340
D2
340
D3
340
D4
340
D5
340
D6
340
D7
340
D8
340
D9
340
DA
340
DB
340
DC
340
DD
340
DE
340
DF
340
E0
340
E1
340
E2
340
E3
340
E4
340
E5
340
E6
340
E7
340
E8
340
E9
340
EA
340
EB
340
EC
340
ED
340
EE
340
EF
340
F0
340
F1
340
F2
340
F3
340
F4
340
F5
340
F6
340
F7
340
F8
340
F9
340
FA
340
FB
340
FC
340
FD
340
FE
340
FF
340
100
340
101
340
102
340
103
340
104
340
105
340
106
340
107
340
108
340
109
340
10A
340
10B
340
10C
340
10D
340
10E
340
10F
340
110
340
111
340
112
340
113
340
114
340
115
340
116
340
117
340
118
340
119
340
11A
340
11B
340
11C
340
11D
340
11E
340
11F
340
120
340
121
340
122
340
123
340
124
340
125
340
126
340
127
340
128
340
129
340
12A
340
12B
340
12C
340
12D
340
12E
340
12F
340
130
340
131
340
132
340
133
340
134
340
135
340
136
340
137
340
138
340
139
340
13A
340
13B
340
13C
340
13D
340
13E
340
13F
340
140
340
141
340
142
340
143
340
144
340
145
340
146
340
147
340
148
340
149
340
14A
340
14B
340
14C
340
14D
340
14E
340
14F
340
150
340
151
340
152
340
153
340
154
340
155
340
156
340
157
340
158
340
159
340
15A
340
15B
340
15C
340
15D
340
15E
340
15F
340
160
340
161
340
162
340
163
340
176
340
177
340
178
340
179
340
17A
340
17B
340
17C
340
17D
340
17E
340
17F
340
180
340
181
340
182
340
183
340
184
340
185
340
186
340
187
340
188
340
189
340
18A
340
18B
340
18C
340
18D
340
18E
340
18F
340
190
340
191
340
192
340
193
340
194
340
195
340
196
340
197
340
198
340
199
340
19A
340
19B
340
19C
340
19D
340
19E
340
19F
340
1A0
340
1A1
340
1A2
340
1A3
340
1A4
340
1A5
340
1A6
340
1A7
340
1A8
340
1A9
340
1AA
340
1AB
340
1AC
340
1AD
340
1AE
340
1AF
340
1B0
340
1B1
340
1B2
340
1B3
340
1B4
340
1B5
340
1B6
340
1B7
340
1B8
340
1B9
340
1BA
340
1BB
340
1BC
340
1BD
340
1BE
340
1BF
340
1C0
340
1C1
340
1C2
340
1C3
340
1C4
340
1C5
340
1C6
340
1C7
340
1C8
340
1C9
340
1CA
340
1CB
340
1CC
340
1CD
340
1CE
340
1CF
340
1D0
340
1D1
340
1D2
340
1D3
340
1D4
340
1D5
340
1D6
340
1D7
340
1D8
340
1D9
340
1DA
340
1DB
340
1DC
340
1DD
340
1DE
340
1DF
340
1E0
340
1E1
340
1E2
340
1E3
340
1E4
340
1E5
340
1E6
340
1E7
340
1E8
340
1E9
340
1EA
340
1EB
340
1EC
340
1ED
340
1EE
340
1EF
340
1F0
340
1F1
340
1F2
340
1F3
340
1F4
340
1F5
340
1F6
340
1F7
340
1F8
340
1F9
340
1FA
340
1FB
340
1FC
340
1FD
340
1FE
340
1FF
340
200
340
201
340
202
340
203
340
204
340
205
340
206
340
207
340
208
340
209
340
20A
340
20B
340
20C
340
20D
340
20E
340
20F
340
210
340
211
340
212
340
213
340
214
340
215
340
216
340
217
340
218
340
219
340
21A
340
21B
340
21C
0
GROUP
5
26B
330
2d2
100
AcDbGroup
300

70
0
71
1
340
8C
340
8D
340
8E
340
8F
340
90
340
164
340
165
340
166
340
167
340
168
340
169
340
16A
340
16B
340
16C
340
16D
340
16E
340
16F
340
170
340
171
340
172
340
173
340
174
340
175
0
GROUP
5
269
330
2d2
100
AcDbGroup
300

70
0
71
1
340
6E
340
80
340
81
340
82
340
83
340
84
340
85
340
86
340
87
340
220
340
25E
0
MLINESTYLE
5
18
330
2d3
100
AcDbMlineStyle
2
Standard
70
0
3

62
256
51
90
52
90
71
2
49
-0.5
62
256
6
ByLayer
49
0.5
62
256
6
ByLayer
0
RASTERVARIABLES
5
2bd
330

100
AcDbRasterVariables
90
0
70
1
71
1
72
1
0
ENDSEC
0
EOF
