0
SECTION
2
HEADER
9
$ACADVER
1
AC1015
9
$DWGCODEPAGE
3
ANSI_1252
9
$HANDSEED
5
2d8
9
$ANGBASE
50
0
9
$ANGDIR
70
0
9
$ATTMODE
70
1
9
$AUNITS
70
0
9
$AUPREC
70
0
9
$CECOLOR
62
256
9
$CELTSCALE
40
1
9
$CELTYPE
6
ByLayer
9
$CELWEIGHT
370
18
9
$CLAYER
8
0
9
$CMLJUST
70
0
9
$CMLSCALE
40
1
9
$CMLSTYLE
2
Standard
9
$DIMSTYLE
2
Standard
9
$TEXTSIZE
40
0.2
9
$TEXTSTYLE
7
Standard
9
$LUNITS
70
2
9
$LUPREC
70
4
9
$EXTNAMES
290
1
9
$INSUNITS
70
4
9
$LTSCALE
40
1
9
$LWDISPLAY
290
1
9
$PDMODE
70
0
9
$PDSIZE
40
0
9
$PLINEGEN
70
0
0
ENDSEC
0
SECTION
2
CLASSES
0
CLASS
1
RASTERVARIABLES
2
AcDbRasterVariables
3
ISM
90
0
280
0
281
0
0
ENDSEC
0
SECTION
2
TABLES
0
TABLE
2
VPORT
5
2ce
100
AcDbSymbolTable
0
VPORT
5
1
100
AcDbSymbolTableRecord
100
AcDbViewportTableRecord
2
*Active
70
0
10
0
20
0
11
1
21
1
12
-1
22
1
13
0
23
0
14
0.5
24
0.5
15
10
25
10
16
0
26
0
36
1
17
0
27
0
37
0
0
ENDTAB
0
TABLE
2
LTYPE
5
2cf
100
AcDbSymbolTable
0
LTYPE
5
14
100
AcDbSymbolTableRecord
100
AcDbLinetypeTableRecord
70
0
2
ByBlock
3

72
65
73
0
40
0
0
LTYPE
5
15
100
AcDbSymbolTableRecord
100
AcDbLinetypeTableRecord
70
0
2
ByLayer
3

72
65
73
0
40
0
0
LTYPE
5
16
100
AcDbSymbolTableRecord
100
AcDbLinetypeTableRecord
70
0
2
CONTINUOUS
3
Solid line
72
65
73
0
40
0
0
LTYPE
5
6A
100
AcDbSymbolTableRecord
100
AcDbLinetypeTableRecord
70
0
2
CENTER
3
____ _ ____ _ ____ _ ____
72
65
73
4
40
47.5
49
22
74
0
49
-8.5
74
0
49
8.5
74
0
49
-8.5
74
0
0
LTYPE
5
6B
100
AcDbSymbolTableRecord
100
AcDbLinetypeTableRecord
70
0
2
DASHED
3
__ __ __ __ __ __ __ __ __
72
65
73
2
40
25.72
49
12.86
74
0
49
-12.86
74
0
0
ENDTAB
0
TABLE
2
LAYER
5
2d0
100
AcDbSymbolTable
0
LAYER
5
10
100
AcDbSymbolTableRecord
100
AcDbLayerTableRecord
2
0
70
0
62
7
6
CONTINUOUS
290
1
370
-3
390
0
0
LAYER
5
6D
100
AcDbSymbolTableRecord
100
AcDbLayerTableRecord
2
80
70
0
62
-6
6
CONTINUOUS
290
1
370
-3
390
0
0
LAYER
5
6F
100
AcDbSymbolTableRecord
100
AcDbLayerTableRecord
2
81
70
0
62
-3
6
CONTINUOUS
290
1
370
-3
390
0
0
LAYER
5
72
100
AcDbSymbolTableRecord
100
AcDbLayerTableRecord
2
4
70
0
62
-2
6
CENTER
290
1
370
-3
390
0
0
LAYER
5
78
100
AcDbSymbolTableRecord
100
AcDbLayerTableRecord
2
2
70
0
62
7
6
CONTINUOUS
290
1
370
-3
390
0
0
LAYER
5
87
100
AcDbSymbolTableRecord
100
AcDbLayerTableRecord
2
1
70
0
62
4
6
CONTINUOUS
290
1
370
-3
390
0
0
LAYER
5
2b8
100
AcDbSymbolTableRecord
100
AcDbLayerTableRecord
2
SK4
70
0
62
2
6
CENTER
290
1
370
-3
390
0
0
LAYER
5
2b9
100
AcDbSymbolTableRecord
100
AcDbLayerTableRecord
2
SK1
70
0
62
4
6
CONTINUOUS
290
1
370
-3
390
0
0
LAYER
5
2ba
100
AcDbSymbolTableRecord
100
AcDbLayerTableRecord
2
SK6
70
0
62
5
6
CONTINUOUS
290
1
370
-3
390
0
0
LAYER
5
2bb
100
AcDbSymbolTableRecord
100
AcDbLayerTableRecord
2
SK2
70
0
62
7
6
CONTINUOUS
290
1
370
-3
390
0
0
ENDTAB
0
TABLE
2
STYLE
5
2d1
100
AcDbSymbolTable
0
STYLE
5
11
100
AcDbSymbolTableRecord
100
AcDbTextStyleTableRecord
2
Standard
3
txt
70
0
71
0
40
0
41
1
42
0
50
0
0
STYLE
5
219
100
AcDbSymbolTableRecord
100
AcDbTextStyleTableRecord
2
iso_b_vert
3
simplex.shx
70
0
71
0
40
0
41
1
42
0
50
0
0
STYLE
5
21A
100
AcDbSymbolTableRecord
100
AcDbTextStyleTableRecord
2
DWGDirectTextStyle
3
simplex
70
0
71
0
40
0
41
1
42
0
50
0
0
ENDTAB
0
TABLE
2
DIMSTYLE
5
2d2
100
AcDbSymbolTable
100
AcDbDimStyleTable
0
DIMSTYLE
105
27
100
AcDbSymbolTableRecord
100
AcDbDimStyleTableRecord
2
Standard
70
0
3
<>
41
0.18
42
0.0625
44
0.18
140
0.18
147
0.09
73
0
74
0
77
1
271
2
275
0
278
52
280
0
340
11
0
ENDTAB
0
TABLE
2
VIEW
5
2d3
100
AcDbSymbolTable
0
ENDTAB
0
TABLE
2
UCS
5
2d4
100
AcDbSymbolTable
0
ENDTAB
0
TABLE
2
APPID
5
2d5
100
AcDbSymbolTable
0
APPID
5
12
100
AcDbSymbolTableRecord
100
AcDbRegAppTableRecord
2
ACAD
70
0
0
ENDTAB
0
TABLE
2
BLOCK_RECORD
5
2d6
100
AcDbSymbolTable
0
BLOCK_RECORD
5
1F
100
AcDbSymbolTableRecord
100
AcDbBlockTableRecord
2
*Model_Space
340
0
70
0
0
BLOCK_RECORD
5
1B
100
AcDbSymbolTableRecord
100
AcDbBlockTableRecord
2
*Paper_Space
340
0
70
0
0
BLOCK_RECORD
5
23
100
AcDbSymbolTableRecord
100
AcDbBlockTableRecord
2
*Paper_Space0
340
0
70
0
0
BLOCK_RECORD
5
21D
100
AcDbSymbolTableRecord
100
AcDbBlockTableRecord
2
DimnDraft3D1
340
0
70
0
0
BLOCK_RECORD
5
228
100
AcDbSymbolTableRecord
100
AcDbBlockTableRecord
2
DimnDraft3D2
340
0
70
0
0
BLOCK_RECORD
5
232
100
AcDbSymbolTableRecord
100
AcDbBlockTableRecord
2
DimnDraft3D3
340
0
70
0
0
BLOCK_RECORD
5
23C
100
AcDbSymbolTableRecord
100
AcDbBlockTableRecord
2
DimnDraft3D4
340
0
70
0
0
BLOCK_RECORD
5
246
100
AcDbSymbolTableRecord
100
AcDbBlockTableRecord
2
DimnDraft3D5
340
0
70
0
0
BLOCK_RECORD
5
250
100
AcDbSymbolTableRecord
100
AcDbBlockTableRecord
2
DimnDraft3D6
340
0
70
0
0
ENDTAB
0
ENDSEC
0
SECTION
2
BLOCKS
0
BLOCK
5
20
100
AcDbEntity
8
0
100
AcDbBlockBegin
2
*Model_Space
70
0
10
0
20
0
30
0
3
*Model_Space
0
ENDBLK
5
21
100
AcDbEntity
8
0
100
AcDbBlockEnd
0
BLOCK
5
1C
100
AcDbEntity
8
0
100
AcDbBlockBegin
2
*Paper_Space
70
0
10
0
20
0
30
0
3
*Paper_Space
0
ENDBLK
5
1D
100
AcDbEntity
8
0
100
AcDbBlockEnd
0
BLOCK
5
24
100
AcDbEntity
8
0
100
AcDbBlockBegin
2
*Paper_Space0
70
0
10
0
20
0
30
0
3
*Paper_Space0
0
ENDBLK
5
25
100
AcDbEntity
8
0
100
AcDbBlockEnd
0
BLOCK
5
225
100
AcDbEntity
8
0
100
AcDbBlockBegin
2
DimnDraft3D1
70
0
10
0
20
0
30
0
3
DimnDraft3D1
0
MTEXT
5
21E
100
AcDbEntity
8
SK2
62
256
6
ByLayer
370
18
48
1
60
0
100
AcDbMText
10
-74.250114
20
-3.401312
30
0
210
0
220
0
230
1
1
\W0.8320;%%c 80
40
3
41
0
44
1.084337
50
90
71
7
72
5
7
iso_b_vert
0
LINE
5
220
100
AcDbEntity
8
SK2
62
256
6
ByLayer
370
18
48
1
60
0
100
AcDbLine
10
-1.7
20
40
30
0
11
-75.5
21
40
31
0
39
0
210
0
220
0
230
1
0
LINE
5
221
100
AcDbEntity
8
SK2
62
256
6
ByLayer
370
18
48
1
60
0
100
AcDbLine
10
-1.7
20
-40
30
0
11
-75.5
21
-40
31
0
39
0
210
0
220
0
230
1
0
LINE
5
222
100
AcDbEntity
8
SK2
62
256
6
ByLayer
370
18
48
1
60
0
100
AcDbLine
10
-73.5
20
40
30
0
11
-73.5
21
-40
31
0
39
0
210
0
220
0
230
1
0
SOLID
5
223
100
AcDbEntity
8
SK2
62
256
6
ByLayer
370
18
48
1
60
0
100
AcDbTrace
10
-73.5
20
40
30
0
11
-73.082003
21
36.825002
31
0
12
-73.917997
22
36.824998
32
0
13
-73.5
23
40
33
0
39
0
210
0
220
0
230
1
0
SOLID
5
224
100
AcDbEntity
8
SK2
62
256
6
ByLayer
370
18
48
1
60
0
100
AcDbTrace
10
-73.5
20
-40
30
0
11
-73.917997
21
-36.825002
31
0
12
-73.082003
22
-36.824998
32
0
13
-73.5
23
-40
33
0
39
0
210
0
220
0
230
1
0
ENDBLK
5
226
100
AcDbEntity
8
0
100
AcDbBlockEnd
0
BLOCK
5
22F
100
AcDbEntity
8
0
100
AcDbBlockBegin
2
DimnDraft3D2
70
0
10
0
20
0
30
0
3
DimnDraft3D2
0
MTEXT
5
229
100
AcDbEntity
8
SK2
62
256
6
ByLayer
370
18
48
1
60
0
100
AcDbMText
10
234.451831
20
-60.749886
30
0
210
0
220
0
230
1
1
\W0.7564;477.0
40
3
41
0
44
1.084337
50
0
71
7
72
5
7
iso_b_vert
0
LINE
5
22A
100
AcDbEntity
8
SK2
62
256
6
ByLayer
370
18
48
1
60
0
100
AcDbLine
10
0
20
-41.7
30
0
11
0
21
-63.5
31
0
39
0
210
0
220
0
230
1
0
LINE
5
22B
100
AcDbEntity
8
SK2
62
256
6
ByLayer
370
18
48
1
60
0
100
AcDbLine
10
477
20
-44.75
30
0
11
477
21
-63.5
31
0
39
0
210
0
220
0
230
1
0
LINE
5
22C
100
AcDbEntity
8
SK2
62
256
6
ByLayer
370
18
48
1
60
0
100
AcDbLine
10
0
20
-61.5
30
0
11
477
21
-61.5
31
0
39
0
210
0
220
0
230
1
0
SOLID
5
22D
100
AcDbEntity
8
SK2
62
256
6
ByLayer
370
18
48
1
60
0
100
AcDbTrace
10
0
20
-61.5
30
0
11
3.174998
21
-61.082003
31
0
12
3.175002
22
-61.917997
32
0
13
0
23
-61.5
33
0
39
0
210
0
220
0
230
1
0
SOLID
5
22E
100
AcDbEntity
8
SK2
62
256
6
ByLayer
370
18
48
1
60
0
100
AcDbTrace
10
477
20
-61.5
30
0
11
473.825002
21
-61.917997
31
0
12
473.824998
22
-61.082003
32
0
13
477
23
-61.5
33
0
39
0
210
0
220
0
230
1
0
ENDBLK
5
230
100
AcDbEntity
8
0
100
AcDbBlockEnd
0
BLOCK
5
239
100
AcDbEntity
8
0
100
AcDbBlockBegin
2
DimnDraft3D3
70
0
10
0
20
0
30
0
3
DimnDraft3D3
0
MTEXT
5
233
100
AcDbEntity
8
SK2
62
256
6
ByLayer
370
18
48
1
60
0
100
AcDbMText
10
243.951831
20
-75.749886
30
0
210
0
220
0
230
1
1
\W0.7564;496.0
40
3
41
0
44
1.084337
50
0
71
7
72
5
7
iso_b_vert
0
LINE
5
234
100
AcDbEntity
8
SK2
62
256
6
ByLayer
370
18
48
1
60
0
100
AcDbLine
10
0
20
-41.7
30
0
11
0
21
-78.5
31
0
39
0
210
0
220
0
230
1
0
LINE
5
235
100
AcDbEntity
8
SK2
62
256
6
ByLayer
370
18
48
1
60
0
100
AcDbLine
10
496
20
-36.62
30
0
11
496
21
-78.5
31
0
39
0
210
0
220
0
230
1
0
LINE
5
236
100
AcDbEntity
8
SK2
62
256
6
ByLayer
370
18
48
1
60
0
100
AcDbLine
10
0
20
-76.5
30
0
11
496
21
-76.5
31
0
39
0
210
0
220
0
230
1
0
SOLID
5
237
100
AcDbEntity
8
SK2
62
256
6
ByLayer
370
18
48
1
60
0
100
AcDbTrace
10
0
20
-76.5
30
0
11
3.174998
21
-76.082003
31
0
12
3.175002
22
-76.917997
32
0
13
0
23
-76.5
33
0
39
0
210
0
220
0
230
1
0
SOLID
5
238
100
AcDbEntity
8
SK2
62
256
6
ByLayer
370
18
48
1
60
0
100
AcDbTrace
10
496
20
-76.5
30
0
11
492.825002
21
-76.917997
31
0
12
492.824998
22
-76.082003
32
0
13
496
23
-76.5
33
0
39
0
210
0
220
0
230
1
0
ENDBLK
5
23A
100
AcDbEntity
8
0
100
AcDbBlockEnd
0
BLOCK
5
243
100
AcDbEntity
8
0
100
AcDbBlockBegin
2
DimnDraft3D4
70
0
10
0
20
0
30
0
3
DimnDraft3D4
0
MTEXT
5
23D
100
AcDbEntity
8
SK2
62
256
6
ByLayer
370
18
48
1
60
0
100
AcDbMText
10
219.793888
20
-90.749886
30
0
210
0
220
0
230
1
1
\W0.7824;544.0
40
3
41
0
44
1.084337
50
0
71
7
72
5
7
iso_b_vert
0
LINE
5
23E
100
AcDbEntity
8
SK2
62
256
6
ByLayer
370
18
48
1
60
0
100
AcDbLine
10
-48
20
-26.575089
30
0
11
-48
21
-93.5
31
0
39
0
210
0
220
0
230
1
0
LINE
5
23F
100
AcDbEntity
8
SK2
62
256
6
ByLayer
370
18
48
1
60
0
100
AcDbLine
10
496
20
-36.62
30
0
11
496
21
-93.5
31
0
39
0
210
0
220
0
230
1
0
LINE
5
240
100
AcDbEntity
8
SK2
62
256
6
ByLayer
370
18
48
1
60
0
100
AcDbLine
10
-48
20
-91.5
30
0
11
496
21
-91.5
31
0
39
0
210
0
220
0
230
1
0
SOLID
5
241
100
AcDbEntity
8
SK2
62
256
6
ByLayer
370
18
48
1
60
0
100
AcDbTrace
10
-48
20
-91.5
30
0
11
-44.825002
21
-91.082003
31
0
12
-44.824998
22
-91.917997
32
0
13
-48
23
-91.5
33
0
39
0
210
0
220
0
230
1
0
SOLID
5
242
100
AcDbEntity
8
SK2
62
256
6
ByLayer
370
18
48
1
60
0
100
AcDbTrace
10
496
20
-91.5
30
0
11
492.825002
21
-91.917997
31
0
12
492.824998
22
-91.082003
32
0
13
496
23
-91.5
33
0
39
0
210
0
220
0
230
1
0
ENDBLK
5
244
100
AcDbEntity
8
0
100
AcDbBlockEnd
0
BLOCK
5
24D
100
AcDbEntity
8
0
100
AcDbBlockBegin
2
DimnDraft3D5
70
0
10
0
20
0
30
0
3
DimnDraft3D5
0
MTEXT
5
247
100
AcDbEntity
8
2
62
256
6
ByLayer
370
18
48
1
60
0
100
AcDbMText
10
246.109774
20
74.250114
30
0
210
0
220
0
230
1
1
\W0.7305;500.0
40
3
41
0
44
1.084337
50
0
71
7
72
5
7
iso_b_vert
0
LINE
5
248
100
AcDbEntity
8
2
62
256
6
ByLayer
370
18
48
1
60
0
100
AcDbLine
10
0
20
41.7
30
0
11
0
21
75.5
31
0
39
0
210
0
220
0
230
1
0
LINE
5
249
100
AcDbEntity
8
2
62
256
6
ByLayer
370
18
48
1
60
0
100
AcDbLine
10
500
20
50.25
30
0
11
500
21
75.5
31
0
39
0
210
0
220
0
230
1
0
LINE
5
24A
100
AcDbEntity
8
2
62
256
6
ByLayer
370
18
48
1
60
0
100
AcDbLine
10
0
20
73.5
30
0
11
500
21
73.5
31
0
39
0
210
0
220
0
230
1
0
SOLID
5
24B
100
AcDbEntity
8
2
62
256
6
ByLayer
370
18
48
1
60
0
100
AcDbTrace
10
0
20
73.5
30
0
11
3.174998
21
73.917997
31
0
12
3.175002
22
73.082003
32
0
13
0
23
73.5
33
0
39
0
210
0
220
0
230
1
0
SOLID
5
24C
100
AcDbEntity
8
2
62
256
6
ByLayer
370
18
48
1
60
0
100
AcDbTrace
10
500
20
73.5
30
0
11
496.825002
21
73.082003
31
0
12
496.824998
22
73.917997
32
0
13
500
23
73.5
33
0
39
0
210
0
220
0
230
1
0
ENDBLK
5
24E
100
AcDbEntity
8
0
100
AcDbBlockEnd
0
BLOCK
5
257
100
AcDbEntity
8
0
100
AcDbBlockBegin
2
DimnDraft3D6
70
0
10
0
20
0
30
0
3
DimnDraft3D6
0
MTEXT
5
251
100
AcDbEntity
8
2
62
256
6
ByLayer
370
18
48
1
60
0
100
AcDbMText
10
512.046354
20
30.431085
30
0
210
0
220
0
230
1
1
\W0.6673;92.0%%d
40
3
41
0
44
1.084337
50
43.9999999999997
71
7
72
5
7
iso_b_vert
0
LINE
5
252
100
AcDbEntity
8
2
62
256
6
ByLayer
370
13
48
1
60
0
100
AcDbLine
10
499.594104
20
36.222735
30
0
11
499.179091
21
24.338304
31
0
39
0
210
0
220
0
230
1
0
LINE
5
253
100
AcDbEntity
8
2
62
256
6
ByLayer
370
13
48
1
60
0
100
AcDbLine
10
502
20
48.25
30
0
11
523.940377
21
48.25
31
0
39
0
210
0
220
0
230
1
0
ARC
5
254
100
AcDbEntity
8
2
62
256
6
ByLayer
370
13
48
1
60
0
100
AcDbCircle
39
0
10
500.014106
20
48.25
30
0
40
21.9262715374933
210
0
220
0
230
1
100
AcDbArc
50
268
51
0
0
SOLID
5
255
100
AcDbEntity
8
2
62
256
6
ByLayer
370
13
48
1
60
0
100
AcDbTrace
10
499.24889
20
26.337085
30
0
11
502.423371
21
26.758991
31
0
12
502.424403
22
25.922998
32
0
13
499.24889
23
26.337085
33
0
39
0
210
0
220
0
230
1
0
SOLID
5
256
100
AcDbEntity
8
2
62
256
6
ByLayer
370
13
48
1
60
0
100
AcDbTrace
10
521.940377
20
48.25
30
0
11
522.243388
21
45.061972
31
0
12
521.407941
22
45.092174
32
0
13
521.940377
23
48.25
33
0
39
0
210
0
220
0
230
1
0
ENDBLK
5
258
100
AcDbEntity
8
0
100
AcDbBlockEnd
0
ENDSEC
0
SECTION
2
ENTITIES
0
ARC
5
12E
100
AcDbEntity
8
1
62
256
6
ByLayer
370
18
48
1
60
0
100
AcDbCircle
39
0
10
-492.271646
20
44.215706
30
0
40
1.24999999999744
210
0
220
0
230
-1
100
AcDbArc
50
54
51
120.747656
0
ARC
5
12F
100
AcDbEntity
8
1
62
256
6
ByLayer
370
18
48
1
60
0
100
AcDbCircle
39
0
10
-492.252464
20
44.109774
30
0
40
1.25
210
0
220
0
230
-1
100
AcDbArc
50
32
51
122
0
ARC
5
130
100
AcDbEntity
8
1
62
256
6
ByLayer
370
18
48
1
60
0
100
AcDbCircle
39
0
10
-492.146481
20
43.940164
30
0
40
1.25
210
0
220
0
230
-1
100
AcDbArc
50
20.769869
51
32
0
ARC
5
131
100
AcDbEntity
8
1
62
256
6
ByLayer
370
18
48
1
60
0
100
AcDbCircle
39
0
10
491.061961
20
43.336819
30
0
40
1.05000000000009
210
0
220
0
230
1
100
AcDbArc
50
94.602037
51
307.073559
0
ARC
5
132
100
AcDbEntity
8
1
62
256
6
ByLayer
370
18
48
1
60
0
100
AcDbCircle
39
0
10
-491.061961
20
43.336819
30
0
40
1.05000000000009
210
0
220
0
230
-1
100
AcDbArc
50
85.397963
51
131.088346
0
ARC
5
134
100
AcDbEntity
8
1
62
256
6
ByLayer
370
18
48
1
60
0
100
AcDbCircle
39
0
10
-477
20
14.5
30
0
40
2
210
0
220
0
230
-1
100
AcDbArc
50
57.840147
51
117.840147
0
ARC
5
135
100
AcDbEntity
8
1
62
256
6
ByLayer
370
18
48
1
60
0
100
AcDbCircle
39
0
10
-477
20
14.5
30
0
40
2
210
0
220
0
230
-1
100
AcDbArc
50
117.840147
51
177.840147
0
ARC
5
136
100
AcDbEntity
8
1
62
256
6
ByLayer
370
18
48
1
60
0
100
AcDbCircle
39
0
10
-477
20
14.5
30
0
40
2
210
0
220
0
230
-1
100
AcDbArc
50
177.840147
51
237.840147
0
ARC
5
137
100
AcDbEntity
8
1
62
256
6
ByLayer
370
18
48
1
60
0
100
AcDbCircle
39
0
10
-477
20
14.5
30
0
40
2
210
0
220
0
230
-1
100
AcDbArc
50
357.840147
51
57.840147
0
ARC
5
138
100
AcDbEntity
8
1
62
256
6
ByLayer
370
18
48
1
60
0
100
AcDbCircle
39
0
10
-477
20
14.5
30
0
40
2
210
0
220
0
230
-1
100
AcDbArc
50
237.840147
51
297.840147
0
ARC
5
139
100
AcDbEntity
8
1
62
256
6
ByLayer
370
18
48
1
60
0
100
AcDbCircle
39
0
10
-477
20
14.5
30
0
40
2
210
0
220
0
230
-1
100
AcDbArc
50
297.840147
51
357.840147
0
ARC
5
13A
100
AcDbEntity
8
1
62
256
6
ByLayer
370
18
48
1
60
0
100
AcDbCircle
39
0
10
-496.658769
20
43.141245
30
0
40
1.035
210
0
220
0
230
-1
100
AcDbArc
50
181.950841
51
242.049159
0
ARC
5
13B
100
AcDbEntity
8
1
62
256
6
ByLayer
370
18
48
1
60
0
100
AcDbCircle
39
0
10
496.658769
20
43.141245
30
0
40
0.747999999999999
210
0
220
0
230
1
100
AcDbArc
50
325.838153
51
330.161847
0
ARC
5
13C
100
AcDbEntity
8
1
62
256
6
ByLayer
370
18
48
1
60
0
100
AcDbCircle
39
0
10
496.658769
20
43.141245
30
0
40
0.747999999999999
210
0
220
0
230
1
100
AcDbArc
50
145.838153
51
150.161847
0
ARC
5
13D
100
AcDbEntity
8
1
62
256
6
ByLayer
370
18
48
1
60
0
100
AcDbCircle
39
0
10
-496.658769
20
43.141245
30
0
40
1.035
210
0
220
0
230
-1
100
AcDbArc
50
1.950841
51
62.049159
0
ARC
5
13E
100
AcDbEntity
8
1
62
256
6
ByLayer
370
18
48
1
60
0
100
AcDbCircle
39
0
10
-496.658769
20
43.141245
30
0
40
1.035
210
0
220
0
230
-1
100
AcDbArc
50
62.049159
51
122
0
ARC
5
140
100
AcDbEntity
8
1
62
256
6
ByLayer
370
18
48
1
60
0
100
AcDbCircle
39
0
10
-496.658769
20
43.141245
30
0
40
1.035
210
0
220
0
230
-1
100
AcDbArc
50
122
51
181.950841
0
ARC
5
141
100
AcDbEntity
8
1
62
256
6
ByLayer
370
18
48
1
60
0
100
AcDbCircle
39
0
10
-496.658769
20
43.141245
30
0
40
1.035
210
0
220
0
230
-1
100
AcDbArc
50
302
51
1.950841
0
ARC
5
142
100
AcDbEntity
8
1
62
256
6
ByLayer
370
18
48
1
60
0
100
AcDbCircle
39
0
10
-496.658769
20
43.141245
30
0
40
1.035
210
0
220
0
230
-1
100
AcDbArc
50
242.049159
51
302
0
ARC
5
144
100
AcDbEntity
8
1
62
256
6
ByLayer
370
18
48
1
60
0
100
AcDbCircle
39
0
10
496.658769
20
43.141245
30
0
40
0.747999999999999
210
0
220
0
230
1
100
AcDbArc
50
330.161847
51
28.024579
0
ARC
5
145
100
AcDbEntity
8
1
62
256
6
ByLayer
370
18
48
1
60
0
100
AcDbCircle
39
0
10
496.658769
20
43.141245
30
0
40
0.747999999999999
210
0
220
0
230
1
100
AcDbArc
50
87.975421
51
145.838153
0
ARC
5
146
100
AcDbEntity
8
1
62
256
6
ByLayer
370
18
48
1
60
0
100
AcDbCircle
39
0
10
496.658769
20
43.141245
30
0
40
0.747999999999999
210
0
220
0
230
1
100
AcDbArc
50
28.024579
51
87.975421
0
ARC
5
147
100
AcDbEntity
8
1
62
256
6
ByLayer
370
18
48
1
60
0
100
AcDbCircle
39
0
10
496.658769
20
43.141245
30
0
40
0.747999999999999
210
0
220
0
230
1
100
AcDbArc
50
267.975421
51
325.838153
0
ARC
5
148
100
AcDbEntity
8
1
62
256
6
ByLayer
370
18
48
1
60
0
100
AcDbCircle
39
0
10
496.658769
20
43.141245
30
0
40
0.747999999999999
210
0
220
0
230
1
100
AcDbArc
50
208.024579
51
267.975421
0
ARC
5
149
100
AcDbEntity
8
1
62
256
6
ByLayer
370
18
48
1
60
0
100
AcDbCircle
39
0
10
496.658769
20
43.141245
30
0
40
0.747999999999999
210
0
220
0
230
1
100
AcDbArc
50
150.161847
51
208.024579
0
ARC
5
14A
100
AcDbEntity
8
1
62
256
6
ByLayer
370
18
48
1
60
0
100
AcDbCircle
39
0
10
456.7
20
-39.7
30
0
40
0.3
210
0
220
0
230
1
100
AcDbArc
50
270
51
0
0
ARC
5
14B
100
AcDbEntity
8
1
62
256
6
ByLayer
370
18
48
1
60
0
100
AcDbCircle
39
0
10
456.7
20
39.7
30
0
40
0.3
210
0
220
0
230
1
100
AcDbArc
50
0
51
90
0
ARC
5
14E
100
AcDbEntity
8
1
62
256
6
ByLayer
370
18
48
1
60
0
100
AcDbCircle
39
0
10
-491.105903
20
43.335155
30
0
40
0.396875
210
0
220
0
230
-1
100
AcDbArc
50
302
51
62
0
ARC
5
14F
100
AcDbEntity
8
1
62
256
6
ByLayer
370
18
48
1
60
0
100
AcDbCircle
39
0
10
-499.603132
20
47.853212
30
0
40
0.396875
210
0
220
0
230
-1
100
AcDbArc
50
62
51
182
0
ARC
5
150
100
AcDbEntity
8
1
62
256
6
ByLayer
370
18
48
1
60
0
100
AcDbCircle
39
0
10
-499.26727
20
38.235367
30
0
40
0.396875
210
0
220
0
230
-1
100
AcDbArc
50
182
51
302
0
CIRCLE
5
133
100
AcDbEntity
8
1
62
256
6
ByLayer
370
18
48
1
60
0
100
AcDbCircle
10
477
20
14.5
30
0
40
3.5
39
0
210
0
220
0
230
1
0
CIRCLE
5
13F
100
AcDbEntity
8
1
62
256
6
ByLayer
370
18
48
1
60
0
100
AcDbCircle
10
-496.658769
20
43.141245
30
0
40
1.3
39
0
210
0
220
0
230
-1
0
CIRCLE
5
143
100
AcDbEntity
8
1
62
256
6
ByLayer
370
18
48
1
60
0
100
AcDbCircle
10
-496.658769
20
43.141245
30
0
40
1.725
39
0
210
0
220
0
230
-1
0
CIRCLE
5
14C
100
AcDbEntity
8
1
62
256
6
ByLayer
370
18
48
1
60
0
100
AcDbCircle
10
487.75
20
14.5
30
0
40
4
39
0
210
0
220
0
230
1
0
CIRCLE
5
14D
100
AcDbEntity
8
1
62
256
6
ByLayer
370
18
48
1
60
0
100
AcDbCircle
10
-496.658769
20
43.141245
30
0
40
1.90468944117779
39
0
210
0
220
0
230
-1
0
CIRCLE
5
151
100
AcDbEntity
8
1
62
256
6
ByLayer
370
13
48
1
60
0
100
AcDbCircle
10
-496.658769
20
43.141245
30
0
40
1.88122167929295
39
0
210
0
220
0
230
-1
0
CIRCLE
5
152
100
AcDbEntity
8
1
62
256
6
ByLayer
370
13
48
1
60
0
100
AcDbCircle
10
496.658769
20
43.141245
30
0
40
1.8014146404184
39
0
210
0
220
0
230
1
0
CIRCLE
5
153
100
AcDbEntity
8
1
62
256
6
ByLayer
370
18
48
1
60
0
100
AcDbCircle
10
477
20
14.5
30
0
40
4.25
39
0
210
0
220
0
230
1
0
CIRCLE
5
154
100
AcDbEntity
8
1
62
256
6
ByLayer
370
18
48
1
60
0
100
AcDbCircle
10
487.75
20
14.5
30
0
40
4.009
39
0
210
0
220
0
230
1
0
CIRCLE
5
155
100
AcDbEntity
8
1
62
256
6
ByLayer
370
18
48
1
60
0
100
AcDbCircle
10
477
20
14.5
30
0
40
4
39
0
210
0
220
0
230
1
0
ELLIPSE
5
156
100
AcDbEntity
8
1
62
256
6
ByLayer
370
18
48
1
60
0
100
AcDbEllipse
10
498.642586
20
22.466744
30
0
11
43.3314904098
21
4.03307347742371
31
0
210
0
220
0
230
-1
40
0.573509
41
-1.59737149786093
42
-1.57369852081069
0
ELLIPSE
5
157
100
AcDbEntity
8
1
62
256
6
ByLayer
370
18
48
1
60
0
100
AcDbEllipse
10
522.860236
20
23.735818
30
0
11
285.748912493262
21
15.0909627834891
31
0
210
0
220
0
230
-1
40
0.087367
41
-1.67642065259178
42
-1.66320606071274
0
ELLIPSE
5
158
100
AcDbEntity
8
1
62
256
6
ByLayer
370
18
48
1
60
0
100
AcDbEllipse
10
-6.763884
20
0
30
0
11
18.7348357595675
21
39.4834983055047
31
0
210
0
220
0
230
-1
40
0.341999
41
0.161099005228949
42
1.0879467671692
0
ELLIPSE
5
159
100
AcDbEntity
8
1
62
256
6
ByLayer
370
18
48
1
60
0
100
AcDbEllipse
10
30.763884
20
0
30
0
11
18.7348357595585
21
-39.4834983054934
31
0
210
0
220
0
230
-1
40
0.341999
41
2.05364588642038
42
2.98049364836081
0
ELLIPSE
5
15A
100
AcDbEntity
8
1
62
256
6
ByLayer
370
18
48
1
60
0
100
AcDbEllipse
10
-6.763884
20
0
30
0
11
18.7348357595801
21
-39.4834983055206
31
0
210
0
220
0
230
-1
40
0.341999
41
-1.08794676716889
42
-0.161099005228907
0
ELLIPSE
5
15B
100
AcDbEntity
8
1
62
256
6
ByLayer
370
18
48
1
60
0
100
AcDbEllipse
10
30.763884
20
0
30
0
11
18.7348357595605
21
39.4834983054959
31
0
210
0
220
0
230
-1
40
0.341999
41
-2.98049364836082
42
-2.05364588642043
0
ELLIPSE
5
15C
100
AcDbEntity
8
1
62
256
6
ByLayer
370
18
48
1
60
0
100
AcDbEllipse
10
476.371315
20
0
30
0
11
-2.44921270764474E-15
21
39.9999999999998
31
0
210
0
220
0
230
-1
40
0.36397
41
-2.40239257587871
42
-0.739200077711081
0
ELLIPSE
5
15D
100
AcDbEntity
8
1
62
256
6
ByLayer
370
18
48
1
60
0
100
AcDbEllipse
10
286.18156
20
0.372489
30
0
11
393.329875659375
21
12.3480550363233
31
0
210
0
220
0
230
-1
40
0.095733
41
-1.10410230069791
42
-1.10256222730665
0
ELLIPSE
5
15E
100
AcDbEntity
8
1
62
256
6
ByLayer
370
18
48
1
60
0
100
AcDbEllipse
10
254.635178
20
0.174721
30
0
11
394.432566524138
21
12.4506656621345
31
0
210
0
220
0
230
-1
40
0.095907
41
-1.01323128231383
42
-1.0110728684235
0
POINT
5
6C
100
AcDbEntity
8
80
62
256
6
ByLayer
370
18
48
0.05
60
0
100
AcDbPoint
10
0
20
0
30
0
39
0
210
0
220
0
230
1
50
360
0
POINT
5
6E
100
AcDbEntity
8
81
62
256
6
ByLayer
370
18
48
0.05
60
0
100
AcDbPoint
10
500
20
48.25
30
0
39
0
210
0
220
0
230
1
50
360
0
SPLINE
5
15F
100
AcDbEntity
8
1
62
256
6
ByLayer
370
18
48
1
60
0
100
AcDbSpline
70
4
71
3
72
8
73
4
40
0
40
0
40
0
40
0
40
1
40
1
40
1
40
1
41
1
10
468.824084969099
20
45.9241714197241
30
0
41
1
10
468.824131552538
20
45.9241742882029
30
0
41
1
10
468.837372422172
20
45.9249896241774
30
0
41
1
10
468.863968426504
20
45.9266273322515
30
0
0
SPLINE
5
160
100
AcDbEntity
8
1
62
256
6
ByLayer
370
18
48
1
60
0
100
AcDbSpline
70
4
71
3
72
12
73
8
40
0
40
0
40
0
40
0
40
0.500000000000003
40
0.500000000000003
40
0.750000000000001
40
0.750000000000001
40
1
40
1
40
1
40
1
41
1
10
468.863968426504
20
45.9266273322515
30
0
41
1
10
469.020933621687
20
45.8478546975292
30
0
41
1
10
469.942977672377
20
45.352740425477
30
0
41
1
10
472.230527433695
20
44.4250106067439
30
0
41
1
10
473.157482320183
20
44.0794414144353
30
0
41
1
10
475.384260156421
20
43.5626714824089
30
0
41
1
10
476.734051673799
20
43.4230950751726
30
0
41
1
10
478.06
20
43.5690810094315
30
0
0
SPLINE
5
161
100
AcDbEntity
8
1
62
256
6
ByLayer
370
18
48
1
60
0
100
AcDbSpline
70
4
71
3
72
59
73
55
40
0
40
0
40
0
40
0
40
1.47222629249E-05
40
1.47222629249E-05
40
0.0625138021215246
40
0.0625138021215246
40
0.125012881980124
40
0.125012881980124
40
0.187511961838724
40
0.187511961838724
40
0.195324346821047
40
0.195324346821047
40
0.20313673180337
40
0.218761501768017
40
0.250011041697307
40
0.250011041697307
40
0.312510121555891
40
0.312510121555891
40
0.375009201414475
40
0.375009201414475
40
0.390633971379118
40
0.390633971379118
40
0.398446356361438
40
0.398446356361438
40
0.406258741343757
40
0.437508281273024
40
0.437508281273024
40
0.500007361131564
40
0.562506440990104
40
0.562506440990104
40
0.593755980919374
40
0.593755980919374
40
0.601568365901686
40
0.601568365901686
40
0.609380750883998
40
0.625005520848629
40
0.625005520848629
40
0.687504600707161
40
0.687504600707161
40
0.750003680565693
40
0.750003680565693
40
0.781253220494958
40
0.781253220494958
40
0.796877990459595
40
0.796877990459595
40
0.804690375441914
40
0.804690375441914
40
0.812502760424232
40
0.812502760424232
40
0.875001840282821
40
0.875001840282821
40
0.937500920141411
40
0.937500920141411
40
1
40
1
40
1
40
1
41
1
10
465.249999513811
20
42.3499999624166
30
0
41
1
10
465.250000510504
20
42.35000004489
30
0
41
1
10
465.250001507198
20
42.3500001273643
30
0
41
1
10
465.250128247775
20
42.350010614875
30
0
41
1
10
465.271686506562
20
42.3517941613832
30
0
41
1
10
465.356301399104
20
42.3587987582327
30
0
41
1
10
465.419361664562
20
42.3640201052623
30
0
41
1
10
465.586998566107
20
42.3779144410887
30
0
41
1
10
465.691571451943
20
42.3865870653591
30
0
41
1
10
465.833344304892
20
42.3983617149793
30
0
41
1
10
465.849443483943
20
42.3996990002004
30
0
41
1
10
465.882266476298
20
42.4024259021666
30
0
41
1
10
465.932403714333
20
42.406591910504
30
0
41
1
10
466.055669352519
20
42.4168393369773
30
0
41
1
10
466.171962154519
20
42.4265170901425
30
0
41
1
10
466.418501799904
20
42.4470513444209
30
0
41
1
10
466.601430237293
20
42.4623092211492
30
0
41
1
10
467.004133429428
20
42.4959714013207
30
0
41
1
10
467.223906530855
20
42.5143754784571
30
0
41
1
10
467.522219883089
20
42.5394208186866
30
0
41
1
10
467.583065459304
20
42.5445321784187
30
0
41
1
10
467.676128355462
20
42.5523549138174
30
0
41
1
10
467.707472050574
20
42.5549904308436
30
0
41
1
10
467.770618139006
20
42.5603017285699
30
0
41
1
10
467.929633213601
20
42.5736808876538
30
0
41
1
10
468.09435415065
20
42.5875619068975
30
0
41
1
10
468.500420367983
20
42.6218290553678
30
0
41
1
10
469.070414775089
20
42.6700541308805
30
0
41
1
10
469.696659562329
20
42.7233620320433
30
0
41
1
10
470.187785424155
20
42.7653160425054
30
0
41
1
10
470.355074830439
20
42.7796302147696
30
0
41
1
10
470.568755309666
20
42.797947092073
30
0
41
1
10
470.611749607112
20
42.8016342322263
30
0
41
1
10
470.697975798168
20
42.8090322271863
30
0
41
1
10
470.827716067203
20
42.8201686066614
30
0
41
1
10
470.958651440431
20
42.8314227926323
30
0
41
1
10
471.397729232796
20
42.8691974552719
30
0
41
1
10
471.757374858446
20
42.9002495138544
30
0
41
1
10
472.493041824586
20
42.9640224658019
30
0
41
1
10
472.869063815323
20
42.9967433475982
30
0
41
1
10
473.44548511093
20
43.0471162212719
30
0
41
1
10
473.639694325336
20
43.0641228193081
30
0
41
1
10
473.934162747873
20
43.0899648255837
30
0
41
1
10
474.032844930502
20
43.0986342058453
30
0
41
1
10
474.181666277821
20
43.1117226766036
30
0
41
1
10
474.231439952728
20
43.116102522592
30
0
41
1
10
474.331002311797
20
43.1248683328709
30
0
41
1
10
474.380808239398
20
43.1292558102625
30
0
41
1
10
474.82928294922
20
43.1687842713314
30
0
41
1
10
475.229496883888
20
43.2042129996733
30
0
41
1
10
476.032969847509
20
43.2756624032012
30
0
41
1
10
476.436229104104
20
43.3116830835757
30
0
41
1
10
477.24579929137
20
43.384333354098
30
0
41
1
10
477.652109909284
20
43.420962899311
30
0
41
1
10
478.06
20
43.457910445649
30
0
0
SPLINE
5
162
100
AcDbEntity
8
1
62
256
6
ByLayer
370
18
48
1
60
0
100
AcDbSpline
70
4
71
3
72
8
73
4
40
0
40
0
40
0
40
0
40
1
40
1
40
1
40
1
41
1
10
491.423183662897
20
46.9707318804435
30
0
41
1
10
489.727945381584
20
46.8654492544893
30
0
41
1
10
488.191592201353
20
46.6856722639502
30
0
41
1
10
487.423451219431
20
46.316885054644
30
0
0
SPLINE
5
163
100
AcDbEntity
8
1
62
256
6
ByLayer
370
18
48
1
60
0
100
AcDbSpline
70
4
71
3
72
10
73
6
40
0
40
0
40
0
40
0
40
0.5
40
0.5
40
1
40
1
40
1
40
1
41
1
10
478.06
20
43.5104713792904
30
0
41
1
10
480.061928546068
20
43.7115742455677
30
0
41
1
10
481.977472013298
20
44.1931366181843
30
0
41
1
10
485.184709556353
20
45.2790988525002
30
0
41
1
10
486.506394422734
20
45.8766028345975
30
0
41
1
10
487.423451219431
20
46.316885054644
30
0
0
SPLINE
5
164
100
AcDbEntity
8
1
62
256
6
ByLayer
370
18
48
1
60
0
100
AcDbSpline
70
4
71
3
72
105
73
101
40
0
40
0
40
0
40
0
40
0.0078084920731609
40
0.0078084920731609
40
0.0156169841463218
40
0.0156169841463218
40
0.0312339682926435
40
0.0312339682926435
40
0.0624679365852854
40
0.0624679365852854
40
0.0937019048779273
40
0.0937019048779273
40
0.10151039695109
40
0.10151039695109
40
0.109318889024252
40
0.124935873170576
40
0.124935873170576
40
0.156169841463228
40
0.156169841463228
40
0.18740380975588
40
0.18740380975588
40
0.195212301829044
40
0.195212301829044
40
0.203020793902207
40
0.218637778048529
40
0.218637778048529
40
0.249871746341178
40
0.249871746341178
40
0.281105714633827
40
0.281105714633827
40
0.288914206706989
40
0.288914206706989
40
0.296722698780151
40
0.296722698780151
40
0.312339682926475
40
0.312339682926475
40
0.343573651219123
40
0.343573651219123
40
0.374807619511771
40
0.406041587804418
40
0.406041587804418
40
0.41385007987758
40
0.41385007987758
40
0.421658571950742
40
0.437275556097066
40
0.437275556097066
40
0.468509524389707
40
0.499743492682348
40
0.499743492682348
40
0.530977460974989
40
0.530977460974989
40
0.538785953048146
40
0.538785953048146
40
0.546594445121303
40
0.562211429267617
40
0.562211429267617
40
0.593445397560252
40
0.593445397560252
40
0.624679365852886
40
0.624679365852886
40
0.655913334145521
40
0.655913334145521
40
0.66372182621868
40
0.66372182621868
40
0.671530318291838
40
0.687147302438156
40
0.687147302438156
40
0.718381270730785
40
0.718381270730785
40
0.749615239023414
40
0.749615239023414
40
0.780849207316043
40
0.780849207316043
40
0.788657699389201
40
0.788657699389201
40
0.796466191462359
40
0.796466191462359
40
0.812083175608671
40
0.812083175608671
40
0.843317143901292
40
0.843317143901292
40
0.874551112193913
40
0.874551112193913
40
0.890168096340222
40
0.890168096340222
40
0.905785080486531
40
0.905785080486531
40
0.937019048779149
40
0.937019048779149
40
0.968253017071767
40
0.968253017071767
40
0.983870001218076
40
0.983870001218076
40
0.987774247254653
40
0.987774247254653
40
0.991678493291231
40
0.991678493291231
40
0.999486985364386
40
0.999486985364386
40
1
40
1
40
1
40
1
41
1
10
468.863968426504
20
45.9266273322515
30
0
41
1
10
468.872147526341
20
45.9249314598885
30
0
41
1
10
468.881284303497
20
45.9230396974772
30
0
41
1
10
468.901493212986
20
45.918864551966
30
0
41
1
10
468.912572860374
20
45.9165796459703
30
0
41
1
10
468.948477150263
20
45.9091941374192
30
0
41
1
10
468.976029867889
20
45.9035494242452
30
0
41
1
10
469.069204751134
20
45.8845925106179
30
0
41
1
10
469.145315646586
20
45.8692578758047
30
0
41
1
10
469.324494285049
20
45.8339201127459
30
0
41
1
10
469.427564701934
20
45.813915528238
30
0
41
1
10
469.57315449756
20
45.7864470685554
30
0
41
1
10
469.603153552772
20
45.7808226613778
30
0
41
1
10
469.664525501281
20
45.7693972355462
30
0
41
1
10
469.758700551515
20
45.7519833247746
30
0
41
1
10
469.859096507857
20
45.7338166724876
30
0
41
1
10
470.067912583399
20
45.6966709561541
30
0
41
1
10
470.217800709092
20
45.6708246350943
30
0
41
1
10
470.538068948441
20
45.6179484184551
30
0
41
1
10
470.708451774773
20
45.5909166889988
30
0
41
1
10
470.934115245305
20
45.5569974918521
30
0
41
1
10
470.979877655231
20
45.5502084586939
30
0
41
1
10
471.072222028912
20
45.5366985453577
30
0
41
1
10
471.212131482113
20
45.5165111555686
30
0
41
1
10
471.35614538331
20
45.4966215770051
30
0
41
1
10
471.649493895606
20
45.4574089535367
30
0
41
1
10
471.852140932145
20
45.4320229000577
30
0
41
1
10
472.271134070997
20
45.3836431316016
30
0
41
1
10
472.487481778043
20
45.3606481508361
30
0
41
1
10
472.766439156632
20
45.3339513871719
30
0
41
1
10
472.822657688451
20
45.3287144447758
30
0
41
1
10
472.935951492565
20
45.3184595368934
30
0
41
1
10
472.993071567111
20
45.3134380326875
30
0
41
1
10
473.164978867888
20
45.2987852537023
30
0
41
1
10
473.280518802608
20
45.2895462004676
30
0
41
1
10
473.629871073771
20
45.2635253752608
30
0
41
1
10
473.866410100424
20
45.2484405446531
30
0
41
1
10
474.3465296085
20
45.2233504405637
30
0
41
1
10
474.833692076595
20
45.2033393516231
30
0
41
1
10
475.33482760804
20
45.1945661920169
30
0
41
1
10
475.652471361221
20
45.1929334117902
30
0
41
1
10
475.716190603972
20
45.1928000825206
30
0
41
1
10
475.843504896545
20
45.1929236874179
30
0
41
1
10
476.03449663837
20
45.1936931253149
30
0
41
1
10
476.225547440689
20
45.1962173429779
30
0
41
1
10
476.607724068
20
45.2036105618943
30
0
41
1
10
477.117492203398
20
45.2197224043469
30
0
41
1
10
477.627638369072
20
45.2483617181175
30
0
41
1
10
478.137975060677
20
45.2832524518517
30
0
41
1
10
478.393238641208
20
45.3038234619597
30
0
41
1
10
478.712445609823
20
45.3334239855635
30
0
41
1
10
478.776176046489
20
45.3395277782926
30
0
41
1
10
478.903135551864
20
45.3520684730757
30
0
41
1
10
479.092954528513
20
45.3713913583611
30
0
41
1
10
479.28093261505
20
45.3922138456809
30
0
41
1
10
479.654474241264
20
45.4357633210022
30
0
41
1
10
479.900287005077
20
45.4673357208887
30
0
41
1
10
480.385586878557
20
45.5350550758198
30
0
41
1
10
480.625074217922
20
45.5712024726118
30
0
41
1
10
481.09768347409
20
45.6475605523566
30
0
41
1
10
481.33080628037
20
45.6877718011812
30
0
41
1
10
481.618106740455
20
45.7402417944495
30
0
41
1
10
481.675422246084
20
45.7508576603539
30
0
41
1
10
481.789158152457
20
45.7722103859852
30
0
41
1
10
481.958529936386
20
45.8044402325116
30
0
41
1
10
482.124232023427
20
45.837214981663
30
0
41
1
10
482.45078194039
20
45.903339538388
30
0
41
1
10
482.662021011608
20
45.9481898898414
30
0
41
1
10
483.071509787054
20
46.0386160269219
30
0
41
1
10
483.269761167401
20
46.0841932250704
30
0
41
1
10
483.652821437957
20
46.1752315263247
30
0
41
1
10
483.837634296403
20
46.2206945732719
30
0
41
1
10
484.059673716574
20
46.2768725813543
30
0
41
1
10
484.10363142871
20
46.2880753492198
30
0
41
1
10
484.190626249094
20
46.3103993625545
30
0
41
1
10
484.233661483373
20
46.3215203964993
30
0
41
1
10
484.360646545541
20
46.3545512841777
30
0
41
1
10
484.442722250378
20
46.3761916674356
30
0
41
1
10
484.681159223378
20
46.4397965827213
30
0
41
1
10
484.829752526529
20
46.4804479840055
30
0
41
1
10
485.105451370665
20
46.5572565958791
30
0
41
1
10
485.232562795254
20
46.5934164487412
30
0
41
1
10
485.405966442713
20
46.6434482613492
30
0
41
1
10
485.460883822988
20
46.6594229523768
30
0
41
1
10
485.564665426009
20
46.6898071982817
30
0
41
1
10
485.612990156772
20
46.7040584481772
30
0
41
1
10
485.747293878954
20
46.7438770032992
30
0
41
1
10
485.822642990503
20
46.7665154451945
30
0
41
1
10
485.944620734659
20
46.8033785472199
30
0
41
1
10
485.991252853815
20
46.8176046448754
30
0
41
1
10
486.038718213301
20
46.8321154771612
30
0
41
1
10
486.050785449849
20
46.8358135076769
30
0
41
1
10
486.061015474025
20
46.8389502126824
30
0
41
1
10
486.062818597583
20
46.8395032370115
30
0
41
1
10
486.065934316901
20
46.8404589927307
30
0
41
1
10
486.067247686358
20
46.8408619615211
30
0
41
1
10
486.070434966646
20
46.8418399823733
30
0
41
1
10
486.071560747408
20
46.8421855614601
30
0
41
1
10
486.071710656772
20
46.8422315740458
30
0
41
1
10
486.071715559155
20
46.8422330764299
30
0
41
1
10
486.071716516674
20
46.8422333651425
30
0
0
SPLINE
5
165
100
AcDbEntity
8
1
62
256
6
ByLayer
370
18
48
1
60
0
100
AcDbSpline
70
4
71
3
72
63
73
59
40
0
40
0
40
0
40
0
40
0.0624999999999632
40
0.0624999999999632
40
0.0937499999999459
40
0.0937499999999459
40
0.124999999999929
40
0.124999999999929
40
0.187499999999894
40
0.187499999999894
40
0.218749999999896
40
0.218749999999896
40
0.234374999999897
40
0.234374999999897
40
0.249999999999898
40
0.249999999999898
40
0.312500000000008
40
0.312500000000008
40
0.343750000000063
40
0.343750000000063
40
0.359375000000098
40
0.359375000000098
40
0.375000000000133
40
0.375000000000133
40
0.437500000000173
40
0.437500000000173
40
0.468750000000193
40
0.468750000000193
40
0.484375000000204
40
0.484375000000204
40
0.500000000000214
40
0.500000000000214
40
0.562500000000173
40
0.562500000000173
40
0.593750000000152
40
0.593750000000152
40
0.609375000000146
40
0.609375000000146
40
0.62500000000014
40
0.62500000000014
40
0.687500000000107
40
0.687500000000107
40
0.703125000000094
40
0.703125000000094
40
0.71875000000008
40
0.71875000000008
40
0.750000000000084
40
0.750000000000084
40
0.812500000000092
40
0.812500000000092
40
0.828125000000079
40
0.828125000000079
40
0.843750000000066
40
0.87500000000006
40
0.87500000000006
40
0.93750000000003
40
0.93750000000003
40
1
40
1
40
1
40
1
41
1
10
491.393035694374
20
42.1314597636377
30
0
41
1
10
491.32184986471
20
42.1119072441218
30
0
41
1
10
491.250033889619
20
42.0989109242318
30
0
41
1
10
491.141438916356
20
42.0888181599994
30
0
41
1
10
491.105094269706
20
42.0870300740582
30
0
41
1
10
491.032111353975
20
42.0866422986685
30
0
41
1
10
490.995332605222
20
42.0880657621715
30
0
41
1
10
490.886587784804
20
42.0970461035973
30
0
41
1
10
490.815658574546
20
42.109224975674
30
0
41
1
10
490.711493682741
20
42.136418541367
30
0
41
1
10
490.67714538422
20
42.1469795358175
30
0
41
1
10
490.626183871424
20
42.1651005609838
30
0
41
1
10
490.609254316902
20
42.1715370028914
30
0
41
1
10
490.575851257304
20
42.1850713040092
30
0
41
1
10
490.55935906312
20
42.1921738569733
30
0
41
1
10
490.477919747875
20
42.2293331807801
30
0
41
1
10
490.416014639461
20
42.2642892669969
30
0
41
1
10
490.327834407491
20
42.3244825466474
30
0
41
1
10
490.299225038343
20
42.345848002414
30
0
41
1
10
490.257504230037
20
42.3799115195342
30
0
41
1
10
490.243792081568
20
42.39160929886
30
0
41
1
10
490.217018076094
20
42.4154650113661
30
0
41
1
10
490.203923516309
20
42.4276487225016
30
0
41
1
10
490.139888416135
20
42.489835201385
30
0
41
1
10
490.093225868006
20
42.5436100953542
30
0
41
1
10
490.030039613566
20
42.6304761822679
30
0
41
1
10
490.010118911273
20
42.6604716064117
30
0
41
1
10
489.982011212794
20
42.7071066200291
30
0
41
1
10
489.972923736455
20
42.7229556208804
30
0
41
1
10
489.955528930297
20
42.7548925072592
30
0
41
1
10
489.9472001965
20
42.7710131388053
30
0
41
1
10
489.907377526739
20
42.8523729456715
30
0
41
1
10
489.881302382532
20
42.9198648339851
30
0
41
1
10
489.850973084833
20
43.0248347316573
30
0
41
1
10
489.842335760826
20
43.0604500329226
30
0
41
1
10
489.831686601645
20
43.1148600902081
30
0
41
1
10
489.828518925169
20
43.1331962875132
30
0
41
1
10
489.823033131251
20
43.1697882854454
30
0
41
1
10
489.820704570318
20
43.1880893354928
30
0
41
1
10
489.811102033701
20
43.2796195083201
30
0
41
1
10
489.80990170372
20
43.3529228920517
30
0
41
1
10
489.816485370871
20
43.4446510624847
30
0
41
1
10
489.818209250915
20
43.463001675237
30
0
41
1
10
489.822482883938
20
43.4997129845463
30
0
41
1
10
489.825039396111
20
43.5181141249415
30
0
41
1
10
489.83392500255
20
43.573044809378
30
0
41
1
10
489.841422542629
20
43.6090761890105
30
0
41
1
10
489.868449995426
20
43.7154840388551
30
0
41
1
10
489.892479469498
20
43.784186127598
30
0
41
1
10
489.929981822881
20
43.8673420359917
30
0
41
1
10
489.937875761152
20
43.8838699574638
30
0
41
1
10
489.954341253322
20
43.9164834314676
30
0
41
1
10
489.979999479973
20
43.9646385359253
30
0
41
1
10
490.008468196851
20
44.0105695805537
30
0
41
1
10
490.069063222205
20
44.0995809711336
30
0
41
1
10
490.114306420368
20
44.1551437449878
30
0
41
1
10
490.2147577395
20
44.2587469819304
30
0
41
1
10
490.26898465643
20
44.3057722144673
30
0
41
1
10
490.327229796343
20
44.3480897856636
30
0
0
SPLINE
5
166
100
AcDbEntity
8
1
62
256
6
ByLayer
370
18
48
1
60
0
100
AcDbSpline
70
4
71
3
72
15
73
11
40
0
40
0
40
0
40
0
40
0.25
40
0.500000000000001
40
0.500000000000001
40
0.625000000000001
40
0.625000000000001
40
0.750000000000001
40
0.750000000000001
40
1
40
1
40
1
40
1
41
1
10
490.460603691393
20
38.250000002647
30
0
41
1
10
490.497579561906
20
38.2500000026469
30
0
41
1
10
490.570949892648
20
38.2448969168096
30
0
41
1
10
490.643158845113
20
38.2297806206774
30
0
41
1
10
490.696847181936
20
38.2145489299745
30
0
41
1
10
490.714702787885
20
38.2088064867453
30
0
41
1
10
490.750075985572
20
38.1960291053303
30
0
41
1
10
490.767503996628
20
38.1890296648131
30
0
41
1
10
490.819010824377
20
38.1662086891941
30
0
41
1
10
490.852316504039
20
38.1485733939643
30
0
41
1
10
490.88453910278
20
38.1284384795721
30
0
0
SPLINE
5
167
100
AcDbEntity
8
1
62
256
6
ByLayer
370
18
48
1
60
0
100
AcDbSpline
70
4
71
3
72
8
73
4
40
0
40
0
40
0
40
0
40
1
40
1
40
1
40
1
41
1
10
478.442837197837
20
-37.619999241881
30
0
41
1
10
478.442196656266
20
-37.6251099242011
30
0
41
1
10
478.441556114694
20
-37.6302206065043
30
0
41
1
10
478.440915573119
20
-37.6353312887908
30
0
0
SPLINE
5
168
100
AcDbEntity
8
1
62
256
6
ByLayer
370
18
48
1
60
0
100
AcDbSpline
70
4
71
3
72
8
73
4
40
0
40
0
40
0
40
0
40
1
40
1
40
1
40
1
41
1
10
477.0375
20
-37.6199992887908
30
0
41
1
10
477.0375
20
-37.6251099554742
30
0
41
1
10
477.0375
20
-37.6302206221409
30
0
41
1
10
477.0375
20
-37.6353312887908
30
0
0
SPLINE
5
169
100
AcDbEntity
8
1
62
256
6
ByLayer
370
18
48
1
60
0
100
AcDbSpline
70
4
71
3
72
8
73
4
40
0
40
0
40
0
40
0
40
1
40
1
40
1
40
1
41
1
10
476.9625
20
-37.6199992887908
30
0
41
1
10
476.9625
20
-37.6251099554742
30
0
41
1
10
476.9625
20
-37.6302206221409
30
0
41
1
10
476.9625
20
-37.6353312887908
30
0
0
SPLINE
5
16A
100
AcDbEntity
8
1
62
256
6
ByLayer
370
18
48
1
60
0
100
AcDbSpline
70
4
71
3
72
8
73
4
40
0
40
0
40
0
40
0
40
1
40
1
40
1
40
1
41
1
10
475.557162802163
20
-37.619999241881
30
0
41
1
10
475.557803343734
20
-37.6251099242011
30
0
41
1
10
475.558443885306
20
-37.6302206065043
30
0
41
1
10
475.559084426881
20
-37.6353312887908
30
0
0
SPLINE
5
16B
100
AcDbEntity
8
1
62
256
6
ByLayer
370
18
48
1
60
0
100
AcDbSpline
70
4
71
3
72
8
73
4
40
0
40
0
40
0
40
0
40
1
40
1
40
1
40
1
41
1
10
475.482754199565
20
-37.619999241881
30
0
41
1
10
475.483394741135
20
-37.6251099242011
30
0
41
1
10
475.484035282708
20
-37.6302206065043
30
0
41
1
10
475.484675824282
20
-37.6353312887908
30
0
0
SPLINE
5
16C
100
AcDbEntity
8
1
62
256
6
ByLayer
370
18
48
1
60
0
100
AcDbSpline
70
4
71
3
72
8
73
4
40
0
40
0
40
0
40
0
40
1
40
1
40
1
40
1
41
1
10
474.099580022635
20
-37.6199992973291
30
0
41
1
10
474.100850999456
20
-37.6251099611664
30
0
41
1
10
474.102121976282
20
-37.630220624987
30
0
41
1
10
474.103392953112
20
-37.6353312887908
30
0
0
SPLINE
5
16D
100
AcDbEntity
8
1
62
256
6
ByLayer
370
18
48
1
60
0
100
AcDbSpline
70
4
71
3
72
8
73
4
40
0
40
0
40
0
40
0
40
1
40
1
40
1
40
1
41
1
10
474.02693628555
20
-37.6199992973291
30
0
41
1
10
474.028207262372
20
-37.6251099611664
30
0
41
1
10
474.029478239197
20
-37.630220624987
30
0
41
1
10
474.030749216027
20
-37.6353312887908
30
0
0
SPLINE
5
16E
100
AcDbEntity
8
1
62
256
6
ByLayer
370
18
48
1
60
0
100
AcDbSpline
70
4
71
3
72
8
73
4
40
0
40
0
40
0
40
0
40
1
40
1
40
1
40
1
41
1
10
472.687738546441
20
-37.6199991740393
30
0
41
1
10
472.689619931895
20
-37.6251098789732
30
0
41
1
10
472.691501317355
20
-37.6302205838904
30
0
41
1
10
472.693382702821
20
-37.6353312887908
30
0
0
SPLINE
5
16F
100
AcDbEntity
8
1
62
256
6
ByLayer
370
18
48
1
60
0
100
AcDbSpline
70
4
71
3
72
8
73
4
40
0
40
0
40
0
40
0
40
1
40
1
40
1
40
1
41
1
10
472.618005309999
20
-37.6199991740392
30
0
41
1
10
472.619886695453
20
-37.6251098789731
30
0
41
1
10
472.621768080913
20
-37.6302205838904
30
0
41
1
10
472.623649466379
20
-37.6353312887908
30
0
0
SPLINE
5
170
100
AcDbEntity
8
1
62
256
6
ByLayer
370
18
48
1
60
0
100
AcDbSpline
70
4
71
3
72
8
73
4
40
0
40
0
40
0
40
0
40
1
40
1
40
1
40
1
41
1
10
471.343903853871
20
-37.6199987875791
30
0
41
1
10
471.346366029224
20
-37.6251096213331
30
0
41
1
10
471.348828204585
20
-37.6302204550703
30
0
41
1
10
471.351290379955
20
-37.6353312887908
30
0
0
SPLINE
5
171
100
AcDbEntity
8
1
62
256
6
ByLayer
370
18
48
1
60
0
100
AcDbSpline
70
4
71
3
72
8
73
4
40
0
40
0
40
0
40
0
40
1
40
1
40
1
40
1
41
1
10
471.278180852867
20
-37.6199987875791
30
0
41
1
10
471.280643028221
20
-37.6251096213331
30
0
41
1
10
471.283105203582
20
-37.6302204550704
30
0
41
1
10
471.285567378952
20
-37.6353312887908
30
0
0
SPLINE
5
172
100
AcDbEntity
8
1
62
256
6
ByLayer
370
18
48
1
60
0
100
AcDbSpline
70
4
71
3
72
8
73
4
40
0
40
0
40
0
40
0
40
1
40
1
40
1
40
1
41
1
10
470.089269322333
20
-37.619998793965
30
0
41
1
10
470.092273408936
20
-37.6251096255904
30
0
41
1
10
470.09527749555
20
-37.630220457199
30
0
41
1
10
470.098281582173
20
-37.6353312887908
30
0
0
SPLINE
5
173
100
AcDbEntity
8
1
62
256
6
ByLayer
370
18
48
1
60
0
100
AcDbSpline
70
4
71
3
72
8
73
4
40
0
40
0
40
0
40
0
40
1
40
1
40
1
40
1
41
1
10
470.028593047755
20
-37.6199987939649
30
0
41
1
10
470.031597134358
20
-37.6251096255903
30
0
41
1
10
470.034601220971
20
-37.630220457199
30
0
41
1
10
470.037605307594
20
-37.6353312887908
30
0
0
SPLINE
5
174
100
AcDbEntity
8
1
62
256
6
ByLayer
370
18
48
1
60
0
100
AcDbSpline
70
4
71
3
72
8
73
4
40
0
40
0
40
0
40
0
40
1
40
1
40
1
40
1
41
1
10
468.943621628875
20
-37.6199995099067
30
0
41
1
10
468.947120088147
20
-37.6251101028848
30
0
41
1
10
468.950618547431
20
-37.6302206958462
30
0
41
1
10
468.954117006726
20
-37.6353312887908
30
0
0
SPLINE
5
175
100
AcDbEntity
8
1
62
256
6
ByLayer
370
18
48
1
60
0
100
AcDbSpline
70
4
71
3
72
8
73
4
40
0
40
0
40
0
40
0
40
1
40
1
40
1
40
1
41
1
10
468.888948981818
20
-37.6199995099067
30
0
41
1
10
468.89244744109
20
-37.6251101028848
30
0
41
1
10
468.895945900374
20
-37.6302206958462
30
0
41
1
10
468.89944435967
20
-37.6353312887908
30
0
0
SPLINE
5
176
100
AcDbEntity
8
1
62
256
6
ByLayer
370
18
48
1
60
0
100
AcDbSpline
70
4
71
3
72
8
73
4
40
0
40
0
40
0
40
0
40
1
40
1
40
1
40
1
41
1
10
467.925026863692
20
-37.6199987955012
30
0
41
1
10
467.928964846602
20
-37.6251096266145
30
0
41
1
10
467.932902829525
20
-37.630220457711
30
0
41
1
10
467.936840812461
20
-37.6353312887908
30
0
0
SPLINE
5
177
100
AcDbEntity
8
1
62
256
6
ByLayer
370
18
48
1
60
0
100
AcDbSpline
70
4
71
3
72
8
73
4
40
0
40
0
40
0
40
0
40
1
40
1
40
1
40
1
41
1
10
467.877220064461
20
-37.6199987955012
30
0
41
1
10
467.881158047371
20
-37.6251096266145
30
0
41
1
10
467.885096030294
20
-37.630220457711
30
0
41
1
10
467.88903401323
20
-37.6353312887908
30
0
0
SPLINE
5
178
100
AcDbEntity
8
1
62
256
6
ByLayer
370
18
48
1
60
0
100
AcDbSpline
70
4
71
3
72
8
73
4
40
0
40
0
40
0
40
0
40
1
40
1
40
1
40
1
41
1
10
467.049550859066
20
-37.619999416139
30
0
41
1
10
467.053865923581
20
-37.625110040373
30
0
41
1
10
467.05818098811
20
-37.6302206645903
30
0
41
1
10
467.062496052653
20
-37.6353312887908
30
0
0
SPLINE
5
179
100
AcDbEntity
8
1
62
256
6
ByLayer
370
18
48
1
60
0
100
AcDbSpline
70
4
71
3
72
8
73
4
40
0
40
0
40
0
40
0
40
1
40
1
40
1
40
1
41
1
10
467.009363849443
20
-37.619999416139
30
0
41
1
10
467.013678913958
20
-37.625110040373
30
0
41
1
10
467.017993978486
20
-37.6302206645903
30
0
41
1
10
467.022309043029
20
-37.6353312887908
30
0
0
SPLINE
5
17A
100
AcDbEntity
8
1
62
256
6
ByLayer
370
18
48
1
60
0
100
AcDbSpline
70
4
71
3
72
8
73
4
40
0
40
0
40
0
40
0
40
1
40
1
40
1
40
1
41
1
10
466.330998603921
20
-37.6199990852808
30
0
41
1
10
466.335622958089
20
-37.6251098198009
30
0
41
1
10
466.340247312272
20
-37.6302205543042
30
0
41
1
10
466.344871666471
20
-37.6353312887908
30
0
0
SPLINE
5
17B
100
AcDbEntity
8
1
62
256
6
ByLayer
370
18
48
1
60
0
100
AcDbSpline
70
4
71
3
72
8
73
4
40
0
40
0
40
0
40
0
40
1
40
1
40
1
40
1
41
1
10
466.299065157053
20
-37.6199990852808
30
0
41
1
10
466.303689511221
20
-37.6251098198009
30
0
41
1
10
466.308313865405
20
-37.6302205543042
30
0
41
1
10
466.312938219604
20
-37.6353312887908
30
0
0
SPLINE
5
17C
100
AcDbEntity
8
1
62
256
6
ByLayer
370
18
48
1
60
0
100
AcDbSpline
70
4
71
3
72
8
73
4
40
0
40
0
40
0
40
0
40
1
40
1
40
1
40
1
41
1
10
465.780703218476
20
-37.6199991536033
30
0
41
1
10
465.785563818693
20
-37.6251098653492
30
0
41
1
10
465.790424418926
20
-37.6302205770784
30
0
41
1
10
465.795285019174
20
-37.6353312887908
30
0
0
SPLINE
5
17D
100
AcDbEntity
8
1
62
256
6
ByLayer
370
18
48
1
60
0
100
AcDbSpline
70
4
71
3
72
8
73
4
40
0
40
0
40
0
40
0
40
1
40
1
40
1
40
1
41
1
10
465.757526943898
20
-37.6199991536033
30
0
41
1
10
465.762387544115
20
-37.6251098653492
30
0
41
1
10
465.767248144347
20
-37.6302205770784
30
0
41
1
10
465.772108744596
20
-37.6353312887908
30
0
0
SPLINE
5
17E
100
AcDbEntity
8
1
62
256
6
ByLayer
370
18
48
1
60
0
100
AcDbSpline
70
4
71
3
72
8
73
4
40
0
40
0
40
0
40
0
40
1
40
1
40
1
40
1
41
1
10
465.407342638296
20
-37.6199990057416
30
0
41
1
10
465.412362899013
20
-37.6251097667748
30
0
41
1
10
465.417383159747
20
-37.6302205277912
30
0
41
1
10
465.422403420497
20
-37.6353312887908
30
0
0
SPLINE
5
17F
100
AcDbEntity
8
1
62
256
6
ByLayer
370
18
48
1
60
0
100
AcDbSpline
70
4
71
3
72
8
73
4
40
0
40
0
40
0
40
0
40
1
40
1
40
1
40
1
41
1
10
465.393289039702
20
-37.6199990057417
30
0
41
1
10
465.39830930042
20
-37.6251097667748
30
0
41
1
10
465.403329561153
20
-37.6302205277913
30
0
41
1
10
465.408349821903
20
-37.6353312887908
30
0
0
SPLINE
5
180
100
AcDbEntity
8
1
62
256
6
ByLayer
370
18
48
1
60
0
100
AcDbSpline
70
4
71
3
72
8
73
4
40
0
40
0
40
0
40
0
40
1
40
1
40
1
40
1
41
1
10
465.216805185232
20
-37.6199988602339
30
0
41
1
10
465.221905935471
20
-37.6251096697696
30
0
41
1
10
465.227006685727
20
-37.6302204792886
30
0
41
1
10
465.232107436
20
-37.6353312887907
30
0
0
SPLINE
5
181
100
AcDbEntity
8
1
62
256
6
ByLayer
370
18
48
1
60
0
100
AcDbSpline
70
4
71
3
72
8
73
4
40
0
40
0
40
0
40
0
40
1
40
1
40
1
40
1
41
1
10
465.212095896268
20
-37.6199988602341
30
0
41
1
10
465.217196646507
20
-37.6251096697698
30
0
41
1
10
465.222297396762
20
-37.6302204792887
30
0
41
1
10
465.227398147035
20
-37.6353312887908
30
0
0
SPLINE
5
182
100
AcDbEntity
8
1
62
256
6
ByLayer
370
18
48
1
60
0
100
AcDbSpline
70
4
71
3
72
8
73
4
40
0
40
0
40
0
40
0
40
1
40
1
40
1
40
1
41
1
10
488.787904103732
20
-37.6199988602341
30
0
41
1
10
488.782803353493
20
-37.6251096697698
30
0
41
1
10
488.777702603237
20
-37.6302204792887
30
0
41
1
10
488.772601852965
20
-37.6353312887908
30
0
0
SPLINE
5
183
100
AcDbEntity
8
1
62
256
6
ByLayer
370
18
48
1
60
0
100
AcDbSpline
70
4
71
3
72
8
73
4
40
0
40
0
40
0
40
0
40
1
40
1
40
1
40
1
41
1
10
488.783194814768
20
-37.6199988602341
30
0
41
1
10
488.778094064528
20
-37.6251096697698
30
0
41
1
10
488.772993314273
20
-37.6302204792887
30
0
41
1
10
488.767892564
20
-37.6353312887908
30
0
0
SPLINE
5
184
100
AcDbEntity
8
1
62
256
6
ByLayer
370
18
48
1
60
0
100
AcDbSpline
70
4
71
3
72
8
73
4
40
0
40
0
40
0
40
0
40
1
40
1
40
1
40
1
41
1
10
488.606710960298
20
-37.6199990057417
30
0
41
1
10
488.601690699581
20
-37.6251097667748
30
0
41
1
10
488.596670438847
20
-37.6302205277912
30
0
41
1
10
488.591650178097
20
-37.6353312887908
30
0
0
SPLINE
5
185
100
AcDbEntity
8
1
62
256
6
ByLayer
370
18
48
1
60
0
100
AcDbSpline
70
4
71
3
72
8
73
4
40
0
40
0
40
0
40
0
40
1
40
1
40
1
40
1
41
1
10
488.592657361704
20
-37.6199990057416
30
0
41
1
10
488.587637100987
20
-37.6251097667748
30
0
41
1
10
488.582616840253
20
-37.6302205277912
30
0
41
1
10
488.577596579503
20
-37.6353312887908
30
0
0
SPLINE
5
186
100
AcDbEntity
8
1
62
256
6
ByLayer
370
18
48
1
60
0
100
AcDbSpline
70
4
71
3
72
8
73
4
40
0
40
0
40
0
40
0
40
1
40
1
40
1
40
1
41
1
10
488.242473056102
20
-37.6199991536033
30
0
41
1
10
488.237612455885
20
-37.6251098653492
30
0
41
1
10
488.232751855653
20
-37.6302205770784
30
0
41
1
10
488.227891255404
20
-37.6353312887908
30
0
0
SPLINE
5
187
100
AcDbEntity
8
1
62
256
6
ByLayer
370
18
48
1
60
0
100
AcDbSpline
70
4
71
3
72
8
73
4
40
0
40
0
40
0
40
0
40
1
40
1
40
1
40
1
41
1
10
488.219296781524
20
-37.6199991536033
30
0
41
1
10
488.214436181307
20
-37.6251098653492
30
0
41
1
10
488.209575581074
20
-37.6302205770784
30
0
41
1
10
488.204714980826
20
-37.6353312887908
30
0
0
SPLINE
5
188
100
AcDbEntity
8
1
62
256
6
ByLayer
370
18
48
1
60
0
100
AcDbSpline
70
4
71
3
72
8
73
4
40
0
40
0
40
0
40
0
40
1
40
1
40
1
40
1
41
1
10
487.700934842947
20
-37.6199990852808
30
0
41
1
10
487.696310488779
20
-37.6251098198008
30
0
41
1
10
487.691686134595
20
-37.6302205543042
30
0
41
1
10
487.687061780396
20
-37.6353312887908
30
0
0
SPLINE
5
189
100
AcDbEntity
8
1
62
256
6
ByLayer
370
18
48
1
60
0
100
AcDbSpline
70
4
71
3
72
8
73
4
40
0
40
0
40
0
40
0
40
1
40
1
40
1
40
1
41
1
10
487.66900139608
20
-37.6199990852809
30
0
41
1
10
487.664377041911
20
-37.6251098198009
30
0
41
1
10
487.659752687728
20
-37.6302205543043
30
0
41
1
10
487.655128333529
20
-37.6353312887908
30
0
0
SPLINE
5
18A
100
AcDbEntity
8
1
62
256
6
ByLayer
370
18
48
1
60
0
100
AcDbSpline
70
4
71
3
72
8
73
4
40
0
40
0
40
0
40
0
40
1
40
1
40
1
40
1
41
1
10
486.990636150557
20
-37.619999416139
30
0
41
1
10
486.986321086042
20
-37.625110040373
30
0
41
1
10
486.982006021514
20
-37.6302206645903
30
0
41
1
10
486.977690956971
20
-37.6353312887908
30
0
0
SPLINE
5
18B
100
AcDbEntity
8
1
62
256
6
ByLayer
370
18
48
1
60
0
100
AcDbSpline
70
4
71
3
72
8
73
4
40
0
40
0
40
0
40
0
40
1
40
1
40
1
40
1
41
1
10
486.950449140934
20
-37.619999416139
30
0
41
1
10
486.946134076419
20
-37.625110040373
30
0
41
1
10
486.94181901189
20
-37.6302206645903
30
0
41
1
10
486.937503947347
20
-37.6353312887908
30
0
0
SPLINE
5
18C
100
AcDbEntity
8
1
62
256
6
ByLayer
370
18
48
1
60
0
100
AcDbSpline
70
4
71
3
72
8
73
4
40
0
40
0
40
0
40
0
40
1
40
1
40
1
40
1
41
1
10
486.122779935539
20
-37.6199987955013
30
0
41
1
10
486.118841952629
20
-37.6251096266146
30
0
41
1
10
486.114903969706
20
-37.6302204577111
30
0
41
1
10
486.11096598677
20
-37.6353312887908
30
0
0
SPLINE
5
18D
100
AcDbEntity
8
1
62
256
6
ByLayer
370
18
48
1
60
0
100
AcDbSpline
70
4
71
3
72
8
73
4
40
0
40
0
40
0
40
0
40
1
40
1
40
1
40
1
41
1
10
486.074973136308
20
-37.6199987955012
30
0
41
1
10
486.071035153398
20
-37.6251096266145
30
0
41
1
10
486.067097170475
20
-37.6302204577111
30
0
41
1
10
486.063159187539
20
-37.6353312887908
30
0
0
SPLINE
5
18E
100
AcDbEntity
8
1
62
256
6
ByLayer
370
18
48
1
60
0
100
AcDbSpline
70
4
71
3
72
8
73
4
40
0
40
0
40
0
40
0
40
1
40
1
40
1
40
1
41
1
10
485.111051018182
20
-37.6199995099067
30
0
41
1
10
485.10755255891
20
-37.6251101028848
30
0
41
1
10
485.104054099626
20
-37.6302206958462
30
0
41
1
10
485.100555640331
20
-37.6353312887908
30
0
0
SPLINE
5
18F
100
AcDbEntity
8
1
62
256
6
ByLayer
370
18
48
1
60
0
100
AcDbSpline
70
4
71
3
72
8
73
4
40
0
40
0
40
0
40
0
40
1
40
1
40
1
40
1
41
1
10
485.056378371126
20
-37.6199995099067
30
0
41
1
10
485.052879911853
20
-37.6251101028848
30
0
41
1
10
485.049381452569
20
-37.6302206958462
30
0
41
1
10
485.045882993274
20
-37.6353312887908
30
0
0
SPLINE
5
190
100
AcDbEntity
8
1
62
256
6
ByLayer
370
18
48
1
60
0
100
AcDbSpline
70
4
71
3
72
8
73
4
40
0
40
0
40
0
40
0
40
1
40
1
40
1
40
1
41
1
10
483.971406952245
20
-37.619998793965
30
0
41
1
10
483.968402865642
20
-37.6251096255903
30
0
41
1
10
483.965398779029
20
-37.630220457199
30
0
41
1
10
483.962394692406
20
-37.6353312887908
30
0
0
SPLINE
5
191
100
AcDbEntity
8
1
62
256
6
ByLayer
370
18
48
1
60
0
100
AcDbSpline
70
4
71
3
72
8
73
4
40
0
40
0
40
0
40
0
40
1
40
1
40
1
40
1
41
1
10
483.910730677667
20
-37.619998793965
30
0
41
1
10
483.907726591064
20
-37.6251096255904
30
0
41
1
10
483.90472250445
20
-37.630220457199
30
0
41
1
10
483.901718417828
20
-37.6353312887908
30
0
0
SPLINE
5
192
100
AcDbEntity
8
1
62
256
6
ByLayer
370
18
48
1
60
0
100
AcDbSpline
70
4
71
3
72
8
73
4
40
0
40
0
40
0
40
0
40
1
40
1
40
1
40
1
41
1
10
482.721819147133
20
-37.6199987875791
30
0
41
1
10
482.719356971779
20
-37.6251096213331
30
0
41
1
10
482.716894796418
20
-37.6302204550704
30
0
41
1
10
482.714432621049
20
-37.6353312887908
30
0
0
SPLINE
5
193
100
AcDbEntity
8
1
62
256
6
ByLayer
370
18
48
1
60
0
100
AcDbSpline
70
4
71
3
72
8
73
4
40
0
40
0
40
0
40
0
40
1
40
1
40
1
40
1
41
1
10
482.656096146129
20
-37.6199987875791
30
0
41
1
10
482.653633970776
20
-37.625109621333
30
0
41
1
10
482.651171795415
20
-37.6302204550703
30
0
41
1
10
482.648709620045
20
-37.6353312887908
30
0
0
SPLINE
5
194
100
AcDbEntity
8
1
62
256
6
ByLayer
370
18
48
1
60
0
100
AcDbSpline
70
4
71
3
72
8
73
4
40
0
40
0
40
0
40
0
40
1
40
1
40
1
40
1
41
1
10
481.381994690001
20
-37.6199991740393
30
0
41
1
10
481.380113304547
20
-37.6251098789733
30
0
41
1
10
481.378231919087
20
-37.6302205838904
30
0
41
1
10
481.376350533621
20
-37.6353312887908
30
0
0
SPLINE
5
195
100
AcDbEntity
8
1
62
256
6
ByLayer
370
18
48
1
60
0
100
AcDbSpline
70
4
71
3
72
8
73
4
40
0
40
0
40
0
40
0
40
1
40
1
40
1
40
1
41
1
10
481.312261453559
20
-37.6199991740392
30
0
41
1
10
481.310380068106
20
-37.6251098789731
30
0
41
1
10
481.308498682646
20
-37.6302205838904
30
0
41
1
10
481.306617297179
20
-37.6353312887908
30
0
0
SPLINE
5
196
100
AcDbEntity
8
1
62
256
6
ByLayer
370
18
48
1
60
0
100
AcDbSpline
70
4
71
3
72
8
73
4
40
0
40
0
40
0
40
0
40
1
40
1
40
1
40
1
41
1
10
479.97306371445
20
-37.6199992973293
30
0
41
1
10
479.971792737629
20
-37.6251099611666
30
0
41
1
10
479.970521760803
20
-37.6302206249871
30
0
41
1
10
479.969250783973
20
-37.6353312887908
30
0
0
SPLINE
5
197
100
AcDbEntity
8
1
62
256
6
ByLayer
370
18
48
1
60
0
100
AcDbSpline
70
4
71
3
72
8
73
4
40
0
40
0
40
0
40
0
40
1
40
1
40
1
40
1
41
1
10
479.900419977365
20
-37.6199992973291
30
0
41
1
10
479.899149000544
20
-37.6251099611664
30
0
41
1
10
479.897878023718
20
-37.630220624987
30
0
41
1
10
479.896607046888
20
-37.6353312887908
30
0
0
SPLINE
5
198
100
AcDbEntity
8
1
62
256
6
ByLayer
370
18
48
1
60
0
100
AcDbSpline
70
4
71
3
72
8
73
4
40
0
40
0
40
0
40
0
40
1
40
1
40
1
40
1
41
1
10
478.517245800435
20
-37.6199992418811
30
0
41
1
10
478.516605258865
20
-37.6251099242011
30
0
41
1
10
478.515964717292
20
-37.6302206065043
30
0
41
1
10
478.515324175718
20
-37.6353312887908
30
0
0
SPLINE
5
199
100
AcDbEntity
8
1
62
256
6
ByLayer
370
18
48
1
60
0
100
AcDbSpline
70
4
71
3
72
8
73
4
40
0
40
0
40
0
40
0
40
1
40
1
40
1
40
1
41
1
10
479.896607046888
20
-37.6353312887908
30
0
41
1
10
479.726831698469
20
-37.781747840985
30
0
41
1
10
479.557056343785
20
-37.9281642757223
30
0
41
1
10
479.387280977836
20
-38.07458049925
30
0
0
SPLINE
5
19A
100
AcDbEntity
8
1
62
256
6
ByLayer
370
18
48
1
60
0
100
AcDbSpline
70
4
71
3
72
8
73
4
40
0
40
0
40
0
40
0
40
1
40
1
40
1
40
1
41
1
10
479.45992471492
20
-38.07458049925
30
0
41
1
10
479.435711195842
20
-38.0746002238944
30
0
41
1
10
479.411496601047
20
-38.0746002238944
30
0
41
1
10
479.387280977836
20
-38.07458049925
30
0
0
SPLINE
5
19B
100
AcDbEntity
8
1
62
256
6
ByLayer
370
18
48
1
60
0
100
AcDbSpline
70
4
71
3
72
8
73
4
40
0
40
0
40
0
40
0
40
1
40
1
40
1
40
1
41
1
10
479.969250783973
20
-37.6353312887908
30
0
41
1
10
479.799475435554
20
-37.781747840985
30
0
41
1
10
479.62970008087
20
-37.9281642757223
30
0
41
1
10
479.45992471492
20
-38.07458049925
30
0
0
SPLINE
5
19C
100
AcDbEntity
8
1
62
256
6
ByLayer
370
18
48
1
60
0
100
AcDbSpline
70
4
71
3
72
8
73
4
40
0
40
0
40
0
40
0
40
1
40
1
40
1
40
1
41
1
10
481.306617297179
20
-37.6353312887908
30
0
41
1
10
481.055306417971
20
-37.781747840985
30
0
41
1
10
480.803995529488
20
-37.9281642757223
30
0
41
1
10
480.55268462433
20
-38.07458049925
30
0
0
SPLINE
5
19D
100
AcDbEntity
8
1
62
256
6
ByLayer
370
18
48
1
60
0
100
AcDbSpline
70
4
71
3
72
8
73
4
40
0
40
0
40
0
40
0
40
1
40
1
40
1
40
1
41
1
10
480.622417860772
20
-38.07458049925
30
0
41
1
10
480.59917501352
20
-38.0746002238944
30
0
41
1
10
480.575930586237
20
-38.0746002238944
30
0
41
1
10
480.55268462433
20
-38.07458049925
30
0
0
SPLINE
5
19E
100
AcDbEntity
8
1
62
256
6
ByLayer
370
18
48
1
60
0
100
AcDbSpline
70
4
71
3
72
8
73
4
40
0
40
0
40
0
40
0
40
1
40
1
40
1
40
1
41
1
10
481.376350533621
20
-37.6353312887908
30
0
41
1
10
481.125039654412
20
-37.781747840985
30
0
41
1
10
480.87372876593
20
-37.9281642757223
30
0
41
1
10
480.622417860772
20
-38.07458049925
30
0
0
SPLINE
5
19F
100
AcDbEntity
8
1
62
256
6
ByLayer
370
18
48
1
60
0
100
AcDbSpline
70
4
71
3
72
8
73
4
40
0
40
0
40
0
40
0
40
1
40
1
40
1
40
1
41
1
10
482.648709620045
20
-37.6353312887908
30
0
41
1
10
482.319826532738
20
-37.781747840985
30
0
41
1
10
481.990943433295
20
-37.9281642757223
30
0
41
1
10
481.662060312028
20
-38.07458049925
30
0
0
SPLINE
5
1A0
100
AcDbEntity
8
1
62
256
6
ByLayer
370
18
48
1
60
0
100
AcDbSpline
70
4
71
3
72
8
73
4
40
0
40
0
40
0
40
0
40
1
40
1
40
1
40
1
41
1
10
481.727783313032
20
-38.07458049925
30
0
41
1
10
481.705877691191
20
-38.0746002238944
30
0
41
1
10
481.683970009925
20
-38.0746002238944
30
0
41
1
10
481.662060312028
20
-38.07458049925
30
0
0
SPLINE
5
1A1
100
AcDbEntity
8
1
62
256
6
ByLayer
370
18
48
1
60
0
100
AcDbSpline
70
4
71
3
72
8
73
4
40
0
40
0
40
0
40
0
40
1
40
1
40
1
40
1
41
1
10
482.714432621049
20
-37.6353312887908
30
0
41
1
10
482.385549533741
20
-37.781747840985
30
0
41
1
10
482.056666434298
20
-37.9281642757223
30
0
41
1
10
481.727783313032
20
-38.07458049925
30
0
0
SPLINE
5
1A2
100
AcDbEntity
8
1
62
256
6
ByLayer
370
18
48
1
60
0
100
AcDbSpline
70
4
71
3
72
8
73
4
40
0
40
0
40
0
40
0
40
1
40
1
40
1
40
1
41
1
10
483.901718417828
20
-37.6353312887908
30
0
41
1
10
483.304521344186
20
-37.8532390287579
30
0
41
1
10
482.707324240399
20
-38.0711465296043
30
0
41
1
10
482.110127058088
20
-38.2890534075614
30
0
0
SPLINE
5
1A3
100
AcDbEntity
8
1
62
256
6
ByLayer
370
18
48
1
60
0
100
AcDbSpline
70
4
71
3
72
8
73
4
40
0
40
0
40
0
40
0
40
1
40
1
40
1
40
1
41
1
10
482.110127058088
20
-38.2890534075614
30
0
41
1
10
482.130355245682
20
-38.289075387577
30
0
41
1
10
482.150580686895
20
-38.289075387577
30
0
41
1
10
482.170803332667
20
-38.2890534075614
30
0
0
SPLINE
5
1A4
100
AcDbEntity
8
1
62
256
6
ByLayer
370
18
48
1
60
0
100
AcDbSpline
70
4
71
3
72
8
73
4
40
0
40
0
40
0
40
0
40
1
40
1
40
1
40
1
41
1
10
483.962394692406
20
-37.6353312887908
30
0
41
1
10
483.365197618764
20
-37.853239028758
30
0
41
1
10
482.768000514977
20
-38.0711465296043
30
0
41
1
10
482.170803332667
20
-38.2890534075614
30
0
0
SPLINE
5
1A5
100
AcDbEntity
8
1
62
256
6
ByLayer
370
18
48
1
60
0
100
AcDbSpline
70
4
71
3
72
8
73
4
40
0
40
0
40
0
40
0
40
1
40
1
40
1
40
1
41
1
10
485.045882993274
20
-37.6353312887908
30
0
41
1
10
484.578557101001
20
-37.781747840985
30
0
41
1
10
484.111231191484
20
-37.9281642757223
30
0
41
1
10
483.643905250958
20
-38.07458049925
30
0
0
SPLINE
5
1A6
100
AcDbEntity
8
1
62
256
6
ByLayer
370
18
48
1
60
0
100
AcDbSpline
70
4
71
3
72
8
73
4
40
0
40
0
40
0
40
0
40
1
40
1
40
1
40
1
41
1
10
483.698577898015
20
-38.07458049925
30
0
41
1
10
483.680356584195
20
-38.0746002238944
30
0
41
1
10
483.662132356643
20
-38.0746002238944
30
0
41
1
10
483.643905250958
20
-38.07458049925
30
0
0
SPLINE
5
1A7
100
AcDbEntity
8
1
62
256
6
ByLayer
370
18
48
1
60
0
100
AcDbSpline
70
4
71
3
72
8
73
4
40
0
40
0
40
0
40
0
40
1
40
1
40
1
40
1
41
1
10
485.100555640331
20
-37.6353312887908
30
0
41
1
10
484.633229748058
20
-37.781747840985
30
0
41
1
10
484.165903838541
20
-37.9281642757223
30
0
41
1
10
483.698577898015
20
-38.07458049925
30
0
0
SPLINE
5
1A8
100
AcDbEntity
8
1
62
256
6
ByLayer
370
18
48
1
60
0
100
AcDbSpline
70
4
71
3
72
8
73
4
40
0
40
0
40
0
40
0
40
1
40
1
40
1
40
1
41
1
10
486.063159187539
20
-37.6353312887908
30
0
41
1
10
485.537146024136
20
-37.781747840985
30
0
41
1
10
485.011132841322
20
-37.9281642757223
30
0
41
1
10
484.485119623606
20
-38.07458049925
30
0
0
SPLINE
5
1A9
100
AcDbEntity
8
1
62
256
6
ByLayer
370
18
48
1
60
0
100
AcDbSpline
70
4
71
3
72
8
73
4
40
0
40
0
40
0
40
0
40
1
40
1
40
1
40
1
41
1
10
484.532926422837
20
-38.07458049925
30
0
41
1
10
484.516994087888
20
-38.0746002238944
30
0
41
1
10
484.501058477768
20
-38.0746002238944
30
0
41
1
10
484.485119623606
20
-38.07458049925
30
0
0
SPLINE
5
1AA
100
AcDbEntity
8
1
62
256
6
ByLayer
370
18
48
1
60
0
100
AcDbSpline
70
4
71
3
72
8
73
4
40
0
40
0
40
0
40
0
40
1
40
1
40
1
40
1
41
1
10
486.11096598677
20
-37.6353312887908
30
0
41
1
10
485.584952823367
20
-37.781747840985
30
0
41
1
10
485.058939640554
20
-37.9281642757223
30
0
41
1
10
484.532926422837
20
-38.07458049925
30
0
0
SPLINE
5
1AB
100
AcDbEntity
8
1
62
256
6
ByLayer
370
18
48
1
60
0
100
AcDbSpline
70
4
71
3
72
8
73
4
40
0
40
0
40
0
40
0
40
1
40
1
40
1
40
1
41
1
10
486.937503947347
20
-37.6353312887908
30
0
41
1
10
486.361099054626
20
-37.781747840985
30
0
41
1
10
485.784694140634
20
-37.9281642757223
30
0
41
1
10
485.208289188396
20
-38.07458049925
30
0
0
SPLINE
5
1AC
100
AcDbEntity
8
1
62
256
6
ByLayer
370
18
48
1
60
0
100
AcDbSpline
70
4
71
3
72
8
73
4
40
0
40
0
40
0
40
0
40
1
40
1
40
1
40
1
41
1
10
485.248476198019
20
-38.07458049925
30
0
41
1
10
485.235084104381
20
-38.0746002238944
30
0
41
1
10
485.221688425784
20
-38.0746002238944
30
0
41
1
10
485.208289188396
20
-38.07458049925
30
0
0
SPLINE
5
1AD
100
AcDbEntity
8
1
62
256
6
ByLayer
370
18
48
1
60
0
100
AcDbSpline
70
4
71
3
72
8
73
4
40
0
40
0
40
0
40
0
40
1
40
1
40
1
40
1
41
1
10
486.977690956971
20
-37.6353312887908
30
0
41
1
10
486.401286064249
20
-37.781747840985
30
0
41
1
10
485.824881150258
20
-37.9281642757223
30
0
41
1
10
485.248476198019
20
-38.07458049925
30
0
0
SPLINE
5
1AE
100
AcDbEntity
8
1
62
256
6
ByLayer
370
18
48
1
60
0
100
AcDbSpline
70
4
71
3
72
8
73
4
40
0
40
0
40
0
40
0
40
1
40
1
40
1
40
1
41
1
10
487.655128333529
20
-37.6353312887908
30
0
41
1
10
487.037421960975
20
-37.781747840985
30
0
41
1
10
486.419715565626
20
-37.9281642757223
30
0
41
1
10
485.80200912929
20
-38.07458049925
30
0
0
SPLINE
5
1AF
100
AcDbEntity
8
1
62
256
6
ByLayer
370
18
48
1
60
0
100
AcDbSpline
70
4
71
3
72
8
73
4
40
0
40
0
40
0
40
0
40
1
40
1
40
1
40
1
41
1
10
485.833942576158
20
-38.07458049925
30
0
41
1
10
485.823301925146
20
-38.0746002238944
30
0
41
1
10
485.812657435926
20
-38.0746002238944
30
0
41
1
10
485.80200912929
20
-38.07458049925
30
0
0
SPLINE
5
1B0
100
AcDbEntity
8
1
62
256
6
ByLayer
370
18
48
1
60
0
100
AcDbSpline
70
4
71
3
72
8
73
4
40
0
40
0
40
0
40
0
40
1
40
1
40
1
40
1
41
1
10
487.687061780396
20
-37.6353312887908
30
0
41
1
10
487.069355407842
20
-37.781747840985
30
0
41
1
10
486.451649012494
20
-37.9281642757223
30
0
41
1
10
485.833942576158
20
-38.07458049925
30
0
0
SPLINE
5
1B1
100
AcDbEntity
8
1
62
256
6
ByLayer
370
18
48
1
60
0
100
AcDbSpline
70
4
71
3
72
8
73
4
40
0
40
0
40
0
40
0
40
1
40
1
40
1
40
1
41
1
10
488.204714980826
20
-37.6353312887908
30
0
41
1
10
487.238429817691
20
-37.853239028758
30
0
41
1
10
486.272144605781
20
-38.0711465296043
30
0
41
1
10
485.305859266817
20
-38.2890534075614
30
0
0
SPLINE
5
1B2
100
AcDbEntity
8
1
62
256
6
ByLayer
370
18
48
1
60
0
100
AcDbSpline
70
4
71
3
72
8
73
4
40
0
40
0
40
0
40
0
40
1
40
1
40
1
40
1
41
1
10
485.305859266817
20
-38.2890534075614
30
0
41
1
10
485.313589171982
20
-38.289075387577
30
0
41
1
10
485.321314603087
20
-38.289075387577
30
0
41
1
10
485.329035541396
20
-38.2890534075614
30
0
0
SPLINE
5
1B3
100
AcDbEntity
8
1
62
256
6
ByLayer
370
18
48
1
60
0
100
AcDbSpline
70
4
71
3
72
8
73
4
40
0
40
0
40
0
40
0
40
1
40
1
40
1
40
1
41
1
10
488.227891255404
20
-37.6353312887908
30
0
41
1
10
487.26160609227
20
-37.8532390287579
30
0
41
1
10
486.29532088036
20
-38.0711465296043
30
0
41
1
10
485.329035541396
20
-38.2890534075614
30
0
0
SPLINE
5
1B4
100
AcDbEntity
8
1
62
256
6
ByLayer
370
18
48
1
60
0
100
AcDbSpline
70
4
71
3
72
8
73
4
40
0
40
0
40
0
40
0
40
1
40
1
40
1
40
1
41
1
10
488.577596579503
20
-37.6353312887908
30
0
41
1
10
487.90700976095
20
-37.781747840985
30
0
41
1
10
487.236422917651
20
-37.9281642757223
30
0
41
1
10
486.565836029856
20
-38.07458049925
30
0
0
SPLINE
5
1B5
100
AcDbEntity
8
1
62
256
6
ByLayer
370
18
48
1
60
0
100
AcDbSpline
70
4
71
3
72
8
73
4
40
0
40
0
40
0
40
0
40
1
40
1
40
1
40
1
41
1
10
486.57988962845
20
-38.07458049925
30
0
41
1
10
486.575209252613
20
-38.0746002238944
30
0
41
1
10
486.570524716699
20
-38.0746002238944
30
0
41
1
10
486.565836029856
20
-38.07458049925
30
0
0
SPLINE
5
1B6
100
AcDbEntity
8
1
62
256
6
ByLayer
370
18
48
1
60
0
100
AcDbSpline
70
4
71
3
72
8
73
4
40
0
40
0
40
0
40
0
40
1
40
1
40
1
40
1
41
1
10
488.591650178097
20
-37.6353312887908
30
0
41
1
10
487.921063359544
20
-37.781747840985
30
0
41
1
10
487.250476516245
20
-37.9281642757223
30
0
41
1
10
486.57988962845
20
-38.07458049925
30
0
0
SPLINE
5
1B7
100
AcDbEntity
8
1
62
256
6
ByLayer
370
18
48
1
60
0
100
AcDbSpline
70
4
71
3
72
8
73
4
40
0
40
0
40
0
40
0
40
1
40
1
40
1
40
1
41
1
10
488.767892564
20
-37.6353312887908
30
0
41
1
10
488.086560735504
20
-37.781747840985
30
0
41
1
10
487.405228881865
20
-37.9281642757223
30
0
41
1
10
486.723896983018
20
-38.07458049925
30
0
0
SPLINE
5
1B8
100
AcDbEntity
8
1
62
256
6
ByLayer
370
18
48
1
60
0
100
AcDbSpline
70
4
71
3
72
8
73
4
40
0
40
0
40
0
40
0
40
1
40
1
40
1
40
1
41
1
10
486.728606271983
20
-38.07458049925
30
0
41
1
10
486.727040731593
20
-38.0746002238944
30
0
41
1
10
486.725470967583
20
-38.0746002238944
30
0
41
1
10
486.723896983018
20
-38.07458049925
30
0
0
SPLINE
5
1B9
100
AcDbEntity
8
1
62
256
6
ByLayer
370
18
48
1
60
0
100
AcDbSpline
70
4
71
3
72
8
73
4
40
0
40
0
40
0
40
0
40
1
40
1
40
1
40
1
41
1
10
488.772601852965
20
-37.6353312887908
30
0
41
1
10
488.091270024468
20
-37.781747840985
30
0
41
1
10
487.40993817083
20
-37.9281642757223
30
0
41
1
10
486.728606271983
20
-38.07458049925
30
0
0
SPLINE
5
1BA
100
AcDbEntity
8
1
62
256
6
ByLayer
370
18
48
1
60
0
100
AcDbSpline
70
4
71
3
72
8
73
4
40
0
40
0
40
0
40
0
40
1
40
1
40
1
40
1
41
1
10
465.227398147035
20
-37.6353312887908
30
0
41
1
10
465.908729975532
20
-37.781747840985
30
0
41
1
10
466.59006182917
20
-37.9281642757223
30
0
41
1
10
467.271393728017
20
-38.07458049925
30
0
0
SPLINE
5
1BB
100
AcDbEntity
8
1
62
256
6
ByLayer
370
18
48
1
60
0
100
AcDbSpline
70
4
71
3
72
8
73
4
40
0
40
0
40
0
40
0
40
1
40
1
40
1
40
1
41
1
10
467.276103016982
20
-38.07458049925
30
0
41
1
10
467.274529032418
20
-38.0746002238944
30
0
41
1
10
467.272959268407
20
-38.0746002238944
30
0
41
1
10
467.271393728018
20
-38.07458049925
30
0
0
SPLINE
5
1BC
100
AcDbEntity
8
1
62
256
6
ByLayer
370
18
48
1
60
0
100
AcDbSpline
70
4
71
3
72
8
73
4
40
0
40
0
40
0
40
0
40
1
40
1
40
1
40
1
41
1
10
465.232107436
20
-37.6353312887908
30
0
41
1
10
465.913439264496
20
-37.781747840985
30
0
41
1
10
466.594771118135
20
-37.9281642757223
30
0
41
1
10
467.276103016982
20
-38.07458049925
30
0
0
SPLINE
5
1BD
100
AcDbEntity
8
1
62
256
6
ByLayer
370
18
48
1
60
0
100
AcDbSpline
70
4
71
3
72
8
73
4
40
0
40
0
40
0
40
0
40
1
40
1
40
1
40
1
41
1
10
465.408349821903
20
-37.6353312887908
30
0
41
1
10
466.078936640456
20
-37.781747840985
30
0
41
1
10
466.749523483755
20
-37.9281642757223
30
0
41
1
10
467.42011037155
20
-38.07458049925
30
0
0
SPLINE
5
1BE
100
AcDbEntity
8
1
62
256
6
ByLayer
370
18
48
1
60
0
100
AcDbSpline
70
4
71
3
72
8
73
4
40
0
40
0
40
0
40
0
40
1
40
1
40
1
40
1
41
1
10
467.434163970144
20
-38.07458049925
30
0
41
1
10
467.429475283301
20
-38.0746002238944
30
0
41
1
10
467.424790747387
20
-38.0746002238944
30
0
41
1
10
467.42011037155
20
-38.07458049925
30
0
0
SPLINE
5
1BF
100
AcDbEntity
8
1
62
256
6
ByLayer
370
18
48
1
60
0
100
AcDbSpline
70
4
71
3
72
8
73
4
40
0
40
0
40
0
40
0
40
1
40
1
40
1
40
1
41
1
10
465.422403420497
20
-37.6353312887908
30
0
41
1
10
466.09299023905
20
-37.781747840985
30
0
41
1
10
466.763577082349
20
-37.9281642757223
30
0
41
1
10
467.434163970144
20
-38.07458049925
30
0
0
SPLINE
5
1C0
100
AcDbEntity
8
1
62
256
6
ByLayer
370
18
48
1
60
0
100
AcDbSpline
70
4
71
3
72
8
73
4
40
0
40
0
40
0
40
0
40
1
40
1
40
1
40
1
41
1
10
465.772108744596
20
-37.6353312887908
30
0
41
1
10
466.738393907731
20
-37.8532390287579
30
0
41
1
10
467.70467911964
20
-38.0711465296043
30
0
41
1
10
468.670964458604
20
-38.2890534075614
30
0
0
SPLINE
5
1C1
100
AcDbEntity
8
1
62
256
6
ByLayer
370
18
48
1
60
0
100
AcDbSpline
70
4
71
3
72
8
73
4
40
0
40
0
40
0
40
0
40
1
40
1
40
1
40
1
41
1
10
468.670964458604
20
-38.2890534075614
30
0
41
1
10
468.678685396913
20
-38.289075387577
30
0
41
1
10
468.686410828018
20
-38.289075387577
30
0
41
1
10
468.694140733183
20
-38.2890534075614
30
0
0
SPLINE
5
1C2
100
AcDbEntity
8
1
62
256
6
ByLayer
370
18
48
1
60
0
100
AcDbSpline
70
4
71
3
72
8
73
4
40
0
40
0
40
0
40
0
40
1
40
1
40
1
40
1
41
1
10
465.795285019174
20
-37.6353312887908
30
0
41
1
10
466.761570182309
20
-37.8532390287579
30
0
41
1
10
467.727855394219
20
-38.0711465296043
30
0
41
1
10
468.694140733183
20
-38.2890534075614
30
0
0
SPLINE
5
1C3
100
AcDbEntity
8
1
62
256
6
ByLayer
370
18
48
1
60
0
100
AcDbSpline
70
4
71
3
72
8
73
4
40
0
40
0
40
0
40
0
40
1
40
1
40
1
40
1
41
1
10
466.312938219604
20
-37.6353312887908
30
0
41
1
10
466.930644592158
20
-37.781747840985
30
0
41
1
10
467.548350987506
20
-37.9281642757223
30
0
41
1
10
468.166057423842
20
-38.07458049925
30
0
0
SPLINE
5
1C4
100
AcDbEntity
8
1
62
256
6
ByLayer
370
18
48
1
60
0
100
AcDbSpline
70
4
71
3
72
8
73
4
40
0
40
0
40
0
40
0
40
1
40
1
40
1
40
1
41
1
10
468.19799087071
20
-38.07458049925
30
0
41
1
10
468.187342564074
20
-38.0746002238944
30
0
41
1
10
468.176698074854
20
-38.0746002238944
30
0
41
1
10
468.166057423842
20
-38.07458049925
30
0
0
SPLINE
5
1C5
100
AcDbEntity
8
1
62
256
6
ByLayer
370
18
48
1
60
0
100
AcDbSpline
70
4
71
3
72
8
73
4
40
0
40
0
40
0
40
0
40
1
40
1
40
1
40
1
41
1
10
466.344871666471
20
-37.6353312887908
30
0
41
1
10
466.962578039026
20
-37.781747840985
30
0
41
1
10
467.580284434374
20
-37.9281642757223
30
0
41
1
10
468.19799087071
20
-38.07458049925
30
0
0
SPLINE
5
1C6
100
AcDbEntity
8
1
62
256
6
ByLayer
370
18
48
1
60
0
100
AcDbSpline
70
4
71
3
72
8
73
4
40
0
40
0
40
0
40
0
40
1
40
1
40
1
40
1
41
1
10
467.022309043029
20
-37.6353312887908
30
0
41
1
10
467.598713935751
20
-37.781747840985
30
0
41
1
10
468.175118849742
20
-37.9281642757223
30
0
41
1
10
468.751523801981
20
-38.07458049925
30
0
0
SPLINE
5
1C7
100
AcDbEntity
8
1
62
256
6
ByLayer
370
18
48
1
60
0
100
AcDbSpline
70
4
71
3
72
8
73
4
40
0
40
0
40
0
40
0
40
1
40
1
40
1
40
1
41
1
10
468.791710811604
20
-38.07458049925
30
0
41
1
10
468.778311574216
20
-38.0746002238944
30
0
41
1
10
468.764915895619
20
-38.0746002238944
30
0
41
1
10
468.751523801981
20
-38.07458049925
30
0
0
SPLINE
5
1C8
100
AcDbEntity
8
1
62
256
6
ByLayer
370
18
48
1
60
0
100
AcDbSpline
70
4
71
3
72
8
73
4
40
0
40
0
40
0
40
0
40
1
40
1
40
1
40
1
41
1
10
467.062496052653
20
-37.6353312887908
30
0
41
1
10
467.638900945374
20
-37.781747840985
30
0
41
1
10
468.215305859366
20
-37.9281642757223
30
0
41
1
10
468.791710811604
20
-38.07458049925
30
0
0
SPLINE
5
1C9
100
AcDbEntity
8
1
62
256
6
ByLayer
370
18
48
1
60
0
100
AcDbSpline
70
4
71
3
72
8
73
4
40
0
40
0
40
0
40
0
40
1
40
1
40
1
40
1
41
1
10
467.88903401323
20
-37.6353312887908
30
0
41
1
10
468.415047176633
20
-37.781747840985
30
0
41
1
10
468.941060359446
20
-37.9281642757223
30
0
41
1
10
469.467073577163
20
-38.07458049925
30
0
0
SPLINE
5
1CA
100
AcDbEntity
8
1
62
256
6
ByLayer
370
18
48
1
60
0
100
AcDbSpline
70
4
71
3
72
8
73
4
40
0
40
0
40
0
40
0
40
1
40
1
40
1
40
1
41
1
10
469.514880376394
20
-38.07458049925
30
0
41
1
10
469.498941522232
20
-38.0746002238944
30
0
41
1
10
469.483005912112
20
-38.0746002238944
30
0
41
1
10
469.467073577163
20
-38.07458049925
30
0
0
SPLINE
5
1CB
100
AcDbEntity
8
1
62
256
6
ByLayer
370
18
48
1
60
0
100
AcDbSpline
70
4
71
3
72
8
73
4
40
0
40
0
40
0
40
0
40
1
40
1
40
1
40
1
41
1
10
467.936840812461
20
-37.6353312887908
30
0
41
1
10
468.462853975864
20
-37.781747840985
30
0
41
1
10
468.988867158677
20
-37.9281642757223
30
0
41
1
10
469.514880376394
20
-38.07458049925
30
0
0
SPLINE
5
1CC
100
AcDbEntity
8
1
62
256
6
ByLayer
370
18
48
1
60
0
100
AcDbSpline
70
4
71
3
72
8
73
4
40
0
40
0
40
0
40
0
40
1
40
1
40
1
40
1
41
1
10
468.89944435967
20
-37.6353312887908
30
0
41
1
10
469.366770251942
20
-37.781747840985
30
0
41
1
10
469.834096161459
20
-37.9281642757223
30
0
41
1
10
470.301422101985
20
-38.07458049925
30
0
0
SPLINE
5
1CD
100
AcDbEntity
8
1
62
256
6
ByLayer
370
18
48
1
60
0
100
AcDbSpline
70
4
71
3
72
8
73
4
40
0
40
0
40
0
40
0
40
1
40
1
40
1
40
1
41
1
10
470.356094749042
20
-38.07458049925
30
0
41
1
10
470.337867643358
20
-38.0746002238944
30
0
41
1
10
470.319643415805
20
-38.0746002238944
30
0
41
1
10
470.301422101985
20
-38.07458049925
30
0
0
SPLINE
5
1CE
100
AcDbEntity
8
1
62
256
6
ByLayer
370
18
48
1
60
0
100
AcDbSpline
70
4
71
3
72
8
73
4
40
0
40
0
40
0
40
0
40
1
40
1
40
1
40
1
41
1
10
468.954117006726
20
-37.6353312887908
30
0
41
1
10
469.421442898999
20
-37.781747840985
30
0
41
1
10
469.888768808516
20
-37.9281642757223
30
0
41
1
10
470.356094749042
20
-38.07458049925
30
0
0
SPLINE
5
1CF
100
AcDbEntity
8
1
62
256
6
ByLayer
370
18
48
1
60
0
100
AcDbSpline
70
4
71
3
72
8
73
4
40
0
40
0
40
0
40
0
40
1
40
1
40
1
40
1
41
1
10
470.037605307594
20
-37.6353312887908
30
0
41
1
10
470.634802381236
20
-37.8532390287579
30
0
41
1
10
471.231999485023
20
-38.0711465296043
30
0
41
1
10
471.829196667334
20
-38.2890534075614
30
0
0
SPLINE
5
1D0
100
AcDbEntity
8
1
62
256
6
ByLayer
370
18
48
1
60
0
100
AcDbSpline
70
4
71
3
72
8
73
4
40
0
40
0
40
0
40
0
40
1
40
1
40
1
40
1
41
1
10
471.829196667334
20
-38.2890534075614
30
0
41
1
10
471.849419313105
20
-38.289075387577
30
0
41
1
10
471.869644754318
20
-38.289075387577
30
0
41
1
10
471.889872941912
20
-38.2890534075614
30
0
0
SPLINE
5
1D1
100
AcDbEntity
8
1
62
256
6
ByLayer
370
18
48
1
60
0
100
AcDbSpline
70
4
71
3
72
8
73
4
40
0
40
0
40
0
40
0
40
1
40
1
40
1
40
1
41
1
10
470.098281582173
20
-37.6353312887908
30
0
41
1
10
470.695478655815
20
-37.8532390287579
30
0
41
1
10
471.292675759601
20
-38.0711465296043
30
0
41
1
10
471.889872941912
20
-38.2890534075614
30
0
0
SPLINE
5
1D2
100
AcDbEntity
8
1
62
256
6
ByLayer
370
18
48
1
60
0
100
AcDbSpline
70
4
71
3
72
8
73
4
40
0
40
0
40
0
40
0
40
1
40
1
40
1
40
1
41
1
10
471.285567378952
20
-37.6353312887908
30
0
41
1
10
471.614450466259
20
-37.781747840985
30
0
41
1
10
471.943333565702
20
-37.9281642757223
30
0
41
1
10
472.272216686968
20
-38.07458049925
30
0
0
SPLINE
5
1D3
100
AcDbEntity
8
1
62
256
6
ByLayer
370
18
48
1
60
0
100
AcDbSpline
70
4
71
3
72
8
73
4
40
0
40
0
40
0
40
0
40
1
40
1
40
1
40
1
41
1
10
472.337939687971
20
-38.07458049925
30
0
41
1
10
472.316029990075
20
-38.0746002238944
30
0
41
1
10
472.294122308809
20
-38.0746002238944
30
0
41
1
10
472.272216686968
20
-38.07458049925
30
0
0
SPLINE
5
1D4
100
AcDbEntity
8
1
62
256
6
ByLayer
370
18
48
1
60
0
100
AcDbSpline
70
4
71
3
72
8
73
4
40
0
40
0
40
0
40
0
40
1
40
1
40
1
40
1
41
1
10
471.351290379955
20
-37.6353312887908
30
0
41
1
10
471.680173467262
20
-37.781747840985
30
0
41
1
10
472.009056566705
20
-37.9281642757223
30
0
41
1
10
472.337939687971
20
-38.07458049925
30
0
0
SPLINE
5
1D5
100
AcDbEntity
8
1
62
256
6
ByLayer
370
18
48
1
60
0
100
AcDbSpline
70
4
71
3
72
8
73
4
40
0
40
0
40
0
40
0
40
1
40
1
40
1
40
1
41
1
10
472.623649466379
20
-37.6353312887908
30
0
41
1
10
472.874960345588
20
-37.781747840985
30
0
41
1
10
473.12627123407
20
-37.9281642757223
30
0
41
1
10
473.377582139228
20
-38.07458049925
30
0
0
SPLINE
5
1D6
100
AcDbEntity
8
1
62
256
6
ByLayer
370
18
48
1
60
0
100
AcDbSpline
70
4
71
3
72
8
73
4
40
0
40
0
40
0
40
0
40
1
40
1
40
1
40
1
41
1
10
473.44731537567
20
-38.07458049925
30
0
41
1
10
473.424069413763
20
-38.0746002238944
30
0
41
1
10
473.400824986481
20
-38.0746002238944
30
0
41
1
10
473.377582139228
20
-38.07458049925
30
0
0
SPLINE
5
1D7
100
AcDbEntity
8
1
62
256
6
ByLayer
370
18
48
1
60
0
100
AcDbSpline
70
4
71
3
72
8
73
4
40
0
40
0
40
0
40
0
40
1
40
1
40
1
40
1
41
1
10
472.693382702821
20
-37.6353312887908
30
0
41
1
10
472.94469358203
20
-37.781747840985
30
0
41
1
10
473.196004470512
20
-37.9281642757223
30
0
41
1
10
473.44731537567
20
-38.07458049925
30
0
0
SPLINE
5
1D8
100
AcDbEntity
8
1
62
256
6
ByLayer
370
18
48
1
60
0
100
AcDbSpline
70
4
71
3
72
8
73
4
40
0
40
0
40
0
40
0
40
1
40
1
40
1
40
1
41
1
10
474.030749216027
20
-37.6353312887908
30
0
41
1
10
474.200524564446
20
-37.781747840985
30
0
41
1
10
474.37029991913
20
-37.9281642757223
30
0
41
1
10
474.54007528508
20
-38.07458049925
30
0
0
SPLINE
5
1D9
100
AcDbEntity
8
1
62
256
6
ByLayer
370
18
48
1
60
0
100
AcDbSpline
70
4
71
3
72
8
73
4
40
0
40
0
40
0
40
0
40
1
40
1
40
1
40
1
41
1
10
474.612719022164
20
-38.07458049925
30
0
41
1
10
474.588503398953
20
-38.0746002238944
30
0
41
1
10
474.564288804158
20
-38.0746002238944
30
0
41
1
10
474.54007528508
20
-38.07458049925
30
0
0
SPLINE
5
1DA
100
AcDbEntity
8
1
62
256
6
ByLayer
370
18
48
1
60
0
100
AcDbSpline
70
4
71
3
72
8
73
4
40
0
40
0
40
0
40
0
40
1
40
1
40
1
40
1
41
1
10
474.103392953112
20
-37.6353312887908
30
0
41
1
10
474.273168301531
20
-37.781747840985
30
0
41
1
10
474.442943656215
20
-37.9281642757223
30
0
41
1
10
474.612719022165
20
-38.07458049925
30
0
0
SPLINE
5
1DB
100
AcDbEntity
8
1
62
256
6
ByLayer
370
18
48
1
60
0
100
AcDbSpline
70
4
71
3
72
8
73
4
40
0
40
0
40
0
40
0
40
1
40
1
40
1
40
1
41
1
10
475.484675824282
20
-37.6353312887908
30
0
41
1
10
475.570238183249
20
-37.781747840985
30
0
41
1
10
475.655800545372
20
-37.9281642757223
30
0
41
1
10
475.741362913174
20
-38.07458049925
30
0
0
SPLINE
5
1DC
100
AcDbEntity
8
1
62
256
6
ByLayer
370
18
48
1
60
0
100
AcDbSpline
70
4
71
3
72
8
73
4
40
0
40
0
40
0
40
0
40
1
40
1
40
1
40
1
41
1
10
475.815771515772
20
-38.07458049925
30
0
41
1
10
475.7909681261
20
-38.0746002238944
30
0
41
1
10
475.766165242417
20
-38.0746002238944
30
0
41
1
10
475.741362913174
20
-38.07458049925
30
0
0
SPLINE
5
1DD
100
AcDbEntity
8
1
62
256
6
ByLayer
370
18
48
1
60
0
100
AcDbSpline
70
4
71
3
72
8
73
4
40
0
40
0
40
0
40
0
40
1
40
1
40
1
40
1
41
1
10
475.559084426881
20
-37.6353312887908
30
0
41
1
10
475.644646785847
20
-37.781747840985
30
0
41
1
10
475.730209147971
20
-37.9281642757223
30
0
41
1
10
475.815771515772
20
-38.07458049925
30
0
0
SPLINE
5
1DE
100
AcDbEntity
8
1
62
256
6
ByLayer
370
18
48
1
60
0
100
AcDbSpline
70
4
71
3
72
8
73
4
40
0
40
0
40
0
40
0
40
1
40
1
40
1
40
1
41
1
10
476.9625
20
-38.2890534075614
30
0
41
1
10
476.987499989893
20
-38.289075387577
30
0
41
1
10
477.012500010107
20
-38.289075387577
30
0
41
1
10
477.0375
20
-38.2890534075614
30
0
0
SPLINE
5
1DF
100
AcDbEntity
8
1
62
256
6
ByLayer
370
18
48
1
60
0
100
AcDbSpline
70
4
71
3
72
8
73
4
40
0
40
0
40
0
40
0
40
1
40
1
40
1
40
1
41
1
10
478.440915573119
20
-37.6353312887908
30
0
41
1
10
478.355353214153
20
-37.781747840985
30
0
41
1
10
478.269790852029
20
-37.9281642757223
30
0
41
1
10
478.184228484228
20
-38.07458049925
30
0
0
SPLINE
5
1E0
100
AcDbEntity
8
1
62
256
6
ByLayer
370
18
48
1
60
0
100
AcDbSpline
70
4
71
3
72
8
73
4
40
0
40
0
40
0
40
0
40
1
40
1
40
1
40
1
41
1
10
478.258637086827
20
-38.07458049925
30
0
41
1
10
478.233834757583
20
-38.0746002238944
30
0
41
1
10
478.2090318739
20
-38.0746002238944
30
0
41
1
10
478.184228484228
20
-38.07458049925
30
0
0
SPLINE
5
1E1
100
AcDbEntity
8
1
62
256
6
ByLayer
370
18
48
1
60
0
100
AcDbSpline
70
4
71
3
72
8
73
4
40
0
40
0
40
0
40
0
40
1
40
1
40
1
40
1
41
1
10
478.515324175718
20
-37.6353312887908
30
0
41
1
10
478.429761816751
20
-37.781747840985
30
0
41
1
10
478.344199454628
20
-37.9281642757223
30
0
41
1
10
478.258637086827
20
-38.07458049925
30
0
0
SPLINE
5
1E2
100
AcDbEntity
8
1
62
256
6
ByLayer
370
18
48
1
60
0
100
AcDbSpline
70
4
71
3
72
10
73
6
40
0
40
0
40
0
40
0
40
0.876183133825516
40
0.876183133825516
40
1
40
1
40
1
40
1
41
1
10
476.9625
20
-37.6353312887908
30
0
41
1
10
476.9625
20
-37.82625837528
30
0
41
1
10
476.9625
20
-38.0171852707221
30
0
41
1
10
476.9625
20
-38.2350923038532
30
0
41
1
10
476.9625
20
-38.2620728608149
30
0
41
1
10
476.9625
20
-38.2890534075614
30
0
0
SPLINE
5
1E3
100
AcDbEntity
8
1
62
256
6
ByLayer
370
18
48
1
60
0
100
AcDbSpline
70
4
71
3
72
10
73
6
40
0
40
0
40
0
40
0
40
0.876183133825516
40
0.876183133825516
40
1
40
1
40
1
40
1
41
1
10
477.0375
20
-37.6353312887908
30
0
41
1
10
477.0375
20
-37.82625837528
30
0
41
1
10
477.0375
20
-38.0171852707221
30
0
41
1
10
477.0375
20
-38.2350923038532
30
0
41
1
10
477.0375
20
-38.2620728608149
30
0
41
1
10
477.0375
20
-38.2890534075614
30
0
0
SPLINE
5
1E4
100
AcDbEntity
8
1
62
256
6
ByLayer
370
18
48
1
60
0
100
AcDbSpline
70
4
71
3
72
23
73
19
40
0
40
0
40
0
40
0
40
0.124999999999573
40
0.124999999999573
40
0.18749999999952
40
0.18749999999952
40
0.249999999999467
40
0.249999999999467
40
0.374999999999361
40
0.374999999999361
40
0.499999999999256
40
0.499999999999256
40
0.62499999999915
40
0.687499999999198
40
0.687499999999198
40
0.749999999999245
40
0.749999999999245
40
1
40
1
40
1
40
1
41
1
10
497.693168684232
20
43.1060112824977
30
0
41
1
10
497.692810181572
20
43.095486207904
30
0
41
1
10
497.691562125909
20
43.085069726889
30
0
41
1
10
497.688357309482
20
43.0696078393502
30
0
41
1
10
497.687056538089
20
43.0644525727008
30
0
41
1
10
497.684043297294
20
43.0543557859566
30
0
41
1
10
497.682336563987
20
43.0494221739706
30
0
41
1
10
497.676644705992
20
43.0349499321912
30
0
41
1
10
497.672091610757
20
43.0257377248941
30
0
41
1
10
497.661518853645
20
43.00816118344
30
0
41
1
10
497.655448385431
20
42.9997646083142
30
0
41
1
10
497.642391282468
20
42.9844847349321
30
0
41
1
10
497.631839347458
20
42.9740145382641
30
0
41
1
10
497.620226935468
20
42.9649452456119
30
0
41
1
10
497.612249726979
20
42.9592124522357
30
0
41
1
10
497.608131321426
20
42.9564965277453
30
0
41
1
10
497.587322389658
20
42.9439195790611
30
0
41
1
10
497.569754928381
20
42.9368040151668
30
0
41
1
10
497.551388701789
20
42.9324027286125
30
0
0
SPLINE
5
1E5
100
AcDbEntity
8
1
62
256
6
ByLayer
370
18
48
1
60
0
100
AcDbSpline
70
4
71
3
72
24
73
20
40
0
40
0
40
0
40
0
40
0.124999999999961
40
0.124999999999961
40
0.249999999999922
40
0.249999999999922
40
0.312499999999782
40
0.312499999999782
40
0.374999999999643
40
0.374999999999643
40
0.499999999999714
40
0.499999999999714
40
0.624999999999786
40
0.624999999999786
40
0.749999999999857
40
0.749999999999857
40
0.874999999999929
40
0.874999999999929
40
1
40
1
40
1
40
1
41
1
10
497.143887391293
20
42.2269774632515
30
0
41
1
10
497.153155383767
20
42.2318951470835
30
0
41
1
10
497.162145661243
20
42.2377013450742
30
0
41
1
10
497.17871675376
20
42.2505312729591
30
0
41
1
10
497.186373482202
20
42.2575773027446
30
0
41
1
10
497.196933747778
20
42.2690726256101
30
0
41
1
10
497.200314052022
20
42.2730805063465
30
0
41
1
10
497.206662740637
20
42.281285262794
30
0
41
1
10
497.209634969695
20
42.28548221555
30
0
41
1
10
497.217971670588
20
42.2983432200474
30
0
41
1
10
497.222759789809
20
42.3072757758339
30
0
41
1
10
497.230837669218
20
42.3258311301368
30
0
41
1
10
497.234065351733
20
42.3353361273147
30
0
41
1
10
497.238907658462
20
42.3544088229976
30
0
41
1
10
497.240545888487
20
42.3640318836445
30
0
41
1
10
497.24230075744
20
42.3834352515952
30
0
41
1
10
497.242399125398
20
42.3930601188688
30
0
41
1
10
497.241155814545
20
42.4119871925509
30
0
41
1
10
497.239816027974
20
42.4213181224842
30
0
41
1
10
497.237773472417
20
42.4305134482145
30
0
0
SPLINE
5
1E6
100
AcDbEntity
8
1
62
256
6
ByLayer
370
18
48
1
60
0
100
AcDbSpline
70
4
71
3
72
16
73
12
40
0
40
0
40
0
40
0
40
0.250000000000254
40
0.250000000000254
40
0.500000000000508
40
0.500000000000508
40
0.625000000000482
40
0.625000000000482
40
0.750000000000455
40
0.750000000000455
40
1
40
1
40
1
40
1
41
1
10
497.237773472417
20
42.4305134482145
30
0
41
1
10
497.232644808486
20
42.4536020419324
30
0
41
1
10
497.229412373269
20
42.4772624818674
30
0
41
1
10
497.227052075094
20
42.5257183577349
30
0
41
1
10
497.227934553856
20
42.5501389037888
30
0
41
1
10
497.232609878276
20
42.5871965943991
30
0
41
1
10
497.234732281704
20
42.5996280037041
30
0
41
1
10
497.24019954946
20
42.6246408356137
30
0
41
1
10
497.243499507002
20
42.6370166268622
30
0
41
1
10
497.25512017272
20
42.6737625912457
30
0
41
1
10
497.265142505034
20
42.6977568593043
30
0
41
1
10
497.277704666686
20
42.7212184649814
30
0
0
SPLINE
5
1E7
100
AcDbEntity
8
1
62
256
6
ByLayer
370
18
48
1
60
0
100
AcDbSpline
70
4
71
3
72
18
73
14
40
0
40
0
40
0
40
0
40
0.124999999999828
40
0.124999999999828
40
0.249999999999655
40
0.249999999999655
40
0.499999999999859
40
0.499999999999859
40
0.624999999999894
40
0.624999999999894
40
0.749999999999929
40
0.749999999999929
40
1
40
1
40
1
40
1
41
1
10
497.307609446914
20
42.7690761173647
30
0
41
1
10
497.315407560074
20
42.7798750144736
30
0
41
1
10
497.323660621492
20
42.7902292691819
30
0
41
1
10
497.341053173992
20
42.8100759434397
30
0
41
1
10
497.350163011589
20
42.8195253100254
30
0
41
1
10
497.378241155618
20
42.8461224992845
30
0
41
1
10
497.398109808003
20
42.8617230792987
30
0
41
1
10
497.429560912538
20
42.8822511952845
30
0
41
1
10
497.440305304394
20
42.8885925777467
30
0
41
1
10
497.461908009456
20
42.9001168213815
30
0
41
1
10
497.472820597781
20
42.9053362598789
30
0
41
1
10
497.505897634254
20
42.9194770516102
30
0
41
1
10
497.528399763552
20
42.9268936544289
30
0
41
1
10
497.551388701789
20
42.9324027286125
30
0
0
SPLINE
5
1E8
100
AcDbEntity
8
1
62
256
6
ByLayer
370
18
48
1
60
0
100
AcDbSpline
70
4
71
3
72
24
73
20
40
0
40
0
40
0
40
0
40
0.124999999999951
40
0.124999999999951
40
0.249999999999901
40
0.249999999999901
40
0.312499999999877
40
0.312499999999877
40
0.374999999999852
40
0.374999999999852
40
0.499999999999882
40
0.499999999999882
40
0.624999999999911
40
0.624999999999911
40
0.749999999999941
40
0.749999999999941
40
0.87499999999997
40
0.87499999999997
40
1
40
1
40
1
40
1
41
1
10
496.173649744548
20
44.0555120975522
30
0
41
1
10
496.164381752074
20
44.0505944137202
30
0
41
1
10
496.155391474598
20
44.0447882157296
30
0
41
1
10
496.138820382081
20
44.0319582878446
30
0
41
1
10
496.131163653639
20
44.0249122580591
30
0
41
1
10
496.120603388063
20
44.0134169351937
30
0
41
1
10
496.11722308382
20
44.0094090544572
30
0
41
1
10
496.110874395204
20
44.0012042980096
30
0
41
1
10
496.107902166146
20
43.9970073452537
30
0
41
1
10
496.099565465253
20
43.9841463407563
30
0
41
1
10
496.094777346032
20
43.9752137849697
30
0
41
1
10
496.086699466623
20
43.956658430667
30
0
41
1
10
496.083471784109
20
43.9471534334889
30
0
41
1
10
496.078629477379
20
43.9280807378062
30
0
41
1
10
496.076991247354
20
43.9184576771594
30
0
41
1
10
496.075236378401
20
43.8990543092087
30
0
41
1
10
496.075138010443
20
43.8894294419351
30
0
41
1
10
496.076381321296
20
43.8705023682529
30
0
41
1
10
496.077721107867
20
43.8611714383196
30
0
41
1
10
496.079763663424
20
43.8519761125894
30
0
0
SPLINE
5
1E9
100
AcDbEntity
8
1
62
256
6
ByLayer
370
18
48
1
60
0
100
AcDbSpline
70
4
71
3
72
16
73
12
40
0
40
0
40
0
40
0
40
0.249999999999807
40
0.249999999999807
40
0.499999999999615
40
0.499999999999615
40
0.624999999999672
40
0.624999999999672
40
0.74999999999973
40
0.74999999999973
40
1
40
1
40
1
40
1
41
1
10
496.079763663424
20
43.8519761125891
30
0
41
1
10
496.084892327355
20
43.8288875188713
30
0
41
1
10
496.088124762572
20
43.8052270789355
30
0
41
1
10
496.090485060746
20
43.7567712030691
30
0
41
1
10
496.089602581985
20
43.7323506570154
30
0
41
1
10
496.084927257565
20
43.6952929664048
30
0
41
1
10
496.082804854137
20
43.682861557099
30
0
41
1
10
496.077337586381
20
43.6578487251902
30
0
41
1
10
496.074037628839
20
43.6454729339422
30
0
41
1
10
496.062416963121
20
43.6087269695591
30
0
41
1
10
496.052394630807
20
43.5847327015002
30
0
41
1
10
496.039832469156
20
43.5612710958223
30
0
0
SPLINE
5
1EA
100
AcDbEntity
8
1
62
256
6
ByLayer
370
18
48
1
60
0
100
AcDbSpline
70
4
71
3
72
18
73
14
40
0
40
0
40
0
40
0
40
0.125000000000158
40
0.125000000000158
40
0.250000000000316
40
0.250000000000316
40
0.500000000000455
40
0.500000000000455
40
0.625000000000318
40
0.625000000000318
40
0.750000000000181
40
0.750000000000181
40
1
40
1
40
1
40
1
41
1
10
496.009927688927
20
43.513413443439
30
0
41
1
10
496.002129575767
20
43.5026145463303
30
0
41
1
10
495.993876514349
20
43.492260291622
30
0
41
1
10
495.976483961849
20
43.4724136173642
30
0
41
1
10
495.967374124253
20
43.4629642507785
30
0
41
1
10
495.939295980223
20
43.4363670615193
30
0
41
1
10
495.919427327839
20
43.4207664815051
30
0
41
1
10
495.887976223304
20
43.4002383655192
30
0
41
1
10
495.877231831447
20
43.3938969830571
30
0
41
1
10
495.855629126385
20
43.3823727394222
30
0
41
1
10
495.84471653806
20
43.3771533009249
30
0
41
1
10
495.811639501587
20
43.3630125091935
30
0
41
1
10
495.789137372289
20
43.3555959063748
30
0
41
1
10
495.766148434052
20
43.3500868321912
30
0
0
SPLINE
5
1EB
100
AcDbEntity
8
1
62
256
6
ByLayer
370
18
48
1
60
0
100
AcDbSpline
70
4
71
3
72
23
73
19
40
0
40
0
40
0
40
0
40
0.125000000000466
40
0.125000000000466
40
0.187500000000539
40
0.187500000000539
40
0.250000000000612
40
0.250000000000612
40
0.375000000000757
40
0.375000000000757
40
0.500000000000902
40
0.500000000000902
40
0.625000000001047
40
0.68750000000102
40
0.68750000000102
40
0.750000000000992
40
0.750000000000992
40
1
40
1
40
1
40
1
41
1
10
495.624368451609
20
43.1764782783061
30
0
41
1
10
495.624726954269
20
43.1870033528997
30
0
41
1
10
495.625975009932
20
43.1974198339147
30
0
41
1
10
495.629179826359
20
43.2128817214534
30
0
41
1
10
495.630480597752
20
43.2180369881028
30
0
41
1
10
495.633493838547
20
43.2281337748471
30
0
41
1
10
495.635200571854
20
43.233067386833
30
0
41
1
10
495.640892429849
20
43.2475396286125
30
0
41
1
10
495.645445525084
20
43.2567518359096
30
0
41
1
10
495.656018282196
20
43.2743283773638
30
0
41
1
10
495.66208875041
20
43.2827249524894
30
0
41
1
10
495.675145853373
20
43.2980048258716
30
0
41
1
10
495.685697788383
20
43.3084750225396
30
0
41
1
10
495.697310200373
20
43.3175443151919
30
0
41
1
10
495.705287408862
20
43.323277108568
30
0
41
1
10
495.709405814415
20
43.3259930330584
30
0
41
1
10
495.730214746183
20
43.3385699817426
30
0
41
1
10
495.74778220746
20
43.3456855456369
30
0
41
1
10
495.766148434052
20
43.3500868321912
30
0
0
SPLINE
5
1EC
100
AcDbEntity
8
1
62
256
6
ByLayer
370
18
48
1
60
0
100
AcDbSpline
70
4
71
3
72
24
73
20
40
0
40
0
40
0
40
0
40
0.124999999999597
40
0.124999999999597
40
0.249999999999194
40
0.249999999999194
40
0.312499999998993
40
0.312499999998993
40
0.374999999998791
40
0.374999999998791
40
0.499999999999033
40
0.499999999999033
40
0.624999999999275
40
0.624999999999275
40
0.749999999999517
40
0.749999999999517
40
0.874999999999758
40
0.874999999999758
40
1
40
1
40
1
40
1
41
1
10
497.207235006402
20
44.0189745599237
30
0
41
1
10
497.198363221655
20
44.0245182663088
30
0
41
1
10
497.188864720731
20
44.0293809163643
30
0
41
1
10
497.169520356554
20
44.0372873362878
30
0
41
1
10
497.159618086582
20
44.0403850399893
30
0
41
1
10
497.144427975905
20
44.0437746822
30
0
41
1
10
497.139282610912
20
44.0446967180449
30
0
41
1
10
497.12903027178
20
44.0460925172235
30
0
41
1
10
497.123923344161
20
44.0465692151925
30
0
41
1
10
497.108658830405
20
44.0473653070408
30
0
41
1
10
497.098557119851
20
44.0470546255297
30
0
41
1
10
497.078505526302
20
44.044800302782
30
0
41
1
10
497.06867835517
20
44.0428598480042
30
0
41
1
10
497.049780848336
20
44.0375583852698
30
0
41
1
10
497.040647476251
20
44.0341899792989
30
0
41
1
10
497.023002690308
20
44.0260654484784
30
0
41
1
10
497.014622042911
20
44.0213638905634
30
0
41
1
10
496.998864890347
20
44.0108832071674
30
0
41
1
10
496.991457591596
20
44.0050892363288
30
0
41
1
10
496.984516234688
20
43.9987567015014
30
0
0
SPLINE
5
1ED
100
AcDbEntity
8
1
62
256
6
ByLayer
370
18
48
1
60
0
100
AcDbSpline
70
4
71
3
72
32
73
28
40
0
40
0
40
0
40
0
40
0.0624999999999705
40
0.0624999999999705
40
0.124999999999941
40
0.124999999999941
40
0.24999999999994
40
0.24999999999994
40
0.312499999999812
40
0.312499999999812
40
0.374999999999685
40
0.374999999999685
40
0.437499999999557
40
0.437499999999557
40
0.499999999999429
40
0.562499999999302
40
0.593749999999349
40
0.593749999999349
40
0.624999999999397
40
0.624999999999397
40
0.749999999999587
40
0.749999999999587
40
0.812499999999707
40
0.812499999999707
40
0.874999999999826
40
0.874999999999826
40
1
40
1
40
1
40
1
41
1
10
496.984516234688
20
43.9987567015014
30
0
41
1
10
496.975019134833
20
43.9900925863454
30
0
41
1
10
496.965091806132
20
43.981828897788
30
0
41
1
10
496.944328886255
20
43.9661207885598
30
0
41
1
10
496.933532741283
20
43.9587101124972
30
0
41
1
10
496.900097558672
20
43.9379910664821
30
0
41
1
10
496.876336010865
20
43.9261026951492
30
0
41
1
10
496.838053055513
20
43.9114651566652
30
0
41
1
10
496.824787877878
20
43.9071144042255
30
0
41
1
10
496.797916711411
20
43.899770714674
30
0
41
1
10
496.784247101775
20
43.8967475992727
30
0
41
1
10
496.756407150559
20
43.8920492752706
30
0
41
1
10
496.742198554267
20
43.8903712650956
30
0
41
1
10
496.713392517091
20
43.8884768401796
30
0
41
1
10
496.684738369152
20
43.8880726314102
30
0
41
1
10
496.649288501022
20
43.8911620818738
30
0
41
1
10
496.628182745064
20
43.8946267488117
30
0
41
1
10
496.614148972436
20
43.8972989860481
30
0
41
1
10
496.60712647395
20
43.8988228333187
30
0
41
1
10
496.572596426477
20
43.9072346793867
30
0
41
1
10
496.546546814602
20
43.9164981396855
30
0
41
1
10
496.509457624241
20
43.9337856754086
30
0
41
1
10
496.497370724485
20
43.9401586037068
30
0
41
1
10
496.474277448407
20
43.9537699097511
30
0
41
1
10
496.463233108861
20
43.9610180233163
30
0
41
1
10
496.431466513145
20
43.9840145079631
30
0
41
1
10
496.412096360989
20
44.0010041945173
30
0
41
1
10
496.394384942872
20
44.019618013167
30
0
0
SPLINE
5
1EE
100
AcDbEntity
8
1
62
256
6
ByLayer
370
18
48
1
60
0
100
AcDbSpline
70
4
71
3
72
24
73
20
40
0
40
0
40
0
40
0
40
0.125000000000867
40
0.125000000000867
40
0.187500000000937
40
0.187500000000937
40
0.250000000001007
40
0.250000000001007
40
0.375000000001147
40
0.375000000001147
40
0.500000000001287
40
0.500000000001287
40
0.625000000001427
40
0.625000000001427
40
0.687500000001204
40
0.687500000001204
40
0.750000000000981
40
0.750000000000981
40
1
40
1
40
1
40
1
41
1
10
496.173649744548
20
44.0555120975522
30
0
41
1
10
496.18292356428
20
44.0604328733825
30
0
41
1
10
496.19254731249
20
44.0645349292326
30
0
41
1
10
496.207507962475
20
44.0694592849086
30
0
41
1
10
496.212612537392
20
44.0709011280467
30
0
41
1
10
496.222832491739
20
44.0733218239691
30
0
41
1
10
496.2279435435
20
44.0743031190226
30
0
41
1
10
496.243279176073
20
44.0765917580578
30
0
41
1
10
496.253506262878
20
44.0772480870037
30
0
41
1
10
496.273962652597
20
44.0768750936448
30
0
41
1
10
496.28424028682
20
44.0758183441993
30
0
41
1
10
496.303947071416
20
44.072163856592
30
0
41
1
10
496.313485323661
20
44.0695723810965
30
0
41
1
10
496.327341889643
20
44.0646111372394
30
0
41
1
10
496.331885224504
20
44.0627774545501
30
0
41
1
10
496.340820195584
20
44.058752039036
30
0
41
1
10
496.3452219438
20
44.0565529063835
30
0
41
1
10
496.366473414743
20
44.0448722004814
30
0
41
1
10
496.381398353784
20
44.0332662717403
30
0
41
1
10
496.394384942872
20
44.019618013167
30
0
0
SPLINE
5
1EF
100
AcDbEntity
8
1
62
256
6
ByLayer
370
18
48
1
60
0
100
AcDbSpline
70
4
71
3
72
24
73
20
40
0
40
0
40
0
40
0
40
0.124999999999651
40
0.124999999999651
40
0.18749999999984
40
0.18749999999984
40
0.250000000000029
40
0.250000000000029
40
0.375000000000357
40
0.375000000000357
40
0.500000000000686
40
0.500000000000686
40
0.625000000001014
40
0.625000000001014
40
0.687500000000885
40
0.687500000000885
40
0.750000000000757
40
0.750000000000757
40
1
40
1
40
1
40
1
41
1
10
497.143887391293
20
42.2269774632515
30
0
41
1
10
497.134613571561
20
42.2220566874211
30
0
41
1
10
497.124989823351
20
42.2179546315711
30
0
41
1
10
497.110029173366
20
42.213030275895
30
0
41
1
10
497.104924598449
20
42.2115884327569
30
0
41
1
10
497.094704644102
20
42.2091677368346
30
0
41
1
10
497.089593592341
20
42.2081864417812
30
0
41
1
10
497.074257959768
20
42.2058978027459
30
0
41
1
10
497.064030872963
20
42.2052414738
30
0
41
1
10
497.043574483244
20
42.2056144671589
30
0
41
1
10
497.033296849021
20
42.2066712166044
30
0
41
1
10
497.013590064425
20
42.2103257042116
30
0
41
1
10
497.00405181218
20
42.2129171797071
30
0
41
1
10
496.990195246198
20
42.2178784235644
30
0
41
1
10
496.985651911337
20
42.2197121062536
30
0
41
1
10
496.976716940257
20
42.2237375217677
30
0
41
1
10
496.972315192041
20
42.2259366544203
30
0
41
1
10
496.951063721098
20
42.2376173603225
30
0
41
1
10
496.936138782057
20
42.2492232890633
30
0
41
1
10
496.923152192969
20
42.2628715476367
30
0
0
SPLINE
5
1F0
100
AcDbEntity
8
1
62
256
6
ByLayer
370
18
48
1
60
0
100
AcDbSpline
70
4
71
3
72
24
73
20
40
0
40
0
40
0
40
0
40
0.125000000000881
40
0.125000000000881
40
0.250000000001762
40
0.250000000001762
40
0.312500000001884
40
0.312500000001884
40
0.375000000002006
40
0.375000000002006
40
0.500000000001604
40
0.500000000001604
40
0.625000000001203
40
0.625000000001203
40
0.750000000000802
40
0.750000000000802
40
0.875000000000401
40
0.875000000000401
40
1
40
1
40
1
40
1
41
1
10
496.110302129439
20
42.2635150008799
30
0
41
1
10
496.119173914186
20
42.2579712944948
30
0
41
1
10
496.12867241511
20
42.2531086444394
30
0
41
1
10
496.148016779287
20
42.2452022245159
30
0
41
1
10
496.157919049259
20
42.2421045208144
30
0
41
1
10
496.173109159936
20
42.2387148786037
30
0
41
1
10
496.178254524929
20
42.2377928427588
30
0
41
1
10
496.188506864062
20
42.2363970435801
30
0
41
1
10
496.19361379168
20
42.2359203456112
30
0
41
1
10
496.208878305436
20
42.2351242537628
30
0
41
1
10
496.21898001599
20
42.235434935274
30
0
41
1
10
496.239031609539
20
42.2376892580218
30
0
41
1
10
496.248858780671
20
42.2396297127996
30
0
41
1
10
496.267756287505
20
42.2449311755338
30
0
41
1
10
496.27688965959
20
42.2482995815046
30
0
41
1
10
496.294534445533
20
42.2564241123253
30
0
41
1
10
496.302915092929
20
42.2611256702403
30
0
41
1
10
496.318672245494
20
42.2716063536363
30
0
41
1
10
496.326079544245
20
42.2774003244749
30
0
41
1
10
496.333020901153
20
42.2837328593023
30
0
0
SPLINE
5
1F1
100
AcDbEntity
8
1
62
256
6
ByLayer
370
18
48
1
60
0
100
AcDbSpline
70
4
71
3
72
32
73
28
40
0
40
0
40
0
40
0
40
0.0625000000001921
40
0.0625000000001921
40
0.125000000000384
40
0.125000000000384
40
0.250000000000827
40
0.250000000000827
40
0.312500000000921
40
0.312500000000921
40
0.375000000001015
40
0.375000000001015
40
0.437500000001109
40
0.437500000001109
40
0.500000000001203
40
0.562500000001297
40
0.593750000001216
40
0.593750000001216
40
0.625000000001135
40
0.625000000001135
40
0.75000000000081
40
0.75000000000081
40
0.812500000000624
40
0.812500000000624
40
0.875000000000438
40
0.875000000000438
40
1
40
1
40
1
40
1
41
1
10
496.333020901153
20
42.2837328593023
30
0
41
1
10
496.342518001008
20
42.2923969744583
30
0
41
1
10
496.352445329709
20
42.3006606630156
30
0
41
1
10
496.373208249586
20
42.3163687722439
30
0
41
1
10
496.384004394558
20
42.3237794483065
30
0
41
1
10
496.417439577169
20
42.3444984943216
30
0
41
1
10
496.441201124976
20
42.3563868656544
30
0
41
1
10
496.479484080328
20
42.3710244041384
30
0
41
1
10
496.492749257962
20
42.375375156578
30
0
41
1
10
496.51962042443
20
42.3827188461297
30
0
41
1
10
496.533290034066
20
42.3857419615311
30
0
41
1
10
496.561129985282
20
42.3904402855331
30
0
41
1
10
496.575338581573
20
42.3921182957081
30
0
41
1
10
496.60414461875
20
42.394012720624
30
0
41
1
10
496.632798766689
20
42.3944169293935
30
0
41
1
10
496.668248634819
20
42.39132747893
30
0
41
1
10
496.689354390777
20
42.3878628119921
30
0
41
1
10
496.703388163405
20
42.3851905747556
30
0
41
1
10
496.710410661891
20
42.3836667274848
30
0
41
1
10
496.744940709364
20
42.375254881417
30
0
41
1
10
496.770990321238
20
42.3659914211181
30
0
41
1
10
496.8080795116
20
42.3487038853952
30
0
41
1
10
496.820166411356
20
42.3423309570969
30
0
41
1
10
496.843259687434
20
42.3287196510526
30
0
41
1
10
496.85430402698
20
42.3214715374875
30
0
41
1
10
496.886070622696
20
42.2984750528406
30
0
41
1
10
496.905440774853
20
42.2814853662863
30
0
41
1
10
496.923152192969
20
42.2628715476367
30
0
0
SPLINE
5
1F2
100
AcDbEntity
8
1
62
256
6
ByLayer
370
18
48
1
60
0
100
AcDbSpline
70
4
71
3
72
32
73
28
40
0
40
0
40
0
40
0
40
0.0624999999999658
40
0.0624999999999658
40
0.124999999999932
40
0.124999999999932
40
0.249999999999915
40
0.249999999999915
40
0.312499999999943
40
0.312499999999943
40
0.374999999999971
40
0.374999999999971
40
0.437499999999999
40
0.437499999999999
40
0.500000000000027
40
0.562500000000055
40
0.593750000000069
40
0.593750000000069
40
0.625000000000083
40
0.625000000000083
40
0.750000000000092
40
0.750000000000092
40
0.812500000000097
40
0.812500000000097
40
0.875000000000101
40
0.875000000000101
40
1
40
1
40
1
40
1
41
1
10
495.753393782978
20
42.9938177271787
30
0
41
1
10
495.765649013885
20
42.9899355677474
30
0
41
1
10
495.777773070018
20
42.9854804933103
30
0
41
1
10
495.80176683099
20
42.9753739144127
30
0
41
1
10
495.813587580217
20
42.9697396542551
30
0
41
1
10
495.84826433907
20
42.9511732012231
30
0
41
1
10
495.870453291649
20
42.9365583137226
30
0
41
1
10
495.902293398335
20
42.9107503830868
30
0
41
1
10
495.912701836097
20
42.9014467045854
30
0
41
1
10
495.932514052075
20
42.8818644243503
30
0
41
1
10
495.941975808306
20
42.87154586617
30
0
41
1
10
495.959983313907
20
42.8498003660897
30
0
41
1
10
495.968550639599
20
42.8383417207212
30
0
41
1
10
495.984614869321
20
42.8143559376799
30
0
41
1
10
495.999313112748
20
42.7897554176091
30
0
41
1
10
496.014390161657
20
42.757523131697
30
0
41
1
10
496.02195971301
20
42.7375191704008
30
0
41
1
10
496.026673944177
20
42.7240334929578
30
0
41
1
10
496.028871373523
20
42.7171917911011
30
0
41
1
10
496.038880789741
20
42.6830905332806
30
0
41
1
10
496.043906529617
20
42.6559034785281
30
0
41
1
10
496.047514651302
20
42.6151426194613
30
0
41
1
10
496.048050698022
20
42.6014890502845
30
0
41
1
10
496.04783259696
20
42.5746838292575
30
0
41
1
10
496.047089031615
20
42.5614944491532
30
0
41
1
10
496.043090258518
20
42.5224820814132
30
0
41
1
10
496.038083516874
20
42.4972078941912
30
0
41
1
10
496.03084033685
20
42.4725562326778
30
0
0
SPLINE
5
1F3
100
AcDbEntity
8
1
62
256
6
ByLayer
370
18
48
1
60
0
100
AcDbSpline
70
4
71
3
72
24
73
20
40
0
40
0
40
0
40
0
40
0.125000000000432
40
0.125000000000432
40
0.187500000000293
40
0.187500000000293
40
0.250000000000155
40
0.250000000000155
40
0.375000000000133
40
0.375000000000133
40
0.500000000000112
40
0.500000000000112
40
0.62500000000009
40
0.62500000000009
40
0.687499999999927
40
0.687499999999927
40
0.749999999999763
40
0.749999999999763
40
1
40
1
40
1
40
1
41
1
10
496.110302129439
20
42.2635150008799
30
0
41
1
10
496.101398922516
20
42.26907834202
30
0
41
1
10
496.09302917676
20
42.2753545460914
30
0
41
1
10
496.081275241118
20
42.2858385849972
30
0
41
1
10
496.077471110907
20
42.289535089052
30
0
41
1
10
496.070258190436
20
42.2971693019876
30
0
41
1
10
496.066849460644
20
42.3011020344788
30
0
41
1
10
496.057189211964
20
42.3132304834848
30
0
41
1
10
496.05149995697
20
42.3217543577061
30
0
41
1
10
496.041579433359
20
42.3396480931139
30
0
41
1
10
496.037347697326
20
42.3490735367964
30
0
41
1
10
496.030642973331
20
42.367961621377
30
0
41
1
10
496.028109933749
20
42.3775155591125
30
0
41
1
10
496.025465792448
20
42.3919940512037
30
0
41
1
10
496.02477797921
20
42.3968449450059
30
0
41
1
10
496.023788241171
20
42.4065947117633
30
0
41
1
10
496.023487657578
20
42.4115060491745
30
0
41
1
10
496.022956909007
20
42.4357502869299
30
0
41
1
10
496.025529403555
20
42.4544808390689
30
0
41
1
10
496.03084033685
20
42.4725562326778
30
0
0
SPLINE
5
1F4
100
AcDbEntity
8
1
62
256
6
ByLayer
370
18
48
1
60
0
100
AcDbSpline
70
4
71
3
72
23
73
19
40
0
40
0
40
0
40
0
40
0.124999999999967
40
0.124999999999967
40
0.249999999999933
40
0.249999999999933
40
0.312499999999819
40
0.312499999999819
40
0.374999999999705
40
0.499999999999764
40
0.499999999999764
40
0.624999999999823
40
0.624999999999823
40
0.749999999999882
40
0.749999999999882
40
0.874999999999941
40
0.874999999999941
40
1
40
1
40
1
40
1
41
1
10
495.624368451609
20
43.1764782783061
30
0
41
1
10
495.624012235213
20
43.1660203248462
30
0
41
1
10
495.624559977089
20
43.1553623096719
30
0
41
1
10
495.627402296286
20
43.1346634666188
30
0
41
1
10
495.629679210919
20
43.1245403037321
30
0
41
1
10
495.634353272803
20
43.1096896784562
30
0
41
1
10
495.636132666843
20
43.1047721872471
30
0
41
1
10
495.64005714067
20
43.0952023510667
30
0
41
1
10
495.646491339706
20
43.0812288891407
30
0
41
1
10
495.654483259672
20
43.0683441229624
30
0
41
1
10
495.666480560622
20
43.0521104020259
30
0
41
1
10
495.673076704079
20
43.0445816303357
30
0
41
1
10
495.687128301449
20
43.0308792124173
30
0
41
1
10
495.694618887852
20
43.0246588640842
30
0
41
1
10
495.710493893182
20
43.0134500750339
30
0
41
1
10
495.718753309
20
43.0085549523739
30
0
41
1
10
495.73571275988
20
43.0001654307806
30
0
41
1
10
495.744436424798
20
42.9966552006461
30
0
41
1
10
495.753393782978
20
42.9938177271787
30
0
0
SPLINE
5
1F5
100
AcDbEntity
8
1
62
256
6
ByLayer
370
18
48
1
60
0
100
AcDbSpline
70
4
71
3
72
32
73
28
40
0
40
0
40
0
40
0
40
0.062499999999996
40
0.062499999999996
40
0.124999999999992
40
0.124999999999992
40
0.249999999999985
40
0.249999999999985
40
0.312500000000016
40
0.312500000000016
40
0.375000000000049
40
0.375000000000049
40
0.437500000000081
40
0.437500000000081
40
0.500000000000113
40
0.562500000000145
40
0.593750000000161
40
0.593750000000161
40
0.625000000000177
40
0.625000000000177
40
0.750000000000194
40
0.750000000000194
40
0.812500000000145
40
0.812500000000145
40
0.875000000000097
40
0.875000000000097
40
1
40
1
40
1
40
1
41
1
10
497.564143352863
20
43.2886718336251
30
0
41
1
10
497.551888121956
20
43.2925539930563
30
0
41
1
10
497.539764065823
20
43.2970090674933
30
0
41
1
10
497.515770304851
20
43.307115646391
30
0
41
1
10
497.503949555624
20
43.3127499065487
30
0
41
1
10
497.469272796771
20
43.3313163595807
30
0
41
1
10
497.447083844193
20
43.345931247081
30
0
41
1
10
497.415243737506
20
43.3717391777169
30
0
41
1
10
497.404835299744
20
43.3810428562182
30
0
41
1
10
497.385023083766
20
43.4006251364533
30
0
41
1
10
497.375561327535
20
43.4109436946338
30
0
41
1
10
497.357553821934
20
43.4326891947141
30
0
41
1
10
497.348986496242
20
43.4441478400825
30
0
41
1
10
497.33292226652
20
43.4681336231237
30
0
41
1
10
497.318223902957
20
43.4927340862796
30
0
41
1
10
497.303146974184
20
43.5249664291065
30
0
41
1
10
497.29557742283
20
43.5449703904029
30
0
41
1
10
497.290863191664
20
43.5584560678459
30
0
41
1
10
497.288665762318
20
43.5652977697026
30
0
41
1
10
497.278656346099
20
43.5993990275231
30
0
41
1
10
497.273630606224
20
43.6265860822755
30
0
41
1
10
497.270022484539
20
43.6673469413423
30
0
41
1
10
497.269486437819
20
43.6810005105191
30
0
41
1
10
497.269704538881
20
43.7078057315463
30
0
41
1
10
497.270448104226
20
43.7209951116506
30
0
41
1
10
497.274446877323
20
43.7600074793906
30
0
41
1
10
497.279453618967
20
43.7852816666124
30
0
41
1
10
497.286696798991
20
43.8099333281259
30
0
0
SPLINE
5
1F6
100
AcDbEntity
8
1
62
256
6
ByLayer
370
18
48
1
60
0
100
AcDbSpline
70
4
71
3
72
24
73
20
40
0
40
0
40
0
40
0
40
0.125000000000429
40
0.125000000000429
40
0.18750000000029
40
0.18750000000029
40
0.250000000000151
40
0.250000000000151
40
0.375000000000129
40
0.375000000000129
40
0.500000000000107
40
0.500000000000107
40
0.625000000000085
40
0.625000000000085
40
0.687499999999921
40
0.687499999999921
40
0.749999999999757
40
0.749999999999757
40
1
40
1
40
1
40
1
41
1
10
497.207235006402
20
44.0189745599237
30
0
41
1
10
497.216138213325
20
44.0134112187837
30
0
41
1
10
497.22450795908
20
44.0071350147123
30
0
41
1
10
497.236261894723
20
43.9966509758066
30
0
41
1
10
497.240066024934
20
43.9929544717518
30
0
41
1
10
497.247278945405
20
43.9853202588161
30
0
41
1
10
497.250687675197
20
43.9813875263249
30
0
41
1
10
497.260347923877
20
43.9692590773188
30
0
41
1
10
497.266037178871
20
43.9607352030975
30
0
41
1
10
497.275957702482
20
43.9428414676898
30
0
41
1
10
497.280189438515
20
43.9334160240072
30
0
41
1
10
497.28689416251
20
43.9145279394267
30
0
41
1
10
497.289427202091
20
43.9049740016912
30
0
41
1
10
497.292071343393
20
43.8904955096
30
0
41
1
10
497.292759156631
20
43.8856446157978
30
0
41
1
10
497.293748894671
20
43.8758948490403
30
0
41
1
10
497.294049478263
20
43.8709835116291
30
0
41
1
10
497.294580226834
20
43.8467392738738
30
0
41
1
10
497.292007732286
20
43.8280087217347
30
0
41
1
10
497.286696798991
20
43.8099333281259
30
0
0
SPLINE
5
1F7
100
AcDbEntity
8
1
62
256
6
ByLayer
370
18
48
1
60
0
100
AcDbSpline
70
4
71
3
72
23
73
19
40
0
40
0
40
0
40
0
40
0.124999999999799
40
0.124999999999799
40
0.249999999999599
40
0.249999999999599
40
0.312499999999752
40
0.312499999999752
40
0.374999999999905
40
0.499999999999924
40
0.499999999999924
40
0.624999999999943
40
0.624999999999943
40
0.749999999999962
40
0.749999999999962
40
0.874999999999981
40
0.874999999999981
40
1
40
1
40
1
40
1
41
1
10
497.693168684232
20
43.1060112824977
30
0
41
1
10
497.693524900628
20
43.1164692359575
30
0
41
1
10
497.692977158753
20
43.1271272511317
30
0
41
1
10
497.690134839555
20
43.1478260941849
30
0
41
1
10
497.687857924922
20
43.1579492570716
30
0
41
1
10
497.683183863038
20
43.1727998823475
30
0
41
1
10
497.681404468998
20
43.1777173735567
30
0
41
1
10
497.677479995171
20
43.187287209737
30
0
41
1
10
497.671045796135
20
43.2012606716629
30
0
41
1
10
497.663053876168
20
43.2141454378414
30
0
41
1
10
497.651056575219
20
43.2303791587778
30
0
41
1
10
497.644460431762
20
43.237907930468
30
0
41
1
10
497.630408834392
20
43.2516103483864
30
0
41
1
10
497.622918247989
20
43.2578306967195
30
0
41
1
10
497.607043242659
20
43.2690394857698
30
0
41
1
10
497.598783826842
20
43.2739346084298
30
0
41
1
10
497.581824375961
20
43.2823241300231
30
0
41
1
10
497.573100711043
20
43.2858343601577
30
0
41
1
10
497.564143352863
20
43.2886718336251
30
0
0
SPLINE
5
1F8
100
AcDbEntity
8
1
62
256
6
ByLayer
370
18
48
1
60
0
100
AcDbSpline
70
4
71
3
72
16
73
12
40
0
40
0
40
0
40
0
40
0.463076323289413
40
0.463076323289413
40
0.645417922138915
40
0.645417922138915
40
0.830321639273287
40
0.830321639273287
40
0.944651290970169
40
0.944651290970169
40
1
40
1
40
1
40
1
41
1
10
13.8943375672975
20
12.6576002058709
30
0
41
1
10
13.8656875508895
20
12.5522940543954
30
0
41
1
10
13.8264948630639
20
12.4476658274367
30
0
41
1
10
13.745903860571
20
12.3160508976665
30
0
41
1
10
13.7197885089046
20
12.2800720868294
30
0
41
1
10
13.6590638298547
20
12.2151290969616
30
0
41
1
10
13.6235548234215
20
12.1854983827967
30
0
41
1
10
13.5583782361156
20
12.1514192676289
30
0
41
1
10
13.5310225116492
20
12.1415603847931
30
0
41
1
10
13.4892613583297
20
12.1343167157605
30
0
41
1
10
13.4752661839162
20
12.1330899674711
30
0
41
1
10
13.4613248654054
20
12.1330899674711
30
0
0
SPLINE
5
1F9
100
AcDbEntity
8
1
62
256
6
ByLayer
370
18
48
1
60
0
100
AcDbSpline
70
4
71
3
72
16
73
12
40
0
40
0
40
0
40
0
40
0.111412770144095
40
0.111412770144095
40
0.248965452398478
40
0.248965452398478
40
0.467123877727718
40
0.467123877727718
40
0.889866934614052
40
0.889866934614052
40
1
40
1
40
1
40
1
41
1
10
13.4613248654053
20
38.1154578595252
30
0
41
1
10
13.4891025941391
20
38.1154578595252
30
0
41
1
10
13.5172256117114
20
38.11385435997
30
0
41
1
10
13.5755663174454
20
38.1074356116131
30
0
41
1
10
13.6057164246604
20
38.1019214555354
30
0
41
1
10
13.6749461812578
20
38.0851194427549
30
0
41
1
10
13.7106943542744
20
38.0721266199019
30
0
41
1
10
13.7995108663106
20
38.031597675108
30
0
41
1
10
13.8406224917981
20
38.0009250413255
30
0
41
1
10
13.8799825988555
20
37.9612613686125
30
0
41
1
10
13.8874729933639
20
37.95291777245
30
0
41
1
10
13.8943375672976
20
37.9445010117188
30
0
0
SPLINE
5
1FA
100
AcDbEntity
8
1
62
256
6
ByLayer
370
18
48
1
60
0
100
AcDbSpline
70
4
71
3
72
16
73
12
40
0
40
0
40
0
40
0
40
0.463076323289424
40
0.463076323289424
40
0.645417922138915
40
0.645417922138915
40
0.830321639273309
40
0.830321639273309
40
0.944651290970174
40
0.944651290970174
40
1
40
1
40
1
40
1
41
1
10
10.1056624327028
20
37.9445010117188
30
0
41
1
10
10.1343124491108
20
37.9796292418723
30
0
41
1
10
10.1735051369365
20
38.0140162383099
30
0
41
1
10
10.2540961394293
20
38.0567528229609
30
0
41
1
10
10.2802114910958
20
38.0683724898049
30
0
41
1
10
10.3409361701456
20
38.089260870453
30
0
41
1
10
10.3764451765788
20
38.0987416550404
30
0
41
1
10
10.4416217638848
20
38.1096208051144
30
0
41
1
10
10.4689774883511
20
38.1127608221448
30
0
41
1
10
10.5107386416706
20
38.1150674153359
30
0
41
1
10
10.5247338160841
20
38.1154578595253
30
0
41
1
10
10.5386751345949
20
38.1154578595253
30
0
0
SPLINE
5
1FB
100
AcDbEntity
8
1
62
256
6
ByLayer
370
18
48
1
60
0
100
AcDbSpline
70
4
71
3
72
16
73
12
40
0
40
0
40
0
40
0
40
0.111412770144033
40
0.111412770144033
40
0.248965452398399
40
0.248965452398399
40
0.467123877727631
40
0.467123877727631
40
0.889866934613984
40
0.889866934613984
40
1
40
1
40
1
40
1
41
1
10
10.5386751345949
20
12.1330899674712
30
0
41
1
10
10.5108974058612
20
12.1330899674712
30
0
41
1
10
10.4827743882889
20
12.1381298129194
30
0
41
1
10
10.4244336825549
20
12.1582682733022
30
0
41
1
10
10.39428357534
20
12.1755507890906
30
0
41
1
10
10.3250538187425
20
12.2280340568697
30
0
41
1
10
10.289305645726
20
12.2684634146659
30
0
41
1
10
10.2004891336897
20
12.3937525277227
30
0
41
1
10
10.1593775082022
20
12.487580637142
30
0
41
1
10
10.1200174011448
20
12.6072726192709
30
0
41
1
10
10.1125270066365
20
12.6323687417003
30
0
41
1
10
10.1056624327027
20
12.6576002058708
30
0
0
SPLINE
5
1FC
100
AcDbEntity
8
1
62
256
6
ByLayer
370
18
48
1
60
0
100
AcDbSpline
70
4
71
3
72
16
73
12
40
0
40
0
40
0
40
0
40
0.463076323289481
40
0.463076323289481
40
0.645417922138942
40
0.645417922138942
40
0.830321639273339
40
0.830321639273339
40
0.944651290970204
40
0.944651290970204
40
1
40
1
40
1
40
1
41
1
10
13.8943375672976
20
-37.9445010117189
30
0
41
1
10
13.8656875508895
20
-37.9796292418723
30
0
41
1
10
13.8264948630639
20
-38.01401623831
30
0
41
1
10
13.745903860571
20
-38.0567528229611
30
0
41
1
10
13.7197885089045
20
-38.0683724898049
30
0
41
1
10
13.6590638298547
20
-38.0892608704531
30
0
41
1
10
13.6235548234215
20
-38.0987416550405
30
0
41
1
10
13.5583782361155
20
-38.1096208051145
30
0
41
1
10
13.5310225116492
20
-38.1127608221449
30
0
41
1
10
13.4892613583297
20
-38.115067415336
30
0
41
1
10
13.4752661839162
20
-38.1154578595254
30
0
41
1
10
13.4613248654054
20
-38.1154578595254
30
0
0
SPLINE
5
1FD
100
AcDbEntity
8
1
62
256
6
ByLayer
370
18
48
1
60
0
100
AcDbSpline
70
4
71
3
72
16
73
12
40
0
40
0
40
0
40
0
40
0.111412770144096
40
0.111412770144096
40
0.248965452398481
40
0.248965452398481
40
0.467123877727724
40
0.467123877727724
40
0.889866934614141
40
0.889866934614141
40
1
40
1
40
1
40
1
41
1
10
13.4613248654054
20
-12.1330899674713
30
0
41
1
10
13.4891025941391
20
-12.1330899674713
30
0
41
1
10
13.5172256117114
20
-12.1381298129195
30
0
41
1
10
13.5755663174454
20
-12.1582682733023
30
0
41
1
10
13.6057164246604
20
-12.1755507890907
30
0
41
1
10
13.6749461812578
20
-12.2280340568698
30
0
41
1
10
13.7106943542744
20
-12.268463414666
30
0
41
1
10
13.7995108663106
20
-12.3937525277228
30
0
41
1
10
13.8406224917981
20
-12.4875806371422
30
0
41
1
10
13.8799825988555
20
-12.607272619271
30
0
41
1
10
13.8874729933639
20
-12.6323687417004
30
0
41
1
10
13.8943375672976
20
-12.6576002058709
30
0
0
SPLINE
5
1FE
100
AcDbEntity
8
1
62
256
6
ByLayer
370
18
48
1
60
0
100
AcDbSpline
70
4
71
3
72
16
73
12
40
0
40
0
40
0
40
0
40
0.463076323289473
40
0.463076323289473
40
0.645417922138923
40
0.645417922138923
40
0.830321639273311
40
0.830321639273311
40
0.944651290970175
40
0.944651290970175
40
1
40
1
40
1
40
1
41
1
10
10.1056624327028
20
-12.657600205871
30
0
41
1
10
10.1343124491108
20
-12.5522940543955
30
0
41
1
10
10.1735051369365
20
-12.4476658274368
30
0
41
1
10
10.2540961394293
20
-12.3160508976666
30
0
41
1
10
10.2802114910958
20
-12.2800720868295
30
0
41
1
10
10.3409361701457
20
-12.2151290969617
30
0
41
1
10
10.3764451765788
20
-12.1854983827967
30
0
41
1
10
10.4416217638848
20
-12.151419267629
30
0
41
1
10
10.4689774883512
20
-12.1415603847932
30
0
41
1
10
10.5107386416706
20
-12.1343167157605
30
0
41
1
10
10.5247338160841
20
-12.1330899674712
30
0
41
1
10
10.5386751345949
20
-12.1330899674712
30
0
0
SPLINE
5
1FF
100
AcDbEntity
8
1
62
256
6
ByLayer
370
18
48
1
60
0
100
AcDbSpline
70
4
71
3
72
16
73
12
40
0
40
0
40
0
40
0
40
0.111412770144029
40
0.111412770144029
40
0.248965452398423
40
0.248965452398423
40
0.467123877727626
40
0.467123877727626
40
0.889866934614034
40
0.889866934614034
40
1
40
1
40
1
40
1
41
1
10
10.538675134595
20
-38.1154578595254
30
0
41
1
10
10.5108974058612
20
-38.1154578595254
30
0
41
1
10
10.4827743882889
20
-38.1138543599702
30
0
41
1
10
10.4244336825549
20
-38.1074356116132
30
0
41
1
10
10.3942835753399
20
-38.1019214555356
30
0
41
1
10
10.3250538187425
20
-38.085119442755
30
0
41
1
10
10.289305645726
20
-38.072126619902
30
0
41
1
10
10.2004891336897
20
-38.0315976751081
30
0
41
1
10
10.1593775082023
20
-38.0009250413256
30
0
41
1
10
10.1200174011448
20
-37.9612613686125
30
0
41
1
10
10.1125270066365
20
-37.9529177724501
30
0
41
1
10
10.1056624327027
20
-37.9445010117189
30
0
0
SPLINE
5
200
100
AcDbEntity
8
SK1
62
256
6
ByLayer
370
18
48
1
60
0
100
AcDbSpline
70
4
71
3
72
28
73
24
40
0
40
0
40
0
40
0
40
0.533250730054745
40
0.533250730054745
40
0.615777827787283
40
0.615777827787283
40
0.699198596027313
40
0.699198596027313
40
0.729416039268633
40
0.729416039268633
40
0.760074959750417
40
0.760074959750417
40
0.779319787413178
40
0.779319787413178
40
0.798665019454715
40
0.798665019454715
40
0.822099441306898
40
0.822099441306898
40
0.86143675643697
40
0.86143675643697
40
0.977101147328899
40
0.977101147328899
40
1
40
1
40
1
40
1
41
1
10
0
20
27.4140254419659
30
0
41
1
10
0
20
27.3730477373553
30
0
41
1
10
-0.0022321537440888
20
27.3286353487808
30
0
41
1
10
-0.0272570024394838
20
27.2634157162243
30
0
41
1
10
-0.0312351655533263
20
27.2542518263515
30
0
41
1
10
-0.0414347357474441
20
27.2347646258868
30
0
41
1
10
-0.047600620031119
20
27.224362497206
30
0
41
1
10
-0.0596855137174259
20
27.2089035986666
30
0
41
1
10
-0.0633134736516041
20
27.2046202407728
30
0
41
1
10
-0.0717711513547954
20
27.1957802519915
30
0
41
1
10
-0.0767266033180505
20
27.1911121098636
30
0
41
1
10
-0.0860232725879655
20
27.1837169106295
30
0
41
1
10
-0.0899979304273302
20
27.1808582426265
30
0
41
1
10
-0.0982231679151795
20
27.1756413184972
30
0
41
1
10
-0.102572467501446
20
27.1732284179764
30
0
41
1
10
-0.111838420002798
20
27.1687544076928
30
0
41
1
10
-0.116821259822899
20
27.1667910614834
30
0
41
1
10
-0.129155630730821
20
27.1627307448198
30
0
41
1
10
-0.136135025510924
20
27.1612859818144
30
0
41
1
10
-0.160867267776851
20
27.1578959700864
30
0
41
1
10
-0.175020437469655
20
27.1596766426528
30
0
41
1
10
-0.190144233354218
20
27.1629148892922
30
0
41
1
10
-0.192590171002621
20
27.1635071851222
30
0
41
1
10
-0.194976888875288
20
27.1641448091073
30
0
0
SPLINE
5
201
100
AcDbEntity
8
SK1
62
256
6
ByLayer
370
18
48
1
60
0
100
AcDbSpline
70
4
71
3
72
18
73
14
40
0
40
0
40
0
40
0
40
0.0418587853870226
40
0.0418587853870226
40
0.125923324624864
40
0.125923324624864
40
0.227916528318073
40
0.227916528318073
40
0.399272855688626
40
0.399272855688626
40
0.903572315361453
40
0.903572315361453
40
1
40
1
40
1
40
1
41
1
10
-0.0881052980999044
20
-21.6820889553384
30
0
41
1
10
-0.0900649342956257
20
-21.681783992979
30
0
41
1
10
-0.0920881991826263
20
-21.6813357170027
30
0
41
1
10
-0.0982659956185472
20
-21.6795285998721
30
0
41
1
10
-0.102616264711998
20
-21.6776707068767
30
0
41
1
10
-0.111891047173941
20
-21.6726056509048
30
0
41
1
10
-0.11688108802845
20
-21.6691468388434
30
0
41
1
10
-0.129239031304437
20
-21.6592830356822
30
0
41
1
10
-0.136232333275785
20
-21.6523163984789
30
0
41
1
10
-0.161029691701287
20
-21.6248605161811
30
0
41
1
10
-0.175217524472657
20
-21.6032206285962
30
0
41
1
10
-0.19029203907192
20
-21.5780871246871
30
0
41
1
10
-0.192662310391853
20
-21.5740318554878
30
0
41
1
10
-0.194976888875288
20
-21.5699808853227
30
0
0
SPLINE
5
202
100
AcDbEntity
8
SK1
62
256
6
ByLayer
370
18
48
1
60
0
100
AcDbSpline
70
4
71
3
72
28
73
24
40
0
40
0
40
0
40
0
40
0.533063946564248
40
0.533063946564248
40
0.615677731546553
40
0.615677731546553
40
0.699137707515984
40
0.699137707515984
40
0.729324278668642
40
0.729324278668642
40
0.759950551007435
40
0.759950551007435
40
0.779180248418969
40
0.779180248418969
40
0.79851138719828
40
0.79851138719828
40
0.821894637815005
40
0.821894637815005
40
0.861114982965007
40
0.861114982965007
40
0.976344341081211
40
0.976344341081211
40
1
40
1
40
1
40
1
41
1
10
0
20
-6.05669285502336
30
0
41
1
10
0
20
-5.92608709513712
30
0
41
1
10
-0.0022379016399725
20
-5.79321283245361
30
0
41
1
10
-0.0272394005765051
20
-5.64130401614443
30
0
41
1
10
-0.031218970958534
20
-5.62080968412596
30
0
41
1
10
-0.0414216385291297
20
-5.58021432061008
30
0
41
1
10
-0.0475876079980395
20
-5.5598212256927
30
0
41
1
10
-0.0596716467606058
20
-5.53401288355332
30
0
41
1
10
-0.063295106132415
20
-5.52729576246503
30
0
41
1
10
-0.0717416607094492
20
-5.51484651517518
30
0
41
1
10
-0.0766898902250404
20
-5.50898703388901
30
0
41
1
10
-0.0859752800625273
20
-5.50172439214833
30
0
41
1
10
-0.0899460896655455
20
-5.49944780594746
30
0
41
1
10
-0.0981654865798731
20
-5.49662043549642
30
0
41
1
10
-0.102512847294847
20
-5.49605636772503
30
0
41
1
10
-0.111768377542958
20
-5.49662652519027
30
0
41
1
10
-0.116743330407758
20
-5.49810535458238
30
0
41
1
10
-0.129053021840363
20
-5.50385584975851
30
0
41
1
10
-0.136017983219105
20
-5.50933616384225
30
0
41
1
10
-0.1606855088732
20
-5.53320723705565
30
0
41
1
10
-0.174804308508584
20
-5.55645956160583
30
0
41
1
10
-0.189984540931078
20
-5.58495077378961
30
0
41
1
10
-0.192512281537589
20
-5.58988652271256
30
0
41
1
10
-0.194976888875288
20
-5.59486561641216
30
0
0
SPLINE
5
203
100
AcDbEntity
8
SK1
62
256
6
ByLayer
370
18
48
1
60
0
100
AcDbSpline
70
4
71
3
72
24
73
20
40
0
40
0
40
0
40
0
40
0.0818083107272343
40
0.0818083107272343
40
0.16475565535235
40
0.16475565535235
40
0.196837586968118
40
0.196837586968118
40
0.229441190741102
40
0.229441190741102
40
0.258402406597506
40
0.258402406597506
40
0.29488743341136
40
0.29488743341136
40
0.359191989028868
40
0.359191989028868
40
0.559662388378514
40
0.559662388378514
40
1
40
1
40
1
40
1
41
1
10
-0.194976888875288
20
-5.59486561641216
30
0
41
1
10
-0.223329335851929
20
-5.65214431064879
30
0
41
1
10
-0.254848440292093
20
-5.70823254343719
30
0
41
1
10
-0.328984510766617
20
-5.81397530077459
30
0
41
1
10
-0.372256681199133
20
-5.86519840588574
30
0
41
1
10
-0.447285543692416
20
-5.91920456599911
30
0
41
1
10
-0.470384083964433
20
-5.93251818947715
30
0
41
1
10
-0.520049347295696
20
-5.95176066961744
30
0
41
1
10
-0.547409294952658
20
-5.95763888003245
30
0
41
1
10
-0.598801772865386
20
-5.95845211545708
30
0
41
1
10
-0.623454388624964
20
-5.95453594316967
30
0
41
1
10
-0.67536832181608
20
-5.93806311297527
30
0
41
1
10
-0.702536203793258
20
-5.92350895781163
30
0
41
1
10
-0.769934734265206
20
-5.87654085269111
30
0
41
1
10
-0.806331221632888
20
-5.83847396191157
30
0
41
1
10
-0.937034670252146
20
-5.67484935216652
30
0
41
1
10
-1.00218808599797
20
-5.5291423992856
30
0
41
1
10
-1.18082117842569
20
-5.06364228087051
30
0
41
1
10
-1.25513668915694
20
-4.72514722061266
30
0
41
1
10
-1.31543506509628
20
-4.38400264074443
30
0
0
SPLINE
5
204
100
AcDbEntity
8
SK1
62
256
6
ByLayer
370
18
48
1
60
0
100
AcDbSpline
70
4
71
3
72
12
73
8
40
0
40
0
40
0
40
0
40
0.500000000000014
40
0.500000000000014
40
0.750000000000007
40
0.750000000000007
40
1
40
1
40
1
40
1
41
1
10
-1.31543506509497
20
4.38399907131424
30
0
41
1
10
-1.24700119464249
20
4.7711727396748
30
0
41
1
10
-1.16579385952876
20
5.15013432870938
30
0
41
1
10
-0.928819019228328
20
5.68295696907956
30
0
41
1
10
-0.835741475097493
20
5.90239220086784
30
0
41
1
10
-0.423973635603858
20
6.00134246061475
30
0
41
1
10
-0.282376096655625
20
5.77143424901635
30
0
41
1
10
-0.194976888875288
20
5.59486670063148
30
0
0
SPLINE
5
205
100
AcDbEntity
8
SK1
62
256
6
ByLayer
370
18
48
1
60
0
100
AcDbSpline
70
4
71
2
72
6
73
3
40
0
40
0
40
0
40
1
40
1
40
1
41
1
10
-46.5
20
-26.3942121249598
30
0
41
1
10
-24.2499999944402
20
-26.9527153350038
30
0
41
1
10
-2
20
-27.5112150367615
30
0
0
SPLINE
5
206
100
AcDbEntity
8
SK1
62
256
6
ByLayer
370
18
48
1
60
0
100
AcDbSpline
70
4
71
2
72
6
73
3
40
0
40
0
40
0
40
1
40
1
40
1
41
1
10
-2
20
27.5112149532756
30
0
41
1
10
-24.2499999944407
20
26.9527152505108
30
0
41
1
10
-46.5
20
26.3942120396763
30
0
0
SPLINE
5
207
100
AcDbEntity
8
SK1
62
256
6
ByLayer
370
18
48
1
60
0
100
AcDbSpline
70
4
71
3
72
45
73
41
40
0
40
0
40
0
40
0
40
0.0184134321063854
40
0.0467420403623803
40
0.0750706486183752
40
0.10339925687437
40
0.16005647338636
40
0.21671368989835
40
0.245042298154345
40
0.27337090641034
40
0.301699514666334
40
0.330028122922329
40
0.358356731178324
40
0.386685339434319
40
0.415013947690314
40
0.443342555946309
40
0.457506860074307
40
0.471671164202304
40
0.485835468330301
40
0.4929176203943
40
0.499999772458299
40
0.507081924522298
40
0.514164076586296
40
0.528328380714294
40
0.542492684842291
40
0.556656988970289
40
0.584985597226284
40
0.613314205482279
40
0.641642813738273
40
0.669971421994268
40
0.698300030250263
40
0.726628638506258
40
0.754957246762253
40
0.783285855018248
40
0.839943071530238
40
0.896600288042228
40
0.924928896298223
40
0.953257504554217
40
0.981586112810212
40
1
40
1
40
1
40
1
41
1
10
-2
20
27.5113148295508
30
0
41
1
10
-2
20
27.4931239834141
30
0
41
1
10
-2
20
27.4019637876331
30
0
41
1
10
-2
20
27.0892770054731
30
0
41
1
10
-2
20
26.5321468226081
30
0
41
1
10
-2
20
25.542259669074
30
0
41
1
10
-2
20
23.8766923262168
30
0
41
1
10
-2
20
21.702208917063
30
0
41
1
10
-2
20
19.6790533569495
30
0
41
1
10
-2
20
18.0238296493219
30
0
41
1
10
-2
20
16.2329033590101
30
0
41
1
10
-2
20
14.3089537138221
30
0
41
1
10
-2
20
12.2524061779463
30
0
41
1
10
-2
20
10.0637595764898
30
0
41
1
10
-2
20
7.74249262348104
30
0
41
1
10
-2
20
5.6968741246605
30
0
41
1
10
-2
20
3.99511747669322
30
0
41
1
10
-2
20
2.68756528296029
30
0
41
1
10
-2
20
1.57505595835931
30
0
41
1
10
-2
20
0.676418049162749
30
0
41
1
10
-2
20
-8.18359922E-08
30
0
41
1
10
-2
20
-0.676418190353559
30
0
41
1
10
-2
20
-1.57505605731836
30
0
41
1
10
-2
20
-2.6875654958946
30
0
41
1
10
-2
20
-3.99511793703579
30
0
41
1
10
-2
20
-5.69687408318981
30
0
41
1
10
-2
20
-7.74249276938195
30
0
41
1
10
-2
20
-10.0637597446106
30
0
41
1
10
-2
20
-12.2524062028726
30
0
41
1
10
-2
20
-14.3089537361689
30
0
41
1
10
-2
20
-16.232903025313
30
0
41
1
10
-2
20
-18.0238292606517
30
0
41
1
10
-2
20
-19.6790531812329
30
0
41
1
10
-2
20
-21.7022096763189
30
0
41
1
10
-2
20
-23.87668963589
30
0
41
1
10
-2
20
-25.5422639371944
30
0
41
1
10
-2
20
-26.5321468249087
30
0
41
1
10
-2
20
-27.0892772667924
30
0
41
1
10
-2
20
-27.4019656627741
30
0
41
1
10
-2
20
-27.4931257428403
30
0
41
1
10
-2
20
-27.5113161696202
30
0
0
SPLINE
5
208
100
AcDbEntity
8
SK1
62
256
6
ByLayer
370
18
48
1
60
0
100
AcDbSpline
70
4
71
3
72
45
73
41
40
0
40
0
40
0
40
0
40
0.0184335563982699
40
0.0467610063920373
40
0.0750884563858046
40
0.103415906379572
40
0.160070806367107
40
0.216725706354642
40
0.245053156348409
40
0.273380606342176
40
0.301708056335944
40
0.330035506329711
40
0.358362956323479
40
0.386690406317246
40
0.415017856311013
40
0.443345306304781
40
0.457509031301664
40
0.471672756298548
40
0.485836481295432
40
0.492918343793874
40
0.500000206292316
40
0.507082068790757
40
0.514163931289199
40
0.528327656286083
40
0.542491381282967
40
0.55665510627985
40
0.584982556273618
40
0.613310006267385
40
0.641637456261153
40
0.66996490625492
40
0.698292356248687
40
0.726619806242455
40
0.754947256236222
40
0.78327470622999
40
0.839929606217524
40
0.896584506205059
40
0.924911956198827
40
0.953239406192594
40
0.981566856186361
40
1
40
1
40
1
40
1
41
1
10
-46.5
20
26.394272094223
30
0
41
1
10
-46.5
20
26.3767092163171
30
0
41
1
10
-46.5
20
26.2888439710512
30
0
41
1
10
-46.5
20
25.9864884897081
30
0
41
1
10
-46.5
20
25.4462941395275
30
0
41
1
10
-46.5
20
24.4826071472144
30
0
41
1
10
-46.5
20
22.8634674814268
30
0
41
1
10
-46.5
20
20.7477978818629
30
0
41
1
10
-46.5
20
18.7736711094486
30
0
41
1
10
-46.5
20
17.1623226058104
30
0
41
1
10
-46.5
20
15.4206187950807
30
0
41
1
10
-46.5
20
13.5524250589531
30
0
41
1
10
-46.5
20
11.5601449976774
30
0
41
1
10
-46.5
20
9.44716984252187
30
0
41
1
10
-46.5
20
7.21817811646048
30
0
41
1
10
-46.5
20
5.27511525414349
30
0
41
1
10
-46.5
20
3.665786778474
30
0
41
1
10
-46.5
20
2.44929422361162
30
0
41
1
10
-46.5
20
1.43224163583795
30
0
41
1
10
-46.5
20
0.611404309556463
30
0
41
1
10
-46.5
20
2.926823868E-07
30
0
41
1
10
-46.5
20
-0.611403917687028
30
0
41
1
10
-46.5
20
-1.43224195164237
30
0
41
1
10
-46.5
20
-2.44929526971754
30
0
41
1
10
-46.5
20
-3.66578709604494
30
0
41
1
10
-46.5
20
-5.27511481425796
30
0
41
1
10
-46.5
20
-7.21817840922165
30
0
41
1
10
-46.5
20
-9.44716998233639
30
0
41
1
10
-46.5
20
-11.5601449487444
30
0
41
1
10
-46.5
20
-13.5524250004931
30
0
41
1
10
-46.5
20
-15.4206184072864
30
0
41
1
10
-46.5
20
-17.1623222405148
30
0
41
1
10
-46.5
20
-18.7736710724967
30
0
41
1
10
-46.5
20
-20.7477984607116
30
0
41
1
10
-46.5
20
-22.8634650617874
30
0
41
1
10
-46.5
20
-24.482611412206
30
0
41
1
10
-46.5
20
-25.4462940150439
30
0
41
1
10
-46.5
20
-25.986488744709
30
0
41
1
10
-46.5
20
-26.2888422876916
30
0
41
1
10
-46.5
20
-26.3767076490665
30
0
41
1
10
-46.5
20
-26.3942709054188
30
0
0
SPLINE
5
209
100
AcDbEntity
8
SK1
62
256
6
ByLayer
370
18
48
1
60
0
100
AcDbSpline
70
4
71
3
72
13
73
9
40
0
40
0
40
0
40
0
40
0.239404237444312
40
0.368290935227324
40
0.499924386713181
40
0.631570377731019
40
0.760491679444801
40
1
40
1
40
1
40
1
41
1
10
-2
20
-27.5251040814076
30
0
41
1
10
-1.99909118353403
20
-27.4990573435655
30
0
41
1
10
-1.99103204131599
20
-27.4617007168948
30
0
41
1
10
-1.96563486157083
20
-27.4155034456483
30
0
41
1
10
-1.93886237725941
20
-27.3842363671187
30
0
41
1
10
-1.9062756087901
20
-27.3590808959352
30
0
41
1
10
-1.8588385310216
20
-27.3360479605511
30
0
41
1
10
-1.82110920461693
20
-27.3298784616368
30
0
41
1
10
-1.7950399779393
20
-27.330280595868
30
0
0
SPLINE
5
20A
100
AcDbEntity
8
SK1
62
256
6
ByLayer
370
18
48
1
60
0
100
AcDbSpline
70
4
71
3
72
13
73
9
40
0
40
0
40
0
40
0
40
0.239508320587689
40
0.368429622314875
40
0.500075613338397
40
0.631709064821884
40
0.760595762593252
40
1
40
1
40
1
40
1
41
1
10
-1.7950399779393
20
27.3302805930528
30
0
41
1
10
-1.82110920461648
20
27.3298784588218
30
0
41
1
10
-1.85883853102087
20
27.3360479577336
30
0
41
1
10
-1.90627560878894
20
27.3590808931095
30
0
41
1
10
-1.93886237725854
20
27.3842363642833
30
0
41
1
10
-1.96563486156992
20
27.4155034428019
30
0
41
1
10
-1.99103204131541
20
27.4617007140312
30
0
41
1
10
-1.99909118353341
20
27.4990573406898
30
0
41
1
10
-2
20
27.5251040785232
30
0
0
SPLINE
5
20B
100
AcDbEntity
8
SK1
62
256
6
ByLayer
370
13
48
1
60
0
100
AcDbSpline
70
4
71
3
72
45
73
41
40
0
40
0
40
0
40
0
40
0.0271961856895324
40
0.0550108126085762
40
0.08282543952762
40
0.110640066446664
40
0.166269320284751
40
0.221898574122839
40
0.249713201041883
40
0.277527827960927
40
0.30534245487997
40
0.333157081799014
40
0.360971708718058
40
0.388786335637102
40
0.416600962556145
40
0.444415589475189
40
0.458322902934711
40
0.472230216394233
40
0.486137529853755
40
0.493091186583516
40
0.500044843313277
40
0.506998500043038
40
0.513952156772799
40
0.527859470232321
40
0.541766783691843
40
0.555674097151365
40
0.583488724070408
40
0.611303350989452
40
0.639117977908496
40
0.66693260482754
40
0.694747231746584
40
0.722561858665627
40
0.750376485584671
40
0.778191112503715
40
0.833820366341803
40
0.88944962017989
40
0.917264247098934
40
0.945078874017978
40
0.972893500937022
40
1
40
1
40
1
40
1
41
1
10
-1.7950399779393
20
27.3302803422792
30
0
41
1
10
-1.7950399779393
20
27.330398541206
30
0
41
1
10
-1.7950399779393
20
27.2463361381615
30
0
41
1
10
-1.7950399779393
20
26.8970143201696
30
0
41
1
10
-1.7950399779393
20
26.3428367693127
30
0
41
1
10
-1.7950399779393
20
25.3575174121237
30
0
41
1
10
-1.7950399779393
20
23.7000443772305
30
0
41
1
10
-1.7950399779393
20
21.5358147028617
30
0
41
1
10
-1.7950399779393
20
19.5212069343198
30
0
41
1
10
-1.7950399779393
20
17.8736325306309
30
0
41
1
10
-1.7950399779393
20
16.0912878005788
30
0
41
1
10
-1.7950399779393
20
14.177058768767
30
0
41
1
10
-1.7950399779393
20
12.131715772173
30
0
41
1
10
-1.7950399779393
20
9.95626190464384
30
0
41
1
10
-1.7950399779393
20
7.65108242685466
30
0
41
1
10
-1.7950399779393
20
5.62334371349192
30
0
41
1
10
-1.7950399779393
20
3.93770120558833
30
0
41
1
10
-1.7950399779393
20
2.64602455865491
30
0
41
1
10
-1.7950399779393
20
1.55015738102088
30
0
41
1
10
-1.7950399779393
20
0.665083404324093
30
0
41
1
10
-1.7950399779393
20
-1.65416054E-08
30
0
41
1
10
-1.7950399779393
20
-0.66508345257995
30
0
41
1
10
-1.7950399779393
20
-1.55015751778518
30
0
41
1
10
-1.7950399779393
20
-2.64602491684633
30
0
41
1
10
-1.7950399779393
20
-3.93770164103978
30
0
41
1
10
-1.7950399779393
20
-5.62334360256068
30
0
41
1
10
-1.7950399779393
20
-7.65108259835955
30
0
41
1
10
-1.7950399779393
20
-9.9562620678297
30
0
41
1
10
-1.7950399779393
20
-12.1317157842225
30
0
41
1
10
-1.7950399779393
20
-14.1770587770258
30
0
41
1
10
-1.7950399779393
20
-16.0912874574504
30
0
41
1
10
-1.7950399779393
20
-17.8736321460359
30
0
41
1
10
-1.7950399779393
20
-19.5212067827957
30
0
41
1
10
-1.7950399779393
20
-21.5358154306651
30
0
41
1
10
-1.7950399779393
20
-23.700041734096
30
0
41
1
10
-1.7950399779393
20
-25.3575216796987
30
0
41
1
10
-1.7950399779393
20
-26.3428367495094
30
0
41
1
10
-1.7950399779393
20
-26.8970145803873
30
0
41
1
10
-1.7950399779393
20
-27.245957823772
30
0
41
1
10
-1.7950399779393
20
-27.3301240394586
30
0
41
1
10
-1.7950399779393
20
-27.3302801548742
30
0
0
SPLINE
5
20C
100
AcDbEntity
8
SK1
62
256
6
ByLayer
370
18
48
1
60
0
100
AcDbSpline
70
4
71
3
72
10
73
6
40
0
40
0
40
0
40
0
40
0.5
40
0.5
40
1
40
1
40
1
40
1
41
1
10
-1.31543506509497
20
-4.38400264074409
30
0
41
1
10
-1.56439631051781
20
-2.97547748314099
30
0
41
1
10
-1.75242867689093
20
-1.49009306398449
30
0
41
1
10
-1.75240608573227
20
1.49039849686221
30
0
41
1
10
-1.56449925027111
20
2.97488551987459
30
0
41
1
10
-1.3154350650947
20
4.38399907131412
30
0
0
SPLINE
5
20D
100
AcDbEntity
8
SK1
62
256
6
ByLayer
370
18
48
1
60
0
100
AcDbSpline
70
4
71
2
72
6
73
3
40
0
40
0
40
0
40
1
40
1
40
1
41
1
10
-1.7950399779393
20
-27.3302802805385
30
0
41
1
10
-0.995008433390495
20
-27.3503705409136
30
0
41
1
10
-0.194976888875288
20
-27.3704608021962
30
0
0
SPLINE
5
20E
100
AcDbEntity
8
SK1
62
256
6
ByLayer
370
18
48
1
60
0
100
AcDbSpline
70
4
71
2
72
6
73
3
40
0
40
0
40
0
40
1
40
1
40
1
41
1
10
-0.194976888875288
20
27.3704607993534
30
0
41
1
10
-0.995008433390495
20
27.350370538078
30
0
41
1
10
-1.7950399779393
20
27.3302802777101
30
0
0
SPLINE
5
20F
100
AcDbEntity
8
SK1
62
256
6
ByLayer
370
18
48
1
60
0
100
AcDbSpline
70
4
71
2
72
6
73
3
40
0
40
0
40
0
40
1
40
1
40
1
41
1
10
-48
20
-25.5419663287412
30
0
41
1
10
-47.2499999132885
20
-25.9747784724426
30
0
41
1
10
-46.5
20
-26.4075907397315
30
0
0
SPLINE
5
210
100
AcDbEntity
8
SK1
62
256
6
ByLayer
370
18
48
1
60
0
100
AcDbSpline
70
4
71
2
72
6
73
3
40
0
40
0
40
0
40
1
40
1
40
1
41
1
10
-46.5
20
26.4075907442629
30
0
41
1
10
-47.2499999132837
20
25.9747784772615
30
0
41
1
10
-48
20
25.5419663338579
30
0
0
SPLINE
5
211
100
AcDbEntity
8
SK1
62
256
6
ByLayer
370
18
48
1
60
0
100
AcDbSpline
70
4
71
3
72
45
73
41
40
0
40
0
40
0
40
0
40
0.0277074455770838
40
0.0554893964597622
40
0.0832713473424406
40
0.111053298225119
40
0.166617199990476
40
0.222181101755833
40
0.249963052638511
40
0.27774500352119
40
0.305526954403868
40
0.333308905286546
40
0.361090856169225
40
0.388872807051903
40
0.416654757934582
40
0.44443670881726
40
0.458327684258599
40
0.472218659699938
40
0.486109635141277
40
0.493055122861947
40
0.500000610582617
40
0.506946098303286
40
0.513891586023956
40
0.527782561465295
40
0.541673536906634
40
0.555564512347973
40
0.583346463230652
40
0.61112841411333
40
0.638910364996009
40
0.666692315878687
40
0.694474266761365
40
0.722256217644044
40
0.750038168526722
40
0.777820119409401
40
0.833384021174758
40
0.888947922940114
40
0.916729873822793
40
0.944511824705471
40
0.972293775588149
40
1
40
1
40
1
40
1
41
1
10
-48
20
25.5419696485707
30
0
41
1
10
-48
20
25.5433532555109
30
0
41
1
10
-48
20
25.4650057795344
30
0
41
1
10
-48
20
25.1322423058368
30
0
41
1
10
-48
20
24.6051668540076
30
0
41
1
10
-48
20
23.6617751290281
30
0
41
1
10
-48
20
22.0785994449066
30
0
41
1
10
-48
20
20.0084884195235
30
0
41
1
10
-48
20
18.0723405108652
30
0
41
1
10
-48
20
16.4949787826047
30
0
41
1
10
-48
20
14.7914038739651
30
0
41
1
10
-48
20
12.9663999896199
30
0
41
1
10
-48
20
11.0239030410075
30
0
41
1
10
-48
20
8.96954478592528
30
0
41
1
10
-48
20
6.81203164289121
30
0
41
1
10
-48
20
4.94841081308101
30
0
41
1
10
-48
20
3.41067939554097
30
0
41
1
10
-48
20
2.26472380030219
30
0
41
1
10
-48
20
1.32161426869368
30
0
41
1
10
-48
20
0.561043122289902
30
0
41
1
10
-48
20
5.827932341E-07
30
0
41
1
10
-48
20
-0.561042317499357
30
0
41
1
10
-48
20
-1.3216147524717
30
0
41
1
10
-48
20
-2.26472549180261
30
0
41
1
10
-48
20
-3.41067960251758
30
0
41
1
10
-48
20
-4.94841006457398
30
0
41
1
10
-48
20
-6.81203204941386
30
0
41
1
10
-48
20
-8.96954490381307
30
0
41
1
10
-48
20
-11.0239029348613
30
0
41
1
10
-48
20
-12.966399868565
30
0
41
1
10
-48
20
-14.7914034442658
30
0
41
1
10
-48
20
-16.4949784354157
30
0
41
1
10
-48
20
-18.0723405814037
30
0
41
1
10
-48
20
-20.0084888586245
30
0
41
1
10
-48
20
-22.078597234948
30
0
41
1
10
-48
20
-23.6617793915961
30
0
41
1
10
-48
20
-24.6051666313139
30
0
41
1
10
-48
20
-25.1322425559434
30
0
41
1
10
-48
20
-25.465000840627
30
0
41
1
10
-48
20
-25.5433497995918
30
0
41
1
10
-48
20
-25.5419698340081
30
0
0
SPLINE
5
212
100
AcDbEntity
8
1
62
256
6
ByLayer
370
18
48
1
60
0
100
AcDbSpline
70
4
71
3
72
26
73
22
40
0
40
0
40
0
40
0
40
0.0755865112246329
40
0.0755865112246329
40
0.175416143242351
40
0.175416143242351
40
0.296375862620513
40
0.296375862620513
40
0.437308120595563
40
0.437308120595563
40
0.583058081596844
40
0.583058081596844
40
0.680752532153692
40
0.680752532153692
40
0.779363617044445
40
0.779363617044445
40
0.864964158475025
40
0.864964158475025
40
0.945052664325125
40
0.945052664325125
40
1
40
1
40
1
40
1
41
1
10
462.324711419704
20
38.8622233233671
30
0
41
1
10
462.188878743338
20
38.8660517578757
30
0
41
1
10
462.054401010683
20
38.8743343840486
30
0
41
1
10
461.758550377934
20
38.9012122063191
30
0
41
1
10
461.598964305919
20
38.9225157070755
30
0
41
1
10
461.280784606085
20
38.9773204342998
30
0
41
1
10
461.125361821435
20
39.0130758315188
30
0
41
1
10
460.845817679524
20
39.0953913196759
30
0
41
1
10
460.726829049272
20
39.1439384139791
30
0
41
1
10
460.571982607228
20
39.2420881214693
30
0
41
1
10
460.536659778386
20
39.2934022081609
30
0
41
1
10
460.574722219051
20
39.372249723163
30
0
41
1
10
460.617162801086
20
39.4029149337771
30
0
41
1
10
460.760012320787
20
39.4573897342628
30
0
41
1
10
460.863708693748
20
39.4819575142305
30
0
41
1
10
461.102905897032
20
39.5182165490572
30
0
41
1
10
461.235816092077
20
39.5316949907051
30
0
41
1
10
461.510999967787
20
39.5496245492412
30
0
41
1
10
461.655526901384
20
39.554862348826
30
0
41
1
10
461.899422014327
20
39.5580240602638
30
0
41
1
10
462.000145693312
20
39.5577684595837
30
0
41
1
10
462.099256514712
20
39.556102172836
30
0
0
SPLINE
5
213
100
AcDbEntity
8
1
62
256
6
ByLayer
370
18
48
1
60
0
100
AcDbSpline
70
4
71
3
72
37
73
33
40
0
40
0
40
0
40
0
40
0.0624999999997299
40
0.0624999999997299
40
0.0937499999996591
40
0.0937499999996591
40
0.124999999999588
40
0.124999999999588
40
0.187499999999553
40
0.187499999999553
40
0.218749999999484
40
0.218749999999484
40
0.249999999999415
40
0.249999999999415
40
0.312499999999346
40
0.312499999999346
40
0.374999999999277
40
0.374999999999277
40
0.406249999999279
40
0.406249999999279
40
0.437499999999282
40
0.499999999999382
40
0.499999999999382
40
0.624999999999581
40
0.624999999999581
40
0.749999999999781
40
0.749999999999781
40
0.812499999999849
40
0.812499999999849
40
0.874999999999916
40
0.874999999999916
40
1
40
1
40
1
40
1
41
1
10
464.861880215352
20
36.4999999999999
30
0
41
1
10
464.834315691291
20
36.4999999999998
30
0
41
1
10
464.807383072849
20
36.5014183751365
30
0
41
1
10
464.76782822645
20
36.5054373146747
30
0
41
1
10
464.754767710049
20
36.5070959039592
30
0
41
1
10
464.728986380649
20
36.5110074632746
30
0
41
1
10
464.7164715251
20
36.5132275648386
30
0
41
1
10
464.679906686863
20
36.5205746715364
30
0
41
1
10
464.656829231903
20
36.5263833994706
30
0
41
1
10
464.623762519121
20
36.5361727287212
30
0
41
1
10
464.612963473484
20
36.5396301620997
30
0
41
1
10
464.592080044723
20
36.5467870801033
30
0
41
1
10
464.581983442852
20
36.5504879763272
30
0
41
1
10
464.552591077025
20
36.5619064175496
30
0
41
1
10
464.53418619562
20
36.5699372966802
30
0
41
1
10
464.499250295579
20
36.5866456261911
30
0
41
1
10
464.482722834142
20
36.5953243826257
30
0
41
1
10
464.459095645527
20
36.6087355052694
30
0
41
1
10
464.45140233376
20
36.6132797461023
30
0
41
1
10
464.436457510876
20
36.6224364820135
30
0
41
1
10
464.414691553245
20
36.6362793586097
30
0
41
1
10
464.394676706867
20
36.650405793622
30
0
41
1
10
464.356592157543
20
36.6789597566688
30
0
41
1
10
464.333776256183
20
36.6983933672614
30
0
41
1
10
464.292008369072
20
36.7377986027564
30
0
41
1
10
464.273069475638
20
36.7577727483978
30
0
41
1
10
464.247014885659
20
36.7880256390795
30
0
41
1
10
464.238721444191
20
36.7981647129594
30
0
41
1
10
464.222907507599
20
36.8184614364962
30
0
41
1
10
464.215380185087
20
36.8286266154988
30
0
41
1
10
464.193837413312
20
36.8591605262332
30
0
41
1
10
464.180856812095
20
36.8795671355843
30
0
41
1
10
464.169059892324
20
36.8999999999999
30
0
0
SPLINE
5
214
100
AcDbEntity
8
1
62
256
6
ByLayer
370
18
48
1
60
0
100
AcDbSpline
70
4
71
3
72
10
73
6
40
0
40
0
40
0
40
0
40
0.5
40
0.5
40
1
40
1
40
1
40
1
41
1
10
466.563089504543
20
29.5603080135081
30
0
41
1
10
466.91847413406
20
30.4504277038847
30
0
41
1
10
467.555614848071
20
31.2322391776639
30
0
41
1
10
469.499388563862
20
32.3802315681785
30
0
41
1
10
470.822969289035
20
32.7261363439071
30
0
41
1
10
472.201245229258
20
32.7261363439071
30
0
0
SPLINE
5
215
100
AcDbEntity
8
1
62
256
6
ByLayer
370
18
48
1
60
0
100
AcDbSpline
70
4
71
3
72
10
73
6
40
0
40
0
40
0
40
0
40
0.5
40
0.5
40
1
40
1
40
1
40
1
41
1
10
472.201245229258
20
-32.7261363439071
30
0
41
1
10
470.825335097272
20
-32.7261363439071
30
0
41
1
10
469.505336486007
20
-32.3829362766829
30
0
41
1
10
467.555439482713
20
-31.2329413505499
30
0
41
1
10
466.918331750843
20
-30.4500710815237
30
0
41
1
10
466.563089504543
20
-29.5603080135082
30
0
0
SPLINE
5
216
100
AcDbEntity
8
1
62
256
6
ByLayer
370
18
48
1
60
0
100
AcDbSpline
70
4
71
3
72
18
73
14
40
0
40
0
40
0
40
0
40
0.0023855590216819
40
0.0023855590216819
40
0.227189706814844
40
0.227189706814844
40
0.439783126697303
40
0.439783126697303
40
0.631654749383839
40
0.631654749383839
40
0.815554635610152
40
0.815554635610152
40
1
40
1
40
1
40
1
41
1
10
496
20
-31.1287648325467
30
0
41
1
10
496
20
-31.130672785418
30
0
41
1
10
495.999993896296
20
-31.1325808756331
30
0
41
1
10
495.998829900545
20
-31.3144822170058
30
0
41
1
10
495.942440230637
20
-31.4951594733764
30
0
41
1
10
495.72726512799
20
-31.8255193621882
30
0
41
1
10
495.571708536959
20
-31.9798342248047
30
0
41
1
10
495.189578671448
20
-32.2407290945901
30
0
41
1
10
494.967233650271
20
-32.3530894466974
30
0
41
1
10
494.473565686278
20
-32.5333235959882
30
0
41
1
10
494.198819313354
20
-32.6047871960893
30
0
41
1
10
493.619852757912
20
-32.700692015252
30
0
41
1
10
493.307799121242
20
-32.7261363439087
30
0
41
1
10
493
20
-32.7261363439087
30
0
0
SPLINE
5
217
100
AcDbEntity
8
1
62
256
6
ByLayer
370
18
48
1
60
0
100
AcDbSpline
70
4
71
3
72
49
73
45
40
0
40
0
40
0
40
0
40
0.0019531250000127
40
0.0019531250000127
40
0.0039062500000253
40
0.0039062500000253
40
0.0078125000000507
40
0.0156250000000677
40
0.0312500000001018
40
0.0625000000001358
40
0.0625000000001358
40
0.125000000000242
40
0.187500000000348
40
0.187500000000348
40
0.218750000000384
40
0.218750000000384
40
0.234375000000386
40
0.234375000000386
40
0.250000000000389
40
0.31250000000036
40
0.375000000000331
40
0.375000000000331
40
0.437500000000302
40
0.437500000000302
40
0.453125000000284
40
0.453125000000284
40
0.468750000000266
40
0.500000000000207
40
0.500000000000207
40
0.562500000000089
40
0.624999999999971
40
0.624999999999971
40
0.656249999999927
40
0.656249999999927
40
0.671874999999919
40
0.671874999999919
40
0.687499999999912
40
0.749999999999929
40
0.812499999999947
40
0.812499999999947
40
0.874999999999965
40
0.874999999999965
40
0.937499999999982
40
1
40
1
40
1
40
1
41
1
10
496
20
-34.62
30
0
41
1
10
496
20
-34.6230256827299
30
0
41
1
10
495.999995422707
20
-34.6260513520643
30
0
41
1
10
495.999977113429
20
-34.6321026639417
30
0
41
1
10
495.999963642165
20
-34.6350852257827
30
0
41
1
10
495.999907928446
20
-34.6442918553832
30
0
41
1
10
495.999740047944
20
-34.6626954259476
30
0
41
1
10
495.998954334702
20
-34.7055694720558
30
0
41
1
10
495.995815737356
20
-34.7910485952767
30
0
41
1
10
495.990466768809
20
-34.8638600843058
30
0
41
1
10
495.976273986052
20
-35.0088831498348
30
0
41
1
10
495.948046535697
20
-35.2006502093386
30
0
41
1
10
495.901342900912
20
-35.3892444401809
30
0
41
1
10
495.859237489846
20
-35.5294739611537
30
0
41
1
10
495.84402066372
20
-35.5760140838847
30
0
41
1
10
495.819384213357
20
-35.6455129319205
30
0
41
1
10
495.810873011416
20
-35.6686158989309
30
0
41
1
10
495.793340014988
20
-35.7144651435586
30
0
41
1
10
495.748174143324
20
-35.8283519278397
30
0
41
1
10
495.655034661411
20
-36.0268088403726
30
0
41
1
10
495.555728669106
20
-36.1940913220879
30
0
41
1
10
495.44809022482
20
-36.3567690610747
30
0
41
1
10
495.390105729241
20
-36.4358060887514
30
0
41
1
10
495.312216943891
20
-36.5316125721987
30
0
41
1
10
495.296369390375
20
-36.5506206677239
30
0
41
1
10
495.264310548367
20
-36.5881225267374
30
0
41
1
10
495.215610923585
20
-36.6436855020859
30
0
41
1
10
495.165095654473
20
-36.6971997205747
30
0
41
1
10
495.061676200064
20
-36.80153219889
30
0
41
1
10
494.917424090644
20
-36.9334652872936
30
0
41
1
10
494.760515269523
20
-37.0511115115713
30
0
41
1
10
494.637971938433
20
-37.1338570420538
30
0
41
1
10
494.596312417735
20
-37.1605223838637
30
0
41
1
10
494.532576909355
20
-37.1991131899147
30
0
41
1
10
494.51114292546
20
-37.2117294920997
30
0
41
1
10
494.46810131223
20
-37.2363511305663
30
0
41
1
10
494.35992093398
20
-37.2964615519738
30
0
41
1
10
494.160079260031
20
-37.3918423026219
30
0
41
1
10
493.975306339387
20
-37.4587473181857
30
0
41
1
10
493.786931406073
20
-37.5166269615347
30
0
41
1
10
493.690909975264
20
-37.541061908064
30
0
41
1
10
493.495256959807
20
-37.5805201922001
30
0
41
1
10
493.298576320748
20
-37.6100512683444
30
0
41
1
10
493.099868700874
20
-37.6200000000006
30
0
41
1
10
493
20
-37.6200000000007
30
0
0
LINE
5
70
100
AcDbEntity
8
80
62
256
6
ByLayer
370
18
48
0.05
60
0
100
AcDbLine
10
0
20
0
30
0
11
-30
21
0
31
0
39
0
210
0
220
0
230
1
0
LINE
5
71
100
AcDbEntity
8
4
62
256
6
ByLayer
370
18
48
0.05
60
0
100
AcDbLine
10
477
20
38.25
30
0
11
477
21
-42.75
31
0
39
0
210
0
220
0
230
1
0
LINE
5
73
100
AcDbEntity
8
SK4
62
256
6
ByLayer
370
18
48
0.05
60
0
100
AcDbLine
10
477
20
-43.082607
30
0
11
477
21
49.804648
31
0
39
0
210
0
220
0
230
1
0
LINE
5
75
100
AcDbEntity
8
4
62
256
6
ByLayer
370
18
48
0.05
60
0
100
AcDbLine
10
0
20
0
30
0
11
502.694518
21
0
31
0
39
0
210
0
220
0
230
1
0
LINE
5
76
100
AcDbEntity
8
SK4
62
256
6
ByLayer
370
18
48
0.05
60
0
100
AcDbLine
10
502.694518
20
0
30
0
11
-57.305482
21
0
31
0
39
0
210
0
220
0
230
1
0
LINE
5
77
100
AcDbEntity
8
2
62
256
6
ByLayer
370
13
48
1
60
0
100
AcDbLine
10
530
20
48.25
30
0
11
530
21
-11.75
31
0
39
0
210
0
220
0
230
1
0
LINE
5
79
100
AcDbEntity
8
2
62
256
6
ByLayer
370
13
48
1
60
0
100
AcDbLine
10
530
20
48.25
30
0
11
529.582003
21
45.075
31
0
39
0
210
0
220
0
230
1
0
LINE
5
7A
100
AcDbEntity
8
2
62
256
6
ByLayer
370
13
48
1
60
0
100
AcDbLine
10
529.582003
20
45.075
30
0
11
530.417997
21
45.075
31
0
39
0
210
0
220
0
230
1
0
LINE
5
7B
100
AcDbEntity
8
2
62
256
6
ByLayer
370
13
48
1
60
0
100
AcDbLine
10
530.077346
20
47.075
30
0
11
530.208998
21
45.075
31
0
39
0
210
0
220
0
230
1
0
LINE
5
7C
100
AcDbEntity
8
2
62
256
6
ByLayer
370
13
48
1
60
0
100
AcDbLine
10
530
20
48.25
30
0
11
530.417997
21
45.075
31
0
39
0
210
0
220
0
230
1
0
LINE
5
7D
100
AcDbEntity
8
2
62
256
6
ByLayer
370
13
48
1
60
0
100
AcDbLine
10
529.922654
20
47.075
30
0
11
529.791002
21
45.075
31
0
39
0
210
0
220
0
230
1
0
LINE
5
7E
100
AcDbEntity
8
81
62
256
6
ByLayer
370
18
48
0.05
60
0
100
AcDbLine
10
500
20
48.25
30
0
11
510.236752
21
48.25
31
0
39
0
210
0
220
0
230
1
0
LINE
5
7F
100
AcDbEntity
8
2
62
256
6
ByLayer
370
13
48
1
60
0
100
AcDbLine
10
530
20
48.25
30
0
11
529.582003
21
45.075
31
0
39
0
210
0
220
0
230
1
0
LINE
5
80
100
AcDbEntity
8
2
62
256
6
ByLayer
370
13
48
1
60
0
100
AcDbLine
10
502
20
48.25
30
0
11
532
21
48.25
31
0
39
0
210
0
220
0
230
1
0
LINE
5
81
100
AcDbEntity
8
2
62
256
6
ByLayer
370
13
48
1
60
0
100
AcDbLine
10
529.582003
20
45.075
30
0
11
530.417997
21
45.075
31
0
39
0
210
0
220
0
230
1
0
LINE
5
82
100
AcDbEntity
8
2
62
256
6
ByLayer
370
13
48
1
60
0
100
AcDbLine
10
530
20
48.25
30
0
11
530.417997
21
45.075
31
0
39
0
210
0
220
0
230
1
0
LINE
5
83
100
AcDbEntity
8
2
62
256
6
ByLayer
370
13
48
1
60
0
100
AcDbLine
10
529.922654
20
47.075
30
0
11
529.791002
21
45.075
31
0
39
0
210
0
220
0
230
1
0
LINE
5
84
100
AcDbEntity
8
2
62
256
6
ByLayer
370
13
48
1
60
0
100
AcDbLine
10
530.077346
20
47.075
30
0
11
530.208998
21
45.075
31
0
39
0
210
0
220
0
230
1
0
LINE
5
85
100
AcDbEntity
8
2
62
256
6
ByLayer
370
13
48
1
60
0
100
AcDbLine
10
530
20
48.25
30
0
11
530
21
-16.75
31
0
39
0
210
0
220
0
230
1
0
LINE
5
86
100
AcDbEntity
8
1
62
256
6
ByLayer
370
18
48
1
60
1
100
AcDbLine
10
0
20
0
30
0
11
0
21
841
31
0
39
0
210
0
220
0
230
1
0
LINE
5
88
100
AcDbEntity
8
1
62
256
6
ByLayer
370
18
48
1
60
1
100
AcDbLine
10
1189
20
841
30
0
11
0
21
841
31
0
39
0
210
0
220
0
230
1
0
LINE
5
89
100
AcDbEntity
8
1
62
256
6
ByLayer
370
18
48
1
60
1
100
AcDbLine
10
1189
20
841
30
0
11
1189
21
0
31
0
39
0
210
0
220
0
230
1
0
LINE
5
8A
100
AcDbEntity
8
1
62
256
6
ByLayer
370
18
48
1
60
1
100
AcDbLine
10
0
20
0
30
0
11
1189
21
0
31
0
39
0
210
0
220
0
230
1
0
LINE
5
8B
100
AcDbEntity
8
1
62
256
6
ByLayer
370
18
48
1
60
1
100
AcDbLine
10
0
20
0
30
0
11
0
21
841
31
0
39
0
210
0
220
0
230
1
0
LINE
5
8C
100
AcDbEntity
8
1
62
256
6
ByLayer
370
18
48
1
60
1
100
AcDbLine
10
1189
20
841
30
0
11
0
21
841
31
0
39
0
210
0
220
0
230
1
0
LINE
5
8D
100
AcDbEntity
8
1
62
256
6
ByLayer
370
18
48
1
60
1
100
AcDbLine
10
1189
20
841
30
0
11
1189
21
0
31
0
39
0
210
0
220
0
230
1
0
LINE
5
8E
100
AcDbEntity
8
1
62
256
6
ByLayer
370
18
48
1
60
1
100
AcDbLine
10
0
20
0
30
0
11
1189
21
0
31
0
39
0
210
0
220
0
230
1
0
LINE
5
8F
100
AcDbEntity
8
1
62
256
6
ByLayer
370
18
48
1
60
0
100
AcDbLine
10
468.845298
20
45.945298
30
0
11
465.25
21
42.35
31
0
39
0
210
0
220
0
230
1
0
LINE
5
90
100
AcDbEntity
8
1
62
256
6
ByLayer
370
18
48
1
60
0
100
AcDbLine
10
497.208636
20
47.425895
30
0
11
486.034507
21
46.840283
31
0
39
0
210
0
220
0
230
1
0
LINE
5
91
100
AcDbEntity
8
1
62
256
6
ByLayer
370
18
48
1
60
0
100
AcDbLine
10
497.977413
20
47.438283
30
0
11
497.20766
21
47.397942
31
0
39
0
210
0
220
0
230
1
0
LINE
5
92
100
AcDbEntity
8
1
62
256
6
ByLayer
370
18
48
1
60
0
100
AcDbLine
10
497.206438
20
47.362957
30
0
11
497.208636
21
47.425895
31
0
39
0
210
0
220
0
230
1
0
LINE
5
93
100
AcDbEntity
8
1
62
256
6
ByLayer
370
18
48
1
60
0
100
AcDbLine
10
497.206438
20
47.362957
30
0
11
496.203994
21
47.310421
31
0
39
0
210
0
220
0
230
1
0
LINE
5
94
100
AcDbEntity
8
1
62
256
6
ByLayer
370
18
48
1
60
0
100
AcDbLine
10
496.203994
20
47.310421
30
0
11
496.203836
21
47.305919
31
0
39
0
210
0
220
0
230
1
0
LINE
5
95
100
AcDbEntity
8
1
62
256
6
ByLayer
370
18
48
1
60
0
100
AcDbLine
10
478.06
20
43.469003
30
0
11
478.06
21
43.527612
31
0
39
0
210
0
220
0
230
1
0
LINE
5
96
100
AcDbEntity
8
1
62
256
6
ByLayer
370
18
48
1
60
0
100
AcDbLine
10
465.25
20
42.35102
30
0
11
465.25
21
38.25
31
0
39
0
210
0
220
0
230
1
0
LINE
5
97
100
AcDbEntity
8
1
62
256
6
ByLayer
370
13
48
1
60
0
100
AcDbLine
10
487.423451
20
46.316885
30
0
11
487.423451
21
38.25
31
0
39
0
210
0
220
0
230
1
0
LINE
5
98
100
AcDbEntity
8
1
62
256
6
ByLayer
370
18
48
1
60
0
100
AcDbLine
10
478.06
20
43.469003
30
0
11
478.06
21
43.416442
31
0
39
0
210
0
220
0
230
1
0
LINE
5
99
100
AcDbEntity
8
1
62
256
6
ByLayer
370
18
48
1
60
0
100
AcDbLine
10
490.32723
20
44.34809
30
0
11
491.423184
21
45.144347
31
0
39
0
210
0
220
0
230
1
0
LINE
5
9A
100
AcDbEntity
8
1
62
256
6
ByLayer
370
18
48
1
60
0
100
AcDbLine
10
491.423184
20
42.112621
30
0
11
491.393036
21
42.13146
31
0
39
0
210
0
220
0
230
1
0
LINE
5
9B
100
AcDbEntity
8
1
62
256
6
ByLayer
370
13
48
1
60
0
100
AcDbLine
10
491.423184
20
42.112621
30
0
11
491.423184
21
37.791856
31
0
39
0
210
0
220
0
230
1
0
LINE
5
9C
100
AcDbEntity
8
1
62
256
6
ByLayer
370
18
48
1
60
0
100
AcDbLine
10
491.423184
20
37.791856
30
0
11
490.884539
21
38.128438
31
0
39
0
210
0
220
0
230
1
0
LINE
5
9D
100
AcDbEntity
8
1
62
256
6
ByLayer
370
13
48
1
60
0
100
AcDbLine
10
491.423184
20
46.970732
30
0
11
491.423184
21
45.144347
31
0
39
0
210
0
220
0
230
1
0
LINE
5
9E
100
AcDbEntity
8
1
62
256
6
ByLayer
370
18
48
1
60
0
100
AcDbLine
10
490.460604
20
38.25
30
0
11
487.423451
21
38.25
31
0
39
0
210
0
220
0
230
1
0
LINE
5
9F
100
AcDbEntity
8
1
62
256
6
ByLayer
370
18
48
1
60
0
100
AcDbLine
10
495.153437
20
46.469941
30
0
11
495.178993
21
47.201787
31
0
39
0
210
0
220
0
230
1
0
LINE
5
A0
100
AcDbEntity
8
1
62
256
6
ByLayer
370
18
48
1
60
0
100
AcDbLine
10
495.153437
20
46.469941
30
0
11
492.910718
21
45.28999
31
0
39
0
210
0
220
0
230
1
0
LINE
5
A1
100
AcDbEntity
8
1
62
256
6
ByLayer
370
18
48
1
60
0
100
AcDbLine
10
491.423184
20
45.144347
30
0
11
491.536914
21
45.226977
31
0
39
0
210
0
220
0
230
1
0
LINE
5
A2
100
AcDbEntity
8
1
62
256
6
ByLayer
370
18
48
1
60
0
100
AcDbLine
10
498.888872
20
35.082236
30
0
11
498.969706
21
37.397031
31
0
39
0
210
0
220
0
230
1
0
LINE
5
A3
100
AcDbEntity
8
1
62
256
6
ByLayer
370
18
48
1
60
0
100
AcDbLine
10
498.888872
20
35.082236
30
0
11
495.25
21
35.400596
31
0
39
0
210
0
220
0
230
1
0
LINE
5
A4
100
AcDbEntity
8
1
62
256
6
ByLayer
370
18
48
1
60
0
100
AcDbLine
10
498.969706
20
37.397031
30
0
11
491.423184
21
42.112621
31
0
39
0
210
0
220
0
230
1
0
LINE
5
A5
100
AcDbEntity
8
1
62
256
6
ByLayer
370
18
48
1
60
0
100
AcDbLine
10
495.25
20
35.400596
30
0
11
491.423184
21
37.791856
31
0
39
0
210
0
220
0
230
1
0
LINE
5
A6
100
AcDbEntity
8
1
62
256
6
ByLayer
370
18
48
1
60
0
100
AcDbLine
10
496.203836
20
47.305919
30
0
11
496.193757
21
47.01728
31
0
39
0
210
0
220
0
230
1
0
LINE
5
A7
100
AcDbEntity
8
1
62
256
6
ByLayer
370
18
48
1
60
0
100
AcDbLine
10
496.193757
20
47.01728
30
0
11
495.153437
21
46.469941
31
0
39
0
210
0
220
0
230
1
0
LINE
5
A8
100
AcDbEntity
8
1
62
256
6
ByLayer
370
18
48
1
60
0
100
AcDbLine
10
492.914864
20
45.169834
30
0
11
493.280894
21
44.941113
31
0
39
0
210
0
220
0
230
1
0
LINE
5
A9
100
AcDbEntity
8
1
62
256
6
ByLayer
370
18
48
1
60
0
100
AcDbLine
10
491.192404
20
44.772173
30
0
11
491.086421
21
44.602563
31
0
39
0
210
0
220
0
230
1
0
LINE
5
AA
100
AcDbEntity
8
1
62
256
6
ByLayer
370
18
48
1
60
0
100
AcDbLine
10
497.206438
20
47.362957
30
0
11
497.194532
21
47.022028
31
0
39
0
210
0
220
0
230
1
0
LINE
5
AB
100
AcDbEntity
8
1
62
256
6
ByLayer
370
18
48
1
60
0
100
AcDbLine
10
498.969706
20
37.397031
30
0
11
498.988717
21
37.941438
31
0
39
0
210
0
220
0
230
1
0
LINE
5
AC
100
AcDbEntity
8
1
62
256
6
ByLayer
370
18
48
1
60
0
100
AcDbLine
10
477.087036
20
12.19224
30
0
11
479.042097
21
13.421495
31
0
39
0
210
0
220
0
230
1
0
LINE
5
AD
100
AcDbEntity
8
1
62
256
6
ByLayer
370
18
48
1
60
0
100
AcDbLine
10
479.042097
20
13.421495
30
0
11
478.955061
21
15.729255
31
0
39
0
210
0
220
0
230
1
0
LINE
5
AE
100
AcDbEntity
8
1
62
256
6
ByLayer
370
18
48
1
60
0
100
AcDbLine
10
478.955061
20
15.729255
30
0
11
476.912964
21
16.80776
31
0
39
0
210
0
220
0
230
1
0
LINE
5
AF
100
AcDbEntity
8
1
62
256
6
ByLayer
370
18
48
1
60
0
100
AcDbLine
10
476.912964
20
16.80776
30
0
11
474.957903
21
15.578505
31
0
39
0
210
0
220
0
230
1
0
LINE
5
B0
100
AcDbEntity
8
1
62
256
6
ByLayer
370
18
48
1
60
0
100
AcDbLine
10
474.957903
20
15.578505
30
0
11
475.044939
21
13.270745
31
0
39
0
210
0
220
0
230
1
0
LINE
5
B1
100
AcDbEntity
8
1
62
256
6
ByLayer
370
18
48
1
60
0
100
AcDbLine
10
475.044939
20
13.270745
30
0
11
477.087036
21
12.19224
31
0
39
0
210
0
220
0
230
1
0
LINE
5
B2
100
AcDbEntity
8
1
62
256
6
ByLayer
370
18
48
1
60
0
100
AcDbLine
10
481.75
20
-39.176
30
0
11
481.75
21
-39.145991
31
0
39
0
210
0
220
0
230
1
0
LINE
5
B3
100
AcDbEntity
8
1
62
256
6
ByLayer
370
18
48
1
60
0
100
AcDbLine
10
472.25
20
-39.145991
30
0
11
472.25
21
-39.176
31
0
39
0
210
0
220
0
230
1
0
LINE
5
B4
100
AcDbEntity
8
1
62
256
6
ByLayer
370
18
48
1
60
0
100
AcDbLine
10
481.75
20
-39.176
30
0
11
472.25
21
-39.176
31
0
39
0
210
0
220
0
230
1
0
LINE
5
B5
100
AcDbEntity
8
1
62
256
6
ByLayer
370
18
48
1
60
0
100
AcDbLine
10
465.191088
20
-37.619998
30
0
11
465.206421
21
-37.635331
31
0
39
0
210
0
220
0
230
1
0
LINE
5
B6
100
AcDbEntity
8
1
62
256
6
ByLayer
370
18
48
1
60
0
100
AcDbLine
10
488.793579
20
-37.635331
30
0
11
488.808912
21
-37.619998
31
0
39
0
210
0
220
0
230
1
0
LINE
5
B7
100
AcDbEntity
8
1
62
256
6
ByLayer
370
18
48
1
60
0
100
AcDbLine
10
477.0375
20
-37.635331
30
0
11
478.440916
21
-37.635331
31
0
39
0
210
0
220
0
230
1
0
LINE
5
B8
100
AcDbEntity
8
1
62
256
6
ByLayer
370
18
48
1
60
0
100
AcDbLine
10
475.559084
20
-37.635331
30
0
11
476.9625
21
-37.635331
31
0
39
0
210
0
220
0
230
1
0
LINE
5
B9
100
AcDbEntity
8
1
62
256
6
ByLayer
370
18
48
1
60
0
100
AcDbLine
10
474.103393
20
-37.635331
30
0
11
475.484676
21
-37.635331
31
0
39
0
210
0
220
0
230
1
0
LINE
5
BA
100
AcDbEntity
8
1
62
256
6
ByLayer
370
18
48
1
60
0
100
AcDbLine
10
472.693383
20
-37.635331
30
0
11
474.030749
21
-37.635331
31
0
39
0
210
0
220
0
230
1
0
LINE
5
BB
100
AcDbEntity
8
1
62
256
6
ByLayer
370
18
48
1
60
0
100
AcDbLine
10
471.35129
20
-37.635331
30
0
11
472.623649
21
-37.635331
31
0
39
0
210
0
220
0
230
1
0
LINE
5
BC
100
AcDbEntity
8
1
62
256
6
ByLayer
370
18
48
1
60
0
100
AcDbLine
10
470.098282
20
-37.635331
30
0
11
471.285567
21
-37.635331
31
0
39
0
210
0
220
0
230
1
0
LINE
5
BD
100
AcDbEntity
8
1
62
256
6
ByLayer
370
18
48
1
60
0
100
AcDbLine
10
468.954117
20
-37.635331
30
0
11
470.037605
21
-37.635331
31
0
39
0
210
0
220
0
230
1
0
LINE
5
BE
100
AcDbEntity
8
1
62
256
6
ByLayer
370
18
48
1
60
0
100
AcDbLine
10
467.936841
20
-37.635331
30
0
11
468.899444
21
-37.635331
31
0
39
0
210
0
220
0
230
1
0
LINE
5
BF
100
AcDbEntity
8
1
62
256
6
ByLayer
370
18
48
1
60
0
100
AcDbLine
10
467.062496
20
-37.635331
30
0
11
467.889034
21
-37.635331
31
0
39
0
210
0
220
0
230
1
0
LINE
5
C0
100
AcDbEntity
8
1
62
256
6
ByLayer
370
18
48
1
60
0
100
AcDbLine
10
466.344872
20
-37.635331
30
0
11
467.022309
21
-37.635331
31
0
39
0
210
0
220
0
230
1
0
LINE
5
C1
100
AcDbEntity
8
1
62
256
6
ByLayer
370
18
48
1
60
0
100
AcDbLine
10
465.795285
20
-37.635331
30
0
11
466.312938
21
-37.635331
31
0
39
0
210
0
220
0
230
1
0
LINE
5
C2
100
AcDbEntity
8
1
62
256
6
ByLayer
370
18
48
1
60
0
100
AcDbLine
10
465.422403
20
-37.635331
30
0
11
465.772109
21
-37.635331
31
0
39
0
210
0
220
0
230
1
0
LINE
5
C3
100
AcDbEntity
8
1
62
256
6
ByLayer
370
18
48
1
60
0
100
AcDbLine
10
465.232107
20
-37.635331
30
0
11
465.40835
21
-37.635331
31
0
39
0
210
0
220
0
230
1
0
LINE
5
C4
100
AcDbEntity
8
1
62
256
6
ByLayer
370
18
48
1
60
0
100
AcDbLine
10
465.206421
20
-37.635331
30
0
11
465.227398
21
-37.635331
31
0
39
0
210
0
220
0
230
1
0
LINE
5
C5
100
AcDbEntity
8
1
62
256
6
ByLayer
370
18
48
1
60
0
100
AcDbLine
10
488.772602
20
-37.635331
30
0
11
488.793579
21
-37.635331
31
0
39
0
210
0
220
0
230
1
0
LINE
5
C6
100
AcDbEntity
8
1
62
256
6
ByLayer
370
18
48
1
60
0
100
AcDbLine
10
488.59165
20
-37.635331
30
0
11
488.767893
21
-37.635331
31
0
39
0
210
0
220
0
230
1
0
LINE
5
C7
100
AcDbEntity
8
1
62
256
6
ByLayer
370
18
48
1
60
0
100
AcDbLine
10
488.227891
20
-37.635331
30
0
11
488.577597
21
-37.635331
31
0
39
0
210
0
220
0
230
1
0
LINE
5
C8
100
AcDbEntity
8
1
62
256
6
ByLayer
370
18
48
1
60
0
100
AcDbLine
10
487.687062
20
-37.635331
30
0
11
488.204715
21
-37.635331
31
0
39
0
210
0
220
0
230
1
0
LINE
5
C9
100
AcDbEntity
8
1
62
256
6
ByLayer
370
18
48
1
60
0
100
AcDbLine
10
486.977691
20
-37.635331
30
0
11
487.655128
21
-37.635331
31
0
39
0
210
0
220
0
230
1
0
LINE
5
CA
100
AcDbEntity
8
1
62
256
6
ByLayer
370
18
48
1
60
0
100
AcDbLine
10
486.110966
20
-37.635331
30
0
11
486.937504
21
-37.635331
31
0
39
0
210
0
220
0
230
1
0
LINE
5
CB
100
AcDbEntity
8
1
62
256
6
ByLayer
370
18
48
1
60
0
100
AcDbLine
10
485.100556
20
-37.635331
30
0
11
486.063159
21
-37.635331
31
0
39
0
210
0
220
0
230
1
0
LINE
5
CC
100
AcDbEntity
8
1
62
256
6
ByLayer
370
18
48
1
60
0
100
AcDbLine
10
483.962395
20
-37.635331
30
0
11
485.045883
21
-37.635331
31
0
39
0
210
0
220
0
230
1
0
LINE
5
CD
100
AcDbEntity
8
1
62
256
6
ByLayer
370
18
48
1
60
0
100
AcDbLine
10
482.714433
20
-37.635331
30
0
11
483.901718
21
-37.635331
31
0
39
0
210
0
220
0
230
1
0
LINE
5
CE
100
AcDbEntity
8
1
62
256
6
ByLayer
370
18
48
1
60
0
100
AcDbLine
10
481.376351
20
-37.635331
30
0
11
482.64871
21
-37.635331
31
0
39
0
210
0
220
0
230
1
0
LINE
5
CF
100
AcDbEntity
8
1
62
256
6
ByLayer
370
18
48
1
60
0
100
AcDbLine
10
479.969251
20
-37.635331
30
0
11
481.306617
21
-37.635331
31
0
39
0
210
0
220
0
230
1
0
LINE
5
D0
100
AcDbEntity
8
1
62
256
6
ByLayer
370
18
48
1
60
0
100
AcDbLine
10
478.515324
20
-37.635331
30
0
11
479.896607
21
-37.635331
31
0
39
0
210
0
220
0
230
1
0
LINE
5
D1
100
AcDbEntity
8
1
62
256
6
ByLayer
370
18
48
1
60
0
100
AcDbLine
10
477.0375
20
-38.240182
30
0
11
476.9625
21
-38.240182
31
0
39
0
210
0
220
0
230
1
0
LINE
5
D2
100
AcDbEntity
8
1
62
256
6
ByLayer
370
18
48
1
60
0
100
AcDbLine
10
465.206421
20
-37.635331
30
0
11
472.25
21
-39.146
31
0
39
0
210
0
220
0
230
1
0
LINE
5
D3
100
AcDbEntity
8
1
62
256
6
ByLayer
370
18
48
1
60
0
100
AcDbLine
10
481.75
20
-39.146
30
0
11
488.793579
21
-37.635331
31
0
39
0
210
0
220
0
230
1
0
LINE
5
D4
100
AcDbEntity
8
1
62
256
6
ByLayer
370
18
48
1
60
0
100
AcDbLine
10
472.25
20
-39.146
30
0
11
481.75
21
-39.146
31
0
39
0
210
0
220
0
230
1
0
LINE
5
D5
100
AcDbEntity
8
1
62
256
6
ByLayer
370
18
48
1
60
0
100
AcDbLine
10
475.78721
20
-38.025707
30
0
11
475.742677
21
-38.025707
31
0
39
0
210
0
220
0
230
1
0
LINE
5
D6
100
AcDbEntity
8
1
62
256
6
ByLayer
370
18
48
1
60
0
100
AcDbLine
10
475.505592
20
-37.62
30
0
11
475.742677
21
-38.025707
31
0
39
0
210
0
220
0
230
1
0
LINE
5
D7
100
AcDbEntity
8
1
62
256
6
ByLayer
370
18
48
1
60
0
100
AcDbLine
10
478.494408
20
-37.62
30
0
11
478.257323
21
-38.025707
31
0
39
0
210
0
220
0
230
1
0
LINE
5
D8
100
AcDbEntity
8
1
62
256
6
ByLayer
370
18
48
1
60
0
100
AcDbLine
10
478.257323
20
-38.025707
30
0
11
478.21279
21
-38.025707
31
0
39
0
210
0
220
0
230
1
0
LINE
5
D9
100
AcDbEntity
8
1
62
256
6
ByLayer
370
18
48
1
60
0
100
AcDbLine
10
475.742677
20
-38.025707
30
0
11
475.741363
21
-38.07458
31
0
39
0
210
0
220
0
230
1
0
LINE
5
DA
100
AcDbEntity
8
1
62
256
6
ByLayer
370
18
48
1
60
0
100
AcDbLine
10
478.257323
20
-38.025707
30
0
11
478.258637
21
-38.07458
31
0
39
0
210
0
220
0
230
1
0
LINE
5
DB
100
AcDbEntity
8
1
62
256
6
ByLayer
370
18
48
1
60
0
100
AcDbLine
10
479.927748
20
-37.62
30
0
11
479.457318
21
-38.025707
31
0
39
0
210
0
220
0
230
1
0
LINE
5
DC
100
AcDbEntity
8
1
62
256
6
ByLayer
370
18
48
1
60
0
100
AcDbLine
10
479.457318
20
-38.025707
30
0
11
479.443951
21
-38.025707
31
0
39
0
210
0
220
0
230
1
0
LINE
5
DD
100
AcDbEntity
8
1
62
256
6
ByLayer
370
18
48
1
60
0
100
AcDbLine
10
474.556049
20
-38.025707
30
0
11
474.542682
21
-38.025707
31
0
39
0
210
0
220
0
230
1
0
LINE
5
DE
100
AcDbEntity
8
1
62
256
6
ByLayer
370
18
48
1
60
0
100
AcDbLine
10
474.072252
20
-37.62
30
0
11
474.542682
21
-38.025707
31
0
39
0
210
0
220
0
230
1
0
LINE
5
DF
100
AcDbEntity
8
1
62
256
6
ByLayer
370
18
48
1
60
0
100
AcDbLine
10
474.542682
20
-38.025707
30
0
11
474.540075
21
-38.07458
31
0
39
0
210
0
220
0
230
1
0
LINE
5
E0
100
AcDbEntity
8
1
62
256
6
ByLayer
370
18
48
1
60
0
100
AcDbLine
10
479.457318
20
-38.025707
30
0
11
479.459925
21
-38.07458
31
0
39
0
210
0
220
0
230
1
0
LINE
5
E1
100
AcDbEntity
8
1
62
256
6
ByLayer
370
18
48
1
60
0
100
AcDbLine
10
472.685085
20
-37.62
30
0
11
472.688468
21
-37.621971
31
0
39
0
210
0
220
0
230
1
0
LINE
5
E2
100
AcDbEntity
8
1
62
256
6
ByLayer
370
18
48
1
60
0
100
AcDbLine
10
481.314915
20
-37.62
30
0
11
481.311532
21
-37.621971
31
0
39
0
210
0
220
0
230
1
0
LINE
5
E3
100
AcDbEntity
8
1
62
256
6
ByLayer
370
18
48
1
60
0
100
AcDbLine
10
473.380649
20
-38.03574
30
0
11
473.377582
21
-38.07458
31
0
39
0
210
0
220
0
230
1
0
LINE
5
E4
100
AcDbEntity
8
1
62
256
6
ByLayer
370
18
48
1
60
0
100
AcDbLine
10
480.619351
20
-38.03574
30
0
11
480.622418
21
-38.07458
31
0
39
0
210
0
220
0
230
1
0
LINE
5
E5
100
AcDbEntity
8
1
62
256
6
ByLayer
370
18
48
1
60
0
100
AcDbLine
10
481.724893
20
-38.046608
30
0
11
481.727783
21
-38.07458
31
0
39
0
210
0
220
0
230
1
0
LINE
5
E6
100
AcDbEntity
8
1
62
256
6
ByLayer
370
18
48
1
60
0
100
AcDbLine
10
472.275107
20
-38.046608
30
0
11
472.272217
21
-38.07458
31
0
39
0
210
0
220
0
230
1
0
LINE
5
E7
100
AcDbEntity
8
1
62
256
6
ByLayer
370
18
48
1
60
0
100
AcDbLine
10
482.170803
20
-38.289053
30
0
11
482.168135
21
-38.267887
31
0
39
0
210
0
220
0
230
1
0
LINE
5
E8
100
AcDbEntity
8
1
62
256
6
ByLayer
370
18
48
1
60
0
100
AcDbLine
10
471.829197
20
-38.289053
30
0
11
471.831865
21
-38.267887
31
0
39
0
210
0
220
0
230
1
0
LINE
5
E9
100
AcDbEntity
8
1
62
256
6
ByLayer
370
18
48
1
60
0
100
AcDbLine
10
470.303826
20
-38.058204
30
0
11
470.301422
21
-38.07458
31
0
39
0
210
0
220
0
230
1
0
LINE
5
EA
100
AcDbEntity
8
1
62
256
6
ByLayer
370
18
48
1
60
0
100
AcDbLine
10
483.696174
20
-38.058204
30
0
11
483.698578
21
-38.07458
31
0
39
0
210
0
220
0
230
1
0
LINE
5
EB
100
AcDbEntity
8
1
62
256
6
ByLayer
370
18
48
1
60
0
100
AcDbLine
10
469.469176
20
-38.061858
30
0
11
469.467074
21
-38.07458
31
0
39
0
210
0
220
0
230
1
0
LINE
5
EC
100
AcDbEntity
8
1
62
256
6
ByLayer
370
18
48
1
60
0
100
AcDbLine
10
484.530824
20
-38.061858
30
0
11
484.532926
21
-38.07458
31
0
39
0
210
0
220
0
230
1
0
LINE
5
ED
100
AcDbEntity
8
1
62
256
6
ByLayer
370
18
48
1
60
0
100
AcDbLine
10
468.753291
20
-38.064821
30
0
11
468.751524
21
-38.07458
31
0
39
0
210
0
220
0
230
1
0
LINE
5
EE
100
AcDbEntity
8
1
62
256
6
ByLayer
370
18
48
1
60
0
100
AcDbLine
10
485.246709
20
-38.064821
30
0
11
485.248476
21
-38.07458
31
0
39
0
210
0
220
0
230
1
0
LINE
5
EF
100
AcDbEntity
8
1
62
256
6
ByLayer
370
18
48
1
60
0
100
AcDbLine
10
468.167462
20
-38.067343
30
0
11
468.166057
21
-38.07458
31
0
39
0
210
0
220
0
230
1
0
LINE
5
F0
100
AcDbEntity
8
1
62
256
6
ByLayer
370
18
48
1
60
0
100
AcDbLine
10
485.832538
20
-38.067343
30
0
11
485.833943
21
-38.07458
31
0
39
0
210
0
220
0
230
1
0
LINE
5
F1
100
AcDbEntity
8
1
62
256
6
ByLayer
370
18
48
1
60
0
100
AcDbLine
10
468.670964
20
-38.289053
30
0
11
468.671984
21
-38.284056
31
0
39
0
210
0
220
0
230
1
0
LINE
5
F2
100
AcDbEntity
8
1
62
256
6
ByLayer
370
18
48
1
60
0
100
AcDbLine
10
485.329036
20
-38.289053
30
0
11
485.328016
21
-38.284056
31
0
39
0
210
0
220
0
230
1
0
LINE
5
F3
100
AcDbEntity
8
1
62
256
6
ByLayer
370
18
48
1
60
0
100
AcDbLine
10
486.579272
20
-38.071647
30
0
11
486.57989
21
-38.07458
31
0
39
0
210
0
220
0
230
1
0
LINE
5
F4
100
AcDbEntity
8
1
62
256
6
ByLayer
370
18
48
1
60
0
100
AcDbLine
10
467.420728
20
-38.071647
30
0
11
467.42011
21
-38.07458
31
0
39
0
210
0
220
0
230
1
0
LINE
5
F5
100
AcDbEntity
8
1
62
256
6
ByLayer
370
18
48
1
60
0
100
AcDbLine
10
486.728399
20
-38.073613
30
0
11
486.728606
21
-38.07458
31
0
39
0
210
0
220
0
230
1
0
LINE
5
F6
100
AcDbEntity
8
1
62
256
6
ByLayer
370
18
48
1
60
0
100
AcDbLine
10
467.271601
20
-38.073613
30
0
11
467.271394
21
-38.07458
31
0
39
0
210
0
220
0
230
1
0
LINE
5
F7
100
AcDbEntity
8
1
62
256
6
ByLayer
370
18
48
1
60
0
100
AcDbLine
10
465
20
38.1
30
0
11
489
21
38.1
31
0
39
0
210
0
220
0
230
1
0
LINE
5
F8
100
AcDbEntity
8
1
62
256
6
ByLayer
370
18
48
1
60
0
100
AcDbLine
10
489
20
38.1
30
0
11
488.85
21
38.25
31
0
39
0
210
0
220
0
230
1
0
LINE
5
F9
100
AcDbEntity
8
1
62
256
6
ByLayer
370
18
48
1
60
0
100
AcDbLine
10
465.15
20
38.25
30
0
11
465
21
38.1
31
0
39
0
210
0
220
0
230
1
0
LINE
5
FA
100
AcDbEntity
8
1
62
256
6
ByLayer
370
18
48
1
60
0
100
AcDbLine
10
465.15
20
38.25
30
0
11
487.872156
21
38.25
31
0
39
0
210
0
220
0
230
1
0
LINE
5
FB
100
AcDbEntity
8
1
62
256
6
ByLayer
370
18
48
1
60
0
100
AcDbLine
10
0.3
20
-40
30
0
11
456.7
21
-40
31
0
39
0
210
0
220
0
230
1
0
LINE
5
FC
100
AcDbEntity
8
1
62
256
6
ByLayer
370
18
48
1
60
0
100
AcDbLine
10
456.7
20
40
30
0
11
0.3
21
40
31
0
39
0
210
0
220
0
230
1
0
LINE
5
FD
100
AcDbEntity
8
1
62
256
6
ByLayer
370
18
48
1
60
0
100
AcDbLine
10
13.461325
20
12.13309
30
0
11
10.538675
21
12.13309
31
0
39
0
210
0
220
0
230
1
0
LINE
5
FE
100
AcDbEntity
8
1
62
256
6
ByLayer
370
18
48
1
60
0
100
AcDbLine
10
10.538675
20
38.115458
30
0
11
13.461325
21
38.115458
31
0
39
0
210
0
220
0
230
1
0
LINE
5
FF
100
AcDbEntity
8
1
62
256
6
ByLayer
370
18
48
1
60
0
100
AcDbLine
10
0.3
20
40
30
0
11
0.3
21
0
31
0
39
0
210
0
220
0
230
1
0
LINE
5
100
100
AcDbEntity
8
1
62
256
6
ByLayer
370
18
48
1
60
0
100
AcDbLine
10
0.3
20
0
30
0
11
0.3
21
-40
31
0
39
0
210
0
220
0
230
1
0
LINE
5
101
100
AcDbEntity
8
1
62
256
6
ByLayer
370
18
48
1
60
0
100
AcDbLine
10
13.461325
20
-38.115458
30
0
11
10.538675
21
-38.115458
31
0
39
0
210
0
220
0
230
1
0
LINE
5
102
100
AcDbEntity
8
1
62
256
6
ByLayer
370
18
48
1
60
0
100
AcDbLine
10
10.538675
20
-12.13309
30
0
11
13.461325
21
-12.13309
31
0
39
0
210
0
220
0
230
1
0
LINE
5
103
100
AcDbEntity
8
1
62
256
6
ByLayer
370
13
48
1
60
0
100
AcDbLine
10
456.7
20
40
30
0
11
456.7
21
0
31
0
39
0
210
0
220
0
230
1
0
LINE
5
104
100
AcDbEntity
8
1
62
256
6
ByLayer
370
13
48
1
60
0
100
AcDbLine
10
456.7
20
0
30
0
11
456.7
21
-40
31
0
39
0
210
0
220
0
230
1
0
LINE
5
105
100
AcDbEntity
8
1
62
256
6
ByLayer
370
18
48
1
60
0
100
AcDbLine
10
0.3
20
40
30
0
11
0
21
39.7
31
0
39
0
210
0
220
0
230
1
0
LINE
5
106
100
AcDbEntity
8
1
62
256
6
ByLayer
370
18
48
1
60
0
100
AcDbLine
10
0
20
-39.7
30
0
11
0.3
21
-40
31
0
39
0
210
0
220
0
230
1
0
LINE
5
107
100
AcDbEntity
8
1
62
256
6
ByLayer
370
18
48
1
60
0
100
AcDbLine
10
0
20
39.7
30
0
11
0
21
0
31
0
39
0
210
0
220
0
230
1
0
LINE
5
108
100
AcDbEntity
8
1
62
256
6
ByLayer
370
18
48
1
60
0
100
AcDbLine
10
0
20
0
30
0
11
0
21
-39.7
31
0
39
0
210
0
220
0
230
1
0
LINE
5
109
100
AcDbEntity
8
1
62
256
6
ByLayer
370
13
48
1
60
0
100
AcDbLine
10
13.894338
20
12.6576
30
0
11
13.894338
21
37.944501
31
0
39
0
210
0
220
0
230
1
0
LINE
5
10A
100
AcDbEntity
8
1
62
256
6
ByLayer
370
13
48
1
60
0
100
AcDbLine
10
13.461325
20
12.13309
30
0
11
13.461325
21
38.115458
31
0
39
0
210
0
220
0
230
1
0
LINE
5
10B
100
AcDbEntity
8
1
62
256
6
ByLayer
370
13
48
1
60
0
100
AcDbLine
10
10.538675
20
-38.115458
30
0
11
10.538675
21
-12.13309
31
0
39
0
210
0
220
0
230
1
0
LINE
5
10C
100
AcDbEntity
8
1
62
256
6
ByLayer
370
13
48
1
60
0
100
AcDbLine
10
10.105662
20
-37.944501
30
0
11
10.105662
21
-12.6576
31
0
39
0
210
0
220
0
230
1
0
LINE
5
10D
100
AcDbEntity
8
1
62
256
6
ByLayer
370
13
48
1
60
0
100
AcDbLine
10
10.538675
20
12.13309
30
0
11
10.538675
21
38.115458
31
0
39
0
210
0
220
0
230
1
0
LINE
5
10E
100
AcDbEntity
8
1
62
256
6
ByLayer
370
13
48
1
60
0
100
AcDbLine
10
10.105662
20
12.6576
30
0
11
10.105662
21
37.944501
31
0
39
0
210
0
220
0
230
1
0
LINE
5
10F
100
AcDbEntity
8
1
62
256
6
ByLayer
370
13
48
1
60
0
100
AcDbLine
10
13.894338
20
-37.944501
30
0
11
13.894338
21
-12.6576
31
0
39
0
210
0
220
0
230
1
0
LINE
5
110
100
AcDbEntity
8
1
62
256
6
ByLayer
370
13
48
1
60
0
100
AcDbLine
10
13.461325
20
-38.115458
30
0
11
13.461325
21
-12.13309
31
0
39
0
210
0
220
0
230
1
0
LINE
5
111
100
AcDbEntity
8
SK1
62
256
6
ByLayer
370
13
48
1
60
0
100
AcDbLine
10
-1.315435
20
-4.384003
30
0
11
-1.315435
21
4.383999
31
0
39
0
210
0
220
0
230
1
0
LINE
5
113
100
AcDbEntity
8
1
62
256
6
ByLayer
370
18
48
1
60
0
100
AcDbLine
10
499.416811
20
48.203632
30
0
11
490.919582
21
43.685575
31
0
39
0
210
0
220
0
230
1
0
LINE
5
114
100
AcDbEntity
8
1
62
256
6
ByLayer
370
18
48
1
60
0
100
AcDbLine
10
499.663903
20
38.221516
30
0
11
499.999766
21
47.839361
31
0
39
0
210
0
220
0
230
1
0
LINE
5
115
100
AcDbEntity
8
1
62
256
6
ByLayer
370
18
48
1
60
0
100
AcDbLine
10
490.895592
20
42.998586
30
0
11
499.056958
21
37.898798
31
0
39
0
210
0
220
0
230
1
0
LINE
5
116
100
AcDbEntity
8
1
62
256
6
ByLayer
370
13
48
1
60
0
100
AcDbLine
10
466.56309
20
-29.560308
30
0
11
466.56309
21
29.560308
31
0
39
0
210
0
220
0
230
1
0
LINE
5
117
100
AcDbEntity
8
1
62
256
6
ByLayer
370
18
48
1
60
0
100
AcDbLine
10
457
20
-40
30
0
11
461.12
21
-40
31
0
39
0
210
0
220
0
230
1
0
LINE
5
118
100
AcDbEntity
8
1
62
256
6
ByLayer
370
18
48
1
60
0
100
AcDbLine
10
462.379274
20
40
30
0
11
457
21
40
31
0
39
0
210
0
220
0
230
1
0
LINE
5
119
100
AcDbEntity
8
1
62
256
6
ByLayer
370
18
48
1
60
0
100
AcDbLine
10
462.640844
20
39.546947
30
0
11
462.379274
21
40
31
0
39
0
210
0
220
0
230
1
0
LINE
5
11A
100
AcDbEntity
8
1
62
256
6
ByLayer
370
18
48
1
60
0
100
AcDbLine
10
463.047999
20
38.841734
30
0
11
464.16906
21
36.9
31
0
39
0
210
0
220
0
230
1
0
LINE
5
11B
100
AcDbEntity
8
1
62
256
6
ByLayer
370
18
48
1
60
0
100
AcDbLine
10
464.86188
20
36.5
30
0
11
476.534391
21
36.5
31
0
39
0
210
0
220
0
230
1
0
LINE
5
11C
100
AcDbEntity
8
1
62
256
6
ByLayer
370
18
48
1
60
0
100
AcDbLine
10
476.534391
20
36.5
30
0
11
488.486891
21
32.726136
31
0
39
0
210
0
220
0
230
1
0
LINE
5
11D
100
AcDbEntity
8
1
62
256
6
ByLayer
370
18
48
1
60
0
100
AcDbLine
10
472.201245
20
32.726136
30
0
11
488.486891
21
32.726136
31
0
39
0
210
0
220
0
230
1
0
LINE
5
11E
100
AcDbEntity
8
1
62
256
6
ByLayer
370
18
48
1
60
0
100
AcDbLine
10
493
20
-32.726136
30
0
11
472.201245
21
-32.726136
31
0
39
0
210
0
220
0
230
1
0
LINE
5
11F
100
AcDbEntity
8
1
62
256
6
ByLayer
370
13
48
1
60
0
100
AcDbLine
10
493
20
-37.62
30
0
11
493
21
-32.726136
31
0
39
0
210
0
220
0
230
1
0
LINE
5
120
100
AcDbEntity
8
1
62
256
6
ByLayer
370
18
48
1
60
0
100
AcDbLine
10
463.5
20
-37.62
30
0
11
493
21
-37.62
31
0
39
0
210
0
220
0
230
1
0
LINE
5
121
100
AcDbEntity
8
1
62
256
6
ByLayer
370
18
48
1
60
0
100
AcDbLine
10
461.12
20
-40
30
0
11
463.5
21
-37.62
31
0
39
0
210
0
220
0
230
1
0
LINE
5
122
100
AcDbEntity
8
1
62
256
6
ByLayer
370
18
48
1
60
0
100
AcDbLine
10
457
20
40
30
0
11
457
21
-40
31
0
39
0
210
0
220
0
230
1
0
LINE
5
123
100
AcDbEntity
8
1
62
256
6
ByLayer
370
13
48
1
60
0
100
AcDbLine
10
472.201245
20
32.726136
30
0
11
472.201245
21
-32.726136
31
0
39
0
210
0
220
0
230
1
0
LINE
5
124
100
AcDbEntity
8
1
62
256
6
ByLayer
370
13
48
1
60
0
100
AcDbLine
10
493
20
-32.726136
30
0
11
493
21
30.219216
31
0
39
0
210
0
220
0
230
1
0
LINE
5
125
100
AcDbEntity
8
1
62
256
6
ByLayer
370
18
48
1
60
0
100
AcDbLine
10
493
20
30.219216
30
0
11
496
21
28.344608
31
0
39
0
210
0
220
0
230
1
0
LINE
5
126
100
AcDbEntity
8
1
62
256
6
ByLayer
370
18
48
1
60
0
100
AcDbLine
10
496
20
28.344608
30
0
11
496
21
-31.128765
31
0
39
0
210
0
220
0
230
1
0
LINE
5
127
100
AcDbEntity
8
1
62
256
6
ByLayer
370
18
48
1
60
0
100
AcDbLine
10
496
20
-31.128765
30
0
11
496
21
-34.62
31
0
39
0
210
0
220
0
230
1
0
LINE
5
128
100
AcDbEntity
8
1
62
256
6
ByLayer
370
18
48
1
60
0
100
AcDbLine
10
489.5
20
32.406259
30
0
11
488.486891
21
32.726136
31
0
39
0
210
0
220
0
230
1
0
LINE
5
129
100
AcDbEntity
8
1
62
256
6
ByLayer
370
18
48
1
60
0
100
AcDbLine
10
493
20
30.219216
30
0
11
489.5
21
32.406259
31
0
39
0
210
0
220
0
230
1
0
LINE
5
12A
100
AcDbEntity
8
1
62
256
6
ByLayer
370
13
48
1
60
0
100
AcDbLine
10
462.099257
20
39.556102
30
0
11
462.324724
21
38.862185
31
0
39
0
210
0
220
0
230
1
0
LINE
5
12B
100
AcDbEntity
8
1
62
256
6
ByLayer
370
18
48
1
60
0
100
AcDbLine
10
463.048018
20
38.841701
30
0
11
462.640844
21
39.546947
31
0
39
0
210
0
220
0
230
1
0
LINE
5
12C
100
AcDbEntity
8
1
62
256
6
ByLayer
370
18
48
1
60
0
100
AcDbLine
10
465
20
38.1
30
0
11
465
21
36.5
31
0
39
0
210
0
220
0
230
1
0
LINE
5
12D
100
AcDbEntity
8
1
62
256
6
ByLayer
370
18
48
1
60
0
100
AcDbLine
10
489
20
32.564128
30
0
11
489
21
38.1
31
0
39
0
210
0
220
0
230
1
0
MTEXT
5
218
100
AcDbEntity
8
2
62
256
6
ByLayer
370
18
48
1
60
0
100
AcDbMText
10
529.051282
20
-10.579087
30
0
210
0
220
0
230
1
1
\W0.7839;Dc = 86.0 - 107.0
40
3
41
0
44
1.084337
50
89.9999999999995
71
7
72
5
7
iso_b_vert
0
MTEXT
5
21B
100
AcDbEntity
8
SK6
62
256
6
ByLayer
370
18
48
1
60
0
100
AcDbMText
10
505.75
20
59.250114
30
0
210
0
220
0
230
1
1
\W0.7327;825D-107TC11U-C8M
40
3
41
0
44
1.084337
50
0
71
7
72
5
7
iso_b_vert
0
DIMENSION
5
227
100
AcDbEntity
8
SK2
62
256
6
ByLayer
370
18
48
1
60
0
100
AcDbDimension
2
DimnDraft3D1
10
-75.5
20
-40
30
0
11
-75
21
-4.151312
31
0
70
33
71
5
72
1
41
1
210
0
220
0
230
1
3
Standard
100
AcDbAlignedDimension
13
-1.7
23
40
33
0
14
-1.7
24
-40
34
0
1001
ACAD
1000
DSTYLE
1002
{
1070
   279
1070
     0
1070
    74
1070
     0
1070
   173
1070
     1
1070
   340
1005
219
1070
   271
1070
     0
1070
    77
1070
     1
1070
    73
1070
     0
1070
   171
1070
     4
1070
   274
1070
     4
1070
   177
1070
     7
1070
   176
1070
     7
1070
   178
1070
     7
1070
    78
1070
     8
1070
    41
1041
3.175
1070
   147
1041
1.5
1070
    42
1041
2.0
1070
    44
1041
2.0
1070
   140
1041
3.0
1070
   343
1005
0
1070
   344
1005
0
1002
}
0
DIMENSION
5
231
100
AcDbEntity
8
SK2
62
256
6
ByLayer
370
18
48
1
60
0
100
AcDbDimension
2
DimnDraft3D2
10
477
20
-61.5
30
0
11
233.701831
21
-61.5
31
0
70
32
71
5
72
1
41
1
210
0
220
0
230
1
3
Standard
100
AcDbAlignedDimension
13
0
23
-41.7
33
0
14
477
24
-44.75
34
0
50
0
100
AcDbRotatedDimension
1001
ACAD
1000
DSTYLE
1002
{
1070
   279
1070
     0
1070
   172
1070
     1
1070
   173
1070
     1
1070
   340
1005
219
1070
   271
1070
     1
1070
    77
1070
     1
1070
    73
1070
     0
1070
   171
1070
     4
1070
   274
1070
     4
1070
   177
1070
     7
1070
   176
1070
     7
1070
   178
1070
     7
1070
    41
1041
3.175
1070
   147
1041
1.5
1070
    42
1041
2.0
1070
    44
1041
2.0
1070
   140
1041
3.0
1070
   343
1005
0
1070
   344
1005
0
1002
}
0
DIMENSION
5
23B
100
AcDbEntity
8
SK2
62
256
6
ByLayer
370
18
48
1
60
0
100
AcDbDimension
2
DimnDraft3D3
10
496
20
-76.5
30
0
11
243.201831
21
-76.5
31
0
70
32
71
5
72
1
41
1
210
0
220
0
230
1
3
Standard
100
AcDbAlignedDimension
13
0
23
-41.7
33
0
14
496
24
-36.62
34
0
50
0
100
AcDbRotatedDimension
1001
ACAD
1000
DSTYLE
1002
{
1070
   279
1070
     0
1070
   172
1070
     1
1070
   173
1070
     1
1070
   340
1005
219
1070
   271
1070
     1
1070
    77
1070
     1
1070
    73
1070
     0
1070
   171
1070
     4
1070
   274
1070
     4
1070
   177
1070
     7
1070
   176
1070
     7
1070
   178
1070
     7
1070
    41
1041
3.175
1070
   147
1041
1.5
1070
    42
1041
2.0
1070
    44
1041
2.0
1070
   140
1041
3.0
1070
   343
1005
0
1070
   344
1005
0
1002
}
0
DIMENSION
5
245
100
AcDbEntity
8
SK2
62
256
6
ByLayer
370
18
48
1
60
0
100
AcDbDimension
2
DimnDraft3D4
10
496
20
-91.5
30
0
11
219.043888
21
-91.5
31
0
70
32
71
5
72
1
41
1
210
0
220
0
230
1
3
Standard
100
AcDbAlignedDimension
13
-48
23
-26.575089
33
0
14
496
24
-36.62
34
0
50
0
100
AcDbRotatedDimension
1001
ACAD
1000
DSTYLE
1002
{
1070
   279
1070
     0
1070
   172
1070
     1
1070
   173
1070
     1
1070
   340
1005
219
1070
   271
1070
     1
1070
    77
1070
     1
1070
    73
1070
     0
1070
   171
1070
     4
1070
   274
1070
     4
1070
   177
1070
     7
1070
   176
1070
     7
1070
   178
1070
     7
1070
    41
1041
3.175
1070
   147
1041
1.5
1070
    42
1041
2.0
1070
    44
1041
2.0
1070
   140
1041
3.0
1070
   343
1005
0
1070
   344
1005
0
1002
}
0
DIMENSION
5
24F
100
AcDbEntity
8
2
62
256
6
ByLayer
370
18
48
1
60
0
100
AcDbDimension
2
DimnDraft3D5
10
500
20
73.5
30
0
11
245.359774
21
73.5
31
0
70
32
71
5
72
1
41
1
210
0
220
0
230
1
3
Standard
100
AcDbAlignedDimension
13
0
23
41.7
33
0
14
500
24
50.25
34
0
50
0
100
AcDbRotatedDimension
1001
ACAD
1000
DSTYLE
1002
{
1070
   279
1070
     0
1070
   172
1070
     1
1070
   173
1070
     1
1070
   340
1005
219
1070
   271
1070
     1
1070
    77
1070
     1
1070
    73
1070
     0
1070
   171
1070
     4
1070
   274
1070
     4
1070
   177
1070
     7
1070
   176
1070
     7
1070
   178
1070
     7
1070
    41
1041
3.175
1070
   147
1041
1.5
1070
    42
1041
2.0
1070
    44
1041
2.0
1070
   140
1041
3.0
1070
   343
1005
0
1070
   344
1005
0
1002
}
0
DIMENSION
5
259
100
AcDbEntity
8
2
62
256
6
ByLayer
370
13
48
1
60
0
100
AcDbDimension
2
DimnDraft3D6
10
501
20
48.25
30
0
11
513.161398
21
34.63558
31
0
70
34
71
5
72
1
41
1
210
0
220
0
230
1
3
Standard
100
AcDb2LineAngularDimension
13
499.663903
23
38.221516
33
0
14
499.999766
24
47.839361
34
0
15
500
25
48.25
35
0
16
515.245374
26
32.47756
36
0
40
0
0
ENDSEC
0
SECTION
2
OBJECTS
0
DICTIONARY
5
2ca
330
0
100
AcDbDictionary
280
0
281
1
3
ACAD_GROUP
350
2cb
3
ACAD_GROUP
350
2cc
3
ACAD_MLINESTYLE
350
2cd
0
DICTIONARY
5
2cb
330
0
100
AcDbDictionary
280
0
281
1
0
DICTIONARY
5
2cc
330
0
100
AcDbDictionary
280
0
281
1
3
_DC
350
263
3
<202204853MOD000_00>
350
262
3
DIT-000-00-UG_TO_2D CONVERT_825D_SIZEF AND_G
350
265
3
DIT-000-00-UG_TO_2D CONVERT_825D_SIZEF AND_G9
350
266
3
R825C_AF23STUC1103A_A1
350
264
0
DICTIONARY
5
2cd
330
0
100
AcDbDictionary
280
0
281
1
3
Standard
350
18
0
GROUP
5
263
330
2cc
100
AcDbGroup
300

70
0
71
1
340
7D
340
79
340
7C
340
7B
340
7A
340
77
340
218
0
GROUP
5
262
330
2cc
100
AcDbGroup
300

70
0
71
1
340
6C
340
6E
340
70
340
71
340
73
340
75
340
76
340
77
340
79
340
7A
340
7B
340
7C
340
7D
340
7E
340
7F
340
80
340
81
340
82
340
83
340
84
340
85
340
86
340
88
340
89
340
8A
340
8B
340
8C
340
8D
340
8E
340
8F
340
90
340
91
340
92
340
93
340
94
340
95
340
96
340
97
340
98
340
99
340
9A
340
9B
340
9C
340
9D
340
9E
340
9F
340
A0
340
A1
340
A2
340
A3
340
A4
340
A5
340
A6
340
A7
340
A8
340
A9
340
AA
340
AB
340
AC
340
AD
340
AE
340
AF
340
B0
340
B1
340
B2
340
B3
340
B4
340
B5
340
B6
340
B7
340
B8
340
B9
340
BA
340
BB
340
BC
340
BD
340
BE
340
BF
340
C0
340
C1
340
C2
340
C3
340
C4
340
C5
340
C6
340
C7
340
C8
340
C9
340
CA
340
CB
340
CC
340
CD
340
CE
340
CF
340
D0
340
D1
340
D2
340
D3
340
D4
340
D5
340
D6
340
D7
340
D8
340
D9
340
DA
340
DB
340
DC
340
DD
340
DE
340
DF
340
E0
340
E1
340
E2
340
E3
340
E4
340
E5
340
E6
340
E7
340
E8
340
E9
340
EA
340
EB
340
EC
340
ED
340
EE
340
EF
340
F0
340
F1
340
F2
340
F3
340
F4
340
F5
340
F6
340
F7
340
F8
340
F9
340
FA
340
FB
340
FC
340
FD
340
FE
340
FF
340
100
340
101
340
102
340
103
340
104
340
105
340
106
340
107
340
108
340
109
340
10A
340
10B
340
10C
340
10D
340
10E
340
10F
340
110
340
111
340
113
340
114
340
115
340
116
340
117
340
118
340
119
340
11A
340
11B
340
11C
340
11D
340
11E
340
11F
340
120
340
121
340
122
340
123
340
124
340
125
340
126
340
127
340
128
340
129
340
12A
340
12B
340
12C
340
12D
340
12E
340
12F
340
130
340
131
340
132
340
133
340
134
340
135
340
136
340
137
340
138
340
139
340
13A
340
13B
340
13C
340
13D
340
13E
340
13F
340
140
340
141
340
142
340
143
340
144
340
145
340
146
340
147
340
148
340
149
340
14A
340
14B
340
14C
340
14D
340
14E
340
14F
340
150
340
151
340
152
340
153
340
154
340
155
340
156
340
157
340
158
340
159
340
15A
340
15B
340
15C
340
15D
340
15E
340
15F
340
160
340
161
340
162
340
163
340
164
340
165
340
166
340
167
340
168
340
169
340
16A
340
16B
340
16C
340
16D
340
16E
340
16F
340
170
340
171
340
172
340
173
340
174
340
175
340
176
340
177
340
178
340
179
340
17A
340
17B
340
17C
340
17D
340
17E
340
17F
340
180
340
181
340
182
340
183
340
184
340
185
340
186
340
187
340
188
340
189
340
18A
340
18B
340
18C
340
18D
340
18E
340
18F
340
190
340
191
340
192
340
193
340
194
340
195
340
196
340
197
340
198
340
199
340
19A
340
19B
340
19C
340
19D
340
19E
340
19F
340
1A0
340
1A1
340
1A2
340
1A3
340
1A4
340
1A5
340
1A6
340
1A7
340
1A8
340
1A9
340
1AA
340
1AB
340
1AC
340
1AD
340
1AE
340
1AF
340
1B0
340
1B1
340
1B2
340
1B3
340
1B4
340
1B5
340
1B6
340
1B7
340
1B8
340
1B9
340
1BA
340
1BB
340
1BC
340
1BD
340
1BE
340
1BF
340
1C0
340
1C1
340
1C2
340
1C3
340
1C4
340
1C5
340
1C6
340
1C7
340
1C8
340
1C9
340
1CA
340
1CB
340
1CC
340
1CD
340
1CE
340
1CF
340
1D0
340
1D1
340
1D2
340
1D3
340
1D4
340
1D5
340
1D6
340
1D7
340
1D8
340
1D9
340
1DA
340
1DB
340
1DC
340
1DD
340
1DE
340
1DF
340
1E0
340
1E1
340
1E2
340
1E3
340
1E4
340
1E5
340
1E6
340
1E7
340
1E8
340
1E9
340
1EA
340
1EB
340
1EC
340
1ED
340
1EE
340
1EF
340
1F0
340
1F1
340
1F2
340
1F3
340
1F4
340
1F5
340
1F6
340
1F7
340
1F8
340
1F9
340
1FA
340
1FB
340
1FC
340
1FD
340
1FE
340
1FF
340
200
340
201
340
202
340
203
340
204
340
205
340
206
340
207
340
208
340
209
340
20A
340
20B
340
20C
340
20D
340
20E
340
20F
340
210
340
211
340
212
340
213
340
214
340
215
340
216
340
217
340
7D
340
79
340
7C
340
7B
340
7A
340
77
340
218
340
6E
340
7E
340
7F
340
80
340
81
340
82
340
83
340
84
340
85
340
21B
340
259
340
86
340
88
340
89
340
8A
340
8B
340
8C
340
8D
340
8E
340
8F
340
90
340
91
340
92
340
93
340
94
340
95
340
96
340
97
340
98
340
99
340
9A
340
9B
340
9C
340
9D
340
9E
340
9F
340
A0
340
A1
340
A2
340
A3
340
A4
340
A5
340
A6
340
A7
340
A8
340
A9
340
AA
340
AB
340
AC
340
AD
340
AE
340
AF
340
B0
340
B1
340
B2
340
B3
340
B4
340
B5
340
B6
340
B7
340
B8
340
B9
340
BA
340
BB
340
BC
340
BD
340
BE
340
BF
340
C0
340
C1
340
C2
340
C3
340
C4
340
C5
340
C6
340
C7
340
C8
340
C9
340
CA
340
CB
340
CC
340
CD
340
CE
340
CF
340
D0
340
D1
340
D2
340
D3
340
D4
340
D5
340
D6
340
D7
340
D8
340
D9
340
DA
340
DB
340
DC
340
DD
340
DE
340
DF
340
E0
340
E1
340
E2
340
E3
340
E4
340
E5
340
E6
340
E7
340
E8
340
E9
340
EA
340
EB
340
EC
340
ED
340
EE
340
EF
340
F0
340
F1
340
F2
340
F3
340
F4
340
F5
340
F6
340
12D
340
12C
340
F7
340
F8
340
F9
340
FA
340
FB
340
FC
340
FD
340
FE
340
FF
340
100
340
101
340
102
340
103
340
104
340
105
340
106
340
107
340
108
340
109
340
10A
340
10B
340
10C
340
10D
340
10E
340
10F
340
110
340
111
340
113
340
114
340
115
340
116
340
117
340
118
340
119
340
11A
340
11B
340
11C
340
11D
340
11E
340
11F
340
120
340
121
340
122
340
123
340
124
340
125
340
126
340
127
340
128
340
129
340
12A
340
12B
340
12E
340
12F
340
130
340
131
340
132
340
133
340
134
340
135
340
136
340
137
340
138
340
139
340
13A
340
13B
340
13C
340
13D
340
13E
340
13F
340
140
340
141
340
142
340
143
340
144
340
145
340
146
340
147
340
148
340
149
340
14A
340
14B
340
14C
340
14D
340
14E
340
14F
340
150
340
151
340
152
340
153
340
154
340
155
340
156
340
157
340
158
340
159
340
15A
340
15B
340
15C
340
15D
340
15E
340
15F
340
160
340
161
340
162
340
163
340
164
340
165
340
166
340
167
340
168
340
169
340
16A
340
16B
340
16C
340
16D
340
16E
340
16F
340
170
340
171
340
172
340
173
340
174
340
175
340
176
340
177
340
178
340
179
340
17A
340
17B
340
17C
340
17D
340
17E
340
17F
340
180
340
181
340
182
340
183
340
184
340
185
340
186
340
187
340
188
340
189
340
18A
340
18B
340
18C
340
18D
340
18E
340
18F
340
190
340
191
340
192
340
193
340
194
340
195
340
196
340
197
340
198
340
199
340
19A
340
19B
340
19C
340
19D
340
19E
340
19F
340
1A0
340
1A1
340
1A2
340
1A3
340
1A4
340
1A5
340
1A6
340
1A7
340
1A8
340
1A9
340
1AA
340
1AB
340
1AC
340
1AD
340
1AE
340
1AF
340
1B0
340
1B1
340
1B2
340
1B3
340
1B4
340
1B5
340
1B6
340
1B7
340
1B8
340
1B9
340
1BA
340
1BB
340
1BC
340
1BD
340
1BE
340
1BF
340
1C0
340
1C1
340
1C2
340
1C3
340
1C4
340
1C5
340
1C6
340
1C7
340
1C8
340
1C9
340
1CA
340
1CB
340
1CC
340
1CD
340
1CE
340
1CF
340
1D0
340
1D1
340
1D2
340
1D3
340
1D4
340
1D5
340
1D6
340
1D7
340
1D8
340
1D9
340
1DA
340
1DB
340
1DC
340
1DD
340
1DE
340
1DF
340
1E0
340
1E1
340
1E2
340
1E3
340
1E4
340
1E5
340
1E6
340
1E7
340
1E8
340
1E9
340
1EA
340
1EB
340
1EC
340
1ED
340
1EE
340
1EF
340
1F0
340
1F1
340
1F2
340
1F3
340
1F4
340
1F5
340
1F6
340
1F7
340
1F8
340
1F9
340
1FA
340
1FB
340
1FC
340
1FD
340
1FE
340
1FF
340
200
340
201
340
202
340
203
340
204
340
205
340
206
340
207
340
208
340
209
340
20A
340
20B
340
20C
340
20D
340
20E
340
20F
340
210
340
211
340
212
340
213
340
214
340
215
340
216
340
217
340
218
340
21B
340
227
340
231
340
23B
340
245
340
24F
340
259
0
GROUP
5
265
330
2cc
100
AcDbGroup
300

70
0
71
1
340
86
340
88
340
89
340
8A
0
GROUP
5
266
330
2cc
100
AcDbGroup
300

70
0
71
1
340
8B
340
8C
340
8D
340
8E
340
8F
340
90
340
91
340
92
340
93
340
94
340
95
340
96
340
97
340
98
340
99
340
9A
340
9B
340
9C
340
9D
340
9E
340
9F
340
A0
340
A1
340
A2
340
A3
340
A4
340
A5
340
A6
340
A7
340
A8
340
A9
340
AA
340
AB
340
AC
340
AD
340
AE
340
AF
340
B0
340
B1
340
B2
340
B3
340
B4
340
B5
340
B6
340
B7
340
B8
340
B9
340
BA
340
BB
340
BC
340
BD
340
BE
340
BF
340
C0
340
C1
340
C2
340
C3
340
C4
340
C5
340
C6
340
C7
340
C8
340
C9
340
CA
340
CB
340
CC
340
CD
340
CE
340
CF
340
D0
340
D1
340
D2
340
D3
340
D4
340
D5
340
D6
340
D7
340
D8
340
D9
340
DA
340
DB
340
DC
340
DD
340
DE
340
DF
340
E0
340
E1
340
E2
340
E3
340
E4
340
E5
340
E6
340
E7
340
E8
340
E9
340
EA
340
EB
340
EC
340
ED
340
EE
340
EF
340
F0
340
F1
340
F2
340
F3
340
F4
340
F5
340
F6
340
12D
340
12C
340
F7
340
F8
340
F9
340
FA
340
FB
340
FC
340
FD
340
FE
340
FF
340
100
340
101
340
102
340
103
340
104
340
105
340
106
340
107
340
108
340
109
340
10A
340
10B
340
10C
340
10D
340
10E
340
10F
340
110
340
111
340
113
340
114
340
115
340
116
340
117
340
118
340
119
340
11A
340
11B
340
11C
340
11D
340
11E
340
11F
340
120
340
121
340
122
340
123
340
124
340
125
340
126
340
127
340
128
340
129
340
12A
340
12B
340
12E
340
12F
340
130
340
131
340
132
340
133
340
134
340
135
340
136
340
137
340
138
340
139
340
13A
340
13B
340
13C
340
13D
340
13E
340
13F
340
140
340
141
340
142
340
143
340
144
340
145
340
146
340
147
340
148
340
149
340
14A
340
14B
340
14C
340
14D
340
14E
340
14F
340
150
340
151
340
152
340
153
340
154
340
155
340
156
340
157
340
158
340
159
340
15A
340
15B
340
15C
340
15D
340
15E
340
15F
340
160
340
161
340
162
340
163
340
164
340
165
340
166
340
167
340
168
340
169
340
16A
340
16B
340
16C
340
16D
340
16E
340
16F
340
170
340
171
340
172
340
173
340
174
340
175
340
176
340
177
340
178
340
179
340
17A
340
17B
340
17C
340
17D
340
17E
340
17F
340
180
340
181
340
182
340
183
340
184
340
185
340
186
340
187
340
188
340
189
340
18A
340
18B
340
18C
340
18D
340
18E
340
18F
340
190
340
191
340
192
340
193
340
194
340
195
340
196
340
197
340
198
340
199
340
19A
340
19B
340
19C
340
19D
340
19E
340
19F
340
1A0
340
1A1
340
1A2
340
1A3
340
1A4
340
1A5
340
1A6
340
1A7
340
1A8
340
1A9
340
1AA
340
1AB
340
1AC
340
1AD
340
1AE
340
1AF
340
1B0
340
1B1
340
1B2
340
1B3
340
1B4
340
1B5
340
1B6
340
1B7
340
1B8
340
1B9
340
1BA
340
1BB
340
1BC
340
1BD
340
1BE
340
1BF
340
1C0
340
1C1
340
1C2
340
1C3
340
1C4
340
1C5
340
1C6
340
1C7
340
1C8
340
1C9
340
1CA
340
1CB
340
1CC
340
1CD
340
1CE
340
1CF
340
1D0
340
1D1
340
1D2
340
1D3
340
1D4
340
1D5
340
1D6
340
1D7
340
1D8
340
1D9
340
1DA
340
1DB
340
1DC
340
1DD
340
1DE
340
1DF
340
1E0
340
1E1
340
1E2
340
1E3
340
1E4
340
1E5
340
1E6
340
1E7
340
1E8
340
1E9
340
1EA
340
1EB
340
1EC
340
1ED
340
1EE
340
1EF
340
1F0
340
1F1
340
1F2
340
1F3
340
1F4
340
1F5
340
1F6
340
1F7
340
1F8
340
1F9
340
1FA
340
1FB
340
1FC
340
1FD
340
1FE
340
1FF
340
200
340
201
340
202
340
203
340
204
340
205
340
206
340
207
340
208
340
209
340
20A
340
20B
340
20C
340
20D
340
20E
340
20F
340
210
340
211
340
212
340
213
340
214
340
215
340
216
340
217
0
GROUP
5
264
330
2cc
100
AcDbGroup
300

70
0
71
1
340
6E
340
7E
340
7F
340
80
340
81
340
82
340
83
340
84
340
85
340
21B
340
259
0
MLINESTYLE
5
18
330
2cd
100
AcDbMlineStyle
2
Standard
70
0
3

62
256
51
90
52
90
71
2
49
-0.5
62
256
6
ByLayer
49
0.5
62
256
6
ByLayer
0
RASTERVARIABLES
5
2b7
330

100
AcDbRasterVariables
90
0
70
1
71
1
72
1
0
ENDSEC
0
EOF
