0
SECTION
2
HEADER
9
$ACADVER
1
AC1015
9
$DWGCODEPAGE
3
ANSI_1252
9
$HANDSEED
5
4a8
9
$ANGBASE
50
0
9
$ANGDIR
70
0
9
$ATTMODE
70
1
9
$AUNITS
70
0
9
$AUPREC
70
0
9
$CECOLOR
62
256
9
$CELTSCALE
40
1
9
$CELTYPE
6
ByLayer
9
$CELWEIGHT
370
18
9
$CLAYER
8
0
9
$CMLJUST
70
0
9
$CMLSCALE
40
1
9
$CMLSTYLE
2
Standard
9
$DIMSTYLE
2
Standard
9
$TEXTSIZE
40
0.2
9
$TEXTSTYLE
7
Standard
9
$LUNITS
70
2
9
$LUPREC
70
4
9
$EXTNAMES
290
1
9
$INSUNITS
70
4
9
$LTSCALE
40
1
9
$LWDISPLAY
290
1
9
$PDMODE
70
0
9
$PDSIZE
40
0
9
$PLINEGEN
70
0
0
ENDSEC
0
SECTION
2
CLASSES
0
CLASS
1
RASTERVARIABLES
2
AcDbRasterVariables
3
ISM
90
0
280
0
281
0
0
ENDSEC
0
SECTION
2
TABLES
0
TABLE
2
VPORT
5
49e
100
AcDbSymbolTable
0
VPORT
5
1
100
AcDbSymbolTableRecord
100
AcDbViewportTableRecord
2
*Active
70
0
10
0
20
0
11
1
21
1
12
-1
22
1
13
0
23
0
14
0.5
24
0.5
15
10
25
10
16
0
26
0
36
1
17
0
27
0
37
0
0
ENDTAB
0
TABLE
2
LTYPE
5
49f
100
AcDbSymbolTable
0
LTYPE
5
14
100
AcDbSymbolTableRecord
100
AcDbLinetypeTableRecord
70
0
2
ByBlock
3

72
65
73
0
40
0
0
LTYPE
5
15
100
AcDbSymbolTableRecord
100
AcDbLinetypeTableRecord
70
0
2
ByLayer
3

72
65
73
0
40
0
0
LTYPE
5
16
100
AcDbSymbolTableRecord
100
AcDbLinetypeTableRecord
70
0
2
CONTINUOUS
3
Solid line
72
65
73
0
40
0
0
LTYPE
5
6A
100
AcDbSymbolTableRecord
100
AcDbLinetypeTableRecord
70
0
2
CENTER
3
____ _ ____ _ ____ _ ____
72
65
73
4
40
47.5
49
22
74
0
49
-8.5
74
0
49
8.5
74
0
49
-8.5
74
0
0
LTYPE
5
6B
100
AcDbSymbolTableRecord
100
AcDbLinetypeTableRecord
70
0
2
DASHED
3
__ __ __ __ __ __ __ __ __
72
65
73
2
40
25.72
49
12.86
74
0
49
-12.86
74
0
0
ENDTAB
0
TABLE
2
LAYER
5
4a0
100
AcDbSymbolTable
0
LAYER
5
10
100
AcDbSymbolTableRecord
100
AcDbLayerTableRecord
2
0
70
0
62
7
6
CONTINUOUS
290
1
370
-3
390
0
0
LAYER
5
6D
100
AcDbSymbolTableRecord
100
AcDbLayerTableRecord
2
80
70
0
62
-6
6
CONTINUOUS
290
1
370
-3
390
0
0
LAYER
5
6F
100
AcDbSymbolTableRecord
100
AcDbLayerTableRecord
2
81
70
0
62
-3
6
CONTINUOUS
290
1
370
-3
390
0
0
LAYER
5
71
100
AcDbSymbolTableRecord
100
AcDbLayerTableRecord
2
1
70
0
62
4
6
CONTINUOUS
290
1
370
-3
390
0
0
LAYER
5
3E6
100
AcDbSymbolTableRecord
100
AcDbLayerTableRecord
2
2
70
0
62
7
6
CONTINUOUS
290
1
370
-3
390
0
0
LAYER
5
48b
100
AcDbSymbolTableRecord
100
AcDbLayerTableRecord
2
SK1
70
0
62
4
6
CONTINUOUS
290
1
370
-3
390
0
0
LAYER
5
48c
100
AcDbSymbolTableRecord
100
AcDbLayerTableRecord
2
SK2
70
0
62
7
6
CONTINUOUS
290
1
370
-3
390
0
0
LAYER
5
48d
100
AcDbSymbolTableRecord
100
AcDbLayerTableRecord
2
SK6
70
0
62
5
6
CONTINUOUS
290
1
370
-3
390
0
0
ENDTAB
0
TABLE
2
STYLE
5
4a1
100
AcDbSymbolTable
0
STYLE
5
11
100
AcDbSymbolTableRecord
100
AcDbTextStyleTableRecord
2
Standard
3
txt
70
0
71
0
40
0
41
1
42
0
50
0
0
STYLE
5
3E0
100
AcDbSymbolTableRecord
100
AcDbTextStyleTableRecord
2
iso_b_vert
3
simplex.shx
70
0
71
0
40
0
41
1
42
0
50
0
0
STYLE
5
3E1
100
AcDbSymbolTableRecord
100
AcDbTextStyleTableRecord
2
DWGDirectTextStyle
3
simplex
70
0
71
0
40
0
41
1
42
0
50
0
0
ENDTAB
0
TABLE
2
DIMSTYLE
5
4a2
100
AcDbSymbolTable
100
AcDbDimStyleTable
0
DIMSTYLE
105
27
100
AcDbSymbolTableRecord
100
AcDbDimStyleTableRecord
2
Standard
70
0
3
<>
41
0.18
42
0.0625
44
0.18
140
0.18
147
0.09
73
0
74
0
77
1
271
2
275
0
278
52
280
0
340
11
0
ENDTAB
0
TABLE
2
VIEW
5
4a3
100
AcDbSymbolTable
0
ENDTAB
0
TABLE
2
UCS
5
4a4
100
AcDbSymbolTable
0
ENDTAB
0
TABLE
2
APPID
5
4a5
100
AcDbSymbolTable
0
APPID
5
12
100
AcDbSymbolTableRecord
100
AcDbRegAppTableRecord
2
ACAD
70
0
0
ENDTAB
0
TABLE
2
BLOCK_RECORD
5
4a6
100
AcDbSymbolTable
0
BLOCK_RECORD
5
1F
100
AcDbSymbolTableRecord
100
AcDbBlockTableRecord
2
*Model_Space
340
0
70
0
0
BLOCK_RECORD
5
1B
100
AcDbSymbolTableRecord
100
AcDbBlockTableRecord
2
*Paper_Space
340
0
70
0
0
BLOCK_RECORD
5
23
100
AcDbSymbolTableRecord
100
AcDbBlockTableRecord
2
*Paper_Space0
340
0
70
0
0
BLOCK_RECORD
5
3E4
100
AcDbSymbolTableRecord
100
AcDbBlockTableRecord
2
DimnDraft3D1
340
0
70
0
0
BLOCK_RECORD
5
3F3
100
AcDbSymbolTableRecord
100
AcDbBlockTableRecord
2
_CLOSED
340
0
70
0
0
BLOCK_RECORD
5
3FA
100
AcDbSymbolTableRecord
100
AcDbBlockTableRecord
2
DimnDraft3D2
340
0
70
0
0
BLOCK_RECORD
5
408
100
AcDbSymbolTableRecord
100
AcDbBlockTableRecord
2
DimnDraft3D3
340
0
70
0
0
BLOCK_RECORD
5
416
100
AcDbSymbolTableRecord
100
AcDbBlockTableRecord
2
DimnDraft3D4
340
0
70
0
0
BLOCK_RECORD
5
424
100
AcDbSymbolTableRecord
100
AcDbBlockTableRecord
2
DimnDraft3D5
340
0
70
0
0
ENDTAB
0
ENDSEC
0
SECTION
2
BLOCKS
0
BLOCK
5
20
100
AcDbEntity
8
0
100
AcDbBlockBegin
2
*Model_Space
70
0
10
0
20
0
30
0
3
*Model_Space
0
ENDBLK
5
21
100
AcDbEntity
8
0
100
AcDbBlockEnd
0
BLOCK
5
1C
100
AcDbEntity
8
0
100
AcDbBlockBegin
2
*Paper_Space
70
0
10
0
20
0
30
0
3
*Paper_Space
0
ENDBLK
5
1D
100
AcDbEntity
8
0
100
AcDbBlockEnd
0
BLOCK
5
24
100
AcDbEntity
8
0
100
AcDbBlockBegin
2
*Paper_Space0
70
0
10
0
20
0
30
0
3
*Paper_Space0
0
ENDBLK
5
25
100
AcDbEntity
8
0
100
AcDbBlockEnd
0
BLOCK
5
3F0
100
AcDbEntity
8
0
100
AcDbBlockBegin
2
DimnDraft3D1
70
0
10
0
20
0
30
0
3
DimnDraft3D1
0
MTEXT
5
3E5
100
AcDbEntity
8
2
62
256
6
ByLayer
370
18
48
1
60
0
100
AcDbMText
10
73.824866
20
-0.715466
30
0
210
0
220
0
230
1
1
\W0.6740;33
40
3.5
41
0
44
1.084337
50
90
71
7
72
5
7
iso_b_vert
0
LINE
5
3E7
100
AcDbEntity
8
2
62
256
6
ByLayer
370
13
48
1
60
0
100
AcDbLine
10
19.6
20
-16
30
0
11
76.7
21
-16
31
0
39
0
210
0
220
0
230
1
0
LINE
5
3E8
100
AcDbEntity
8
2
62
256
6
ByLayer
370
13
48
1
60
0
100
AcDbLine
10
51.6
20
17
30
0
11
76.7
21
17
31
0
39
0
210
0
220
0
230
1
0
LINE
5
3E9
100
AcDbEntity
8
2
62
256
6
ByLayer
370
13
48
1
60
0
100
AcDbLine
10
74.7
20
-16
30
0
11
74.7
21
17
31
0
39
0
210
0
220
0
230
1
0
LINE
5
3EA
100
AcDbEntity
8
2
62
256
6
ByLayer
370
13
48
1
60
0
100
AcDbLine
10
74.7
20
-16
30
0
11
74.282003
21
-12.825002
31
0
39
0
210
0
220
0
230
1
0
LINE
5
3EB
100
AcDbEntity
8
2
62
256
6
ByLayer
370
13
48
1
60
0
100
AcDbLine
10
74.7
20
-16
30
0
11
75.117997
21
-12.824998
31
0
39
0
210
0
220
0
230
1
0
LINE
5
3EC
100
AcDbEntity
8
2
62
256
6
ByLayer
370
13
48
1
60
0
100
AcDbLine
10
74.282003
20
-12.825002
30
0
11
75.117997
21
-12.824998
31
0
39
0
210
0
220
0
230
1
0
LINE
5
3ED
100
AcDbEntity
8
2
62
256
6
ByLayer
370
13
48
1
60
0
100
AcDbLine
10
74.7
20
17
30
0
11
75.117997
21
13.825002
31
0
39
0
210
0
220
0
230
1
0
LINE
5
3EE
100
AcDbEntity
8
2
62
256
6
ByLayer
370
13
48
1
60
0
100
AcDbLine
10
74.7
20
17
30
0
11
74.282003
21
13.824998
31
0
39
0
210
0
220
0
230
1
0
LINE
5
3EF
100
AcDbEntity
8
2
62
256
6
ByLayer
370
13
48
1
60
0
100
AcDbLine
10
75.117997
20
13.825002
30
0
11
74.282003
21
13.824998
31
0
39
0
210
0
220
0
230
1
0
ENDBLK
5
3F1
100
AcDbEntity
8
0
100
AcDbBlockEnd
0
BLOCK
5
3F4
100
AcDbEntity
8
0
100
AcDbBlockBegin
2
_CLOSED
70
0
10
0
20
0
30
0
3
_CLOSED
0
LINE
5
3F6
100
AcDbEntity
8
0
62
256
6
ByLayer
370
-2
48
1
60
0
100
AcDbLine
10
-1
20
0.166667
30
0
11
0
21
0
31
0
39
0
210
0
220
0
230
1
0
LINE
5
3F7
100
AcDbEntity
8
0
62
256
6
ByLayer
370
-2
48
1
60
0
100
AcDbLine
10
0
20
0
30
0
11
-1
21
-0.166667
31
0
39
0
210
0
220
0
230
1
0
LINE
5
3F8
100
AcDbEntity
8
0
62
256
6
ByLayer
370
-2
48
1
60
0
100
AcDbLine
10
-1
20
0.166667
30
0
11
-1
21
-0.166667
31
0
39
0
210
0
220
0
230
1
0
LINE
5
3F9
100
AcDbEntity
8
0
62
256
6
ByLayer
370
-2
48
1
60
0
100
AcDbLine
10
0
20
0
30
0
11
-1
21
0
31
0
39
0
210
0
220
0
230
1
0
ENDBLK
5
3F5
100
AcDbEntity
8
0
100
AcDbBlockEnd
0
BLOCK
5
405
100
AcDbEntity
8
0
100
AcDbBlockBegin
2
DimnDraft3D2
70
0
10
0
20
0
30
0
3
DimnDraft3D2
0
MTEXT
5
3FB
100
AcDbEntity
8
SK2
62
256
6
ByLayer
370
18
48
1
60
0
100
AcDbMText
10
-37.485766
20
45.08777
30
0
210
0
220
0
230
1
1
\W0.6217;170
40
3.5
41
0
44
1.084337
50
0
71
7
72
5
7
iso_b_vert
0
LINE
5
3FC
100
AcDbEntity
8
SK2
62
256
6
ByLayer
370
13
48
1
60
0
100
AcDbLine
10
-120.4
20
-14
30
0
11
-120.4
21
46.212637
31
0
39
0
210
0
220
0
230
1
0
LINE
5
3FD
100
AcDbEntity
8
SK2
62
256
6
ByLayer
370
13
48
1
60
0
100
AcDbLine
10
49.6
20
19
30
0
11
49.6
21
46.212637
31
0
39
0
210
0
220
0
230
1
0
LINE
5
3FE
100
AcDbEntity
8
SK2
62
256
6
ByLayer
370
13
48
1
60
0
100
AcDbLine
10
-120.4
20
44.212637
30
0
11
49.6
21
44.212637
31
0
39
0
210
0
220
0
230
1
0
LINE
5
3FF
100
AcDbEntity
8
SK2
62
256
6
ByLayer
370
13
48
1
60
0
100
AcDbLine
10
-120.4
20
44.212637
30
0
11
-117.225002
21
44.630634
31
0
39
0
210
0
220
0
230
1
0
LINE
5
400
100
AcDbEntity
8
SK2
62
256
6
ByLayer
370
13
48
1
60
0
100
AcDbLine
10
-120.4
20
44.212637
30
0
11
-117.224998
21
43.79464
31
0
39
0
210
0
220
0
230
1
0
LINE
5
401
100
AcDbEntity
8
SK2
62
256
6
ByLayer
370
13
48
1
60
0
100
AcDbLine
10
-117.225002
20
44.630634
30
0
11
-117.224998
21
43.79464
31
0
39
0
210
0
220
0
230
1
0
LINE
5
402
100
AcDbEntity
8
SK2
62
256
6
ByLayer
370
13
48
1
60
0
100
AcDbLine
10
49.6
20
44.212637
30
0
11
46.425002
21
43.79464
31
0
39
0
210
0
220
0
230
1
0
LINE
5
403
100
AcDbEntity
8
SK2
62
256
6
ByLayer
370
13
48
1
60
0
100
AcDbLine
10
49.6
20
44.212637
30
0
11
46.424998
21
44.630634
31
0
39
0
210
0
220
0
230
1
0
LINE
5
404
100
AcDbEntity
8
SK2
62
256
6
ByLayer
370
13
48
1
60
0
100
AcDbLine
10
46.425002
20
43.79464
30
0
11
46.424998
21
44.630634
31
0
39
0
210
0
220
0
230
1
0
ENDBLK
5
406
100
AcDbEntity
8
0
100
AcDbBlockEnd
0
BLOCK
5
413
100
AcDbEntity
8
0
100
AcDbBlockBegin
2
DimnDraft3D3
70
0
10
0
20
0
30
0
3
DimnDraft3D3
0
MTEXT
5
409
100
AcDbEntity
8
2
62
256
6
ByLayer
370
18
48
1
60
0
100
AcDbMText
10
21.383534
20
39.08777
30
0
210
0
220
0
230
1
1
\W0.7640;49.6
40
3.5
41
0
44
1.084337
50
0
71
7
72
5
7
iso_b_vert
0
LINE
5
40A
100
AcDbEntity
8
2
62
256
6
ByLayer
370
13
48
1
60
0
100
AcDbLine
10
0
20
18
30
0
11
0
21
40.212637
31
0
39
0
210
0
220
0
230
1
0
LINE
5
40B
100
AcDbEntity
8
2
62
256
6
ByLayer
370
13
48
1
60
0
100
AcDbLine
10
49.6
20
19
30
0
11
49.6
21
40.212637
31
0
39
0
210
0
220
0
230
1
0
LINE
5
40C
100
AcDbEntity
8
2
62
256
6
ByLayer
370
13
48
1
60
0
100
AcDbLine
10
0
20
38.212637
30
0
11
49.6
21
38.212637
31
0
39
0
210
0
220
0
230
1
0
LINE
5
40D
100
AcDbEntity
8
2
62
256
6
ByLayer
370
13
48
1
60
0
100
AcDbLine
10
0
20
38.212637
30
0
11
3.174998
21
38.630634
31
0
39
0
210
0
220
0
230
1
0
LINE
5
40E
100
AcDbEntity
8
2
62
256
6
ByLayer
370
13
48
1
60
0
100
AcDbLine
10
0
20
38.212637
30
0
11
3.175002
21
37.79464
31
0
39
0
210
0
220
0
230
1
0
LINE
5
40F
100
AcDbEntity
8
2
62
256
6
ByLayer
370
13
48
1
60
0
100
AcDbLine
10
3.174998
20
38.630634
30
0
11
3.175002
21
37.79464
31
0
39
0
210
0
220
0
230
1
0
LINE
5
410
100
AcDbEntity
8
2
62
256
6
ByLayer
370
13
48
1
60
0
100
AcDbLine
10
49.6
20
38.212637
30
0
11
46.425002
21
37.79464
31
0
39
0
210
0
220
0
230
1
0
LINE
5
411
100
AcDbEntity
8
2
62
256
6
ByLayer
370
13
48
1
60
0
100
AcDbLine
10
49.6
20
38.212637
30
0
11
46.424998
21
38.630634
31
0
39
0
210
0
220
0
230
1
0
LINE
5
412
100
AcDbEntity
8
2
62
256
6
ByLayer
370
13
48
1
60
0
100
AcDbLine
10
46.425002
20
37.79464
30
0
11
46.424998
21
38.630634
31
0
39
0
210
0
220
0
230
1
0
ENDBLK
5
414
100
AcDbEntity
8
0
100
AcDbBlockEnd
0
BLOCK
5
421
100
AcDbEntity
8
0
100
AcDbBlockBegin
2
DimnDraft3D4
70
0
10
0
20
0
30
0
3
DimnDraft3D4
0
MTEXT
5
417
100
AcDbEntity
8
2
62
256
6
ByLayer
370
18
48
1
60
0
100
AcDbMText
10
32.384534
20
-28.271187
30
0
210
0
220
0
230
1
1
\W0.6740;32
40
3.5
41
0
44
1.084337
50
0
71
7
72
5
7
iso_b_vert
0
LINE
5
418
100
AcDbEntity
8
2
62
256
6
ByLayer
370
13
48
1
60
0
100
AcDbLine
10
49.6
20
15
30
0
11
49.6
21
-31.14632
31
0
39
0
210
0
220
0
230
1
0
LINE
5
419
100
AcDbEntity
8
2
62
256
6
ByLayer
370
13
48
1
60
0
100
AcDbLine
10
17.6
20
-18
30
0
11
17.6
21
-31.14632
31
0
39
0
210
0
220
0
230
1
0
LINE
5
41A
100
AcDbEntity
8
2
62
256
6
ByLayer
370
13
48
1
60
0
100
AcDbLine
10
49.6
20
-29.14632
30
0
11
17.6
21
-29.14632
31
0
39
0
210
0
220
0
230
1
0
LINE
5
41B
100
AcDbEntity
8
2
62
256
6
ByLayer
370
13
48
1
60
0
100
AcDbLine
10
49.6
20
-29.14632
30
0
11
46.425002
21
-29.564317
31
0
39
0
210
0
220
0
230
1
0
LINE
5
41C
100
AcDbEntity
8
2
62
256
6
ByLayer
370
13
48
1
60
0
100
AcDbLine
10
49.6
20
-29.14632
30
0
11
46.424998
21
-28.728324
31
0
39
0
210
0
220
0
230
1
0
LINE
5
41D
100
AcDbEntity
8
2
62
256
6
ByLayer
370
13
48
1
60
0
100
AcDbLine
10
46.425002
20
-29.564317
30
0
11
46.424998
21
-28.728324
31
0
39
0
210
0
220
0
230
1
0
LINE
5
41E
100
AcDbEntity
8
2
62
256
6
ByLayer
370
13
48
1
60
0
100
AcDbLine
10
17.6
20
-29.14632
30
0
11
20.774998
21
-28.728324
31
0
39
0
210
0
220
0
230
1
0
LINE
5
41F
100
AcDbEntity
8
2
62
256
6
ByLayer
370
13
48
1
60
0
100
AcDbLine
10
17.6
20
-29.14632
30
0
11
20.775002
21
-29.564317
31
0
39
0
210
0
220
0
230
1
0
LINE
5
420
100
AcDbEntity
8
2
62
256
6
ByLayer
370
13
48
1
60
0
100
AcDbLine
10
20.774998
20
-28.728324
30
0
11
20.775002
21
-29.564317
31
0
39
0
210
0
220
0
230
1
0
ENDBLK
5
422
100
AcDbEntity
8
0
100
AcDbBlockEnd
0
BLOCK
5
42F
100
AcDbEntity
8
0
100
AcDbBlockBegin
2
DimnDraft3D5
70
0
10
0
20
0
30
0
3
DimnDraft3D5
0
MTEXT
5
425
100
AcDbEntity
8
2
62
256
6
ByLayer
370
18
48
1
60
0
100
AcDbMText
10
66.824866
20
14.092267
30
0
210
0
220
0
230
1
1
\W0.5404;6
40
3.5
41
0
44
1.084337
50
90
71
7
72
5
7
iso_b_vert
0
LINE
5
426
100
AcDbEntity
8
2
62
256
6
ByLayer
370
13
48
1
60
0
100
AcDbLine
10
51.6
20
17
30
0
11
69.7
21
17
31
0
39
0
210
0
220
0
230
1
0
LINE
5
427
100
AcDbEntity
8
2
62
256
6
ByLayer
370
13
48
1
60
0
100
AcDbLine
10
51.6
20
11
30
0
11
69.7
21
11
31
0
39
0
210
0
220
0
230
1
0
LINE
5
428
100
AcDbEntity
8
2
62
256
6
ByLayer
370
13
48
1
60
0
100
AcDbLine
10
67.7
20
25.75
30
0
11
67.7
21
2.25
31
0
39
0
210
0
220
0
230
1
0
LINE
5
429
100
AcDbEntity
8
2
62
256
6
ByLayer
370
13
48
1
60
0
100
AcDbLine
10
67.7
20
17
30
0
11
67.282003
21
20.174998
31
0
39
0
210
0
220
0
230
1
0
LINE
5
42A
100
AcDbEntity
8
2
62
256
6
ByLayer
370
13
48
1
60
0
100
AcDbLine
10
67.7
20
17
30
0
11
68.117997
21
20.175002
31
0
39
0
210
0
220
0
230
1
0
LINE
5
42B
100
AcDbEntity
8
2
62
256
6
ByLayer
370
13
48
1
60
0
100
AcDbLine
10
67.282003
20
20.174998
30
0
11
68.117997
21
20.175002
31
0
39
0
210
0
220
0
230
1
0
LINE
5
42C
100
AcDbEntity
8
2
62
256
6
ByLayer
370
13
48
1
60
0
100
AcDbLine
10
67.7
20
11
30
0
11
68.117997
21
7.825002
31
0
39
0
210
0
220
0
230
1
0
LINE
5
42D
100
AcDbEntity
8
2
62
256
6
ByLayer
370
13
48
1
60
0
100
AcDbLine
10
67.7
20
11
30
0
11
67.282003
21
7.824998
31
0
39
0
210
0
220
0
230
1
0
LINE
5
42E
100
AcDbEntity
8
2
62
256
6
ByLayer
370
13
48
1
60
0
100
AcDbLine
10
68.117997
20
7.825002
30
0
11
67.282003
21
7.824998
31
0
39
0
210
0
220
0
230
1
0
ENDBLK
5
430
100
AcDbEntity
8
0
100
AcDbBlockEnd
0
ENDSEC
0
SECTION
2
ENTITIES
0
ARC
5
F2
100
AcDbEntity
8
1
62
256
6
ByLayer
370
18
48
1
60
0
100
AcDbCircle
39
0
10
-17.6
20
9.75
30
0
40
1.6
210
0
220
0
230
-1
100
AcDbArc
50
0
51
90
0
ARC
5
F3
100
AcDbEntity
8
SK1
62
256
6
ByLayer
370
18
48
1
60
0
100
AcDbCircle
39
0
10
1.227723
20
17.45
30
0
40
1.60000000000065
210
0
220
0
230
-1
100
AcDbArc
50
225.184432
51
270
0
ARC
5
F4
100
AcDbEntity
8
1
62
256
6
ByLayer
370
18
48
1
60
0
100
AcDbCircle
39
0
10
7.9
20
-16.6
30
0
40
1.6
210
0
220
0
230
1
100
AcDbArc
50
90
51
159.754113
0
ARC
5
F5
100
AcDbEntity
8
1
62
256
6
ByLayer
370
18
48
1
60
0
100
AcDbCircle
39
0
10
1.227723
20
17.45
30
0
40
1.60000000032961
210
0
220
0
230
-1
100
AcDbArc
50
211.999204
51
225.184432
0
ELLIPSE
5
F6
100
AcDbEntity
8
SK1
62
256
6
ByLayer
370
18
48
1
60
0
100
AcDbEllipse
10
-1.227723
20
-16.006981
30
0
11
1.59999999999631
21
1.61702248812805E-15
31
0
210
0
220
0
230
-1
40
0.004363
41
-1.5707963267949
42
-0.788617102647213
0
ELLIPSE
5
F7
100
AcDbEntity
8
1
62
256
6
ByLayer
370
18
48
1
60
0
100
AcDbEllipse
10
64.669335
20
56.999988
30
0
11
32.3972862516732
21
42.3913366284065
31
0
210
0
220
0
230
-1
40
0.522822
41
2.75303527599703
42
2.76146324518049
0
ELLIPSE
5
F8
100
AcDbEntity
8
1
62
256
6
ByLayer
370
18
48
1
60
0
100
AcDbEllipse
10
106.260008
20
101
30
0
11
277.563074113179
21
2.80516082947499E-13
31
0
210
0
220
0
230
-1
40
0.304075
41
1.80476718614271
42
1.87231278050421
0
ELLIPSE
5
F9
100
AcDbEntity
8
1
62
256
6
ByLayer
370
18
48
1
60
0
100
AcDbEllipse
10
43.542132
20
101
30
0
11
100.584003209486
21
1.01654121960036E-13
31
0
210
0
220
0
230
-1
40
0.8391
41
1.57230837421593
42
1.66722822945751
0
ELLIPSE
5
FA
100
AcDbEntity
8
1
62
256
6
ByLayer
370
18
48
1
60
0
100
AcDbEllipse
10
47.262713
20
100.928237
30
0
11
4.24096526672124
21
84.3141306880827
31
0
210
0
220
0
230
-1
40
0.363672
41
-3.068714623356
42
-3.06673788496119
0
ELLIPSE
5
FB
100
AcDbEntity
8
1
62
256
6
ByLayer
370
18
48
1
60
0
100
AcDbEllipse
10
-1.227723
20
-16.006981
30
0
11
1.59999999999523
21
1.61702248812696E-15
31
0
210
0
220
0
230
-1
40
0.004363
41
-0.788617102650614
42
-0.261799387798664
0
ELLIPSE
5
FC
100
AcDbEntity
8
1
62
256
6
ByLayer
370
18
48
1
60
0
100
AcDbEllipse
10
43.542132
20
57
30
0
11
54.4035515023536
21
5.49823538834633E-14
31
0
210
0
220
0
230
-1
40
0.8391
41
1.57922419217319
42
1.74976206529696
0
ELLIPSE
5
FD
100
AcDbEntity
8
1
62
256
6
ByLayer
370
18
48
1
60
0
100
AcDbEllipse
10
40.225509
20
14.036727
30
0
11
1.13165929901144
21
0.00779994868595908
31
0
210
0
220
0
230
-1
40
0.883634
41
0
42
6.28318530717959
0
ELLIPSE
5
FE
100
AcDbEntity
8
1
62
256
6
ByLayer
370
18
48
1
60
0
100
AcDbEllipse
10
18.532011
20
57
30
0
11
127.420789035214
21
-17.1964683246465
31
0
210
0
220
0
230
-1
40
0.33187
41
1.3265913789137
42
1.33117225185729
0
ELLIPSE
5
FF
100
AcDbEntity
8
1
62
256
6
ByLayer
370
18
48
1
60
0
100
AcDbEllipse
10
0.040192
20
101
30
0
11
-5.16783881217908E-15
21
84.3999999844627
31
0
210
0
220
0
230
-1
40
0.267949
41
3.02393860085127
42
3.12931877281343
0
ELLIPSE
5
100
100
AcDbEntity
8
1
62
256
6
ByLayer
370
18
48
1
60
0
100
AcDbEllipse
10
2.71052
20
16.686936
30
0
11
-3.06151588455588E-17
21
0.49999999999999
31
0
210
0
220
0
230
-1
40
0.267949
41
-0.117654052727568
42
1.5707963267949
0
ELLIPSE
5
101
100
AcDbEntity
8
1
62
256
6
ByLayer
370
18
48
1
60
0
100
AcDbEllipse
10
156.571821
20
101.000006
30
0
11
260.318617225188
21
33.4581637439557
31
0
210
0
220
0
230
-1
40
0.297654
41
2.04784984387012
42
2.06954424597287
0
ELLIPSE
5
102
100
AcDbEntity
8
1
62
256
6
ByLayer
370
13
48
1
60
0
100
AcDbEllipse
10
48.674356
20
16.230554
30
0
11
0.0899306066058396
21
-0.217111690140134
31
0
210
0
220
0
230
1
40
0.051754
41
-2.21635302763489
42
-0.810603691072473
0
ELLIPSE
5
103
100
AcDbEntity
8
1
62
256
6
ByLayer
370
13
48
1
60
0
100
AcDbEllipse
10
48.713199
20
15.908136
30
0
11
0.0326055930734814
21
-0.247864630999113
31
0
210
0
220
0
230
1
40
0.177743
41
-2.25313765155554
42
-1.23974820972089
0
ELLIPSE
5
104
100
AcDbEntity
8
1
62
256
6
ByLayer
370
13
48
1
60
0
100
AcDbEllipse
10
47.835004
20
11.708181
30
0
11
0.152783137582241
21
-0.785275310238725
31
0
210
0
220
0
230
1
40
0.103584
41
2.17918404146475
42
2.31372259102845
0
ELLIPSE
5
105
100
AcDbEntity
8
1
62
256
6
ByLayer
370
13
48
1
60
0
100
AcDbEllipse
10
43.949164
20
16.597452
30
0
11
0.0153951441717021
21
-0.0988078414698576
31
0
210
0
220
0
230
1
40
0.939477
41
-1.71614304943587
42
-1.62380369408988
0
ELLIPSE
5
106
100
AcDbEntity
8
1
62
256
6
ByLayer
370
13
48
1
60
0
100
AcDbEllipse
10
48.89543
20
12.142734
30
0
11
-0.262871624734014
21
0.144563165812386
31
0
210
0
220
0
230
1
40
0.067569
41
-1.6930494925039
42
-1.13015027082392
0
ELLIPSE
5
107
100
AcDbEntity
8
1
62
256
6
ByLayer
370
13
48
1
60
0
100
AcDbEllipse
10
48.860074
20
15.907962
30
0
11
-0.0561606516129312
21
-0.243610306043096
31
0
210
0
220
0
230
1
40
0.039575
41
1.48382354045522
42
1.72059995358726
0
ELLIPSE
5
108
100
AcDbEntity
8
1
62
256
6
ByLayer
370
13
48
1
60
0
100
AcDbEllipse
10
43.436338
20
14.619581
30
0
11
-0.369645260375742
21
0.0161981937804868
31
0
210
0
220
0
230
1
40
0.365917
41
-2.76877998113444
42
-1.89734175800272
0
ELLIPSE
5
109
100
AcDbEntity
8
1
62
256
6
ByLayer
370
13
48
1
60
0
100
AcDbEllipse
10
48.135155
20
12.307436
30
0
11
0.00289456120255997
21
0.24998324246926
31
0
210
0
220
0
230
1
40
0.002229
41
2.05479235660896
42
2.56738081225124
0
ELLIPSE
5
10A
100
AcDbEntity
8
1
62
256
6
ByLayer
370
13
48
1
60
0
100
AcDbEllipse
10
48.736952
20
15.91094
30
0
11
0.0260848624412864
21
-0.248635435832102
31
0
210
0
220
0
230
1
40
0.202726
41
-2.26578914035536
42
-1.23475707827835
0
ELLIPSE
5
10B
100
AcDbEntity
8
1
62
256
6
ByLayer
370
13
48
1
60
0
100
AcDbEllipse
10
43.939626
20
16.595631
30
0
11
-0.0563490330813233
21
0.0826122658616742
31
0
210
0
220
0
230
1
40
0.916602
41
1.01204912496704
42
1.11490842031375
0
ELLIPSE
5
10C
100
AcDbEntity
8
1
62
256
6
ByLayer
370
13
48
1
60
0
100
AcDbEllipse
10
48.34479
20
16.108901
30
0
11
0.0433820246205653
21
-0.230961035544571
31
0
210
0
220
0
230
1
40
0.009251
41
0.890698211471824
42
2.22838816565681
0
ELLIPSE
5
10D
100
AcDbEntity
8
1
62
256
6
ByLayer
370
13
48
1
60
0
100
AcDbEllipse
10
48.709753
20
11.754784
30
0
11
-0.0899306066058353
21
-0.217111690140136
31
0
210
0
220
0
230
1
40
0.058299
41
-2.34955841948454
42
-0.924579307522977
0
ELLIPSE
5
10E
100
AcDbEntity
8
1
62
256
6
ByLayer
370
13
48
1
60
0
100
AcDbEllipse
10
48.472115
20
16.146783
30
0
11
0.0899306066058396
21
-0.217111690140134
31
0
210
0
220
0
230
1
40
0.014373
41
-2.2243533927196
42
-0.93305801459475
0
ELLIPSE
5
10F
100
AcDbEntity
8
1
62
256
6
ByLayer
370
13
48
1
60
0
100
AcDbEllipse
10
45.97796
20
15.421666
30
0
11
-0.0531074500033362
21
0.244294082519702
31
0
210
0
220
0
230
1
40
0.171592
41
-2.51218450288026
42
-0.890947837766483
0
ELLIPSE
5
110
100
AcDbEntity
8
1
62
256
6
ByLayer
370
13
48
1
60
0
100
AcDbEllipse
10
48.713199
20
12.091864
30
0
11
0.0326055930734814
21
0.247864630999113
31
0
210
0
220
0
230
1
40
0.177743
41
1.23974820972071
42
2.25313765155596
0
ELLIPSE
5
111
100
AcDbEntity
8
1
62
256
6
ByLayer
370
13
48
1
60
0
100
AcDbEllipse
10
48.575406
20
16.538455
30
0
11
0.118767181148118
21
-0.275489304115659
31
0
210
0
220
0
230
1
40
0.049894
41
0.923391079168884
42
1.70125003371304
0
ELLIPSE
5
112
100
AcDbEntity
8
1
62
256
6
ByLayer
370
13
48
1
60
0
100
AcDbEllipse
10
48.539559
20
11.825281
30
0
11
-0.0899306066058353
21
-0.217111690140136
31
0
210
0
220
0
230
1
40
0.026836
41
-2.230979896735
42
-0.922122121781345
0
ELLIPSE
5
113
100
AcDbEntity
8
1
62
256
6
ByLayer
370
13
48
1
60
0
100
AcDbEllipse
10
48.829218
20
15.91445
30
0
11
-0.0466868408665359
21
-0.245601992845951
31
0
210
0
220
0
230
1
40
0.227005
41
-2.03634484889673
42
-1.16092402543376
0
ELLIPSE
5
114
100
AcDbEntity
8
1
62
256
6
ByLayer
370
13
48
1
60
0
100
AcDbEllipse
10
48.873821
20
16.313175
30
0
11
0.0899306066058396
21
-0.217111690140134
31
0
210
0
220
0
230
1
40
0.023767
41
-2.21707519951251
42
-0.83193915976589
0
ELLIPSE
5
115
100
AcDbEntity
8
1
62
256
6
ByLayer
370
13
48
1
60
0
100
AcDbEllipse
10
47.813713
20
11.893537
30
0
11
0.00499237806305987
21
-0.234946964571317
31
0
210
0
220
0
230
1
40
0.013375
41
0.877457472673963
42
2.62117537190002
0
ELLIPSE
5
116
100
AcDbEntity
8
1
62
256
6
ByLayer
370
13
48
1
60
0
100
AcDbEllipse
10
43.566372
20
14.826246
30
0
11
0.0750764684970814
21
-0.471927232958777
31
0
210
0
220
0
230
-1
40
0.431956
41
-1.1468451363513
42
-1.12895295572117
0
ELLIPSE
5
117
100
AcDbEntity
8
1
62
256
6
ByLayer
370
13
48
1
60
0
100
AcDbEllipse
10
48.606977
20
11.797356
30
0
11
-0.0899306066058353
21
-0.217111690140136
31
0
210
0
220
0
230
1
40
0.039297
41
-2.27158968838184
42
-0.924794340868021
0
ELLIPSE
5
118
100
AcDbEntity
8
1
62
256
6
ByLayer
370
13
48
1
60
0
100
AcDbEllipse
10
43.174975
20
13.767005
30
0
11
0.346104899609098
21
0.0093008532487934
31
0
210
0
220
0
230
-1
40
0.280921
41
-0.107707347068895
42
-0.089820912473075
0
ELLIPSE
5
119
100
AcDbEntity
8
1
62
256
6
ByLayer
370
13
48
1
60
0
100
AcDbEllipse
10
48.674356
20
11.769446
30
0
11
-0.0899306066058353
21
-0.217111690140136
31
0
210
0
220
0
230
1
40
0.051754
41
-2.33098896251568
42
-0.925239625954925
0
ELLIPSE
5
11A
100
AcDbEntity
8
1
62
256
6
ByLayer
370
13
48
1
60
0
100
AcDbEllipse
10
49.3
20
16.724586
30
0
11
-0.0208554787142769
21
-0.299274203712245
31
0
210
0
220
0
230
1
40
0.00977
41
-1.71008266168542
42
-1.0956297803464
0
ELLIPSE
5
11B
100
AcDbEntity
8
1
62
256
6
ByLayer
370
13
48
1
60
0
100
AcDbEllipse
10
48.013302
20
12.546208
30
0
11
0.278159628338067
21
0.112370908881385
31
0
210
0
220
0
230
1
40
0.64628
41
-1.66593510264458
42
-0.913100663229393
0
ELLIPSE
5
11C
100
AcDbEntity
8
1
62
256
6
ByLayer
370
13
48
1
60
0
100
AcDbEllipse
10
48.860074
20
12.092038
30
0
11
-0.0561606516129308
21
0.243610306043096
31
0
210
0
220
0
230
1
40
0.039575
41
-1.72059995358686
42
-1.48382354045499
0
ELLIPSE
5
11D
100
AcDbEntity
8
1
62
256
6
ByLayer
370
13
48
1
60
0
100
AcDbEllipse
10
46.462958
20
15.702526
30
0
11
0.137285194661635
21
-0.208932465947054
31
0
210
0
220
0
230
1
40
0.30784
41
0.586237646011598
42
2.20930146966065
0
ELLIPSE
5
11E
100
AcDbEntity
8
1
62
256
6
ByLayer
370
13
48
1
60
0
100
AcDbEllipse
10
48.629441
20
11.788051
30
0
11
-0.0899306066058353
21
-0.217111690140136
31
0
210
0
220
0
230
1
40
0.04345
41
-2.28925526698942
42
-0.925190615232305
0
ELLIPSE
5
11F
100
AcDbEntity
8
1
62
256
6
ByLayer
370
13
48
1
60
0
100
AcDbEllipse
10
48.405301
20
16.468947
30
0
11
0.108168728973291
21
-0.279820524751675
31
0
210
0
220
0
230
1
40
0.044862
41
0.922976457337838
42
1.70305853510162
0
ELLIPSE
5
120
100
AcDbEntity
8
1
62
256
6
ByLayer
370
18
48
1
60
0
100
AcDbEllipse
10
48.078946
20
16.207545
30
0
11
-0.362647687601747
21
-0.71308250201299
31
0
210
0
220
0
230
1
40
0.239608
41
0.880837353060395
42
1.11283410778347
0
ELLIPSE
5
121
100
AcDbEntity
8
1
62
256
6
ByLayer
370
18
48
1
60
0
100
AcDbEllipse
10
48.066662
20
16.101089
30
0
11
-0.0049923780630514
21
-0.234946964571317
31
0
210
0
220
0
230
1
40
0.044987
41
0.565584526891265
42
2.25067584245533
0
ELLIPSE
5
122
100
AcDbEntity
8
1
62
256
6
ByLayer
370
13
48
1
60
0
100
AcDbEllipse
10
43.517451
20
13.702849
30
0
11
0.115829668223778
21
0.463446132648927
31
0
210
0
220
0
230
-1
40
0.431877
41
1.12910912091944
42
1.14700639662569
0
ELLIPSE
5
123
100
AcDbEntity
8
1
62
256
6
ByLayer
370
13
48
1
60
0
100
AcDbEllipse
10
48.140912
20
15.692623
30
0
11
0.00228673853630558
21
-0.24998954143497
31
0
210
0
220
0
230
1
40
0.004846
41
-2.56664571167269
42
-2.05947557308418
0
ELLIPSE
5
124
100
AcDbEntity
8
1
62
256
6
ByLayer
370
13
48
1
60
0
100
AcDbEllipse
10
45.964702
20
15.418788
30
0
11
0.0529878747025655
21
-0.244320046526079
31
0
210
0
220
0
230
1
40
0.175101
41
0.631471524212386
42
2.25001281646638
0
ELLIPSE
5
125
100
AcDbEntity
8
1
62
256
6
ByLayer
370
13
48
1
60
0
100
AcDbEllipse
10
48.820644
20
12.116639
30
0
11
0.134055468310272
21
0.268382434999226
31
0
210
0
220
0
230
1
40
0.124747
41
-2.34571159163322
42
-2.32278739409057
0
ELLIPSE
5
126
100
AcDbEntity
8
1
62
256
6
ByLayer
370
13
48
1
60
0
100
AcDbEllipse
10
44.419297
20
13.773116
30
0
11
-0.391485134068366
21
0.0820937866313489
31
0
210
0
220
0
230
1
40
0.058412
41
0.346444142675484
42
1.24252224636558
0
ELLIPSE
5
127
100
AcDbEntity
8
1
62
256
6
ByLayer
370
18
48
1
60
0
100
AcDbEllipse
10
47.971408
20
15.688992
30
0
11
-0.00670086137975929
21
0.249910180778553
31
0
210
0
220
0
230
1
40
0.04561
41
-1.01445061995425
42
-0.548117344246544
0
ELLIPSE
5
128
100
AcDbEntity
8
1
62
256
6
ByLayer
370
13
48
1
60
0
100
AcDbEllipse
10
48.820644
20
15.883361
30
0
11
0.134055468310272
21
-0.268382434999226
31
0
210
0
220
0
230
1
40
0.124747
41
2.3227873940901
42
2.34571159163268
0
ELLIPSE
5
129
100
AcDbEntity
8
1
62
256
6
ByLayer
370
18
48
1
60
0
100
AcDbEllipse
10
44.230912
20
16.690428
30
0
11
0.400005513094146
21
-1.05667399689664E-07
31
0
210
0
220
0
230
-1
40
0.017452
41
-2.79579394865519
42
-1.90383191358707
0
ELLIPSE
5
12A
100
AcDbEntity
8
1
62
256
6
ByLayer
370
13
48
1
60
0
100
AcDbEllipse
10
45.38346
20
-36.050072
30
0
11
0.457971041458446
21
116.074251441114
31
0
210
0
220
0
230
-1
40
0.011389
41
-1.10707224808204
42
-1.09909579410565
0
ELLIPSE
5
12B
100
AcDbEntity
8
1
62
256
6
ByLayer
370
13
48
1
60
0
100
AcDbEllipse
10
48.761033
20
12.086836
30
0
11
0.0199739336471676
21
0.249200806528909
31
0
210
0
220
0
230
1
40
0.228669
41
1.22946791584226
42
2.27993774755943
0
ELLIPSE
5
12C
100
AcDbEntity
8
1
62
256
6
ByLayer
370
18
48
1
60
0
100
AcDbEllipse
10
46.061475
20
16.665086
30
0
11
0.161394992300714
21
-0.124126345776884
31
0
210
0
220
0
230
1
40
0.982286
41
2.52658986001543
42
2.75626377923061
0
ELLIPSE
5
12D
100
AcDbEntity
8
1
62
256
6
ByLayer
370
13
48
1
60
0
100
AcDbEllipse
10
48.584508
20
11.806663
30
0
11
-0.0899306066058353
21
-0.217111690140136
31
0
210
0
220
0
230
1
40
0.035144
41
-2.25600614970541
42
-0.924150504889932
0
ELLIPSE
5
12E
100
AcDbEntity
8
1
62
256
6
ByLayer
370
13
48
1
60
0
100
AcDbEllipse
10
43.73943
20
11.916538
30
0
11
0.012371884005299
21
0.0992317312464084
31
0
210
0
220
0
230
1
40
0.94059
41
1.51286369180341
42
1.68753276476838
0
ELLIPSE
5
12F
100
AcDbEntity
8
1
62
256
6
ByLayer
370
13
48
1
60
0
100
AcDbEllipse
10
45.994626
20
15.425303
30
0
11
-0.0534756689485327
21
0.244213744147431
31
0
210
0
220
0
230
1
40
0.167877
41
-2.5153465838919
42
-0.890308587446409
0
ELLIPSE
5
130
100
AcDbEntity
8
1
62
256
6
ByLayer
370
13
48
1
60
0
100
AcDbEllipse
10
46.462958
20
12.297474
30
0
11
-0.137285194661637
21
-0.208932465947053
31
0
210
0
220
0
230
1
40
0.30784
41
0.932291183929427
42
2.55535500757787
0
ELLIPSE
5
131
100
AcDbEntity
8
1
62
256
6
ByLayer
370
13
48
1
60
0
100
AcDbEllipse
10
48.833049
20
12.110458
30
0
11
0.133490266708945
21
0.268664007068261
31
0
210
0
220
0
230
1
40
0.124876
41
-2.34328082157469
42
-2.11038335671742
0
ELLIPSE
5
132
100
AcDbEntity
8
1
62
256
6
ByLayer
370
13
48
1
60
0
100
AcDbEllipse
10
48.468217
20
11.506227
30
0
11
0.112067087850249
21
0.278282173020056
31
0
210
0
220
0
230
1
40
0.046712
41
-1.70241888252953
42
-0.925218310354537
0
ELLIPSE
5
133
100
AcDbEntity
8
1
62
256
6
ByLayer
370
13
48
1
60
0
100
AcDbEllipse
10
48.651901
20
11.778747
30
0
11
-0.0899306066058353
21
-0.217111690140136
31
0
210
0
220
0
230
1
40
0.047602
41
-2.30904011150236
42
-0.925339078922438
0
ELLIPSE
5
134
100
AcDbEntity
8
1
62
256
6
ByLayer
370
13
48
1
60
0
100
AcDbEllipse
10
48.696805
20
16.239853
30
0
11
0.0899306066058396
21
-0.217111690140134
31
0
210
0
220
0
230
1
40
0.055905
41
-2.21670033245318
42
-0.789647467602268
0
ELLIPSE
5
135
100
AcDbEntity
8
1
62
256
6
ByLayer
370
13
48
1
60
0
100
AcDbEllipse
10
44.024396
20
11.889931
30
0
11
0.40016070933019
21
-0.0298104598494991
31
0
210
0
220
0
230
-1
40
0.012931
41
1.90270959569247
42
2.79654651692796
0
ELLIPSE
5
136
100
AcDbEntity
8
1
62
256
6
ByLayer
370
13
48
1
60
0
100
AcDbEllipse
10
48.599254
20
16.548813
30
0
11
0.120247414553659
21
-0.274846428561771
31
0
210
0
220
0
230
1
40
0.050597
41
0.922002067895864
42
1.7009797422693
0
ELLIPSE
5
137
100
AcDbEntity
8
1
62
256
6
ByLayer
370
13
48
1
60
0
100
AcDbEllipse
10
45.234321
20
11.883799
30
0
11
0.417920472924727
21
-0.644297084664905
31
0
210
0
220
0
230
-1
40
0.37378
41
2.25046095609609
42
-3.03435677226704
0
ELLIPSE
5
138
100
AcDbEntity
8
1
62
256
6
ByLayer
370
13
48
1
60
0
100
AcDbEllipse
10
48.68977
20
12.095275
30
0
11
0.0394934195426522
21
0.246860830859875
31
0
210
0
220
0
230
1
40
0.153624
41
1.24435647276172
42
2.24195121628861
0
ELLIPSE
5
139
100
AcDbEntity
8
1
62
256
6
ByLayer
370
13
48
1
60
0
100
AcDbEllipse
10
48.472115
20
11.853217
30
0
11
-0.0899306066058353
21
-0.217111690140136
31
0
210
0
220
0
230
1
40
0.014373
41
-2.20853463899502
42
-0.917239260880561
0
ELLIPSE
5
13A
100
AcDbEntity
8
1
62
256
6
ByLayer
370
13
48
1
60
0
100
AcDbEllipse
10
48.741147
20
11.393047
30
0
11
0.107170275467834
21
0.280204446888604
31
0
210
0
220
0
230
1
40
0.044389
41
-1.70321765827868
42
-0.925451135842596
0
ELLIPSE
5
13B
100
AcDbEntity
8
1
62
256
6
ByLayer
370
13
48
1
60
0
100
AcDbEllipse
10
48.696805
20
11.760147
30
0
11
-0.0899306066058353
21
-0.217111690140136
31
0
210
0
220
0
230
1
40
0.055905
41
-2.35194518598769
42
-0.924892321136569
0
ELLIPSE
5
13C
100
AcDbEntity
8
1
62
256
6
ByLayer
370
13
48
1
60
0
100
AcDbEllipse
10
45.97796
20
12.578334
30
0
11
-0.0531074500033363
21
-0.244294082519702
31
0
210
0
220
0
230
1
40
0.171592
41
0.890947837766483
42
2.51218450288026
0
ELLIPSE
5
13D
100
AcDbEntity
8
1
62
256
6
ByLayer
370
13
48
1
60
0
100
AcDbEllipse
10
48.577444
20
12.122139
30
0
11
0.0776666401258185
21
0.237629739324788
31
0
210
0
220
0
230
1
40
0.042495
41
1.25937808606001
42
2.20745328197214
0
ELLIPSE
5
13E
100
AcDbEntity
8
1
62
256
6
ByLayer
370
13
48
1
60
0
100
AcDbEllipse
10
48.577444
20
15.877861
30
0
11
-0.0776666401258184
21
0.237629739324788
31
0
210
0
220
0
230
1
40
0.042495
41
0.934139371619323
42
1.8822145675289
0
ELLIPSE
5
13F
100
AcDbEntity
8
1
62
256
6
ByLayer
370
13
48
1
60
0
100
AcDbEllipse
10
48.844767
20
15.895349
30
0
11
0.132947745885429
21
-0.268932885426798
31
0
210
0
220
0
230
1
40
0.124999
41
1.8801068640728
42
2.3410712719417
0
ELLIPSE
5
140
100
AcDbEntity
8
1
62
256
6
ByLayer
370
13
48
1
60
0
100
AcDbEllipse
10
45.512871
20
-35.93557
30
0
11
0.327518122550839
21
115.914780216749
31
0
210
0
220
0
230
-1
40
0.00813
41
-1.10751311891606
42
-1.09949601224326
0
ELLIPSE
5
141
100
AcDbEntity
8
1
62
256
6
ByLayer
370
18
48
1
60
0
100
AcDbEllipse
10
48.843359
20
12.088368
30
0
11
-0.0510447664513742
21
0.244733389258443
31
0
210
0
220
0
230
1
40
0.099036
41
1.31086871070212
42
1.88918250016574
0
ELLIPSE
5
142
100
AcDbEntity
8
1
62
256
6
ByLayer
370
13
48
1
60
0
100
AcDbEllipse
10
48.873821
20
11.686825
30
0
11
-0.0899306066058353
21
-0.217111690140136
31
0
210
0
220
0
230
1
40
0.023767
41
-2.30965349382388
42
-0.924517454080408
0
ELLIPSE
5
143
100
AcDbEntity
8
1
62
256
6
ByLayer
370
18
48
1
60
0
100
AcDbEllipse
10
48.069654
20
15.691459
30
0
11
-0.00534900856196131
21
0.249942769664185
31
0
210
0
220
0
230
1
40
0.022232
41
-1.05731978299004
42
-0.565098731435121
0
ELLIPSE
5
144
100
AcDbEntity
8
1
62
256
6
ByLayer
370
13
48
1
60
0
100
AcDbEllipse
10
48.567592
20
12.35
30
0
11
-7.84199224798416E-17
21
-0.426912273945929
31
0
210
0
220
0
230
1
40
0.990268
41
0.930102241127818
42
1.06386039500113
0
ELLIPSE
5
145
100
AcDbEntity
8
1
62
256
6
ByLayer
370
13
48
1
60
0
100
AcDbEllipse
10
48.489102
20
11.497759
30
0
11
0.113371794893707
21
0.277753192821576
31
0
210
0
220
0
230
1
40
0.047332
41
-1.70219821254604
42
-0.925425085715824
0
ELLIPSE
5
146
100
AcDbEntity
8
1
62
256
6
ByLayer
370
13
48
1
60
0
100
AcDbEllipse
10
48.405301
20
11.531053
30
0
11
0.10816872897329
21
0.279820524751675
31
0
210
0
220
0
230
1
40
0.044862
41
-1.70305853510153
42
-0.92297645733651
0
ELLIPSE
5
147
100
AcDbEntity
8
1
62
256
6
ByLayer
370
18
48
1
60
0
100
AcDbEllipse
10
46.058506
20
11.336629
30
0
11
0.0568804455533077
21
0.195147967983091
31
0
210
0
220
0
230
1
40
0.98392
41
2.90532571984923
42
3.1331168524677
0
ELLIPSE
5
148
100
AcDbEntity
8
1
62
256
6
ByLayer
370
13
48
1
60
0
100
AcDbEllipse
10
45.742363
20
6.138586
30
0
11
0.344639185796605
21
5.75192269792276
31
0
210
0
220
0
230
-1
40
0.642112
41
-0.0384545713178922
42
-0.0235325486453671
0
ELLIPSE
5
149
100
AcDbEntity
8
1
62
256
6
ByLayer
370
13
48
1
60
0
100
AcDbEllipse
10
44.231328
20
16.611321
30
0
11
0.399217575435911
21
0.0301557133713603
31
0
210
0
220
0
230
-1
40
0.038708
41
-2.79352668528719
42
-1.90156465036433
0
ELLIPSE
5
14A
100
AcDbEntity
8
1
62
256
6
ByLayer
370
13
48
1
60
0
100
AcDbEllipse
10
48.563462
20
11.466675
30
0
11
0.118022986712372
21
0.275808945843842
31
0
210
0
220
0
230
1
40
0.049541
41
-1.70138426024314
42
-0.923951733533529
0
ELLIPSE
5
14B
100
AcDbEntity
8
1
62
256
6
ByLayer
370
13
48
1
60
0
100
AcDbEllipse
10
48.447288
20
16.485402
30
0
11
0.110763749558761
21
-0.278803500307446
31
0
210
0
220
0
230
1
40
0.046094
41
0.92474103135158
42
1.70263600896251
0
ELLIPSE
5
14C
100
AcDbEntity
8
1
62
256
6
ByLayer
370
13
48
1
60
0
100
AcDbEllipse
10
48.489102
20
16.502241
30
0
11
0.113371794893707
21
-0.277753192821576
31
0
210
0
220
0
230
1
40
0.047332
41
0.925425085714616
42
1.70219821254631
0
ELLIPSE
5
14D
100
AcDbEntity
8
1
62
256
6
ByLayer
370
18
48
1
60
0
100
AcDbEllipse
10
48.843359
20
15.911632
30
0
11
-0.0510447664513751
21
-0.244733389258443
31
0
210
0
220
0
230
1
40
0.099036
41
-1.889182500165
42
-1.31086871070273
0
ELLIPSE
5
14E
100
AcDbEntity
8
1
62
256
6
ByLayer
370
13
48
1
60
0
100
AcDbEllipse
10
48.135155
20
15.692564
30
0
11
-0.00289456120255988
21
0.24998324246926
31
0
210
0
220
0
230
1
40
0.002229
41
0.574211841293262
42
1.08680029698086
0
ELLIPSE
5
14F
100
AcDbEntity
8
1
62
256
6
ByLayer
370
13
48
1
60
0
100
AcDbEllipse
10
48.562035
20
11.815971
30
0
11
-0.0899306066058353
21
-0.217111690140136
31
0
210
0
220
0
230
1
40
0.03099
41
-2.24247707119317
42
-0.923259575802447
0
ELLIPSE
5
150
100
AcDbEntity
8
1
62
256
6
ByLayer
370
13
48
1
60
0
100
AcDbEllipse
10
45.221869
20
15.225016
30
0
11
-0.0739659404668525
21
0.238807536838463
31
0
210
0
220
0
230
1
40
0.240945
41
-2.40854985893655
42
-0.909665121221238
0
ELLIPSE
5
151
100
AcDbEntity
8
1
62
256
6
ByLayer
370
13
48
1
60
0
100
AcDbEllipse
10
45.148833
20
15.207923
30
0
11
-0.0386535723026772
21
0.246993727345942
31
0
210
0
220
0
230
1
40
0.128659
41
-2.11967593234151
42
-0.882712685318187
0
ELLIPSE
5
152
100
AcDbEntity
8
1
62
256
6
ByLayer
370
13
48
1
60
0
100
AcDbEllipse
10
48.494598
20
16.156096
30
0
11
0.0899306066058396
21
-0.217111690140134
31
0
210
0
220
0
230
1
40
0.018527
41
-2.2224816956894
42
-0.927573132376278
0
ELLIPSE
5
153
100
AcDbEntity
8
1
62
256
6
ByLayer
370
13
48
1
60
0
100
AcDbEllipse
10
48.599275
20
15.884595
30
0
11
-0.069721559424502
21
0.240081036634332
31
0
210
0
220
0
230
1
40
0.0638
41
0.930071340022264
42
1.88398032495367
0
ELLIPSE
5
154
100
AcDbEntity
8
1
62
256
6
ByLayer
370
13
48
1
60
0
100
AcDbEllipse
10
48.127427
20
16.181093
30
0
11
-0.403423410768514
21
-0.690832506215435
31
0
210
0
220
0
230
1
40
0.262689
41
0.896665417862479
42
1.16139064598379
0
ELLIPSE
5
155
100
AcDbEntity
8
1
62
256
6
ByLayer
370
13
48
1
60
0
100
AcDbEllipse
10
40.340467
20
14.40428
30
0
11
3.76062613341852
21
-0.156928203713585
31
0
210
0
220
0
230
-1
40
0.797045
41
-0.131108932557628
42
0.135947180757752
0
ELLIPSE
5
156
100
AcDbEntity
8
1
62
256
6
ByLayer
370
18
48
1
60
0
100
AcDbEllipse
10
44.370685
20
10.75541
30
0
11
1.68533971486231
21
-0.0274260168385427
31
0
210
0
220
0
230
-1
40
0.593243
41
-1.33507500960701
42
-1.31799966517606
0
ELLIPSE
5
157
100
AcDbEntity
8
1
62
256
6
ByLayer
370
13
48
1
60
0
100
AcDbEllipse
10
48.643883
20
15.895993
30
0
11
-0.0541791667760809
21
0.244058636166495
31
0
210
0
220
0
230
1
40
0.107584
41
0.917697796288035
42
1.8894572495039
0
ELLIPSE
5
158
100
AcDbEntity
8
1
62
256
6
ByLayer
370
18
48
1
60
0
100
AcDbEllipse
10
39.875067
20
16.661597
30
0
11
0.228999172085611
21
0.00120909168331485
31
0
210
0
220
0
230
-1
40
0.00804
41
-2.08459480372616
42
-1.74216091652596
0
ELLIPSE
5
159
100
AcDbEntity
8
1
62
256
6
ByLayer
370
13
48
1
60
0
100
AcDbEllipse
10
48.809457
20
12.084048
30
0
11
0.00544227291733998
21
0.249940756311357
31
0
210
0
220
0
230
1
40
0.277734
41
1.21430322697356
42
2.28700392656661
0
ELLIPSE
5
15A
100
AcDbEntity
8
1
62
256
6
ByLayer
370
13
48
1
60
0
100
AcDbEllipse
10
48.562035
20
16.184029
30
0
11
0.0899306066058396
21
-0.217111690140134
31
0
210
0
220
0
230
1
40
0.03099
41
-2.21833307778497
42
-0.899115582399272
0
ELLIPSE
5
15B
100
AcDbEntity
8
1
62
256
6
ByLayer
370
13
48
1
60
0
100
AcDbEllipse
10
48.868222
20
12.093115
30
0
11
-0.131837559674634
21
-0.269478863473626
31
0
210
0
220
0
230
1
40
0.125249
41
0.804689624062303
42
1.63199532793548
0
ELLIPSE
5
15C
100
AcDbEntity
8
1
62
256
6
ByLayer
370
13
48
1
60
0
100
AcDbEllipse
10
43.219857
20
14.792069
30
0
11
0.343850940434672
21
-0.0394121366923397
31
0
210
0
220
0
230
-1
40
0.280972
41
0.0898405520606896
42
0.107730299021445
0
ELLIPSE
5
15D
100
AcDbEntity
8
1
62
256
6
ByLayer
370
13
48
1
60
0
100
AcDbEllipse
10
47.768913
20
16.303751
30
0
11
-0.131457030055959
21
-0.789125496514253
31
0
210
0
220
0
230
1
40
0.105545
41
0.824507757570431
42
0.947276290288185
0
ELLIPSE
5
15E
100
AcDbEntity
8
1
62
256
6
ByLayer
370
13
48
1
60
0
100
AcDbEllipse
10
48.666666
20
12.099316
30
0
11
0.0467013527174481
21
0.245599233822829
31
0
210
0
220
0
230
1
40
0.130272
41
1.24850707125148
42
2.23220863229271
0
ELLIPSE
5
15F
100
AcDbEntity
8
1
62
256
6
ByLayer
370
13
48
1
60
0
100
AcDbEllipse
10
44.459669
20
14.67751
30
0
11
-0.397240319677026
21
-0.0469055265709112
31
0
210
0
220
0
230
1
40
0.053157
41
-1.24166013851975
42
-0.346338008279216
0
ELLIPSE
5
160
100
AcDbEntity
8
1
62
256
6
ByLayer
370
13
48
1
60
0
100
AcDbEllipse
10
48.809457
20
15.915952
30
0
11
0.00544227291733992
21
-0.249940756311357
31
0
210
0
220
0
230
1
40
0.277734
41
-2.28700392656659
42
-1.21430322697371
0
ELLIPSE
5
161
100
AcDbEntity
8
1
62
256
6
ByLayer
370
18
48
1
60
0
100
AcDbEllipse
10
48.078946
20
11.792455
30
0
11
0.362647687601748
21
-0.71308250201299
31
0
210
0
220
0
230
1
40
0.239608
41
2.0287585458063
42
2.26075530052959
0
ELLIPSE
5
162
100
AcDbEntity
8
1
62
256
6
ByLayer
370
13
48
1
60
0
100
AcDbEllipse
10
48.51708
20
16.165408
30
0
11
0.0899306066058396
21
-0.217111690140134
31
0
210
0
220
0
230
1
40
0.022682
41
-2.22085369966597
42
-0.920094327546416
0
ELLIPSE
5
163
100
AcDbEntity
8
1
62
256
6
ByLayer
370
13
48
1
60
0
100
AcDbEllipse
10
48.629441
20
16.211949
30
0
11
0.0899306066058396
21
-0.217111690140134
31
0
210
0
220
0
230
1
40
0.04345
41
-2.21640203835575
42
-0.852337386600351
0
ELLIPSE
5
164
100
AcDbEntity
8
1
62
256
6
ByLayer
370
13
48
1
60
0
100
AcDbEllipse
10
48.785441
20
15.914837
30
0
11
0.0143137792380838
21
-0.249589895075749
31
0
210
0
220
0
230
1
40
0.255666
41
-2.29562642746126
42
-1.22397845083317
0
ELLIPSE
5
165
100
AcDbEntity
8
1
62
256
6
ByLayer
370
13
48
1
60
0
100
AcDbEllipse
10
48.709753
20
16.245216
30
0
11
0.0899306066058396
21
-0.217111690140134
31
0
210
0
220
0
230
1
40
0.058299
41
-2.21701334606684
42
-0.792034234103769
0
ELLIPSE
5
166
100
AcDbEntity
8
1
62
256
6
ByLayer
370
13
48
1
60
0
100
AcDbEllipse
10
45.105219
20
12.807654
30
0
11
-0.044287818146666
21
-0.24604590865082
31
0
210
0
220
0
230
1
40
0.147032
41
0.885863427563424
42
2.15200844327415
0
ELLIPSE
5
167
100
AcDbEntity
8
1
62
256
6
ByLayer
370
13
48
1
60
0
100
AcDbEllipse
10
44.844577
20
12.798229
30
0
11
-0.150498438402562
21
0.370607906065683
31
0
210
0
220
0
230
1
40
0.301061
41
1.43622951063434
42
2.2087532155179
0
ELLIPSE
5
168
100
AcDbEntity
8
1
62
256
6
ByLayer
370
13
48
1
60
0
100
AcDbEllipse
10
48.447288
20
11.514598
30
0
11
0.110763749558761
21
0.278803500307446
31
0
210
0
220
0
230
1
40
0.046094
41
-1.70263600896279
42
-0.924741031349044
0
ELLIPSE
5
169
100
AcDbEntity
8
1
62
256
6
ByLayer
370
13
48
1
60
0
100
AcDbEllipse
10
49.003015
20
15.976711
30
0
11
-0.144399151291082
21
0.262961755976825
31
0
210
0
220
0
230
1
40
0.122265
41
-1.63783478792558
42
-0.839959943444172
0
ELLIPSE
5
16A
100
AcDbEntity
8
1
62
256
6
ByLayer
370
13
48
1
60
0
100
AcDbEllipse
10
48.10236
20
12.381256
30
0
11
0.250409779815239
21
0.165211810028471
31
0
210
0
220
0
230
1
40
0.454891
41
-1.8314849160071
42
-1.02561154099092
0
ELLIPSE
5
16B
100
AcDbEntity
8
1
62
256
6
ByLayer
370
13
48
1
60
0
100
AcDbEllipse
10
48.606977
20
16.202644
30
0
11
0.0899306066058396
21
-0.217111690140134
31
0
210
0
220
0
230
1
40
0.039297
41
-2.21679831272194
42
-0.870002965208142
0
ELLIPSE
5
16C
100
AcDbEntity
8
1
62
256
6
ByLayer
370
13
48
1
60
0
100
AcDbEllipse
10
47.807999
20
15.685698
30
0
11
-0.00188289982491171
21
0.249992909275942
31
0
210
0
220
0
230
1
40
0.036814
41
-0.955686546260478
42
-0.520754774784856
0
ELLIPSE
5
16D
100
AcDbEntity
8
1
62
256
6
ByLayer
370
13
48
1
60
0
100
AcDbEllipse
10
47.747659
20
16.106537
30
0
11
0.00447096586680113
21
-0.234957465223427
31
0
210
0
220
0
230
1
40
0.005117
41
0.51359807773988
42
2.26437952396829
0
ELLIPSE
5
16E
100
AcDbEntity
8
1
62
256
6
ByLayer
370
13
48
1
60
0
100
AcDbEllipse
10
48.81037
20
12.084032
30
0
11
0.00345677215695895
21
0.249976100310119
31
0
210
0
220
0
230
1
40
0.276293
41
1.21207107965004
42
2.27599777500395
0
ELLIPSE
5
16F
100
AcDbEntity
8
1
62
256
6
ByLayer
370
13
48
1
60
0
100
AcDbEllipse
10
48.89543
20
15.857266
30
0
11
-0.262871624734014
21
-0.144563165812386
31
0
210
0
220
0
230
1
40
0.067569
41
1.13015027082323
42
1.69304949250416
0
ELLIPSE
5
170
100
AcDbEntity
8
1
62
256
6
ByLayer
370
13
48
1
60
0
100
AcDbEllipse
10
49.137635
20
11.281227
30
0
11
0.0383083190754754
21
0.297544068483328
31
0
210
0
220
0
230
1
40
0.011848
41
-1.70992229257173
42
-1.01523157337771
0
ELLIPSE
5
171
100
AcDbEntity
8
1
62
256
6
ByLayer
370
18
48
1
60
0
100
AcDbEllipse
10
48.999181
20
16.365101
30
0
11
0.0899306066058396
21
-0.217111690140134
31
0
210
0
220
0
230
1
40
0.017962
41
0.883326076994972
42
2.19888580305885
0
ELLIPSE
5
172
100
AcDbEntity
8
1
62
256
6
ByLayer
370
13
48
1
60
0
100
AcDbEllipse
10
45.51507
20
15.078172
30
0
11
-5.10800157590817E-17
21
0.834227514819682
31
0
210
0
220
0
230
-1
40
0.8391
41
-0.785398163395577
42
0
0
ELLIPSE
5
173
100
AcDbEntity
8
1
62
256
6
ByLayer
370
13
48
1
60
0
100
AcDbEllipse
10
45.994626
20
12.574697
30
0
11
0.0534756689485327
21
0.244213744147431
31
0
210
0
220
0
230
1
40
0.167877
41
-2.25128406614336
42
-0.626246069697369
0
ELLIPSE
5
174
100
AcDbEntity
8
1
62
256
6
ByLayer
370
13
48
1
60
0
100
AcDbEllipse
10
48.551504
20
11.471773
30
0
11
0.117276566594161
21
0.276127157171991
31
0
210
0
220
0
230
1
40
0.049186
41
-1.70151777506363
42
-0.924422877111009
0
ELLIPSE
5
175
100
AcDbEntity
8
1
62
256
6
ByLayer
370
13
48
1
60
0
100
AcDbEllipse
10
48.735644
20
11.74406
30
0
11
-0.0899306066058353
21
-0.217111690140136
31
0
210
0
220
0
230
1
40
0.063088
41
-2.34501104290959
42
-0.923706339647383
0
ELLIPSE
5
176
100
AcDbEntity
8
1
62
256
6
ByLayer
370
13
48
1
60
0
100
AcDbEllipse
10
48.212435
20
16.097991
30
0
11
-0.0049923780630514
21
-0.234946964571317
31
0
210
0
220
0
230
1
40
0.036371
41
0.671192421754553
42
2.23704311967888
0
ELLIPSE
5
177
100
AcDbEntity
8
1
62
256
6
ByLayer
370
13
48
1
60
0
100
AcDbEllipse
10
40.052412
20
14.416857
30
0
11
3.57069354624469
21
-0.155899927073015
31
0
210
0
220
0
230
-1
40
0.839401
41
-0.00745672612900398
42
0.00745668858459734
0
ELLIPSE
5
178
100
AcDbEntity
8
1
62
256
6
ByLayer
370
18
48
1
60
0
100
AcDbEllipse
10
44.497648
20
11.761619
30
0
11
0.399738852121232
21
-0.0294216597608537
31
0
210
0
220
0
230
-1
40
0.018225
41
1.41240876533454
42
1.90274951071
0
ELLIPSE
5
179
100
AcDbEntity
8
1
62
256
6
ByLayer
370
13
48
1
60
0
100
AcDbEllipse
10
48.404523
20
15.809785
30
0
11
-0.103782519273396
21
0.227440516824218
31
0
210
0
220
0
230
1
40
0.182089
41
-1.88924134385199
42
-0.911946054607404
0
ELLIPSE
5
17A
100
AcDbEntity
8
1
62
256
6
ByLayer
370
13
48
1
60
0
100
AcDbEllipse
10
48.856491
20
15.90113
30
0
11
0.132396805980953
21
-0.269204542617768
31
0
210
0
220
0
230
1
40
0.125123
41
1.66191072600524
42
2.33894522468248
0
ELLIPSE
5
17B
100
AcDbEntity
8
1
62
256
6
ByLayer
370
13
48
1
60
0
100
AcDbEllipse
10
48.651901
20
16.221253
30
0
11
0.0899306066058396
21
-0.217111690140134
31
0
210
0
220
0
230
1
40
0.047602
41
-2.21625357466719
42
-0.832552542087433
0
ELLIPSE
5
17C
100
AcDbEntity
8
1
62
256
6
ByLayer
370
13
48
1
60
0
100
AcDbEllipse
10
48.599254
20
11.451187
30
0
11
0.120247414553658
21
0.274846428561771
31
0
210
0
220
0
230
1
40
0.050597
41
-1.70097974226925
42
-0.922002067895991
0
ELLIPSE
5
17D
100
AcDbEntity
8
1
62
256
6
ByLayer
370
13
48
1
60
0
100
AcDbEllipse
10
48.599275
20
12.115405
30
0
11
0.0697215594245021
21
0.240081036634332
31
0
210
0
220
0
230
1
40
0.0638
41
1.25761232863676
42
2.21152131356656
0
ELLIPSE
5
17E
100
AcDbEntity
8
1
62
256
6
ByLayer
370
13
48
1
60
0
100
AcDbEllipse
10
48.363139
20
16.452871
30
0
11
0.105601103523922
21
-0.280799584997076
31
0
210
0
220
0
230
1
40
0.043644
41
0.920136676457601
42
1.70346389303257
0
ELLIPSE
5
17F
100
AcDbEntity
8
1
62
256
6
ByLayer
370
13
48
1
60
0
100
AcDbEllipse
10
48.56115
20
12.35
30
0
11
7.55834633536984E-17
21
0.266820171216205
31
0
210
0
220
0
230
1
40
0.990268
41
-2.29260836668687
42
-2.07773225858863
0
ELLIPSE
5
180
100
AcDbEntity
8
1
62
256
6
ByLayer
370
13
48
1
60
0
100
AcDbEllipse
10
43.943694
20
16.597169
30
0
11
-0.00483844822814324
21
0.0998828785064967
31
0
210
0
220
0
230
1
40
0.94066
41
1.52526110371456
42
1.61778647405907
0
ELLIPSE
5
181
100
AcDbEntity
8
1
62
256
6
ByLayer
370
13
48
1
60
0
100
AcDbEllipse
10
47.835004
20
16.291819
30
0
11
-0.15278313758224
21
-0.785275310238725
31
0
210
0
220
0
230
1
40
0.103584
41
0.827870062561098
42
0.962408612124848
0
ELLIPSE
5
182
100
AcDbEntity
8
1
62
256
6
ByLayer
370
13
48
1
60
0
100
AcDbEllipse
10
47.743256
20
11.551462
30
0
11
0.0051955095308199
21
0.299955007760689
31
0
210
0
220
0
230
1
40
0.003698
41
0.877205604795908
42
1.71037401282174
0
ELLIPSE
5
183
100
AcDbEntity
8
1
62
256
6
ByLayer
370
13
48
1
60
0
100
AcDbEllipse
10
48.587337
20
16.543618
30
0
11
0.119508742261717
21
-0.275168422103668
31
0
210
0
220
0
230
1
40
0.050246
41
0.922741133659692
42
1.70111517605498
0
ELLIPSE
5
184
100
AcDbEntity
8
1
62
256
6
ByLayer
370
18
48
1
60
0
100
AcDbEllipse
10
45.51507
20
11.212274
30
0
11
0.995952054452452
21
-0.593314425886094
31
0
210
0
220
0
230
-1
40
0.151498
41
-2.00950802527993
42
-1.66080387079437
0
ELLIPSE
5
185
100
AcDbEntity
8
1
62
256
6
ByLayer
370
13
48
1
60
0
100
AcDbEllipse
10
47.826479
20
11.551808
30
0
11
-0.00769005562270544
21
0.299901422211566
31
0
210
0
220
0
230
1
40
0.009727
41
0.877406756926883
42
1.71008563317799
0
ELLIPSE
5
186
100
AcDbEntity
8
1
62
256
6
ByLayer
370
13
48
1
60
0
100
AcDbEllipse
10
48.567592
20
15.65
30
0
11
-7.84199224798416E-17
21
-0.426912273945929
31
0
210
0
220
0
230
1
40
0.990268
41
2.07773225858866
42
2.21149041246198
0
ELLIPSE
5
187
100
AcDbEntity
8
1
62
256
6
ByLayer
370
13
48
1
60
0
100
AcDbEllipse
10
49.003015
20
12.023289
30
0
11
-0.144399151291082
21
-0.262961755976825
31
0
210
0
220
0
230
1
40
0.122265
41
0.839959943443714
42
1.63783478792563
0
ELLIPSE
5
188
100
AcDbEntity
8
1
62
256
6
ByLayer
370
18
48
1
60
0
100
AcDbEllipse
10
43.29404
20
11.848721
30
0
11
0.369999667776491
21
-0.0272298351373343
31
0
210
0
220
0
230
-1
40
0.018209
41
-1.21023129948652
42
-0.345317622997268
0
ELLIPSE
5
189
100
AcDbEntity
8
1
62
256
6
ByLayer
370
13
48
1
60
0
100
AcDbEllipse
10
48.426317
20
16.477127
30
0
11
0.109463735293747
21
-0.279316470433701
31
0
210
0
220
0
230
1
40
0.045477
41
0.923993572058464
42
1.70284930219916
0
ELLIPSE
5
18A
100
AcDbEntity
8
1
62
256
6
ByLayer
370
13
48
1
60
0
100
AcDbEllipse
10
43.373431
20
13.303244
30
0
11
0.0654902523311775
21
-1.34108196777745
31
0
210
0
220
0
230
-1
40
0.257658
41
0.0304869778842304
42
0.0438684055876664
0
ELLIPSE
5
18B
100
AcDbEntity
8
1
62
256
6
ByLayer
370
13
48
1
60
0
100
AcDbEllipse
10
47.826479
20
16.448192
30
0
11
-0.00769005562270585
21
-0.299901422211566
31
0
210
0
220
0
230
1
40
0.009727
41
-1.71008563317819
42
-0.877406756926257
0
ELLIPSE
5
18C
100
AcDbEntity
8
1
62
256
6
ByLayer
370
13
48
1
60
0
100
AcDbEllipse
10
48.127427
20
11.818907
30
0
11
0.403423410768513
21
-0.690832506215435
31
0
210
0
220
0
230
1
40
0.262689
41
1.980202007606
42
2.24492723572731
0
ELLIPSE
5
18D
100
AcDbEntity
8
1
62
256
6
ByLayer
370
13
48
1
60
0
100
AcDbEllipse
10
48.821337
20
12.116292
30
0
11
0.134024145956204
21
0.268398078049583
31
0
210
0
220
0
230
1
40
0.124754
41
-2.34557332355452
42
-2.31208130153946
0
ELLIPSE
5
18E
100
AcDbEntity
8
1
62
256
6
ByLayer
370
13
48
1
60
0
100
AcDbEllipse
10
48.7227
20
11.749421
30
0
11
-0.0899306066058353
21
-0.217111690140136
31
0
210
0
220
0
230
1
40
0.060694
41
-2.34724686875675
42
-0.924183943991894
0
ELLIPSE
5
18F
100
AcDbEntity
8
1
62
256
6
ByLayer
370
13
48
1
60
0
100
AcDbEllipse
10
48.131957
20
16.178435
30
0
11
-0.406104986473479
21
-0.689259559209283
31
0
210
0
220
0
230
1
40
0.263572
41
0.89780678609498
42
1.10174912095119
0
ELLIPSE
5
190
100
AcDbEntity
8
1
62
256
6
ByLayer
370
18
48
1
60
0
100
AcDbEllipse
10
45.404216
20
17.692634
30
0
11
-1.04930116410266
21
0.0568065526419026
31
0
210
0
220
0
230
1
40
0.951622
41
1.72797135779409
42
2.17138530725866
0
ELLIPSE
5
191
100
AcDbEntity
8
1
62
256
6
ByLayer
370
13
48
1
60
0
100
AcDbEllipse
10
48.140912
20
12.307377
30
0
11
0.00228673853630575
21
0.24998954143497
31
0
210
0
220
0
230
1
40
0.004846
41
2.05947557309455
42
2.56664571167268
0
ELLIPSE
5
192
100
AcDbEntity
8
1
62
256
6
ByLayer
370
13
48
1
60
0
100
AcDbEllipse
10
43.444722
20
14.660192
30
0
11
0.205121382655866
21
-2.72675770504526
31
0
210
0
220
0
230
-1
40
0.046428
41
0.0223265727955625
42
0.0393701689121452
0
ELLIPSE
5
193
100
AcDbEntity
8
1
62
256
6
ByLayer
370
13
48
1
60
0
100
AcDbEllipse
10
48.341992
20
11.555027
30
0
11
0.1043319672617
21
0.281273604533564
31
0
210
0
220
0
230
1
40
0.043042
41
-1.70365962724729
42
-0.918316256072265
0
ELLIPSE
5
194
100
AcDbEntity
8
1
62
256
6
ByLayer
370
13
48
1
60
0
100
AcDbEllipse
10
48.829218
20
12.08555
30
0
11
-0.0466868408665357
21
0.245601992845951
31
0
210
0
220
0
230
1
40
0.227005
41
1.16092402543376
42
2.03634484889699
0
ELLIPSE
5
195
100
AcDbEntity
8
1
62
256
6
ByLayer
370
13
48
1
60
0
100
AcDbEllipse
10
48.468217
20
16.493773
30
0
11
0.112067087850249
21
-0.278282173020056
31
0
210
0
220
0
230
1
40
0.046712
41
0.925218310354689
42
1.70241888252923
0
ELLIPSE
5
196
100
AcDbEntity
8
1
62
256
6
ByLayer
370
18
48
1
60
0
100
AcDbEllipse
10
47.992745
20
16.442223
30
0
11
-0.0138669536298432
21
-0.299679341291701
31
0
210
0
220
0
230
1
40
0.012613
41
-1.70985548777425
42
-0.882791170735229
0
ELLIPSE
5
197
100
AcDbEntity
8
1
62
256
6
ByLayer
370
13
48
1
60
0
100
AcDbEllipse
10
47.756915
20
15.68421
30
0
11
-0.0127056614243677
21
0.249676923578791
31
0
210
0
220
0
230
1
40
0.051215
41
-0.941351726999213
42
-0.514332093670696
0
ELLIPSE
5
198
100
AcDbEntity
8
1
62
256
6
ByLayer
370
13
48
1
60
0
100
AcDbEllipse
10
43.327147
20
11.479676
30
0
11
0.524348348122592
21
5.10840735470471
31
0
210
0
220
0
230
-1
40
0.025361
41
-0.0337224650416046
42
-0.0107688293905142
0
ELLIPSE
5
199
100
AcDbEntity
8
1
62
256
6
ByLayer
370
13
48
1
60
0
100
AcDbEllipse
10
49.367261
20
11.3
30
0
11
-0.156278102235896
21
0.256080367778452
31
0
210
0
220
0
230
1
40
0.119112
41
-1.64335901494936
42
-1.17688567142456
0
ELLIPSE
5
19A
100
AcDbEntity
8
1
62
256
6
ByLayer
370
18
48
1
60
0
100
AcDbEllipse
10
48.826415
20
12.085069
30
0
11
-0.0378646809203704
21
0.247115895763099
31
0
210
0
220
0
230
1
40
0.23743
41
1.16924089839946
42
2.07354271183134
0
ELLIPSE
5
19B
100
AcDbEntity
8
1
62
256
6
ByLayer
370
13
48
1
60
0
100
AcDbEllipse
10
44.536783
20
15.84185
30
0
11
0.399926857467002
21
0.00764909645437632
31
0
210
0
220
0
230
1
40
0.019365
41
0.808146409726526
42
1.90350487086521
0
ELLIPSE
5
19C
100
AcDbEntity
8
1
62
256
6
ByLayer
370
13
48
1
60
0
100
AcDbEllipse
10
48.288275
20
11.568997
30
0
11
0.0459291010665723
21
0.296463349632322
31
0
210
0
220
0
230
1
40
0.015436
41
-1.70957224955107
42
-0.913303379115748
0
ELLIPSE
5
19D
100
AcDbEntity
8
1
62
256
6
ByLayer
370
13
48
1
60
0
100
AcDbEllipse
10
47.807999
20
12.314302
30
0
11
0.00188289982491174
21
0.249992909275942
31
0
210
0
220
0
230
1
40
0.036814
41
-2.62083787880494
42
-2.18590610733103
0
ELLIPSE
5
19E
100
AcDbEntity
8
1
62
256
6
ByLayer
370
13
48
1
60
0
100
AcDbEllipse
10
48.426317
20
11.522873
30
0
11
0.109463735293747
21
0.279316470433701
31
0
210
0
220
0
230
1
40
0.045477
41
-1.7028493021995
42
-0.923993572058464
0
ELLIPSE
5
19F
100
AcDbEntity
8
1
62
256
6
ByLayer
370
13
48
1
60
0
100
AcDbEllipse
10
48.509945
20
16.510806
30
0
11
0.114676205107024
21
-0.277217185582445
31
0
210
0
220
0
230
1
40
0.047951
41
0.925361283149133
42
1.7019742579016
0
ELLIPSE
5
1A0
100
AcDbEntity
8
1
62
256
6
ByLayer
370
13
48
1
60
0
100
AcDbEllipse
10
46.388696
20
11.817408
30
0
11
0.0949951279488612
21
0.284562691978375
31
0
210
0
220
0
230
1
40
0.112135
41
0.877028623370061
42
1.64906504570477
0
ELLIPSE
5
1A1
100
AcDbEntity
8
1
62
256
6
ByLayer
370
13
48
1
60
0
100
AcDbEllipse
10
47.059831
20
11.636868
30
0
11
0.0500443814824838
21
0.295796483890589
31
0
210
0
220
0
230
1
40
0.017375
41
-1.70934426454185
42
-0.869658159304092
0
ELLIPSE
5
1A2
100
AcDbEntity
8
1
62
256
6
ByLayer
370
13
48
1
60
0
100
AcDbEllipse
10
48.833049
20
15.889542
30
0
11
0.133490266708945
21
-0.268664007068261
31
0
210
0
220
0
230
1
40
0.124876
41
2.11038335671747
42
2.34328082157467
0
ELLIPSE
5
1A3
100
AcDbEntity
8
1
62
256
6
ByLayer
370
13
48
1
60
0
100
AcDbEllipse
10
48.736952
20
12.08906
30
0
11
0.0260848624412866
21
0.248635435832102
31
0
210
0
220
0
230
1
40
0.202726
41
1.23475707827814
42
2.26578914035569
0
ELLIPSE
5
1A4
100
AcDbEntity
8
1
62
256
6
ByLayer
370
13
48
1
60
0
100
AcDbEllipse
10
49.3
20
11.275414
30
0
11
-0.0208554787142766
21
0.299274203712245
31
0
210
0
220
0
230
1
40
0.00977
41
1.09562978034638
42
1.71008266168522
0
ELLIPSE
5
1A5
100
AcDbEntity
8
1
62
256
6
ByLayer
370
18
48
1
60
0
100
AcDbEllipse
10
48.999181
20
11.634899
30
0
11
-0.0899306066058353
21
-0.217111690140136
31
0
210
0
220
0
230
1
40
0.017962
41
0.942706850534678
42
2.25826657659072
0
ELLIPSE
5
1A6
100
AcDbEntity
8
1
62
256
6
ByLayer
370
13
48
1
60
0
100
AcDbEllipse
10
47.059831
20
16.363132
30
0
11
0.0500443814824839
21
-0.295796483890589
31
0
210
0
220
0
230
1
40
0.017375
41
0.8696581593008
42
1.70934426454194
0
ELLIPSE
5
1A7
100
AcDbEntity
8
1
62
256
6
ByLayer
370
13
48
1
60
0
100
AcDbEllipse
10
46.233577
20
12.463159
30
0
11
0.155796455764522
21
0.195518450206658
31
0
210
0
220
0
230
1
40
0.413181
41
-2.14147032711337
42
-0.530963031290874
0
ELLIPSE
5
1A8
100
AcDbEntity
8
1
62
256
6
ByLayer
370
13
48
1
60
0
100
AcDbEllipse
10
48.34479
20
11.891099
30
0
11
-0.043382024620565
21
-0.230961035544571
31
0
210
0
220
0
230
1
40
0.009251
41
0.913204487932959
42
2.25089444212674
0
ELLIPSE
5
1A9
100
AcDbEntity
8
1
62
256
6
ByLayer
370
13
48
1
60
0
100
AcDbEllipse
10
48.10236
20
15.618744
30
0
11
0.250409779815237
21
-0.165211810028473
31
0
210
0
220
0
230
1
40
0.454891
41
1.02561154099111
42
1.831484916007
0
ELLIPSE
5
1AA
100
AcDbEntity
8
1
62
256
6
ByLayer
370
13
48
1
60
0
100
AcDbEllipse
10
43.741833
20
11.916234
30
0
11
-0.0160804796559836
21
-0.0986986229591553
31
0
210
0
220
0
230
1
40
0.940003
41
-1.5933244020781
42
-1.41887042542435
0
ELLIPSE
5
1AB
100
AcDbEntity
8
1
62
256
6
ByLayer
370
13
48
1
60
0
100
AcDbEllipse
10
49.137635
20
16.718773
30
0
11
0.0383083190754754
21
-0.297544068483328
31
0
210
0
220
0
230
1
40
0.011848
41
1.01523157338616
42
1.70992229257173
0
ELLIPSE
5
1AC
100
AcDbEntity
8
1
62
256
6
ByLayer
370
13
48
1
60
0
100
AcDbEllipse
10
48.384243
20
16.460863
30
0
11
0.106880627283452
21
-0.280315057589662
31
0
210
0
220
0
230
1
40
0.044251
41
0.921690500709415
42
1.70326346286827
0
ELLIPSE
5
1AD
100
AcDbEntity
8
1
62
256
6
ByLayer
370
13
48
1
60
0
100
AcDbEllipse
10
46.478252
20
14
30
0
11
-2.93905524917371E-16
21
-1.6
31
0
210
0
220
0
230
1
40
0.422618
41
-2.44724030693223
42
-0.694352346657571
0
ELLIPSE
5
1AE
100
AcDbEntity
8
1
62
256
6
ByLayer
370
13
48
1
60
0
100
AcDbEllipse
10
45.144134
20
16.169372
30
0
11
0.417241484411333
21
0.931004014282238
31
0
210
0
220
0
230
-1
40
0.654255
41
3.1253201859389
42
-2.19508705981556
0
ELLIPSE
5
1AF
100
AcDbEntity
8
1
62
256
6
ByLayer
370
18
48
1
60
0
100
AcDbEllipse
10
45.51507
20
16.709936
30
0
11
0.999999999681917
21
1.0106390547609E-15
31
0
210
0
220
0
230
-1
40
0.017455
41
1.67808255173365
42
2.33659906839015
0
ELLIPSE
5
1B0
100
AcDbEntity
8
1
62
256
6
ByLayer
370
13
48
1
60
0
100
AcDbEllipse
10
43.45352
20
15.112549
30
0
11
0.18597465901112
21
1.46000396420046
31
0
210
0
220
0
230
-1
40
0.23503
41
-0.0419168440771446
42
-0.0270129001685541
0
ELLIPSE
5
1B1
100
AcDbEntity
8
1
62
256
6
ByLayer
370
13
48
1
60
0
100
AcDbEllipse
10
48.563462
20
16.533325
30
0
11
0.118022986712373
21
-0.275808945843841
31
0
210
0
220
0
230
1
40
0.049541
41
0.923951733533548
42
1.70138426024333
0
ELLIPSE
5
1B2
100
AcDbEntity
8
1
62
256
6
ByLayer
370
13
48
1
60
0
100
AcDbEllipse
10
48.856491
20
12.09887
30
0
11
0.132396805980955
21
0.269204542617767
31
0
210
0
220
0
230
1
40
0.125123
41
-2.33894522468248
42
-1.66191072600529
0
ELLIPSE
5
1B3
100
AcDbEntity
8
1
62
256
6
ByLayer
370
13
48
1
60
0
100
AcDbEllipse
10
48.785441
20
12.085163
30
0
11
0.014313779238084
21
0.249589895075749
31
0
210
0
220
0
230
1
40
0.255666
41
1.22397845083305
42
2.29562642746126
0
ELLIPSE
5
1B4
100
AcDbEntity
8
1
62
256
6
ByLayer
370
18
48
1
60
0
100
AcDbEllipse
10
47.971835
20
16.103103
30
0
11
-0.0049923780630514
21
-0.234946964571317
31
0
210
0
220
0
230
1
40
0.033136
41
0.547817104343372
42
2.25822967377228
0
ELLIPSE
5
1B5
100
AcDbEntity
8
1
62
256
6
ByLayer
370
13
48
1
60
0
100
AcDbEllipse
10
48.013302
20
15.453792
30
0
11
0.278159628338067
21
-0.112370908881385
31
0
210
0
220
0
230
1
40
0.64628
41
0.913100663229214
42
1.66593510264439
0
ELLIPSE
5
1B6
100
AcDbEntity
8
1
62
256
6
ByLayer
370
13
48
1
60
0
100
AcDbEllipse
10
43.736508
20
11.917295
30
0
11
0.0363302075122067
21
0.093167140248695
31
0
210
0
220
0
230
1
40
0.933385
41
1.73856502012541
42
1.91986214317331
0
ELLIPSE
5
1B7
100
AcDbEntity
8
1
62
256
6
ByLayer
370
13
48
1
60
0
100
AcDbEllipse
10
43.670659
20
10.096252
30
0
11
0.0235679875927408
21
-1.83755639545382
31
0
210
0
220
0
230
-1
40
0.074574
41
-3.12664433680105
42
-3.12446518297888
0
ELLIPSE
5
1B8
100
AcDbEntity
8
1
62
256
6
ByLayer
370
13
48
1
60
0
100
AcDbEllipse
10
47.768913
20
11.696249
30
0
11
0.131457030055959
21
-0.789125496514253
31
0
210
0
220
0
230
1
40
0.105545
41
2.19431636330141
42
2.31708489601937
0
ELLIPSE
5
1B9
100
AcDbEntity
8
1
62
256
6
ByLayer
370
18
48
1
60
0
100
AcDbEllipse
10
48.826415
20
15.914931
30
0
11
-0.0378646809203705
21
-0.247115895763099
31
0
210
0
220
0
230
1
40
0.23743
41
-2.07354271183134
42
-1.16924089839943
0
ELLIPSE
5
1BA
100
AcDbEntity
8
1
62
256
6
ByLayer
370
13
48
1
60
0
100
AcDbEllipse
10
45.103564
20
11.888621
30
0
11
0.402794909934232
21
-0.908890308759637
31
0
210
0
220
0
230
-1
40
0.67364
41
2.16439471830828
42
-3.1204230100551
0
ELLIPSE
5
1BB
100
AcDbEntity
8
1
62
256
6
ByLayer
370
13
48
1
60
0
100
AcDbEllipse
10
47.747659
20
11.893463
30
0
11
-0.00447096586680142
21
-0.234957465223427
31
0
210
0
220
0
230
1
40
0.005117
41
0.87721312962
42
2.62799457587188
0
ELLIPSE
5
1BC
100
AcDbEntity
8
1
62
256
6
ByLayer
370
13
48
1
60
0
100
AcDbEllipse
10
48.807457
20
15.915891
30
0
11
0.0096836844671094
21
-0.249812382109337
31
0
210
0
220
0
230
1
40
0.280676
41
-2.31094541142509
42
-1.21901087405108
0
ELLIPSE
5
1BD
100
AcDbEntity
8
1
62
256
6
ByLayer
370
13
48
1
60
0
100
AcDbEllipse
10
48.530745
20
16.519468
30
0
11
0.115978334944673
21
-0.276674946143414
31
0
210
0
220
0
230
1
40
0.04857
41
0.925027091314638
42
1.70174734995718
0
ELLIPSE
5
1BE
100
AcDbEntity
8
1
62
256
6
ByLayer
370
13
48
1
60
0
100
AcDbEllipse
10
48.643883
20
12.104007
30
0
11
0.054179166776081
21
0.244058636166495
31
0
210
0
220
0
230
1
40
0.107584
41
1.25213540408586
42
2.22389485730176
0
ELLIPSE
5
1BF
100
AcDbEntity
8
1
62
256
6
ByLayer
370
13
48
1
60
0
100
AcDbEllipse
10
48.575406
20
11.461545
30
0
11
0.118767181148117
21
0.275489304115659
31
0
210
0
220
0
230
1
40
0.049894
41
-1.70125003371277
42
-0.923391079168884
0
ELLIPSE
5
1C0
100
AcDbEntity
8
1
62
256
6
ByLayer
370
13
48
1
60
0
100
AcDbEllipse
10
45.020095
20
15.860896
30
0
11
0.229813332935696
21
-0.192836282905959
31
0
210
0
220
0
230
1
40
0.540716
41
-2.10763555738115
42
-1.14485749595464
0
ELLIPSE
5
1C1
100
AcDbEntity
8
1
62
256
6
ByLayer
370
13
48
1
60
0
100
AcDbEllipse
10
48.539559
20
16.174719
30
0
11
0.0899306066058396
21
-0.217111690140134
31
0
210
0
220
0
230
1
40
0.026836
41
-2.21947053180847
42
-0.910612756852039
0
ELLIPSE
5
1C2
100
AcDbEntity
8
1
62
256
6
ByLayer
370
13
48
1
60
0
100
AcDbEllipse
10
45.742363
20
6.138579
30
0
11
0.356160730899542
21
5.94421827471621
31
0
210
0
220
0
230
-1
40
0.671719
41
-0.038454518440932
42
-0.0235325044852347
0
ELLIPSE
5
1C3
100
AcDbEntity
8
1
62
256
6
ByLayer
370
13
48
1
60
0
100
AcDbEllipse
10
48.868222
20
15.906885
30
0
11
-0.131837559674634
21
0.269478863473626
31
0
210
0
220
0
230
1
40
0.125249
41
-1.63199532793553
42
-0.804689624062303
0
ELLIPSE
5
1C4
100
AcDbEntity
8
1
62
256
6
ByLayer
370
13
48
1
60
0
100
AcDbEllipse
10
43.233072
20
11.479707
30
0
11
0.61747767047793
21
5.11742867075731
31
0
210
0
220
0
230
-1
40
0.032586
41
-0.0284963586951139
42
-0.00554265383712087
0
ELLIPSE
5
1C5
100
AcDbEntity
8
1
62
256
6
ByLayer
370
13
48
1
60
0
100
AcDbEllipse
10
48.587337
20
11.456382
30
0
11
0.119508742261716
21
0.275168422103669
31
0
210
0
220
0
230
1
40
0.050246
41
-1.70111517605531
42
-0.922741133658548
0
ELLIPSE
5
1C6
100
AcDbEntity
8
1
62
256
6
ByLayer
370
13
48
1
60
0
100
AcDbEllipse
10
43.405413
20
13.91207
30
0
11
-0.369490334537762
21
0.019413724093346
31
0
210
0
220
0
230
1
40
0.345678
41
1.90266038203142
42
2.77198969431603
0
ELLIPSE
5
1C7
100
AcDbEntity
8
1
62
256
6
ByLayer
370
13
48
1
60
0
100
AcDbEllipse
10
48.889044
20
15.108368
30
0
11
-0.265987537766487
21
0.138746638708552
31
0
210
0
220
0
230
1
40
0.561971
41
-1.62125302498982
42
-0.913094258535622
0
ELLIPSE
5
1C8
100
AcDbEntity
8
1
62
256
6
ByLayer
370
13
48
1
60
0
100
AcDbEllipse
10
48.404523
20
12.190215
30
0
11
0.103782519273397
21
0.227440516824217
31
0
210
0
220
0
230
1
40
0.182089
41
-2.22964659898239
42
-1.25235130973783
0
ELLIPSE
5
1C9
100
AcDbEntity
8
1
62
256
6
ByLayer
370
18
48
1
60
0
100
AcDbEllipse
10
48.09252
20
11.563031
30
0
11
-0.0177069718269863
21
0.299476982669317
31
0
210
0
220
0
230
1
40
0.014405
41
0.889793555210679
42
1.70968232676424
0
ELLIPSE
5
1CA
100
AcDbEntity
8
1
62
256
6
ByLayer
370
13
48
1
60
0
100
AcDbEllipse
10
43.350576
20
14.660238
30
0
11
0.297076699707994
21
-2.74372273030011
31
0
210
0
220
0
230
-1
40
0.060035
41
0.014175683911979
42
0.0312191360756319
0
ELLIPSE
5
1CB
100
AcDbEntity
8
1
62
256
6
ByLayer
370
13
48
1
60
0
100
AcDbEllipse
10
43.436649
20
14.627489
30
0
11
-0.36977632980556
21
0.0128633555315017
31
0
210
0
220
0
230
1
40
0.345678
41
-2.77198969431289
42
-1.90266038202986
0
ELLIPSE
5
1CC
100
AcDbEntity
8
1
62
256
6
ByLayer
370
18
48
1
60
0
100
AcDbEllipse
10
47.971408
20
12.311008
30
0
11
0.00670086137975943
21
0.249910180778553
31
0
210
0
220
0
230
1
40
0.04561
41
-2.59347530934325
42
-2.12714203363694
0
ELLIPSE
5
1CD
100
AcDbEntity
8
1
62
256
6
ByLayer
370
13
48
1
60
0
100
AcDbEllipse
10
47.813713
20
16.106463
30
0
11
-0.0049923780630514
21
-0.234946964571317
31
0
210
0
220
0
230
1
40
0.013375
41
0.520417281697602
42
2.26413518091034
0
ELLIPSE
5
1CE
100
AcDbEntity
8
1
62
256
6
ByLayer
370
13
48
1
60
0
100
AcDbEllipse
10
48.748586
20
11.738699
30
0
11
-0.0899306066058353
21
-0.217111690140136
31
0
210
0
220
0
230
1
40
0.065482
41
-2.34285123273648
42
-0.923146581646872
0
ELLIPSE
5
1CF
100
AcDbEntity
8
1
62
256
6
ByLayer
370
18
48
1
60
0
100
AcDbEllipse
10
44.024868
20
11.799404
30
0
11
0.400158673618141
21
-0.0294584714240514
31
0
210
0
220
0
230
-1
40
0.018208
41
1.90230481791307
42
2.79614116684108
0
ELLIPSE
5
1D0
100
AcDbEntity
8
1
62
256
6
ByLayer
370
13
48
1
60
0
100
AcDbEllipse
10
43.33802
20
13.303356
30
0
11
0.103072537252308
21
-1.37506016792153
31
0
210
0
220
0
230
-1
40
0.318903
41
0.0364551204046453
42
0.0498359918836116
0
ELLIPSE
5
1D1
100
AcDbEntity
8
1
62
256
6
ByLayer
370
13
48
1
60
0
100
AcDbEllipse
10
43.460447
20
11.928012
30
0
11
-0.00390416090989008
21
-0.0999237585741734
31
0
210
0
220
0
230
1
40
0.35382
41
-1.90688819725296
42
-1.55697294852763
0
ELLIPSE
5
1D2
100
AcDbEntity
8
1
62
256
6
ByLayer
370
13
48
1
60
0
100
AcDbEllipse
10
48.68977
20
15.904725
30
0
11
0.0394934195426518
21
-0.246860830859876
31
0
210
0
220
0
230
1
40
0.153624
41
-2.24195121628908
42
-1.24435647276172
0
ELLIPSE
5
1D3
100
AcDbEntity
8
1
62
256
6
ByLayer
370
13
48
1
60
0
100
AcDbEllipse
10
48.212435
20
11.902009
30
0
11
0.00499237806305987
21
-0.234946964571317
31
0
210
0
220
0
230
1
40
0.036371
41
0.904549533912917
42
2.47040023183524
0
ELLIPSE
5
1D4
100
AcDbEntity
8
1
62
256
6
ByLayer
370
13
48
1
60
0
100
AcDbEllipse
10
43.850051
20
19.859709
30
0
11
0.00457748627332946
21
-3.27155917175767
31
0
210
0
220
0
230
-1
40
0.041422
41
-0.00754908775125603
42
-0.00419909971200731
0
ELLIPSE
5
1D5
100
AcDbEntity
8
1
62
256
6
ByLayer
370
13
48
1
60
0
100
AcDbEllipse
10
43.741606
20
11.916267
30
0
11
-0.012371884005299
21
-0.0992317312464084
31
0
210
0
220
0
230
1
40
0.94059
41
-1.62872896178638
42
-1.45405988882141
0
ELLIPSE
5
1D6
100
AcDbEntity
8
1
62
256
6
ByLayer
370
13
48
1
60
0
100
AcDbEllipse
10
44.867617
20
15.229228
30
0
11
-0.154460786869288
21
-0.368974071337974
31
0
210
0
220
0
230
1
40
0.308243
41
-2.20548879774868
42
-1.4554286546277
0
ELLIPSE
5
1D7
100
AcDbEntity
8
1
62
256
6
ByLayer
370
13
48
1
60
0
100
AcDbEllipse
10
43.417813
20
15.112516
30
0
11
0.225396645272404
21
1.4906697152676
31
0
210
0
220
0
230
-1
40
0.291694
41
-0.0460654522798352
42
-0.0311616724812694
0
ELLIPSE
5
1D8
100
AcDbEntity
8
1
62
256
6
ByLayer
370
13
48
1
60
0
100
AcDbEllipse
10
43.755147
20
19.868163
30
0
11
0.0995385184058793
21
-3.27074845677789
31
0
210
0
220
0
230
-1
40
0.031326
41
-0.00390891513021532
42
-0.000563288270173479
0
ELLIPSE
5
1D9
100
AcDbEntity
8
1
62
256
6
ByLayer
370
13
48
1
60
0
100
AcDbEllipse
10
48.741147
20
16.606953
30
0
11
0.107170275467834
21
-0.280204446888604
31
0
210
0
220
0
230
1
40
0.044389
41
0.925451135843792
42
1.70321765827842
0
ELLIPSE
5
1DA
100
AcDbEntity
8
1
62
256
6
ByLayer
370
13
48
1
60
0
100
AcDbEllipse
10
43.665254
20
16.60451
30
0
11
0.00435937313672872
21
0.0999049341416868
31
0
210
0
220
0
230
1
40
0.356721
41
1.58636065336277
42
1.90507916135092
0
ELLIPSE
5
1DB
100
AcDbEntity
8
1
62
256
6
ByLayer
370
13
48
1
60
0
100
AcDbEllipse
10
48.234753
20
11.571757
30
0
11
-0.015194903409066
21
0.299614944404296
31
0
210
0
220
0
230
1
40
0.013233
41
0.903819571918956
42
1.70979821750651
0
ELLIPSE
5
1DC
100
AcDbEntity
8
1
62
256
6
ByLayer
370
18
48
1
60
0
100
AcDbEllipse
10
47.992745
20
11.557777
30
0
11
-0.013866953629843
21
0.299679341291701
31
0
210
0
220
0
230
1
40
0.012613
41
0.882791170739817
42
1.70985548777436
0
ELLIPSE
5
1DD
100
AcDbEntity
8
1
62
256
6
ByLayer
370
13
48
1
60
0
100
AcDbEllipse
10
44.536661
20
15.867694
30
0
11
-0.399981409630776
21
0.00385641670176694
31
0
210
0
220
0
230
1
40
0.00942
41
-2.34455809364954
42
-1.23767374889052
0
ELLIPSE
5
1DE
100
AcDbEntity
8
1
62
256
6
ByLayer
370
13
48
1
60
0
100
AcDbEllipse
10
48.494598
20
11.843904
30
0
11
-0.0899306066058353
21
-0.217111690140136
31
0
210
0
220
0
230
1
40
0.018527
41
-2.2140195212099
42
-0.919110957903991
0
ELLIPSE
5
1DF
100
AcDbEntity
8
1
62
256
6
ByLayer
370
13
48
1
60
0
100
AcDbEllipse
10
48.509945
20
11.489194
30
0
11
0.114676205107024
21
0.277217185582445
31
0
210
0
220
0
230
1
40
0.047951
41
-1.70197425790165
42
-0.925361283150335
0
ELLIPSE
5
1E0
100
AcDbEntity
8
1
62
256
6
ByLayer
370
13
48
1
60
0
100
AcDbEllipse
10
48.234753
20
16.428243
30
0
11
-0.0151949034090662
21
-0.299614944404296
31
0
210
0
220
0
230
1
40
0.013233
41
-1.70979821750651
42
-0.903819571918956
0
ELLIPSE
5
1E1
100
AcDbEntity
8
1
62
256
6
ByLayer
370
18
48
1
60
0
100
AcDbEllipse
10
48.066662
20
11.898911
30
0
11
0.00499237806305987
21
-0.234946964571317
31
0
210
0
220
0
230
1
40
0.044987
41
0.890916811134484
42
2.57600812669872
0
ELLIPSE
5
1E2
100
AcDbEntity
8
1
62
256
6
ByLayer
370
13
48
1
60
0
100
AcDbEllipse
10
48.62142
20
15.890635
30
0
11
-0.0618719102209727
21
0.242222762608323
31
0
210
0
220
0
230
1
40
0.085462
41
0.924591680942899
42
1.88640681208356
0
ELLIPSE
5
1E3
100
AcDbEntity
8
1
62
256
6
ByLayer
370
13
48
1
60
0
100
AcDbEllipse
10
45.742363
20
21.861414
30
0
11
0.344639185796605
21
-5.75192269792276
31
0
210
0
220
0
230
-1
40
0.642112
41
0.0235325486453671
42
0.0384545713178951
0
ELLIPSE
5
1E4
100
AcDbEntity
8
1
62
256
6
ByLayer
370
13
48
1
60
0
100
AcDbEllipse
10
47.001821
20
16.353318
30
0
11
0.0500443814824839
21
-0.295796483890589
31
0
210
0
220
0
230
1
40
0.017375
41
0.8696581593008
42
1.70934426454269
0
ELLIPSE
5
1E5
100
AcDbEntity
8
1
62
256
6
ByLayer
370
13
48
1
60
0
100
AcDbEllipse
10
48.159055
20
11.567259
30
0
11
-0.0203602202595576
21
0.29930830498164
31
0
210
0
220
0
230
1
40
0.015643
41
0.896061835502961
42
1.70954917927934
0
ELLIPSE
5
1E6
100
AcDbEntity
8
1
62
256
6
ByLayer
370
13
48
1
60
0
100
AcDbEllipse
10
48.129853
20
16.099746
30
0
11
-0.0049923780630514
21
-0.234946964571317
31
0
210
0
220
0
230
1
40
0.052884
41
0.575117023847308
42
2.24393076306537
0
ELLIPSE
5
1E7
100
AcDbEntity
8
1
62
256
6
ByLayer
370
13
48
1
60
0
100
AcDbEllipse
10
49.367261
20
16.7
30
0
11
-0.156278102235896
21
-0.256080367778451
31
0
210
0
220
0
230
1
40
0.119112
41
1.17688567142441
42
1.64335901494948
0
ELLIPSE
5
1E8
100
AcDbEntity
8
1
62
256
6
ByLayer
370
13
48
1
60
0
100
AcDbEllipse
10
48.131957
20
11.821565
30
0
11
0.406104986473477
21
-0.689259559209285
31
0
210
0
220
0
230
1
40
0.263572
41
2.03984353263878
42
2.24378586749491
0
ELLIPSE
5
1E9
100
AcDbEntity
8
1
62
256
6
ByLayer
370
13
48
1
60
0
100
AcDbEllipse
10
48.129853
20
11.900254
30
0
11
0.00499237806305987
21
-0.234946964571317
31
0
210
0
220
0
230
1
40
0.052884
41
0.89766189052288
42
2.56647562974233
0
ELLIPSE
5
1EA
100
AcDbEntity
8
1
62
256
6
ByLayer
370
13
48
1
60
0
100
AcDbEllipse
10
45.166346
20
12.792409
30
0
11
0.0757575335716701
21
0.238245243619127
31
0
210
0
220
0
230
1
40
0.246431
41
-2.23009715599572
42
-0.740918981203012
0
ELLIPSE
5
1EB
100
AcDbEntity
8
1
62
256
6
ByLayer
370
13
48
1
60
0
100
AcDbEllipse
10
48.666666
20
15.900684
30
0
11
0.0467013527174487
21
-0.245599233822829
31
0
210
0
220
0
230
1
40
0.130272
41
-2.23220863229217
42
-1.24850707125205
0
ELLIPSE
5
1EC
100
AcDbEntity
8
1
62
256
6
ByLayer
370
13
48
1
60
0
100
AcDbEllipse
10
48.62142
20
12.109365
30
0
11
0.0618719102209728
21
0.242222762608323
31
0
210
0
220
0
230
1
40
0.085462
41
1.25518584150574
42
2.21700097264678
0
ELLIPSE
5
1ED
100
AcDbEntity
8
1
62
256
6
ByLayer
370
13
48
1
60
0
100
AcDbEllipse
10
44.231328
20
16.611321
30
0
11
0.399905682959903
21
0.0189551693664987
31
0
210
0
220
0
230
-1
40
0.029078
41
-2.79447700380925
42
-1.90251496891897
0
ELLIPSE
5
1EE
100
AcDbEntity
8
1
62
256
6
ByLayer
370
13
48
1
60
0
100
AcDbEllipse
10
48.384243
20
11.539137
30
0
11
0.106880627283451
21
0.280315057589663
31
0
210
0
220
0
230
1
40
0.044251
41
-1.70326346286834
42
-0.921690500709316
0
ELLIPSE
5
1EF
100
AcDbEntity
8
1
62
256
6
ByLayer
370
13
48
1
60
0
100
AcDbEllipse
10
45.51507
20
15.271008
30
0
11
1.00000000000088
21
1.01063905508325E-15
31
0
210
0
220
0
230
-1
40
0.834228
41
-2.34460350345809
42
-1.5707963267949
0
ELLIPSE
5
1F0
100
AcDbEntity
8
1
62
256
6
ByLayer
370
13
48
1
60
0
100
AcDbEllipse
10
48.584508
20
16.193337
30
0
11
0.0899306066058396
21
-0.217111690140134
31
0
210
0
220
0
230
1
40
0.035144
41
-2.21744214869773
42
-0.885586503886468
0
ELLIPSE
5
1F1
100
AcDbEntity
8
1
62
256
6
ByLayer
370
13
48
1
60
0
100
AcDbEllipse
10
43.948822
20
16.597417
30
0
11
0.00483844822814596
21
-0.0998828785064966
31
0
210
0
220
0
230
1
40
0.94066
41
-1.61633154987516
42
-1.5238061795308
0
ELLIPSE
5
1F2
100
AcDbEntity
8
1
62
256
6
ByLayer
370
13
48
1
60
0
100
AcDbEllipse
10
48.889044
20
12.891632
30
0
11
-0.265987537766487
21
-0.138746638708552
31
0
210
0
220
0
230
1
40
0.561971
41
0.91309425853559
42
1.62125302498982
0
ELLIPSE
5
1F3
100
AcDbEntity
8
1
62
256
6
ByLayer
370
13
48
1
60
0
100
AcDbEllipse
10
45.274892
20
16.16455
30
0
11
0.431694099092589
21
0.666569088607082
31
0
210
0
220
0
230
-1
40
0.359878
41
3.04760145096353
42
-2.27280579480114
0
ELLIPSE
5
1F4
100
AcDbEntity
8
1
62
256
6
ByLayer
370
13
48
1
60
0
100
AcDbEllipse
10
47.743256
20
16.448538
30
0
11
0.00519550953081963
21
-0.299955007760689
31
0
210
0
220
0
230
1
40
0.003698
41
-1.71037401282174
42
-0.877205604763296
0
ELLIPSE
5
1F5
100
AcDbEntity
8
1
62
256
6
ByLayer
370
18
48
1
60
0
100
AcDbEllipse
10
47.997199
20
16.244374
30
0
11
-0.293666929071321
21
-0.744150344197878
31
0
210
0
220
0
230
1
40
0.197953
41
0.858258729588512
42
1.04601267774613
0
ELLIPSE
5
1F6
100
AcDbEntity
8
1
62
256
6
ByLayer
370
13
48
1
60
0
100
AcDbEllipse
10
48.159055
20
16.432741
30
0
11
-0.0203602202595575
21
-0.29930830498164
31
0
210
0
220
0
230
1
40
0.015643
41
-1.70954917927934
42
-0.896061835502961
0
ELLIPSE
5
1F7
100
AcDbEntity
8
1
62
256
6
ByLayer
370
13
48
1
60
0
100
AcDbEllipse
10
43.341414
20
14.179799
30
0
11
-0.293215819714027
21
-0.225664536579037
31
0
210
0
220
0
230
1
40
0.87955
41
1.33567935559295
42
2.34013872623981
0
ELLIPSE
5
1F8
100
AcDbEntity
8
1
62
256
6
ByLayer
370
13
48
1
60
0
100
AcDbEllipse
10
45.020095
20
12.139104
30
0
11
0.229813332935698
21
0.192836282905957
31
0
210
0
220
0
230
1
40
0.540716
41
1.14485749595464
42
2.14322507477222
0
ELLIPSE
5
1F9
100
AcDbEntity
8
1
62
256
6
ByLayer
370
18
48
1
60
0
100
AcDbEllipse
10
47.997199
20
11.755626
30
0
11
0.29366692907132
21
-0.744150344197879
31
0
210
0
220
0
230
1
40
0.197953
41
2.09557997584369
42
2.28333392400129
0
ELLIPSE
5
1FA
100
AcDbEntity
8
1
62
256
6
ByLayer
370
13
48
1
60
0
100
AcDbEllipse
10
45.964702
20
12.581212
30
0
11
-0.0529878747025649
21
-0.244320046526079
31
0
210
0
220
0
230
1
40
0.175101
41
0.891579837123416
42
2.5101211293769
0
ELLIPSE
5
1FB
100
AcDbEntity
8
1
62
256
6
ByLayer
370
13
48
1
60
0
100
AcDbEllipse
10
40.209709
20
14.409102
30
0
11
4.13619299732686
21
-0.172201992130092
31
0
210
0
220
0
230
-1
40
0.8213
41
-0.131063315726083
42
0.135992797525002
0
ELLIPSE
5
1FC
100
AcDbEntity
8
1
62
256
6
ByLayer
370
13
48
1
60
0
100
AcDbEllipse
10
45.51507
20
12.921828
30
0
11
-5.10800157593606E-17
21
0.834227514824237
31
0
210
0
220
0
230
-1
40
0.8391
41
3.14159265358979
42
-2.35619449019648
0
ELLIPSE
5
1FD
100
AcDbEntity
8
1
62
256
6
ByLayer
370
18
48
1
60
0
100
AcDbEllipse
10
48.069654
20
12.308541
30
0
11
0.00534900856196139
21
0.249942769664185
31
0
210
0
220
0
230
1
40
0.022232
41
-2.57649392215469
42
-2.0842728705972
0
ELLIPSE
5
1FE
100
AcDbEntity
8
1
62
256
6
ByLayer
370
13
48
1
60
0
100
AcDbEllipse
10
47.001821
20
11.646682
30
0
11
0.0500443814824838
21
0.295796483890589
31
0
210
0
220
0
230
1
40
0.017375
41
-1.7093442645434
42
-0.869658159300453
0
ELLIPSE
5
1FF
100
AcDbEntity
8
1
62
256
6
ByLayer
370
13
48
1
60
0
100
AcDbEllipse
10
43.454525
20
11.928366
30
0
11
0.00802409410540573
21
0.0996775496979515
31
0
210
0
220
0
230
1
40
0.353057
41
1.24757475703147
42
1.5992099818703
0
ELLIPSE
5
200
100
AcDbEntity
8
1
62
256
6
ByLayer
370
18
48
1
60
0
100
AcDbEllipse
10
47.971835
20
11.896897
30
0
11
0.00499237806305987
21
-0.234946964571317
31
0
210
0
220
0
230
1
40
0.033136
41
0.883362979817274
42
2.59377554924666
0
ELLIPSE
5
201
100
AcDbEntity
8
1
62
256
6
ByLayer
370
13
48
1
60
0
100
AcDbEllipse
10
46.233577
20
15.536841
30
0
11
-0.15579645576452
21
0.195518450206659
31
0
210
0
220
0
230
1
40
0.413181
41
-2.61062962229921
42
-1.00012232647612
0
ELLIPSE
5
202
100
AcDbEntity
8
1
62
256
6
ByLayer
370
13
48
1
60
0
100
AcDbEllipse
10
48.551504
20
16.528227
30
0
11
0.117276566594162
21
-0.27612715717199
31
0
210
0
220
0
230
1
40
0.049186
41
0.924422877111009
42
1.70151777506399
0
ELLIPSE
5
203
100
AcDbEntity
8
1
62
256
6
ByLayer
370
13
48
1
60
0
100
AcDbEllipse
10
48.341992
20
16.444973
30
0
11
0.104331967261701
21
-0.281273604533563
31
0
210
0
220
0
230
1
40
0.043042
41
0.918316256070917
42
1.70365962724734
0
ELLIPSE
5
204
100
AcDbEntity
8
1
62
256
6
ByLayer
370
13
48
1
60
0
100
AcDbEllipse
10
43.658649
20
16.604632
30
0
11
-0.00066712643554633
21
0.0999977746868349
31
0
210
0
220
0
230
1
40
0.35701
41
1.56841457052507
42
1.88918563151294
0
ELLIPSE
5
205
100
AcDbEntity
8
1
62
256
6
ByLayer
370
13
48
1
60
0
100
AcDbEllipse
10
48.363139
20
11.547129
30
0
11
0.105601103523923
21
0.280799584997075
31
0
210
0
220
0
230
1
40
0.043644
41
-1.70346389303257
42
-0.920136676456297
0
ELLIPSE
5
206
100
AcDbEntity
8
1
62
256
6
ByLayer
370
13
48
1
60
0
100
AcDbEllipse
10
48.56115
20
15.65
30
0
11
7.55834633536984E-17
21
0.266820171216205
31
0
210
0
220
0
230
1
40
0.990268
41
-1.06386039500116
42
-0.848984286902919
0
ELLIPSE
5
207
100
AcDbEntity
8
1
62
256
6
ByLayer
370
13
48
1
60
0
100
AcDbEllipse
10
48.288275
20
16.431003
30
0
11
0.0459291010665722
21
-0.296463349632322
31
0
210
0
220
0
230
1
40
0.015436
41
0.913303379115382
42
1.70957224955119
0
ELLIPSE
5
208
100
AcDbEntity
8
1
62
256
6
ByLayer
370
13
48
1
60
0
100
AcDbEllipse
10
48.761033
20
15.913164
30
0
11
0.0199739336471672
21
-0.249200806528909
31
0
210
0
220
0
230
1
40
0.228669
41
-2.27993774756006
42
-1.22946791584192
0
ELLIPSE
5
209
100
AcDbEntity
8
1
62
256
6
ByLayer
370
18
48
1
60
0
100
AcDbEllipse
10
43.497456
20
16.694546
30
0
11
0.369999999994504
21
3.7393645037492E-16
31
0
210
0
220
0
230
-1
40
0.017455
41
0.345852093446762
42
1.20572396885937
0
ELLIPSE
5
20A
100
AcDbEntity
8
1
62
256
6
ByLayer
370
13
48
1
60
0
100
AcDbEllipse
10
48.821337
20
15.883708
30
0
11
0.134024145956202
21
-0.268398078049584
31
0
210
0
220
0
230
1
40
0.124754
41
2.31208130153941
42
2.34557332355452
0
ELLIPSE
5
20B
100
AcDbEntity
8
1
62
256
6
ByLayer
370
13
48
1
60
0
100
AcDbEllipse
10
47.756915
20
12.31579
30
0
11
0.0127056614243677
21
0.249676923578791
31
0
210
0
220
0
230
1
40
0.051215
41
-2.62726055991893
42
-2.20024092658922
0
ELLIPSE
5
20C
100
AcDbEntity
8
1
62
256
6
ByLayer
370
13
48
1
60
0
100
AcDbEllipse
10
48.748586
20
16.261301
30
0
11
0.0899306066058396
21
-0.217111690140134
31
0
210
0
220
0
230
1
40
0.065482
41
-2.21844607194287
42
-0.798741420853167
0
ELLIPSE
5
20D
100
AcDbEntity
8
1
62
256
6
ByLayer
370
13
48
1
60
0
100
AcDbEllipse
10
43.349559
20
14.366357
30
0
11
-0.272432084697611
21
0.250361257440751
31
0
210
0
220
0
230
1
40
0.87955
41
-2.34013872624607
42
-1.33124884256842
0
ELLIPSE
5
20E
100
AcDbEntity
8
1
62
256
6
ByLayer
370
13
48
1
60
0
100
AcDbEllipse
10
48.807457
20
12.084109
30
0
11
-0.00968368446710927
21
-0.249812382109337
31
0
210
0
220
0
230
1
40
0.280676
41
-1.92258177953871
42
-0.830647242165005
0
ELLIPSE
5
20F
100
AcDbEntity
8
1
62
256
6
ByLayer
370
13
48
1
60
0
100
AcDbEllipse
10
48.81037
20
15.915968
30
0
11
0.00345677215695889
21
-0.249976100310119
31
0
210
0
220
0
230
1
40
0.276293
41
-2.27599777500424
42
-1.21207107964995
0
ELLIPSE
5
210
100
AcDbEntity
8
1
62
256
6
ByLayer
370
13
48
1
60
0
100
AcDbEllipse
10
43.405793
20
13.919975
30
0
11
-0.369650414171165
21
0.0160801524584188
31
0
210
0
220
0
230
1
40
0.365917
41
1.8973417580028
42
2.76877998113437
0
ELLIPSE
5
211
100
AcDbEntity
8
1
62
256
6
ByLayer
370
13
48
1
60
0
100
AcDbEllipse
10
45.742363
20
21.861412
30
0
11
0.356160512939276
21
-5.9442098072947
31
0
210
0
220
0
230
-1
40
0.671719
41
0.0235325537928627
42
0.0384545783592249
0
ELLIPSE
5
212
100
AcDbEntity
8
1
62
256
6
ByLayer
370
13
48
1
60
0
100
AcDbEllipse
10
44.501492
20
12.167263
30
0
11
-0.399982037282918
21
0.0037907586320912
31
0
210
0
220
0
230
1
40
0.009476
41
-2.35614958440746
42
-1.23767529981778
0
ELLIPSE
5
213
100
AcDbEntity
8
1
62
256
6
ByLayer
370
13
48
1
60
0
100
AcDbEllipse
10
46.388696
20
16.182592
30
0
11
0.0949951279488609
21
-0.284562691978375
31
0
210
0
220
0
230
1
40
0.112135
41
-1.64906504570474
42
-0.877028623369515
0
ELLIPSE
5
214
100
AcDbEntity
8
1
62
256
6
ByLayer
370
13
48
1
60
0
100
AcDbEllipse
10
45.51507
20
12.728992
30
0
11
1.00000000000327
21
1.01063905508567E-15
31
0
210
0
220
0
230
-1
40
0.834228
41
1.5707963267949
42
2.35619449018988
0
ELLIPSE
5
215
100
AcDbEntity
8
1
62
256
6
ByLayer
370
13
48
1
60
0
100
AcDbEllipse
10
44.024396
20
11.889931
30
0
11
0.398035563763201
21
-0.050850407134259
31
0
210
0
220
0
230
-1
40
0.031059
41
1.9015490863462
42
2.79538543510196
0
ELLIPSE
5
216
100
AcDbEntity
8
1
62
256
6
ByLayer
370
13
48
1
60
0
100
AcDbEllipse
10
48.735644
20
16.25594
30
0
11
0.0899306066058396
21
-0.217111690140134
31
0
210
0
220
0
230
1
40
0.063088
41
-2.21788631394246
42
-0.796581610680354
0
ELLIPSE
5
217
100
AcDbEntity
8
1
62
256
6
ByLayer
370
13
48
1
60
0
100
AcDbEllipse
10
48.844767
20
12.104651
30
0
11
0.132947745885428
21
0.268932885426799
31
0
210
0
220
0
230
1
40
0.124999
41
-2.34107127194163
42
-1.88010686407259
0
ELLIPSE
5
218
100
AcDbEntity
8
1
62
256
6
ByLayer
370
13
48
1
60
0
100
AcDbEllipse
10
48.7227
20
16.250579
30
0
11
0.0899306066058396
21
-0.217111690140134
31
0
210
0
220
0
230
1
40
0.060694
41
-2.21740870959805
42
-0.794345784831652
0
ELLIPSE
5
219
100
AcDbEntity
8
1
62
256
6
ByLayer
370
13
48
1
60
0
100
AcDbEllipse
10
48.530745
20
11.480532
30
0
11
0.115978334944673
21
0.276674946143414
31
0
210
0
220
0
230
1
40
0.04857
41
-1.70174734995707
42
-0.925027091314507
0
ELLIPSE
5
21A
100
AcDbEntity
8
1
62
256
6
ByLayer
370
13
48
1
60
0
100
AcDbEllipse
10
48.51708
20
11.834592
30
0
11
-0.0899306066058353
21
-0.217111690140136
31
0
210
0
220
0
230
1
40
0.022682
41
-2.22149832604303
42
-0.920738953920216
0
ELLIPSE
5
21B
100
AcDbEntity
8
1
62
256
6
ByLayer
370
18
48
1
60
0
100
AcDbEllipse
10
48.09252
20
16.436969
30
0
11
-0.0177069718269865
21
-0.299476982669317
31
0
210
0
220
0
230
1
40
0.014405
41
-1.70968232676496
42
-0.889793555207067
0
POINT
5
6C
100
AcDbEntity
8
80
62
256
6
ByLayer
370
18
48
1
60
0
100
AcDbPoint
10
0
20
0
30
0
39
0
210
0
220
0
230
1
50
360
0
POINT
5
6E
100
AcDbEntity
8
81
62
256
6
ByLayer
370
18
48
1
60
0
100
AcDbPoint
10
49.6
20
17
30
0
39
0
210
0
220
0
230
1
50
360
0
SPLINE
5
21C
100
AcDbEntity
8
1
62
256
6
ByLayer
370
18
48
1
60
0
100
AcDbSpline
70
4
71
3
72
10
73
6
40
0
40
0
40
0
40
0
40
0.5
40
0.5
40
1
40
1
40
1
40
1
41
1
10
41.9092273574365
20
18.8996084435392
30
0
41
1
10
43.9754828927665
20
18.7498628207669
30
0
41
1
10
45.7686388033565
20
18.4504626425812
30
0
41
1
10
48.3023521811795
20
17.7921047784003
30
0
41
1
10
49.0000000000109
20
17.4509370092363
30
0
41
1
10
49
20
17.1945109196241
30
0
0
SPLINE
5
21D
100
AcDbEntity
8
1
62
256
6
ByLayer
370
18
48
1
60
0
100
AcDbSpline
70
4
71
3
72
8
73
4
40
0
40
0
40
0
40
0
40
1
40
1
40
1
40
1
41
1
10
33.857651225586
20
16.9921185159121
30
0
41
1
10
32.9247157774759
20
17.0678427647281
30
0
41
1
10
31.8716633599696
20
17.1361870656475
30
0
41
1
10
30.7254832393858
20
17.1834789601687
30
0
0
SPLINE
5
21E
100
AcDbEntity
8
1
62
256
6
ByLayer
370
18
48
1
60
0
100
AcDbSpline
70
4
71
3
72
14
73
10
40
0
40
0
40
0
40
0
40
0.276183805765684
40
0.276183805765684
40
0.552435252260723
40
0.552435252260723
40
0.827714427890714
40
0.827714427890714
40
1
40
1
40
1
40
1
41
1
10
40.7405186703288
20
16.9655538586969
30
0
41
1
10
40.6800590252641
20
16.9812252416697
30
0
41
1
10
40.5897758337917
20
16.9966711776992
30
0
41
1
10
40.3642026017297
20
17.0240742747475
30
0
41
1
10
40.2257738356927
20
17.0363953531799
30
0
41
1
10
39.9211031167664
20
17.0556148847921
30
0
41
1
10
39.7507520797528
20
17.0627846898188
30
0
41
1
10
39.4661523279043
20
17.0692400726452
30
0
41
1
10
39.3528411976466
20
17.0705167606797
30
0
41
1
10
39.2401608863937
20
17.0705167606797
30
0
0
SPLINE
5
21F
100
AcDbEntity
8
1
62
256
6
ByLayer
370
18
48
1
60
0
100
AcDbSpline
70
4
71
3
72
10
73
6
40
0
40
0
40
0
40
0
40
0.5
40
0.5
40
1
40
1
40
1
40
1
41
1
10
29.9908664339033
20
11.3522012966767
30
0
41
1
10
30.0576477711853
20
11.365996309789
30
0
41
1
10
29.4463139905699
20
11.4565630207649
30
0
41
1
10
27.3371166707043
20
11.6210226223166
30
0
41
1
10
25.8557250401163
20
11.6739539937117
30
0
41
1
10
24.4794752990154
20
11.6413172938747
30
0
0
SPLINE
5
220
100
AcDbEntity
8
1
62
256
6
ByLayer
370
18
48
1
60
0
100
AcDbSpline
70
4
71
3
72
20
73
16
40
0
40
0
40
0
40
0
40
0.163476191314237
40
0.163476191314237
40
0.326899314888061
40
0.326899314888061
40
0.491103682440897
40
0.491103682440897
40
0.656104552764632
40
0.656104552764632
40
0.821161728197717
40
0.821161728197717
40
0.985572172153039
40
0.985572172153039
40
1
40
1
40
1
40
1
41
1
10
38.439398738263
20
17.0705167606797
30
0
41
1
10
38.2601561513717
20
17.0705167606797
30
0
41
1
10
38.0784488301561
20
17.0672227891956
30
0
41
1
10
37.7402754130716
20
17.0548172764996
30
0
41
1
10
37.5791470797784
20
17.0455474359017
30
0
41
1
10
37.2983695684398
20
17.0228412499456
30
0
41
1
10
37.1750527868798
20
17.0090868127101
30
0
41
1
10
36.9828932738398
20
16.9795823287276
30
0
41
1
10
36.9116608885269
20
16.9634270988734
30
0
41
1
10
36.8312441550324
20
16.9314473160723
30
0
41
1
10
36.8209774465827
20
16.9151852008623
30
0
41
1
10
36.8622789986426
20
16.8849555647706
30
0
41
1
10
36.9141929024883
20
16.8705574252678
30
0
41
1
10
37.0002260638229
20
16.856778528731
30
0
41
1
10
37.0074609951602
20
16.8556663417758
30
0
41
1
10
37.0149081511647
20
16.8545665286781
30
0
0
SPLINE
5
221
100
AcDbEntity
8
1
62
256
6
ByLayer
370
18
48
1
60
0
100
AcDbSpline
70
4
71
3
72
8
73
4
40
0
40
0
40
0
40
0
40
1
40
1
40
1
40
1
41
1
10
30.4103925750222
20
11.3520097740281
30
0
41
1
10
30.4036745014288
20
11.3506837703693
30
0
41
1
10
30.4071971456213
20
11.3500383152933
30
0
41
1
10
30.4207011861415
20
11.3500366876237
30
0
0
SPLINE
5
222
100
AcDbEntity
8
1
62
256
6
ByLayer
370
18
48
1
60
0
100
AcDbSpline
70
4
71
3
72
14
73
10
40
0
40
0
40
0
40
0
40
0.242512204505836
40
0.242512204505836
40
0.484959181031852
40
0.484959181031852
40
0.728392238282895
40
0.728392238282895
40
1
40
1
40
1
40
1
41
1
10
24.4794752990154
20
11.6413172938747
30
0
41
1
10
24.468546584978
20
11.6410581278607
30
0
41
1
10
24.4578655727349
20
11.6405818880615
30
0
41
1
10
24.438768555295
20
11.6392788686722
30
0
41
1
10
24.4300891545367
20
11.6384344545975
30
0
41
1
10
24.4158489846983
20
11.6365003372105
30
0
41
1
10
24.4101050254048
20
11.6353832865689
30
0
41
1
10
24.401885414928
20
11.6329091660869
30
0
41
1
10
24.3997235457702
20
11.6314973476519
30
0
41
1
10
24.3999393388309
20
11.6301184911828
30
0
0
SPLINE
5
223
100
AcDbEntity
8
1
62
256
6
ByLayer
370
18
48
1
60
0
100
AcDbSpline
70
4
71
3
72
16
73
12
40
0
40
0
40
0
40
0
40
0.197880718369401
40
0.197880718369401
40
0.42056587596766
40
0.42056587596766
40
0.64045292340594
40
0.64045292340594
40
0.854934687547932
40
0.854934687547932
40
1
40
1
40
1
40
1
41
1
10
16
20
10.9236554145189
30
0
41
1
10
16
20
11.0909124602262
30
0
41
1
10
16.025471441247
20
11.2600129684243
30
0
41
1
10
16.1304226758234
20
11.5995405895441
30
0
41
1
10
16.2179454577235
20
11.7722372361287
30
0
41
1
10
16.4417466258576
20
12.0717058663172
30
0
41
1
10
16.5806310738121
20
12.2032392381022
30
0
41
1
10
16.8869927736069
20
12.4052124695234
30
0
41
1
10
17.0580401008701
20
12.4798613020273
30
0
41
1
10
17.3535681424916
20
12.5511603170104
30
0
41
1
10
17.4772057380185
20
12.5658967643096
30
0
41
1
10
17.6000000000012
20
12.5658967643095
30
0
0
SPLINE
5
224
100
AcDbEntity
8
1
62
256
6
ByLayer
370
18
48
1
60
0
100
AcDbSpline
70
4
71
3
72
8
73
4
40
0
40
0
40
0
40
0
40
1
40
1
40
1
40
1
41
1
10
27.4297751287207
20
16.6869355890797
30
0
41
1
10
28.5389642916497
20
16.9349555822166
30
0
41
1
10
29.6476594913343
20
17.2279504407764
30
0
41
1
10
30.7254832393858
20
17.1834789601687
30
0
0
SPLINE
5
225
100
AcDbEntity
8
1
62
256
6
ByLayer
370
18
48
1
60
0
100
AcDbSpline
70
4
71
3
72
8
73
4
40
0
40
0
40
0
40
0
40
1
40
1
40
1
40
1
41
1
10
20.2081798310854
20
21.04847438842
30
0
41
1
10
21.2618129417845
20
20.7467103742448
30
0
41
1
10
22.4854154634752
20
20.5349096823227
30
0
41
1
10
23.8324931802854
20
20.4075162588719
30
0
0
SPLINE
5
226
100
AcDbEntity
8
1
62
256
6
ByLayer
370
18
48
1
60
0
100
AcDbSpline
70
4
71
3
72
8
73
4
40
0
40
0
40
0
40
0
40
1
40
1
40
1
40
1
41
1
10
37.0149081511647
20
16.8545665286781
30
0
41
1
10
37.0014455649485
20
16.8467843262603
30
0
41
1
10
36.9957805370195
20
16.839077283562
30
0
41
1
10
36.9980341508894
20
16.8315893444776
30
0
0
SPLINE
5
227
100
AcDbEntity
8
1
62
256
6
ByLayer
370
18
48
1
60
0
100
AcDbSpline
70
4
71
3
72
10
73
6
40
0
40
0
40
0
40
0
40
0.443615469563205
40
0.443615469563205
40
1
40
1
40
1
40
1
41
1
10
30.3647546229438
20
11.3678621887587
30
0
41
1
10
30.2955192575285
20
11.3640891369924
30
0
41
1
10
30.2352037236664
20
11.3607781804819
30
0
41
1
10
30.1215357283228
20
11.3547551015646
30
0
41
1
10
30.0729925895448
20
11.3523809721039
30
0
41
1
10
30.0398278197158
20
11.3511074445193
30
0
0
SPLINE
5
228
100
AcDbEntity
8
1
62
256
6
ByLayer
370
18
48
1
60
0
100
AcDbSpline
70
4
71
3
72
10
73
6
40
0
40
0
40
0
40
0
40
0.606586082178549
40
0.606586082178549
40
1
40
1
40
1
40
1
41
1
10
29.9992871128288
20
11.3500256896432
30
0
41
1
10
29.9915698101188
20
11.350010894863
30
0
41
1
10
29.9874641277995
20
11.3502639967532
30
0
41
1
10
29.9867688324708
20
11.35115017308
30
0
41
1
10
29.9880436623851
20
11.351618197091
30
0
41
1
10
29.9908664339033
20
11.3522012966767
30
0
0
SPLINE
5
229
100
AcDbEntity
8
1
62
256
6
ByLayer
370
18
48
1
60
0
100
AcDbSpline
70
4
71
3
72
10
73
6
40
0
40
0
40
0
40
0
40
0.5
40
0.5
40
1
40
1
40
1
40
1
41
1
10
23.8768666302454
20
11.6732578218169
30
0
41
1
10
25.4223644334736
20
11.7330835293519
30
0
41
1
10
27.1694746205948
20
11.6863532189245
30
0
41
1
10
29.7327195517929
20
11.4863434097038
30
0
41
1
10
30.4875822108008
20
11.3672453528054
30
0
41
1
10
30.4103925750221
20
11.3520097740281
30
0
0
SPLINE
5
22A
100
AcDbEntity
8
1
62
256
6
ByLayer
370
18
48
1
60
0
100
AcDbSpline
70
4
71
3
72
8
73
4
40
0
40
0
40
0
40
0
40
1
40
1
40
1
40
1
41
1
10
33.857651225586
20
12.0791067381274
30
0
41
1
10
32.0630891326418
20
12.351510761459
30
0
41
1
10
29.7892074667936
20
12.5658967643095
30
0
41
1
10
27.4297751287207
20
12.5658967643095
30
0
0
SPLINE
5
22B
100
AcDbEntity
8
1
62
256
6
ByLayer
370
18
48
1
60
0
100
AcDbSpline
70
4
71
3
72
8
73
4
40
0
40
0
40
0
40
0
40
1
40
1
40
1
40
1
41
1
10
0.317758141296167
20
16.60635727209
30
0
41
1
10
0.276955006291615
20
16.6044881193596
30
0
41
1
10
0.212710448085517
20
16.6031019553104
30
0
41
1
10
0.129165551185167
20
16.6021480264203
30
0
0
SPLINE
5
22C
100
AcDbEntity
8
1
62
256
6
ByLayer
370
18
48
1
60
0
100
AcDbSpline
70
4
71
3
72
32
73
28
40
0
40
0
40
0
40
0
40
0.0769143823408893
40
0.0769143823408893
40
0.153843645404623
40
0.153843645404623
40
0.230540078897084
40
0.230540078897084
40
0.306814149009313
40
0.306814149009313
40
0.382726670878588
40
0.382726670878588
40
0.458463362681647
40
0.458463362681647
40
0.534262654401811
40
0.534262654401811
40
0.610342515974728
40
0.610342515974728
40
0.686830628878132
40
0.686830628878132
40
0.763705219317587
40
0.763705219317587
40
0.840772665072345
40
0.840772665072345
40
0.91771987101259
40
0.91771987101259
40
1
40
1
40
1
40
1
41
1
10
24.3999393388309
20
11.6301184911828
30
0
41
1
10
24.4007222161063
20
11.6251161273802
30
0
41
1
10
24.3937262381181
20
11.620100291323
30
0
41
1
10
24.3652924239164
20
11.6108514823797
30
0
41
1
10
24.3434556517357
20
11.6064898213844
30
0
41
1
10
24.2882000246338
20
11.5989802337395
30
0
41
1
10
24.2540473470023
20
11.5957232160326
30
0
41
1
10
24.1784791426774
20
11.5906932319471
30
0
41
1
10
24.1360571767547
20
11.5888413731248
30
0
41
1
10
24.0490050948622
20
11.5867228633557
30
0
41
1
10
24.0031849498645
20
11.5864189350035
30
0
41
1
10
23.9144741446845
20
11.5873588874152
30
0
41
1
10
23.8703568095478
20
11.5886123906212
30
0
41
1
10
23.7897470272121
20
11.592511338886
30
0
41
1
10
23.7521539709142
20
11.5952124202928
30
0
41
1
10
23.6884488287233
20
11.6017377419497
30
0
41
1
10
23.6615040120564
20
11.6056568591904
30
0
41
1
10
23.6217931248199
20
11.6142321166803
30
0
41
1
10
23.608555674728
20
11.6190109261529
30
0
41
1
10
23.5975102652919
20
11.6288022907036
30
0
41
1
10
23.599626579321
20
11.6339512359898
30
0
41
1
10
23.6188328300602
20
11.643888669217
30
0
41
1
10
23.636227063409
20
11.6488131806694
30
0
41
1
10
23.6836981631043
20
11.6576882247912
30
0
41
1
10
23.7144174959983
20
11.6617619256404
30
0
41
1
10
23.7871487292443
20
11.6686573265492
30
0
41
1
10
23.8309673603953
20
11.6714810762994
30
0
41
1
10
23.8768666302454
20
11.6732578218169
30
0
0
SPLINE
5
22D
100
AcDbEntity
8
1
62
256
6
ByLayer
370
18
48
1
60
0
100
AcDbSpline
70
4
71
3
72
8
73
4
40
0
40
0
40
0
40
0
40
1
40
1
40
1
40
1
41
1
10
0.128089001911803
20
16.6000482165646
30
0
41
1
10
0.128632803638538
20
16.59691308728
30
0
41
1
10
0.239109361711854
20
16.742368286474
30
0
41
1
10
0.317758141296196
20
17.035889527836
30
0
0
SPLINE
5
22E
100
AcDbEntity
8
1
62
256
6
ByLayer
370
13
48
1
60
0
100
AcDbSpline
70
4
71
3
72
8
73
4
40
0
40
0
40
0
40
0
40
1
40
1
40
1
40
1
41
1
10
47.6622393695503
20
12.1705886626843
30
0
41
1
10
47.6885098870252
20
12.1690749389331
30
0
41
1
10
47.7148382818733
20
12.1683415042153
30
0
41
1
10
47.7411583357063
20
12.1681767664774
30
0
0
SPLINE
5
22F
100
AcDbEntity
8
1
62
256
6
ByLayer
370
13
48
1
60
0
100
AcDbSpline
70
4
71
3
72
8
73
4
40
0
40
0
40
0
40
0
40
1
40
1
40
1
40
1
41
1
10
47.6310739318799
20
12.1100424210824
30
0
41
1
10
47.6643148627437
20
12.1044714443701
30
0
41
1
10
47.6981858751893
20
12.1005266864972
30
0
41
1
10
47.7321403749878
20
12.098913012364
30
0
0
SPLINE
5
230
100
AcDbEntity
8
1
62
256
6
ByLayer
370
13
48
1
60
0
100
AcDbSpline
70
4
71
3
72
8
73
4
40
0
40
0
40
0
40
0
40
1
40
1
40
1
40
1
41
1
10
48.8779887348261
20
12.057878064828
30
0
41
1
10
48.8642146234362
20
12.0404609700126
30
0
41
1
10
48.8501624840576
20
12.023294737205
30
0
41
1
10
48.8363185748499
20
12.0069573556162
30
0
0
SPLINE
5
231
100
AcDbEntity
8
1
62
256
6
ByLayer
370
13
48
1
60
0
100
AcDbSpline
70
4
71
3
72
8
73
4
40
0
40
0
40
0
40
0
40
1
40
1
40
1
40
1
41
1
10
48.7463045145135
20
12.1726985960205
30
0
41
1
10
48.7458597837757
20
12.1727082796995
30
0
41
1
10
48.7454153279883
20
12.1727217950978
30
0
41
1
10
48.7449712215366
20
12.1727390103643
30
0
0
SPLINE
5
232
100
AcDbEntity
8
1
62
256
6
ByLayer
370
13
48
1
60
0
100
AcDbSpline
70
4
71
3
72
8
73
4
40
0
40
0
40
0
40
0
40
1
40
1
40
1
40
1
41
1
10
48.5677966553318
20
16.3394607117258
30
0
41
1
10
48.575050017303
20
16.3424467046624
30
0
41
1
10
48.5823000018185
20
16.345439689473
30
0
41
1
10
48.5895465466143
20
16.3484396469061
30
0
0
SPLINE
5
233
100
AcDbEntity
8
1
62
256
6
ByLayer
370
18
48
1
60
0
100
AcDbSpline
70
4
71
3
72
12
73
8
40
0
40
0
40
0
40
0
40
0.517270320015135
40
0.517270320015135
40
0.9782124870939
40
0.9782124870939
40
1
40
1
40
1
40
1
41
1
10
48.2113098780286
20
12.1694687986805
30
0
41
1
10
48.2371081326211
20
12.1902918867606
30
0
41
1
10
48.2617143676401
20
12.2144366358038
30
0
41
1
10
48.3034972884388
20
12.2612224352038
30
0
41
1
10
48.321667748258
20
12.2842734243455
30
0
41
1
10
48.3382141724792
20
12.3075336717941
30
0
41
1
10
48.3389544411018
20
12.3085782669197
30
0
41
1
10
48.3396886118677
20
12.3096226734637
30
0
0
SPLINE
5
234
100
AcDbEntity
8
1
62
256
6
ByLayer
370
13
48
1
60
0
100
AcDbSpline
70
4
71
3
72
10
73
6
40
0
40
0
40
0
40
0
40
0.999833998022686
40
0.999833998022686
40
1
40
1
40
1
40
1
41
1
10
46.3494567864937
20
16.1942219608154
30
0
41
1
10
46.2383314152635
20
16.1495583015449
30
0
41
1
10
46.1204744205474
20
16.109208797227
30
0
41
1
10
46.000039984794
20
16.1058777868918
30
0
41
1
10
46.0000199923894
20
16.1058772357496
30
0
41
1
10
46
20
16.1058766840601
30
0
0
SPLINE
5
235
100
AcDbEntity
8
1
62
256
6
ByLayer
370
13
48
1
60
0
100
AcDbSpline
70
4
71
3
72
8
73
4
40
0
40
0
40
0
40
0
40
1
40
1
40
1
40
1
41
1
10
48.0780203692055
20
16.2486248494624
30
0
41
1
10
48.0995770884472
20
16.2477978002279
30
0
41
1
10
48.12113064247
20
16.2469282169488
30
0
41
1
10
48.1426803174655
20
16.2460146167598
30
0
0
SPLINE
5
236
100
AcDbEntity
8
1
62
256
6
ByLayer
370
13
48
1
60
0
100
AcDbSpline
70
4
71
3
72
8
73
4
40
0
40
0
40
0
40
0
40
1
40
1
40
1
40
1
41
1
10
47.9775484919094
20
15.8212260661807
30
0
41
1
10
47.9232142213977
20
15.8247541711203
30
0
41
1
10
47.8688285804819
20
15.8276275316025
30
0
41
1
10
47.8144285509218
20
15.830012708095
30
0
0
SPLINE
5
237
100
AcDbEntity
8
1
62
256
6
ByLayer
370
13
48
1
60
0
100
AcDbSpline
70
4
71
3
72
8
73
4
40
0
40
0
40
0
40
0
40
1
40
1
40
1
40
1
41
1
10
48.5453177155277
20
11.9754563386182
30
0
41
1
10
48.5527378070835
20
11.9728228475221
30
0
41
1
10
48.5601781291824
20
11.970247374701
30
0
41
1
10
48.5676365699848
20
11.9677294628364
30
0
0
SPLINE
5
238
100
AcDbEntity
8
1
62
256
6
ByLayer
370
13
48
1
60
0
100
AcDbSpline
70
4
71
3
72
8
73
4
40
0
40
0
40
0
40
0
40
1
40
1
40
1
40
1
41
1
10
48.8155438239195
20
11.5577823208296
30
0
41
1
10
48.7711387609178
20
11.5755094423935
30
0
41
1
10
48.726942978069
20
11.5937245916118
30
0
41
1
10
48.6829919691138
20
11.6124088645984
30
0
0
SPLINE
5
239
100
AcDbEntity
8
1
62
256
6
ByLayer
370
13
48
1
60
0
100
AcDbSpline
70
4
71
3
72
8
73
4
40
0
40
0
40
0
40
0
40
1
40
1
40
1
40
1
41
1
10
48.6704998734366
20
11.6176968337038
30
0
41
1
10
48.6663347508874
20
11.6194571720252
30
0
41
1
10
48.6621684439719
20
11.6212152294578
30
0
41
1
10
48.6580009615612
20
11.6229709953632
30
0
0
SPLINE
5
23A
100
AcDbEntity
8
1
62
256
6
ByLayer
370
13
48
1
60
0
100
AcDbSpline
70
4
71
3
72
10
73
6
40
0
40
0
40
0
40
0
40
0.594719407810382
40
0.594719407810382
40
1
40
1
40
1
40
1
41
1
10
48.2964750271792
20
15.630465060865
30
0
41
1
10
48.3042806761192
20
15.6422959997793
30
0
41
1
10
48.3125691188402
20
15.6541918907431
30
0
41
1
10
48.3272182650202
20
15.6741804106983
30
0
41
1
10
48.3333611488476
20
15.6822894637923
30
0
41
1
10
48.3396886118677
20
15.6903773265363
30
0
0
SPLINE
5
23B
100
AcDbEntity
8
1
62
256
6
ByLayer
370
13
48
1
60
0
100
AcDbSpline
70
4
71
3
72
18
73
14
40
0
40
0
40
0
40
0
40
0.144097970519697
40
0.144097970519697
40
0.181298279641965
40
0.181298279641965
40
0.255698880355791
40
0.255698880355791
40
0.404503164382776
40
0.404503164382776
40
0.702246883828609
40
0.702246883828609
40
1
40
1
40
1
40
1
41
1
10
47.2326098900027
20
11.5662439717742
30
0
41
1
10
47.2537757964872
20
11.562764029696
30
0
41
1
10
47.2749149760046
20
11.5591185483047
30
0
41
1
10
47.3015840021964
20
11.5549791496704
30
0
41
1
10
47.3070590787403
20
11.5541472901505
30
0
41
1
10
47.3234833070402
20
11.5516455790926
30
0
41
1
10
47.3344307667064
20
11.5499646782838
30
0
41
1
10
47.3672731053029
20
11.5449195018937
30
0
41
1
10
47.3891699956829
20
11.5415645945464
30
0
41
1
10
47.4549525740475
20
11.5320423299946
30
0
41
1
10
47.4989387562939
20
11.5264592477286
30
0
41
1
10
47.5871321897619
20
11.517596225756
30
0
41
1
10
47.6313570840832
20
11.5143268712034
30
0
41
1
10
47.6756163060044
20
11.5120048023438
30
0
0
SPLINE
5
23C
100
AcDbEntity
8
1
62
256
6
ByLayer
370
13
48
1
60
0
100
AcDbSpline
70
4
71
3
72
8
73
4
40
0
40
0
40
0
40
0
40
1
40
1
40
1
40
1
41
1
10
47.732135229274
20
15.9011128975109
30
0
41
1
10
47.7350099033476
20
15.8839441494067
30
0
41
1
10
47.7381088728108
20
15.8601531302342
30
0
41
1
10
47.7411606696334
20
15.8318240251058
30
0
0
SPLINE
5
23D
100
AcDbEntity
8
1
62
256
6
ByLayer
370
13
48
1
60
0
100
AcDbSpline
70
4
71
3
72
8
73
4
40
0
40
0
40
0
40
0
40
1
40
1
40
1
40
1
41
1
10
47.232591327196
20
16.4337577905912
30
0
41
1
10
47.1743875377864
20
16.4241796201597
30
0
41
1
10
47.1161694527838
20
16.4146839555242
30
0
41
1
10
47.0580099499638
20
16.4048442295488
30
0
0
SPLINE
5
23E
100
AcDbEntity
8
1
62
256
6
ByLayer
370
13
48
1
60
0
100
AcDbSpline
70
4
71
3
72
8
73
4
40
0
40
0
40
0
40
0
40
1
40
1
40
1
40
1
41
1
10
46.0327268129396
20
15.2270595496385
30
0
41
1
10
46.0370056113086
20
15.2278882144754
30
0
41
1
10
46.041285724127
20
15.2287181249514
30
0
41
1
10
46.0455671218847
20
15.2295492615224
30
0
0
SPLINE
5
23F
100
AcDbEntity
8
1
62
256
6
ByLayer
370
18
48
1
60
0
100
AcDbSpline
70
4
71
3
72
8
73
4
40
0
40
0
40
0
40
0
40
1
40
1
40
1
40
1
41
1
10
48.2113098780317
20
15.8305312013165
30
0
41
1
10
48.1869472527842
20
15.8243851398212
30
0
41
1
10
48.1624739522681
20
15.8181954643364
30
0
41
1
10
48.1387687836019
20
15.8099738368588
30
0
0
SPLINE
5
240
100
AcDbEntity
8
1
62
256
6
ByLayer
370
13
48
1
60
0
100
AcDbSpline
70
4
71
3
72
8
73
4
40
0
40
0
40
0
40
0
40
1
40
1
40
1
40
1
41
1
10
48.3401710352723
20
16.4866852326696
30
0
41
1
10
48.322832963943
20
16.48025407432
30
0
41
1
10
48.3047424676917
20
16.4755482978323
30
0
41
1
10
48.2864533085229
20
16.472714879668
30
0
0
SPLINE
5
241
100
AcDbEntity
8
1
62
256
6
ByLayer
370
13
48
1
60
0
100
AcDbSpline
70
4
71
3
72
8
73
4
40
0
40
0
40
0
40
0
40
1
40
1
40
1
40
1
41
1
10
48.7555363061484
20
16.077272412318
30
0
41
1
10
48.7680894292275
20
16.0670122484862
30
0
41
1
10
48.7807768973381
20
16.0550973988538
30
0
41
1
10
48.7932468780271
20
16.0418774739994
30
0
0
SPLINE
5
242
100
AcDbEntity
8
1
62
256
6
ByLayer
370
13
48
1
60
0
100
AcDbSpline
70
4
71
3
72
8
73
4
40
0
40
0
40
0
40
0
40
1
40
1
40
1
40
1
41
1
10
48.4454668759649
20
16.5271143936838
30
0
41
1
10
48.4384829856112
20
16.5243398163158
30
0
41
1
10
48.4314924969491
20
16.5215815012338
30
0
41
1
10
48.4244955588817
20
16.5188394109615
30
0
0
SPLINE
5
243
100
AcDbEntity
8
1
62
256
6
ByLayer
370
13
48
1
60
0
100
AcDbSpline
70
4
71
3
72
8
73
4
40
0
40
0
40
0
40
0
40
1
40
1
40
1
40
1
41
1
10
48.4034802160155
20
11.4893403130102
30
0
41
1
10
48.4104917166476
20
11.4866299145779
30
0
41
1
10
48.4174968830692
20
11.4839033603307
30
0
41
1
10
48.4244955588815
20
11.4811605890386
30
0
0
SPLINE
5
244
100
AcDbEntity
8
1
62
256
6
ByLayer
370
13
48
1
60
0
100
AcDbSpline
70
4
71
3
72
8
73
4
40
0
40
0
40
0
40
0
40
1
40
1
40
1
40
1
41
1
10
48.157234133639
20
11.5255469925572
30
0
41
1
10
48.1824526033639
20
11.5272624598185
30
0
41
1
10
48.2076870341286
20
11.5287648442426
30
0
41
1
10
48.2329322187786
20
11.5300451480104
30
0
0
SPLINE
5
245
100
AcDbEntity
8
1
62
256
6
ByLayer
370
13
48
1
60
0
100
AcDbSpline
70
4
71
3
72
10
73
6
40
0
40
0
40
0
40
0
40
0.977341738729293
40
0.977341738729293
40
1
40
1
40
1
40
1
41
1
10
46.4327828618976
20
12.1390149572835
30
0
41
1
10
46.626805832268
20
12.0115264832669
30
0
41
1
10
46.8480045111205
20
11.9049777280841
30
0
41
1
10
47.0851102388762
20
11.8303963434008
30
0
41
1
10
47.0905722459195
20
11.8286983351648
30
0
41
1
10
47.0960412522594
20
11.8270182564197
30
0
0
SPLINE
5
246
100
AcDbEntity
8
1
62
256
6
ByLayer
370
13
48
1
60
0
100
AcDbSpline
70
4
71
3
72
8
73
4
40
0
40
0
40
0
40
0
40
1
40
1
40
1
40
1
41
1
10
48.135090627208
20
15.8086910031252
30
0
41
1
10
48.1262650834517
20
15.7963374684935
30
0
41
1
10
48.1180112341903
20
15.7838751160708
30
0
41
1
10
48.1104320378386
20
15.7713871839676
30
0
0
SPLINE
5
247
100
AcDbEntity
8
1
62
256
6
ByLayer
370
13
48
1
60
0
100
AcDbSpline
70
4
71
3
72
8
73
4
40
0
40
0
40
0
40
0
40
1
40
1
40
1
40
1
41
1
10
48.8363185748554
20
12.0069573556249
30
0
41
1
10
48.8241734988697
20
11.9926247850048
30
0
41
1
10
48.8120745424288
20
11.9787938220251
30
0
41
1
10
48.8003567929702
20
11.9658253328813
30
0
0
SPLINE
5
248
100
AcDbEntity
8
1
62
256
6
ByLayer
370
13
48
1
60
0
100
AcDbSpline
70
4
71
3
72
8
73
4
40
0
40
0
40
0
40
0
40
1
40
1
40
1
40
1
41
1
10
48.60618321608
20
12.1936034891711
30
0
41
1
10
48.601310757391
20
12.1950184922999
30
0
41
1
10
48.5964572596188
20
12.1965148533574
30
0
41
1
10
48.5916290701336
20
12.1980928934472
30
0
0
SPLINE
5
249
100
AcDbEntity
8
1
62
256
6
ByLayer
370
13
48
1
60
0
100
AcDbSpline
70
4
71
3
72
8
73
4
40
0
40
0
40
0
40
0
40
1
40
1
40
1
40
1
41
1
10
48.0173790825026
20
12.3329304553052
30
0
41
1
10
48.0051147023054
20
12.3260689396574
30
0
41
1
10
47.9926091789433
20
12.3195389157524
30
0
41
1
10
47.9798988508423
20
12.3133545629005
30
0
0
SPLINE
5
24A
100
AcDbEntity
8
1
62
256
6
ByLayer
370
13
48
1
60
0
100
AcDbSpline
70
4
71
3
72
10
73
6
40
0
40
0
40
0
40
0
40
0.562168143309875
40
0.562168143309875
40
1
40
1
40
1
40
1
41
1
10
45.9928470379229
20
12.4140671134632
30
0
41
1
10
46.0405061504995
20
12.4030912223919
30
0
41
1
10
46.0865084278264
20
12.38583954186
30
0
41
1
10
46.1603923985102
20
12.3464792601791
30
0
41
1
10
46.1905450369771
20
12.3260295191488
30
0
41
1
10
46.217398644719
20
12.3033680312619
30
0
0
SPLINE
5
24B
100
AcDbEntity
8
1
62
256
6
ByLayer
370
13
48
1
60
0
100
AcDbSpline
70
4
71
3
72
9
73
5
40
0
40
0
40
0
40
0
40
0.186136068626012
40
1
40
1
40
1
40
1
41
1
10
49.5257417215669
20
12.93090081377
30
0
41
1
10
49.5302867577796
20
12.9619814683357
30
0
41
1
10
49.5536398825763
20
13.1305890382531
30
0
41
1
10
49.5711474610575
20
13.307208238739
30
0
41
1
10
49.5813002257187
20
13.4539176054528
30
0
0
SPLINE
5
24C
100
AcDbEntity
8
1
62
256
6
ByLayer
370
13
48
1
60
0
100
AcDbSpline
70
4
71
3
72
8
73
4
40
0
40
0
40
0
40
0
40
1
40
1
40
1
40
1
41
1
10
48.4149580164184
20
11.7222365189981
30
0
41
1
10
48.3844035113634
20
11.734562084079
30
0
41
1
10
48.3524003181638
20
11.743786470491
30
0
41
1
10
48.319965552646
20
11.7496150929131
30
0
0
SPLINE
5
24D
100
AcDbEntity
8
1
62
256
6
ByLayer
370
18
48
1
60
0
100
AcDbSpline
70
4
71
3
72
18
73
14
40
0
40
0
40
0
40
0
40
0.0391410449332882
40
0.0391410449332882
40
0.0910325805030337
40
0.0910325805030337
40
0.152334292849845
40
0.152334292849845
40
0.293842630846445
40
0.293842630846445
40
0.436444480738373
40
0.436444480738373
40
1
40
1
40
1
40
1
41
1
10
48.1903913856098
20
12.0980354420393
30
0
41
1
10
48.1893348670588
20
12.0985591360224
30
0
41
1
10
48.1883795657871
20
12.0991598705761
30
0
41
1
10
48.1865597340579
20
12.1006987018329
30
0
41
1
10
48.1858080943318
20
12.101703472196
30
0
41
1
10
48.1847861474796
20
12.1039853249623
30
0
41
1
10
48.1845930337916
20
12.1053022218621
30
0
41
1
10
48.1846227014504
20
12.1096683617153
30
0
41
1
10
48.185606990282
20
12.1128241826851
30
0
41
1
10
48.1879794952601
20
12.1192401847487
30
0
41
1
10
48.1894447510552
20
12.1225388204858
30
0
41
1
10
48.1970850046236
20
12.1391139375039
30
0
41
1
10
48.2044138361007
20
12.1536975977632
30
0
41
1
10
48.2113098780262
20
12.1694687986811
30
0
0
SPLINE
5
24E
100
AcDbEntity
8
1
62
256
6
ByLayer
370
13
48
1
60
0
100
AcDbSpline
70
4
71
3
72
12
73
8
40
0
40
0
40
0
40
0
40
0.242775972404
40
0.242775972404
40
0.616819959521322
40
0.616819959521322
40
1
40
1
40
1
40
1
41
1
10
43.4283576460834
20
11.9622708258449
30
0
41
1
10
43.4529464685307
20
11.9605710846742
30
0
41
1
10
43.4766389381339
20
11.9591333886297
30
0
41
1
10
43.5321861671557
20
11.9557502033892
30
0
41
1
10
43.5624114014209
20
11.9539714415064
30
0
41
1
10
43.612000113712
20
11.9482827795966
30
0
41
1
10
43.6318163822645
20
11.944537202211
30
0
41
1
10
43.6447018349482
20
11.9351720096907
30
0
0
SPLINE
5
24F
100
AcDbEntity
8
1
62
256
6
ByLayer
370
13
48
1
60
0
100
AcDbSpline
70
4
71
3
72
8
73
4
40
0
40
0
40
0
40
0
40
1
40
1
40
1
40
1
41
1
10
48.4034802160183
20
16.510659686991
30
0
41
1
10
48.396466928288
20
16.5079485977298
30
0
41
1
10
48.3894472657437
20
16.5052536564796
30
0
41
1
10
48.3824213915826
20
16.5025747784914
30
0
0
SPLINE
5
250
100
AcDbEntity
8
1
62
256
6
ByLayer
370
13
48
1
60
0
100
AcDbSpline
70
4
71
3
72
8
73
4
40
0
40
0
40
0
40
0
40
1
40
1
40
1
40
1
41
1
10
48.8779887348261
20
15.9421219351721
30
0
41
1
10
48.8642146234362
20
15.9595390299874
30
0
41
1
10
48.8501624840576
20
15.9767052627951
30
0
41
1
10
48.8363185748499
20
15.9930426443839
30
0
0
SPLINE
5
251
100
AcDbEntity
8
1
62
256
6
ByLayer
370
13
48
1
60
0
100
AcDbSpline
70
4
71
3
72
8
73
4
40
0
40
0
40
0
40
0
40
1
40
1
40
1
40
1
41
1
10
48.7932468780101
20
16.0418774740018
30
0
41
1
10
48.7956228027206
20
16.0393586638605
30
0
41
1
10
48.7979936105664
20
16.0367900930123
30
0
41
1
10
48.8003567929701
20
16.0341746671188
30
0
0
SPLINE
5
252
100
AcDbEntity
8
1
62
256
6
ByLayer
370
13
48
1
60
0
100
AcDbSpline
70
4
71
3
72
8
73
4
40
0
40
0
40
0
40
0
40
1
40
1
40
1
40
1
41
1
10
48.7140218791706
20
12.1745576217092
30
0
41
1
10
48.7086812682998
20
12.1749856821503
30
0
41
1
10
48.7033278986483
20
12.1754777913103
30
0
41
1
10
48.6979680340497
20
12.1760401058907
30
0
0
SPLINE
5
253
100
AcDbEntity
8
1
62
256
6
ByLayer
370
13
48
1
60
0
100
AcDbSpline
70
4
71
3
72
10
73
6
40
0
40
0
40
0
40
0
40
0.671649637539461
40
0.671649637539461
40
1
40
1
40
1
40
1
41
1
10
49.3354471297938
20
11.4154732548064
30
0
41
1
10
49.3250719873787
20
11.4127642834258
30
0
41
1
10
49.3142838869192
20
11.411268149696
30
0
41
1
10
49.2983205038718
20
11.4111153625498
30
0
41
1
10
49.2930492714347
20
11.411448530068
30
0
41
1
10
49.2878589937234
20
11.4121467211115
30
0
0
SPLINE
5
254
100
AcDbEntity
8
1
62
256
6
ByLayer
370
13
48
1
60
0
100
AcDbSpline
70
4
71
3
72
8
73
4
40
0
40
0
40
0
40
0
40
1
40
1
40
1
40
1
41
1
10
47.7597714746036
20
15.8317196538342
30
0
41
1
10
47.7535683222094
20
15.8317938640789
30
0
41
1
10
47.7473645928929
20
15.8318272137798
30
0
41
1
10
47.7411611560269
20
15.8318195098703
30
0
0
SPLINE
5
255
100
AcDbEntity
8
1
62
256
6
ByLayer
370
13
48
1
60
0
100
AcDbSpline
70
4
71
3
72
8
73
4
40
0
40
0
40
0
40
0
40
1
40
1
40
1
40
1
41
1
10
47.6887627978463
20
11.7605879665693
30
0
41
1
10
47.6884322213589
20
11.7554670698786
30
0
41
1
10
47.6881016448715
20
11.7503461731878
30
0
41
1
10
47.6877710683842
20
11.7452252764971
30
0
0
SPLINE
5
256
100
AcDbEntity
8
1
62
256
6
ByLayer
370
13
48
1
60
0
100
AcDbSpline
70
4
71
3
72
10
73
6
40
0
40
0
40
0
40
0
40
0.444735918194474
40
0.444735918194474
40
1
40
1
40
1
40
1
41
1
10
47.971627935454
20
15.9024516851543
30
0
41
1
10
47.9478061875936
20
15.9023931868278
30
0
41
1
10
47.9239850573845
20
15.9023379489446
30
0
41
1
10
47.8704242585479
20
15.902316473405
30
0
41
1
10
47.8406842618644
20
15.9023768671564
30
0
41
1
10
47.8109443135567
20
15.9025874534669
30
0
0
SPLINE
5
257
100
AcDbEntity
8
1
62
256
6
ByLayer
370
13
48
1
60
0
100
AcDbSpline
70
4
71
3
72
8
73
4
40
0
40
0
40
0
40
0
40
1
40
1
40
1
40
1
41
1
10
48.8011366675816
20
16.1056227437424
30
0
41
1
10
48.7969994351781
20
16.1037801503542
30
0
41
1
10
48.7928627483197
20
16.1019356024668
30
0
41
1
10
48.7887266056559
20
16.1000891272146
30
0
0
SPLINE
5
258
100
AcDbEntity
8
1
62
256
6
ByLayer
370
13
48
1
60
0
100
AcDbSpline
70
4
71
3
72
10
73
6
40
0
40
0
40
0
40
0
40
0.554437147954106
40
0.554437147954106
40
1
40
1
40
1
40
1
41
1
10
47.9716279354541
20
12.0975483147504
30
0
41
1
10
47.9894592215656
20
12.0975045269796
30
0
41
1
10
48.0072910939293
20
12.0974589381104
30
0
41
1
10
48.0394526045083
20
12.0974038141027
30
0
41
1
10
48.0537826107305
20
12.0973889419491
30
0
41
1
10
48.0681116696246
20
12.0973918224694
30
0
0
SPLINE
5
259
100
AcDbEntity
8
1
62
256
6
ByLayer
370
13
48
1
60
0
100
AcDbSpline
70
4
71
3
72
8
73
4
40
0
40
0
40
0
40
0
40
1
40
1
40
1
40
1
41
1
10
47.977548491921
20
12.1787739336502
30
0
41
1
10
48.0090112369568
20
12.1808169142391
30
0
41
1
10
48.0404608506527
20
12.1830882269076
30
0
41
1
10
48.0718661171709
20
12.1856635266569
30
0
0
SPLINE
5
25A
100
AcDbEntity
8
1
62
256
6
ByLayer
370
13
48
1
60
0
100
AcDbSpline
70
4
71
3
72
14
73
10
40
0
40
0
40
0
40
0
40
0.316230754235731
40
0.316230754235731
40
0.632807878942955
40
0.632807878942955
40
0.943049244289816
40
0.943049244289816
40
1
40
1
40
1
40
1
41
1
10
48.7881525715208
20
12.6885198730194
30
0
41
1
10
48.8086482723201
20
12.649228103206
30
0
41
1
10
48.8242076231655
20
12.6032465406041
30
0
41
1
10
48.8430946161005
20
12.5054404890389
30
0
41
1
10
48.8466715230383
20
12.4521734815577
30
0
41
1
10
48.8384095594332
20
12.3476581697447
30
0
41
1
10
48.8266652859382
20
12.2945575579311
30
0
41
1
10
48.8012241024377
20
12.2378316319543
30
0
41
1
10
48.7968616272907
20
12.2290377823038
30
0
41
1
10
48.7921436014447
20
12.2204585905525
30
0
0
SPLINE
5
25B
100
AcDbEntity
8
1
62
256
6
ByLayer
370
13
48
1
60
0
100
AcDbSpline
70
4
71
3
72
8
73
4
40
0
40
0
40
0
40
0
40
1
40
1
40
1
40
1
41
1
10
48.4872803977718
20
11.4560467738366
30
0
41
1
10
48.494234879972
20
11.4532081309338
30
0
41
1
10
48.5011826105127
20
11.4503531832592
30
0
41
1
10
48.5081234667093
20
11.4474819649863
30
0
0
SPLINE
5
25C
100
AcDbEntity
8
1
62
256
6
ByLayer
370
13
48
1
60
0
100
AcDbSpline
70
4
71
3
72
8
73
4
40
0
40
0
40
0
40
0
40
1
40
1
40
1
40
1
41
1
10
47.7457249471384
20
16.2567617560955
30
0
41
1
10
47.7702534660004
20
16.257207696405
30
0
41
1
10
47.7947963383193
20
16.2571433301456
30
0
41
1
10
47.819320778088
20
16.2565687009656
30
0
0
SPLINE
5
25D
100
AcDbEntity
8
1
62
256
6
ByLayer
370
13
48
1
60
0
100
AcDbSpline
70
4
71
3
72
20
73
16
40
0
40
0
40
0
40
0
40
0.420305174844398
40
0.420305174844398
40
0.549360329208298
40
0.549360329208298
40
0.679941947335802
40
0.679941947335802
40
0.774080647274686
40
0.774080647274686
40
0.868875554966429
40
0.868875554966429
40
0.955720119024965
40
0.955720119024965
40
1
40
1
40
1
40
1
41
1
10
49.1760620928875
20
16.0535949641658
30
0
41
1
10
49.2740549355636
20
16.1128299390673
30
0
41
1
10
49.3681803378039
20
16.1855082647223
30
0
41
1
10
49.4593532669864
20
16.3056774691516
30
0
41
1
10
49.478692586256
20
16.3365058355788
30
0
41
1
10
49.5088355420622
20
16.4021405349946
30
0
41
1
10
49.5198065499011
20
16.4377566790685
30
0
41
1
10
49.5261959242199
20
16.4999688846327
30
0
41
1
10
49.525041491203
20
16.5268931469723
30
0
41
1
10
49.5135317961734
20
16.5782108394783
30
0
41
1
10
49.5028881180044
20
16.6032498169812
30
0
41
1
10
49.4750357574554
20
16.6453476253737
30
0
41
1
10
49.4581762197097
20
16.6634214527449
30
0
41
1
10
49.4297951537144
20
16.6864119720357
30
0
41
1
10
49.4195893043163
20
16.6935454812262
30
0
41
1
10
49.4090128030806
20
16.7
30
0
0
SPLINE
5
25E
100
AcDbEntity
8
1
62
256
6
ByLayer
370
13
48
1
60
0
100
AcDbSpline
70
4
71
3
72
10
73
6
40
0
40
0
40
0
40
0
40
0.0761117852936892
40
0.0761117852936892
40
1
40
1
40
1
40
1
41
1
10
48.9065084491241
20
15.9051876743815
30
0
41
1
10
48.9057979286698
20
15.9061297406006
30
0
41
1
10
48.9050866931816
20
15.9070720022406
30
0
41
1
10
48.8957243604834
20
15.9194462364521
30
0
41
1
10
48.8868872774648
20
15.9308699051213
30
0
41
1
10
48.8779887348242
20
15.9421219351753
30
0
0
SPLINE
5
25F
100
AcDbEntity
8
1
62
256
6
ByLayer
370
13
48
1
60
0
100
AcDbSpline
70
4
71
3
72
8
73
4
40
0
40
0
40
0
40
0
40
1
40
1
40
1
40
1
41
1
10
48.7491544982117
20
11.9176424134905
30
0
41
1
10
48.7506100918294
20
11.9187707659885
30
0
41
1
10
48.7520662573624
20
11.9199216828559
30
0
41
1
10
48.7535224694942
20
11.9210947199805
30
0
0
SPLINE
5
260
100
AcDbEntity
8
1
62
256
6
ByLayer
370
13
48
1
60
0
100
AcDbSpline
70
4
71
3
72
8
73
4
40
0
40
0
40
0
40
0
40
1
40
1
40
1
40
1
41
1
10
48.0208798836103
20
15.6651021951281
30
0
41
1
10
48.0336199091963
20
15.6579106779759
30
0
41
1
10
48.0463888361773
20
15.6506871559025
30
0
41
1
10
48.0591730137739
20
15.6434227536155
30
0
0
SPLINE
5
261
100
AcDbEntity
8
1
62
256
6
ByLayer
370
13
48
1
60
0
100
AcDbSpline
70
4
71
3
72
8
73
4
40
0
40
0
40
0
40
0
40
1
40
1
40
1
40
1
41
1
10
49.1608347348723
20
11.4377731625256
30
0
41
1
10
49.0892860767647
20
11.4562372438347
30
0
41
1
10
49.0186870952114
20
11.4796901991979
30
0
41
1
10
48.94946913131
20
11.5059626658434
30
0
0
SPLINE
5
262
100
AcDbEntity
8
1
62
256
6
ByLayer
370
13
48
1
60
0
100
AcDbSpline
70
4
71
3
72
8
73
4
40
0
40
0
40
0
40
0
40
1
40
1
40
1
40
1
41
1
10
48.5024204932651
20
16.312773058734
30
0
41
1
10
48.5096947817258
20
16.3157175796285
30
0
41
1
10
48.5169658419914
20
16.3186690698783
30
0
41
1
10
48.5242336007821
20
16.3216275381161
30
0
0
SPLINE
5
263
100
AcDbEntity
8
1
62
256
6
ByLayer
370
13
48
1
60
0
100
AcDbSpline
70
4
71
3
72
8
73
4
40
0
40
0
40
0
40
0
40
1
40
1
40
1
40
1
41
1
10
48.5735850890822
20
16.5801672404357
30
0
41
1
10
48.569606006912
20
16.5784518040617
30
0
41
1
10
48.5656245728578
20
16.5767417163064
30
0
41
1
10
48.5616408036899
20
16.5750369988107
30
0
0
SPLINE
5
264
100
AcDbEntity
8
1
62
256
6
ByLayer
370
13
48
1
60
0
100
AcDbSpline
70
4
71
3
72
12
73
8
40
0
40
0
40
0
40
0
40
0.363459108279236
40
0.363459108279236
40
0.708127036348679
40
0.708127036348679
40
1
40
1
40
1
40
1
41
1
10
43.7827500875272
20
14.6537619591771
30
0
41
1
10
43.7814089921779
20
14.6062289644555
30
0
41
1
10
43.7755778485381
20
14.5610183432129
30
0
41
1
10
43.7580840972458
20
14.4843077657098
30
0
41
1
10
43.7465961203319
20
14.4512367423931
30
0
41
1
10
43.7224963448688
20
14.4002338402603
30
0
41
1
10
43.7101669172397
20
14.3803856356293
30
0
41
1
10
43.6972686417965
20
14.3643236822377
30
0
0
SPLINE
5
265
100
AcDbEntity
8
1
62
256
6
ByLayer
370
13
48
1
60
0
100
AcDbSpline
70
4
71
3
72
8
73
4
40
0
40
0
40
0
40
0
40
1
40
1
40
1
40
1
41
1
10
47.6759025432335
20
11.5119935001898
30
0
41
1
10
47.6977309752335
20
11.5108761283235
30
0
41
1
10
47.7195815463634
20
11.510127847453
30
0
41
1
10
47.7414351429146
20
11.5097493221201
30
0
0
SPLINE
5
266
100
AcDbEntity
8
1
62
256
6
ByLayer
370
13
48
1
60
0
100
AcDbSpline
70
4
71
3
72
8
73
4
40
0
40
0
40
0
40
0
40
1
40
1
40
1
40
1
41
1
10
47.7411611560269
20
12.1681804901298
30
0
41
1
10
47.7473645928929
20
12.1681727862203
30
0
41
1
10
47.7535683222094
20
12.1682061359211
30
0
41
1
10
47.7597714746036
20
12.1682803461658
30
0
0
SPLINE
5
267
100
AcDbEntity
8
1
62
256
6
ByLayer
370
13
48
1
60
0
100
AcDbSpline
70
4
71
3
72
20
73
16
40
0
40
0
40
0
40
0
40
0.0001419067068639
40
0.0001419067068639
40
0.148182794543565
40
0.148182794543565
40
0.186164347229322
40
0.186164347229322
40
0.265575571808641
40
0.265575571808641
40
0.418346769420177
40
0.418346769420177
40
0.710566337098964
40
0.710566337098964
40
1
40
1
40
1
40
1
41
1
10
47.2682151376414
20
16.2109795687619
30
0
41
1
10
47.268234647772
20
16.2109839331909
30
0
41
1
10
47.268254158121
20
16.2109882967633
30
0
41
1
10
47.2885685781033
20
16.2155339883559
30
0
41
1
10
47.3094897344782
20
16.2164197575335
30
0
41
1
10
47.3354443387808
20
16.2191528699656
30
0
41
1
10
47.3407767110538
20
16.2197207166218
30
0
41
1
10
47.3569032149485
20
16.223301544162
30
0
41
1
10
47.367842940599
20
16.2256846771904
30
0
41
1
10
47.3999444294999
20
16.2320220555918
30
0
41
1
10
47.4212520845594
20
16.2353512153671
30
0
41
1
10
47.4834582214744
20
16.2430163436332
30
0
41
1
10
47.5245211970633
20
16.2459749063955
30
0
41
1
10
47.6062788847873
20
16.2508443892759
30
0
41
1
10
47.6470333233469
20
16.2526535244428
30
0
41
1
10
47.6877692412714
20
16.2547932419912
30
0
0
SPLINE
5
268
100
AcDbEntity
8
1
62
256
6
ByLayer
370
13
48
1
60
0
100
AcDbSpline
70
4
71
3
72
8
73
4
40
0
40
0
40
0
40
0
40
1
40
1
40
1
40
1
41
1
10
48.4587307350278
20
11.7048129556107
30
0
41
1
10
48.4514417666613
20
11.7077305091634
30
0
41
1
10
48.4441496661437
20
11.7106411592969
30
0
41
1
10
48.436854516378
20
11.7135449418287
30
0
0
SPLINE
5
269
100
AcDbEntity
8
1
62
256
6
ByLayer
370
13
48
1
60
0
100
AcDbSpline
70
4
71
3
72
8
73
4
40
0
40
0
40
0
40
0
40
1
40
1
40
1
40
1
41
1
10
47.6887628171811
20
16.2394117518375
30
0
41
1
10
47.6884006764784
20
16.2446890074783
30
0
41
1
10
47.6880695059573
20
16.2498163986918
30
0
41
1
10
47.6877704704758
20
16.2547763778903
30
0
0
SPLINE
5
26A
100
AcDbEntity
8
1
62
256
6
ByLayer
370
13
48
1
60
0
100
AcDbSpline
70
4
71
3
72
8
73
4
40
0
40
0
40
0
40
0
40
1
40
1
40
1
40
1
41
1
10
49.1358136768824
20
11.2395149490556
30
0
41
1
10
49.1901317622663
20
11.232573037074
30
0
41
1
10
49.2453684895892
20
11.2298971527913
30
0
41
1
10
49.3
20
11.2336620472781
30
0
0
SPLINE
5
26B
100
AcDbEntity
8
1
62
256
6
ByLayer
370
13
48
1
60
0
100
AcDbSpline
70
4
71
3
72
14
73
10
40
0
40
0
40
0
40
0
40
0.0738386433543093
40
0.0738386433543093
40
0.343456716621557
40
0.343456716621557
40
0.672647811750665
40
0.672647811750665
40
1
40
1
40
1
40
1
41
1
10
43.8468286927604
20
16.5856276180903
30
0
41
1
10
43.8443359888424
20
16.5829352705696
30
0
41
1
10
43.8415585741699
20
16.5808060981811
30
0
41
1
10
43.8275921518825
20
16.5728665940024
30
0
41
1
10
43.8131623554373
20
16.5713554535071
30
0
41
1
10
43.775400863715
20
16.569825111132
30
0
41
1
10
43.7502740351531
20
16.5705589062607
30
0
41
1
10
43.6943727162844
20
16.5719857675739
30
0
41
1
10
43.6630568484845
20
16.5727987369137
30
0
41
1
10
43.6301583517775
20
16.5732013638772
30
0
0
SPLINE
5
26C
100
AcDbEntity
8
1
62
256
6
ByLayer
370
13
48
1
60
0
100
AcDbSpline
70
4
71
3
72
8
73
4
40
0
40
0
40
0
40
0
40
1
40
1
40
1
40
1
41
1
10
48.7639112600577
20
11.9110148761461
30
0
41
1
10
48.7680464246978
20
11.9091602672609
30
0
41
1
10
48.7721821241731
20
11.9073075330241
30
0
41
1
10
48.7763183605699
20
11.9054567017476
30
0
0
SPLINE
5
26D
100
AcDbEntity
8
1
62
256
6
ByLayer
370
13
48
1
60
0
100
AcDbSpline
70
4
71
3
72
12
73
8
40
0
40
0
40
0
40
0
40
0.457246059745211
40
0.457246059745211
40
0.798536601170001
40
0.798536601170001
40
1
40
1
40
1
40
1
41
1
10
43.6879774155718
20
14.1515196151297
30
0
41
1
10
43.7057661449508
20
14.1249125925009
30
0
41
1
10
43.7215043535411
20
14.0890036959004
30
0
41
1
10
43.7407592089789
20
14.0122638332767
30
0
41
1
10
43.7464803692961
20
13.9741733738182
30
0
41
1
10
43.7496166024349
20
13.9083006074447
30
0
41
1
10
43.74948076225
20
13.8823421397729
30
0
41
1
10
43.7479073705877
20
13.8557325393241
30
0
0
SPLINE
5
26E
100
AcDbEntity
8
1
62
256
6
ByLayer
370
13
48
1
60
0
100
AcDbSpline
70
4
71
3
72
8
73
4
40
0
40
0
40
0
40
0
40
1
40
1
40
1
40
1
41
1
10
48.2864533085229
20
16.472714879668
30
0
41
1
10
48.2688019284835
20
16.4699802683955
30
0
41
1
10
48.2507718090995
20
16.4690501210115
30
0
41
1
10
48.2329322201165
20
16.4699548517988
30
0
0
SPLINE
5
26F
100
AcDbEntity
8
1
62
256
6
ByLayer
370
13
48
1
60
0
100
AcDbSpline
70
4
71
3
72
8
73
4
40
0
40
0
40
0
40
0
40
1
40
1
40
1
40
1
41
1
10
47.7321403749878
20
15.9010869876361
30
0
41
1
10
47.6981858751894
20
15.8994733135015
30
0
41
1
10
47.6643148627437
20
15.8955285556299
30
0
41
1
10
47.6310739318799
20
15.8899575789177
30
0
0
SPLINE
5
270
100
AcDbEntity
8
1
62
256
6
ByLayer
370
18
48
1
60
0
100
AcDbSpline
70
4
71
3
72
8
73
4
40
0
40
0
40
0
40
0
40
1
40
1
40
1
40
1
41
1
10
46
20
11.1419620470244
30
0
41
1
10
46.0155887599178
20
11.1372722725002
30
0
41
1
10
46.0318866938357
20
11.13451183067
30
0
41
1
10
46.0481501043749
20
11.1338012738003
30
0
0
SPLINE
5
271
100
AcDbEntity
8
1
62
256
6
ByLayer
370
13
48
1
60
0
100
AcDbSpline
70
4
71
3
72
8
73
4
40
0
40
0
40
0
40
0
40
1
40
1
40
1
40
1
41
1
10
48.436854516378
20
16.2864550581714
30
0
41
1
10
48.4441496661437
20
16.2893588407031
30
0
41
1
10
48.4514417666613
20
16.2922694908366
30
0
41
1
10
48.4587307350278
20
16.2951870443894
30
0
0
SPLINE
5
272
100
AcDbEntity
8
1
62
256
6
ByLayer
370
13
48
1
60
0
100
AcDbSpline
70
4
71
3
72
8
73
4
40
0
40
0
40
0
40
0
40
1
40
1
40
1
40
1
41
1
10
48.6829919691138
20
16.3875911354017
30
0
41
1
10
48.726942978069
20
16.4062754083882
30
0
41
1
10
48.7711387609178
20
16.4244905576066
30
0
41
1
10
48.8155438239195
20
16.4422176791705
30
0
0
SPLINE
5
273
100
AcDbEntity
8
1
62
256
6
ByLayer
370
13
48
1
60
0
100
AcDbSpline
70
4
71
3
72
8
73
4
40
0
40
0
40
0
40
0
40
1
40
1
40
1
40
1
41
1
10
47.6456212956711
20
15.8283278978975
30
0
41
1
10
47.6405246353072
20
15.8532981098457
30
0
41
1
10
47.6355545292539
20
15.8743541314973
30
0
41
1
10
47.6310751637949
20
15.8899532905678
30
0
0
SPLINE
5
274
100
AcDbEntity
8
1
62
256
6
ByLayer
370
13
48
1
60
0
100
AcDbSpline
70
4
71
3
72
10
73
6
40
0
40
0
40
0
40
0
40
0.076111785293744
40
0.076111785293744
40
1
40
1
40
1
40
1
41
1
10
48.9065084491241
20
12.0948123256185
30
0
41
1
10
48.9057979286698
20
12.0938702593995
30
0
41
1
10
48.9050866931816
20
12.0929279977594
30
0
41
1
10
48.8957243604834
20
12.0805537635479
30
0
41
1
10
48.8868872774648
20
12.0691300948788
30
0
41
1
10
48.8779887348242
20
12.0578780648248
30
0
0
SPLINE
5
275
100
AcDbEntity
8
1
62
256
6
ByLayer
370
13
48
1
60
0
100
AcDbSpline
70
4
71
3
72
10
73
6
40
0
40
0
40
0
40
0
40
0.491307620910673
40
0.491307620910673
40
1
40
1
40
1
40
1
41
1
10
48.1903913856544
20
15.901964557944
30
0
41
1
10
48.1818655754359
20
15.9020530456264
30
0
41
1
10
48.1733399423986
20
15.9021341352893
30
0
41
1
10
48.1559874722113
20
15.902284375185
30
0
41
1
10
48.1471606305851
20
15.9023530015028
30
0
41
1
10
48.1383340901892
20
15.9024139835089
30
0
0
SPLINE
5
276
100
AcDbEntity
8
1
62
256
6
ByLayer
370
13
48
1
60
0
100
AcDbSpline
70
4
71
3
72
8
73
4
40
0
40
0
40
0
40
0
40
1
40
1
40
1
40
1
41
1
10
48.5242336007821
20
16.3216275381161
30
0
41
1
10
48.5315010589711
20
16.3245858842253
30
0
41
1
10
48.5387652355361
20
16.3275512165504
30
0
41
1
10
48.5460260607216
20
16.3305235344625
30
0
0
SPLINE
5
277
100
AcDbEntity
8
1
62
256
6
ByLayer
370
13
48
1
60
0
100
AcDbSpline
70
4
71
3
72
8
73
4
40
0
40
0
40
0
40
0
40
1
40
1
40
1
40
1
41
1
10
48.882516190279
20
16.6995177262707
30
0
41
1
10
48.8343751227863
20
16.6837504927176
30
0
41
1
10
48.7866279183623
20
16.6667568561319
30
0
41
1
10
48.7393259367937
20
16.6486651860989
30
0
0
SPLINE
5
278
100
AcDbEntity
8
1
62
256
6
ByLayer
370
13
48
1
60
0
100
AcDbSpline
70
4
71
3
72
8
73
4
40
0
40
0
40
0
40
0
40
1
40
1
40
1
40
1
41
1
10
48.730293747724
20
15.8265579485288
30
0
41
1
10
48.7352009985676
20
15.826839375408
30
0
41
1
10
48.7400949698369
20
15.8270719674485
30
0
41
1
10
48.7449712215412
20
15.8272609896359
30
0
0
SPLINE
5
279
100
AcDbEntity
8
1
62
256
6
ByLayer
370
13
48
1
60
0
100
AcDbSpline
70
4
71
3
72
8
73
4
40
0
40
0
40
0
40
0
40
1
40
1
40
1
40
1
41
1
10
45.9771717426968
20
12.4176652819673
30
0
41
1
10
45.9823958986585
20
12.4164700842092
30
0
41
1
10
45.9876210092493
20
12.4152706675865
30
0
41
1
10
45.9928470379229
20
12.4140671134632
30
0
0
SPLINE
5
27A
100
AcDbEntity
8
1
62
256
6
ByLayer
370
13
48
1
60
0
100
AcDbSpline
70
4
71
3
72
8
73
4
40
0
40
0
40
0
40
0
40
1
40
1
40
1
40
1
41
1
10
47.9909241915162
20
11.5160647866748
30
0
41
1
10
48.0241932586177
20
11.5176042343279
30
0
41
1
10
48.0574529942193
20
11.5193529830499
30
0
41
1
10
48.0906987911262
20
11.5213186846671
30
0
0
SPLINE
5
27B
100
AcDbEntity
8
1
62
256
6
ByLayer
370
13
48
1
60
0
100
AcDbSpline
70
4
71
3
72
8
73
4
40
0
40
0
40
0
40
0
40
1
40
1
40
1
40
1
41
1
10
47.703237684077
20
11.9117074749824
30
0
41
1
10
47.7100061958704
20
11.9690164594513
30
0
41
1
10
47.7179725866135
20
12.0243586007297
30
0
41
1
10
47.7251482641532
20
12.0640989495227
30
0
0
SPLINE
5
27C
100
AcDbEntity
8
1
62
256
6
ByLayer
370
13
48
1
60
0
100
AcDbSpline
70
4
71
3
72
12
73
8
40
0
40
0
40
0
40
0
40
0.016548667726825
40
0.016548667726825
40
0.698261559142596
40
0.698261559142596
40
1
40
1
40
1
40
1
41
1
10
43.6220305501844
20
14.2386118159885
30
0
41
1
10
43.6215815232203
20
14.238202894012
30
0
41
1
10
43.6211264898061
20
14.2377940805463
30
0
41
1
10
43.602043826343
20
14.2209034987967
30
0
41
1
10
43.5729124466402
20
14.2050125200674
30
0
41
1
10
43.5201122841927
20
14.1859688382873
30
0
41
1
10
43.5021346756154
20
14.1805463216544
30
0
41
1
10
43.4828744692145
20
14.1756977580698
30
0
0
SPLINE
5
27D
100
AcDbEntity
8
1
62
256
6
ByLayer
370
13
48
1
60
0
100
AcDbSpline
70
4
71
3
72
8
73
4
40
0
40
0
40
0
40
0
40
1
40
1
40
1
40
1
41
1
10
48.7887266056559
20
11.8999108727854
30
0
41
1
10
48.7928627483197
20
11.8980643975332
30
0
41
1
10
48.7969994351781
20
11.8962198496458
30
0
41
1
10
48.8011366675816
20
11.8943772562576
30
0
0
SPLINE
5
27E
100
AcDbEntity
8
1
62
256
6
ByLayer
370
18
48
1
60
0
100
AcDbSpline
70
4
71
3
72
18
73
14
40
0
40
0
40
0
40
0
40
0.241127574926356
40
0.494085049950904
40
0.620563787463178
40
0.652183471841246
40
0.683803156219315
40
0.691708077313832
40
0.699612998408349
40
0.715422840597383
40
0.747042524975452
40
0.873521262487726
40
1
40
1
40
1
40
1
41
1
10
49.5774062521179
20
14.0000000661773
30
0
41
1
10
49.4241317760481
20
14.0000000608582
30
0
41
1
10
49.1100657019432
20
14.0000000499592
30
0
41
1
10
48.7156080438691
20
14.0000000362701
30
0
41
1
10
48.4543219603001
20
14.0000000272026
30
0
41
1
10
48.3337304361565
20
14.0000000230176
30
0
41
1
10
48.2885133742642
20
14.0000000214482
30
0
41
1
10
48.2583532660819
20
14.0000000204019
30
0
41
1
10
48.2382035159291
20
14.0000000197044
30
0
41
1
10
48.2027931172254
20
14.0000000184838
30
0
41
1
10
48.0907451805646
20
14.0000000146476
30
0
41
1
10
47.9035990461038
20
14.00000000837
30
0
41
1
10
47.7345331674349
20
14.00000000279
30
0
41
1
10
47.65
20
14
30
0
0
SPLINE
5
27F
100
AcDbEntity
8
1
62
256
6
ByLayer
370
13
48
1
60
0
100
AcDbSpline
70
4
71
3
72
8
73
4
40
0
40
0
40
0
40
0
40
1
40
1
40
1
40
1
41
1
10
45.3153380276099
20
15.059473518579
30
0
41
1
10
45.5490679220661
20
15.1244802607589
30
0
41
1
10
45.7885096759172
20
15.1797625899427
30
0
41
1
10
46.0327268129396
20
15.2270595496385
30
0
0
SPLINE
5
280
100
AcDbEntity
8
1
62
256
6
ByLayer
370
13
48
1
60
0
100
AcDbSpline
70
4
71
3
72
8
73
4
40
0
40
0
40
0
40
0
40
1
40
1
40
1
40
1
41
1
10
47.2326091072271
20
11.5662392834776
30
0
41
1
10
47.245639332193
20
11.644345652044
30
0
41
1
10
47.2587871946329
20
11.7266025941926
30
0
41
1
10
47.268214749946
20
11.789018355375
30
0
0
SPLINE
5
281
100
AcDbEntity
8
1
62
256
6
ByLayer
370
13
48
1
60
0
100
AcDbSpline
70
4
71
3
72
8
73
4
40
0
40
0
40
0
40
0
40
1
40
1
40
1
40
1
41
1
10
48.4244955588815
20
16.5188394109615
30
0
41
1
10
48.4174968830692
20
16.5160966396693
30
0
41
1
10
48.4104917166476
20
16.5133700854221
30
0
41
1
10
48.4034802160155
20
16.5106596869899
30
0
0
SPLINE
5
282
100
AcDbEntity
8
1
62
256
6
ByLayer
370
13
48
1
60
0
100
AcDbSpline
70
4
71
3
72
8
73
4
40
0
40
0
40
0
40
0
40
1
40
1
40
1
40
1
41
1
10
48.7515058310461
20
11.9165849898096
30
0
41
1
10
48.7556404436166
20
11.9147264283199
30
0
41
1
10
48.7597755858061
20
11.9128697141438
30
0
41
1
10
48.7639112600579
20
11.9110148761465
30
0
0
SPLINE
5
283
100
AcDbEntity
8
1
62
256
6
ByLayer
370
13
48
1
60
0
100
AcDbSpline
70
4
71
3
72
8
73
4
40
0
40
0
40
0
40
0
40
1
40
1
40
1
40
1
41
1
10
47.7234394395965
20
15.7605557141391
30
0
41
1
10
47.729327817125
20
15.7830865878174
30
0
41
1
10
47.7352695393152
20
15.8068981460166
30
0
41
1
10
47.7412229965746
20
15.8318236375486
30
0
0
SPLINE
5
284
100
AcDbEntity
8
1
62
256
6
ByLayer
370
13
48
1
60
0
100
AcDbSpline
70
4
71
3
72
8
73
4
40
0
40
0
40
0
40
0
40
1
40
1
40
1
40
1
41
1
10
48.6112743152022
20
11.6425402094937
30
0
41
1
10
48.6040351840507
20
11.645553885362
30
0
41
1
10
48.5967925750812
20
11.648560609408
30
0
41
1
10
48.5895465466143
20
11.651560353094
30
0
0
SPLINE
5
285
100
AcDbEntity
8
1
62
256
6
ByLayer
370
13
48
1
60
0
100
AcDbSpline
70
4
71
3
72
8
73
4
40
0
40
0
40
0
40
0
40
1
40
1
40
1
40
1
41
1
10
48.5735850890743
20
11.4198327595678
30
0
41
1
10
48.5775643019078
20
11.418117266863
30
0
41
1
10
48.5815411699149
20
11.4163964217371
30
0
41
1
10
48.5855156775903
20
11.4146702483274
30
0
0
SPLINE
5
286
100
AcDbEntity
8
1
62
256
6
ByLayer
370
13
48
1
60
0
100
AcDbSpline
70
4
71
3
72
14
73
10
40
0
40
0
40
0
40
0
40
0.331677825676037
40
0.331677825676037
40
0.662805943003765
40
0.662805943003765
40
0.759335348761246
40
0.759335348761246
40
1
40
1
40
1
40
1
41
1
10
43.629552374945
20
16.6045103537059
30
0
41
1
10
43.6623530215082
20
16.6026922625916
30
0
41
1
10
43.693616394114
20
16.6000283903507
30
0
41
1
10
43.7493500781111
20
16.5942792401062
30
0
41
1
10
43.7743980364482
20
16.5910193026076
30
0
41
1
10
43.8013339427125
20
16.5886319245275
30
0
41
1
10
43.8071214954234
20
16.5882248375806
30
0
41
1
10
43.8258947260198
20
16.5877093137806
30
0
41
1
10
43.8372586786918
20
16.5884498872827
30
0
41
1
10
43.8455472938192
20
16.5956314679352
30
0
0
SPLINE
5
287
100
AcDbEntity
8
1
62
256
6
ByLayer
370
18
48
1
60
0
100
AcDbSpline
70
4
71
3
72
8
73
4
40
0
40
0
40
0
40
0
40
1
40
1
40
1
40
1
41
1
10
49.1760620927783
20
16.0535949641085
30
0
41
1
10
49.1372984054744
20
16.1178505018449
30
0
41
1
10
49.0946138634622
20
16.1816759394647
30
0
41
1
10
49.0592629624678
20
16.2285732351858
30
0
0
SPLINE
5
288
100
AcDbEntity
8
1
62
256
6
ByLayer
370
13
48
1
60
0
100
AcDbSpline
70
4
71
3
72
8
73
4
40
0
40
0
40
0
40
0
40
1
40
1
40
1
40
1
41
1
10
47.9798988508494
20
12.3133545628914
30
0
41
1
10
47.9593565245428
20
12.3033594634072
30
0
41
1
10
47.9382377969679
20
12.2942479279228
30
0
41
1
10
47.9166804450442
20
12.2861077076873
30
0
0
SPLINE
5
289
100
AcDbEntity
8
1
62
256
6
ByLayer
370
13
48
1
60
0
100
AcDbSpline
70
4
71
3
72
8
73
4
40
0
40
0
40
0
40
0
40
1
40
1
40
1
40
1
41
1
10
47.9166804450442
20
15.7138922923128
30
0
41
1
10
47.9382377969679
20
15.7057520720772
30
0
41
1
10
47.9593565245428
20
15.6966405365929
30
0
41
1
10
47.9798988508494
20
15.6866454371086
30
0
0
SPLINE
5
28A
100
AcDbEntity
8
1
62
256
6
ByLayer
370
13
48
1
60
0
100
AcDbSpline
70
4
71
3
72
8
73
4
40
0
40
0
40
0
40
0
40
1
40
1
40
1
40
1
41
1
10
48.7639112600579
20
16.0889851238536
30
0
41
1
10
48.7597755858061
20
16.0871302858562
30
0
41
1
10
48.7556404436166
20
16.0852735716801
30
0
41
1
10
48.7515058310461
20
16.0834150101905
30
0
0
SPLINE
5
28B
100
AcDbEntity
8
1
62
256
6
ByLayer
370
18
48
1
60
0
100
AcDbSpline
70
4
71
3
72
8
73
4
40
0
40
0
40
0
40
0
40
1
40
1
40
1
40
1
41
1
10
49.3
20
11.0131049579325
30
0
41
1
10
49.2675420878946
20
11.0044343245592
30
0
41
1
10
49.2336432603182
20
10.9999892202697
30
0
41
1
10
49.20002532307
20
10.9999670929778
30
0
0
SPLINE
5
28C
100
AcDbEntity
8
1
62
256
6
ByLayer
370
18
48
1
60
0
100
AcDbSpline
70
4
71
3
72
8
73
4
40
0
40
0
40
0
40
0
40
1
40
1
40
1
40
1
41
1
10
49.0256101191901
20
16.9962733793708
30
0
41
1
10
49.0588524296367
20
16.9977247699894
30
0
41
1
10
49.0921159117529
20
16.998754134724
30
0
41
1
10
49.1253841571116
20
16.9993603265577
30
0
0
SPLINE
5
28D
100
AcDbEntity
8
1
62
256
6
ByLayer
370
13
48
1
60
0
100
AcDbSpline
70
4
71
3
72
8
73
4
40
0
40
0
40
0
40
0
40
1
40
1
40
1
40
1
41
1
10
48.6511104023502
20
12.1828771456432
30
0
41
1
10
48.6460396568156
20
12.1838413615003
30
0
41
1
10
48.6409746523795
20
12.1848827673376
30
0
41
1
10
48.6359219030158
20
12.1860044393864
30
0
0
SPLINE
5
28E
100
AcDbEntity
8
1
62
256
6
ByLayer
370
13
48
1
60
0
100
AcDbSpline
70
4
71
3
72
8
73
4
40
0
40
0
40
0
40
0
40
1
40
1
40
1
40
1
41
1
10
47.8109443135567
20
15.902587453467
30
0
41
1
10
47.7913424452924
20
15.902766273945
30
0
41
1
10
47.7717331200065
20
15.9025393159747
30
0
41
1
10
47.7521435364737
20
15.9019040832851
30
0
0
SPLINE
5
28F
100
AcDbEntity
8
1
62
256
6
ByLayer
370
13
48
1
60
0
100
AcDbSpline
70
4
71
3
72
8
73
4
40
0
40
0
40
0
40
0
40
1
40
1
40
1
40
1
41
1
10
48.612732349232
20
16.0467382427657
30
0
41
1
10
48.6051750867673
20
16.0444371125683
30
0
41
1
10
48.5976327023415
20
16.0420801685362
30
0
41
1
10
48.5901075129052
20
16.0396663287278
30
0
0
SPLINE
5
290
100
AcDbEntity
8
1
62
256
6
ByLayer
370
13
48
1
60
0
100
AcDbSpline
70
4
71
3
72
8
73
4
40
0
40
0
40
0
40
0
40
1
40
1
40
1
40
1
41
1
10
48.7491544982285
20
11.9176424134776
30
0
41
1
10
48.7496935155363
20
11.9173998522587
30
0
41
1
10
48.7502325780362
20
11.9171573875946
30
0
41
1
10
48.7507716856815
20
11.9169150195599
30
0
0
SPLINE
5
291
100
AcDbEntity
8
1
62
256
6
ByLayer
370
13
48
1
60
0
100
AcDbSpline
70
4
71
3
72
8
73
4
40
0
40
0
40
0
40
0
40
1
40
1
40
1
40
1
41
1
10
48.5901075129052
20
11.9603336712723
30
0
41
1
10
48.5976327023415
20
11.9579198314638
30
0
41
1
10
48.6051750867673
20
11.9555628874317
30
0
41
1
10
48.612732349232
20
11.9532617572343
30
0
0
SPLINE
5
292
100
AcDbEntity
8
1
62
256
6
ByLayer
370
18
48
1
60
0
100
AcDbSpline
70
4
71
3
72
12
73
8
40
0
40
0
40
0
40
0
40
0.0217875129060729
40
0.0217875129060729
40
0.482729679984871
40
0.482729679984871
40
1
40
1
40
1
40
1
41
1
10
48.3396886118677
20
15.6903773265363
30
0
41
1
10
48.3389544411018
20
15.6914217330804
30
0
41
1
10
48.3382141724792
20
15.6924663282059
30
0
41
1
10
48.3216677482577
20
15.7157265756543
30
0
41
1
10
48.3034972884388
20
15.7387775647963
30
0
41
1
10
48.2617143676401
20
15.7855633641963
30
0
41
1
10
48.2371081326211
20
15.8097081132395
30
0
41
1
10
48.2113098780286
20
15.8305312013195
30
0
0
SPLINE
5
293
100
AcDbEntity
8
1
62
256
6
ByLayer
370
13
48
1
60
0
100
AcDbSpline
70
4
71
3
72
12
73
8
40
0
40
0
40
0
40
0
40
0.376458038616301
40
0.752916077232602
40
0.941145096540752
40
0.98820235136779
40
1
40
1
40
1
40
1
41
1
10
47.2961878440813
20
12.2558763539677
30
0
41
1
10
47.2952585838946
20
12.2403672854113
30
0
41
1
10
47.2934250413864
20
12.2097660212326
30
0
41
1
10
47.2912219651966
20
12.1729973528289
30
0
41
1
10
47.289745396837
20
12.1483538781108
30
0
41
1
10
47.2892321474058
20
12.1397879019383
30
0
41
1
10
47.2890612860015
20
12.1369362773115
30
0
41
1
10
47.2890221669292
20
12.13628339195
30
0
0
SPLINE
5
294
100
AcDbEntity
8
1
62
256
6
ByLayer
370
18
48
1
60
0
100
AcDbSpline
70
4
71
3
72
8
73
4
40
0
40
0
40
0
40
0
40
1
40
1
40
1
40
1
41
1
10
49.5812841794829
20
13.4536857860448
30
0
41
1
10
49.5786607767305
20
13.6319480259874
30
0
41
1
10
49.5774072426711
20
13.8166132089845
30
0
41
1
10
49.5774062521179
20
14.0000000661773
30
0
0
SPLINE
5
295
100
AcDbEntity
8
1
62
256
6
ByLayer
370
13
48
1
60
0
100
AcDbSpline
70
4
71
3
72
8
73
4
40
0
40
0
40
0
40
0
40
1
40
1
40
1
40
1
41
1
10
47.7234909295233
20
15.7605426720624
30
0
41
1
10
47.7292691217604
20
15.7596564603489
30
0
41
1
10
47.7350441871398
20
15.7587462847243
30
0
41
1
10
47.7408158168118
20
15.7578122208841
30
0
0
SPLINE
5
296
100
AcDbEntity
8
1
62
256
6
ByLayer
370
13
48
1
60
0
100
AcDbSpline
70
4
71
3
72
10
73
6
40
0
40
0
40
0
40
0
40
0.496989922909923
40
0.496989922909923
40
1
40
1
40
1
40
1
41
1
10
46.4249063417947
20
15.9924417563697
30
0
41
1
10
46.5247554234597
20
16.0257742224861
30
0
41
1
10
46.6244506035879
20
16.0596858634526
30
0
41
1
10
46.8281442161718
20
16.119358313437
30
0
41
1
10
46.9325205707173
20
16.1453164675803
30
0
41
1
10
47.0380313022955
20
16.1631673197343
30
0
0
SPLINE
5
297
100
AcDbEntity
8
1
62
256
6
ByLayer
370
13
48
1
60
0
100
AcDbSpline
70
4
71
3
72
8
73
4
40
0
40
0
40
0
40
0
40
1
40
1
40
1
40
1
41
1
10
48.7594785615588
20
12.1736996683244
30
0
41
1
10
48.7588569761846
20
12.1735815102545
30
0
41
1
10
48.7582339340971
20
12.1734750118206
30
0
41
1
10
48.7576101156604
20
12.1733794263626
30
0
0
SPLINE
5
298
100
AcDbEntity
8
1
62
256
6
ByLayer
370
13
48
1
60
0
100
AcDbSpline
70
4
71
3
72
8
73
4
40
0
40
0
40
0
40
0
40
1
40
1
40
1
40
1
41
1
10
48.757610115657
20
12.1733794263621
30
0
41
1
10
48.754057467254
20
12.1728350668105
30
0
41
1
10
48.7504688123718
20
12.1726385854966
30
0
41
1
10
48.7469132650806
20
12.172687753065
30
0
0
SPLINE
5
299
100
AcDbEntity
8
1
62
256
6
ByLayer
370
18
48
1
60
0
100
AcDbSpline
70
4
71
3
72
12
73
8
40
0
40
0
40
0
40
0
40
0.42211456910065
40
0.42211456910065
40
0.711057259361875
40
0.711057259361875
40
1
40
1
40
1
40
1
41
1
10
46.048150104375
20
11.1338012738003
30
0
41
1
10
46.1820805375966
20
11.1279497834769
30
0
41
1
10
46.3160102631972
20
11.1220825944108
30
0
41
1
10
46.5416163352194
20
11.1121954008558
30
0
41
1
10
46.6332927656927
20
11.1081766142966
30
0
41
1
10
46.8166459967653
20
11.1001464393983
30
0
41
1
10
46.908322810612
20
11.0961351001062
30
0
41
1
10
47
20
11.0921323875743
30
0
0
SPLINE
5
29A
100
AcDbEntity
8
1
62
256
6
ByLayer
370
13
48
1
60
0
100
AcDbSpline
70
4
71
3
72
8
73
4
40
0
40
0
40
0
40
0
40
1
40
1
40
1
40
1
41
1
10
47.8144285509218
20
12.169987291905
30
0
41
1
10
47.8688285804819
20
12.1723724683975
30
0
41
1
10
47.9232142213977
20
12.1752458288797
30
0
41
1
10
47.9775484919094
20
12.1787739338193
30
0
0
SPLINE
5
29B
100
AcDbEntity
8
1
62
256
6
ByLayer
370
13
48
1
60
0
100
AcDbSpline
70
4
71
3
72
8
73
4
40
0
40
0
40
0
40
0
40
1
40
1
40
1
40
1
41
1
10
45.9647023147842
20
12.4205154933088
30
0
41
1
10
45.9688575812662
20
12.4195665653676
30
0
41
1
10
45.9730140683332
20
12.4186164869304
30
0
41
1
10
45.9771717426968
20
12.4176652819673
30
0
0
SPLINE
5
29C
100
AcDbEntity
8
1
62
256
6
ByLayer
370
13
48
1
60
0
100
AcDbSpline
70
4
71
3
72
8
73
4
40
0
40
0
40
0
40
0
40
1
40
1
40
1
40
1
41
1
10
48.60618321608
20
15.806396510829
30
0
41
1
10
48.6110855245221
20
15.8078201825781
30
0
41
1
10
48.6160089160267
20
15.8091620505774
30
0
41
1
10
48.6209469220189
20
15.8104233848142
30
0
0
SPLINE
5
29D
100
AcDbEntity
8
1
62
256
6
ByLayer
370
13
48
1
60
0
100
AcDbSpline
70
4
71
3
72
8
73
4
40
0
40
0
40
0
40
0
40
1
40
1
40
1
40
1
41
1
10
49.525793411817
20
15.0691461566463
30
0
41
1
10
49.5473124450787
20
15.1307754178292
30
0
41
1
10
49.5712487738891
20
15.1957748486751
30
0
41
1
10
49.5970926627988
20
15.2627603748414
30
0
0
SPLINE
5
29E
100
AcDbEntity
8
1
62
256
6
ByLayer
370
13
48
1
60
0
100
AcDbSpline
70
4
71
3
72
8
73
4
40
0
40
0
40
0
40
0
40
1
40
1
40
1
40
1
41
1
10
48.2329322187786
20
16.4699548519896
30
0
41
1
10
48.2076870341286
20
16.4712351557575
30
0
41
1
10
48.1824526033639
20
16.4727375401815
30
0
41
1
10
48.157234133639
20
16.4744530074428
30
0
0
SPLINE
5
29F
100
AcDbEntity
8
1
62
256
6
ByLayer
370
13
48
1
60
0
100
AcDbSpline
70
4
71
3
72
8
73
4
40
0
40
0
40
0
40
0
40
1
40
1
40
1
40
1
41
1
10
48.7535224694942
20
11.9210947199805
30
0
41
1
10
48.7541935305911
20
11.9216344565832
30
0
41
1
10
48.7548648266207
20
11.9221787602965
30
0
41
1
10
48.7555363061338
20
11.9227275876813
30
0
0
SPLINE
5
2A0
100
AcDbEntity
8
1
62
256
6
ByLayer
370
13
48
1
60
0
100
AcDbSpline
70
4
71
3
72
8
73
4
40
0
40
0
40
0
40
0
40
1
40
1
40
1
40
1
41
1
10
47.0960412522587
20
16.1729817435833
30
0
41
1
10
47.153132555155
20
16.1868413795714
30
0
41
1
10
47.2105639578302
20
16.1995317071427
30
0
41
1
10
47.2682038738257
20
16.2111451888627
30
0
0
SPLINE
5
2A1
100
AcDbEntity
8
1
62
256
6
ByLayer
370
13
48
1
60
0
100
AcDbSpline
70
4
71
3
72
8
73
4
40
0
40
0
40
0
40
0
40
1
40
1
40
1
40
1
41
1
10
48.5460260607216
20
16.3305235344625
30
0
41
1
10
48.5532862786723
20
16.3334956038846
30
0
41
1
10
48.5605431655647
20
16.3364746662835
30
0
41
1
10
48.5677966553318
20
16.3394607117258
30
0
0
SPLINE
5
2A2
100
AcDbEntity
8
1
62
256
6
ByLayer
370
13
48
1
60
0
100
AcDbSpline
70
4
71
3
72
8
73
4
40
0
40
0
40
0
40
0
40
1
40
1
40
1
40
1
41
1
10
47.9166804451044
20
12.2861077075823
30
0
41
1
10
47.8764505849298
20
12.2709166062117
30
0
41
1
10
47.8343792184332
20
12.2590302959942
30
0
41
1
10
47.79156238069
20
12.2510326580964
30
0
0
SPLINE
5
2A3
100
AcDbEntity
8
1
62
256
6
ByLayer
370
13
48
1
60
0
100
AcDbSpline
70
4
71
3
72
10
73
6
40
0
40
0
40
0
40
0
40
0.565105076028508
40
0.565105076028508
40
1
40
1
40
1
40
1
41
1
10
46.061983131599
20
15.2326941582962
30
0
41
1
10
46.1351844997325
20
15.2501271162821
30
0
41
1
10
46.2061345186553
20
15.2765361945764
30
0
41
1
10
46.3203955048542
20
15.3361642096186
30
0
41
1
10
46.3670340951309
20
15.3667883030866
30
0
41
1
10
46.408829342978
20
15.4008377598915
30
0
0
SPLINE
5
2A4
100
AcDbEntity
8
1
62
256
6
ByLayer
370
18
48
1
60
0
100
AcDbSpline
70
4
71
3
72
10
73
6
40
0
40
0
40
0
40
0
40
0.852827298229792
40
0.852827298229792
40
1
40
1
40
1
40
1
41
1
10
47.7321403749872
20
12.0989130123622
30
0
41
1
10
47.7302766722728
20
12.0907745426493
30
0
41
1
10
47.7282848423622
20
12.0810213922985
30
0
41
1
10
47.7258710475861
20
12.0680639805745
30
0
41
1
10
47.7255106385014
20
12.0661009368182
30
0
41
1
10
47.7251482641528
20
12.0640989495205
30
0
0
SPLINE
5
2A5
100
AcDbEntity
8
1
62
256
6
ByLayer
370
13
48
1
60
0
100
AcDbSpline
70
4
71
3
72
8
73
4
40
0
40
0
40
0
40
0
40
1
40
1
40
1
40
1
41
1
10
48.6580009615612
20
16.3770290046368
30
0
41
1
10
48.6621684439719
20
16.3787847705422
30
0
41
1
10
48.6663347508874
20
16.3805428279748
30
0
41
1
10
48.6704998734366
20
16.3823031662962
30
0
0
SPLINE
5
2A6
100
AcDbEntity
8
1
62
256
6
ByLayer
370
13
48
1
60
0
100
AcDbSpline
70
4
71
3
72
8
73
4
40
0
40
0
40
0
40
0
40
1
40
1
40
1
40
1
41
1
10
47.2326098900026
20
16.433756028225
30
0
41
1
10
47.2456387803164
20
16.3556500780558
30
0
41
1
10
47.2587853202963
20
16.2733942358653
30
0
41
1
10
47.2682151376414
20
16.2109795687613
30
0
0
SPLINE
5
2A7
100
AcDbEntity
8
1
62
256
6
ByLayer
370
13
48
1
60
0
100
AcDbSpline
70
4
71
3
72
8
73
4
40
0
40
0
40
0
40
0
40
1
40
1
40
1
40
1
41
1
10
48.3401710352686
20
11.5133147673319
30
0
41
1
10
48.3472260961064
20
11.5106978549571
30
0
41
1
10
48.3542752074691
20
11.5080651259861
30
0
41
1
10
48.3613181945758
20
11.5054164496692
30
0
0
SPLINE
5
2A8
100
AcDbEntity
8
1
62
256
6
ByLayer
370
13
48
1
60
0
100
AcDbSpline
70
4
71
3
72
8
73
4
40
0
40
0
40
0
40
0
40
1
40
1
40
1
40
1
41
1
10
46.4327828618976
20
15.8609850427165
30
0
41
1
10
46.3568996027647
20
15.8084568119616
30
0
41
1
10
46.2847799921849
20
15.7534944061458
30
0
41
1
10
46.217398644719
20
15.6966319687381
30
0
0
SPLINE
5
2A9
100
AcDbEntity
8
1
62
256
6
ByLayer
370
13
48
1
60
0
100
AcDbSpline
70
4
71
3
72
10
73
6
40
0
40
0
40
0
40
0
40
0.0762840566433901
40
0.0762840566433901
40
1
40
1
40
1
40
1
41
1
10
48.9065084491738
20
15.9051876744274
30
0
41
1
10
48.9054486723054
20
15.9046797442818
30
0
41
1
10
48.9043872680981
20
15.9041732326678
30
0
41
1
10
48.8904798567387
20
15.8974965559658
30
0
41
1
10
48.8775721362027
20
15.891106851981
30
0
41
1
10
48.8648003373363
20
15.8845873111784
30
0
0
SPLINE
5
2AA
100
AcDbEntity
8
1
62
256
6
ByLayer
370
13
48
1
60
0
100
AcDbSpline
70
4
71
3
72
8
73
4
40
0
40
0
40
0
40
0
40
1
40
1
40
1
40
1
41
1
10
49.1760620928796
20
11.9464050358281
30
0
41
1
10
49.1330676502929
20
11.9733302190706
30
0
41
1
10
49.0892117851802
20
11.9988829147204
30
0
41
1
10
49.0447669894049
20
12.0232887100249
30
0
0
SPLINE
5
2AB
100
AcDbEntity
8
1
62
256
6
ByLayer
370
13
48
1
60
0
100
AcDbSpline
70
4
71
3
72
8
73
4
40
0
40
0
40
0
40
0
40
1
40
1
40
1
40
1
41
1
10
48.6704998734366
20
16.3823031662962
30
0
41
1
10
48.6746650888764
20
16.3840635437105
30
0
41
1
10
48.6788291235697
20
16.3858262039533
30
0
41
1
10
48.6829919691149
20
16.387591135399
30
0
0
SPLINE
5
2AC
100
AcDbEntity
8
1
62
256
6
ByLayer
370
13
48
1
60
0
100
AcDbSpline
70
4
71
3
72
8
73
4
40
0
40
0
40
0
40
0
40
1
40
1
40
1
40
1
41
1
10
45.1488329740574
20
15.3686194084058
30
0
41
1
10
45.1737741561621
20
15.3725226078763
30
0
41
1
10
45.198268954169
20
15.3784034458617
30
0
41
1
10
45.2218692005293
20
15.3857131582787
30
0
0
SPLINE
5
2AD
100
AcDbEntity
8
1
62
256
6
ByLayer
370
13
48
1
60
0
100
AcDbSpline
70
4
71
3
72
8
73
4
40
0
40
0
40
0
40
0
40
1
40
1
40
1
40
1
41
1
10
48.3613181945758
20
16.4945835503309
30
0
41
1
10
48.3542752074691
20
16.491934874014
30
0
41
1
10
48.3472260961064
20
16.489302145043
30
0
41
1
10
48.3401710352686
20
16.4866852326682
30
0
0
SPLINE
5
2AE
100
AcDbEntity
8
1
62
256
6
ByLayer
370
13
48
1
60
0
100
AcDbSpline
70
4
71
3
72
8
73
4
40
0
40
0
40
0
40
0
40
1
40
1
40
1
40
1
41
1
10
48.6209469220189
20
12.1895766151858
30
0
41
1
10
48.6160089160267
20
12.1908379494226
30
0
41
1
10
48.6110855245221
20
12.1921798174219
30
0
41
1
10
48.60618321608
20
12.1936034891711
30
0
0
SPLINE
5
2AF
100
AcDbEntity
8
1
62
256
6
ByLayer
370
13
48
1
60
0
100
AcDbSpline
70
4
71
3
72
8
73
4
40
0
40
0
40
0
40
0
40
1
40
1
40
1
40
1
41
1
10
47.79156238069
20
15.7489673419037
30
0
41
1
10
47.8343792184332
20
15.7409697040058
30
0
41
1
10
47.8764505849298
20
15.7290833937884
30
0
41
1
10
47.9166804451044
20
15.7138922924177
30
0
0
SPLINE
5
2B0
100
AcDbEntity
8
1
62
256
6
ByLayer
370
13
48
1
60
0
100
AcDbSpline
70
4
71
3
72
8
73
4
40
0
40
0
40
0
40
0
40
1
40
1
40
1
40
1
41
1
10
48.1333151391335
20
15.8088803064771
30
0
41
1
10
48.1128580907964
20
15.8108433548252
30
0
41
1
10
48.09237010743
20
15.8126551019423
30
0
41
1
10
48.0718661171761
20
15.8143364733988
30
0
0
SPLINE
5
2B1
100
AcDbEntity
8
1
62
256
6
ByLayer
370
13
48
1
60
0
100
AcDbSpline
70
4
71
3
72
8
73
4
40
0
40
0
40
0
40
0
40
1
40
1
40
1
40
1
41
1
10
48.7515058310459
20
16.0834150101908
30
0
41
1
10
48.7512611140747
20
16.0833050067451
30
0
41
1
10
48.7510163989533
20
16.0831949968262
30
0
41
1
10
48.7507716856813
20
16.0830849804402
30
0
0
SPLINE
5
2B2
100
AcDbEntity
8
1
62
256
6
ByLayer
370
13
48
1
60
0
100
AcDbSpline
70
4
71
3
72
8
73
4
40
0
40
0
40
0
40
0
40
1
40
1
40
1
40
1
41
1
10
48.6209469220189
20
15.8104233848143
30
0
41
1
10
48.6259240337254
20
15.8116947079771
30
0
41
1
10
48.6309178672316
20
15.8128847026101
30
0
41
1
10
48.6359219030158
20
15.8139955606136
30
0
0
SPLINE
5
2B3
100
AcDbEntity
8
1
62
256
6
ByLayer
370
13
48
1
60
0
100
AcDbSpline
70
4
71
3
72
8
73
4
40
0
40
0
40
0
40
0
40
1
40
1
40
1
40
1
41
1
10
48.549683238534
20
11.4300607159202
30
0
41
1
10
48.553671423533
20
11.4283668562923
30
0
41
1
10
48.5576572845809
20
11.4266676116813
30
0
41
1
10
48.5616408036725
20
11.4249630011967
30
0
0
SPLINE
5
2B4
100
AcDbEntity
8
1
62
256
6
ByLayer
370
13
48
1
60
0
100
AcDbSpline
70
4
71
3
72
8
73
4
40
0
40
0
40
0
40
0
40
1
40
1
40
1
40
1
41
1
10
48.5677966553318
20
11.6605392882742
30
0
41
1
10
48.5605431655647
20
11.6635253337166
30
0
41
1
10
48.5532862786723
20
11.6665043961154
30
0
41
1
10
48.5460260607216
20
11.6694764655375
30
0
0
SPLINE
5
2B5
100
AcDbEntity
8
1
62
256
6
ByLayer
370
13
48
1
60
0
100
AcDbSpline
70
4
71
3
72
10
73
6
40
0
40
0
40
0
40
0
40
0.405280592224613
40
0.405280592224613
40
1
40
1
40
1
40
1
41
1
10
48.3396886118677
20
12.3096226734637
30
0
41
1
10
48.3333611488476
20
12.3177105362077
30
0
41
1
10
48.3272182650202
20
12.3258195893017
30
0
41
1
10
48.3125691188402
20
12.345808109257
30
0
41
1
10
48.3042806761192
20
12.3577040002208
30
0
41
1
10
48.2964750271792
20
12.369534939135
30
0
0
SPLINE
5
2B6
100
AcDbEntity
8
1
62
256
6
ByLayer
370
13
48
1
60
0
100
AcDbSpline
70
4
71
3
72
8
73
4
40
0
40
0
40
0
40
0
40
1
40
1
40
1
40
1
41
1
10
47.0000000000001
20
11.0966094280363
30
0
41
1
10
47.0000000000001
20
11.2660630167901
30
0
41
1
10
47.0000000000001
20
11.4355166055439
30
0
41
1
10
47.0000000000001
20
11.6049701942977
30
0
0
SPLINE
5
2B7
100
AcDbEntity
8
1
62
256
6
ByLayer
370
13
48
1
60
0
100
AcDbSpline
70
4
71
3
72
8
73
4
40
0
40
0
40
0
40
0
40
1
40
1
40
1
40
1
41
1
10
47.631075163795
20
12.1100467094323
30
0
41
1
10
47.635554529254
20
12.1256458685027
30
0
41
1
10
47.6405246353072
20
12.1467018901544
30
0
41
1
10
47.645621295671
20
12.1716721021026
30
0
0
SPLINE
5
2B8
100
AcDbEntity
8
1
62
256
6
ByLayer
370
13
48
1
60
0
100
AcDbSpline
70
4
71
3
72
14
73
10
40
0
40
0
40
0
40
0
40
0.0165534603430594
40
0.0165534603430594
40
0.587389014307653
40
0.587389014307653
40
0.692858980763296
40
0.692858980763296
40
1
40
1
40
1
40
1
41
1
10
43.6239821386885
20
14.2833105415308
30
0
41
1
10
43.6235704603021
20
14.2837570426869
30
0
41
1
10
43.6231527888559
20
14.284203959187
30
0
41
1
10
43.6083142224278
20
14.2998476049628
30
0
41
1
10
43.5865486128447
20
14.3152411142905
30
0
41
1
10
43.5539101328021
20
14.3320582900997
30
0
41
1
10
43.5485503698171
20
14.334677003539
30
0
41
1
10
43.527057254551
20
14.3446406997125
30
0
41
1
10
43.5092943657811
20
14.3517344248146
30
0
41
1
10
43.4901630900531
20
14.3583483965958
30
0
0
SPLINE
5
2B9
100
AcDbEntity
8
1
62
256
6
ByLayer
370
18
48
1
60
0
100
AcDbSpline
70
4
71
3
72
8
73
4
40
0
40
0
40
0
40
0
40
1
40
1
40
1
40
1
41
1
10
49.5931425964415
20
12.9542544122204
30
0
41
1
10
49.587678738051
20
13.1125760983817
30
0
41
1
10
49.5838307069815
20
13.2815549866999
30
0
41
1
10
49.5812906265913
20
13.4541680104695
30
0
0
SPLINE
5
2BA
100
AcDbEntity
8
1
62
256
6
ByLayer
370
13
48
1
60
0
100
AcDbSpline
70
4
71
3
72
8
73
4
40
0
40
0
40
0
40
0
40
1
40
1
40
1
40
1
41
1
10
48.1333151391335
20
12.1911196935229
30
0
41
1
10
48.1339070074101
20
12.191182556583
30
0
41
1
10
48.1344988369518
20
12.1912456576434
30
0
41
1
10
48.1350906272073
20
12.191308996878
30
0
0
SPLINE
5
2BB
100
AcDbEntity
8
1
62
256
6
ByLayer
370
18
48
1
60
0
100
AcDbSpline
70
4
71
3
72
8
73
4
40
0
40
0
40
0
40
0
40
1
40
1
40
1
40
1
41
1
10
47.296187844083
20
15.7441236460322
30
0
41
1
10
47.4080154263125
20
15.7541344332067
30
0
41
1
10
47.5237183249656
20
15.7828784646798
30
0
41
1
10
47.6364412607262
20
15.7721711069291
30
0
0
SPLINE
5
2BC
100
AcDbEntity
8
1
62
256
6
ByLayer
370
13
48
1
60
0
100
AcDbSpline
70
4
71
3
72
8
73
4
40
0
40
0
40
0
40
0
40
1
40
1
40
1
40
1
41
1
10
47.7408158168118
20
12.2421877791159
30
0
41
1
10
47.7350441871398
20
12.2412537152757
30
0
41
1
10
47.7292691217604
20
12.2403435396512
30
0
41
1
10
47.7234909295233
20
12.2394573279376
30
0
0
SPLINE
5
2BD
100
AcDbEntity
8
1
62
256
6
ByLayer
370
13
48
1
60
0
100
AcDbSpline
70
4
71
3
72
8
73
4
40
0
40
0
40
0
40
0
40
1
40
1
40
1
40
1
41
1
10
48.1383340901905
20
15.9024139835123
30
0
41
1
10
48.1363635087407
20
15.9024275981342
30
0
41
1
10
48.1343929015704
20
15.9024400755462
30
0
41
1
10
48.132422271337
20
15.9024514238386
30
0
0
SPLINE
5
2BE
100
AcDbEntity
8
1
62
256
6
ByLayer
370
13
48
1
60
0
100
AcDbSpline
70
4
71
3
72
8
73
4
40
0
40
0
40
0
40
0
40
1
40
1
40
1
40
1
41
1
10
47.675902347917
20
11.5119897914924
30
0
41
1
10
47.6801469676249
20
11.5943957234836
30
0
41
1
10
47.684576637097
20
11.6812485850609
30
0
41
1
10
47.6877709780523
20
11.7452405237612
30
0
0
SPLINE
5
2BF
100
AcDbEntity
8
1
62
256
6
ByLayer
370
18
48
1
60
0
100
AcDbSpline
70
4
71
3
72
8
73
4
40
0
40
0
40
0
40
0
40
1
40
1
40
1
40
1
41
1
10
49.5970860899749
20
15.2627433753512
30
0
41
1
10
49.5979987159963
20
15.3401379597504
30
0
41
1
10
49.5987813598682
20
15.4199987919074
30
0
41
1
10
49.5995702589143
20
15.5
30
0
0
SPLINE
5
2C0
100
AcDbEntity
8
1
62
256
6
ByLayer
370
13
48
1
60
0
100
AcDbSpline
70
4
71
3
72
8
73
4
40
0
40
0
40
0
40
0
40
1
40
1
40
1
40
1
41
1
10
48.2329322201165
20
11.5300451482012
30
0
41
1
10
48.2507718090995
20
11.5309498789885
30
0
41
1
10
48.2688019284835
20
11.5300197316045
30
0
41
1
10
48.2864533085229
20
11.527285120332
30
0
0
SPLINE
5
2C1
100
AcDbEntity
8
1
62
256
6
ByLayer
370
13
48
1
60
0
100
AcDbSpline
70
4
71
3
72
8
73
4
40
0
40
0
40
0
40
0
40
1
40
1
40
1
40
1
41
1
10
48.8068168102954
20
12.1463821091032
30
0
41
1
10
48.7904328415089
20
12.1555231644173
30
0
41
1
10
48.7745142858404
20
12.1647431174673
30
0
41
1
10
48.7594785615561
20
12.1736996683199
30
0
0
SPLINE
5
2C2
100
AcDbEntity
8
1
62
256
6
ByLayer
370
13
48
1
60
0
100
AcDbSpline
70
4
71
3
72
8
73
4
40
0
40
0
40
0
40
0
40
1
40
1
40
1
40
1
41
1
10
48.3396886118677
20
15.6903773265363
30
0
41
1
10
48.381937874527
20
15.7101879304488
30
0
41
1
10
48.4282116293392
20
15.7345583143962
30
0
41
1
10
48.4763488059907
20
15.7565236068311
30
0
0
SPLINE
5
2C3
100
AcDbEntity
8
1
62
256
6
ByLayer
370
13
48
1
60
0
100
AcDbSpline
70
4
71
3
72
8
73
4
40
0
40
0
40
0
40
0
40
1
40
1
40
1
40
1
41
1
10
45.9647023147842
20
15.5794845066912
30
0
41
1
10
45.711538217683
20
15.5245785436025
30
0
41
1
10
45.4635874231275
20
15.4605806264463
30
0
41
1
10
45.2218692005293
20
15.3857131582787
30
0
0
SPLINE
5
2C4
100
AcDbEntity
8
1
62
256
6
ByLayer
370
13
48
1
60
0
100
AcDbSpline
70
4
71
3
72
8
73
4
40
0
40
0
40
0
40
0
40
1
40
1
40
1
40
1
41
1
10
48.7281803124967
20
16.0775775058425
30
0
41
1
10
48.7203743871262
20
16.0757567770947
30
0
41
1
10
48.7125730847456
20
16.0738893351656
30
0
41
1
10
48.7047794882309
20
16.0719724466208
30
0
0
SPLINE
5
2C5
100
AcDbEntity
8
1
62
256
6
ByLayer
370
13
48
1
60
0
100
AcDbSpline
70
4
71
3
72
8
73
4
40
0
40
0
40
0
40
0
40
1
40
1
40
1
40
1
41
1
10
48.6112743152022
20
16.3574597905064
30
0
41
1
10
48.6185134912905
20
16.3604734849803
30
0
41
1
10
48.6257492089483
20
16.3634941406724
30
0
41
1
10
48.6329814138829
20
16.3665217198084
30
0
0
SPLINE
5
2C6
100
AcDbEntity
8
1
62
256
6
ByLayer
370
13
48
1
60
0
100
AcDbSpline
70
4
71
3
72
12
73
8
40
0
40
0
40
0
40
0
40
0.126595665736646
40
0.126595665736646
40
0.412954776386139
40
0.412954776386139
40
1
40
1
40
1
40
1
41
1
10
49.3
20
11.2336620472781
30
0
41
1
10
49.3055765647838
20
11.2338060742533
30
0
41
1
10
49.3111627787902
20
11.2344643465352
30
0
41
1
10
49.3288003096613
20
11.2381874725366
30
0
41
1
10
49.3405462388879
20
11.2433751965401
30
0
41
1
10
49.3727062361442
20
11.2636126607405
30
0
41
1
10
49.390923447243
20
11.2821079561325
30
0
41
1
10
49.4090128030826
20
11.2999999999967
30
0
0
SPLINE
5
2C7
100
AcDbEntity
8
1
62
256
6
ByLayer
370
13
48
1
60
0
100
AcDbSpline
70
4
71
3
72
28
73
24
40
0
40
0
40
0
40
0
40
0.0229934143077544
40
0.0229934143077544
40
0.128011725792349
40
0.128011725792349
40
0.229305265513924
40
0.229305265513924
40
0.328129830635195
40
0.328129830635195
40
0.362636155534996
40
0.362636155534996
40
0.480779658995516
40
0.480779658995516
40
0.598128942163494
40
0.598128942163494
40
0.720300469669123
40
0.720300469669123
40
0.848101221552739
40
0.848101221552739
40
0.971495198820405
40
0.971495198820405
40
1
40
1
40
1
40
1
41
1
10
48.2408138737783
20
12.4726300418384
30
0
41
1
10
48.2388493270533
20
12.4774930227675
30
0
41
1
10
48.2371189091745
20
12.4824694531578
30
0
41
1
10
48.2289358942438
20
12.5103610951669
30
0
41
1
10
48.2271881355798
20
12.5355581885706
30
0
41
1
10
48.233984636385
20
12.5855053042676
30
0
41
1
10
48.2422670568049
20
12.6109441173184
30
0
41
1
10
48.2671272257888
20
12.658701613455
30
0
41
1
10
48.2838531739458
20
12.6817502379902
30
0
41
1
10
48.3106168994869
20
12.7095404513716
30
0
41
1
10
48.3180282855937
20
12.7165443875188
30
0
41
1
10
48.3518885884218
20
12.7456697331465
30
0
41
1
10
48.3823466523738
20
12.7646700065209
30
0
41
1
10
48.4454183487516
20
12.7927121221186
30
0
41
1
10
48.4789842092365
20
12.802233474795
30
0
41
1
10
48.5466205369648
20
12.8114522465254
30
0
41
1
10
48.5815865558034
20
12.8108690113933
30
0
41
1
10
48.6485897215335
20
12.7989834218105
30
0
41
1
10
48.6814237342445
20
12.7869986166363
30
0
41
1
10
48.7367300056093
20
12.7534967843249
30
0
41
1
10
48.7603548107668
20
12.7317535763955
30
0
41
1
10
48.7812573426557
20
12.7008512561013
30
0
41
1
10
48.7848940351992
20
12.6947667274388
30
0
41
1
10
48.7881525715215
20
12.6885198730201
30
0
0
SPLINE
5
2C8
100
AcDbEntity
8
1
62
256
6
ByLayer
370
13
48
1
60
0
100
AcDbSpline
70
4
71
3
72
12
73
8
40
0
40
0
40
0
40
0
40
0.0117976486322287
40
0.0588549034592654
40
0.247083922767412
40
0.623541961383706
40
1
40
1
40
1
40
1
41
1
10
47.2890221669292
20
15.8637166080501
30
0
41
1
10
47.2890612860015
20
15.8630637226886
30
0
41
1
10
47.2892321474058
20
15.8602120980618
30
0
41
1
10
47.289745396837
20
15.8516461218893
30
0
41
1
10
47.2912219651966
20
15.8270026471711
30
0
41
1
10
47.2934250413864
20
15.7902339787674
30
0
41
1
10
47.2952585838946
20
15.7596327145888
30
0
41
1
10
47.2961878440813
20
15.7441236460324
30
0
0
SPLINE
5
2C9
100
AcDbEntity
8
1
62
256
6
ByLayer
370
18
48
1
60
0
100
AcDbSpline
70
4
71
3
72
12
73
8
40
0
40
0
40
0
40
0
40
0.473188120093456
40
0.473188120093456
40
0.762428297819214
40
0.762428297819214
40
1
40
1
40
1
40
1
41
1
10
47
20
16.907833331602
30
0
41
1
10
46.8500193483707
20
16.9012850349338
30
0
41
1
10
46.7000394035795
20
16.8947209044711
30
0
41
1
10
46.4583831346807
20
16.8841423404041
30
0
41
1
10
46.3667067271491
20
16.8801287150861
30
0
41
1
10
46.1997303057052
20
16.872823269384
30
0
41
1
10
46.1244303315441
20
16.869530574082
30
0
41
1
10
46.0491302033295
20
16.8662413187843
30
0
0
SPLINE
5
2CA
100
AcDbEntity
8
1
62
256
6
ByLayer
370
13
48
1
60
0
100
AcDbSpline
70
4
71
3
72
8
73
4
40
0
40
0
40
0
40
0
40
1
40
1
40
1
40
1
41
1
10
48.5676365699848
20
11.9677294628365
30
0
41
1
10
48.5751088642765
20
11.9652068734655
30
0
41
1
10
48.582599916396
20
11.9627418659033
30
0
41
1
10
48.5901075129053
20
11.9603336712725
30
0
0
SPLINE
5
2CB
100
AcDbEntity
8
1
62
256
6
ByLayer
370
18
48
1
60
0
100
AcDbSpline
70
4
71
3
72
10
73
6
40
0
40
0
40
0
40
0
40
0.224975900359402
40
0.224975900359402
40
1
40
1
40
1
40
1
41
1
10
48.2138402616837
20
15.9138956340382
30
0
41
1
10
48.2120593575571
20
15.9129619795939
30
0
41
1
10
48.2102719594456
20
15.9120446219816
30
0
41
1
10
48.2023841470655
20
15.9079792987073
30
0
41
1
10
48.1963447568496
20
15.9049155186003
30
0
41
1
10
48.1903913856544
20
15.901964557944
30
0
0
SPLINE
5
2CC
100
AcDbEntity
8
1
62
256
6
ByLayer
370
13
48
1
60
0
100
AcDbSpline
70
4
71
3
72
8
73
4
40
0
40
0
40
0
40
0
40
1
40
1
40
1
40
1
41
1
10
48.5616408036899
20
11.4249630011893
30
0
41
1
10
48.5656245728578
20
11.4232582836936
30
0
41
1
10
48.569606006912
20
11.4215481959383
30
0
41
1
10
48.5735850890822
20
11.4198327595644
30
0
0
SPLINE
5
2CD
100
AcDbEntity
8
1
62
256
6
ByLayer
370
13
48
1
60
0
100
AcDbSpline
70
4
71
3
72
8
73
4
40
0
40
0
40
0
40
0
40
1
40
1
40
1
40
1
41
1
10
47.7521435364737
20
15.9019040832851
30
0
41
1
10
47.7454721861247
20
15.9016877598395
30
0
41
1
10
47.7388024261769
20
15.9014240578265
30
0
41
1
10
47.7321353515756
20
15.9011129032188
30
0
0
SPLINE
5
2CE
100
AcDbEntity
8
1
62
256
6
ByLayer
370
13
48
1
60
0
100
AcDbSpline
70
4
71
3
72
8
73
4
40
0
40
0
40
0
40
0
40
1
40
1
40
1
40
1
41
1
10
48.0591730137739
20
12.3565772463846
30
0
41
1
10
48.0676714457117
20
12.3149195022981
30
0
41
1
10
48.0851737575816
20
12.2712381417459
30
0
41
1
10
48.1104320378299
20
12.2286128160356
30
0
0
SPLINE
5
2CF
100
AcDbEntity
8
1
62
256
6
ByLayer
370
13
48
1
60
0
100
AcDbSpline
70
4
71
3
72
8
73
4
40
0
40
0
40
0
40
0
40
1
40
1
40
1
40
1
41
1
10
47.732135605736
20
12.098892189192
30
0
41
1
10
47.7350058010255
20
12.1160619418399
30
0
41
1
10
47.7381049968067
20
12.1398525109982
30
0
41
1
10
47.7411583357211
20
12.1681767666157
30
0
0
SPLINE
5
2D0
100
AcDbEntity
8
1
62
256
6
ByLayer
370
13
48
1
60
0
100
AcDbSpline
70
4
71
3
72
8
73
4
40
0
40
0
40
0
40
0
40
1
40
1
40
1
40
1
41
1
10
48.8648003373389
20
12.1154126888203
30
0
41
1
10
48.8451107479208
20
12.1254635111779
30
0
41
1
10
48.8255504098525
20
12.1359301318082
30
0
41
1
10
48.806816810296
20
12.1463821091029
30
0
0
SPLINE
5
2D1
100
AcDbEntity
8
1
62
256
6
ByLayer
370
13
48
1
60
0
100
AcDbSpline
70
4
71
3
72
8
73
4
40
0
40
0
40
0
40
0
40
1
40
1
40
1
40
1
41
1
10
48.6821324141415
20
12.1779094289897
30
0
41
1
10
48.6769272366318
20
12.1785941491092
30
0
41
1
10
48.6717187270973
20
12.1793505458929
30
0
41
1
10
48.6665132813234
20
12.180183326262
30
0
0
SPLINE
5
2D2
100
AcDbEntity
8
1
62
256
6
ByLayer
370
13
48
1
60
0
100
AcDbSpline
70
4
71
3
72
8
73
4
40
0
40
0
40
0
40
0
40
1
40
1
40
1
40
1
41
1
10
48.4805858669152
20
11.6960404811727
30
0
41
1
10
48.4733039881168
20
11.6989715672824
30
0
41
1
10
48.4660189175329
20
11.701895716466
30
0
41
1
10
48.4587307350278
20
11.7048129556107
30
0
0
SPLINE
5
2D3
100
AcDbEntity
8
1
62
256
6
ByLayer
370
13
48
1
60
0
100
AcDbSpline
70
4
71
3
72
8
73
4
40
0
40
0
40
0
40
0
40
1
40
1
40
1
40
1
41
1
10
46.4249063417946
20
12.00755824363
30
0
41
1
10
46.2893370251233
20
12.0505475840448
30
0
41
1
10
46.1473615103141
20
12.0832336188395
30
0
41
1
10
46.0044717327584
20
12.0867809001382
30
0
0
SPLINE
5
2D4
100
AcDbEntity
8
1
62
256
6
ByLayer
370
13
48
1
60
0
100
AcDbSpline
70
4
71
3
72
8
73
4
40
0
40
0
40
0
40
0
40
1
40
1
40
1
40
1
41
1
10
48.319965552646
20
11.7496150929131
30
0
41
1
10
48.2878098311354
20
11.7553992603742
30
0
41
1
10
48.2548819261955
20
11.7578692168415
30
0
41
1
10
48.2222385465932
20
11.7569451982808
30
0
0
SPLINE
5
2D5
100
AcDbEntity
8
1
62
256
6
ByLayer
370
13
48
1
60
0
100
AcDbSpline
70
4
71
3
72
8
73
4
40
0
40
0
40
0
40
0
40
1
40
1
40
1
40
1
41
1
10
48.2408138737781
20
15.5273699581619
30
0
41
1
10
48.2542647581336
20
15.560665879948
30
0
41
1
10
48.2733962141757
20
15.595484749944
30
0
41
1
10
48.2964750271759
20
15.6304650608599
30
0
0
SPLINE
5
2D6
100
AcDbEntity
8
1
62
256
6
ByLayer
370
13
48
1
60
0
100
AcDbSpline
70
4
71
3
72
8
73
4
40
0
40
0
40
0
40
0
40
1
40
1
40
1
40
1
41
1
10
47.7251482641532
20
15.9359010504773
30
0
41
1
10
47.7179725866135
20
15.9756413992703
30
0
41
1
10
47.7100061958704
20
16.0309835405486
30
0
41
1
10
47.703237684077
20
16.0882925250176
30
0
0
SPLINE
5
2D7
100
AcDbEntity
8
1
62
256
6
ByLayer
370
13
48
1
60
0
100
AcDbSpline
70
4
71
3
72
10
73
6
40
0
40
0
40
0
40
0
40
0.0008284803462704
40
0.0008284803462704
40
1
40
1
40
1
40
1
41
1
10
49.52573622742
20
15.0690073291205
30
0
41
1
10
49.5257548496025
20
15.0690009257005
30
0
41
1
10
49.5257734717843
20
15.0689945222872
30
0
41
1
10
49.5482516004838
20
15.0612651670441
30
0
41
1
10
49.5707019819771
20
15.0535181595139
30
0
41
1
10
49.5931426257589
20
15.045745620004
30
0
0
SPLINE
5
2D8
100
AcDbEntity
8
1
62
256
6
ByLayer
370
13
48
1
60
0
100
AcDbSpline
70
4
71
3
72
20
73
16
40
0
40
0
40
0
40
0
40
0.0757314374928493
40
0.0757314374928493
40
0.281367462382473
40
0.281367462382473
40
0.43529642945448
40
0.43529642945448
40
0.612829509115955
40
0.612829509115955
40
0.791646515465603
40
0.791646515465603
40
0.979316934342291
40
0.979316934342291
40
1
40
1
40
1
40
1
41
1
10
45.3153380276099
20
15.0594735185791
30
0
41
1
10
45.267138878762
20
15.0212625853242
30
0
41
1
10
45.2207152799762
20
14.9805306744872
30
0
41
1
10
45.058441516045
20
14.8215022202709
30
0
41
1
10
44.9553404206691
20
14.685097061372
30
0
41
1
10
44.8255041129299
20
14.4229771024563
30
0
41
1
10
44.7851142026622
20
14.3006667377088
30
0
41
1
10
44.741406527514
20
14.0334668246628
30
0
41
1
10
44.7442585837056
20
13.8837978208882
30
0
41
1
10
44.8018855964401
20
13.5994748039485
30
0
41
1
10
44.8576535315816
20
13.4607043458244
30
0
41
1
10
45.0105691898161
20
13.2065074899956
30
0
41
1
10
45.1112991986696
20
13.088987145099
30
0
41
1
10
45.236338965623
20
12.9773912958693
30
0
41
1
10
45.2490303069422
20
12.9663987272416
30
0
41
1
10
45.261871652138
20
12.955596939595
30
0
0
SPLINE
5
2D9
100
AcDbEntity
8
1
62
256
6
ByLayer
370
13
48
1
60
0
100
AcDbSpline
70
4
71
3
72
8
73
4
40
0
40
0
40
0
40
0
40
1
40
1
40
1
40
1
41
1
10
48.7555363061484
20
11.9227275876821
30
0
41
1
10
48.7680894292275
20
11.9329877515139
30
0
41
1
10
48.7807768973381
20
11.9449026011462
30
0
41
1
10
48.7932468780271
20
11.9581225260007
30
0
0
SPLINE
5
2DA
100
AcDbEntity
8
1
62
256
6
ByLayer
370
18
48
1
60
0
100
AcDbSpline
70
4
71
3
72
8
73
4
40
0
40
0
40
0
40
0
40
1
40
1
40
1
40
1
41
1
10
48.8825161901858
20
16.6995177262385
30
0
41
1
10
48.9069289714629
20
16.6281556114502
30
0
41
1
10
48.9315020768134
20
16.5529827512959
30
0
41
1
10
48.9494927365344
20
16.4939823825529
30
0
0
SPLINE
5
2DB
100
AcDbEntity
8
1
62
256
6
ByLayer
370
13
48
1
60
0
100
AcDbSpline
70
4
71
3
72
8
73
4
40
0
40
0
40
0
40
0
40
1
40
1
40
1
40
1
41
1
10
48.0591730137738
20
12.3565772463846
30
0
41
1
10
48.0463888361772
20
12.3493128440976
30
0
41
1
10
48.0336199091963
20
12.3420893220241
30
0
41
1
10
48.0208798836103
20
12.3348978048719
30
0
0
SPLINE
5
2DC
100
AcDbEntity
8
1
62
256
6
ByLayer
370
18
48
1
60
0
100
AcDbSpline
70
4
71
3
72
8
73
4
40
0
40
0
40
0
40
0
40
1
40
1
40
1
40
1
41
1
10
49.1253841571116
20
16.9993603265577
30
0
41
1
10
49.1502613325694
20
16.9998136218981
30
0
41
1
10
49.1751438271317
20
17.0000345545327
30
0
41
1
10
49.2000251289714
20
17.0000230721855
30
0
0
SPLINE
5
2DD
100
AcDbEntity
8
1
62
256
6
ByLayer
370
13
48
1
60
0
100
AcDbSpline
70
4
71
3
72
10
73
6
40
0
40
0
40
0
40
0
40
0.253003115223954
40
0.253003115223954
40
1
40
1
40
1
40
1
41
1
10
45.1663461399326
20
12.6317120589851
30
0
41
1
10
45.1613297940147
20
12.6333071632085
30
0
41
1
10
45.1562730926922
20
12.6348298648905
30
0
41
1
10
45.1361687178615
20
12.6405388344908
30
0
41
1
10
45.1208046412342
20
12.6441519149764
30
0
41
1
10
45.1052192301256
20
12.6469572607622
30
0
0
SPLINE
5
2DE
100
AcDbEntity
8
1
62
256
6
ByLayer
370
13
48
1
60
0
100
AcDbSpline
70
4
71
3
72
8
73
4
40
0
40
0
40
0
40
0
40
1
40
1
40
1
40
1
41
1
10
45.9771717426968
20
15.5823347180327
30
0
41
1
10
45.9730140683332
20
15.5813835130696
30
0
41
1
10
45.9688575812662
20
15.5804334346325
30
0
41
1
10
45.9647023147842
20
15.5794845066912
30
0
0
SPLINE
5
2DF
100
AcDbEntity
8
1
62
256
6
ByLayer
370
13
48
1
60
0
100
AcDbSpline
70
4
71
3
72
26
73
22
40
0
40
0
40
0
40
0
40
0.0118737075174625
40
0.0118737075174625
40
0.0226461272403564
40
0.0226461272403564
40
0.0360264457089613
40
0.0360264457089613
40
0.0573861628740215
40
0.0573861628740215
40
0.091532348736313
40
0.091532348736313
40
0.146349722604989
40
0.146349722604989
40
0.235416431403918
40
0.235416431403918
40
0.385366672882086
40
0.385366672882086
40
0.502080648992019
40
0.502080648992019
40
1
40
1
40
1
40
1
41
1
10
44.8330892411893
20
12.8514847340361
30
0
41
1
10
44.8340704174732
20
12.8506043328798
30
0
41
1
10
44.8350531667764
20
12.8497236265632
30
0
41
1
10
44.8369454185622
20
12.848032291412
30
0
41
1
10
44.8378544587718
20
12.8472213872023
30
0
41
1
10
44.8398961702836
20
12.845403704627
30
0
41
1
10
44.84102972537
20
12.8443970130104
30
0
41
1
10
44.8439790481935
20
12.8417841990223
30
0
41
1
10
44.8457986140224
20
12.8401785390144
30
0
41
1
10
44.8505422435473
20
12.8360088711805
30
0
41
1
10
44.8534758231572
20
12.8334462290168
30
0
41
1
10
44.8611555707713
20
12.8267789540622
30
0
41
1
10
44.8659255342081
20
12.8226786082008
30
0
41
1
10
44.8785306771218
20
12.811949041905
30
0
41
1
10
44.8864259188356
20
12.8053345006965
30
0
41
1
10
44.9077959883218
20
12.7877113954636
30
0
41
1
10
44.9214304082037
20
12.7767613071349
30
0
41
1
10
44.9459101676066
20
12.7576140714698
30
0
41
1
10
44.9567241347781
20
12.7493288541804
30
0
41
1
10
45.0132344882074
20
12.706925463075
30
0
41
1
10
45.0606686986384
20
12.6744434977079
30
0
41
1
10
45.1052192301256
20
12.6469572607622
30
0
0
SPLINE
5
2E0
100
AcDbEntity
8
1
62
256
6
ByLayer
370
13
48
1
60
0
100
AcDbSpline
70
4
71
3
72
8
73
4
40
0
40
0
40
0
40
0
40
1
40
1
40
1
40
1
41
1
10
48.7932468780101
20
11.9581225259982
30
0
41
1
10
48.7956228027206
20
11.9606413361396
30
0
41
1
10
48.7979936105664
20
11.9632099069877
30
0
41
1
10
48.8003567929701
20
11.9658253328813
30
0
0
SPLINE
5
2E1
100
AcDbEntity
8
1
62
256
6
ByLayer
370
13
48
1
60
0
100
AcDbSpline
70
4
71
3
72
8
73
4
40
0
40
0
40
0
40
0
40
1
40
1
40
1
40
1
41
1
10
48.5231502777687
20
11.9835197529539
30
0
41
1
10
48.5305184819129
20
11.9807737965809
30
0
41
1
10
48.5379082971913
20
11.9780860407858
30
0
41
1
10
48.5453177155276
20
11.9754563386181
30
0
0
SPLINE
5
2E2
100
AcDbEntity
8
1
62
256
6
ByLayer
370
13
48
1
60
0
100
AcDbSpline
70
4
71
3
72
8
73
4
40
0
40
0
40
0
40
0
40
1
40
1
40
1
40
1
41
1
10
48.5916290701336
20
15.8019071065528
30
0
41
1
10
48.5964572596188
20
15.8034851466427
30
0
41
1
10
48.601310757391
20
15.8049815077001
30
0
41
1
10
48.60618321608
20
15.8063965108289
30
0
0
SPLINE
5
2E3
100
AcDbEntity
8
1
62
256
6
ByLayer
370
13
48
1
60
0
100
AcDbSpline
70
4
71
3
72
8
73
4
40
0
40
0
40
0
40
0
40
1
40
1
40
1
40
1
41
1
10
48.1350906272073
20
15.8086910031221
30
0
41
1
10
48.1344988369518
20
15.8087543423566
30
0
41
1
10
48.1339070074101
20
15.8088174434171
30
0
41
1
10
48.1333151391335
20
15.8088803064771
30
0
0
SPLINE
5
2E4
100
AcDbEntity
8
1
62
256
6
ByLayer
370
18
48
1
60
0
100
AcDbSpline
70
4
71
3
72
8
73
4
40
0
40
0
40
0
40
0
40
1
40
1
40
1
40
1
41
1
10
49.5774062521179
20
13.9999999338227
30
0
41
1
10
49.5774072248595
20
14.1833867912858
30
0
41
1
10
49.5786607671738
20
14.3680519754149
30
0
41
1
10
49.5812841794278
20
14.5463142147512
30
0
0
SPLINE
5
2E5
100
AcDbEntity
8
1
62
256
6
ByLayer
370
13
48
1
60
0
100
AcDbSpline
70
4
71
3
72
8
73
4
40
0
40
0
40
0
40
0
40
1
40
1
40
1
40
1
41
1
10
48.2222385465933
20
11.7569451982943
30
0
41
1
10
48.195711580666
20
11.7560549584569
30
0
41
1
10
48.1691911256232
20
11.7550671852288
30
0
41
1
10
48.1426803174655
20
11.7539853832403
30
0
0
SPLINE
5
2E6
100
AcDbEntity
8
1
62
256
6
ByLayer
370
13
48
1
60
0
100
AcDbSpline
70
4
71
3
72
8
73
4
40
0
40
0
40
0
40
0
40
1
40
1
40
1
40
1
41
1
10
48.4663953792872
20
11.4645143696898
30
0
41
1
10
48.4733637546295
20
11.4617081334038
30
0
41
1
10
48.4803254714617
20
11.458885598014
30
0
41
1
10
48.487280397767
20
11.4560467738386
30
0
0
SPLINE
5
2E7
100
AcDbEntity
8
1
62
256
6
ByLayer
370
13
48
1
60
0
100
AcDbSpline
70
4
71
3
72
8
73
4
40
0
40
0
40
0
40
0
40
1
40
1
40
1
40
1
41
1
10
48.4663953792878
20
16.5354856303105
30
0
41
1
10
48.4594258636835
20
16.5326789348294
30
0
41
1
10
48.4524496489786
20
16.5298885271523
30
0
41
1
10
48.4454668759635
20
16.5271143936833
30
0
0
SPLINE
5
2E8
100
AcDbEntity
8
1
62
256
6
ByLayer
370
13
48
1
60
0
100
AcDbSpline
70
4
71
3
72
10
73
6
40
0
40
0
40
0
40
0
40
0.999897275492543
40
0.999897275492543
40
1
40
1
40
1
40
1
41
1
10
48.9803315895941
20
15.2506574484951
30
0
41
1
10
49.163057260672
20
15.1927946669066
30
0
41
1
10
49.3439707952222
20
15.1295689609831
30
0
41
1
10
49.5256944163087
20
15.0691797709701
30
0
41
1
10
49.5257130837922
20
15.0691735675774
30
0
41
1
10
49.5257317512729
20
15.0691673641625
30
0
0
SPLINE
5
2E9
100
AcDbEntity
8
1
62
256
6
ByLayer
370
13
48
1
60
0
100
AcDbSpline
70
4
71
3
72
8
73
4
40
0
40
0
40
0
40
0
40
1
40
1
40
1
40
1
41
1
10
48.63551099324
20
16.0534942756315
30
0
41
1
10
48.6279041942021
20
16.0512972810358
30
0
41
1
10
48.6203105039504
20
16.0490457357981
30
0
41
1
10
48.612732349232
20
16.0467382427657
30
0
0
SPLINE
5
2EA
100
AcDbEntity
8
1
62
256
6
ByLayer
370
13
48
1
60
0
100
AcDbSpline
70
4
71
3
72
26
73
22
40
0
40
0
40
0
40
0
40
0.0121737243132246
40
0.0121737243132246
40
0.0206756295318642
40
0.0206756295318642
40
0.0329249259548947
40
0.0329249259548947
40
0.0524979046361508
40
0.0524979046361508
40
0.0838075523989333
40
0.0838075523989333
40
0.1340568995309
40
0.1340568995309
40
0.215466821412691
40
0.215466821412691
40
0.351029108198931
40
0.351029108198931
40
0.507602589974032
40
0.507602589974032
40
1
40
1
40
1
40
1
41
1
10
44.8790160745717
20
15.1745392077167
30
0
41
1
10
44.8800176688895
20
15.1754035242508
30
0
41
1
10
44.8810208320786
20
15.176268018236
30
0
41
1
10
44.8827380691821
20
15.1777438699737
30
0
41
1
10
44.8834510302485
20
15.1783556339561
30
0
41
1
10
44.8851934823566
20
15.179848378208
30
0
41
1
10
44.8862239929944
20
15.1807291817879
30
0
41
1
10
44.8889060695185
20
15.1830163677276
30
0
41
1
10
44.8905606478691
20
15.1844221841606
30
0
41
1
10
44.8948741183559
20
15.1880737832378
30
0
41
1
10
44.8975405801957
20
15.1903179907002
30
0
41
1
10
44.9045159554969
20
15.1961548028447
30
0
41
1
10
44.9088438312865
20
15.1997428189241
30
0
41
1
10
44.9202524343112
20
15.2091141770764
30
0
41
1
10
44.9273808963617
20
15.2148831575136
30
0
41
1
10
44.946531386281
20
15.2301534693353
30
0
41
1
10
44.9586779430269
20
15.2396036836827
30
0
41
1
10
44.9850941261854
20
15.2596569785976
30
0
41
1
10
44.9994365904184
20
15.2702387320609
30
0
41
1
10
45.0586081475736
20
15.3126541164652
30
0
41
1
10
45.1049876501874
20
15.342924625302
30
0
41
1
10
45.1488329740574
20
15.3686194084058
30
0
0
SPLINE
5
2EB
100
AcDbEntity
8
1
62
256
6
ByLayer
370
13
48
1
60
0
100
AcDbSpline
70
4
71
3
72
8
73
4
40
0
40
0
40
0
40
0
40
1
40
1
40
1
40
1
41
1
10
48.7469132650806
20
15.827312246935
30
0
41
1
10
48.7504688123718
20
15.8273614145035
30
0
41
1
10
48.754057467254
20
15.8271649331896
30
0
41
1
10
48.757610115657
20
15.826620573638
30
0
0
SPLINE
5
2EC
100
AcDbEntity
8
1
62
256
6
ByLayer
370
13
48
1
60
0
100
AcDbSpline
70
4
71
3
72
8
73
4
40
0
40
0
40
0
40
0
40
1
40
1
40
1
40
1
41
1
10
48.6821324141415
20
15.8220905710103
30
0
41
1
10
48.6874147210658
20
15.8227854371934
30
0
41
1
10
48.6926953679315
20
15.8234067277035
30
0
41
1
10
48.6979680340497
20
15.8239598941093
30
0
0
SPLINE
5
2ED
100
AcDbEntity
8
1
62
256
6
ByLayer
370
13
48
1
60
0
100
AcDbSpline
70
4
71
3
72
12
73
8
40
0
40
0
40
0
40
0
40
0.479946025428511
40
0.479946025428511
40
0.999912389962867
40
0.999912389962867
40
1
40
1
40
1
40
1
41
1
10
46.3494567864937
20
11.8057780391846
30
0
41
1
10
46.4505302440409
20
11.7651544586359
30
0
41
1
10
46.5518248750018
20
11.7247145371445
30
0
41
1
10
46.767471109021
20
11.6530269888778
30
0
41
1
10
46.8828707362143
20
11.6222974258892
30
0
41
1
10
46.9999604345994
20
11.6049760461368
30
0
41
1
10
46.9999802173162
20
11.6049731203458
30
0
41
1
10
47
20
11.6049701942977
30
0
0
SPLINE
5
2EE
100
AcDbEntity
8
1
62
256
6
ByLayer
370
13
48
1
60
0
100
AcDbSpline
70
4
71
3
72
8
73
4
40
0
40
0
40
0
40
0
40
1
40
1
40
1
40
1
41
1
10
47.7414351429146
20
16.4902506778799
30
0
41
1
10
47.7195815463634
20
16.4898721525471
30
0
41
1
10
47.6977309752335
20
16.4891238716765
30
0
41
1
10
47.6759025432335
20
16.4880064998103
30
0
0
SPLINE
5
2EF
100
AcDbEntity
8
1
62
256
6
ByLayer
370
18
48
1
60
0
100
AcDbSpline
70
4
71
3
72
18
73
14
40
0
40
0
40
0
40
0
40
0.56355551929758
40
0.56355551929758
40
0.706157369198558
40
0.706157369198558
40
0.8476657072042
40
0.8476657072042
40
0.908967419554922
40
0.908967419554922
40
0.960858955127978
40
0.960858955127978
40
1
40
1
40
1
40
1
41
1
10
48.2113098780262
20
15.830531201319
30
0
41
1
10
48.2044138361007
20
15.8463024022369
30
0
41
1
10
48.1970850046236
20
15.8608860624962
30
0
41
1
10
48.1894447510552
20
15.8774611795142
30
0
41
1
10
48.1879794952601
20
15.8807598152513
30
0
41
1
10
48.185606990282
20
15.887175817315
30
0
41
1
10
48.1846227014504
20
15.8903316382848
30
0
41
1
10
48.1845930337916
20
15.894697778138
30
0
41
1
10
48.1847861474796
20
15.8960146750378
30
0
41
1
10
48.1858080943318
20
15.8982965278041
30
0
41
1
10
48.1865597340579
20
15.8993012981672
30
0
41
1
10
48.1883795657871
20
15.9008401294239
30
0
41
1
10
48.1893348670588
20
15.9014408639777
30
0
41
1
10
48.1903913856098
20
15.9019645579607
30
0
0
SPLINE
5
2F0
100
AcDbEntity
8
1
62
256
6
ByLayer
370
13
48
1
60
0
100
AcDbSpline
70
4
71
3
72
8
73
4
40
0
40
0
40
0
40
0
40
1
40
1
40
1
40
1
41
1
10
48.949516358124
20
11.5060726035343
30
0
41
1
10
48.904649409651
20
11.5227816730421
30
0
41
1
10
48.8599854482607
20
11.5400405756803
30
0
41
1
10
48.8155438239173
20
11.5577823208236
30
0
0
SPLINE
5
2F1
100
AcDbEntity
8
1
62
256
6
ByLayer
370
18
48
1
60
0
100
AcDbSpline
70
4
71
3
72
8
73
4
40
0
40
0
40
0
40
0
40
1
40
1
40
1
40
1
41
1
10
47.6364488698076
20
15.7722104779662
30
0
41
1
10
47.6395199887753
20
15.790148111468
30
0
41
1
10
47.6425811022887
20
15.8088850254831
30
0
41
1
10
47.6456188726499
20
15.8283395831305
30
0
0
SPLINE
5
2F2
100
AcDbEntity
8
1
62
256
6
ByLayer
370
13
48
1
60
0
100
AcDbSpline
70
4
71
3
72
8
73
4
40
0
40
0
40
0
40
0
40
1
40
1
40
1
40
1
41
1
10
48.9305699234432
20
16.1653825379758
30
0
41
1
10
48.8876182607099
20
16.1449516600188
30
0
41
1
10
48.8444490533785
20
16.1250559445574
30
0
41
1
10
48.8011366675815
20
16.1056227437425
30
0
0
SPLINE
5
2F3
100
AcDbEntity
8
1
62
256
6
ByLayer
370
13
48
1
60
0
100
AcDbSpline
70
4
71
3
72
8
73
4
40
0
40
0
40
0
40
0
40
1
40
1
40
1
40
1
41
1
10
48.5231502777688
20
16.016480247046
30
0
41
1
10
48.4735123832403
20
15.9984032768909
30
0
41
1
10
48.4235236041376
20
15.980784211341
30
0
41
1
10
48.3737330027423
20
15.9639686929709
30
0
0
SPLINE
5
2F4
100
AcDbEntity
8
1
62
256
6
ByLayer
370
13
48
1
60
0
100
AcDbSpline
70
4
71
3
72
8
73
4
40
0
40
0
40
0
40
0
40
1
40
1
40
1
40
1
41
1
10
46.0327268129396
20
12.7729404503615
30
0
41
1
10
45.7698527271151
20
12.8238506575399
30
0
41
1
10
45.5125066778575
20
12.8840049956441
30
0
41
1
10
45.261871652138
20
12.955596939595
30
0
0
SPLINE
5
2F5
100
AcDbEntity
8
1
62
256
6
ByLayer
370
13
48
1
60
0
100
AcDbSpline
70
4
71
3
72
8
73
4
40
0
40
0
40
0
40
0
40
1
40
1
40
1
40
1
41
1
10
47.7408158168118
20
15.757812220884
30
0
41
1
10
47.7577618906644
20
15.7550697173429
30
0
41
1
10
47.7746799864671
20
15.7521207573353
30
0
41
1
10
47.7915623806973
20
15.7489673419267
30
0
0
SPLINE
5
2F6
100
AcDbEntity
8
1
62
256
6
ByLayer
370
18
48
1
60
0
100
AcDbSpline
70
4
71
3
72
8
73
4
40
0
40
0
40
0
40
0
40
1
40
1
40
1
40
1
41
1
10
48.1387687836019
20
12.1900261631412
30
0
41
1
10
48.162473952268
20
12.1818045356637
30
0
41
1
10
48.1869472527841
20
12.1756148601786
30
0
41
1
10
48.2113098780316
20
12.1694687986834
30
0
0
SPLINE
5
2F7
100
AcDbEntity
8
1
62
256
6
ByLayer
370
13
48
1
60
0
100
AcDbSpline
70
4
71
3
72
8
73
4
40
0
40
0
40
0
40
0
40
1
40
1
40
1
40
1
41
1
10
48.5974332539209
20
11.4094752652916
30
0
41
1
10
48.6442545553436
20
11.3889905878256
30
0
41
1
10
48.6915777637058
20
11.3695971395699
30
0
41
1
10
48.7393259367937
20
11.3513348139012
30
0
0
SPLINE
5
2F8
100
AcDbEntity
8
1
62
256
6
ByLayer
370
13
48
1
60
0
100
AcDbSpline
70
4
71
3
72
8
73
4
40
0
40
0
40
0
40
0
40
1
40
1
40
1
40
1
41
1
10
47.6877720844474
20
16.2547578459325
30
0
41
1
10
47.7070761777234
20
16.2557422465672
30
0
41
1
10
47.7263991381602
20
16.2564104027346
30
0
41
1
10
47.7457249471383
20
16.2567617560898
30
0
0
SPLINE
5
2F9
100
AcDbEntity
8
1
62
256
6
ByLayer
370
18
48
1
60
0
100
AcDbSpline
70
4
71
3
72
8
73
4
40
0
40
0
40
0
40
0
40
1
40
1
40
1
40
1
41
1
10
49.2000251289714
20
17.0000230721854
30
0
41
1
10
49.2336382385322
20
17.0000075602401
30
0
41
1
10
49.2675297856103
20
16.9956029472718
30
0
41
1
10
49.3
20
16.9869960989334
30
0
0
SPLINE
5
2FA
100
AcDbEntity
8
1
62
256
6
ByLayer
370
13
48
1
60
0
100
AcDbSpline
70
4
71
3
72
8
73
4
40
0
40
0
40
0
40
0
40
1
40
1
40
1
40
1
41
1
10
48.7449712215412
20
12.1727390103641
30
0
41
1
10
48.7400949698369
20
12.1729280325516
30
0
41
1
10
48.7352009985676
20
12.1731606245921
30
0
41
1
10
48.730293747724
20
12.1734420514712
30
0
0
SPLINE
5
2FB
100
AcDbEntity
8
1
62
256
6
ByLayer
370
13
48
1
60
0
100
AcDbSpline
70
4
71
3
72
8
73
4
40
0
40
0
40
0
40
0
40
1
40
1
40
1
40
1
41
1
10
47
20
11.0921323875743
30
0
41
1
10
47
20
11.093624734395
30
0
41
1
10
47
20
11.0951170812156
30
0
41
1
10
47
20
11.0966094280363
30
0
0
SPLINE
5
2FC
100
AcDbEntity
8
1
62
256
6
ByLayer
370
18
48
1
60
0
100
AcDbSpline
70
4
71
3
72
10
73
6
40
0
40
0
40
0
40
0
40
0.147172701770645
40
0.147172701770645
40
1
40
1
40
1
40
1
41
1
10
47.7251482641528
20
15.9359010504796
30
0
41
1
10
47.7255106385013
20
15.9338990631818
30
0
41
1
10
47.7258710475861
20
15.9319360194256
30
0
41
1
10
47.7282848423622
20
15.9189786077016
30
0
41
1
10
47.7302766722728
20
15.9092254573508
30
0
41
1
10
47.7321403749872
20
15.9010869876379
30
0
0
SPLINE
5
2FD
100
AcDbEntity
8
1
62
256
6
ByLayer
370
18
48
1
60
0
100
AcDbSpline
70
4
71
3
72
10
73
6
40
0
40
0
40
0
40
0
40
0.204285832849756
40
0.204285832849756
40
1
40
1
40
1
40
1
41
1
10
49.1253830882904
20
11.0006151934124
30
0
41
1
10
49.1185866561746
20
11.000737701407
30
0
41
1
10
49.1117905120458
20
11.0008780025879
30
0
41
1
10
49.0785258973899
20
11.0016518243971
30
0
41
1
10
49.0520617664265
20
11.0025374359456
30
0
41
1
10
49.0256107956511
20
11.0036923102705
30
0
0
SPLINE
5
2FE
100
AcDbEntity
8
1
62
256
6
ByLayer
370
13
48
1
60
0
100
AcDbSpline
70
4
71
3
72
8
73
4
40
0
40
0
40
0
40
0
40
1
40
1
40
1
40
1
41
1
10
48.77631836057
20
11.9054567017478
30
0
41
1
10
48.7804539020509
20
11.9036061817033
30
0
41
1
10
48.7845899831721
20
11.9017575628054
30
0
41
1
10
48.7887266056559
20
11.8999108727853
30
0
0
SPLINE
5
2FF
100
AcDbEntity
8
1
62
256
6
ByLayer
370
13
48
1
60
0
100
AcDbSpline
70
4
71
3
72
8
73
4
40
0
40
0
40
0
40
0
40
1
40
1
40
1
40
1
41
1
10
48.6979680340497
20
15.8239598941093
30
0
41
1
10
48.7033278986483
20
15.8245222086897
30
0
41
1
10
48.7086812682998
20
15.8250143178497
30
0
41
1
10
48.7140218791706
20
15.8254423782908
30
0
0
SPLINE
5
300
100
AcDbEntity
8
1
62
256
6
ByLayer
370
13
48
1
60
0
100
AcDbSpline
70
4
71
3
72
8
73
4
40
0
40
0
40
0
40
0
40
1
40
1
40
1
40
1
41
1
10
48.6829919691149
20
11.6124088646011
30
0
41
1
10
48.6788291235697
20
11.6141737960468
30
0
41
1
10
48.6746650888764
20
11.6159364562895
30
0
41
1
10
48.6704998734366
20
11.6176968337039
30
0
0
SPLINE
5
301
100
AcDbEntity
8
1
62
256
6
ByLayer
370
13
48
1
60
0
100
AcDbSpline
70
4
71
3
72
14
73
10
40
0
40
0
40
0
40
0
40
0.0506235582345202
40
0.0506235582345202
40
0.27078713141505
40
0.27078713141505
40
0.962251762207283
40
0.962251762207283
40
1
40
1
40
1
40
1
41
1
10
43.5187934629083
20
13.7867034523576
30
0
41
1
10
43.5183135963341
20
13.7878567735787
30
0
41
1
10
43.5177568815568
20
13.7889627562942
30
0
41
1
10
43.5145211510911
20
13.7945647874037
30
0
41
1
10
43.5109255659681
20
13.7983200725948
30
0
41
1
10
43.4952097771278
20
13.8118520937154
30
0
41
1
10
43.4807878917762
20
13.8184694964382
30
0
41
1
10
43.465597039921
20
13.8245085611812
30
0
41
1
10
43.4648080869709
20
13.8248185408648
30
0
41
1
10
43.4640179336236
20
13.825125404709
30
0
0
SPLINE
5
302
100
AcDbEntity
8
1
62
256
6
ByLayer
370
13
48
1
60
0
100
AcDbSpline
70
4
71
3
72
10
73
6
40
0
40
0
40
0
40
0
40
0.0001660019773297
40
0.0001660019773297
40
1
40
1
40
1
40
1
41
1
10
46
20
11.89412331594
30
0
41
1
10
46.0000199923829
20
11.8941227640113
30
0
41
1
10
46.000039984794
20
11.8941222131083
30
0
41
1
10
46.1204744205474
20
11.890791202773
30
0
41
1
10
46.2383314152635
20
11.8504416984551
30
0
41
1
10
46.3494567864937
20
11.8057780391846
30
0
0
SPLINE
5
303
100
AcDbEntity
8
1
62
256
6
ByLayer
370
13
48
1
60
0
100
AcDbSpline
70
4
71
3
72
8
73
4
40
0
40
0
40
0
40
0
40
1
40
1
40
1
40
1
41
1
10
45.9928470379229
20
15.5859328865369
30
0
41
1
10
45.9876210092493
20
15.5847293324135
30
0
41
1
10
45.9823958986585
20
15.5835299157909
30
0
41
1
10
45.9771717426968
20
15.5823347180327
30
0
0
SPLINE
5
304
100
AcDbEntity
8
1
62
256
6
ByLayer
370
13
48
1
60
0
100
AcDbSpline
70
4
71
3
72
20
73
16
40
0
40
0
40
0
40
0
40
0.0630128960077397
40
0.0630128960077397
40
0.326748649791136
40
0.326748649791136
40
0.386835157945677
40
0.386835157945677
40
0.643510914691829
40
0.643510914691829
40
0.696871937332504
40
0.696871937332504
40
0.948821829844471
40
0.948821829844471
40
1
40
1
40
1
40
1
41
1
10
48.9371816925958
20
12.1427337448859
30
0
41
1
10
48.9453931341021
20
12.1542562089882
30
0
41
1
10
48.9531599013358
20
12.166125229503
30
0
41
1
10
48.9906080389162
20
12.2284630852914
30
0
41
1
10
49.0130839410955
20
12.28437539407
30
0
41
1
10
49.0302854319023
20
12.354205576981
30
0
41
1
10
49.033081379169
20
12.3673931071366
30
0
41
1
10
49.0454136874493
20
12.4363524440227
30
0
41
1
10
49.0477016725801
20
12.4935671280794
30
0
41
1
10
49.0415422491477
20
12.5587328629739
30
0
41
1
10
49.0401463347829
20
12.5699634535037
30
0
41
1
10
49.0304554530919
20
12.6326348129785
30
0
41
1
10
49.0153222644013
20
12.6816481803962
30
0
41
1
10
48.9898222673739
20
12.7326801294995
30
0
41
1
10
48.9852028949996
20
12.7411488076982
30
0
41
1
10
48.9803315895939
20
12.749342551505
30
0
0
SPLINE
5
305
100
AcDbEntity
8
1
62
256
6
ByLayer
370
13
48
1
60
0
100
AcDbSpline
70
4
71
3
72
8
73
4
40
0
40
0
40
0
40
0
40
1
40
1
40
1
40
1
41
1
10
48.7140218791706
20
15.8254423782908
30
0
41
1
10
48.7194593998073
20
15.8258782062398
30
0
41
1
10
48.7248854376138
20
15.8262477863047
30
0
41
1
10
48.730293747724
20
15.8265579485288
30
0
0
SPLINE
5
306
100
AcDbEntity
8
1
62
256
6
ByLayer
370
18
48
1
60
0
100
AcDbSpline
70
4
71
3
72
8
73
4
40
0
40
0
40
0
40
0
40
1
40
1
40
1
40
1
41
1
10
49.5931426165519
20
15.045745623193
30
0
41
1
10
49.5942038567045
20
15.0764962976391
30
0
41
1
10
49.5949794212117
20
15.1080438054816
30
0
41
1
10
49.5954661419978
20
15.1401439611452
30
0
0
SPLINE
5
307
100
AcDbEntity
8
1
62
256
6
ByLayer
370
13
48
1
60
0
100
AcDbSpline
70
4
71
3
72
8
73
4
40
0
40
0
40
0
40
0
40
1
40
1
40
1
40
1
41
1
10
47.2682038738257
20
11.7888548111374
30
0
41
1
10
47.2105639578302
20
11.8004682928574
30
0
41
1
10
47.153132555155
20
11.8131586204287
30
0
41
1
10
47.0960412522587
20
11.8270182564167
30
0
0
SPLINE
5
308
100
AcDbEntity
8
1
62
256
6
ByLayer
370
13
48
1
60
0
100
AcDbSpline
70
4
71
3
72
8
73
4
40
0
40
0
40
0
40
0
40
1
40
1
40
1
40
1
41
1
10
46.408829342978
20
15.4008377598915
30
0
41
1
10
46.47299712768
20
15.4531176667551
30
0
41
1
10
46.5413599848384
20
15.5035952818267
30
0
41
1
10
46.6129028909294
20
15.551860405386
30
0
0
SPLINE
5
309
100
AcDbEntity
8
1
62
256
6
ByLayer
370
13
48
1
60
0
100
AcDbSpline
70
4
71
3
72
8
73
4
40
0
40
0
40
0
40
0
40
1
40
1
40
1
40
1
41
1
10
47.0580099499638
20
11.5951557704512
30
0
41
1
10
47.1161694527838
20
11.5853160444759
30
0
41
1
10
47.1743875377864
20
11.5758203798404
30
0
41
1
10
47.232591327196
20
11.5662422094089
30
0
0
SPLINE
5
30A
100
AcDbEntity
8
1
62
256
6
ByLayer
370
13
48
1
60
0
100
AcDbSpline
70
4
71
3
72
8
73
4
40
0
40
0
40
0
40
0
40
1
40
1
40
1
40
1
41
1
10
48.1104320378386
20
12.2286128160325
30
0
41
1
10
48.1180112341903
20
12.2161248839292
30
0
41
1
10
48.1262650834517
20
12.2036625315065
30
0
41
1
10
48.135090627208
20
12.1913089968749
30
0
0
SPLINE
5
30B
100
AcDbEntity
8
1
62
256
6
ByLayer
370
13
48
1
60
0
100
AcDbSpline
70
4
71
3
72
8
73
4
40
0
40
0
40
0
40
0
40
1
40
1
40
1
40
1
41
1
10
48.730293747724
20
12.1734420514712
30
0
41
1
10
48.7248854376138
20
12.1737522136953
30
0
41
1
10
48.7194593998073
20
12.1741217937602
30
0
41
1
10
48.7140218791706
20
12.1745576217092
30
0
0
SPLINE
5
30C
100
AcDbEntity
8
1
62
256
6
ByLayer
370
13
48
1
60
0
100
AcDbSpline
70
4
71
3
72
11
73
7
40
0
40
0
40
0
40
0
40
0.31634033295872
40
0.63268066591744
40
0.94902099887616
40
1
40
1
40
1
40
1
41
1
10
47.65
20
14
30
0
41
1
10
47.65
20
13.7941263141615
30
0
41
1
10
47.65
20
13.3823905833354
30
0
41
1
10
47.65
20
12.8001412263312
30
0
41
1
10
47.65
20
12.4301870166001
30
0
41
1
10
47.65
20
12.2534611811315
30
0
41
1
10
47.65
20
12.2293751984711
30
0
0
SPLINE
5
30D
100
AcDbEntity
8
1
62
256
6
ByLayer
370
13
48
1
60
0
100
AcDbSpline
70
4
71
3
72
12
73
8
40
0
40
0
40
0
40
0
40
0.449307899302276
40
0.449307899302276
40
0.788927170829312
40
0.788927170829312
40
1
40
1
40
1
40
1
41
1
10
43.5014441311707
20
14.7085998348858
30
0
41
1
10
43.5113651374135
20
14.7114134202051
30
0
41
1
10
43.5211171210792
20
14.7147837914709
30
0
41
1
10
43.5376083150604
20
14.7222755339753
30
0
41
1
10
43.5445838564559
20
14.7260429778374
30
0
41
1
10
43.5545215284543
20
14.7341883242068
30
0
41
1
10
43.5581131958233
20
14.7378831456195
30
0
41
1
10
43.5605243087826
20
14.7424969624259
30
0
0
SPLINE
5
30E
100
AcDbEntity
8
1
62
256
6
ByLayer
370
13
48
1
60
0
100
AcDbSpline
70
4
71
3
72
8
73
4
40
0
40
0
40
0
40
0
40
1
40
1
40
1
40
1
41
1
10
48.6511104023502
20
15.8171228543569
30
0
41
1
10
48.6562391514019
20
15.8180980997383
30
0
41
1
10
48.661375599779
20
15.8189947344615
30
0
41
1
10
48.6665132813234
20
15.819816673738
30
0
0
SPLINE
5
30F
100
AcDbEntity
8
1
62
256
6
ByLayer
370
13
48
1
60
0
100
AcDbSpline
70
4
71
3
72
8
73
4
40
0
40
0
40
0
40
0
40
1
40
1
40
1
40
1
41
1
10
47.9909241904585
20
16.4839352136026
30
0
41
1
10
47.9355267103992
20
16.4864986011343
30
0
41
1
10
47.8800985030963
20
16.4884830749961
30
0
41
1
10
47.8246581827827
20
16.4899046726128
30
0
0
SPLINE
5
310
100
AcDbEntity
8
1
62
256
6
ByLayer
370
13
48
1
60
0
100
AcDbSpline
70
4
71
3
72
8
73
4
40
0
40
0
40
0
40
0
40
1
40
1
40
1
40
1
41
1
10
48.7887266056559
20
16.1000891272147
30
0
41
1
10
48.7845899831721
20
16.0982424371946
30
0
41
1
10
48.7804539020509
20
16.0963938182968
30
0
41
1
10
48.77631836057
20
16.0945432982523
30
0
0
SPLINE
5
311
100
AcDbEntity
8
1
62
256
6
ByLayer
370
13
48
1
60
0
100
AcDbSpline
70
4
71
3
72
8
73
4
40
0
40
0
40
0
40
0
40
1
40
1
40
1
40
1
41
1
10
48.5616408036725
20
16.5750369988033
30
0
41
1
10
48.5576572845809
20
16.5733323883187
30
0
41
1
10
48.553671423533
20
16.5716331437078
30
0
41
1
10
48.549683238534
20
16.5699392840798
30
0
0
SPLINE
5
312
100
AcDbEntity
8
1
62
256
6
ByLayer
370
13
48
1
60
0
100
AcDbSpline
70
4
71
3
72
8
73
4
40
0
40
0
40
0
40
0
40
1
40
1
40
1
40
1
41
1
10
48.1426803174655
20
16.2460146167598
30
0
41
1
10
48.1691911256232
20
16.2449328147712
30
0
41
1
10
48.195711580666
20
16.2439450415431
30
0
41
1
10
48.2222385465933
20
16.2430548017057
30
0
0
SPLINE
5
313
100
AcDbEntity
8
1
62
256
6
ByLayer
370
13
48
1
60
0
100
AcDbSpline
70
4
71
3
72
8
73
4
40
0
40
0
40
0
40
0
40
1
40
1
40
1
40
1
41
1
10
48.7491544982324
20
16.0823575865077
30
0
41
1
10
48.742160487636
20
16.0808000904476
30
0
41
1
10
48.7351683055008
20
16.0792074580846
30
0
41
1
10
48.7281803124967
20
16.0775775058425
30
0
0
SPLINE
5
314
100
AcDbEntity
8
1
62
256
6
ByLayer
370
13
48
1
60
0
100
AcDbSpline
70
4
71
3
72
8
73
4
40
0
40
0
40
0
40
0
40
1
40
1
40
1
40
1
41
1
10
48.4805858669151
20
16.3039595188274
30
0
41
1
10
48.4878672731079
20
16.3068904150001
30
0
41
1
10
48.4951455074457
20
16.3098282556968
30
0
41
1
10
48.5024204932651
20
16.312773058734
30
0
0
SPLINE
5
315
100
AcDbEntity
8
1
62
256
6
ByLayer
370
13
48
1
60
0
100
AcDbSpline
70
4
71
3
72
8
73
4
40
0
40
0
40
0
40
0
40
1
40
1
40
1
40
1
41
1
10
48.2222385465932
20
16.2430548017193
30
0
41
1
10
48.2548819261955
20
16.2421307831586
30
0
41
1
10
48.2878098311354
20
16.2446007396259
30
0
41
1
10
48.319965552646
20
16.250384907087
30
0
0
SPLINE
5
316
100
AcDbEntity
8
1
62
256
6
ByLayer
370
13
48
1
60
0
100
AcDbSpline
70
4
71
3
72
8
73
4
40
0
40
0
40
0
40
0
40
1
40
1
40
1
40
1
41
1
10
48.6580009615612
20
11.6229709953632
30
0
41
1
10
48.6538333548367
20
11.6247268137093
30
0
41
1
10
48.6496645688001
20
11.6264803421072
30
0
41
1
10
48.6454946127906
20
11.6282315709131
30
0
0
SPLINE
5
317
100
AcDbEntity
8
1
62
256
6
ByLayer
370
13
48
1
60
0
100
AcDbSpline
70
4
71
3
72
8
73
4
40
0
40
0
40
0
40
0
40
1
40
1
40
1
40
1
41
1
10
48.5024204932651
20
11.687226941266
30
0
41
1
10
48.4951455074457
20
11.6901717443032
30
0
41
1
10
48.4878672731079
20
11.693109585
30
0
41
1
10
48.4805858669151
20
11.6960404811726
30
0
0
SPLINE
5
318
100
AcDbEntity
8
1
62
256
6
ByLayer
370
13
48
1
60
0
100
AcDbSpline
70
4
71
3
72
20
73
16
40
0
40
0
40
0
40
0
40
0.0442798809751484
40
0.0442798809751484
40
0.13112444503391
40
0.13112444503391
40
0.225919352725901
40
0.225919352725901
40
0.32005805266503
40
0.32005805266503
40
0.450639670792871
40
0.450639670792871
40
0.57969482515711
40
0.57969482515711
40
1
40
1
40
1
40
1
41
1
10
49.4090128030806
20
11.3
30
0
41
1
10
49.4195893043163
20
11.3064545187738
30
0
41
1
10
49.4297951537144
20
11.3135880279643
30
0
41
1
10
49.4581762197097
20
11.3365785472551
30
0
41
1
10
49.4750357574554
20
11.3546523746264
30
0
41
1
10
49.5028881180044
20
11.3967501830189
30
0
41
1
10
49.5135317961734
20
11.4217891605217
30
0
41
1
10
49.525041491203
20
11.4731068530277
30
0
41
1
10
49.5261959242199
20
11.5000311153674
30
0
41
1
10
49.5198065499011
20
11.5622433209315
30
0
41
1
10
49.5088355420622
20
11.5978594650054
30
0
41
1
10
49.478692586256
20
11.6634941644212
30
0
41
1
10
49.4593532669864
20
11.6943225308485
30
0
41
1
10
49.3681803378039
20
11.8144917352777
30
0
41
1
10
49.2740549355636
20
11.8871700609328
30
0
41
1
10
49.1760620928875
20
11.9464050358342
30
0
0
SPLINE
5
319
100
AcDbEntity
8
1
62
256
6
ByLayer
370
13
48
1
60
0
100
AcDbSpline
70
4
71
3
72
8
73
4
40
0
40
0
40
0
40
0
40
1
40
1
40
1
40
1
41
1
10
47.7321353515756
20
12.0988870967812
30
0
41
1
10
47.7388024261769
20
12.0985759421735
30
0
41
1
10
47.7454721861247
20
12.0983122401605
30
0
41
1
10
47.7521435364737
20
12.098095916715
30
0
0
SPLINE
5
31A
100
AcDbEntity
8
1
62
256
6
ByLayer
370
13
48
1
60
0
100
AcDbSpline
70
4
71
3
72
8
73
4
40
0
40
0
40
0
40
0
40
1
40
1
40
1
40
1
41
1
10
48.6329814138829
20
11.6334782801917
30
0
41
1
10
48.6257492089482
20
11.6365058593277
30
0
41
1
10
48.6185134912905
20
11.6395265150198
30
0
41
1
10
48.6112743152022
20
11.6425402094937
30
0
0
SPLINE
5
31B
100
AcDbEntity
8
1
62
256
6
ByLayer
370
18
48
1
60
0
100
AcDbSpline
70
4
71
3
72
8
73
4
40
0
40
0
40
0
40
0
40
1
40
1
40
1
40
1
41
1
10
46.0491302033296
20
16.8662413187843
30
0
41
1
10
46.032537044549
20
16.8655164975028
30
0
41
1
10
46.0159071548908
20
16.8627149448922
30
0
41
1
10
46
20
16.8579378416359
30
0
0
SPLINE
5
31C
100
AcDbEntity
8
1
62
256
6
ByLayer
370
13
48
1
60
0
100
AcDbSpline
70
4
71
3
72
8
73
4
40
0
40
0
40
0
40
0
40
1
40
1
40
1
40
1
41
1
10
48.3737330027423
20
15.9639686929709
30
0
41
1
10
48.320042226577
20
15.9458655161948
30
0
41
1
10
48.2660036127091
20
15.9283617012744
30
0
41
1
10
48.2138402654707
20
15.9138956350491
30
0
0
SPLINE
5
31D
100
AcDbEntity
8
1
62
256
6
ByLayer
370
13
48
1
60
0
100
AcDbSpline
70
4
71
3
72
8
73
4
40
0
40
0
40
0
40
0
40
1
40
1
40
1
40
1
41
1
10
48.0718661171761
20
12.1856635266012
30
0
41
1
10
48.09237010743
20
12.1873448980577
30
0
41
1
10
48.1128580907964
20
12.1891566451749
30
0
41
1
10
48.1333151391335
20
12.1911196935229
30
0
0
SPLINE
5
31E
100
AcDbEntity
8
1
62
256
6
ByLayer
370
13
48
1
60
0
100
AcDbSpline
70
4
71
3
72
8
73
4
40
0
40
0
40
0
40
0
40
1
40
1
40
1
40
1
41
1
10
48.7535224694942
20
16.0789052800195
30
0
41
1
10
48.7541935305911
20
16.0783655434169
30
0
41
1
10
48.7548648266207
20
16.0778212397036
30
0
41
1
10
48.7555363061338
20
16.0772724123188
30
0
0
SPLINE
5
31F
100
AcDbEntity
8
1
62
256
6
ByLayer
370
13
48
1
60
0
100
AcDbSpline
70
4
71
3
72
8
73
4
40
0
40
0
40
0
40
0
40
1
40
1
40
1
40
1
41
1
10
49.1358136768821
20
16.7604850509455
30
0
41
1
10
49.0496557028996
20
16.7493923507111
30
0
41
1
10
48.9645588867477
20
16.7278761127469
30
0
41
1
10
48.882516190279
20
16.6995177262707
30
0
0
SPLINE
5
320
100
AcDbEntity
8
1
62
256
6
ByLayer
370
13
48
1
60
0
100
AcDbSpline
70
4
71
3
72
12
73
8
40
0
40
0
40
0
40
0
40
0.854530153690263
40
0.854530153690263
40
0.866002995156379
40
0.866002995156379
40
1
40
1
40
1
40
1
41
1
10
46.6129028909294
20
15.551860405386
30
0
41
1
10
46.7837735328535
20
15.6671351837774
30
0
41
1
10
46.9782809122478
20
15.7645310411098
30
0
41
1
10
47.1850336861356
20
15.8325183975809
30
0
41
1
10
47.1878175198312
20
15.8334276919713
30
0
41
1
10
47.2231278370484
20
15.8448834363336
30
0
41
1
10
47.2559606001494
20
15.8546987484381
30
0
41
1
10
47.2890217302607
20
15.8637238959145
30
0
0
SPLINE
5
321
100
AcDbEntity
8
1
62
256
6
ByLayer
370
13
48
1
60
0
100
AcDbSpline
70
4
71
3
72
16
73
12
40
0
40
0
40
0
40
0
40
0.156028807467022
40
0.156028807467022
40
0.367658685186321
40
0.367658685186321
40
0.579760283715666
40
0.579760283715666
40
0.762388058660352
40
0.762388058660352
40
1
40
1
40
1
40
1
41
1
10
44.8330892411895
20
12.8514847340361
30
0
41
1
10
44.7480987832717
20
12.9506224521529
30
0
41
1
10
44.6722024093894
20
13.0596591341514
30
0
41
1
10
44.5246265811639
20
13.3323423251968
30
0
41
1
10
44.4622775107062
20
13.5054328267015
30
0
41
1
10
44.3971160943003
20
13.8600451267774
30
0
41
1
10
44.3937323798962
20
14.0462557985776
30
0
41
1
10
44.4425853243162
20
14.3797885876756
30
0
41
1
10
44.487550898613
20
14.5323682985559
30
0
41
1
10
44.6321844654472
20
14.8578781733754
30
0
41
1
10
44.7461048481066
20
15.0279998734869
30
0
41
1
10
44.8790160745718
20
15.1745392077168
30
0
0
SPLINE
5
322
100
AcDbEntity
8
1
62
256
6
ByLayer
370
13
48
1
60
0
100
AcDbSpline
70
4
71
3
72
28
73
24
40
0
40
0
40
0
40
0
40
0.116082472703723
40
0.116082472703723
40
0.214332186871176
40
0.214332186871176
40
0.420442855905028
40
0.420442855905028
40
0.455141483268873
40
0.455141483268873
40
0.499181997485055
40
0.499181997485055
40
0.499614608087965
40
0.499614608087965
40
0.520836126473469
40
0.520836126473469
40
0.565426012991204
40
0.565426012991204
40
0.768179570531311
40
0.768179570531311
40
0.97068120938367
40
0.97068120938367
40
1
40
1
40
1
40
1
41
1
10
46.061983131599
20
15.2326941582967
30
0
41
1
10
46.0921107466435
20
15.1632201896977
30
0
41
1
10
46.1286966306219
20
15.0861824371602
30
0
41
1
10
46.2056916716427
20
14.9339086755553
30
0
41
1
10
46.2448779560936
20
14.8598167644172
30
0
41
1
10
46.374764391258
20
14.6217011623084
30
0
41
1
10
46.4839667373908
20
14.4487612198503
30
0
41
1
10
46.5905955092177
20
14.2174749183623
30
0
41
1
10
46.6052861613364
20
14.1825926592308
30
0
41
1
10
46.6322340040757
20
14.1005744181432
30
0
41
1
10
46.6427529473172
20
14.0509078197694
30
0
41
1
10
46.6429451876798
20
14.0009935437863
30
0
41
1
10
46.6429461443519
20
14.0004967711851
30
0
41
1
10
46.6429461443519
20
13.9757872270544
30
0
41
1
10
46.6405862956807
20
13.9514549323919
30
0
41
1
10
46.6274836547348
20
13.8785337849881
30
0
41
1
10
46.6107286924557
20
13.8314505697684
30
0
41
1
10
46.5078895279181
20
13.5879730748628
30
0
41
1
10
46.396811408232
20
13.4171186777943
30
0
41
1
10
46.2203516214697
20
13.0964610741672
30
0
41
1
10
46.1437420941416
20
12.9481433653753
30
0
41
1
10
46.077664249671
20
12.8029971881135
30
0
41
1
10
46.0696190936743
20
12.7849142912491
30
0
41
1
10
46.061983131599
20
12.7673058417034
30
0
0
SPLINE
5
323
100
AcDbEntity
8
1
62
256
6
ByLayer
370
13
48
1
60
0
100
AcDbSpline
70
4
71
3
72
8
73
4
40
0
40
0
40
0
40
0
40
1
40
1
40
1
40
1
41
1
10
47.7411583357063
20
15.8318232335226
30
0
41
1
10
47.7148382818733
20
15.8316584957877
30
0
41
1
10
47.6885098870252
20
15.8309250610671
30
0
41
1
10
47.6622393695503
20
15.8294113373158
30
0
0
SPLINE
5
324
100
AcDbEntity
8
1
62
256
6
ByLayer
370
13
48
1
60
0
100
AcDbSpline
70
4
71
3
72
8
73
4
40
0
40
0
40
0
40
0
40
1
40
1
40
1
40
1
41
1
10
46.0455671218847
20
15.2295492615224
30
0
41
1
10
46.0510379427018
20
15.2305934223319
30
0
41
1
10
46.0565099554026
20
15.2316417426316
30
0
41
1
10
46.061983131599
20
15.2326941582967
30
0
0
SPLINE
5
325
100
AcDbEntity
8
1
62
256
6
ByLayer
370
13
48
1
60
0
100
AcDbSpline
70
4
71
3
72
8
73
4
40
0
40
0
40
0
40
0
40
1
40
1
40
1
40
1
41
1
10
48.2964750271759
20
12.3695349391402
30
0
41
1
10
48.2733962141757
20
12.4045152500561
30
0
41
1
10
48.2542647581336
20
12.4393341200521
30
0
41
1
10
48.2408138737781
20
12.4726300418382
30
0
0
SPLINE
5
326
100
AcDbEntity
8
1
62
256
6
ByLayer
370
18
48
1
60
0
100
AcDbSpline
70
4
71
3
72
10
73
6
40
0
40
0
40
0
40
0
40
0.775024099640598
40
0.775024099640598
40
1
40
1
40
1
40
1
41
1
10
48.1903913856544
20
12.098035442056
30
0
41
1
10
48.1963447568496
20
12.0950844813997
30
0
41
1
10
48.2023841470655
20
12.0920207012928
30
0
41
1
10
48.2102719594456
20
12.0879553780185
30
0
41
1
10
48.2120593575571
20
12.0870380204062
30
0
41
1
10
48.2138402616837
20
12.0861043659618
30
0
0
SPLINE
5
327
100
AcDbEntity
8
1
62
256
6
ByLayer
370
13
48
1
60
0
100
AcDbSpline
70
4
71
3
72
8
73
4
40
0
40
0
40
0
40
0
40
1
40
1
40
1
40
1
41
1
10
48.7469132650767
20
12.1726877530915
30
0
41
1
10
48.7467102912712
20
12.1726905598966
30
0
41
1
10
48.7465073719164
20
12.1726941789262
30
0
41
1
10
48.7463045145122
20
12.1726985959943
30
0
0
SPLINE
5
328
100
AcDbEntity
8
1
62
256
6
ByLayer
370
13
48
1
60
0
100
AcDbSpline
70
4
71
3
72
8
73
4
40
0
40
0
40
0
40
0
40
1
40
1
40
1
40
1
41
1
10
45.1663461399327
20
12.6317120589851
30
0
41
1
10
45.4255676226138
20
12.5492844735341
30
0
41
1
10
45.6921153870775
20
12.4796338594694
30
0
41
1
10
45.9647023147842
20
12.4205154933088
30
0
0
SPLINE
5
329
100
AcDbEntity
8
1
62
256
6
ByLayer
370
18
48
1
60
0
100
AcDbSpline
70
4
71
3
72
10
73
6
40
0
40
0
40
0
40
0
40
0.536380919412184
40
0.536380919412184
40
1
40
1
40
1
40
1
41
1
10
44.5601677780023
20
11.7497847196204
30
0
41
1
10
44.6043988029483
20
11.7466586429675
30
0
41
1
10
44.6478650425994
20
11.7413415523832
30
0
41
1
10
44.7211045298042
20
11.7307698875074
30
0
41
1
10
44.7527402003991
20
11.7255260601108
30
0
41
1
10
44.7801073675193
20
11.7211710908699
30
0
0
SPLINE
5
32A
100
AcDbEntity
8
1
62
256
6
ByLayer
370
13
48
1
60
0
100
AcDbSpline
70
4
71
3
72
8
73
4
40
0
40
0
40
0
40
0
40
1
40
1
40
1
40
1
41
1
10
48.0906987914786
20
11.5213186847397
30
0
41
1
10
48.1128834357454
20
11.5226303811453
30
0
41
1
10
48.1350623971359
20
11.5240387770108
30
0
41
1
10
48.1572341336386
20
11.5255469925572
30
0
0
SPLINE
5
32B
100
AcDbEntity
8
1
62
256
6
ByLayer
370
13
48
1
60
0
100
AcDbSpline
70
4
71
3
72
8
73
4
40
0
40
0
40
0
40
0
40
1
40
1
40
1
40
1
41
1
10
48.8648003373389
20
15.8845873111797
30
0
41
1
10
48.8451107479208
20
15.8745364888221
30
0
41
1
10
48.8255504098525
20
15.8640698681919
30
0
41
1
10
48.806816810296
20
15.8536178908972
30
0
0
SPLINE
5
32C
100
AcDbEntity
8
1
62
256
6
ByLayer
370
13
48
1
60
0
100
AcDbSpline
70
4
71
3
72
8
73
4
40
0
40
0
40
0
40
0
40
1
40
1
40
1
40
1
41
1
10
48.6665132813234
20
12.180183326262
30
0
41
1
10
48.661375599779
20
12.1810052655385
30
0
41
1
10
48.6562391514019
20
12.1819019002617
30
0
41
1
10
48.6511104023502
20
12.1828771456432
30
0
0
SPLINE
5
32D
100
AcDbEntity
8
1
62
256
6
ByLayer
370
13
48
1
60
0
100
AcDbSpline
70
4
71
3
72
8
73
4
40
0
40
0
40
0
40
0
40
1
40
1
40
1
40
1
41
1
10
47.8246581827827
20
11.5100953273873
30
0
41
1
10
47.8800985030963
20
11.511516925004
30
0
41
1
10
47.9355267103992
20
11.5135013988657
30
0
41
1
10
47.9909241904585
20
11.5160647863975
30
0
0
SPLINE
5
32E
100
AcDbEntity
8
1
62
256
6
ByLayer
370
13
48
1
60
0
100
AcDbSpline
70
4
71
3
72
8
73
4
40
0
40
0
40
0
40
0
40
1
40
1
40
1
40
1
41
1
10
48.8155438239173
20
16.4422176791765
30
0
41
1
10
48.8599854482607
20
16.4599594243197
30
0
41
1
10
48.904649409651
20
16.477218326958
30
0
41
1
10
48.949516358124
20
16.4939273964658
30
0
0
SPLINE
5
32F
100
AcDbEntity
8
1
62
256
6
ByLayer
370
13
48
1
60
0
100
AcDbSpline
70
4
71
3
72
8
73
4
40
0
40
0
40
0
40
0
40
1
40
1
40
1
40
1
41
1
10
48.5901075129053
20
16.0396663287275
30
0
41
1
10
48.582599916396
20
16.0372581340968
30
0
41
1
10
48.5751088642765
20
16.0347931265346
30
0
41
1
10
48.5676365699848
20
16.0322705371636
30
0
0
SPLINE
5
330
100
AcDbEntity
8
1
62
256
6
ByLayer
370
13
48
1
60
0
100
AcDbSpline
70
4
71
3
72
8
73
4
40
0
40
0
40
0
40
0
40
1
40
1
40
1
40
1
41
1
10
48.7393259367937
20
16.6486651860989
30
0
41
1
10
48.6915777637058
20
16.6304028604302
30
0
41
1
10
48.6442545553436
20
16.6110094121745
30
0
41
1
10
48.5974332539209
20
16.5905247347084
30
0
0
SPLINE
5
331
100
AcDbEntity
8
1
62
256
6
ByLayer
370
13
48
1
60
0
100
AcDbSpline
70
4
71
3
72
8
73
4
40
0
40
0
40
0
40
0
40
1
40
1
40
1
40
1
41
1
10
48.7047794882309
20
16.0719724466211
30
0
41
1
10
48.6970230347327
20
16.0700646965225
30
0
41
1
10
48.6892735986024
20
16.0681078202285
30
0
41
1
10
48.6815340464425
20
16.0660994379436
30
0
0
SPLINE
5
332
100
AcDbEntity
8
1
62
256
6
ByLayer
370
18
48
1
60
0
100
AcDbSpline
70
4
71
3
72
8
73
4
40
0
40
0
40
0
40
0
40
1
40
1
40
1
40
1
41
1
10
45.4079896362885
20
16.692581602447
30
0
41
1
10
45.4435665312856
20
16.6925147212163
30
0
41
1
10
45.4794508668293
20
16.6940967991366
30
0
41
1
10
45.5150701629494
20
16.6975124997281
30
0
0
SPLINE
5
333
100
AcDbEntity
8
1
62
256
6
ByLayer
370
13
48
1
60
0
100
AcDbSpline
70
4
71
3
72
26
73
22
40
0
40
0
40
0
40
0
40
0.0370947090477581
40
0.0370947090477581
40
0.0557329816629003
40
0.0557329816629003
40
0.100822491591656
40
0.100822491591656
40
0.127191804986453
40
0.127191804986453
40
0.163501813557849
40
0.163501813557849
40
0.184449012382364
40
0.184449012382364
40
0.233247336227708
40
0.233247336227708
40
0.352688065432853
40
0.352688065432853
40
0.48999919815102
40
0.48999919815102
40
1
40
1
40
1
40
1
41
1
10
49.3354471297939
20
16.5845267451936
30
0
41
1
10
49.3422061961719
20
16.582761938828
30
0
41
1
10
49.3488830129341
20
16.5805747279381
30
0
41
1
10
49.3585322149379
20
16.5764271767112
30
0
41
1
10
49.3617051050649
20
16.5748888891876
30
0
41
1
10
49.3721308786112
20
16.5690940326581
30
0
41
1
10
49.3790726623238
20
16.5639071617931
30
0
41
1
10
49.387866037959
20
16.5538420116095
30
0
41
1
10
49.3906797404485
20
16.5496513042867
30
0
41
1
10
49.395759252099
20
16.5390898033114
30
0
41
1
10
49.3974886033061
20
16.5323149189195
30
0
41
1
10
49.3983141379954
20
16.521644079361
30
0
41
1
10
49.3982323812219
20
16.5176686728381
30
0
41
1
10
49.3969197818947
20
16.5046793225045
30
0
41
1
10
49.3943315514621
20
16.4957455977207
30
0
41
1
10
49.3825095602198
20
16.4668691016748
30
0
41
1
10
49.3691478236312
20
16.4484792653825
30
0
41
1
10
49.3379189775827
20
16.4124531509217
30
0
41
1
10
49.3190328418846
20
16.394942367974
30
0
41
1
10
49.2268356630615
20
16.31826809137
30
0
41
1
10
49.1433451313258
20
16.2710415289337
30
0
41
1
10
49.0593115493021
20
16.2284508782956
30
0
0
SPLINE
5
334
100
AcDbEntity
8
1
62
256
6
ByLayer
370
13
48
1
60
0
100
AcDbSpline
70
4
71
3
72
8
73
4
40
0
40
0
40
0
40
0
40
1
40
1
40
1
40
1
41
1
10
48.9065084491111
20
15.9051876743851
30
0
41
1
10
48.9076634931381
20
15.9057536407312
30
0
41
1
10
48.9088187085141
20
15.9063192506149
30
0
41
1
10
48.9099740956112
20
15.906884502425
30
0
0
SPLINE
5
335
100
AcDbEntity
8
1
62
256
6
ByLayer
370
13
48
1
60
0
100
AcDbSpline
70
4
71
3
72
8
73
4
40
0
40
0
40
0
40
0
40
1
40
1
40
1
40
1
41
1
10
48.5081234667093
20
16.5525180350138
30
0
41
1
10
48.5011826105127
20
16.5496468167409
30
0
41
1
10
48.494234879972
20
16.5467918690663
30
0
41
1
10
48.4872803977718
20
16.5439532261635
30
0
0
SPLINE
5
336
100
AcDbEntity
8
1
62
256
6
ByLayer
370
18
48
1
60
0
100
AcDbSpline
70
4
71
3
72
8
73
4
40
0
40
0
40
0
40
0
40
1
40
1
40
1
40
1
41
1
10
49.586980127946
20
16.7
30
0
41
1
10
49.5955968193133
20
16.667525325477
30
0
41
1
10
49.6
20
16.6336202077511
30
0
41
1
10
49.6
20
16.6
30
0
0
SPLINE
5
337
100
AcDbEntity
8
1
62
256
6
ByLayer
370
13
48
1
60
0
100
AcDbSpline
70
4
71
3
72
8
73
4
40
0
40
0
40
0
40
0
40
1
40
1
40
1
40
1
41
1
10
48.3824213915826
20
11.4974252215086
30
0
41
1
10
48.3894472657437
20
11.4947463435204
30
0
41
1
10
48.396466928288
20
11.4920514022702
30
0
41
1
10
48.4034802160183
20
11.4893403130091
30
0
0
SPLINE
5
338
100
AcDbEntity
8
1
62
256
6
ByLayer
370
13
48
1
60
0
100
AcDbSpline
70
4
71
3
72
8
73
4
40
0
40
0
40
0
40
0
40
1
40
1
40
1
40
1
41
1
10
44.406025607507
20
15.8466714627982
30
0
41
1
10
44.4058608834616
20
15.855283927057
30
0
41
1
10
44.4058205374692
20
15.863900592171
30
0
41
1
10
44.4059035976733
20
15.8725154644932
30
0
0
SPLINE
5
339
100
AcDbEntity
8
1
62
256
6
ByLayer
370
13
48
1
60
0
100
AcDbSpline
70
4
71
3
72
8
73
4
40
0
40
0
40
0
40
0
40
1
40
1
40
1
40
1
41
1
10
43.697268641797
20
14.3643236822343
30
0
41
1
10
43.673548312729
20
14.3347852511787
30
0
41
1
10
43.6490149987708
20
14.3078014901141
30
0
41
1
10
43.6239821386885
20
14.2833105415316
30
0
0
SPLINE
5
33A
100
AcDbEntity
8
1
62
256
6
ByLayer
370
13
48
1
60
0
100
AcDbSpline
70
4
71
3
72
18
73
14
40
0
40
0
40
0
40
0
40
0.297753116171415
40
0.297753116171415
40
0.595496835617234
40
0.595496835617234
40
0.744301119644213
40
0.744301119644213
40
0.818701720358038
40
0.818701720358038
40
0.855902029480305
40
0.855902029480305
40
1
40
1
40
1
40
1
41
1
10
47.6756163060044
20
16.4879951976562
30
0
41
1
10
47.6313570840831
20
16.4856731287969
30
0
41
1
10
47.5871321897619
20
16.4824037742441
30
0
41
1
10
47.4989387562939
20
16.4735407522715
30
0
41
1
10
47.4549525740475
20
16.4679576700055
30
0
41
1
10
47.3891699956829
20
16.4584354054537
30
0
41
1
10
47.3672731053029
20
16.4550804981064
30
0
41
1
10
47.3344307667064
20
16.4500353217162
30
0
41
1
10
47.3234833070402
20
16.4483544209074
30
0
41
1
10
47.3070590787403
20
16.4458527098496
30
0
41
1
10
47.3015840021964
20
16.4450208503297
30
0
41
1
10
47.2749149760046
20
16.4408814516955
30
0
41
1
10
47.2537757964872
20
16.4372359703041
30
0
41
1
10
47.2326098900027
20
16.4337560282258
30
0
0
SPLINE
5
33B
100
AcDbEntity
8
1
62
256
6
ByLayer
370
13
48
1
60
0
100
AcDbSpline
70
4
71
3
72
8
73
4
40
0
40
0
40
0
40
0
40
1
40
1
40
1
40
1
41
1
10
47.7412229965739
20
12.1681763624515
30
0
41
1
10
47.7352695393148
20
12.1931018539833
30
0
41
1
10
47.7293278171248
20
12.2169134121824
30
0
41
1
10
47.7234394395966
20
12.2394442858606
30
0
0
SPLINE
5
33C
100
AcDbEntity
8
1
62
256
6
ByLayer
370
13
48
1
60
0
100
AcDbSpline
70
4
71
3
72
8
73
4
40
0
40
0
40
0
40
0
40
1
40
1
40
1
40
1
41
1
10
48.5496832385473
20
16.5699392840855
30
0
41
1
10
48.542770402259
20
16.5670032682527
30
0
41
1
10
48.5358505532355
20
16.5640834185138
30
0
41
1
10
48.5289237938151
20
16.5611798161626
30
0
0
SPLINE
5
33D
100
AcDbEntity
8
1
62
256
6
ByLayer
370
18
48
1
60
0
100
AcDbSpline
70
4
71
3
72
10
73
6
40
0
40
0
40
0
40
0
40
0.0481640878903155
40
0.0481640878903155
40
1
40
1
40
1
40
1
41
1
10
48.138768783578
20
15.8099738368508
30
0
41
1
10
48.1387096166083
20
15.809953316061
30
0
41
1
10
48.1386504511154
20
15.8099327910435
30
0
41
1
10
48.1374237051075
20
15.8095070914992
30
0
41
1
10
48.1362575084263
20
15.8090984384992
30
0
41
1
10
48.1350906272085
20
15.8086910031256
30
0
0
SPLINE
5
33E
100
AcDbEntity
8
1
62
256
6
ByLayer
370
13
48
1
60
0
100
AcDbSpline
70
4
71
3
72
12
73
8
40
0
40
0
40
0
40
0
40
0.0014841804582455
40
0.0014841804582455
40
0.999195893462461
40
0.999195893462461
40
1
40
1
40
1
40
1
41
1
10
47.7234921769647
20
12.2394524228934
30
0
41
1
10
47.7234558907656
20
12.2394468231403
30
0
41
1
10
47.7234196041507
20
12.239441225472
30
0
41
1
10
47.6989938355546
20
12.2356746942411
30
0
41
1
10
47.6745645774325
20
12.2322463949876
30
0
41
1
10
47.6500395064211
20
12.2294222333316
30
0
41
1
10
47.6500197531865
20
12.2294199592793
30
0
41
1
10
47.65
20
12.2294176851687
30
0
0
SPLINE
5
33F
100
AcDbEntity
8
1
62
256
6
ByLayer
370
13
48
1
60
0
100
AcDbSpline
70
4
71
3
72
14
73
10
40
0
40
0
40
0
40
0
40
0.0145259528164162
40
0.0145259528164162
40
0.325817690670953
40
0.325817690670953
40
0.675804538922679
40
0.675804538922679
40
1
40
1
40
1
40
1
41
1
10
47.2961878425085
20
12.2558763545719
30
0
41
1
10
47.2974369049592
20
12.2547221234927
30
0
41
1
10
47.2986737185566
20
12.2535607028024
30
0
41
1
10
47.3269577622839
20
12.2278096266708
30
0
41
1
10
47.358836887333
20
12.2059436505456
30
0
41
1
10
47.4295875729734
20
12.1666501523253
30
0
41
1
10
47.470133331313
20
12.150266383062
30
0
41
1
10
47.5505974537135
20
12.1258184055428
30
0
41
1
10
47.5905881272561
20
12.1168330722062
30
0
41
1
10
47.6310712343537
20
12.1100473680703
30
0
0
SPLINE
5
340
100
AcDbEntity
8
1
62
256
6
ByLayer
370
13
48
1
60
0
100
AcDbSpline
70
4
71
3
72
8
73
4
40
0
40
0
40
0
40
0
40
1
40
1
40
1
40
1
41
1
10
47.9810199560951
20
11.7479374675471
30
0
41
1
10
47.9271346700752
20
11.7461833423582
30
0
41
1
10
47.8732317120774
20
11.7446838084965
30
0
41
1
10
47.819320778088
20
11.7434312990344
30
0
0
SPLINE
5
341
100
AcDbEntity
8
1
62
256
6
ByLayer
370
13
48
1
60
0
100
AcDbSpline
70
4
71
3
72
8
73
4
40
0
40
0
40
0
40
0
40
1
40
1
40
1
40
1
41
1
10
48.9099740956112
20
12.093115497575
30
0
41
1
10
48.9088187085141
20
12.0936807493851
30
0
41
1
10
48.9076634931381
20
12.0942463592688
30
0
41
1
10
48.9065084491111
20
12.0948123256149
30
0
0
SPLINE
5
342
100
AcDbEntity
8
1
62
256
6
ByLayer
370
13
48
1
60
0
100
AcDbSpline
70
4
71
3
72
8
73
4
40
0
40
0
40
0
40
0
40
1
40
1
40
1
40
1
41
1
10
48.4454668759635
20
11.4728856063168
30
0
41
1
10
48.4524496489786
20
11.4701114728478
30
0
41
1
10
48.4594258636835
20
11.4673210651707
30
0
41
1
10
48.4663953792878
20
11.4645143696895
30
0
0
SPLINE
5
343
100
AcDbEntity
8
1
62
256
6
ByLayer
370
13
48
1
60
0
100
AcDbSpline
70
4
71
3
72
8
73
4
40
0
40
0
40
0
40
0
40
1
40
1
40
1
40
1
41
1
10
48.5453177155276
20
16.024543661382
30
0
41
1
10
48.5379082971913
20
16.0219139592143
30
0
41
1
10
48.5305184819129
20
16.0192262034191
30
0
41
1
10
48.5231502777687
20
16.0164802470461
30
0
0
SPLINE
5
344
100
AcDbEntity
8
1
62
256
6
ByLayer
370
13
48
1
60
0
100
AcDbSpline
70
4
71
3
72
8
73
4
40
0
40
0
40
0
40
0
40
1
40
1
40
1
40
1
41
1
10
48.94946913131
20
16.4940373341567
30
0
41
1
10
49.0186870952114
20
16.5203098008022
30
0
41
1
10
49.0892860767647
20
16.5437627561654
30
0
41
1
10
49.1608347348723
20
16.5622268374745
30
0
0
SPLINE
5
345
100
AcDbEntity
8
1
62
256
6
ByLayer
370
13
48
1
60
0
100
AcDbSpline
70
4
71
3
72
8
73
4
40
0
40
0
40
0
40
0
40
1
40
1
40
1
40
1
41
1
10
48.8011366675815
20
11.8943772562575
30
0
41
1
10
48.8444490533785
20
11.8749440554426
30
0
41
1
10
48.8876182607099
20
11.8550483399813
30
0
41
1
10
48.9305699234432
20
11.8346174620243
30
0
0
SPLINE
5
346
100
AcDbEntity
8
1
62
256
6
ByLayer
370
13
48
1
60
0
100
AcDbSpline
70
4
71
3
72
26
73
22
40
0
40
0
40
0
40
0
40
0.01198601293757
40
0.01198601293757
40
0.0222440990987668
40
0.0222440990987668
40
0.0354142985428729
40
0.0354142985428729
40
0.0564887825623567
40
0.0564887825623567
40
0.0903045534325797
40
0.0903045534325797
40
0.144905049250892
40
0.144905049250892
40
0.234410294862903
40
0.234410294862903
40
0.387183908707133
40
0.387183908707133
40
0.510065677889491
40
0.510065677889491
40
1
40
1
40
1
40
1
41
1
10
44.8330892411823
20
12.8514847340411
30
0
41
1
10
44.8343436114139
20
12.8518057540881
30
0
41
1
10
44.8355998967055
20
12.8521260372559
30
0
41
1
10
44.8379511454044
20
12.8527271862476
30
0
41
1
10
44.8390458955045
20
12.853007235221
30
0
41
1
10
44.8415487970698
20
12.8536478515712
30
0
41
1
10
44.8429577179751
20
12.8540087142803
30
0
41
1
10
44.8466258828833
20
12.8549488809313
30
0
41
1
10
44.8488880838003
20
12.8555293327456
30
0
41
1
10
44.8547916324119
20
12.857045771392
30
0
41
1
10
44.8584403757883
20
12.8579846623635
30
0
41
1
10
44.868007247148
20
12.8604506576541
30
0
41
1
10
44.8739437824075
20
12.8619851202722
30
0
41
1
10
44.8896696065239
20
12.8660607706573
30
0
41
1
10
44.8995047644045
20
12.8686208015997
30
0
41
1
10
44.9262266408995
20
12.8756036904355
30
0
41
1
10
44.9432307545764
20
12.8800767496184
30
0
41
1
10
44.9739621101286
20
12.8881990257509
30
0
41
1
10
44.9877084371201
20
12.891845733639
30
0
41
1
10
45.055297421403
20
12.9098103390152
30
0
41
1
10
45.1098371794374
20
12.9244483077717
30
0
41
1
10
45.1597712449568
20
12.9373000876784
30
0
0
SPLINE
5
347
100
AcDbEntity
8
1
62
256
6
ByLayer
370
13
48
1
60
0
100
AcDbSpline
70
4
71
3
72
8
73
4
40
0
40
0
40
0
40
0
40
1
40
1
40
1
40
1
41
1
10
48.1426803174655
20
11.7539853832403
30
0
41
1
10
48.12113064247
20
11.7530717830512
30
0
41
1
10
48.0995770884472
20
11.7522021997721
30
0
41
1
10
48.0780203692055
20
11.7513751505376
30
0
0
SPLINE
5
348
100
AcDbEntity
8
1
62
256
6
ByLayer
370
13
48
1
60
0
100
AcDbSpline
70
4
71
3
72
8
73
4
40
0
40
0
40
0
40
0
40
1
40
1
40
1
40
1
41
1
10
48.2864533085229
20
11.527285120332
30
0
41
1
10
48.3047424676917
20
11.5244517021678
30
0
41
1
10
48.322832963943
20
11.51974592568
30
0
41
1
10
48.3401710352723
20
11.5133147673305
30
0
0
SPLINE
5
349
100
AcDbEntity
8
1
62
256
6
ByLayer
370
13
48
1
60
0
100
AcDbSpline
70
4
71
3
72
11
73
7
40
0
40
0
40
0
40
0
40
0.0509790011238363
40
0.367319334082558
40
0.683659667041279
40
1
40
1
40
1
40
1
41
1
10
47.65
20
15.7706248015289
30
0
41
1
10
47.65
20
15.7465388188686
30
0
41
1
10
47.65
20
15.5698129834
30
0
41
1
10
47.65
20
15.1998587736688
30
0
41
1
10
47.65
20
14.6176094166647
30
0
41
1
10
47.65
20
14.2058736858386
30
0
41
1
10
47.65
20
14
30
0
0
SPLINE
5
34A
100
AcDbEntity
8
1
62
256
6
ByLayer
370
13
48
1
60
0
100
AcDbSpline
70
4
71
3
72
8
73
4
40
0
40
0
40
0
40
0
40
1
40
1
40
1
40
1
41
1
10
46.217398644719
20
12.3033680312619
30
0
41
1
10
46.2847799921849
20
12.2465055938542
30
0
41
1
10
46.3568996027647
20
12.1915431880384
30
0
41
1
10
46.4327828618976
20
12.1390149572835
30
0
0
SPLINE
5
34B
100
AcDbEntity
8
1
62
256
6
ByLayer
370
13
48
1
60
0
100
AcDbSpline
70
4
71
3
72
8
73
4
40
0
40
0
40
0
40
0
40
1
40
1
40
1
40
1
41
1
10
48.7507716856815
20
16.0830849804402
30
0
41
1
10
48.7502325780362
20
16.0828426124055
30
0
41
1
10
48.7496935155363
20
16.0826001477414
30
0
41
1
10
48.7491544982285
20
16.0823575865225
30
0
0
SPLINE
5
34C
100
AcDbEntity
8
1
62
256
6
ByLayer
370
13
48
1
60
0
100
AcDbSpline
70
4
71
1
72
4
73
2
40
0
40
0
40
1
40
1
41
1
10
46
20
16.1058766840601
30
0
41
1
10
46
20
16.8579378416359
30
0
0
SPLINE
5
34D
100
AcDbEntity
8
1
62
256
6
ByLayer
370
13
48
1
60
0
100
AcDbSpline
70
4
71
3
72
12
73
8
40
0
40
0
40
0
40
0
40
0.133997004843621
40
0.133997004843621
40
0.145469846309737
40
0.145469846309737
40
1
40
1
40
1
40
1
41
1
10
47.2890217302607
20
12.1362761040855
30
0
41
1
10
47.2559606001494
20
12.145301251562
30
0
41
1
10
47.2231278370484
20
12.1551165636664
30
0
41
1
10
47.1878175198312
20
12.1665723080287
30
0
41
1
10
47.1850336861356
20
12.1674816024191
30
0
41
1
10
46.9782809122478
20
12.2354689588902
30
0
41
1
10
46.7837735328535
20
12.3328648162226
30
0
41
1
10
46.6129028909294
20
12.4481395946141
30
0
0
SPLINE
5
34E
100
AcDbEntity
8
1
62
256
6
ByLayer
370
13
48
1
60
0
100
AcDbSpline
70
4
71
3
72
28
73
24
40
0
40
0
40
0
40
0
40
0.0285048011796524
40
0.0285048011796524
40
0.151898778447313
40
0.151898778447313
40
0.279699530330924
40
0.279699530330924
40
0.401871057836546
40
0.401871057836546
40
0.519220341004517
40
0.519220341004517
40
0.637363844465046
40
0.637363844465046
40
0.671870169364842
40
0.671870169364842
40
0.7706947344861
40
0.7706947344861
40
0.871988274207667
40
0.871988274207667
40
0.977006585692246
40
0.977006585692246
40
1
40
1
40
1
40
1
41
1
10
48.7881525715215
20
15.3114801269799
30
0
41
1
10
48.7848940351992
20
15.3052332725613
30
0
41
1
10
48.7812573426557
20
15.2991487438987
30
0
41
1
10
48.7603548107668
20
15.2682464236046
30
0
41
1
10
48.7367300056093
20
15.2465032156751
30
0
41
1
10
48.6814237342445
20
15.2130013833637
30
0
41
1
10
48.6485897215335
20
15.2010165781895
30
0
41
1
10
48.5815865558034
20
15.1891309886067
30
0
41
1
10
48.5466205369648
20
15.1885477534747
30
0
41
1
10
48.4789842092365
20
15.1977665252051
30
0
41
1
10
48.4454183487516
20
15.2072878778814
30
0
41
1
10
48.3823466523738
20
15.2353299934791
30
0
41
1
10
48.3518885884218
20
15.2543302668536
30
0
41
1
10
48.3180282855937
20
15.2834556124813
30
0
41
1
10
48.3106168994869
20
15.2904595486284
30
0
41
1
10
48.2838531739458
20
15.3182497620099
30
0
41
1
10
48.2671272257888
20
15.341298386545
30
0
41
1
10
48.2422670568049
20
15.3890558826817
30
0
41
1
10
48.233984636385
20
15.4144946957325
30
0
41
1
10
48.2271881355798
20
15.4644418114295
30
0
41
1
10
48.2289358942438
20
15.4896389048332
30
0
41
1
10
48.2371189091745
20
15.5175305468423
30
0
41
1
10
48.2388493270533
20
15.5225069772326
30
0
41
1
10
48.2408138737783
20
15.5273699581617
30
0
0
SPLINE
5
34F
100
AcDbEntity
8
1
62
256
6
ByLayer
370
18
48
1
60
0
100
AcDbSpline
70
4
71
3
72
8
73
4
40
0
40
0
40
0
40
0
40
1
40
1
40
1
40
1
41
1
10
49.6
20
11.4
30
0
41
1
10
49.5999999999999
20
11.3663786464701
30
0
41
1
10
49.5955956445159
20
11.3324691100077
30
0
41
1
10
49.5869540414902
20
11.3
30
0
0
SPLINE
5
350
100
AcDbEntity
8
1
62
256
6
ByLayer
370
13
48
1
60
0
100
AcDbSpline
70
4
71
3
72
8
73
4
40
0
40
0
40
0
40
0
40
1
40
1
40
1
40
1
41
1
10
48.0208798836219
20
12.3348978048623
30
0
41
1
10
48.0197143360831
20
12.3342398740708
30
0
41
1
10
48.0185473978274
20
12.3335840891413
30
0
41
1
10
48.0173790825029
20
12.3329304553048
30
0
0
SPLINE
5
351
100
AcDbEntity
8
1
62
256
6
ByLayer
370
13
48
1
60
0
100
AcDbSpline
70
4
71
3
72
8
73
4
40
0
40
0
40
0
40
0
40
1
40
1
40
1
40
1
41
1
10
48.585515677587
20
11.4146702483289
30
0
41
1
10
48.5894905615203
20
11.4129439115062
30
0
41
1
10
48.5934630917036
20
11.411212241626
30
0
41
1
10
48.5974332539165
20
11.4094752652935
30
0
0
SPLINE
5
352
100
AcDbEntity
8
1
62
256
6
ByLayer
370
13
48
1
60
0
100
AcDbSpline
70
4
71
3
72
8
73
4
40
0
40
0
40
0
40
0
40
1
40
1
40
1
40
1
41
1
10
48.7491544982117
20
16.0823575865096
30
0
41
1
10
48.7506100918294
20
16.0812292340115
30
0
41
1
10
48.7520662573624
20
16.0800783171441
30
0
41
1
10
48.7535224694942
20
16.0789052800196
30
0
0
SPLINE
5
353
100
AcDbEntity
8
1
62
256
6
ByLayer
370
13
48
1
60
0
100
AcDbSpline
70
4
71
3
72
10
73
6
40
0
40
0
40
0
40
0
40
0.328350362460941
40
0.328350362460941
40
1
40
1
40
1
40
1
41
1
10
49.2878589937234
20
16.5878532788885
30
0
41
1
10
49.2930492714347
20
16.588551469932
30
0
41
1
10
49.2983205038718
20
16.5888846374503
30
0
41
1
10
49.3142838869192
20
16.588731850304
30
0
41
1
10
49.3250719873787
20
16.5872357165742
30
0
41
1
10
49.3354471297938
20
16.5845267451936
30
0
0
SPLINE
5
354
100
AcDbEntity
8
1
62
256
6
ByLayer
370
13
48
1
60
0
100
AcDbSpline
70
4
71
3
72
8
73
4
40
0
40
0
40
0
40
0
40
1
40
1
40
1
40
1
41
1
10
48.6359219030158
20
12.1860044393864
30
0
41
1
10
48.6309178672316
20
12.18711529739
30
0
41
1
10
48.6259240337254
20
12.188305292023
30
0
41
1
10
48.6209469220189
20
12.1895766151858
30
0
0
SPLINE
5
355
100
AcDbEntity
8
1
62
256
6
ByLayer
370
13
48
1
60
0
100
AcDbSpline
70
4
71
3
72
10
73
6
40
0
40
0
40
0
40
0
40
0.437831856690126
40
0.437831856690126
40
1
40
1
40
1
40
1
41
1
10
46.217398644719
20
15.6966319687381
30
0
41
1
10
46.1905450369771
20
15.6739704808513
30
0
41
1
10
46.1603923985102
20
15.6535207398209
30
0
41
1
10
46.0865084278264
20
15.61416045814
30
0
41
1
10
46.0405061504995
20
15.5969087776082
30
0
41
1
10
45.9928470379229
20
15.5859328865369
30
0
0
SPLINE
5
356
100
AcDbEntity
8
1
62
256
6
ByLayer
370
18
48
1
60
0
100
AcDbSpline
70
4
71
3
72
8
73
4
40
0
40
0
40
0
40
0
40
1
40
1
40
1
40
1
41
1
10
49.6
20
15.5876396954675
30
0
41
1
10
49.6
20
15.5584083370476
30
0
41
1
10
49.5998577899933
20
15.5291582574193
30
0
41
1
10
49.5995702589276
20
15.5
30
0
0
SPLINE
5
357
100
AcDbEntity
8
1
62
256
6
ByLayer
370
13
48
1
60
0
100
AcDbSpline
70
4
71
3
72
8
73
4
40
0
40
0
40
0
40
0
40
1
40
1
40
1
40
1
41
1
10
48.6584451186158
20
16.0599444061887
30
0
41
1
10
48.6507883351677
20
16.0578479609254
30
0
41
1
10
48.6431427768364
20
16.0556984895921
30
0
41
1
10
48.6355109932399
20
16.0534942756317
30
0
0
SPLINE
5
358
100
AcDbEntity
8
1
62
256
6
ByLayer
370
13
48
1
60
0
100
AcDbSpline
70
4
71
3
72
8
73
4
40
0
40
0
40
0
40
0
40
1
40
1
40
1
40
1
41
1
10
48.0173790825029
20
15.6670695446953
30
0
41
1
10
48.0185473978274
20
15.6664159108588
30
0
41
1
10
48.0197143360831
20
15.6657601259292
30
0
41
1
10
48.0208798836219
20
15.6651021951377
30
0
0
SPLINE
5
359
100
AcDbEntity
8
1
62
256
6
ByLayer
370
18
48
1
60
0
100
AcDbSpline
70
4
71
3
72
12
73
8
40
0
40
0
40
0
40
0
40
0.319492598917517
40
0.319492598917517
40
0.639721012127943
40
0.639721012127943
40
1
40
1
40
1
40
1
41
1
10
49.3
20
11.0131049579325
30
0
41
1
10
49.3435362608082
20
11.0247350022398
30
0
41
1
10
49.3856643725364
20
11.0440583662923
30
0
41
1
10
49.4603290213914
20
11.0948097911121
30
0
41
1
10
49.4938777650608
20
11.1269610211602
30
0
41
1
10
49.551060437544
20
11.2038776744133
30
0
41
1
10
49.5739349240157
20
11.2510832473772
30
0
41
1
10
49.5869540414902
20
11.3
30
0
0
SPLINE
5
35A
100
AcDbEntity
8
1
62
256
6
ByLayer
370
13
48
1
60
0
100
AcDbSpline
70
4
71
3
72
8
73
4
40
0
40
0
40
0
40
0
40
1
40
1
40
1
40
1
41
1
10
49.1608347348722
20
16.5622268374748
30
0
41
1
10
49.2027360254064
20
16.5730400218984
30
0
41
1
10
49.2451537056346
20
16.5821086056143
30
0
41
1
10
49.2878589937233
20
16.5878532788884
30
0
0
SPLINE
5
35B
100
AcDbEntity
8
1
62
256
6
ByLayer
370
13
48
1
60
0
100
AcDbSpline
70
4
71
3
72
8
73
4
40
0
40
0
40
0
40
0
40
1
40
1
40
1
40
1
41
1
10
48.5855156775903
20
16.5853297516726
30
0
41
1
10
48.5815411699149
20
16.583603578263
30
0
41
1
10
48.5775643019078
20
16.5818827331371
30
0
41
1
10
48.5735850890743
20
16.5801672404323
30
0
0
SPLINE
5
35C
100
AcDbEntity
8
1
62
256
6
ByLayer
370
13
48
1
60
0
100
AcDbSpline
70
4
71
3
72
8
73
4
40
0
40
0
40
0
40
0
40
1
40
1
40
1
40
1
41
1
10
48.8363185748554
20
15.9930426443751
30
0
41
1
10
48.8241734988697
20
16.0073752149952
30
0
41
1
10
48.8120745424288
20
16.0212061779749
30
0
41
1
10
48.8003567929702
20
16.0341746671188
30
0
0
SPLINE
5
35D
100
AcDbEntity
8
1
62
256
6
ByLayer
370
13
48
1
60
0
100
AcDbSpline
70
4
71
3
72
28
73
24
40
0
40
0
40
0
40
0
40
0.0289307218226535
40
0.0289307218226535
40
0.15091336734673
40
0.15091336734673
40
0.272817464160116
40
0.272817464160116
40
0.387849894384688
40
0.387849894384688
40
0.500169480407293
40
0.500169480407293
40
0.618478793470547
40
0.618478793470547
40
0.655223308182147
40
0.655223308182147
40
0.759917593478153
40
0.759917593478153
40
0.866506061007795
40
0.866506061007795
40
0.976134549817059
40
0.976134549817059
40
1
40
1
40
1
40
1
41
1
10
48.980331589594
20
12.7493425515051
30
0
41
1
10
48.9751762105656
20
12.7606801203005
30
0
41
1
10
48.9693883827677
20
12.7717788059427
30
0
41
1
10
48.9365384041105
20
12.8272851969238
30
0
41
1
10
48.8989333781026
20
12.8673968938555
30
0
41
1
10
48.8095168441141
20
12.9289614416167
30
0
41
1
10
48.7561790313211
20
12.9514357675903
30
0
41
1
10
48.6466940358799
20
12.9735102364649
30
0
41
1
10
48.5891795137495
20
12.9746597105553
30
0
41
1
10
48.4776904561292
20
12.9578176281823
30
0
41
1
10
48.4220031574376
20
12.9400454503883
30
0
41
1
10
48.3162140565334
20
12.8882402031454
30
0
41
1
10
48.2658179742534
20
12.8518668592646
30
0
41
1
10
48.2059856814282
20
12.800448248655
30
0
41
1
10
48.192368599704
20
12.7875202218128
30
0
41
1
10
48.1432739155113
20
12.7364750021672
30
0
41
1
10
48.1123764669923
20
12.6944067910844
30
0
41
1
10
48.0661765059664
20
12.6073852664938
30
0
41
1
10
48.0505097086246
20
12.5611766380983
30
0
41
1
10
48.0368721370463
20
12.4705954260023
30
0
41
1
10
48.0392054171297
20
12.4249850041357
30
0
41
1
10
48.0529276910134
20
12.3743691921767
30
0
41
1
10
48.0558413928676
20
12.3653748319015
30
0
41
1
10
48.0591730137723
20
12.3565772463842
30
0
0
SPLINE
5
35E
100
AcDbEntity
8
1
62
256
6
ByLayer
370
13
48
1
60
0
100
AcDbSpline
70
4
71
3
72
12
73
8
40
0
40
0
40
0
40
0
40
0.0008041065374557
40
0.0008041065374557
40
0.998515819541747
40
0.998515819541747
40
1
40
1
40
1
40
1
41
1
10
47.65
20
15.7705823148313
30
0
41
1
10
47.6500197531826
20
15.7705800406733
30
0
41
1
10
47.6500395064211
20
15.7705777666684
30
0
41
1
10
47.6745645774325
20
15.7677536050124
30
0
41
1
10
47.6989938355546
20
15.7643253057591
30
0
41
1
10
47.7234196041507
20
15.7605587745281
30
0
41
1
10
47.7234558907656
20
15.7605531768597
30
0
41
1
10
47.7234921769647
20
15.7605475771067
30
0
0
SPLINE
5
35F
100
AcDbEntity
8
1
62
256
6
ByLayer
370
13
48
1
60
0
100
AcDbSpline
70
4
71
3
72
8
73
4
40
0
40
0
40
0
40
0
40
1
40
1
40
1
40
1
41
1
10
46.0455671218847
20
12.7704507384776
30
0
41
1
10
46.041285724127
20
12.7712818750487
30
0
41
1
10
46.0370056113086
20
12.7721117855247
30
0
41
1
10
46.0327268129396
20
12.7729404503615
30
0
0
SPLINE
5
360
100
AcDbEntity
8
1
62
256
6
ByLayer
370
13
48
1
60
0
100
AcDbSpline
70
4
71
3
72
20
73
16
40
0
40
0
40
0
40
0
40
0.0511781701555336
40
0.0511781701555336
40
0.303128062667491
40
0.303128062667491
40
0.356489085308171
40
0.356489085308171
40
0.613164842054315
40
0.613164842054315
40
0.673251350208856
40
0.673251350208856
40
0.936987103992256
40
0.936987103992256
40
1
40
1
40
1
40
1
41
1
10
48.9803315895939
20
15.2506574484951
30
0
41
1
10
48.9852028949996
20
15.2588511923018
30
0
41
1
10
48.9898222673739
20
15.2673198705006
30
0
41
1
10
49.0153222644013
20
15.3183518196039
30
0
41
1
10
49.0304554530919
20
15.3673651870215
30
0
41
1
10
49.0401463347829
20
15.4300365464963
30
0
41
1
10
49.0415422491477
20
15.4412671370261
30
0
41
1
10
49.0477016725801
20
15.5064328719207
30
0
41
1
10
49.0454136874493
20
15.5636475559774
30
0
41
1
10
49.033081379169
20
15.6326068928635
30
0
41
1
10
49.0302854319023
20
15.6457944230191
30
0
41
1
10
49.0130839410955
20
15.7156246059301
30
0
41
1
10
48.9906080389162
20
15.7715369147086
30
0
41
1
10
48.9531599013358
20
15.833874770497
30
0
41
1
10
48.9453931341021
20
15.8457437910118
30
0
41
1
10
48.9371816925958
20
15.8572662551141
30
0
0
SPLINE
5
361
100
AcDbEntity
8
1
62
256
6
ByLayer
370
13
48
1
60
0
100
AcDbSpline
70
4
71
3
72
10
73
6
40
0
40
0
40
0
40
0
40
0.434894923971488
40
0.434894923971488
40
1
40
1
40
1
40
1
41
1
10
46.408829342978
20
12.5991622401085
30
0
41
1
10
46.3670340951309
20
12.6332116969135
30
0
41
1
10
46.3203955048542
20
12.6638357903814
30
0
41
1
10
46.2061345186553
20
12.7234638054236
30
0
41
1
10
46.1351844997325
20
12.749872883718
30
0
41
1
10
46.061983131599
20
12.7673058417038
30
0
0
SPLINE
5
362
100
AcDbEntity
8
1
62
256
6
ByLayer
370
13
48
1
60
0
100
AcDbSpline
70
4
71
3
72
8
73
4
40
0
40
0
40
0
40
0
40
1
40
1
40
1
40
1
41
1
10
48.6815340464425
20
11.9339005620564
30
0
41
1
10
48.6892735986024
20
11.9318921797716
30
0
41
1
10
48.6970230347327
20
11.9299353034775
30
0
41
1
10
48.7047794882309
20
11.928027553379
30
0
0
SPLINE
5
363
100
AcDbEntity
8
1
62
256
6
ByLayer
370
13
48
1
60
0
100
AcDbSpline
70
4
71
3
72
8
73
4
40
0
40
0
40
0
40
0
40
1
40
1
40
1
40
1
41
1
10
48.7576101156604
20
15.8266205736375
30
0
41
1
10
48.7582339340971
20
15.8265249881795
30
0
41
1
10
48.7588569761846
20
15.8264184897455
30
0
41
1
10
48.7594785615588
20
15.8263003316756
30
0
0
SPLINE
5
364
100
AcDbEntity
8
1
62
256
6
ByLayer
370
13
48
1
60
0
100
AcDbSpline
70
4
71
3
72
8
73
4
40
0
40
0
40
0
40
0
40
1
40
1
40
1
40
1
41
1
10
47.9810199560948
20
16.2520625325012
30
0
41
1
10
48.0133596321301
20
16.2510097804666
30
0
41
1
10
48.0456938544173
20
16.2498650946995
30
0
41
1
10
48.0780203692057
20
16.2486248494549
30
0
0
SPLINE
5
365
100
AcDbEntity
8
1
62
256
6
ByLayer
370
18
48
1
60
0
100
AcDbSpline
70
4
71
3
72
10
73
6
40
0
40
0
40
0
40
0
40
0.638354565756767
40
0.638354565756767
40
1
40
1
40
1
40
1
41
1
10
45.1733899251209
20
11.600894125326
30
0
41
1
10
45.0919889429359
20
11.6418654821494
30
0
41
1
10
45.007985142935
20
11.6707005505582
30
0
41
1
10
44.8881861444792
20
11.7015552982648
30
0
41
1
10
44.8464796055663
20
11.7100423898211
30
0
41
1
10
44.8079633817629
20
11.71658804411
30
0
0
SPLINE
5
366
100
AcDbEntity
8
1
62
256
6
ByLayer
370
18
48
1
60
0
100
AcDbSpline
70
4
71
3
72
14
73
10
40
0
40
0
40
0
40
0
40
0.318886263131683
40
0.318886263131683
40
0.638383475874435
40
0.638383475874435
40
0.959645569304919
40
0.959645569304919
40
1
40
1
40
1
40
1
41
1
10
49.586980127946
20
16.7
30
0
41
1
10
49.5754539604247
20
16.7434399379987
30
0
41
1
10
49.556255025838
20
16.7854903900307
30
0
41
1
10
49.505762590907
20
16.860019275069
30
0
41
1
10
49.4737548578561
20
16.893509873898
30
0
41
1
10
49.4013253375135
20
16.9475236022489
30
0
41
1
10
49.3598455791321
20
16.9687222436912
30
0
41
1
10
49.3111202534395
20
16.9839193492199
30
0
41
1
10
49.3055753626753
20
16.9855182429389
30
0
41
1
10
49.3
20
16.9869960989334
30
0
0
SPLINE
5
367
100
AcDbEntity
8
1
62
256
6
ByLayer
370
13
48
1
60
0
100
AcDbSpline
70
4
71
3
72
8
73
4
40
0
40
0
40
0
40
0
40
1
40
1
40
1
40
1
41
1
10
48.882516190279
20
11.3004822737294
30
0
41
1
10
48.9645588867477
20
11.2721238872531
30
0
41
1
10
49.0496557028996
20
11.250607649289
30
0
41
1
10
49.1358136768821
20
11.2395149490545
30
0
0
SPLINE
5
368
100
AcDbEntity
8
1
62
256
6
ByLayer
370
13
48
1
60
0
100
AcDbSpline
70
4
71
3
72
8
73
4
40
0
40
0
40
0
40
0
40
1
40
1
40
1
40
1
41
1
10
48.4587307350278
20
16.2951870443894
30
0
41
1
10
48.4660189175329
20
16.2981042835341
30
0
41
1
10
48.4733039881168
20
16.3010284327177
30
0
41
1
10
48.4805858669152
20
16.3039595188274
30
0
0
SPLINE
5
369
100
AcDbEntity
8
1
62
256
6
ByLayer
370
13
48
1
60
0
100
AcDbSpline
70
4
71
3
72
20
73
16
40
0
40
0
40
0
40
0
40
0.289433662901036
40
0.289433662901036
40
0.581653230579824
40
0.581653230579824
40
0.734424428191347
40
0.734424428191347
40
0.813835652770702
40
0.813835652770702
40
0.85181720545641
40
0.85181720545641
40
0.999858093292822
40
0.999858093292822
40
1
40
1
40
1
40
1
41
1
10
47.6877692412714
20
11.7452067580089
30
0
41
1
10
47.6470333233471
20
11.7473464755602
30
0
41
1
10
47.6062788847873
20
11.7491556107241
30
0
41
1
10
47.5245211970633
20
11.7540250936046
30
0
41
1
10
47.4834582214744
20
11.7569836563668
30
0
41
1
10
47.4212520845594
20
11.764648784633
30
0
41
1
10
47.3999444295
20
11.7679779444084
30
0
41
1
10
47.3678429405989
20
11.7743153228095
30
0
41
1
10
47.3569032149485
20
11.7766984558382
30
0
41
1
10
47.3407767110538
20
11.7802792833781
30
0
41
1
10
47.3354443387808
20
11.7808471300345
30
0
41
1
10
47.3094897344781
20
11.7835802424662
30
0
41
1
10
47.2885685781028
20
11.7844660116422
30
0
41
1
10
47.268254158121
20
11.7890117032367
30
0
41
1
10
47.2682346478803
20
11.7890160671517
30
0
41
1
10
47.2682151376414
20
11.7890204312382
30
0
0
SPLINE
5
36A
100
AcDbEntity
8
1
62
256
6
ByLayer
370
18
48
1
60
0
100
AcDbSpline
70
4
71
3
72
8
73
4
40
0
40
0
40
0
40
0
40
1
40
1
40
1
40
1
41
1
10
49.5995702589276
20
12.5
30
0
41
1
10
49.5998577899933
20
12.4708417425787
30
0
41
1
10
49.6
20
12.4415916629484
30
0
41
1
10
49.6
20
12.4123603045264
30
0
0
SPLINE
5
36B
100
AcDbEntity
8
1
62
256
6
ByLayer
370
13
48
1
60
0
100
AcDbSpline
70
4
71
3
72
14
73
10
40
0
40
0
40
0
40
0
40
0.0142595095454377
40
0.0142595095454377
40
0.503363468225848
40
0.503363468225848
40
0.594705536481033
40
0.594705536481033
40
1
40
1
40
1
40
1
41
1
10
43.6239821386886
20
14.2833105415299
30
0
41
1
10
43.6237601579634
20
14.284413833546
30
0
41
1
10
43.6235319315433
20
14.2855172448675
30
0
41
1
10
43.6153718656787
20
14.3239643517459
30
0
41
1
10
43.6001632942615
20
14.3621640777334
30
0
41
1
10
43.5747701836939
20
14.4048033035322
30
0
41
1
10
43.5705002100713
20
14.4115299486092
30
0
41
1
10
43.54641420987
20
14.447202090267
30
0
41
1
10
43.5222745806484
20
14.475035215193
30
0
41
1
10
43.4949746554928
20
14.4998807796877
30
0
0
SPLINE
5
36C
100
AcDbEntity
8
1
62
256
6
ByLayer
370
13
48
1
60
0
100
AcDbSpline
70
4
71
3
72
8
73
4
40
0
40
0
40
0
40
0
40
1
40
1
40
1
40
1
41
1
10
48.5916290701336
20
12.1980928934473
30
0
41
1
10
48.5523163544692
20
12.2109418177808
30
0
41
1
10
48.5133802503087
20
12.2265787153175
30
0
41
1
10
48.4763488059907
20
12.2434763931689
30
0
0
SPLINE
5
36D
100
AcDbEntity
8
1
62
256
6
ByLayer
370
13
48
1
60
0
100
AcDbSpline
70
4
71
3
72
8
73
4
40
0
40
0
40
0
40
0
40
1
40
1
40
1
40
1
41
1
10
47.7597714746036
20
12.1682803461653
30
0
41
1
10
47.7779978148842
20
12.1684983125132
30
0
41
1
10
47.7962239434943
20
12.1690690058429
30
0
41
1
10
47.8144285509218
20
12.1699872919053
30
0
0
SPLINE
5
36E
100
AcDbEntity
8
1
62
256
6
ByLayer
370
13
48
1
60
0
100
AcDbSpline
70
4
71
3
72
10
73
6
40
0
40
0
40
0
40
0
40
0.999171519409529
40
0.999171519409529
40
1
40
1
40
1
40
1
41
1
10
49.5931426058675
20
12.9542543731065
30
0
41
1
10
49.5707019687104
20
12.9464818359082
30
0
41
1
10
49.5482515938478
20
12.938734830674
30
0
41
1
10
49.5257734717843
20
12.9310054777128
30
0
41
1
10
49.5257548495991
20
12.9309990743048
30
0
41
1
10
49.52573622742
20
12.9309926708795
30
0
0
SPLINE
5
36F
100
AcDbEntity
8
1
62
256
6
ByLayer
370
18
48
1
60
0
100
AcDbSpline
70
4
71
3
72
8
73
4
40
0
40
0
40
0
40
0
40
1
40
1
40
1
40
1
41
1
10
49.5954643317179
20
15.1401421630482
30
0
41
1
10
49.5960721399628
20
15.1802140103053
30
0
41
1
10
49.59660225325
20
15.2212202270912
30
0
41
1
10
49.5970914593061
20
15.2627691319059
30
0
0
SPLINE
5
370
100
AcDbEntity
8
1
62
256
6
ByLayer
370
13
48
1
60
0
100
AcDbSpline
70
4
71
3
72
10
73
6
40
0
40
0
40
0
40
0
40
0.555264081805526
40
0.555264081805526
40
1
40
1
40
1
40
1
41
1
10
47.8109443135567
20
12.0974125465331
30
0
41
1
10
47.8406842618644
20
12.0976231328437
30
0
41
1
10
47.8704242585479
20
12.097683526595
30
0
41
1
10
47.9239850573845
20
12.0976620510554
30
0
41
1
10
47.9478061875936
20
12.0976068131722
30
0
41
1
10
47.971627935454
20
12.0975483148457
30
0
0
SPLINE
5
371
100
AcDbEntity
8
1
62
256
6
ByLayer
370
13
48
1
60
0
100
AcDbSpline
70
4
71
3
72
8
73
4
40
0
40
0
40
0
40
0
40
1
40
1
40
1
40
1
41
1
10
48.2138402654707
20
12.0861043649509
30
0
41
1
10
48.2660036127091
20
12.0716382987257
30
0
41
1
10
48.320042226577
20
12.0541344838052
30
0
41
1
10
48.3737330027423
20
12.0360313070292
30
0
0
SPLINE
5
372
100
AcDbEntity
8
1
62
256
6
ByLayer
370
18
48
1
60
0
100
AcDbSpline
70
4
71
3
72
8
73
4
40
0
40
0
40
0
40
0
40
1
40
1
40
1
40
1
41
1
10
49.20002532307
20
10.9999670929778
30
0
41
1
10
49.1751436458835
20
10.9999507158833
30
0
41
1
10
49.1502607301229
20
11.0001667654785
30
0
41
1
10
49.1253830882904
20
11.0006151934124
30
0
0
SPLINE
5
373
100
AcDbEntity
8
1
62
256
6
ByLayer
370
18
48
1
60
0
100
AcDbSpline
70
4
71
3
72
8
73
4
40
0
40
0
40
0
40
0
40
1
40
1
40
1
40
1
41
1
10
49.5995702589143
20
12.5
30
0
41
1
10
49.5987813698449
20
12.5800008143734
30
0
41
1
10
49.597998753504
20
12.6598612407572
30
0
41
1
10
49.5970865249754
20
12.737255497765
30
0
0
SPLINE
5
374
100
AcDbEntity
8
1
62
256
6
ByLayer
370
13
48
1
60
0
100
AcDbSpline
70
4
71
3
72
8
73
4
40
0
40
0
40
0
40
0
40
1
40
1
40
1
40
1
41
1
10
48.0718661171709
20
15.8143364733431
30
0
41
1
10
48.0404608506527
20
15.8169117730924
30
0
41
1
10
48.0090112369568
20
15.8191830857609
30
0
41
1
10
47.977548491921
20
15.8212260663499
30
0
0
SPLINE
5
375
100
AcDbEntity
8
1
62
256
6
ByLayer
370
13
48
1
60
0
100
AcDbSpline
70
4
71
3
72
8
73
4
40
0
40
0
40
0
40
0
40
1
40
1
40
1
40
1
41
1
10
47.0000000000001
20
16.3950298057024
30
0
41
1
10
47.0000000000001
20
16.5644833944562
30
0
41
1
10
47.0000000000001
20
16.73393698321
30
0
41
1
10
47.0000000000001
20
16.9033905719637
30
0
0
SPLINE
5
376
100
AcDbEntity
8
1
62
256
6
ByLayer
370
13
48
1
60
0
100
AcDbSpline
70
4
71
3
72
11
73
7
40
0
40
0
40
0
40
0
40
0.257176923133716
40
0.513609588248175
40
0.770214864775544
40
1
40
1
40
1
40
1
41
1
10
47.2890217302625
20
15.863723895915
30
0
41
1
10
47.2875416189014
20
15.8884266630099
30
0
41
1
10
47.2845856795523
20
15.9377607085438
30
0
41
1
10
47.2786933225244
20
16.0360999434593
30
0
41
1
10
47.2728944151057
20
16.1328907511386
30
0
41
1
10
47.2697121489769
20
16.1859816619662
30
0
41
1
10
47.2682087528674
20
16.2110633696416
30
0
0
SPLINE
5
377
100
AcDbEntity
8
1
62
256
6
ByLayer
370
13
48
1
60
0
100
AcDbSpline
70
4
71
3
72
8
73
4
40
0
40
0
40
0
40
0
40
1
40
1
40
1
40
1
41
1
10
48.5081234667115
20
11.4474819649853
30
0
41
1
10
48.5150637815396
20
11.4446109706599
30
0
41
1
10
48.5219972614916
20
11.4417236909928
30
0
41
1
10
48.5289237938153
20
11.4388201838374
30
0
0
SPLINE
5
378
100
AcDbEntity
8
1
62
256
6
ByLayer
370
13
48
1
60
0
100
AcDbSpline
70
4
71
3
72
8
73
4
40
0
40
0
40
0
40
0
40
1
40
1
40
1
40
1
41
1
10
48.7463045145122
20
15.8273014040057
30
0
41
1
10
48.7465073719164
20
15.8273058210739
30
0
41
1
10
48.7467102912712
20
15.8273094401034
30
0
41
1
10
48.7469132650767
20
15.8273122469085
30
0
0
SPLINE
5
379
100
AcDbEntity
8
1
62
256
6
ByLayer
370
13
48
1
60
0
100
AcDbSpline
70
4
71
3
72
8
73
4
40
0
40
0
40
0
40
0
40
1
40
1
40
1
40
1
41
1
10
48.4368545163779
20
11.7135449418286
30
0
41
1
10
48.4295587236344
20
11.7164489800121
30
0
41
1
10
48.4222598617322
20
11.7193461575447
30
0
41
1
10
48.4149580164184
20
11.722236518998
30
0
0
SPLINE
5
37A
100
AcDbEntity
8
1
62
256
6
ByLayer
370
13
48
1
60
0
100
AcDbSpline
70
4
71
3
72
8
73
4
40
0
40
0
40
0
40
0
40
1
40
1
40
1
40
1
41
1
10
48.132422271337
20
12.0975485761614
30
0
41
1
10
48.1343929015704
20
12.0975599244539
30
0
41
1
10
48.1363635087407
20
12.0975724018659
30
0
41
1
10
48.1383340901905
20
12.0975860164877
30
0
0
SPLINE
5
37B
100
AcDbEntity
8
1
62
256
6
ByLayer
370
13
48
1
60
0
100
AcDbSpline
70
4
71
3
72
8
73
4
40
0
40
0
40
0
40
0
40
1
40
1
40
1
40
1
41
1
10
48.5974332539165
20
16.5905247347065
30
0
41
1
10
48.5934630917036
20
16.5887877583741
30
0
41
1
10
48.5894905615203
20
16.5870560884938
30
0
41
1
10
48.585515677587
20
16.5853297516711
30
0
0
SPLINE
5
37C
100
AcDbEntity
8
1
62
256
6
ByLayer
370
13
48
1
60
0
100
AcDbSpline
70
4
71
3
72
14
73
10
40
0
40
0
40
0
40
0
40
0.056950755710327
40
0.056950755710327
40
0.367192121057128
40
0.367192121057128
40
0.683769245764315
40
0.683769245764315
40
1
40
1
40
1
40
1
41
1
10
48.7921436014447
20
15.7795414094475
30
0
41
1
10
48.7968616272907
20
15.7709622176962
30
0
41
1
10
48.8012241024377
20
15.7621683680458
30
0
41
1
10
48.8266652859382
20
15.7054424420689
30
0
41
1
10
48.8384095594332
20
15.6523418302553
30
0
41
1
10
48.8466715230383
20
15.5478265184423
30
0
41
1
10
48.8430946161005
20
15.4945595109611
30
0
41
1
10
48.8242076231655
20
15.3967534593959
30
0
41
1
10
48.8086482723202
20
15.3507718967941
30
0
41
1
10
48.7881525715208
20
15.3114801269806
30
0
0
SPLINE
5
37D
100
AcDbEntity
8
1
62
256
6
ByLayer
370
13
48
1
60
0
100
AcDbSpline
70
4
71
3
72
8
73
4
40
0
40
0
40
0
40
0
40
1
40
1
40
1
40
1
41
1
10
48.319965552646
20
16.250384907087
30
0
41
1
10
48.3524003181638
20
16.256213529509
30
0
41
1
10
48.3844035113634
20
16.265437915921
30
0
41
1
10
48.4149580164184
20
16.277763481002
30
0
0
SPLINE
5
37E
100
AcDbEntity
8
1
62
256
6
ByLayer
370
13
48
1
60
0
100
AcDbSpline
70
4
71
3
72
8
73
4
40
0
40
0
40
0
40
0
40
1
40
1
40
1
40
1
41
1
10
48.3613181945792
20
11.5054164496679
30
0
41
1
10
48.3683587336016
20
11.5027686940092
30
0
41
1
10
48.3753931890502
20
11.5001049872758
30
0
41
1
10
48.3824213915817
20
11.497425221509
30
0
0
SPLINE
5
37F
100
AcDbEntity
8
1
62
256
6
ByLayer
370
13
48
1
60
0
100
AcDbSpline
70
4
71
3
72
12
73
8
40
0
40
0
40
0
40
0
40
0.587045223615702
40
0.587045223615702
40
0.873404334263918
40
0.873404334263918
40
1
40
1
40
1
40
1
41
1
10
49.4090128030826
20
16.7000000000033
30
0
41
1
10
49.390923447243
20
16.7178920438676
30
0
41
1
10
49.3727062361442
20
16.7363873392595
30
0
41
1
10
49.3405462388879
20
16.7566248034599
30
0
41
1
10
49.3288003096613
20
16.7618125274635
30
0
41
1
10
49.3111627787902
20
16.7655356534649
30
0
41
1
10
49.3055765647838
20
16.7661939257467
30
0
41
1
10
49.3
20
16.7663379527219
30
0
0
SPLINE
5
380
100
AcDbEntity
8
1
62
256
6
ByLayer
370
13
48
1
60
0
100
AcDbSpline
70
4
71
3
72
8
73
4
40
0
40
0
40
0
40
0
40
1
40
1
40
1
40
1
41
1
10
48.6454946127906
20
16.3717684290869
30
0
41
1
10
48.6496645688001
20
16.3735196578928
30
0
41
1
10
48.6538333548367
20
16.3752731862908
30
0
41
1
10
48.6580009615612
20
16.3770290046369
30
0
0
SPLINE
5
381
100
AcDbEntity
8
1
62
256
6
ByLayer
370
13
48
1
60
0
100
AcDbSpline
70
4
71
3
72
8
73
4
40
0
40
0
40
0
40
0
40
1
40
1
40
1
40
1
41
1
10
48.6584451186158
20
11.9400555938113
30
0
41
1
10
48.6661304290163
20
11.9379513357467
30
0
41
1
10
48.6738276358529
20
11.9359003393322
30
0
41
1
10
48.6815340464424
20
11.9339005620558
30
0
0
SPLINE
5
382
100
AcDbEntity
8
1
62
256
6
ByLayer
370
13
48
1
60
0
100
AcDbSpline
70
4
71
3
72
8
73
4
40
0
40
0
40
0
40
0
40
1
40
1
40
1
40
1
41
1
10
48.3824213915817
20
16.5025747784911
30
0
41
1
10
48.3753931890502
20
16.4998950127243
30
0
41
1
10
48.3683587336016
20
16.4972313059908
30
0
41
1
10
48.3613181945792
20
16.4945835503321
30
0
0
SPLINE
5
383
100
AcDbEntity
8
1
62
256
6
ByLayer
370
13
48
1
60
0
100
AcDbSpline
70
4
71
3
72
8
73
4
40
0
40
0
40
0
40
0
40
1
40
1
40
1
40
1
41
1
10
48.9099740956151
20
15.9068845024269
30
0
41
1
10
48.9554196842923
20
15.9291179178123
30
0
41
1
10
49.0004038318865
20
15.9523503243646
30
0
41
1
10
49.0447669894049
20
15.9767112899752
30
0
0
SPLINE
5
384
100
AcDbEntity
8
1
62
256
6
ByLayer
370
13
48
1
60
0
100
AcDbSpline
70
4
71
3
72
8
73
4
40
0
40
0
40
0
40
0
40
1
40
1
40
1
40
1
41
1
10
47.819320778088
20
11.7434312990345
30
0
41
1
10
47.7947963383193
20
11.7428566698544
30
0
41
1
10
47.7702534660004
20
11.7427923035951
30
0
41
1
10
47.7457249471384
20
11.7432382439046
30
0
0
SPLINE
5
385
100
AcDbEntity
8
1
62
256
6
ByLayer
370
13
48
1
60
0
100
AcDbSpline
70
4
71
3
72
28
73
24
40
0
40
0
40
0
40
0
40
0.0238654501829895
40
0.0238654501829895
40
0.133493938992399
40
0.133493938992399
40
0.240082406522175
40
0.240082406522175
40
0.344776691818314
40
0.344776691818314
40
0.381521206529919
40
0.381521206529919
40
0.499830519593048
40
0.499830519593048
40
0.612150105615577
40
0.612150105615577
40
0.727182535840069
40
0.727182535840069
40
0.849086632653371
40
0.849086632653371
40
0.971069278177364
40
0.971069278177364
40
1
40
1
40
1
40
1
41
1
10
48.0591730137723
20
15.6434227536159
30
0
41
1
10
48.0558413928676
20
15.6346251680986
30
0
41
1
10
48.0529276910134
20
15.6256308078234
30
0
41
1
10
48.0392054171297
20
15.5750149958643
30
0
41
1
10
48.0368721370463
20
15.5294045739977
30
0
41
1
10
48.0505097086246
20
15.4388233619017
30
0
41
1
10
48.0661765059664
20
15.3926147335063
30
0
41
1
10
48.1123764669923
20
15.3055932089156
30
0
41
1
10
48.1432739155111
20
15.2635249978327
30
0
41
1
10
48.192368599704
20
15.2124797781873
30
0
41
1
10
48.2059856814281
20
15.1995517513449
30
0
41
1
10
48.2658179742536
20
15.1481331407356
30
0
41
1
10
48.3162140565334
20
15.1117597968546
30
0
41
1
10
48.4220031574376
20
15.0599545496117
30
0
41
1
10
48.4776904561292
20
15.0421823718177
30
0
41
1
10
48.5891795137495
20
15.0253402894448
30
0
41
1
10
48.6466940358799
20
15.0264897635351
30
0
41
1
10
48.7561790313211
20
15.0485642324098
30
0
41
1
10
48.8095168441141
20
15.0710385583834
30
0
41
1
10
48.8989333781026
20
15.1326031061446
30
0
41
1
10
48.9365384041104
20
15.1727148030762
30
0
41
1
10
48.9693883827677
20
15.2282211940574
30
0
41
1
10
48.9751762105656
20
15.2393198796996
30
0
41
1
10
48.980331589594
20
15.250657448495
30
0
0
SPLINE
5
386
100
AcDbEntity
8
1
62
256
6
ByLayer
370
13
48
1
60
0
100
AcDbSpline
70
4
71
3
72
8
73
4
40
0
40
0
40
0
40
0
40
1
40
1
40
1
40
1
41
1
10
48.6665132813234
20
15.819816673738
30
0
41
1
10
48.6717187270973
20
15.8206494541071
30
0
41
1
10
48.6769272366318
20
15.8214058508909
30
0
41
1
10
48.6821324141415
20
15.8220905710104
30
0
0
SPLINE
5
387
100
AcDbEntity
8
1
62
256
6
ByLayer
370
13
48
1
60
0
100
AcDbSpline
70
4
71
3
72
8
73
4
40
0
40
0
40
0
40
0
40
1
40
1
40
1
40
1
41
1
10
47.819320778088
20
16.2565687009657
30
0
41
1
10
47.8732317120774
20
16.2553161915036
30
0
41
1
10
47.9271346700752
20
16.2538166576419
30
0
41
1
10
47.9810199560951
20
16.252062532453
30
0
0
SPLINE
5
388
100
AcDbEntity
8
1
62
256
6
ByLayer
370
13
48
1
60
0
100
AcDbSpline
70
4
71
3
72
8
73
4
40
0
40
0
40
0
40
0
40
1
40
1
40
1
40
1
41
1
10
47.6759025432334
20
16.4880064998108
30
0
41
1
10
47.6801330572889
20
16.405600684958
30
0
41
1
10
47.6845527986922
20
16.3187482351245
30
0
41
1
10
47.6877720844473
20
16.2547578459318
30
0
0
SPLINE
5
389
100
AcDbEntity
8
1
62
256
6
ByLayer
370
13
48
1
60
0
100
AcDbSpline
70
4
71
3
72
8
73
4
40
0
40
0
40
0
40
0
40
1
40
1
40
1
40
1
41
1
10
47.7457249471383
20
11.7432382439102
30
0
41
1
10
47.7263991381602
20
11.7435895972654
30
0
41
1
10
47.7070761777234
20
11.7442577534329
30
0
41
1
10
47.6877720844474
20
11.7452421540675
30
0
0
SPLINE
5
38A
100
AcDbEntity
8
1
62
256
6
ByLayer
370
13
48
1
60
0
100
AcDbSpline
70
4
71
3
72
26
73
22
40
0
40
0
40
0
40
0
40
0.0122865037331945
40
0.0122865037331945
40
0.0203633243286945
40
0.0203633243286945
40
0.0324483024075776
40
0.0324483024075776
40
0.0517995738134456
40
0.0517995738134456
40
0.082857259996496
40
0.082857259996496
40
0.132959910827474
40
0.132959910827474
40
0.214784426828201
40
0.214784426828201
40
0.352758585347139
40
0.352758585347139
40
0.512659311053173
40
0.512659311053173
40
1
40
1
40
1
40
1
41
1
10
44.8790160745722
20
15.1745392077171
30
0
41
1
10
44.8802631387214
20
15.1741954596112
30
0
41
1
10
44.8815121178776
20
15.1738522959702
30
0
41
1
10
44.8835965018358
20
15.1732779706566
30
0
41
1
10
44.8844312261931
20
15.1730478482351
30
0
41
1
10
44.8865165813828
20
15.1724726319066
30
0
41
1
10
44.8877680601335
20
15.1721271496001
30
0
41
1
10
44.8910272677862
20
15.1712266889737
30
0
41
1
10
44.8930373472372
20
15.1706706250792
30
0
41
1
10
44.8982827003007
20
15.1692177027394
30
0
41
1
10
44.901523874616
20
15.1683180865339
30
0
41
1
10
44.9100155123904
20
15.1659563866007
30
0
41
1
10
44.9152807131759
20
15.1644872831277
30
0
41
1
10
44.9291930246603
20
15.1605931673464
30
0
41
1
10
44.9378769144195
20
15.1581500928799
30
0
41
1
10
44.9612949416929
20
15.1515300434607
30
0
41
1
10
44.976122613555
20
15.1473047717959
30
0
41
1
10
45.0082176667697
20
15.138096974245
30
0
41
1
10
45.0255451730317
20
15.1330872645744
30
0
41
1
10
45.0948148203061
20
15.1129536059206
30
0
41
1
10
45.1474689063882
20
15.0973765056888
30
0
41
1
10
45.1961097614156
20
15.0833006494087
30
0
0
SPLINE
5
38B
100
AcDbEntity
8
1
62
256
6
ByLayer
370
13
48
1
60
0
100
AcDbSpline
70
4
71
3
72
8
73
4
40
0
40
0
40
0
40
0
40
1
40
1
40
1
40
1
41
1
10
48.7393259367937
20
11.3513348139012
30
0
41
1
10
48.7866279183623
20
11.3332431438682
30
0
41
1
10
48.8343751227863
20
11.3162495072824
30
0
41
1
10
48.882516190279
20
11.3004822737294
30
0
0
SPLINE
5
38C
100
AcDbEntity
8
1
62
256
6
ByLayer
370
13
48
1
60
0
100
AcDbSpline
70
4
71
3
72
8
73
4
40
0
40
0
40
0
40
0
40
1
40
1
40
1
40
1
41
1
10
47.8144285509218
20
15.8300127080947
30
0
41
1
10
47.7962239434943
20
15.8309309941571
30
0
41
1
10
47.7779978148842
20
15.8315016874868
30
0
41
1
10
47.7597714746036
20
15.8317196538348
30
0
0
SPLINE
5
38D
100
AcDbEntity
8
1
62
256
6
ByLayer
370
13
48
1
60
0
100
AcDbSpline
70
4
71
3
72
11
73
7
40
0
40
0
40
0
40
0
40
0.229785135224466
40
0.486390411751827
40
0.742823076866306
40
1
40
1
40
1
40
1
41
1
10
47.2682087528674
20
11.7889366303584
30
0
41
1
10
47.2697121489769
20
11.8140183380339
30
0
41
1
10
47.2728944151057
20
11.8671092488614
30
0
41
1
10
47.2786933225244
20
11.9639000565407
30
0
41
1
10
47.2845856795524
20
12.0622392914562
30
0
41
1
10
47.2875416189014
20
12.1115733369902
30
0
41
1
10
47.2890217302625
20
12.136276104085
30
0
0
SPLINE
5
38E
100
AcDbEntity
8
1
62
256
6
ByLayer
370
13
48
1
60
0
100
AcDbSpline
70
4
71
3
72
8
73
4
40
0
40
0
40
0
40
0
40
1
40
1
40
1
40
1
41
1
10
43.6220305501845
20
14.2386118159886
30
0
41
1
10
43.6448336258623
20
14.2120323053459
30
0
41
1
10
43.6669217934164
20
14.1830130064387
30
0
41
1
10
43.6879774155726
20
14.151519615133
30
0
0
SPLINE
5
38F
100
AcDbEntity
8
1
62
256
6
ByLayer
370
13
48
1
60
0
100
AcDbSpline
70
4
71
3
72
8
73
4
40
0
40
0
40
0
40
0
40
1
40
1
40
1
40
1
41
1
10
48.1104320378299
20
15.7713871839645
30
0
41
1
10
48.0851737575816
20
15.7287618582542
30
0
41
1
10
48.0676714457117
20
15.6850804977019
30
0
41
1
10
48.0591730137739
20
15.6434227536155
30
0
0
SPLINE
5
390
100
AcDbEntity
8
1
62
256
6
ByLayer
370
13
48
1
60
0
100
AcDbSpline
70
4
71
3
72
8
73
4
40
0
40
0
40
0
40
0
40
1
40
1
40
1
40
1
41
1
10
48.0780203692057
20
11.7513751505452
30
0
41
1
10
48.0456938544173
20
11.7501349053006
30
0
41
1
10
48.0133596321301
20
11.7489902195335
30
0
41
1
10
47.9810199560948
20
11.7479374674988
30
0
0
SPLINE
5
391
100
AcDbEntity
8
1
62
256
6
ByLayer
370
13
48
1
60
0
100
AcDbSpline
70
4
71
3
72
10
73
6
40
0
40
0
40
0
40
0
40
0.503010077090077
40
0.503010077090077
40
1
40
1
40
1
40
1
41
1
10
47.0380313022955
20
11.8368326802658
30
0
41
1
10
46.9325205707173
20
11.8546835324198
30
0
41
1
10
46.8281442161718
20
11.8806416865631
30
0
41
1
10
46.6244506035879
20
11.9403141365474
30
0
41
1
10
46.5247554234597
20
11.974225777514
30
0
41
1
10
46.4249063417947
20
12.0075582436303
30
0
0
SPLINE
5
392
100
AcDbEntity
8
1
62
256
6
ByLayer
370
13
48
1
60
0
100
AcDbSpline
70
4
71
3
72
8
73
4
40
0
40
0
40
0
40
0
40
1
40
1
40
1
40
1
41
1
10
48.5460260607216
20
11.6694764655375
30
0
41
1
10
48.5387652355361
20
11.6724487834497
30
0
41
1
10
48.5315010589711
20
11.6754141157747
30
0
41
1
10
48.5242336007821
20
11.6783724618839
30
0
0
SPLINE
5
393
100
AcDbEntity
8
1
62
256
6
ByLayer
370
13
48
1
60
0
100
AcDbSpline
70
4
71
3
72
8
73
4
40
0
40
0
40
0
40
0
40
1
40
1
40
1
40
1
41
1
10
48.5242336007821
20
11.6783724618839
30
0
41
1
10
48.5169658419914
20
11.6813309301218
30
0
41
1
10
48.5096947817258
20
11.6842824203715
30
0
41
1
10
48.5024204932651
20
11.687226941266
30
0
0
SPLINE
5
394
100
AcDbEntity
8
1
62
256
6
ByLayer
370
13
48
1
60
0
100
AcDbSpline
70
4
71
3
72
8
73
4
40
0
40
0
40
0
40
0
40
1
40
1
40
1
40
1
41
1
10
45.1961097614156
20
15.0833006494087
30
0
41
1
10
45.2371857631138
20
15.071413936148
30
0
41
1
10
45.2776576844643
20
15.063316267457
30
0
41
1
10
45.31533802761
20
15.059473518579
30
0
0
SPLINE
5
395
100
AcDbEntity
8
1
62
256
6
ByLayer
370
13
48
1
60
0
100
AcDbSpline
70
4
71
3
72
26
73
22
40
0
40
0
40
0
40
0
40
0.51000080184898
40
0.51000080184898
40
0.64731193456715
40
0.64731193456715
40
0.766752663772299
40
0.766752663772299
40
0.815550987617645
40
0.815550987617645
40
0.836498186442162
40
0.836498186442162
40
0.872808195013546
40
0.872808195013546
40
0.899177508408349
40
0.899177508408349
40
0.944267018337106
40
0.944267018337106
40
0.962905290952247
40
0.962905290952247
40
1
40
1
40
1
40
1
41
1
10
49.0593115493021
20
11.7715491217045
30
0
41
1
10
49.1433451313258
20
11.7289584710664
30
0
41
1
10
49.2268356630615
20
11.6817319086301
30
0
41
1
10
49.3190328418846
20
11.6050576320261
30
0
41
1
10
49.3379189775827
20
11.5875468490783
30
0
41
1
10
49.3691478236312
20
11.5515207346175
30
0
41
1
10
49.3825095602198
20
11.5331308983252
30
0
41
1
10
49.3943315514621
20
11.5042544022793
30
0
41
1
10
49.3969197818947
20
11.4953206774955
30
0
41
1
10
49.3982323812219
20
11.482331327162
30
0
41
1
10
49.3983141379954
20
11.4783559206391
30
0
41
1
10
49.3974886033061
20
11.4676850810805
30
0
41
1
10
49.395759252099
20
11.4609101966887
30
0
41
1
10
49.3906797404485
20
11.4503486957134
30
0
41
1
10
49.387866037959
20
11.4461579883905
30
0
41
1
10
49.3790726623238
20
11.4360928382069
30
0
41
1
10
49.3721308786112
20
11.430905967342
30
0
41
1
10
49.3617051050649
20
11.4251111108125
30
0
41
1
10
49.3585322149379
20
11.4235728232889
30
0
41
1
10
49.3488830129341
20
11.419425272062
30
0
41
1
10
49.3422061961719
20
11.417238061172
30
0
41
1
10
49.3354471297939
20
11.4154732548064
30
0
0
SPLINE
5
396
100
AcDbEntity
8
1
62
256
6
ByLayer
370
13
48
1
60
0
100
AcDbSpline
70
4
71
3
72
10
73
6
40
0
40
0
40
0
40
0
40
0.508692379089328
40
0.508692379089328
40
1
40
1
40
1
40
1
41
1
10
48.1383340901892
20
12.0975860164912
30
0
41
1
10
48.1471606305851
20
12.0976469984972
30
0
41
1
10
48.1559874722113
20
12.097715624815
30
0
41
1
10
48.1733399423986
20
12.0978658647108
30
0
41
1
10
48.1818655754359
20
12.0979469543736
30
0
41
1
10
48.1903913856544
20
12.098035442056
30
0
0
SPLINE
5
397
100
AcDbEntity
8
1
62
256
6
ByLayer
370
13
48
1
60
0
100
AcDbSpline
70
4
71
3
72
14
73
10
40
0
40
0
40
0
40
0
40
0.324195461079444
40
0.324195461079444
40
0.674182309330106
40
0.674182309330106
40
0.985474047183631
40
0.985474047183631
40
1
40
1
40
1
40
1
41
1
10
47.6310712343537
20
15.8899526319298
30
0
41
1
10
47.5905881272561
20
15.8831669277938
30
0
41
1
10
47.5505974537136
20
15.8741815944572
30
0
41
1
10
47.470133331313
20
15.8497336169381
30
0
41
1
10
47.4295875729733
20
15.8333498476747
30
0
41
1
10
47.358836887333
20
15.7940563494545
30
0
41
1
10
47.3269577622834
20
15.7721903733295
30
0
41
1
10
47.2986737185566
20
15.7464392971976
30
0
41
1
10
47.2974369049596
20
15.7452778765061
30
0
41
1
10
47.2961878425085
20
15.7441236454282
30
0
0
SPLINE
5
398
100
AcDbEntity
8
1
62
256
6
ByLayer
370
13
48
1
60
0
100
AcDbSpline
70
4
71
3
72
12
73
8
40
0
40
0
40
0
40
0
40
0.378111815645369
40
0.378111815645369
40
0.754171086922273
40
0.754171086922273
40
1
40
1
40
1
40
1
41
1
10
43.6423661230247
20
11.9172953599241
30
0
41
1
10
43.6290260366044
20
11.9239032055803
30
0
41
1
10
43.608972587509
20
11.924609704055
30
0
41
1
10
43.5592681504676
20
11.9254290683009
30
0
41
1
10
43.5289368416966
20
11.9251548108178
30
0
41
1
10
43.4733594567357
20
11.926091805729
30
0
41
1
10
43.4496206143955
20
11.9267919723447
30
0
41
1
10
43.4250413754572
20
11.9280118703262
30
0
0
SPLINE
5
399
100
AcDbEntity
8
1
62
256
6
ByLayer
370
13
48
1
60
0
100
AcDbSpline
70
4
71
3
72
10
73
6
40
0
40
0
40
0
40
0
40
0.751276148010902
40
0.751276148010902
40
1
40
1
40
1
40
1
41
1
10
45.1597712449568
20
12.9373000876784
30
0
41
1
10
45.1862090763578
20
12.9441045244259
30
0
41
1
10
45.2122417154432
20
12.9492926182419
30
0
41
1
10
45.245560365577
20
12.9538804117575
30
0
41
1
10
45.2537746557938
20
12.9548352815357
30
0
41
1
10
45.261871652138
20
12.955596939595
30
0
0
SPLINE
5
39A
100
AcDbEntity
8
1
62
256
6
ByLayer
370
18
48
1
60
0
100
AcDbSpline
70
4
71
3
72
8
73
4
40
0
40
0
40
0
40
0
40
1
40
1
40
1
40
1
41
1
10
47.296187844083
20
12.2558763539679
30
0
41
1
10
47.4183885486939
20
12.18872476152
30
0
41
1
10
47.5182827945869
20
12.1799796115183
30
0
41
1
10
47.6455903209915
20
12.1713139650272
30
0
0
SPLINE
5
39B
100
AcDbEntity
8
1
62
256
6
ByLayer
370
13
48
1
60
0
100
AcDbSpline
70
4
71
3
72
8
73
4
40
0
40
0
40
0
40
0
40
1
40
1
40
1
40
1
41
1
10
48.5289237938153
20
16.5611798161627
30
0
41
1
10
48.5219972614916
20
16.5582763090073
30
0
41
1
10
48.5150637815396
20
16.5553890293401
30
0
41
1
10
48.5081234667115
20
16.5525180350147
30
0
0
SPLINE
5
39C
100
AcDbEntity
8
1
62
256
6
ByLayer
370
13
48
1
60
0
100
AcDbSpline
70
4
71
3
72
8
73
4
40
0
40
0
40
0
40
0
40
1
40
1
40
1
40
1
41
1
10
48.0906987911262
20
16.4786813153329
30
0
41
1
10
48.0574529942193
20
16.4806470169501
30
0
41
1
10
48.0241932586177
20
16.4823957656721
30
0
41
1
10
47.9909241915162
20
16.4839352133252
30
0
0
SPLINE
5
39D
100
AcDbEntity
8
1
62
256
6
ByLayer
370
18
48
1
60
0
100
AcDbSpline
70
4
71
3
72
10
73
6
40
0
40
0
40
0
40
0
40
0.951835912109672
40
0.951835912109672
40
1
40
1
40
1
40
1
41
1
10
48.1350906272085
20
12.1913089968744
30
0
41
1
10
48.1362575084263
20
12.1909015615008
30
0
41
1
10
48.1374237051075
20
12.1904929085009
30
0
41
1
10
48.1386504511154
20
12.1900672089565
30
0
41
1
10
48.1387096166086
20
12.1900466839395
30
0
41
1
10
48.1387687835782
20
12.1900261631497
30
0
0
SPLINE
5
39E
100
AcDbEntity
8
1
62
256
6
ByLayer
370
13
48
1
60
0
100
AcDbSpline
70
4
71
3
72
8
73
4
40
0
40
0
40
0
40
0
40
1
40
1
40
1
40
1
41
1
10
48.612732349232
20
11.9532617572343
30
0
41
1
10
48.6203105039504
20
11.950954264202
30
0
41
1
10
48.6279041942021
20
11.9487027189642
30
0
41
1
10
48.63551099324
20
11.9465057243685
30
0
0
SPLINE
5
39F
100
AcDbEntity
8
1
62
256
6
ByLayer
370
13
48
1
60
0
100
AcDbSpline
70
4
71
3
72
8
73
4
40
0
40
0
40
0
40
0
40
1
40
1
40
1
40
1
41
1
10
48.6815340464424
20
16.0660994379442
30
0
41
1
10
48.6738276358529
20
16.0640996606679
30
0
41
1
10
48.6661304290163
20
16.0620486642534
30
0
41
1
10
48.6584451186158
20
16.0599444061887
30
0
0
SPLINE
5
3A0
100
AcDbEntity
8
1
62
256
6
ByLayer
370
13
48
1
60
0
100
AcDbSpline
70
4
71
3
72
8
73
4
40
0
40
0
40
0
40
0
40
1
40
1
40
1
40
1
41
1
10
44.8162067632696
20
15.8676938636794
30
0
41
1
10
44.8150651835681
20
15.8627149769549
30
0
41
1
10
44.8139832356739
20
15.8577274119999
30
0
41
1
10
44.8129617005957
20
15.852733517503
30
0
0
SPLINE
5
3A1
100
AcDbEntity
8
1
62
256
6
ByLayer
370
13
48
1
60
0
100
AcDbSpline
70
4
71
3
72
8
73
4
40
0
40
0
40
0
40
0
40
1
40
1
40
1
40
1
41
1
10
48.5289237938151
20
11.4388201838374
30
0
41
1
10
48.5358505532355
20
11.4359165814862
30
0
41
1
10
48.542770402259
20
11.4329967317474
30
0
41
1
10
48.5496832385473
20
11.4300607159146
30
0
0
SPLINE
5
3A2
100
AcDbEntity
8
1
62
256
6
ByLayer
370
13
48
1
60
0
100
AcDbSpline
70
4
71
3
72
8
73
4
40
0
40
0
40
0
40
0
40
1
40
1
40
1
40
1
41
1
10
48.4763488059907
20
12.2434763931689
30
0
41
1
10
48.4282116293392
20
12.2654416856038
30
0
41
1
10
48.381937874527
20
12.2898120695512
30
0
41
1
10
48.3396886118677
20
12.3096226734637
30
0
0
SPLINE
5
3A3
100
AcDbEntity
8
1
62
256
6
ByLayer
370
13
48
1
60
0
100
AcDbSpline
70
4
71
3
72
10
73
6
40
0
40
0
40
0
40
0
40
0.905448857482975
40
0.905448857482975
40
1
40
1
40
1
40
1
41
1
10
49.5999999999717
20
15.5876396954799
30
0
41
1
10
49.4020816177211
20
15.6741780465188
30
0
41
1
10
49.2033710982749
20
15.7594094116732
30
0
41
1
10
48.9796373246758
20
15.8419877896695
30
0
41
1
10
48.9584306129507
20
15.8496878346962
30
0
41
1
10
48.9371816925958
20
15.8572662551142
30
0
0
SPLINE
5
3A4
100
AcDbEntity
8
1
62
256
6
ByLayer
370
13
48
1
60
0
100
AcDbSpline
70
4
71
3
72
8
73
4
40
0
40
0
40
0
40
0
40
1
40
1
40
1
40
1
41
1
10
47.7414351429145
20
11.5097493221204
30
0
41
1
10
47.7691726710115
20
11.5092688814281
30
0
41
1
10
47.7969267322443
20
11.5093842390699
30
0
41
1
10
47.8246581827813
20
11.5100953273853
30
0
0
SPLINE
5
3A5
100
AcDbEntity
8
1
62
256
6
ByLayer
370
13
48
1
60
0
100
AcDbSpline
70
4
71
3
72
8
73
4
40
0
40
0
40
0
40
0
40
1
40
1
40
1
40
1
41
1
10
48.6355109932399
20
11.9465057243684
30
0
41
1
10
48.6431427768364
20
11.9443015104079
30
0
41
1
10
48.6507883351677
20
11.9421520390747
30
0
41
1
10
48.6584451186158
20
11.9400555938114
30
0
0
SPLINE
5
3A6
100
AcDbEntity
8
1
62
256
6
ByLayer
370
13
48
1
60
0
100
AcDbSpline
70
4
71
3
72
8
73
4
40
0
40
0
40
0
40
0
40
1
40
1
40
1
40
1
41
1
10
47.9798988508423
20
15.6866454370995
30
0
41
1
10
47.9926091789433
20
15.6804610842477
30
0
41
1
10
48.0051147023054
20
15.6739310603426
30
0
41
1
10
48.0173790825026
20
15.6670695446949
30
0
0
SPLINE
5
3A7
100
AcDbEntity
8
1
62
256
6
ByLayer
370
13
48
1
60
0
100
AcDbSpline
70
4
71
3
72
8
73
4
40
0
40
0
40
0
40
0
40
1
40
1
40
1
40
1
41
1
10
48.7281803124967
20
11.9224224941575
30
0
41
1
10
48.7351683055008
20
11.9207925419155
30
0
41
1
10
48.742160487636
20
11.9191999095524
30
0
41
1
10
48.7491544982324
20
11.9176424134923
30
0
0
SPLINE
5
3A8
100
AcDbEntity
8
1
62
256
6
ByLayer
370
18
48
1
60
0
100
AcDbSpline
70
4
71
3
72
8
73
4
40
0
40
0
40
0
40
0
40
1
40
1
40
1
40
1
41
1
10
49.1760620927764
20
11.9464050358905
30
0
41
1
10
49.1373250311478
20
11.8822640380612
30
0
41
1
10
49.0947458789442
20
11.8183449181705
30
0
41
1
10
49.0592629624681
20
11.7714267648144
30
0
0
SPLINE
5
3A9
100
AcDbEntity
8
1
62
256
6
ByLayer
370
18
48
1
60
0
100
AcDbSpline
70
4
71
3
72
8
73
4
40
0
40
0
40
0
40
0
40
1
40
1
40
1
40
1
41
1
10
47.6455903209914
20
15.8286860349729
30
0
41
1
10
47.5182827945869
20
15.8200203884817
30
0
41
1
10
47.4183885486939
20
15.81127523848
30
0
41
1
10
47.296187844083
20
15.7441236460322
30
0
0
SPLINE
5
3AA
100
AcDbEntity
8
1
62
256
6
ByLayer
370
13
48
1
60
0
100
AcDbSpline
70
4
71
3
72
10
73
6
40
0
40
0
40
0
40
0
40
0.500444942515743
40
0.500444942515743
40
1
40
1
40
1
40
1
41
1
10
48.0681116696244
20
12.0973918224475
30
0
41
1
10
48.0788410897352
20
12.0973939793363
30
0
41
1
10
48.0895701406675
20
12.0974060771994
30
0
41
1
10
48.1110072515821
20
12.0974563694247
30
0
41
1
10
48.1217155042592
20
12.0974945189931
30
0
41
1
10
48.132422271337
20
12.0975485761614
30
0
0
SPLINE
5
3AB
100
AcDbEntity
8
1
62
256
6
ByLayer
370
18
48
1
60
0
100
AcDbSpline
70
4
71
3
72
8
73
4
40
0
40
0
40
0
40
0
40
1
40
1
40
1
40
1
41
1
10
47.6364412607262
20
12.2278288930709
30
0
41
1
10
47.5237183249655
20
12.2171215353203
30
0
41
1
10
47.4080154263125
20
12.2458655667934
30
0
41
1
10
47.296187844083
20
12.2558763539679
30
0
0
SPLINE
5
3AC
100
AcDbEntity
8
1
62
256
6
ByLayer
370
13
48
1
60
0
100
AcDbSpline
70
4
71
3
72
8
73
4
40
0
40
0
40
0
40
0
40
1
40
1
40
1
40
1
41
1
10
49.3
20
16.766337952722
30
0
41
1
10
49.2453684895892
20
16.7701028472087
30
0
41
1
10
49.1901317622663
20
16.7674269629261
30
0
41
1
10
49.1358136768824
20
16.7604850509445
30
0
0
SPLINE
5
3AD
100
AcDbEntity
8
1
62
256
6
ByLayer
370
13
48
1
60
0
100
AcDbSpline
70
4
71
3
72
8
73
4
40
0
40
0
40
0
40
0
40
1
40
1
40
1
40
1
41
1
10
47.7521435364737
20
12.098095916715
30
0
41
1
10
47.7717331200065
20
12.0974606840254
30
0
41
1
10
47.7913424452924
20
12.097233726055
30
0
41
1
10
47.8109443135567
20
12.097412546533
30
0
0
SPLINE
5
3AE
100
AcDbEntity
8
1
62
256
6
ByLayer
370
13
48
1
60
0
100
AcDbSpline
70
4
71
3
72
8
73
4
40
0
40
0
40
0
40
0
40
1
40
1
40
1
40
1
41
1
10
48.5676365699848
20
16.0322705371636
30
0
41
1
10
48.5601781291824
20
16.029752625299
30
0
41
1
10
48.5527378070835
20
16.0271771524779
30
0
41
1
10
48.5453177155277
20
16.0245436613818
30
0
0
SPLINE
5
3AF
100
AcDbEntity
8
1
62
256
6
ByLayer
370
13
48
1
60
0
100
AcDbSpline
70
4
71
3
72
8
73
4
40
0
40
0
40
0
40
0
40
1
40
1
40
1
40
1
41
1
10
48.5895465466143
20
11.651560353094
30
0
41
1
10
48.5823000018185
20
11.6545603105271
30
0
41
1
10
48.575050017303
20
11.6575532953376
30
0
41
1
10
48.5677966553318
20
11.6605392882742
30
0
0
SPLINE
5
3B0
100
AcDbEntity
8
1
62
256
6
ByLayer
370
13
48
1
60
0
100
AcDbSpline
70
4
71
3
72
12
73
8
40
0
40
0
40
0
40
0
40
8.76100371344E-05
40
8.76100371344E-05
40
0.520053974571489
40
0.520053974571489
40
1
40
1
40
1
40
1
41
1
10
47
20
16.3950298057024
30
0
41
1
10
46.9999802173251
20
16.3950268796259
30
0
41
1
10
46.9999604345994
20
16.3950239538633
30
0
41
1
10
46.8828707362143
20
16.3777025741109
30
0
41
1
10
46.767471109021
20
16.3469730111223
30
0
41
1
10
46.5518248750018
20
16.2752854628555
30
0
41
1
10
46.4505302440409
20
16.2348455413641
30
0
41
1
10
46.3494567864937
20
16.1942219608154
30
0
0
SPLINE
5
3B1
100
AcDbEntity
8
1
62
256
6
ByLayer
370
13
48
1
60
0
100
AcDbSpline
70
4
71
3
72
8
73
4
40
0
40
0
40
0
40
0
40
1
40
1
40
1
40
1
41
1
10
48.4244955588817
20
11.4811605890386
30
0
41
1
10
48.431492496949
20
11.4784184987662
30
0
41
1
10
48.4384829856112
20
11.4756601836842
30
0
41
1
10
48.4454668759649
20
11.4728856063162
30
0
0
SPLINE
5
3B2
100
AcDbEntity
8
1
62
256
6
ByLayer
370
13
48
1
60
0
100
AcDbSpline
70
4
71
3
72
8
73
4
40
0
40
0
40
0
40
0
40
1
40
1
40
1
40
1
41
1
10
48.8068168102954
20
15.8536178908968
30
0
41
1
10
48.7904328415089
20
15.8444768355827
30
0
41
1
10
48.7745142858404
20
15.8352568825328
30
0
41
1
10
48.7594785615561
20
15.8263003316801
30
0
0
SPLINE
5
3B3
100
AcDbEntity
8
1
62
256
6
ByLayer
370
13
48
1
60
0
100
AcDbSpline
70
4
71
3
72
8
73
4
40
0
40
0
40
0
40
0
40
1
40
1
40
1
40
1
41
1
10
48.9305699234432
20
11.8346174620243
30
0
41
1
10
48.9736969440676
20
11.81410327783
30
0
41
1
10
49.016619369488
20
11.7930461284993
30
0
41
1
10
49.0592143058028
20
11.7713042005687
30
0
0
SPLINE
5
3B4
100
AcDbEntity
8
1
62
256
6
ByLayer
370
13
48
1
60
0
100
AcDbSpline
70
4
71
3
72
8
73
4
40
0
40
0
40
0
40
0
40
1
40
1
40
1
40
1
41
1
10
48.4763488059907
20
15.7565236068311
30
0
41
1
10
48.5133802503087
20
15.7734212846825
30
0
41
1
10
48.5523163544692
20
15.7890581822192
30
0
41
1
10
48.5916290701336
20
15.8019071065528
30
0
0
SPLINE
5
3B5
100
AcDbEntity
8
1
62
256
6
ByLayer
370
13
48
1
60
0
100
AcDbSpline
70
4
71
3
72
8
73
4
40
0
40
0
40
0
40
0
40
1
40
1
40
1
40
1
41
1
10
48.3737330027423
20
12.0360313070292
30
0
41
1
10
48.4235236041376
20
12.019215788659
30
0
41
1
10
48.4735123832403
20
12.0015967231091
30
0
41
1
10
48.5231502777688
20
11.983519752954
30
0
0
SPLINE
5
3B6
100
AcDbEntity
8
1
62
256
6
ByLayer
370
13
48
1
60
0
100
AcDbSpline
70
4
71
3
72
8
73
4
40
0
40
0
40
0
40
0
40
1
40
1
40
1
40
1
41
1
10
47.7915623806973
20
12.2510326580734
30
0
41
1
10
47.7746799864671
20
12.2478792426647
30
0
41
1
10
47.7577618906644
20
12.2449302826571
30
0
41
1
10
47.7408158168118
20
12.2421877791161
30
0
0
SPLINE
5
3B7
100
AcDbEntity
8
1
62
256
6
ByLayer
370
13
48
1
60
0
100
AcDbSpline
70
4
71
3
72
8
73
4
40
0
40
0
40
0
40
0
40
1
40
1
40
1
40
1
41
1
10
48.6454946127907
20
11.6282315709132
30
0
41
1
10
48.6413247168622
20
11.6299827745924
30
0
41
1
10
48.6371536472928
20
11.6317316805646
30
0
41
1
10
48.6329814138829
20
11.6334782801917
30
0
0
SPLINE
5
3B8
100
AcDbEntity
8
1
62
256
6
ByLayer
370
13
48
1
60
0
100
AcDbSpline
70
4
71
3
72
8
73
4
40
0
40
0
40
0
40
0
40
1
40
1
40
1
40
1
41
1
10
46.6129028909294
20
12.4481395946141
30
0
41
1
10
46.5413599848384
20
12.4964047181734
30
0
41
1
10
46.47299712768
20
12.546882333245
30
0
41
1
10
46.408829342978
20
12.5991622401085
30
0
0
SPLINE
5
3B9
100
AcDbEntity
8
1
62
256
6
ByLayer
370
13
48
1
60
0
100
AcDbSpline
70
4
71
3
72
9
73
5
40
0
40
0
40
0
40
0
40
0.502056005627226
40
1
40
1
40
1
40
1
41
1
10
47.7032376854617
20
11.9117074867067
30
0
41
1
10
47.7002005661405
20
11.88465046201
30
0
41
1
10
47.6941512025492
20
11.830758018949
30
0
41
1
10
47.6905540021711
20
11.7839137760111
30
0
41
1
10
47.6887627978463
20
11.7605879665693
30
0
0
SPLINE
5
3BA
100
AcDbEntity
8
1
62
256
6
ByLayer
370
13
48
1
60
0
100
AcDbSpline
70
4
71
1
72
4
73
2
40
0
40
0
40
1
40
1
41
1
10
46
20
11.1419620470244
30
0
41
1
10
46
20
11.89412331594
30
0
0
SPLINE
5
3BB
100
AcDbEntity
8
1
62
256
6
ByLayer
370
13
48
1
60
0
100
AcDbSpline
70
4
71
3
72
8
73
4
40
0
40
0
40
0
40
0
40
1
40
1
40
1
40
1
41
1
10
49.0447669894049
20
12.0232887100249
30
0
41
1
10
49.0004038318865
20
12.0476496756355
30
0
41
1
10
48.9554196842923
20
12.0708820821878
30
0
41
1
10
48.9099740956151
20
12.0931154975732
30
0
0
SPLINE
5
3BC
100
AcDbEntity
8
1
62
256
6
ByLayer
370
13
48
1
60
0
100
AcDbSpline
70
4
71
3
72
8
73
4
40
0
40
0
40
0
40
0
40
1
40
1
40
1
40
1
41
1
10
47
20
16.9033905719637
30
0
41
1
10
47
20
16.9048714918431
30
0
41
1
10
47
20
16.9063524117225
30
0
41
1
10
47
20
16.907833331602
30
0
0
SPLINE
5
3BD
100
AcDbEntity
8
1
62
256
6
ByLayer
370
13
48
1
60
0
100
AcDbSpline
70
4
71
3
72
8
73
4
40
0
40
0
40
0
40
0
40
1
40
1
40
1
40
1
41
1
10
48.5895465466143
20
16.3484396469061
30
0
41
1
10
48.5967925750812
20
16.3514393905921
30
0
41
1
10
48.6040351840507
20
16.3544461146381
30
0
41
1
10
48.6112743152022
20
16.3574597905064
30
0
0
SPLINE
5
3BE
100
AcDbEntity
8
1
62
256
6
ByLayer
370
13
48
1
60
0
100
AcDbSpline
70
4
71
3
72
8
73
4
40
0
40
0
40
0
40
0
40
1
40
1
40
1
40
1
41
1
10
48.1572341336386
20
16.4744530074428
30
0
41
1
10
48.1350623971359
20
16.4759612229892
30
0
41
1
10
48.1128834357454
20
16.4773696188547
30
0
41
1
10
48.0906987914786
20
16.4786813152604
30
0
0
SPLINE
5
3BF
100
AcDbEntity
8
1
62
256
6
ByLayer
370
13
48
1
60
0
100
AcDbSpline
70
4
71
3
72
8
73
4
40
0
40
0
40
0
40
0
40
1
40
1
40
1
40
1
41
1
10
47.8246581827813
20
16.4899046726147
30
0
41
1
10
47.7969267322443
20
16.4906157609302
30
0
41
1
10
47.7691726710115
20
16.490731118572
30
0
41
1
10
47.7414351429145
20
16.4902506778797
30
0
0
SPLINE
5
3C0
100
AcDbEntity
8
1
62
256
6
ByLayer
370
13
48
1
60
0
100
AcDbSpline
70
4
71
3
72
8
73
4
40
0
40
0
40
0
40
0
40
1
40
1
40
1
40
1
41
1
10
46.061983131599
20
12.7673058417034
30
0
41
1
10
46.0565099554026
20
12.7683582573685
30
0
41
1
10
46.0510379427018
20
12.7694065776681
30
0
41
1
10
46.0455671218847
20
12.7704507384776
30
0
0
SPLINE
5
3C1
100
AcDbEntity
8
1
62
256
6
ByLayer
370
18
48
1
60
0
100
AcDbSpline
70
4
71
3
72
8
73
4
40
0
40
0
40
0
40
0
40
1
40
1
40
1
40
1
41
1
10
49.5970918941543
20
12.7372297410563
30
0
41
1
10
49.5966029021592
20
12.7787784104805
30
0
41
1
10
49.5960730752883
20
12.8197844127801
30
0
41
1
10
49.5954654841959
20
12.8598560634868
30
0
0
SPLINE
5
3C2
100
AcDbEntity
8
1
62
256
6
ByLayer
370
13
48
1
60
0
100
AcDbSpline
70
4
71
3
72
8
73
4
40
0
40
0
40
0
40
0
40
1
40
1
40
1
40
1
41
1
10
48.7047794882309
20
11.9280275533793
30
0
41
1
10
48.7125730847456
20
11.9261106648345
30
0
41
1
10
48.7203743871262
20
11.9242432229053
30
0
41
1
10
48.7281803124967
20
11.9224224941575
30
0
0
SPLINE
5
3C3
100
AcDbEntity
8
1
62
256
6
ByLayer
370
13
48
1
60
0
100
AcDbSpline
70
4
71
3
72
8
73
4
40
0
40
0
40
0
40
0
40
1
40
1
40
1
40
1
41
1
10
48.7763183605699
20
16.0945432982525
30
0
41
1
10
48.7721821241731
20
16.0926924669759
30
0
41
1
10
48.7680464246978
20
16.0908397327392
30
0
41
1
10
48.7639112600577
20
16.088985123854
30
0
0
SPLINE
5
3C4
100
AcDbEntity
8
1
62
256
6
ByLayer
370
13
48
1
60
0
100
AcDbSpline
70
4
71
3
72
8
73
4
40
0
40
0
40
0
40
0
40
1
40
1
40
1
40
1
41
1
10
49.0447669894049
20
15.9767112899752
30
0
41
1
10
49.0892117851802
20
16.0011170852796
30
0
41
1
10
49.1330676502929
20
16.0266697809294
30
0
41
1
10
49.1760620928796
20
16.053594964172
30
0
0
SPLINE
5
3C5
100
AcDbEntity
8
1
62
256
6
ByLayer
370
13
48
1
60
0
100
AcDbSpline
70
4
71
3
72
8
73
4
40
0
40
0
40
0
40
0
40
1
40
1
40
1
40
1
41
1
10
48.6979680340497
20
12.1760401058907
30
0
41
1
10
48.6926953679315
20
12.1765932722965
30
0
41
1
10
48.6874147210658
20
12.1772145628066
30
0
41
1
10
48.6821324141415
20
12.1779094289897
30
0
0
SPLINE
5
3C6
100
AcDbEntity
8
1
62
256
6
ByLayer
370
13
48
1
60
0
100
AcDbSpline
70
4
71
3
72
9
73
5
40
0
40
0
40
0
40
0
40
0.813863931047225
40
1
40
1
40
1
40
1
41
1
10
49.5813002256529
20
14.5460823954966
30
0
41
1
10
49.571147460996
20
14.6927917618812
30
0
41
1
10
49.5536398825353
20
14.869410962043
30
0
41
1
10
49.5302867577796
20
15.0380185316643
30
0
41
1
10
49.5257417215669
20
15.0690991862301
30
0
0
SPLINE
5
3C7
100
AcDbEntity
8
1
62
256
6
ByLayer
370
13
48
1
60
0
100
AcDbSpline
70
4
71
3
72
8
73
4
40
0
40
0
40
0
40
0
40
1
40
1
40
1
40
1
41
1
10
48.6359219030158
20
15.8139955606136
30
0
41
1
10
48.6409746523795
20
15.8151172326624
30
0
41
1
10
48.6460396568156
20
15.8161586384997
30
0
41
1
10
48.6511104023502
20
15.8171228543568
30
0
0
SPLINE
5
3C8
100
AcDbEntity
8
1
62
256
6
ByLayer
370
18
48
1
60
0
100
AcDbSpline
70
4
71
3
72
8
73
4
40
0
40
0
40
0
40
0
40
1
40
1
40
1
40
1
41
1
10
48.8825161901852
20
11.3004822737601
30
0
41
1
10
48.906961766042
20
11.371884109058
30
0
41
1
10
48.9314003232839
20
11.4470928840846
30
0
41
1
10
48.9494927365344
20
11.5060176174472
30
0
0
SPLINE
5
3C9
100
AcDbEntity
8
1
62
256
6
ByLayer
370
13
48
1
60
0
100
AcDbSpline
70
4
71
3
72
10
73
6
40
0
40
0
40
0
40
0
40
0.0762840566433901
40
0.0762840566433901
40
1
40
1
40
1
40
1
41
1
10
48.9065084491738
20
12.0948123255727
30
0
41
1
10
48.9054486723054
20
12.0953202557183
30
0
41
1
10
48.9043872680981
20
12.0958267673323
30
0
41
1
10
48.8904798567387
20
12.1025034440343
30
0
41
1
10
48.8775721362027
20
12.108893148019
30
0
41
1
10
48.8648003373363
20
12.1154126888216
30
0
0
SPLINE
5
3CA
100
AcDbEntity
8
1
62
256
6
ByLayer
370
13
48
1
60
0
100
AcDbSpline
70
4
71
3
72
8
73
4
40
0
40
0
40
0
40
0
40
1
40
1
40
1
40
1
41
1
10
48.7507716856813
20
11.9169150195599
30
0
41
1
10
48.7510163989533
20
11.9168050031739
30
0
41
1
10
48.7512611140747
20
11.916694993255
30
0
41
1
10
48.7515058310459
20
11.9165849898092
30
0
0
SPLINE
5
3CB
100
AcDbEntity
8
1
62
256
6
ByLayer
370
13
48
1
60
0
100
AcDbSpline
70
4
71
3
72
8
73
4
40
0
40
0
40
0
40
0
40
1
40
1
40
1
40
1
41
1
10
48.4149580164184
20
16.2777634810021
30
0
41
1
10
48.4222598617322
20
16.2806538424554
30
0
41
1
10
48.4295587236344
20
16.283551019988
30
0
41
1
10
48.4368545163779
20
16.2864550581714
30
0
0
SPLINE
5
3CC
100
AcDbEntity
8
1
62
256
6
ByLayer
370
13
48
1
60
0
100
AcDbSpline
70
4
71
3
72
10
73
6
40
0
40
0
40
0
40
0
40
0.0001027245074679
40
0.0001027245074679
40
1
40
1
40
1
40
1
41
1
10
49.5257317512729
20
12.9308326358376
30
0
41
1
10
49.5257130837966
20
12.9308264324202
30
0
41
1
10
49.5256944163087
20
12.9308202290299
30
0
41
1
10
49.3439707952222
20
12.8704310390169
30
0
41
1
10
49.1630572606719
20
12.8072053330934
30
0
41
1
10
48.980331589594
20
12.7493425515051
30
0
0
SPLINE
5
3CD
100
AcDbEntity
8
1
62
256
6
ByLayer
370
13
48
1
60
0
100
AcDbSpline
70
4
71
3
72
10
73
6
40
0
40
0
40
0
40
0
40
0.0226582612707075
40
0.0226582612707075
40
1
40
1
40
1
40
1
41
1
10
47.0960412522594
20
16.1729817435804
30
0
41
1
10
47.0905722459195
20
16.1713016648353
30
0
41
1
10
47.0851102388762
20
16.1696036565992
30
0
41
1
10
46.8480045111205
20
16.095022271916
30
0
41
1
10
46.626805832268
20
15.9884735167332
30
0
41
1
10
46.4327828618976
20
15.8609850427165
30
0
0
SPLINE
5
3CE
100
AcDbEntity
8
1
62
256
6
ByLayer
370
18
48
1
60
0
100
AcDbSpline
70
4
71
3
72
8
73
4
40
0
40
0
40
0
40
0
40
1
40
1
40
1
40
1
41
1
10
47.6456188726499
20
12.1716604168695
30
0
41
1
10
47.6425811022887
20
12.1911149745169
30
0
41
1
10
47.6395199887753
20
12.2098518885321
30
0
41
1
10
47.6364488698076
20
12.2277895220339
30
0
0
SPLINE
5
3CF
100
AcDbEntity
8
1
62
256
6
ByLayer
370
13
48
1
60
0
100
AcDbSpline
70
4
71
3
72
8
73
4
40
0
40
0
40
0
40
0
40
1
40
1
40
1
40
1
41
1
10
49.5970930975732
20
12.737238498254
30
0
41
1
10
49.5712490424292
20
12.8042244222283
30
0
41
1
10
49.5473125657511
20
12.8692242365724
30
0
41
1
10
49.5257934118171
20
12.9308538433538
30
0
0
SPLINE
5
3D0
100
AcDbEntity
8
1
62
256
6
ByLayer
370
13
48
1
60
0
100
AcDbSpline
70
4
71
3
72
10
73
6
40
0
40
0
40
0
40
0
40
0.0945511425129539
40
0.0945511425129539
40
1
40
1
40
1
40
1
41
1
10
48.9371816925959
20
12.142733744886
30
0
41
1
10
48.9584306129508
20
12.150312165304
30
0
41
1
10
48.9796373246759
20
12.1580122103306
30
0
41
1
10
49.2033710982846
20
12.2405905883304
30
0
41
1
10
49.40208161774
20
12.3258219534893
30
0
41
1
10
49.5999999999999
20
12.4123603045324
30
0
0
SPLINE
5
3D1
100
AcDbEntity
8
1
62
256
6
ByLayer
370
13
48
1
60
0
100
AcDbSpline
70
4
71
3
72
8
73
4
40
0
40
0
40
0
40
0
40
1
40
1
40
1
40
1
41
1
10
49.0592143058028
20
16.2286957994313
30
0
41
1
10
49.016619369488
20
16.2069538715008
30
0
41
1
10
48.9736969440676
20
16.1858967221701
30
0
41
1
10
48.9305699234432
20
16.1653825379758
30
0
0
SPLINE
5
3D2
100
AcDbEntity
8
1
62
256
6
ByLayer
370
18
48
1
60
0
100
AcDbSpline
70
4
71
3
72
8
73
4
40
0
40
0
40
0
40
0
40
1
40
1
40
1
40
1
41
1
10
49.595466122863
20
12.8598561528079
30
0
41
1
10
49.5949794010984
20
12.8919562668743
30
0
41
1
10
49.5942038367841
20
12.92350373426
30
0
41
1
10
49.5931425978868
20
12.9542543703422
30
0
0
SPLINE
5
3D3
100
AcDbEntity
8
1
62
256
6
ByLayer
370
13
48
1
60
0
100
AcDbSpline
70
4
71
3
72
8
73
4
40
0
40
0
40
0
40
0
40
1
40
1
40
1
40
1
41
1
10
48.6329814138829
20
16.3665217198083
30
0
41
1
10
48.6371536472928
20
16.3682683194355
30
0
41
1
10
48.6413247168622
20
16.3700172254077
30
0
41
1
10
48.6454946127907
20
16.3717684290868
30
0
0
SPLINE
5
3D4
100
AcDbEntity
8
1
62
256
6
ByLayer
370
18
48
1
60
0
100
AcDbSpline
70
4
71
3
72
8
73
4
40
0
40
0
40
0
40
0
40
1
40
1
40
1
40
1
41
1
10
49.5812906265149
20
14.5458319906333
30
0
41
1
10
49.5838307160389
20
14.7184450094347
30
0
41
1
10
49.5876787570157
20
14.887423892029
30
0
41
1
10
49.5931426148847
20
15.0457455748808
30
0
0
SPLINE
5
3D5
100
AcDbEntity
8
1
62
256
6
ByLayer
370
13
48
1
60
0
100
AcDbSpline
70
4
71
3
72
22
73
18
40
0
40
0
40
0
40
0
40
0.0240563609388146
40
0.0240563609388146
40
0.223170719546324
40
0.223170719546324
40
0.426944695423136
40
0.426944695423136
40
0.499598923054344
40
0.499598923054344
40
0.586244542315608
40
0.586244542315608
40
0.793171827106044
40
0.793171827106044
40
0.890047315178982
40
0.890047315178982
40
1
40
1
40
1
40
1
41
1
10
46.408829342978
20
12.5991622401085
30
0
41
1
10
46.4098416838871
20
12.6161766939506
30
0
41
1
10
46.4111311966218
20
12.633561553623
30
0
41
1
10
46.425471729484
20
12.7964603444863
30
0
41
1
10
46.457105639287
20
12.966688757661
30
0
41
1
10
46.5492713465278
20
13.3362447437397
30
0
41
1
10
46.6182971404776
20
13.5387909839466
30
0
41
1
10
46.6887477164396
20
13.8344256499846
30
0
41
1
10
46.7034140431195
20
13.9172925245512
30
0
41
1
10
46.7034140431195
20
14.0981099667148
30
0
41
1
10
46.6828311201533
20
14.1960602439294
30
0
41
1
10
46.6030927648219
20
14.5050956513741
30
0
41
1
10
46.5364679202331
20
14.7088056606525
30
0
41
1
10
46.470495159733
20
14.983843337185
30
0
41
1
10
46.4527578326494
20
15.0687138845188
30
0
41
1
10
46.4237140355628
20
15.2390676336776
30
0
41
1
10
46.4134094705485
20
15.3238593740154
30
0
41
1
10
46.408829342978
20
15.4008377598915
30
0
0
SPLINE
5
3D6
100
AcDbEntity
8
1
62
256
6
ByLayer
370
13
48
1
60
0
100
AcDbSpline
70
4
71
3
72
14
73
10
40
0
40
0
40
0
40
0
40
0.0143305415674623
40
0.0143305415674623
40
0.107260966796902
40
0.107260966796902
40
0.598402967610888
40
0.598402967610888
40
1
40
1
40
1
40
1
41
1
10
43.6220305501845
20
14.2386118159885
30
0
41
1
10
43.6217132559279
20
14.2375320692269
30
0
41
1
10
43.6213897293464
20
14.2364527479591
30
0
41
1
10
43.6189233785393
20
14.228376967348
30
0
41
1
10
43.6165284558979
20
14.2213873661438
30
0
41
1
10
43.6000893037918
20
14.1781385613021
30
0
41
1
10
43.5790711282749
20
14.1420330711257
30
0
41
1
10
43.5306785155223
20
14.0823779975556
30
0
41
1
10
43.5046345592234
20
14.057108433017
30
0
41
1
10
43.4757640921996
20
14.0349719324198
30
0
0
SPLINE
5
3D7
100
AcDbEntity
8
1
62
256
6
ByLayer
370
13
48
1
60
0
100
AcDbSpline
70
4
71
3
72
8
73
4
40
0
40
0
40
0
40
0
40
1
40
1
40
1
40
1
41
1
10
48.7449712215366
20
15.8272609896357
30
0
41
1
10
48.7454153279883
20
15.8272782049023
30
0
41
1
10
48.7458597837757
20
15.8272917203006
30
0
41
1
10
48.7463045145135
20
15.8273014039796
30
0
0
SPLINE
5
3D8
100
AcDbEntity
8
1
62
256
6
ByLayer
370
13
48
1
60
0
100
AcDbSpline
70
4
71
3
72
8
73
4
40
0
40
0
40
0
40
0
40
1
40
1
40
1
40
1
41
1
10
46.0044717327584
20
15.9132190998618
30
0
41
1
10
46.1473615103141
20
15.9167663811605
30
0
41
1
10
46.2893370251233
20
15.9494524159553
30
0
41
1
10
46.4249063417946
20
15.9924417563701
30
0
0
SPLINE
5
3D9
100
AcDbEntity
8
1
62
256
6
ByLayer
370
13
48
1
60
0
100
AcDbSpline
70
4
71
3
72
10
73
6
40
0
40
0
40
0
40
0
40
0.499555057484473
40
0.499555057484473
40
1
40
1
40
1
40
1
41
1
10
48.132422271337
20
15.9024514238386
30
0
41
1
10
48.1217155042592
20
15.9025054810069
30
0
41
1
10
48.1110072515821
20
15.9025436305754
30
0
41
1
10
48.0895701406675
20
15.9025939228007
30
0
41
1
10
48.0788410897352
20
15.9026060206637
30
0
41
1
10
48.0681116696244
20
15.9026081775525
30
0
0
SPLINE
5
3DA
100
AcDbEntity
8
1
62
256
6
ByLayer
370
13
48
1
60
0
100
AcDbSpline
70
4
71
3
72
10
73
6
40
0
40
0
40
0
40
0
40
0.445562852045893
40
0.445562852045893
40
1
40
1
40
1
40
1
41
1
10
48.0681116696246
20
15.9026081775307
30
0
41
1
10
48.0537826107305
20
15.9026110580509
30
0
41
1
10
48.0394526045083
20
15.9025961858974
30
0
41
1
10
48.0072910939293
20
15.9025410618897
30
0
41
1
10
47.9894592215656
20
15.9024954730204
30
0
41
1
10
47.9716279354541
20
15.9024516852497
30
0
0
SPLINE
5
3DB
100
AcDbEntity
8
1
62
256
6
ByLayer
370
18
48
1
60
0
100
AcDbSpline
70
4
71
3
72
14
73
10
40
0
40
0
40
0
40
0
40
0.287858117648555
40
0.287858117648555
40
0.595038451639179
40
0.595038451639179
40
0.902232133585104
40
0.902232133585104
40
1
40
1
40
1
40
1
41
1
10
44.8219543041171
20
16.6973542388116
30
0
41
1
10
44.7917151774559
20
16.6978617737998
30
0
41
1
10
44.7564192550234
20
16.6982903690158
30
0
41
1
10
44.678327541203
20
16.698948540559
30
0
41
1
10
44.6340978973891
20
16.6991715200807
30
0
41
1
10
44.5451277105782
20
16.6993470079998
30
0
41
1
10
44.4991602968088
20
16.6993019253959
30
0
41
1
10
44.4414566536607
20
16.699071643081
30
0
41
1
10
44.4275497019793
20
16.6990021369932
30
0
41
1
10
44.4139183902214
20
16.6989198472646
30
0
0
SPLINE
5
3DC
100
AcDbEntity
8
1
62
256
6
ByLayer
370
13
48
1
60
0
100
AcDbSpline
70
4
71
3
72
8
73
4
40
0
40
0
40
0
40
0
40
1
40
1
40
1
40
1
41
1
10
49.2878589937233
20
11.4121467211116
30
0
41
1
10
49.2451537056346
20
11.4178913943857
30
0
41
1
10
49.2027360254064
20
11.4269599781016
30
0
41
1
10
49.1608347348722
20
11.4377731625253
30
0
0
SPLINE
5
3DD
100
AcDbEntity
8
1
62
256
6
ByLayer
370
13
48
1
60
0
100
AcDbSpline
70
4
71
3
72
8
73
4
40
0
40
0
40
0
40
0
40
1
40
1
40
1
40
1
41
1
10
48.487280397767
20
16.5439532261614
30
0
41
1
10
48.4803254714617
20
16.541114401986
30
0
41
1
10
48.4733637546295
20
16.5382918665962
30
0
41
1
10
48.4663953792872
20
16.5354856303103
30
0
0
SPLINE
5
3DE
100
AcDbEntity
8
1
62
256
6
ByLayer
370
13
48
1
60
0
100
AcDbSpline
70
4
71
3
72
8
73
4
40
0
40
0
40
0
40
0
40
1
40
1
40
1
40
1
41
1
10
47.703237684077
20
16.0882925250176
30
0
41
1
10
47.6969730491116
20
16.1411818590029
30
0
41
1
10
47.6917684825362
20
16.1955119101733
30
0
41
1
10
47.6887628171811
20
16.2394117518375
30
0
0
LINE
5
70
100
AcDbEntity
8
1
62
256
6
ByLayer
370
18
48
1
60
0
100
AcDbLine
10
30.425602
20
11.35
30
0
11
42.808096
21
11.35
31
0
39
0
210
0
220
0
230
1
0
LINE
5
72
100
AcDbEntity
8
1
62
256
6
ByLayer
370
18
48
1
60
0
100
AcDbLine
10
17.6
20
11.35
30
0
11
30.011447
21
11.35
31
0
39
0
210
0
220
0
230
1
0
LINE
5
73
100
AcDbEntity
8
1
62
256
6
ByLayer
370
18
48
1
60
0
100
AcDbLine
10
30.53359
20
17.186936
30
0
11
2.71052
21
17.186936
31
0
39
0
210
0
220
0
230
1
0
LINE
5
74
100
AcDbEntity
8
1
62
256
6
ByLayer
370
18
48
1
60
0
100
AcDbLine
10
29.996034
20
11.35
30
0
11
29.996034
21
11.427651
31
0
39
0
210
0
220
0
230
1
0
LINE
5
75
100
AcDbEntity
8
80
62
256
6
ByLayer
370
18
48
1
60
0
100
AcDbLine
10
0
20
0
30
0
11
-5
21
0
31
0
39
0
210
0
220
0
230
1
0
LINE
5
76
100
AcDbEntity
8
81
62
256
6
ByLayer
370
18
48
1
60
0
100
AcDbLine
10
49.6
20
17
30
0
11
54.6
21
17
31
0
39
0
210
0
220
0
230
1
0
LINE
5
77
100
AcDbEntity
8
SK1
62
256
6
ByLayer
370
18
48
1
60
0
100
AcDbLine
10
-120.4
20
15.85
30
0
11
-1.227723
21
15.85
31
0
39
0
210
0
220
0
230
1
0
LINE
5
79
100
AcDbEntity
8
SK1
62
256
6
ByLayer
370
18
48
1
60
0
100
AcDbLine
10
-0.1
20
-16.002029
30
0
11
-0.1
21
16.314993
31
0
39
0
210
0
220
0
230
1
0
LINE
5
7A
100
AcDbEntity
8
SK1
62
256
6
ByLayer
370
18
48
1
60
0
100
AcDbLine
10
-120.4
20
-16
30
0
11
-1.227723
21
-16
31
0
39
0
210
0
220
0
230
1
0
LINE
5
7B
100
AcDbEntity
8
SK1
62
256
6
ByLayer
370
13
48
1
60
0
100
AcDbLine
10
-1.227723
20
15.85
30
0
11
-1.227723
21
-16
31
0
39
0
210
0
220
0
230
1
0
LINE
5
7C
100
AcDbEntity
8
SK1
62
256
6
ByLayer
370
18
48
1
60
0
100
AcDbLine
10
-120.4
20
-16
30
0
11
-120.4
21
15.85
31
0
39
0
210
0
220
0
230
1
0
LINE
5
7D
100
AcDbEntity
8
1
62
256
6
ByLayer
370
13
48
1
60
0
100
AcDbLine
10
2.844495
20
16.686936
30
0
11
27.429775
21
16.686936
31
0
39
0
210
0
220
0
230
1
0
LINE
5
7E
100
AcDbEntity
8
1
62
256
6
ByLayer
370
13
48
1
60
0
100
AcDbLine
10
39.240161
20
17.070517
30
0
11
39.223014
21
16.677799
31
0
39
0
210
0
220
0
230
1
0
LINE
5
7F
100
AcDbEntity
8
1
62
256
6
ByLayer
370
18
48
1
60
0
100
AcDbLine
10
39.240161
20
17.070517
30
0
11
38.439399
21
17.070517
31
0
39
0
210
0
220
0
230
1
0
LINE
5
80
100
AcDbEntity
8
1
62
256
6
ByLayer
370
13
48
1
60
0
100
AcDbLine
10
40.740519
20
16.965554
30
0
11
40.727574
21
16.669079
31
0
39
0
210
0
220
0
230
1
0
LINE
5
81
100
AcDbEntity
8
1
62
256
6
ByLayer
370
13
48
1
60
0
100
AcDbLine
10
17.6
20
11.35
30
0
11
17.6
21
12.565897
31
0
39
0
210
0
220
0
230
1
0
LINE
5
82
100
AcDbEntity
8
1
62
256
6
ByLayer
370
18
48
1
60
0
100
AcDbLine
10
15
20
-15
30
0
11
7.9
21
-15
31
0
39
0
210
0
220
0
230
1
0
LINE
5
83
100
AcDbEntity
8
1
62
256
6
ByLayer
370
18
48
1
60
0
100
AcDbLine
10
1.392927
20
21.048474
30
0
11
0.317758
21
17.03589
31
0
39
0
210
0
220
0
230
1
0
LINE
5
84
100
AcDbEntity
8
1
62
256
6
ByLayer
370
18
48
1
60
0
100
AcDbLine
10
36.998034
20
16.831589
30
0
11
37.014182
21
16.777936
31
0
39
0
210
0
220
0
230
1
0
LINE
5
85
100
AcDbEntity
8
1
62
256
6
ByLayer
370
13
48
1
60
0
100
AcDbLine
10
0.317758
20
-16.005174
30
0
11
0.317758
21
16.606357
31
0
39
0
210
0
220
0
230
1
0
LINE
5
86
100
AcDbEntity
8
1
62
256
6
ByLayer
370
18
48
1
60
0
100
AcDbLine
10
1.392927
20
21.048474
30
0
11
20.20818
21
21.048474
31
0
39
0
210
0
220
0
230
1
0
LINE
5
87
100
AcDbEntity
8
1
62
256
6
ByLayer
370
18
48
1
60
0
100
AcDbLine
10
43.390044
20
16.600096
30
0
11
43.551653
21
15.921518
31
0
39
0
210
0
220
0
230
1
0
LINE
5
88
100
AcDbEntity
8
1
62
256
6
ByLayer
370
13
48
1
60
0
100
AcDbLine
10
38.439399
20
17.070517
30
0
11
38.423627
21
16.70929
31
0
39
0
210
0
220
0
230
1
0
LINE
5
89
100
AcDbEntity
8
1
62
256
6
ByLayer
370
18
48
1
60
0
100
AcDbLine
10
43.40549
20
12.426475
30
0
11
43.083632
21
11.351621
31
0
39
0
210
0
220
0
230
1
0
LINE
5
8A
100
AcDbEntity
8
1
62
256
6
ByLayer
370
18
48
1
60
0
100
AcDbLine
10
49
20
16.995153
30
0
11
49
21
17.194511
31
0
39
0
210
0
220
0
230
1
0
LINE
5
8B
100
AcDbEntity
8
1
62
256
6
ByLayer
370
13
48
1
60
0
100
AcDbLine
10
24.479475
20
11.690318
30
0
11
24.479475
21
11.641317
31
0
39
0
210
0
220
0
230
1
0
LINE
5
8C
100
AcDbEntity
8
1
62
256
6
ByLayer
370
13
48
1
60
0
100
AcDbLine
10
33.857651
20
12.079107
30
0
11
33.857651
21
16.992119
31
0
39
0
210
0
220
0
230
1
0
LINE
5
8D
100
AcDbEntity
8
1
62
256
6
ByLayer
370
18
48
1
60
0
100
AcDbLine
10
2.844495
20
16.686936
30
0
11
2.844495
21
-16.04632
31
0
39
0
210
0
220
0
230
1
0
LINE
5
8E
100
AcDbEntity
8
1
62
256
6
ByLayer
370
18
48
1
60
0
100
AcDbLine
10
2.844495
20
-16.04632
30
0
11
6.398854
21
-16.04632
31
0
39
0
210
0
220
0
230
1
0
LINE
5
8F
100
AcDbEntity
8
1
62
256
6
ByLayer
370
18
48
1
60
0
100
AcDbLine
10
27.429775
20
12.565897
30
0
11
17.6
21
12.565897
31
0
39
0
210
0
220
0
230
1
0
LINE
5
90
100
AcDbEntity
8
1
62
256
6
ByLayer
370
18
48
1
60
0
100
AcDbLine
10
43.40549
20
12.426475
30
0
11
43.551653
21
15.921518
31
0
39
0
210
0
220
0
230
1
0
LINE
5
91
100
AcDbEntity
8
1
62
256
6
ByLayer
370
18
48
1
60
0
100
AcDbLine
10
40.831608
20
16.669831
30
0
11
40.800347
21
16.950214
31
0
39
0
210
0
220
0
230
1
0
LINE
5
92
100
AcDbEntity
8
1
62
256
6
ByLayer
370
13
48
1
60
0
100
AcDbLine
10
27.429775
20
16.686936
30
0
11
27.429775
21
12.565897
31
0
39
0
210
0
220
0
230
1
0
LINE
5
93
100
AcDbEntity
8
1
62
256
6
ByLayer
370
18
48
1
60
0
100
AcDbLine
10
16
20
-14
30
0
11
15
21
-15
31
0
39
0
210
0
220
0
230
1
0
LINE
5
94
100
AcDbEntity
8
1
62
256
6
ByLayer
370
18
48
1
60
0
100
AcDbLine
10
0.317758
20
-16.005174
30
0
11
2.844495
21
-16.04632
31
0
39
0
210
0
220
0
230
1
0
LINE
5
95
100
AcDbEntity
8
1
62
256
6
ByLayer
370
18
48
1
60
0
100
AcDbLine
10
16
20
-14
30
0
11
16
21
10.923655
31
0
39
0
210
0
220
0
230
1
0
LINE
5
96
100
AcDbEntity
8
1
62
256
6
ByLayer
370
18
48
1
60
0
100
AcDbLine
10
24.399939
20
11.688051
30
0
11
24.399939
21
11.630118
31
0
39
0
210
0
220
0
230
1
0
LINE
5
97
100
AcDbEntity
8
1
62
256
6
ByLayer
370
18
48
1
60
0
100
AcDbLine
10
-0.1
20
-16.002029
30
0
11
-0.1
21
16.314993
31
0
39
0
210
0
220
0
230
1
0
LINE
5
98
100
AcDbEntity
8
1
62
256
6
ByLayer
370
18
48
1
60
0
100
AcDbLine
10
39.690532
20
16.6619
30
0
11
39.762508
21
16.662606
31
0
39
0
210
0
220
0
230
1
0
LINE
5
99
100
AcDbEntity
8
1
62
256
6
ByLayer
370
13
48
1
60
0
100
AcDbLine
10
47.038031
20
16.163167
30
0
11
47.096041
21
16.172982
31
0
39
0
210
0
220
0
230
1
0
LINE
5
9A
100
AcDbEntity
8
1
62
256
6
ByLayer
370
13
48
1
60
0
100
AcDbLine
10
43.629552
20
16.60451
30
0
11
43.629552
21
16.688513
31
0
39
0
210
0
220
0
230
1
0
LINE
5
9B
100
AcDbEntity
8
1
62
256
6
ByLayer
370
18
48
1
60
0
100
AcDbLine
10
44.413918
20
16.69892
30
0
11
44.100145
21
16.697026
31
0
39
0
210
0
220
0
230
1
0
LINE
5
9C
100
AcDbEntity
8
1
62
256
6
ByLayer
370
13
48
1
60
0
100
AcDbLine
10
44.100145
20
16.697026
30
0
11
44.10057
21
16.616142
31
0
39
0
210
0
220
0
230
1
0
LINE
5
9D
100
AcDbEntity
8
1
62
256
6
ByLayer
370
13
48
1
60
0
100
AcDbLine
10
49.409013
20
16.7
30
0
11
49.58698
21
16.7
31
0
39
0
210
0
220
0
230
1
0
LINE
5
9E
100
AcDbEntity
8
1
62
256
6
ByLayer
370
13
48
1
60
0
100
AcDbLine
10
43.425041
20
11.845418
30
0
11
43.425041
21
11.928012
31
0
39
0
210
0
220
0
230
1
0
LINE
5
9F
100
AcDbEntity
8
1
62
256
6
ByLayer
370
13
48
1
60
0
100
AcDbLine
10
43.850069
20
16.587931
30
0
11
43.783061
21
14.66167
31
0
39
0
210
0
220
0
230
1
0
LINE
5
A0
100
AcDbEntity
8
1
62
256
6
ByLayer
370
13
48
1
60
0
100
AcDbLine
10
43.462386
20
13.787481
30
0
11
43.51945
21
13.784989
31
0
39
0
210
0
220
0
230
1
0
LINE
5
A1
100
AcDbEntity
8
1
62
256
6
ByLayer
370
13
48
1
60
0
100
AcDbLine
10
45.51507
20
11.894764
30
0
11
45.51507
21
12.0876
31
0
39
0
210
0
220
0
230
1
0
LINE
5
A2
100
AcDbEntity
8
1
62
256
6
ByLayer
370
13
48
1
60
0
100
AcDbLine
10
43.423704
20
11.962712
30
0
11
43.51945
21
13.784989
31
0
39
0
210
0
220
0
230
1
0
LINE
5
A3
100
AcDbEntity
8
1
62
256
6
ByLayer
370
13
48
1
60
0
100
AcDbLine
10
44.36687
20
11.76432
30
0
11
44.370735
21
12.172084
31
0
39
0
210
0
220
0
230
1
0
LINE
5
A4
100
AcDbEntity
8
1
62
256
6
ByLayer
370
13
48
1
60
0
100
AcDbLine
10
47.096041
20
11.827018
30
0
11
47.038031
21
11.836833
31
0
39
0
210
0
220
0
230
1
0
LINE
5
A5
100
AcDbEntity
8
1
62
256
6
ByLayer
370
13
48
1
60
0
100
AcDbLine
10
45.105219
20
12.646957
30
0
11
44.844577
21
12.541114
31
0
39
0
210
0
220
0
230
1
0
LINE
5
A6
100
AcDbEntity
8
1
62
256
6
ByLayer
370
13
48
1
60
0
100
AcDbLine
10
49.125384
20
16.99936
30
0
11
49.135814
21
16.760485
31
0
39
0
210
0
220
0
230
1
0
LINE
5
A7
100
AcDbEntity
8
1
62
256
6
ByLayer
370
13
48
1
60
0
100
AcDbLine
10
43.41912
20
11.928366
30
0
11
43.260133
21
11.941165
31
0
39
0
210
0
220
0
230
1
0
LINE
5
A8
100
AcDbEntity
8
1
62
256
6
ByLayer
370
13
48
1
60
0
100
AcDbLine
10
43.649142
20
11.93363
30
0
11
44.049443
21
13.842567
31
0
39
0
210
0
220
0
230
1
0
LINE
5
A9
100
AcDbEntity
8
1
62
256
6
ByLayer
370
18
48
1
60
0
100
AcDbLine
10
49.025611
20
11.003692
30
0
11
47
21
11.092132
31
0
39
0
210
0
220
0
230
1
0
LINE
5
AA
100
AcDbEntity
8
1
62
256
6
ByLayer
370
13
48
1
60
0
100
AcDbLine
10
44.867617
20
15.486343
30
0
11
45.020095
21
15.66806
31
0
39
0
210
0
220
0
230
1
0
LINE
5
AB
100
AcDbEntity
8
1
62
256
6
ByLayer
370
13
48
1
60
0
100
AcDbLine
10
47.05801
20
16.404844
30
0
11
47
21
16.39503
31
0
39
0
210
0
220
0
230
1
0
LINE
5
AC
100
AcDbEntity
8
1
62
256
6
ByLayer
370
13
48
1
60
0
100
AcDbLine
10
45.944755
20
11.894764
30
0
11
45.944755
21
12.0876
31
0
39
0
210
0
220
0
230
1
0
LINE
5
AD
100
AcDbEntity
8
1
62
256
6
ByLayer
370
13
48
1
60
0
100
AcDbLine
10
43.502497
20
14.746716
30
0
11
43.561328
21
14.744147
31
0
39
0
210
0
220
0
230
1
0
LINE
5
AE
100
AcDbEntity
8
1
62
256
6
ByLayer
370
13
48
1
60
0
100
AcDbLine
10
44.807963
20
12.139104
30
0
11
44.807963
21
11.716588
31
0
39
0
210
0
220
0
230
1
0
LINE
5
AF
100
AcDbEntity
8
1
62
256
6
ByLayer
370
13
48
1
60
0
100
AcDbLine
10
44.784335
20
12.167263
30
0
11
44.780107
21
11.721171
31
0
39
0
210
0
220
0
230
1
0
LINE
5
B0
100
AcDbEntity
8
1
62
256
6
ByLayer
370
13
48
1
60
0
100
AcDbLine
10
43.747528
20
13.847827
30
0
11
43.646966
21
11.933901
31
0
39
0
210
0
220
0
230
1
0
LINE
5
B1
100
AcDbEntity
8
1
62
256
6
ByLayer
370
13
48
1
60
0
100
AcDbLine
10
44.879016
20
15.174539
30
0
11
44.736859
21
15.234049
31
0
39
0
210
0
220
0
230
1
0
LINE
5
B2
100
AcDbEntity
8
1
62
256
6
ByLayer
370
18
48
1
60
0
100
AcDbLine
10
44.36687
20
11.76432
30
0
11
43.894122
21
11.802103
31
0
39
0
210
0
220
0
230
1
0
LINE
5
B3
100
AcDbEntity
8
1
62
256
6
ByLayer
370
13
48
1
60
0
100
AcDbLine
10
43.747907
20
13.855733
30
0
11
44.049443
21
13.842567
31
0
39
0
210
0
220
0
230
1
0
LINE
5
B4
100
AcDbEntity
8
1
62
256
6
ByLayer
370
13
48
1
60
0
100
AcDbLine
10
43.624952
20
16.573103
30
0
11
43.39682
21
16.571581
31
0
39
0
210
0
220
0
230
1
0
LINE
5
B5
100
AcDbEntity
8
1
62
256
6
ByLayer
370
13
48
1
60
0
100
AcDbLine
10
39.836007
20
16.663205
30
0
11
39.849165
21
16.656905
31
0
39
0
210
0
220
0
230
1
0
LINE
5
B6
100
AcDbEntity
8
1
62
256
6
ByLayer
370
13
48
1
60
0
100
AcDbLine
10
45.944755
20
16.105236
30
0
11
45.944755
21
15.9124
31
0
39
0
210
0
220
0
230
1
0
LINE
5
B7
100
AcDbEntity
8
1
62
256
6
ByLayer
370
18
48
1
60
0
100
AcDbLine
10
45.957743
20
16.839699
30
0
11
45.952608
21
16.836734
31
0
39
0
210
0
220
0
230
1
0
LINE
5
B8
100
AcDbEntity
8
1
62
256
6
ByLayer
370
18
48
1
60
0
100
AcDbLine
10
43.236022
20
11.860634
30
0
11
43.425041
21
11.845418
31
0
39
0
210
0
220
0
230
1
0
LINE
5
B9
100
AcDbEntity
8
1
62
256
6
ByLayer
370
13
48
1
60
0
100
AcDbLine
10
49.586954
20
11.3
30
0
11
49.409013
21
11.3
31
0
39
0
210
0
220
0
230
1
0
LINE
5
BA
100
AcDbEntity
8
1
62
256
6
ByLayer
370
18
48
1
60
0
100
AcDbLine
10
43.648168
20
11.824655
30
0
11
43.642366
21
11.825379
31
0
39
0
210
0
220
0
230
1
0
LINE
5
BB
100
AcDbEntity
8
1
62
256
6
ByLayer
370
13
48
1
60
0
100
AcDbLine
10
46.424906
20
12.007558
30
0
11
46.432783
21
12.139015
31
0
39
0
210
0
220
0
230
1
0
LINE
5
BC
100
AcDbEntity
8
1
62
256
6
ByLayer
370
13
48
1
60
0
100
AcDbLine
10
43.068712
20
16.600934
30
0
11
43.622947
21
16.604632
31
0
39
0
210
0
220
0
230
1
0
LINE
5
BD
100
AcDbEntity
8
1
62
256
6
ByLayer
370
13
48
1
60
0
100
AcDbLine
10
44.867617
20
15.486343
30
0
11
45.148833
21
15.368619
31
0
39
0
210
0
220
0
230
1
0
LINE
5
BE
100
AcDbEntity
8
1
62
256
6
ByLayer
370
13
48
1
60
0
100
AcDbLine
10
43.647464
20
11.916267
30
0
11
43.645288
21
11.916538
31
0
39
0
210
0
220
0
230
1
0
LINE
5
BF
100
AcDbEntity
8
1
62
256
6
ByLayer
370
13
48
1
60
0
100
AcDbLine
10
47
20
11.60497
30
0
11
47.05801
21
11.595156
31
0
39
0
210
0
220
0
230
1
0
LINE
5
C0
100
AcDbEntity
8
1
62
256
6
ByLayer
370
13
48
1
60
0
100
AcDbLine
10
39.769212
20
16.659396
30
0
11
39.762508
21
16.662606
31
0
39
0
210
0
220
0
230
1
0
LINE
5
C1
100
AcDbEntity
8
1
62
256
6
ByLayer
370
13
48
1
60
0
100
AcDbLine
10
49.3
20
11.233662
30
0
11
49.3
21
11.013105
31
0
39
0
210
0
220
0
230
1
0
LINE
5
C2
100
AcDbEntity
8
1
62
256
6
ByLayer
370
13
48
1
60
0
100
AcDbLine
10
43.845547
20
16.692357
30
0
11
43.845547
21
16.595631
31
0
39
0
210
0
220
0
230
1
0
LINE
5
C3
100
AcDbEntity
8
1
62
256
6
ByLayer
370
18
48
1
60
0
100
AcDbLine
10
47
20
16.907833
30
0
11
49.02561
21
16.996273
31
0
39
0
210
0
220
0
230
1
0
LINE
5
C4
100
AcDbEntity
8
1
62
256
6
ByLayer
370
13
48
1
60
0
100
AcDbLine
10
45.51507
20
15.9124
30
0
11
45.944755
21
15.9124
31
0
39
0
210
0
220
0
230
1
0
LINE
5
C5
100
AcDbEntity
8
1
62
256
6
ByLayer
370
13
48
1
60
0
100
AcDbLine
10
43.646966
20
11.933901
30
0
11
43.649142
21
11.93363
31
0
39
0
210
0
220
0
230
1
0
LINE
5
C6
100
AcDbEntity
8
1
62
256
6
ByLayer
370
13
48
1
60
0
100
AcDbLine
10
44.085169
20
14.640558
30
0
11
43.78275
21
14.653762
31
0
39
0
210
0
220
0
230
1
0
LINE
5
C7
100
AcDbEntity
8
1
62
256
6
ByLayer
370
13
48
1
60
0
100
AcDbLine
10
43.855197
20
16.588179
30
0
11
43.850069
21
16.587931
31
0
39
0
210
0
220
0
230
1
0
LINE
5
C8
100
AcDbEntity
8
1
62
256
6
ByLayer
370
18
48
1
60
0
100
AcDbLine
10
39.836007
20
16.663205
30
0
11
43.629552
21
16.688513
31
0
39
0
210
0
220
0
230
1
0
LINE
5
C9
100
AcDbEntity
8
1
62
256
6
ByLayer
370
13
48
1
60
0
100
AcDbLine
10
43.855086
20
16.597452
30
0
11
43.854585
21
16.692794
31
0
39
0
210
0
220
0
230
1
0
LINE
5
CA
100
AcDbEntity
8
1
62
256
6
ByLayer
370
13
48
1
60
0
100
AcDbLine
10
46
20
16.105877
30
0
11
46.004472
21
15.913219
31
0
39
0
210
0
220
0
230
1
0
LINE
5
CB
100
AcDbEntity
8
1
62
256
6
ByLayer
370
13
48
1
60
0
100
AcDbLine
10
43.849615
20
16.597169
30
0
11
43.854744
21
16.597417
31
0
39
0
210
0
220
0
230
1
0
LINE
5
CC
100
AcDbEntity
8
1
62
256
6
ByLayer
370
13
48
1
60
0
100
AcDbLine
10
44.085169
20
14.640558
30
0
11
43.855197
21
16.588179
31
0
39
0
210
0
220
0
230
1
0
LINE
5
CD
100
AcDbEntity
8
1
62
256
6
ByLayer
370
13
48
1
60
0
100
AcDbLine
10
43.561328
20
14.744147
30
0
11
43.624952
21
16.573103
31
0
39
0
210
0
220
0
230
1
0
LINE
5
CE
100
AcDbEntity
8
1
62
256
6
ByLayer
370
13
48
1
60
0
100
AcDbLine
10
45.020095
20
12.33194
30
0
11
44.844577
21
12.541114
31
0
39
0
210
0
220
0
230
1
0
LINE
5
CF
100
AcDbEntity
8
1
62
256
6
ByLayer
370
13
48
1
60
0
100
AcDbLine
10
44.10057
20
16.616142
30
0
11
44.328911
21
14.682332
31
0
39
0
210
0
220
0
230
1
0
LINE
5
D0
100
AcDbEntity
8
1
62
256
6
ByLayer
370
13
48
1
60
0
100
AcDbLine
10
49.3
20
16.986996
30
0
11
49.3
21
16.766338
31
0
39
0
210
0
220
0
230
1
0
LINE
5
D1
100
AcDbEntity
8
1
62
256
6
ByLayer
370
13
48
1
60
0
100
AcDbLine
10
49.135814
20
11.239515
30
0
11
49.125383
21
11.000615
31
0
39
0
210
0
220
0
230
1
0
LINE
5
D2
100
AcDbEntity
8
1
62
256
6
ByLayer
370
13
48
1
60
0
100
AcDbLine
10
44.713819
20
12.803051
30
0
11
44.833089
21
12.851485
31
0
39
0
210
0
220
0
230
1
0
LINE
5
D3
100
AcDbEntity
8
1
62
256
6
ByLayer
370
13
48
1
60
0
100
AcDbLine
10
43.893639
20
11.894752
30
0
11
43.894122
21
11.802103
31
0
39
0
210
0
220
0
230
1
0
LINE
5
D4
100
AcDbEntity
8
1
62
256
6
ByLayer
370
18
48
1
60
0
100
AcDbLine
10
49.6
20
16.6
30
0
11
49.6
21
15.58764
31
0
39
0
210
0
220
0
230
1
0
LINE
5
D5
100
AcDbEntity
8
1
62
256
6
ByLayer
370
13
48
1
60
0
100
AcDbLine
10
43.642366
20
11.917295
30
0
11
43.642366
21
11.825379
31
0
39
0
210
0
220
0
230
1
0
LINE
5
D6
100
AcDbEntity
8
1
62
256
6
ByLayer
370
13
48
1
60
0
100
AcDbLine
10
43.270285
20
11.975063
30
0
11
43.423704
21
11.962712
31
0
39
0
210
0
220
0
230
1
0
LINE
5
D7
100
AcDbEntity
8
1
62
256
6
ByLayer
370
13
48
1
60
0
100
AcDbLine
10
43.648168
20
11.824655
30
0
11
43.647691
21
11.916238
31
0
39
0
210
0
220
0
230
1
0
LINE
5
D8
100
AcDbEntity
8
1
62
256
6
ByLayer
370
18
48
1
60
0
100
AcDbLine
10
45.51507
20
11.415879
30
0
11
45.958261
21
11.160002
31
0
39
0
210
0
220
0
230
1
0
LINE
5
D9
100
AcDbEntity
8
1
62
256
6
ByLayer
370
13
48
1
60
0
100
AcDbLine
10
44.784335
20
12.167263
30
0
11
44.807963
21
12.139104
31
0
39
0
210
0
220
0
230
1
0
LINE
5
DA
100
AcDbEntity
8
1
62
256
6
ByLayer
370
13
48
1
60
0
100
AcDbLine
10
46
20
11.894123
30
0
11
46.004472
21
12.086781
31
0
39
0
210
0
220
0
230
1
0
LINE
5
DB
100
AcDbEntity
8
1
62
256
6
ByLayer
370
13
48
1
60
0
100
AcDbLine
10
44.288539
20
13.777937
30
0
11
43.893639
21
11.894752
31
0
39
0
210
0
220
0
230
1
0
LINE
5
DC
100
AcDbEntity
8
1
62
256
6
ByLayer
370
13
48
1
60
0
100
AcDbLine
10
45.944755
20
15.9124
30
0
11
45.964702
21
15.579485
31
0
39
0
210
0
220
0
230
1
0
LINE
5
DD
100
AcDbEntity
8
1
62
256
6
ByLayer
370
13
48
1
60
0
100
AcDbLine
10
45.51507
20
11.415879
30
0
11
45.51507
21
11.894764
31
0
39
0
210
0
220
0
230
1
0
LINE
5
DE
100
AcDbEntity
8
1
62
256
6
ByLayer
370
13
48
1
60
0
100
AcDbLine
10
45.964702
20
12.420515
30
0
11
45.944755
21
12.0876
31
0
39
0
210
0
220
0
230
1
0
LINE
5
DF
100
AcDbEntity
8
1
62
256
6
ByLayer
370
13
48
1
60
0
100
AcDbLine
10
45.944755
20
12.0876
30
0
11
45.51507
21
12.0876
31
0
39
0
210
0
220
0
230
1
0
LINE
5
E0
100
AcDbEntity
8
1
62
256
6
ByLayer
370
13
48
1
60
0
100
AcDbLine
10
45.944755
20
16.105236
30
0
11
45.51507
21
16.105236
31
0
39
0
210
0
220
0
230
1
0
LINE
5
E1
100
AcDbEntity
8
1
62
256
6
ByLayer
370
13
48
1
60
0
100
AcDbLine
10
45.51507
20
11.894764
30
0
11
45.944755
21
11.894764
31
0
39
0
210
0
220
0
230
1
0
LINE
5
E2
100
AcDbEntity
8
1
62
256
6
ByLayer
370
13
48
1
60
0
100
AcDbLine
10
45.51507
20
16.105236
30
0
11
45.51507
21
15.9124
31
0
39
0
210
0
220
0
230
1
0
LINE
5
E3
100
AcDbEntity
8
1
62
256
6
ByLayer
370
18
48
1
60
0
100
AcDbLine
10
43.854585
20
16.692794
30
0
11
43.845547
21
16.692357
31
0
39
0
210
0
220
0
230
1
0
LINE
5
E4
100
AcDbEntity
8
1
62
256
6
ByLayer
370
13
48
1
60
0
100
AcDbLine
10
46.432783
20
15.860985
30
0
11
46.424906
21
15.992442
31
0
39
0
210
0
220
0
230
1
0
LINE
5
E5
100
AcDbEntity
8
1
62
256
6
ByLayer
370
18
48
1
60
0
100
AcDbLine
10
43.647691
20
11.916238
30
0
11
43.647464
21
11.916267
31
0
39
0
210
0
220
0
230
1
0
LINE
5
E6
100
AcDbEntity
8
1
62
256
6
ByLayer
370
13
48
1
60
0
100
AcDbLine
10
45.51507
20
16.105236
30
0
11
45.51507
21
16.697512
31
0
39
0
210
0
220
0
230
1
0
LINE
5
E7
100
AcDbEntity
8
1
62
256
6
ByLayer
370
18
48
1
60
0
100
AcDbLine
10
49.6
20
12.41236
30
0
11
49.6
21
11.4
31
0
39
0
210
0
220
0
230
1
0
LINE
5
E8
100
AcDbEntity
8
SK2
62
256
6
ByLayer
370
13
48
1
60
0
100
AcDbLine
10
-130
20
16
30
0
11
-130
21
-16
31
0
39
0
210
0
220
0
230
1
0
LINE
5
EA
100
AcDbEntity
8
SK2
62
256
6
ByLayer
370
13
48
1
60
0
100
AcDbLine
10
-122.4
20
-16
30
0
11
-132
21
-16
31
0
39
0
210
0
220
0
230
1
0
LINE
5
EB
100
AcDbEntity
8
SK2
62
256
6
ByLayer
370
13
48
1
60
0
100
AcDbLine
10
-122.4
20
16
30
0
11
-132
21
16
31
0
39
0
210
0
220
0
230
1
0
LINE
5
EC
100
AcDbEntity
8
SK2
62
256
6
ByLayer
370
18
48
1
60
0
100
AcDbLine
10
-130
20
-16
30
0
11
-130.417997
21
-12.825002
31
0
39
0
210
0
220
0
230
1
0
LINE
5
ED
100
AcDbEntity
8
SK2
62
256
6
ByLayer
370
18
48
1
60
0
100
AcDbLine
10
-130
20
-16
30
0
11
-129.582003
21
-12.824998
31
0
39
0
210
0
220
0
230
1
0
LINE
5
EE
100
AcDbEntity
8
SK2
62
256
6
ByLayer
370
18
48
1
60
0
100
AcDbLine
10
-130.417997
20
-12.825002
30
0
11
-129.582003
21
-12.824998
31
0
39
0
210
0
220
0
230
1
0
LINE
5
EF
100
AcDbEntity
8
SK2
62
256
6
ByLayer
370
18
48
1
60
0
100
AcDbLine
10
-130
20
16
30
0
11
-129.582003
21
12.825002
31
0
39
0
210
0
220
0
230
1
0
LINE
5
F0
100
AcDbEntity
8
SK2
62
256
6
ByLayer
370
18
48
1
60
0
100
AcDbLine
10
-130
20
16
30
0
11
-130.417997
21
12.824998
31
0
39
0
210
0
220
0
230
1
0
LINE
5
F1
100
AcDbEntity
8
SK2
62
256
6
ByLayer
370
18
48
1
60
0
100
AcDbLine
10
-129.582003
20
12.825002
30
0
11
-130.417997
21
12.824998
31
0
39
0
210
0
220
0
230
1
0
MTEXT
5
3DF
100
AcDbEntity
8
SK6
62
256
6
ByLayer
370
18
48
1
60
0
100
AcDbMText
10
-67.025
20
-48.091708
30
0
210
0
220
0
230
1
1
\W0.7877;QFT-RFK32C3232-080B
40
3.5
41
0
44
1.084337
50
0
71
7
72
5
7
iso_b_vert
0
MTEXT
5
3E3
100
AcDbEntity
8
SK2
62
256
6
ByLayer
370
18
48
1
60
0
100
AcDbMText
10
-130.875134
20
-1.214932
30
0
210
0
220
0
230
1
1
\W0.6740;32
40
3.5
41
0
44
1.084337
50
89.9999999999999
71
7
72
5
7
iso_b_vert
0
DIMENSION
5
3F2
100
AcDbEntity
8
2
62
256
6
ByLayer
370
13
48
1
60
0
100
AcDbDimension
2
DimnDraft3D1
10
74.7
20
17
30
0
11
74.7
21
-1.590466
31
0
70
32
71
5
72
1
41
1
210
0
220
0
230
1
3
Standard
100
AcDbAlignedDimension
13
19.6
23
-16
33
0
14
51.6
24
17
34
0
50
90
100
AcDbRotatedDimension
1001
ACAD
1000
DSTYLE
1002
{
1070
    74
1070
     0
1070
   279
1070
     0
1070
   172
1070
     1
1070
   173
1070
     1
1070
   340
1005
3E0
1070
   271
1070
     1
1070
    77
1070
     1
1070
    73
1070
     0
1070
   171
1070
     3
1070
   274
1070
     4
1070
   177
1070
     2
1070
   176
1070
     2
1070
   178
1070
     7
1070
    78
1070
     8
1070
    41
1041
3.175
1070
   147
1041
1.75
1070
    42
1041
2.0
1070
    44
1041
2.0
1070
   140
1041
3.5
1070
   343
1005
3F3
1070
   344
1005
3F3
1002
}
0
DIMENSION
5
407
100
AcDbEntity
8
SK2
62
256
6
ByLayer
370
13
48
1
60
0
100
AcDbDimension
2
DimnDraft3D2
10
49.6
20
44.212637
30
0
11
-38.360766
21
44.212637
31
0
70
32
71
5
72
1
41
1
210
0
220
0
230
1
3
Standard
100
AcDbAlignedDimension
13
-120.4
23
-14
33
0
14
49.6
24
19
34
0
50
0
100
AcDbRotatedDimension
1001
ACAD
1000
DSTYLE
1002
{
1070
   279
1070
     0
1070
   172
1070
     1
1070
   173
1070
     1
1070
   340
1005
3E0
1070
   271
1070
     1
1070
    77
1070
     1
1070
    73
1070
     0
1070
   171
1070
     3
1070
   274
1070
     4
1070
   177
1070
     2
1070
   176
1070
     2
1070
   178
1070
     7
1070
    78
1070
     8
1070
    41
1041
3.175
1070
   147
1041
1.75
1070
    42
1041
2.0
1070
    44
1041
2.0
1070
   140
1041
3.5
1070
   343
1005
3F3
1070
   344
1005
3F3
1002
}
0
DIMENSION
5
415
100
AcDbEntity
8
2
62
256
6
ByLayer
370
13
48
1
60
0
100
AcDbDimension
2
DimnDraft3D3
10
49.6
20
38.212637
30
0
11
20.508534
21
38.212637
31
0
70
32
71
5
72
1
41
1
210
0
220
0
230
1
3
Standard
100
AcDbAlignedDimension
13
0
23
18
33
0
14
49.6
24
19
34
0
50
0
100
AcDbRotatedDimension
1001
ACAD
1000
DSTYLE
1002
{
1070
   279
1070
     0
1070
   172
1070
     1
1070
   173
1070
     1
1070
   340
1005
3E0
1070
   271
1070
     1
1070
    77
1070
     1
1070
    73
1070
     0
1070
   171
1070
     3
1070
   274
1070
     4
1070
   177
1070
     2
1070
   176
1070
     2
1070
   178
1070
     7
1070
    78
1070
     8
1070
    41
1041
3.175
1070
   147
1041
1.75
1070
    42
1041
2.0
1070
    44
1041
2.0
1070
   140
1041
3.5
1070
   343
1005
3F3
1070
   344
1005
3F3
1002
}
0
DIMENSION
5
423
100
AcDbEntity
8
2
62
256
6
ByLayer
370
13
48
1
60
0
100
AcDbDimension
2
DimnDraft3D4
10
17.6
20
-29.14632
30
0
11
31.509534
21
-29.14632
31
0
70
32
71
5
72
1
41
1
210
0
220
0
230
1
3
Standard
100
AcDbAlignedDimension
13
49.6
23
15
33
0
14
17.6
24
-18
34
0
50
0
100
AcDbRotatedDimension
1001
ACAD
1000
DSTYLE
1002
{
1070
   279
1070
     0
1070
   172
1070
     1
1070
   173
1070
     1
1070
   340
1005
3E0
1070
   271
1070
     1
1070
    77
1070
     1
1070
    73
1070
     0
1070
   171
1070
     3
1070
   274
1070
     4
1070
   177
1070
     2
1070
   176
1070
     2
1070
   178
1070
     7
1070
    78
1070
     8
1070
    41
1041
3.175
1070
   147
1041
1.75
1070
    42
1041
2.0
1070
    44
1041
2.0
1070
   140
1041
3.5
1070
   343
1005
3F3
1070
   344
1005
3F3
1002
}
0
DIMENSION
5
431
100
AcDbEntity
8
2
62
256
6
ByLayer
370
13
48
1
60
0
100
AcDbDimension
2
DimnDraft3D5
10
67.7
20
11
30
0
11
67.7
21
13.217267
31
0
70
32
71
5
72
1
41
1
210
0
220
0
230
1
3
Standard
100
AcDbAlignedDimension
13
51.6
23
17
33
0
14
51.6
24
11
34
0
50
90
100
AcDbRotatedDimension
1001
ACAD
1000
DSTYLE
1002
{
1070
    74
1070
     0
1070
   279
1070
     0
1070
   172
1070
     1
1070
   173
1070
     1
1070
   340
1005
3E0
1070
   271
1070
     1
1070
    77
1070
     1
1070
    73
1070
     0
1070
   171
1070
     3
1070
   274
1070
     4
1070
   177
1070
     2
1070
   176
1070
     2
1070
   178
1070
     7
1070
    78
1070
     8
1070
    41
1041
3.175
1070
   147
1041
1.75
1070
    42
1041
2.0
1070
    44
1041
2.0
1070
   140
1041
3.5
1070
   343
1005
3F3
1070
   344
1005
3F3
1002
}
0
ENDSEC
0
SECTION
2
OBJECTS
0
DICTIONARY
5
49b
330
0
100
AcDbDictionary
280
0
281
1
3
ACAD_GROUP
350
49c
3
ACAD_MLINESTYLE
350
49d
0
DICTIONARY
5
49c
330
0
100
AcDbDictionary
280
0
281
1
0
DICTIONARY
5
49d
330
0
100
AcDbDictionary
280
0
281
1
3
Standard
350
18
0
MLINESTYLE
5
18
330
49d
100
AcDbMlineStyle
2
Standard
70
0
3

62
256
51
90
52
90
71
2
49
-0.5
62
256
6
ByLayer
49
0.5
62
256
6
ByLayer
0
RASTERVARIABLES
5
48a
330

100
AcDbRasterVariables
90
0
70
1
71
1
72
1
0
ENDSEC
0
EOF
