0
SECTION
2
HEADER
9
$ACADVER
1
AC1015
9
$DWGCODEPAGE
3
ANSI_1252
9
$HANDSEED
5
4bd
9
$ANGBASE
50
0
9
$ANGDIR
70
0
9
$ATTMODE
70
1
9
$AUNITS
70
0
9
$AUPREC
70
0
9
$CECOLOR
62
256
9
$CELTSCALE
40
1
9
$CELTYPE
6
ByLayer
9
$CELWEIGHT
370
18
9
$CLAYER
8
0
9
$CMLJUST
70
0
9
$CMLSCALE
40
1
9
$CMLSTYLE
2
Standard
9
$DIMSTYLE
2
Standard
9
$TEXTSIZE
40
0.2
9
$TEXTSTYLE
7
Standard
9
$LUNITS
70
2
9
$LUPREC
70
4
9
$EXTNAMES
290
1
9
$INSUNITS
70
4
9
$LTSCALE
40
1
9
$LWDISPLAY
290
1
9
$PDMODE
70
0
9
$PDSIZE
40
0
9
$PLINEGEN
70
0
0
ENDSEC
0
SECTION
2
CLASSES
0
CLASS
1
RASTERVARIABLES
2
AcDbRasterVariables
3
ISM
90
0
280
0
281
0
0
ENDSEC
0
SECTION
2
TABLES
0
TABLE
2
VPORT
5
4b3
100
AcDbSymbolTable
0
VPORT
5
1
100
AcDbSymbolTableRecord
100
AcDbViewportTableRecord
2
*Active
70
0
10
0
20
0
11
1
21
1
12
-1
22
1
13
0
23
0
14
0.5
24
0.5
15
10
25
10
16
0
26
0
36
1
17
0
27
0
37
0
0
ENDTAB
0
TABLE
2
LTYPE
5
4b4
100
AcDbSymbolTable
0
LTYPE
5
14
100
AcDbSymbolTableRecord
100
AcDbLinetypeTableRecord
70
0
2
ByBlock
3

72
65
73
0
40
0
0
LTYPE
5
15
100
AcDbSymbolTableRecord
100
AcDbLinetypeTableRecord
70
0
2
ByLayer
3

72
65
73
0
40
0
0
LTYPE
5
16
100
AcDbSymbolTableRecord
100
AcDbLinetypeTableRecord
70
0
2
CONTINUOUS
3
Solid line
72
65
73
0
40
0
0
LTYPE
5
6A
100
AcDbSymbolTableRecord
100
AcDbLinetypeTableRecord
70
0
2
CENTER
3
____ _ ____ _ ____ _ ____
72
65
73
4
40
47.5
49
22
74
0
49
-8.5
74
0
49
8.5
74
0
49
-8.5
74
0
0
LTYPE
5
6B
100
AcDbSymbolTableRecord
100
AcDbLinetypeTableRecord
70
0
2
DASHED
3
__ __ __ __ __ __ __ __ __
72
65
73
2
40
25.72
49
12.86
74
0
49
-12.86
74
0
0
ENDTAB
0
TABLE
2
LAYER
5
4b5
100
AcDbSymbolTable
0
LAYER
5
10
100
AcDbSymbolTableRecord
100
AcDbLayerTableRecord
2
0
70
0
62
7
6
CONTINUOUS
290
1
370
-3
390
0
0
LAYER
5
6D
100
AcDbSymbolTableRecord
100
AcDbLayerTableRecord
2
80
70
0
62
-6
6
CONTINUOUS
290
1
370
-3
390
0
0
LAYER
5
6F
100
AcDbSymbolTableRecord
100
AcDbLayerTableRecord
2
81
70
0
62
-3
6
CONTINUOUS
290
1
370
-3
390
0
0
LAYER
5
71
100
AcDbSymbolTableRecord
100
AcDbLayerTableRecord
2
1
70
0
62
4
6
CONTINUOUS
290
1
370
-3
390
0
0
LAYER
5
3ED
100
AcDbSymbolTableRecord
100
AcDbLayerTableRecord
2
2
70
0
62
7
6
CONTINUOUS
290
1
370
-3
390
0
0
LAYER
5
4a0
100
AcDbSymbolTableRecord
100
AcDbLayerTableRecord
2
SK1
70
0
62
4
6
CONTINUOUS
290
1
370
-3
390
0
0
LAYER
5
4a1
100
AcDbSymbolTableRecord
100
AcDbLayerTableRecord
2
SK2
70
0
62
7
6
CONTINUOUS
290
1
370
-3
390
0
0
LAYER
5
4a2
100
AcDbSymbolTableRecord
100
AcDbLayerTableRecord
2
SK6
70
0
62
5
6
CONTINUOUS
290
1
370
-3
390
0
0
ENDTAB
0
TABLE
2
STYLE
5
4b6
100
AcDbSymbolTable
0
STYLE
5
11
100
AcDbSymbolTableRecord
100
AcDbTextStyleTableRecord
2
Standard
3
txt
70
0
71
0
40
0
41
1
42
0
50
0
0
STYLE
5
3E7
100
AcDbSymbolTableRecord
100
AcDbTextStyleTableRecord
2
iso_b_vert
3
simplex.shx
70
0
71
0
40
0
41
1
42
0
50
0
0
STYLE
5
3E8
100
AcDbSymbolTableRecord
100
AcDbTextStyleTableRecord
2
DWGDirectTextStyle
3
simplex
70
0
71
0
40
0
41
1
42
0
50
0
0
ENDTAB
0
TABLE
2
DIMSTYLE
5
4b7
100
AcDbSymbolTable
100
AcDbDimStyleTable
0
DIMSTYLE
105
27
100
AcDbSymbolTableRecord
100
AcDbDimStyleTableRecord
2
Standard
70
0
3
<>
41
0.18
42
0.0625
44
0.18
140
0.18
147
0.09
73
0
74
0
77
1
271
2
275
0
278
52
280
0
340
11
0
ENDTAB
0
TABLE
2
VIEW
5
4b8
100
AcDbSymbolTable
0
ENDTAB
0
TABLE
2
UCS
5
4b9
100
AcDbSymbolTable
0
ENDTAB
0
TABLE
2
APPID
5
4ba
100
AcDbSymbolTable
0
APPID
5
12
100
AcDbSymbolTableRecord
100
AcDbRegAppTableRecord
2
ACAD
70
0
0
ENDTAB
0
TABLE
2
BLOCK_RECORD
5
4bb
100
AcDbSymbolTable
0
BLOCK_RECORD
5
1F
100
AcDbSymbolTableRecord
100
AcDbBlockTableRecord
2
*Model_Space
340
0
70
0
0
BLOCK_RECORD
5
1B
100
AcDbSymbolTableRecord
100
AcDbBlockTableRecord
2
*Paper_Space
340
0
70
0
0
BLOCK_RECORD
5
23
100
AcDbSymbolTableRecord
100
AcDbBlockTableRecord
2
*Paper_Space0
340
0
70
0
0
BLOCK_RECORD
5
3EB
100
AcDbSymbolTableRecord
100
AcDbBlockTableRecord
2
DimnDraft3D1
340
0
70
0
0
BLOCK_RECORD
5
3FA
100
AcDbSymbolTableRecord
100
AcDbBlockTableRecord
2
_CLOSED
340
0
70
0
0
BLOCK_RECORD
5
401
100
AcDbSymbolTableRecord
100
AcDbBlockTableRecord
2
DimnDraft3D2
340
0
70
0
0
BLOCK_RECORD
5
40F
100
AcDbSymbolTableRecord
100
AcDbBlockTableRecord
2
DimnDraft3D3
340
0
70
0
0
BLOCK_RECORD
5
41D
100
AcDbSymbolTableRecord
100
AcDbBlockTableRecord
2
DimnDraft3D4
340
0
70
0
0
BLOCK_RECORD
5
42B
100
AcDbSymbolTableRecord
100
AcDbBlockTableRecord
2
DimnDraft3D5
340
0
70
0
0
BLOCK_RECORD
5
439
100
AcDbSymbolTableRecord
100
AcDbBlockTableRecord
2
DimnDraft3D6
340
0
70
0
0
ENDTAB
0
ENDSEC
0
SECTION
2
BLOCKS
0
BLOCK
5
20
100
AcDbEntity
8
0
100
AcDbBlockBegin
2
*Model_Space
70
0
10
0
20
0
30
0
3
*Model_Space
0
ENDBLK
5
21
100
AcDbEntity
8
0
100
AcDbBlockEnd
0
BLOCK
5
1C
100
AcDbEntity
8
0
100
AcDbBlockBegin
2
*Paper_Space
70
0
10
0
20
0
30
0
3
*Paper_Space
0
ENDBLK
5
1D
100
AcDbEntity
8
0
100
AcDbBlockEnd
0
BLOCK
5
24
100
AcDbEntity
8
0
100
AcDbBlockBegin
2
*Paper_Space0
70
0
10
0
20
0
30
0
3
*Paper_Space0
0
ENDBLK
5
25
100
AcDbEntity
8
0
100
AcDbBlockEnd
0
BLOCK
5
3F7
100
AcDbEntity
8
0
100
AcDbBlockBegin
2
DimnDraft3D1
70
0
10
0
20
0
30
0
3
DimnDraft3D1
0
MTEXT
5
3EC
100
AcDbEntity
8
2
62
256
6
ByLayer
370
18
48
1
60
0
100
AcDbMText
10
4.221967
20
29.975184
30
0
210
0
220
0
230
1
1
\W0.5321;10
40
3.5
41
0
44
1.084337
50
0
71
7
72
5
7
iso_b_vert
0
LINE
5
3EE
100
AcDbEntity
8
2
62
256
6
ByLayer
370
13
48
1
60
0
100
AcDbLine
10
0
20
14.5
30
0
11
0
21
31.10005
31
0
39
0
210
0
220
0
230
1
0
LINE
5
3EF
100
AcDbEntity
8
2
62
256
6
ByLayer
370
13
48
1
60
0
100
AcDbLine
10
10
20
-38.6
30
0
11
10
21
31.10005
31
0
39
0
210
0
220
0
230
1
0
LINE
5
3F0
100
AcDbEntity
8
2
62
256
6
ByLayer
370
13
48
1
60
0
100
AcDbLine
10
-8.75
20
29.10005
30
0
11
18.75
21
29.10005
31
0
39
0
210
0
220
0
230
1
0
LINE
5
3F1
100
AcDbEntity
8
2
62
256
6
ByLayer
370
13
48
1
60
0
100
AcDbLine
10
0
20
29.10005
30
0
11
-3.174998
21
28.682053
31
0
39
0
210
0
220
0
230
1
0
LINE
5
3F2
100
AcDbEntity
8
2
62
256
6
ByLayer
370
13
48
1
60
0
100
AcDbLine
10
0
20
29.10005
30
0
11
-3.175002
21
29.518047
31
0
39
0
210
0
220
0
230
1
0
LINE
5
3F3
100
AcDbEntity
8
2
62
256
6
ByLayer
370
13
48
1
60
0
100
AcDbLine
10
-3.174998
20
28.682053
30
0
11
-3.175002
21
29.518047
31
0
39
0
210
0
220
0
230
1
0
LINE
5
3F4
100
AcDbEntity
8
2
62
256
6
ByLayer
370
13
48
1
60
0
100
AcDbLine
10
10
20
29.10005
30
0
11
13.174998
21
29.518047
31
0
39
0
210
0
220
0
230
1
0
LINE
5
3F5
100
AcDbEntity
8
2
62
256
6
ByLayer
370
13
48
1
60
0
100
AcDbLine
10
10
20
29.10005
30
0
11
13.175002
21
28.682053
31
0
39
0
210
0
220
0
230
1
0
LINE
5
3F6
100
AcDbEntity
8
2
62
256
6
ByLayer
370
13
48
1
60
0
100
AcDbLine
10
13.174998
20
29.518047
30
0
11
13.175002
21
28.682053
31
0
39
0
210
0
220
0
230
1
0
ENDBLK
5
3F8
100
AcDbEntity
8
0
100
AcDbBlockEnd
0
BLOCK
5
3FB
100
AcDbEntity
8
0
100
AcDbBlockBegin
2
_CLOSED
70
0
10
0
20
0
30
0
3
_CLOSED
0
LINE
5
3FD
100
AcDbEntity
8
0
62
256
6
ByLayer
370
-2
48
1
60
0
100
AcDbLine
10
-1
20
0.166667
30
0
11
0
21
0
31
0
39
0
210
0
220
0
230
1
0
LINE
5
3FE
100
AcDbEntity
8
0
62
256
6
ByLayer
370
-2
48
1
60
0
100
AcDbLine
10
0
20
0
30
0
11
-1
21
-0.166667
31
0
39
0
210
0
220
0
230
1
0
LINE
5
3FF
100
AcDbEntity
8
0
62
256
6
ByLayer
370
-2
48
1
60
0
100
AcDbLine
10
-1
20
0.166667
30
0
11
-1
21
-0.166667
31
0
39
0
210
0
220
0
230
1
0
LINE
5
400
100
AcDbEntity
8
0
62
256
6
ByLayer
370
-2
48
1
60
0
100
AcDbLine
10
0
20
0
30
0
11
-1
21
0
31
0
39
0
210
0
220
0
230
1
0
ENDBLK
5
3FC
100
AcDbEntity
8
0
100
AcDbBlockEnd
0
BLOCK
5
40C
100
AcDbEntity
8
0
100
AcDbBlockBegin
2
DimnDraft3D2
70
0
10
0
20
0
30
0
3
DimnDraft3D2
0
MTEXT
5
402
100
AcDbEntity
8
SK2
62
256
6
ByLayer
370
18
48
1
60
0
100
AcDbMText
10
-38.399733
20
35.975184
30
0
210
0
220
0
230
1
1
\W0.7167;94
40
3.5
41
0
44
1.084337
50
0
71
7
72
5
7
iso_b_vert
0
LINE
5
403
100
AcDbEntity
8
SK2
62
256
6
ByLayer
370
13
48
1
60
0
100
AcDbLine
10
-84
20
14.5
30
0
11
-84
21
37.10005
31
0
39
0
210
0
220
0
230
1
0
LINE
5
404
100
AcDbEntity
8
SK2
62
256
6
ByLayer
370
13
48
1
60
0
100
AcDbLine
10
10
20
-38.6
30
0
11
10
21
37.10005
31
0
39
0
210
0
220
0
230
1
0
LINE
5
405
100
AcDbEntity
8
SK2
62
256
6
ByLayer
370
13
48
1
60
0
100
AcDbLine
10
-84
20
35.10005
30
0
11
10
21
35.10005
31
0
39
0
210
0
220
0
230
1
0
LINE
5
406
100
AcDbEntity
8
SK2
62
256
6
ByLayer
370
13
48
1
60
0
100
AcDbLine
10
-84
20
35.10005
30
0
11
-80.825002
21
35.518047
31
0
39
0
210
0
220
0
230
1
0
LINE
5
407
100
AcDbEntity
8
SK2
62
256
6
ByLayer
370
13
48
1
60
0
100
AcDbLine
10
-84
20
35.10005
30
0
11
-80.824998
21
34.682053
31
0
39
0
210
0
220
0
230
1
0
LINE
5
408
100
AcDbEntity
8
SK2
62
256
6
ByLayer
370
13
48
1
60
0
100
AcDbLine
10
-80.825002
20
35.518047
30
0
11
-80.824998
21
34.682053
31
0
39
0
210
0
220
0
230
1
0
LINE
5
409
100
AcDbEntity
8
SK2
62
256
6
ByLayer
370
13
48
1
60
0
100
AcDbLine
10
10
20
35.10005
30
0
11
6.825002
21
34.682053
31
0
39
0
210
0
220
0
230
1
0
LINE
5
40A
100
AcDbEntity
8
SK2
62
256
6
ByLayer
370
13
48
1
60
0
100
AcDbLine
10
10
20
35.10005
30
0
11
6.824998
21
35.518047
31
0
39
0
210
0
220
0
230
1
0
LINE
5
40B
100
AcDbEntity
8
SK2
62
256
6
ByLayer
370
13
48
1
60
0
100
AcDbLine
10
6.825002
20
34.682053
30
0
11
6.824998
21
35.518047
31
0
39
0
210
0
220
0
230
1
0
ENDBLK
5
40D
100
AcDbEntity
8
0
100
AcDbBlockEnd
0
BLOCK
5
41A
100
AcDbEntity
8
0
100
AcDbBlockBegin
2
DimnDraft3D3
70
0
10
0
20
0
30
0
3
DimnDraft3D3
0
MTEXT
5
410
100
AcDbEntity
8
2
62
256
6
ByLayer
370
18
48
1
60
0
100
AcDbMText
10
7.092267
20
-57.824866
30
0
210
0
220
0
230
1
1
\W0.5404;6
40
3.5
41
0
44
1.084337
50
0
71
7
72
5
7
iso_b_vert
0
LINE
5
411
100
AcDbEntity
8
2
62
256
6
ByLayer
370
13
48
1
60
0
100
AcDbLine
10
10
20
-42.6
30
0
11
10
21
-60.7
31
0
39
0
210
0
220
0
230
1
0
LINE
5
412
100
AcDbEntity
8
2
62
256
6
ByLayer
370
13
48
1
60
0
100
AcDbLine
10
4
20
-42.6
30
0
11
4
21
-60.7
31
0
39
0
210
0
220
0
230
1
0
LINE
5
413
100
AcDbEntity
8
2
62
256
6
ByLayer
370
13
48
1
60
0
100
AcDbLine
10
18.75
20
-58.7
30
0
11
-4.75
21
-58.7
31
0
39
0
210
0
220
0
230
1
0
LINE
5
414
100
AcDbEntity
8
2
62
256
6
ByLayer
370
13
48
1
60
0
100
AcDbLine
10
10
20
-58.7
30
0
11
13.174998
21
-58.282003
31
0
39
0
210
0
220
0
230
1
0
LINE
5
415
100
AcDbEntity
8
2
62
256
6
ByLayer
370
13
48
1
60
0
100
AcDbLine
10
10
20
-58.7
30
0
11
13.175002
21
-59.117997
31
0
39
0
210
0
220
0
230
1
0
LINE
5
416
100
AcDbEntity
8
2
62
256
6
ByLayer
370
13
48
1
60
0
100
AcDbLine
10
13.174998
20
-58.282003
30
0
11
13.175002
21
-59.117997
31
0
39
0
210
0
220
0
230
1
0
LINE
5
417
100
AcDbEntity
8
2
62
256
6
ByLayer
370
13
48
1
60
0
100
AcDbLine
10
4
20
-58.7
30
0
11
0.825002
21
-59.117997
31
0
39
0
210
0
220
0
230
1
0
LINE
5
418
100
AcDbEntity
8
2
62
256
6
ByLayer
370
13
48
1
60
0
100
AcDbLine
10
4
20
-58.7
30
0
11
0.824998
21
-58.282003
31
0
39
0
210
0
220
0
230
1
0
LINE
5
419
100
AcDbEntity
8
2
62
256
6
ByLayer
370
13
48
1
60
0
100
AcDbLine
10
0.825002
20
-59.117997
30
0
11
0.824998
21
-58.282003
31
0
39
0
210
0
220
0
230
1
0
ENDBLK
5
41B
100
AcDbEntity
8
0
100
AcDbBlockEnd
0
BLOCK
5
428
100
AcDbEntity
8
0
100
AcDbBlockBegin
2
DimnDraft3D4
70
0
10
0
20
0
30
0
3
DimnDraft3D4
0
MTEXT
5
41E
100
AcDbEntity
8
SK2
62
256
6
ByLayer
370
18
48
1
60
0
100
AcDbMText
10
-82.407466
20
-57.824866
30
0
210
0
220
0
230
1
1
\W0.5404;3
40
3.5
41
0
44
1.084337
50
0
71
7
72
5
7
iso_b_vert
0
LINE
5
41F
100
AcDbEntity
8
SK2
62
256
6
ByLayer
370
13
48
1
60
0
100
AcDbLine
10
-84
20
10.5
30
0
11
-84
21
-60.7
31
0
39
0
210
0
220
0
230
1
0
LINE
5
420
100
AcDbEntity
8
SK2
62
256
6
ByLayer
370
13
48
1
60
0
100
AcDbLine
10
-81
20
-14.5
30
0
11
-81
21
-60.7
31
0
39
0
210
0
220
0
230
1
0
LINE
5
421
100
AcDbEntity
8
SK2
62
256
6
ByLayer
370
13
48
1
60
0
100
AcDbLine
10
-92.75
20
-58.7
30
0
11
-72.25
21
-58.7
31
0
39
0
210
0
220
0
230
1
0
LINE
5
422
100
AcDbEntity
8
SK2
62
256
6
ByLayer
370
13
48
1
60
0
100
AcDbLine
10
-84
20
-58.7
30
0
11
-87.174998
21
-59.117997
31
0
39
0
210
0
220
0
230
1
0
LINE
5
423
100
AcDbEntity
8
SK2
62
256
6
ByLayer
370
13
48
1
60
0
100
AcDbLine
10
-84
20
-58.7
30
0
11
-87.175002
21
-58.282003
31
0
39
0
210
0
220
0
230
1
0
LINE
5
424
100
AcDbEntity
8
SK2
62
256
6
ByLayer
370
13
48
1
60
0
100
AcDbLine
10
-87.174998
20
-59.117997
30
0
11
-87.175002
21
-58.282003
31
0
39
0
210
0
220
0
230
1
0
LINE
5
425
100
AcDbEntity
8
SK2
62
256
6
ByLayer
370
13
48
1
60
0
100
AcDbLine
10
-81
20
-58.7
30
0
11
-77.825002
21
-58.282003
31
0
39
0
210
0
220
0
230
1
0
LINE
5
426
100
AcDbEntity
8
SK2
62
256
6
ByLayer
370
13
48
1
60
0
100
AcDbLine
10
-81
20
-58.7
30
0
11
-77.824998
21
-59.117997
31
0
39
0
210
0
220
0
230
1
0
LINE
5
427
100
AcDbEntity
8
SK2
62
256
6
ByLayer
370
13
48
1
60
0
100
AcDbLine
10
-77.825002
20
-58.282003
30
0
11
-77.824998
21
-59.117997
31
0
39
0
210
0
220
0
230
1
0
ENDBLK
5
429
100
AcDbEntity
8
0
100
AcDbBlockEnd
0
BLOCK
5
436
100
AcDbEntity
8
0
100
AcDbBlockBegin
2
DimnDraft3D5
70
0
10
0
20
0
30
0
3
DimnDraft3D5
0
MTEXT
5
42C
100
AcDbEntity
8
2
62
256
6
ByLayer
370
18
48
1
60
0
100
AcDbMText
10
34.638606
20
-16.844766
30
0
210
0
220
0
230
1
1
\W0.7208;53.1
40
3.5
41
0
44
1.084337
50
90
71
7
72
5
7
iso_b_vert
0
LINE
5
42D
100
AcDbEntity
8
2
62
256
6
ByLayer
370
13
48
1
60
0
100
AcDbLine
10
2
20
12.5
30
0
11
37.513739
21
12.5
31
0
39
0
210
0
220
0
230
1
0
LINE
5
42E
100
AcDbEntity
8
2
62
256
6
ByLayer
370
13
48
1
60
0
100
AcDbLine
10
12
20
-40.6
30
0
11
37.513739
21
-40.6
31
0
39
0
210
0
220
0
230
1
0
LINE
5
42F
100
AcDbEntity
8
2
62
256
6
ByLayer
370
13
48
1
60
0
100
AcDbLine
10
35.513739
20
12.5
30
0
11
35.513739
21
-40.6
31
0
39
0
210
0
220
0
230
1
0
LINE
5
430
100
AcDbEntity
8
2
62
256
6
ByLayer
370
13
48
1
60
0
100
AcDbLine
10
35.513739
20
12.5
30
0
11
35.931736
21
9.325002
31
0
39
0
210
0
220
0
230
1
0
LINE
5
431
100
AcDbEntity
8
2
62
256
6
ByLayer
370
13
48
1
60
0
100
AcDbLine
10
35.513739
20
12.5
30
0
11
35.095743
21
9.324998
31
0
39
0
210
0
220
0
230
1
0
LINE
5
432
100
AcDbEntity
8
2
62
256
6
ByLayer
370
13
48
1
60
0
100
AcDbLine
10
35.931736
20
9.325002
30
0
11
35.095743
21
9.324998
31
0
39
0
210
0
220
0
230
1
0
LINE
5
433
100
AcDbEntity
8
2
62
256
6
ByLayer
370
13
48
1
60
0
100
AcDbLine
10
35.513739
20
-40.6
30
0
11
35.095743
21
-37.425002
31
0
39
0
210
0
220
0
230
1
0
LINE
5
434
100
AcDbEntity
8
2
62
256
6
ByLayer
370
13
48
1
60
0
100
AcDbLine
10
35.513739
20
-40.6
30
0
11
35.931736
21
-37.424998
31
0
39
0
210
0
220
0
230
1
0
LINE
5
435
100
AcDbEntity
8
2
62
256
6
ByLayer
370
13
48
1
60
0
100
AcDbLine
10
35.095743
20
-37.425002
30
0
11
35.931736
21
-37.424998
31
0
39
0
210
0
220
0
230
1
0
ENDBLK
5
437
100
AcDbEntity
8
0
100
AcDbBlockEnd
0
BLOCK
5
444
100
AcDbEntity
8
0
100
AcDbBlockBegin
2
DimnDraft3D6
70
0
10
0
20
0
30
0
3
DimnDraft3D6
0
MTEXT
5
43A
100
AcDbEntity
8
2
62
256
6
ByLayer
370
18
48
1
60
0
100
AcDbMText
10
27.638606
20
-28.815466
30
0
210
0
220
0
230
1
1
\W0.6740;26
40
3.5
41
0
44
1.084337
50
90
71
7
72
5
7
iso_b_vert
0
LINE
5
43B
100
AcDbEntity
8
2
62
256
6
ByLayer
370
13
48
1
60
0
100
AcDbLine
10
12
20
-40.6
30
0
11
30.513739
21
-40.6
31
0
39
0
210
0
220
0
230
1
0
LINE
5
43C
100
AcDbEntity
8
2
62
256
6
ByLayer
370
13
48
1
60
0
100
AcDbLine
10
6
20
-14.6
30
0
11
30.513739
21
-14.6
31
0
39
0
210
0
220
0
230
1
0
LINE
5
43D
100
AcDbEntity
8
2
62
256
6
ByLayer
370
13
48
1
60
0
100
AcDbLine
10
28.513739
20
-40.6
30
0
11
28.513739
21
-14.6
31
0
39
0
210
0
220
0
230
1
0
LINE
5
43E
100
AcDbEntity
8
2
62
256
6
ByLayer
370
13
48
1
60
0
100
AcDbLine
10
28.513739
20
-40.6
30
0
11
28.095743
21
-37.425002
31
0
39
0
210
0
220
0
230
1
0
LINE
5
43F
100
AcDbEntity
8
2
62
256
6
ByLayer
370
13
48
1
60
0
100
AcDbLine
10
28.513739
20
-40.6
30
0
11
28.931736
21
-37.424998
31
0
39
0
210
0
220
0
230
1
0
LINE
5
440
100
AcDbEntity
8
2
62
256
6
ByLayer
370
13
48
1
60
0
100
AcDbLine
10
28.095743
20
-37.425002
30
0
11
28.931736
21
-37.424998
31
0
39
0
210
0
220
0
230
1
0
LINE
5
441
100
AcDbEntity
8
2
62
256
6
ByLayer
370
13
48
1
60
0
100
AcDbLine
10
28.513739
20
-14.6
30
0
11
28.931736
21
-17.774998
31
0
39
0
210
0
220
0
230
1
0
LINE
5
442
100
AcDbEntity
8
2
62
256
6
ByLayer
370
13
48
1
60
0
100
AcDbLine
10
28.513739
20
-14.6
30
0
11
28.095743
21
-17.775002
31
0
39
0
210
0
220
0
230
1
0
LINE
5
443
100
AcDbEntity
8
2
62
256
6
ByLayer
370
13
48
1
60
0
100
AcDbLine
10
28.931736
20
-17.774998
30
0
11
28.095743
21
-17.775002
31
0
39
0
210
0
220
0
230
1
0
ENDBLK
5
445
100
AcDbEntity
8
0
100
AcDbBlockEnd
0
ENDSEC
0
SECTION
2
ENTITIES
0
ARC
5
FE
100
AcDbEntity
8
1
62
256
6
ByLayer
370
18
48
1
60
0
100
AcDbCircle
39
0
10
-2.75
20
-14.6
30
0
40
1.6
210
0
220
0
230
-1
100
AcDbArc
50
90
51
180
0
ARC
5
FF
100
AcDbEntity
8
SK1
62
256
6
ByLayer
370
18
48
1
60
0
100
AcDbCircle
39
0
10
1.342559
20
11.175
30
0
40
1.59999999995548
210
0
220
0
230
-1
100
AcDbArc
50
124.093391
51
140.950287
0
ARC
5
100
100
AcDbEntity
8
1
62
256
6
ByLayer
370
18
48
1
60
0
100
AcDbCircle
39
0
10
1.342559
20
11.175
30
0
40
1.60000000000267
210
0
220
0
230
-1
100
AcDbArc
50
140.950287
51
170
0
ARC
5
101
100
AcDbEntity
8
1
62
256
6
ByLayer
370
18
48
1
60
0
100
AcDbCircle
39
0
10
11.2
20
0.700242
30
0
40
1.6
210
0
220
0
230
1
100
AcDbArc
50
180
51
225
0
ELLIPSE
5
102
100
AcDbEntity
8
1
62
256
6
ByLayer
370
18
48
1
60
0
100
AcDbEllipse
10
54
20
-102.996711
30
0
11
17.601211981577
21
-136.94485908359
31
0
210
0
220
0
230
-1
40
0.297654
41
2.09969866607991
42
2.15564147703528
0
ELLIPSE
5
103
100
AcDbEntity
8
1
62
256
6
ByLayer
370
18
48
1
60
0
100
AcDbEllipse
10
54.000003
20
-249.469433
30
0
11
7.81896144423931E-14
21
486.210620880111
31
0
210
0
220
0
230
-1
40
0.091318
41
-1.10457155597946
42
-1.08597866380468
0
ELLIPSE
5
104
100
AcDbEntity
8
1
62
256
6
ByLayer
370
18
48
1
60
0
100
AcDbEllipse
10
32.5
20
-34.542132
30
0
11
5.39497577814054E-15
21
33.5478636316267
31
0
210
0
220
0
230
-1
40
0.8391
41
-1.55713781659904
42
-1.2779520934696
0
ELLIPSE
5
105
100
AcDbEntity
8
1
62
256
6
ByLayer
370
18
48
1
60
0
100
AcDbEllipse
10
7.085376
20
-31.233163
30
0
11
0.0145563214890409
21
-1.12986640315491
31
0
210
0
220
0
230
-1
40
0.884975
41
0
42
6.28318530717959
0
ELLIPSE
5
106
100
AcDbEntity
8
1
62
256
6
ByLayer
370
18
48
1
60
0
100
AcDbEllipse
10
32.499997
20
-47.288797
30
0
11
26.140555034355
21
-19.9777370341191
31
0
210
0
220
0
230
-1
40
0.522822
41
2.74780467925687
42
2.76146330379016
0
ELLIPSE
5
107
100
AcDbEntity
8
1
62
256
6
ByLayer
370
18
48
1
60
0
100
AcDbEllipse
10
54
20
-34.542132
30
0
11
8.50930460222422E-15
21
52.9138595120408
31
0
210
0
220
0
230
-1
40
0.8391
41
-1.56792168018462
42
-1.38673527818128
0
ELLIPSE
5
108
100
AcDbEntity
8
1
62
256
6
ByLayer
370
13
48
1
60
0
100
AcDbEllipse
10
9.230554
20
-39.674356
30
0
11
-0.217111690140137
21
-0.0899306066058331
31
0
210
0
220
0
230
1
40
0.051754
41
-2.21635302763531
42
-0.810603691073723
0
ELLIPSE
5
109
100
AcDbEntity
8
1
62
256
6
ByLayer
370
13
48
1
60
0
100
AcDbEllipse
10
6.303326
20
-34.338022
30
0
11
1.37502967923572
21
0.103070726119482
31
0
210
0
220
0
230
-1
40
0.318906
41
-3.1051370203401
42
-3.09175600054457
0
ELLIPSE
5
10A
100
AcDbEntity
8
1
62
256
6
ByLayer
370
13
48
1
60
0
100
AcDbEllipse
10
9.597417
20
-34.948822
30
0
11
-0.0998828785064965
21
-0.00483844822814671
31
0
210
0
220
0
230
1
40
0.94066
41
-1.6163315498752
42
-1.52380617953082
0
ELLIPSE
5
10B
100
AcDbEntity
8
1
62
256
6
ByLayer
370
18
48
1
60
0
100
AcDbEllipse
10
4.792455
20
-39.078946
30
0
11
-0.71308250201299
21
-0.362647687601748
31
0
210
0
220
0
230
1
40
0.239608
41
2.02875854580626
42
2.26075530052942
0
ELLIPSE
5
10C
100
AcDbEntity
8
1
62
256
6
ByLayer
370
13
48
1
60
0
100
AcDbEllipse
10
4.893537
20
-38.813713
30
0
11
-0.234946964571316
21
-0.00499237806306675
31
0
210
0
220
0
230
1
40
0.013375
41
0.877457472675633
42
2.62117537190258
0
ELLIPSE
5
10D
100
AcDbEntity
8
1
62
256
6
ByLayer
370
13
48
1
60
0
100
AcDbEllipse
10
9.291819
20
-38.835004
30
0
11
-0.785275310238727
21
0.152783137582234
31
0
210
0
220
0
230
1
40
0.103584
41
0.827870062561155
42
0.962408612125042
0
ELLIPSE
5
10E
100
AcDbEntity
8
1
62
256
6
ByLayer
370
13
48
1
60
0
100
AcDbEllipse
10
4.551462
20
-38.743256
30
0
11
0.299955007760689
21
-0.00519550953083362
31
0
210
0
220
0
230
1
40
0.003698
41
0.87720560476939
42
1.71037401282
0
ELLIPSE
5
10F
100
AcDbEntity
8
1
62
256
6
ByLayer
370
13
48
1
60
0
100
AcDbEllipse
10
4.928012
20
-34.460447
30
0
11
-0.0999237585741734
21
0.00390416090988998
31
0
210
0
220
0
230
1
40
0.35382
41
-1.90688819725317
42
-1.55697294852771
0
ELLIPSE
5
110
100
AcDbEntity
8
1
62
256
6
ByLayer
370
13
48
1
60
0
100
AcDbEllipse
10
5.116292
20
-39.821337
30
0
11
0.268398078049581
21
-0.134024145956209
31
0
210
0
220
0
230
1
40
0.124754
41
-2.34557332355449
42
-2.31208130153973
0
ELLIPSE
5
111
100
AcDbEntity
8
1
62
256
6
ByLayer
370
13
48
1
60
0
100
AcDbEllipse
10
9.510806
20
-39.509945
30
0
11
-0.277217185582443
21
-0.11467620510703
31
0
210
0
220
0
230
1
40
0.047951
41
0.925361283148539
42
1.70197425790192
0
ELLIPSE
5
112
100
AcDbEntity
8
1
62
256
6
ByLayer
370
13
48
1
60
0
100
AcDbEllipse
10
8.889542
20
-39.833049
30
0
11
-0.268664007068264
21
-0.133490266708939
31
0
210
0
220
0
230
1
40
0.124876
41
2.11038335671721
42
2.34328082157423
0
ELLIPSE
5
113
100
AcDbEntity
8
1
62
256
6
ByLayer
370
13
48
1
60
0
100
AcDbEllipse
10
9.724586
20
-40.3
30
0
11
-0.299274203712246
21
0.0208554787142699
31
0
210
0
220
0
230
1
40
0.00977
41
-1.71008266168507
42
-1.09562978035015
0
ELLIPSE
5
114
100
AcDbEntity
8
1
62
256
6
ByLayer
370
13
48
1
60
0
100
AcDbEllipse
10
8.906885
20
-39.868222
30
0
11
0.269478863473629
21
0.131837559674629
31
0
210
0
220
0
230
1
40
0.125249
41
-1.63199532793552
42
-0.804689624062674
0
ELLIPSE
5
115
100
AcDbEntity
8
1
62
256
6
ByLayer
370
13
48
1
60
0
100
AcDbEllipse
10
4.506227
20
-39.468217
30
0
11
0.278282173020053
21
-0.112067087850256
31
0
210
0
220
0
230
1
40
0.046712
41
-1.70241888252939
42
-0.925218310353932
0
ELLIPSE
5
116
100
AcDbEntity
8
1
62
256
6
ByLayer
370
13
48
1
60
0
100
AcDbEllipse
10
4.571757
20
-39.234753
30
0
11
0.299614944404295
21
0.0151949034090728
31
0
210
0
220
0
230
1
40
0.013233
41
0.903819571919388
42
1.70979821750722
0
ELLIPSE
5
117
100
AcDbEntity
8
1
62
256
6
ByLayer
370
13
48
1
60
0
100
AcDbEllipse
10
5.574697
20
-36.994626
30
0
11
0.24421374414743
21
-0.05347566894854
31
0
210
0
220
0
230
1
40
0.167877
41
-2.25128406614326
42
-0.626246069697847
0
ELLIPSE
5
118
100
AcDbEntity
8
1
62
256
6
ByLayer
370
13
48
1
60
0
100
AcDbEllipse
10
5.891632
20
-39.889044
30
0
11
-0.138746638708551
21
0.265987537766488
31
0
210
0
220
0
230
1
40
0.561971
41
0.9130942585355
42
1.62125302498984
0
ELLIPSE
5
119
100
AcDbEntity
8
1
62
256
6
ByLayer
370
13
48
1
60
0
100
AcDbEllipse
10
8.907962
20
-39.860074
30
0
11
-0.243610306043093
21
0.0561606516129436
31
0
210
0
220
0
230
1
40
0.039575
41
1.48382354045496
42
1.72059995358715
0
ELLIPSE
5
11A
100
AcDbEntity
8
1
62
256
6
ByLayer
370
13
48
1
60
0
100
AcDbEllipse
10
4.471773
20
-39.551504
30
0
11
0.276127157171988
21
-0.117276566594167
31
0
210
0
220
0
230
1
40
0.049186
41
-1.70151777506383
42
-0.924422877111146
0
ELLIPSE
5
11B
100
AcDbEntity
8
1
62
256
6
ByLayer
370
13
48
1
60
0
100
AcDbEllipse
10
5.08906
20
-39.736952
30
0
11
0.248635435832102
21
-0.0260848624412863
31
0
210
0
220
0
230
1
40
0.202726
41
1.23475707827812
42
2.26578914035564
0
ELLIPSE
5
11C
100
AcDbEntity
8
1
62
256
6
ByLayer
370
18
48
1
60
0
100
AcDbEllipse
10
8.914931
20
-39.826415
30
0
11
-0.247115895763099
21
0.0378646809203704
31
0
210
0
220
0
230
1
40
0.23743
41
-2.07354271183127
42
-1.16924089839943
0
ELLIPSE
5
11D
100
AcDbEntity
8
1
62
256
6
ByLayer
370
13
48
1
60
0
100
AcDbEllipse
10
4.466675
20
-39.563462
30
0
11
0.275808945843847
21
-0.11802298671236
31
0
210
0
220
0
230
1
40
0.049541
41
-1.70138426024319
42
-0.923951733534585
0
ELLIPSE
5
11E
100
AcDbEntity
8
1
62
256
6
ByLayer
370
13
48
1
60
0
100
AcDbEllipse
10
7.41685
20
-31.05256
30
0
11
0.155893322737917
21
3.57054524518629
31
0
210
0
220
0
230
-1
40
0.839418
41
3.13413580295573
42
-3.13413577978915
0
ELLIPSE
5
11F
100
AcDbEntity
8
1
62
256
6
ByLayer
370
13
48
1
60
0
100
AcDbEllipse
10
4.531053
20
-39.405301
30
0
11
0.279820524751675
21
-0.10816872897329
31
0
210
0
220
0
230
1
40
0.044862
41
-1.7030585351015
42
-0.922976457337189
0
ELLIPSE
5
120
100
AcDbEntity
8
1
62
256
6
ByLayer
370
13
48
1
60
0
100
AcDbEllipse
10
7.67751
20
-35.459669
30
0
11
-0.0469055265709097
21
0.397240319677026
31
0
210
0
220
0
230
1
40
0.053157
41
-1.24166013851984
42
-0.346338008279302
0
ELLIPSE
5
121
100
AcDbEntity
8
1
62
256
6
ByLayer
370
13
48
1
60
0
100
AcDbEllipse
10
9.548813
20
-39.599254
30
0
11
-0.274846428561774
21
-0.120247414553652
31
0
210
0
220
0
230
1
40
0.050597
41
0.922002067895293
42
1.70097974226949
0
ELLIPSE
5
122
100
AcDbEntity
8
1
62
256
6
ByLayer
370
13
48
1
60
0
100
AcDbEllipse
10
8.904725
20
-39.68977
30
0
11
-0.246860830859877
21
-0.0394934195426449
31
0
210
0
220
0
230
1
40
0.153624
41
-2.24195121628861
42
-1.24435647276195
0
ELLIPSE
5
123
100
AcDbEntity
8
1
62
256
6
ByLayer
370
13
48
1
60
0
100
AcDbEllipse
10
8.913164
20
-39.761033
30
0
11
-0.249200806528909
21
-0.0199739336471676
31
0
210
0
220
0
230
1
40
0.228669
41
-2.2799377475595
42
-1.22946791584211
0
ELLIPSE
5
124
100
AcDbEntity
8
1
62
256
6
ByLayer
370
13
48
1
60
0
100
AcDbEllipse
10
9.106463
20
-38.813713
30
0
11
-0.234946964571316
21
0.00499237806306691
31
0
210
0
220
0
230
1
40
0.013375
41
0.520417281689782
42
2.26413518091416
0
ELLIPSE
5
125
100
AcDbEntity
8
1
62
256
6
ByLayer
370
13
48
1
60
0
100
AcDbEllipse
10
8.65
20
-39.567592
30
0
11
-0.426912273945929
21
5.22799483198944E-17
31
0
210
0
220
0
230
1
40
0.990268
41
2.07773225858864
42
2.21149041246194
0
ELLIPSE
5
126
100
AcDbEntity
8
1
62
256
6
ByLayer
370
13
48
1
60
0
100
AcDbEllipse
10
9.533325
20
-39.563462
30
0
11
-0.275808945843847
21
-0.11802298671236
31
0
210
0
220
0
230
1
40
0.049541
41
0.923951733533999
42
1.70138426024318
0
ELLIPSE
5
127
100
AcDbEntity
8
1
62
256
6
ByLayer
370
13
48
1
60
0
100
AcDbEllipse
10
4.696249
20
-38.768913
30
0
11
-0.789125496514253
21
-0.131457030055959
31
0
210
0
220
0
230
1
40
0.105545
41
2.19431636330143
42
2.31708489601936
0
ELLIPSE
5
128
100
AcDbEntity
8
1
62
256
6
ByLayer
370
13
48
1
60
0
100
AcDbEllipse
10
4.456382
20
-39.587337
30
0
11
0.275168422103666
21
-0.119508742261722
31
0
210
0
220
0
230
1
40
0.050246
41
-1.70111517605513
42
-0.922741133659576
0
ELLIPSE
5
129
100
AcDbEntity
8
1
62
256
6
ByLayer
370
13
48
1
60
0
100
AcDbEllipse
10
9.60451
20
-34.665254
30
0
11
0.0999049341416868
21
-0.00435937313672841
31
0
210
0
220
0
230
1
40
0.356721
41
1.58636065336279
42
1.90507916135072
0
ELLIPSE
5
12A
100
AcDbEntity
8
1
62
256
6
ByLayer
370
13
48
1
60
0
100
AcDbEllipse
10
8.84185
20
-35.536783
30
0
11
0.00764909645437606
21
-0.399926857467002
31
0
210
0
220
0
230
1
40
0.019365
41
0.808146409726886
42
1.90350487086509
0
ELLIPSE
5
12B
100
AcDbEntity
8
1
62
256
6
ByLayer
370
13
48
1
60
0
100
AcDbEllipse
10
9.448192
20
-38.826479
30
0
11
-0.299901422211565
21
0.00769005562271927
31
0
210
0
220
0
230
1
40
0.009727
41
-1.71008563317816
42
-0.877406756927495
0
ELLIPSE
5
12C
100
AcDbEntity
8
1
62
256
6
ByLayer
370
13
48
1
60
0
100
AcDbEllipse
10
9.156096
20
-39.494598
30
0
11
-0.217111690140137
21
-0.0899306066058331
31
0
210
0
220
0
230
1
40
0.018527
41
-2.22248169568539
42
-0.927573132379501
0
ELLIPSE
5
12D
100
AcDbEntity
8
1
62
256
6
ByLayer
370
18
48
1
60
0
100
AcDbEllipse
10
9.103103
20
-38.971835
30
0
11
-0.234946964571316
21
0.00499237806306691
31
0
210
0
220
0
230
1
40
0.033136
41
0.54781710434288
42
2.25822967377363
0
ELLIPSE
5
12E
100
AcDbEntity
8
1
62
256
6
ByLayer
370
13
48
1
60
0
100
AcDbEllipse
10
7
20
-37.478252
30
0
11
-1.6
21
1.9593701661158E-16
31
0
210
0
220
0
230
1
40
0.422618
41
-2.44724030693222
42
-0.694352346657573
0
ELLIPSE
5
12F
100
AcDbEntity
8
1
62
256
6
ByLayer
370
18
48
1
60
0
100
AcDbEllipse
10
9.365101
20
-39.999181
30
0
11
-0.217111690140137
21
-0.0899306066058331
31
0
210
0
220
0
230
1
40
0.017962
41
0.883326076992507
42
2.19888580306009
0
ELLIPSE
5
130
100
AcDbEntity
8
1
62
256
6
ByLayer
370
13
48
1
60
0
100
AcDbEllipse
10
5.381256
20
-39.10236
30
0
11
0.165211810028478
21
-0.250409779815235
31
0
210
0
220
0
230
1
40
0.454891
41
-1.83148491600695
42
-1.02561154099099
0
ELLIPSE
5
131
100
AcDbEntity
8
1
62
256
6
ByLayer
370
13
48
1
60
0
100
AcDbEllipse
10
4.916234
20
-34.741833
30
0
11
-0.0986986229591559
21
0.0160804796559801
31
0
210
0
220
0
230
1
40
0.940003
41
-1.59332440207817
42
-1.41887042542436
0
ELLIPSE
5
132
100
AcDbEntity
8
1
62
256
6
ByLayer
370
13
48
1
60
0
100
AcDbEllipse
10
5.084048
20
-39.809457
30
0
11
0.249940756311357
21
-0.00544227291734003
31
0
210
0
220
0
230
1
40
0.277734
41
1.2143032269736
42
2.28700392656674
0
ELLIPSE
5
133
100
AcDbEntity
8
1
62
256
6
ByLayer
370
18
48
1
60
0
100
AcDbEllipse
10
9.436969
20
-39.09252
30
0
11
-0.299476982669317
21
0.0177069718269793
31
0
210
0
220
0
230
1
40
0.014405
41
-1.70968232676434
42
-0.889793555208298
0
ELLIPSE
5
134
100
AcDbEntity
8
1
62
256
6
ByLayer
370
13
48
1
60
0
100
AcDbEllipse
10
6.702769
20
-34.517327
30
0
11
0.463579808573087
21
-0.115916556819159
31
0
210
0
220
0
230
-1
40
0.431952
41
1.12896220744319
42
1.14685468326453
0
ELLIPSE
5
135
100
AcDbEntity
8
1
62
256
6
ByLayer
370
13
48
1
60
0
100
AcDbEllipse
10
5.084032
20
-39.81037
30
0
11
0.249976100310119
21
-0.003456772156959
31
0
210
0
220
0
230
1
40
0.276293
41
1.21207107964993
42
2.27599777500417
0
ELLIPSE
5
136
100
AcDbEntity
8
1
62
256
6
ByLayer
370
13
48
1
60
0
100
AcDbEllipse
10
8.915968
20
-39.81037
30
0
11
-0.249976100310119
21
-0.00345677215695868
31
0
210
0
220
0
230
1
40
0.276293
41
-2.2759977750043
42
-1.21207107964991
0
ELLIPSE
5
137
100
AcDbEntity
8
1
62
256
6
ByLayer
370
13
48
1
60
0
100
AcDbEllipse
10
4.778747
20
-39.651901
30
0
11
-0.217111690140136
21
0.0899306066058358
31
0
210
0
220
0
230
1
40
0.047602
41
-2.30904011150433
42
-0.925339078919182
0
ELLIPSE
5
138
100
AcDbEntity
8
1
62
256
6
ByLayer
370
13
48
1
60
0
100
AcDbEllipse
10
9.7
20
-40.367261
30
0
11
-0.256080367778455
21
0.15627810223589
31
0
210
0
220
0
230
1
40
0.119112
41
1.17688567142443
42
1.64335901494941
0
ELLIPSE
5
139
100
AcDbEntity
8
1
62
256
6
ByLayer
370
13
48
1
60
0
100
AcDbEllipse
10
4.555027
20
-39.341992
30
0
11
0.281273604533563
21
-0.104331967261701
31
0
210
0
220
0
230
1
40
0.043042
41
-1.70365962724734
42
-0.91831625607172
0
ELLIPSE
5
13A
100
AcDbEntity
8
1
62
256
6
ByLayer
370
13
48
1
60
0
100
AcDbEllipse
10
8.229228
20
-35.867617
30
0
11
-0.368974071337974
21
0.154460786869288
31
0
210
0
220
0
230
1
40
0.308243
41
-2.20548879774866
42
-1.45542865462767
0
ELLIPSE
5
13B
100
AcDbEntity
8
1
62
256
6
ByLayer
370
13
48
1
60
0
100
AcDbEllipse
10
4.889931
20
-35.024396
30
0
11
0.0508504071272468
21
0.398035563697214
31
0
210
0
220
0
230
-1
40
0.031059
41
-1.24004356735678
42
-0.346207218503533
0
ELLIPSE
5
13C
100
AcDbEntity
8
1
62
256
6
ByLayer
370
13
48
1
60
0
100
AcDbEllipse
10
9.353318
20
-38.001821
30
0
11
-0.295796483890588
21
-0.0500443814824904
31
0
210
0
220
0
230
1
40
0.017375
41
0.869658159301787
42
1.70934426454249
0
ELLIPSE
5
13D
100
AcDbEntity
8
1
62
256
6
ByLayer
370
13
48
1
60
0
100
AcDbEllipse
10
9.428243
20
-39.234753
30
0
11
-0.299614944404295
21
0.0151949034090729
31
0
210
0
220
0
230
1
40
0.013233
41
-1.70979821750698
42
-0.903819571922036
0
ELLIPSE
5
13E
100
AcDbEntity
8
1
62
256
6
ByLayer
370
13
48
1
60
0
100
AcDbEllipse
10
9.165408
20
-39.51708
30
0
11
-0.217111690140137
21
-0.0899306066058331
31
0
210
0
220
0
230
1
40
0.022682
41
-2.22085369966989
42
-0.920094327547734
0
ELLIPSE
5
13F
100
AcDbEntity
8
1
62
256
6
ByLayer
370
13
48
1
60
0
100
AcDbEllipse
10
9.146783
20
-39.472115
30
0
11
-0.217111690140137
21
-0.0899306066058331
31
0
210
0
220
0
230
1
40
0.014373
41
-2.22435339271805
42
-0.933058014591657
0
ELLIPSE
5
140
100
AcDbEntity
8
1
62
256
6
ByLayer
370
13
48
1
60
0
100
AcDbEllipse
10
4.769446
20
-39.674356
30
0
11
-0.217111690140136
21
0.0899306066058358
31
0
210
0
220
0
230
1
40
0.051754
41
-2.33098896251619
42
-0.925239625954484
0
ELLIPSE
5
141
100
AcDbEntity
8
1
62
256
6
ByLayer
370
13
48
1
60
0
100
AcDbEllipse
10
9.444973
20
-39.341992
30
0
11
-0.281273604533563
21
-0.104331967261701
31
0
210
0
220
0
230
1
40
0.043042
41
0.918316256071854
42
1.70365962724727
0
ELLIPSE
5
142
100
AcDbEntity
8
1
62
256
6
ByLayer
370
18
48
1
60
0
100
AcDbEllipse
10
9.207545
20
-39.078946
30
0
11
-0.71308250201299
21
0.362647687601748
31
0
210
0
220
0
230
1
40
0.239608
41
0.880837353060367
42
1.11283410778353
0
ELLIPSE
5
143
100
AcDbEntity
8
1
62
256
6
ByLayer
370
13
48
1
60
0
100
AcDbEllipse
10
5.314302
20
-38.807999
30
0
11
0.249992909275942
21
-0.00188289982491151
31
0
210
0
220
0
230
1
40
0.036814
41
-2.62083787880406
42
-2.18590610733027
0
ELLIPSE
5
144
100
AcDbEntity
8
1
62
256
6
ByLayer
370
13
48
1
60
0
100
AcDbEllipse
10
9.099746
20
-39.129853
30
0
11
-0.234946964571316
21
0.00499237806306691
31
0
210
0
220
0
230
1
40
0.052884
41
0.575117023846597
42
2.24393076306579
0
ELLIPSE
5
145
100
AcDbEntity
8
1
62
256
6
ByLayer
370
13
48
1
60
0
100
AcDbEllipse
10
5.116639
20
-39.820644
30
0
11
0.268382434999228
21
-0.134055468310267
31
0
210
0
220
0
230
1
40
0.124747
41
-2.34571159163284
42
-2.32278739409018
0
ELLIPSE
5
146
100
AcDbEntity
8
1
62
256
6
ByLayer
370
18
48
1
60
0
100
AcDbEllipse
10
8.911632
20
-39.843359
30
0
11
-0.244733389258445
21
0.0510447664513676
31
0
210
0
220
0
230
1
40
0.099036
41
-1.88918250016537
42
-1.31086871070252
0
ELLIPSE
5
147
100
AcDbEntity
8
1
62
256
6
ByLayer
370
13
48
1
60
0
100
AcDbEllipse
10
4.818907
20
-39.127427
30
0
11
-0.690832506215441
21
-0.403423410768503
31
0
210
0
220
0
230
1
40
0.262689
41
1.98020200760595
42
2.24492723572737
0
ELLIPSE
5
148
100
AcDbEntity
8
1
62
256
6
ByLayer
370
13
48
1
60
0
100
AcDbEllipse
10
5.578334
20
-36.97796
30
0
11
-0.244294082519704
21
0.05310745000333
31
0
210
0
220
0
230
1
40
0.171592
41
0.890947837766308
42
2.51218450288071
0
ELLIPSE
5
149
100
AcDbEntity
8
1
62
256
6
ByLayer
370
13
48
1
60
0
100
AcDbEllipse
10
6.919975
20
-34.405793
30
0
11
0.0160801524584188
21
0.369650414171165
31
0
210
0
220
0
230
1
40
0.365917
41
1.89734175800277
42
2.76877998113441
0
ELLIPSE
5
14A
100
AcDbEntity
8
1
62
256
6
ByLayer
370
13
48
1
60
0
100
AcDbEllipse
10
8.857266
20
-39.89543
30
0
11
-0.144563165812385
21
0.262871624734015
31
0
210
0
220
0
230
1
40
0.067569
41
1.13015027082398
42
1.69304949250397
0
ELLIPSE
5
14B
100
AcDbEntity
8
1
62
256
6
ByLayer
370
13
48
1
60
0
100
AcDbEllipse
10
5.104007
20
-39.643883
30
0
11
0.244058636166494
21
-0.0541791667760876
31
0
210
0
220
0
230
1
40
0.107584
41
1.25213540408599
42
2.22389485730144
0
ELLIPSE
5
14C
100
AcDbEntity
8
1
62
256
6
ByLayer
370
13
48
1
60
0
100
AcDbEllipse
10
4.393047
20
-39.741147
30
0
11
0.280204446888602
21
-0.10717027546784
31
0
210
0
220
0
230
1
40
0.044389
41
-1.70321765827842
42
-0.92545113584313
0
ELLIPSE
5
14D
100
AcDbEntity
8
1
62
256
6
ByLayer
370
13
48
1
60
0
100
AcDbEllipse
10
8.915952
20
-39.809457
30
0
11
-0.249940756311357
21
-0.00544227291733972
31
0
210
0
220
0
230
1
40
0.277734
41
-2.28700392656675
42
-1.21430322697363
0
ELLIPSE
5
14E
100
AcDbEntity
8
1
62
256
6
ByLayer
370
13
48
1
60
0
100
AcDbEllipse
10
5.463159
20
-37.233577
30
0
11
0.195518450206658
21
-0.155796455764522
31
0
210
0
220
0
230
1
40
0.413181
41
-2.14147032711356
42
-0.530963031290696
0
ELLIPSE
5
14F
100
AcDbEntity
8
1
62
256
6
ByLayer
370
18
48
1
60
0
100
AcDbEllipse
10
5.088368
20
-39.843359
30
0
11
0.244733389258445
21
0.0510447664513677
31
0
210
0
220
0
230
1
40
0.099036
41
1.31086871070251
42
1.88918250016569
0
ELLIPSE
5
150
100
AcDbEntity
8
1
62
256
6
ByLayer
370
13
48
1
60
0
100
AcDbEllipse
10
9.106537
20
-38.747659
30
0
11
-0.234957465223427
21
-0.00447096586681503
31
0
210
0
220
0
230
1
40
0.005117
41
0.513598077729702
42
2.26437952397996
0
ELLIPSE
5
151
100
AcDbEntity
8
1
62
256
6
ByLayer
370
13
48
1
60
0
100
AcDbEllipse
10
9.182592
20
-37.388696
30
0
11
-0.284562691978373
21
-0.0949951279488674
31
0
210
0
220
0
230
1
40
0.112135
41
-1.6490650457047
42
-0.877028623369773
0
ELLIPSE
5
152
100
AcDbEntity
8
1
62
256
6
ByLayer
370
13
48
1
60
0
100
AcDbEllipse
10
9.538455
20
-39.575406
30
0
11
-0.275489304115654
21
-0.11876718114813
31
0
210
0
220
0
230
1
40
0.049894
41
0.923391079169567
42
1.70125003371284
0
ELLIPSE
5
153
100
AcDbEntity
8
1
62
256
6
ByLayer
370
13
48
1
60
0
100
AcDbEllipse
10
4.708181
20
-38.835004
30
0
11
-0.785275310238727
21
-0.152783137582233
31
0
210
0
220
0
230
1
40
0.103584
41
2.17918404146486
42
2.31372259102866
0
ELLIPSE
5
154
100
AcDbEntity
8
1
62
256
6
ByLayer
370
18
48
1
60
0
100
AcDbEllipse
10
5.311008
20
-38.971408
30
0
11
0.249910180778553
21
-0.00670086137975942
31
0
210
0
220
0
230
1
40
0.04561
41
-2.59347530934233
42
-2.12714203363672
0
ELLIPSE
5
155
100
AcDbEntity
8
1
62
256
6
ByLayer
370
18
48
1
60
0
100
AcDbEllipse
10
3.755414
20
-35.370687
30
0
11
0.0274276604517587
21
1.6853354453984
31
0
210
0
220
0
230
-1
40
0.593241
41
1.80651646951068
42
1.823591854571
0
ELLIPSE
5
156
100
AcDbEntity
8
1
62
256
6
ByLayer
370
13
48
1
60
0
100
AcDbEllipse
10
9.528227
20
-39.551504
30
0
11
-0.276127157171988
21
-0.117276566594167
31
0
210
0
220
0
230
1
40
0.049186
41
0.924422877111146
42
1.70151777506381
0
ELLIPSE
5
157
100
AcDbEntity
8
1
62
256
6
ByLayer
370
13
48
1
60
0
100
AcDbEllipse
10
8.68421
20
-38.756915
30
0
11
0.249676923578791
21
0.0127056614243677
31
0
210
0
220
0
230
1
40
0.051215
41
-0.941351727000559
42
-0.514332093673396
0
ELLIPSE
5
158
100
AcDbEntity
8
1
62
256
6
ByLayer
370
13
48
1
60
0
100
AcDbEllipse
10
9.468947
20
-39.405301
30
0
11
-0.279820524751675
21
-0.10816872897329
31
0
210
0
220
0
230
1
40
0.044862
41
0.922976457337324
42
1.70305853510158
0
ELLIPSE
5
159
100
AcDbEntity
8
1
62
256
6
ByLayer
370
13
48
1
60
0
100
AcDbEllipse
10
4.825281
20
-39.539559
30
0
11
-0.217111690140136
21
0.0899306066058358
31
0
210
0
220
0
230
1
40
0.026836
41
-2.23097989673498
42
-0.922122121781026
0
ELLIPSE
5
15A
100
AcDbEntity
8
1
62
256
6
ByLayer
370
13
48
1
60
0
100
AcDbEllipse
10
9.16455
20
-36.274892
30
0
11
0.666569088590467
21
-0.431694099077384
31
0
210
0
220
0
230
-1
40
0.359878
41
3.04760145096367
42
-2.27280579478636
0
ELLIPSE
5
15B
100
AcDbEntity
8
1
62
256
6
ByLayer
370
13
48
1
60
0
100
AcDbEllipse
10
5.09887
20
-39.856491
30
0
11
0.26920454261777
21
-0.132396805980949
31
0
210
0
220
0
230
1
40
0.125123
41
-2.33894522468225
42
-1.66191072600526
0
ELLIPSE
5
15C
100
AcDbEntity
8
1
62
256
6
ByLayer
370
13
48
1
60
0
100
AcDbEllipse
10
4.451187
20
-39.599254
30
0
11
0.274846428561774
21
-0.120247414553652
31
0
210
0
220
0
230
1
40
0.050597
41
-1.70097974226949
42
-0.922002067895296
0
ELLIPSE
5
15D
100
AcDbEntity
8
1
62
256
6
ByLayer
370
13
48
1
60
0
100
AcDbEllipse
10
4.916538
20
-34.73943
30
0
11
0.0992317312464088
21
-0.0123718840052963
31
0
210
0
220
0
230
1
40
0.94059
41
1.51286369180339
42
1.68753276476832
0
ELLIPSE
5
15E
100
AcDbEntity
8
1
62
256
6
ByLayer
370
13
48
1
60
0
100
AcDbEllipse
10
7.619581
20
-34.436338
30
0
11
0.0161981937804867
21
0.369645260375742
31
0
210
0
220
0
230
1
40
0.365917
41
-2.76877998113441
42
-1.89734175800275
0
ELLIPSE
5
15F
100
AcDbEntity
8
1
62
256
6
ByLayer
370
13
48
1
60
0
100
AcDbEllipse
10
12.831399
20
-34.756269
30
0
11
3.23398389968362
21
0.098417068797999
31
0
210
0
220
0
230
-1
40
0.031503
41
3.13766155726234
42
3.14102614734291
0
ELLIPSE
5
160
100
AcDbEntity
8
1
62
256
6
ByLayer
370
13
48
1
60
0
100
AcDbEllipse
10
8.112601
20
-34.453526
30
0
11
1.45995251196413
21
-0.18596857052112
31
0
210
0
220
0
230
-1
40
0.235034
41
-0.0419176555423102
42
-0.0270134491396601
0
ELLIPSE
5
161
100
AcDbEntity
8
1
62
256
6
ByLayer
370
13
48
1
60
0
100
AcDbEllipse
10
9.211949
20
-39.629441
30
0
11
-0.217111690140137
21
-0.0899306066058331
31
0
210
0
220
0
230
1
40
0.04345
41
-2.21640203835575
42
-0.852337386600504
0
ELLIPSE
5
162
100
AcDbEntity
8
1
62
256
6
ByLayer
370
13
48
1
60
0
100
AcDbEllipse
10
4.551808
20
-38.826479
30
0
11
0.299901422211565
21
0.00769005562271935
31
0
210
0
220
0
230
1
40
0.009727
41
0.877406756927495
42
1.71008563317785
0
ELLIPSE
5
163
100
AcDbEntity
8
1
62
256
6
ByLayer
370
13
48
1
60
0
100
AcDbEllipse
10
7.366357
20
-34.349559
30
0
11
0.250361257440754
21
0.272432084697608
31
0
210
0
220
0
230
1
40
0.87955
41
-2.34013872624606
42
-1.33124884256839
0
ELLIPSE
5
164
100
AcDbEntity
8
1
62
256
6
ByLayer
370
13
48
1
60
0
100
AcDbEllipse
10
8.884595
20
-39.599275
30
0
11
0.240081036634328
21
0.0697215594245152
31
0
210
0
220
0
230
1
40
0.0638
41
0.93007134002347
42
1.88398032495325
0
ELLIPSE
5
165
100
AcDbEntity
8
1
62
256
6
ByLayer
370
13
48
1
60
0
100
AcDbEllipse
10
8.271008
20
-36.51507
30
0
11
1.60814287233905E-16
21
0.999999999999951
31
0
210
0
220
0
230
-1
40
0.834228
41
0.796989150131045
42
1.5707963267949
0
ELLIPSE
5
166
100
AcDbEntity
8
1
62
256
6
ByLayer
370
13
48
1
60
0
100
AcDbEllipse
10
4.806663
20
-39.584508
30
0
11
-0.217111690140136
21
0.0899306066058358
31
0
210
0
220
0
230
1
40
0.035144
41
-2.25600614970312
42
-0.924150504892878
0
ELLIPSE
5
167
100
AcDbEntity
8
1
62
256
6
ByLayer
370
13
48
1
60
0
100
AcDbEllipse
10
14.861414
20
-36.742363
30
0
11
-5.75192269792276
21
-0.344639185796606
31
0
210
0
220
0
230
-1
40
0.642112
41
0.0235325486453661
42
0.0384545713178951
0
ELLIPSE
5
168
100
AcDbEntity
8
1
62
256
6
ByLayer
370
13
48
1
60
0
100
AcDbEllipse
10
8.536841
20
-37.233577
30
0
11
0.195518450206658
21
0.155796455764522
31
0
210
0
220
0
230
1
40
0.413181
41
-2.6106296222991
42
-1.00012232647623
0
ELLIPSE
5
169
100
AcDbEntity
8
1
62
256
6
ByLayer
370
13
48
1
60
0
100
AcDbEllipse
10
4.754784
20
-39.709753
30
0
11
-0.217111690140136
21
0.0899306066058358
31
0
210
0
220
0
230
1
40
0.058299
41
-2.34955841948565
42
-0.924579307521797
0
ELLIPSE
5
16A
100
AcDbEntity
8
1
62
256
6
ByLayer
370
13
48
1
60
0
100
AcDbEllipse
10
4.821565
20
-39.131957
30
0
11
-0.689259559209281
21
-0.406104986473483
31
0
210
0
220
0
230
1
40
0.263572
41
2.03984353263863
42
2.24378586749482
0
ELLIPSE
5
16B
100
AcDbEntity
8
1
62
256
6
ByLayer
370
13
48
1
60
0
100
AcDbEllipse
10
9.460863
20
-39.384243
30
0
11
-0.280315057589663
21
-0.106880627283451
31
0
210
0
220
0
230
1
40
0.044251
41
0.921690500707721
42
1.70326346286871
0
ELLIPSE
5
16C
100
AcDbEntity
8
1
62
256
6
ByLayer
370
13
48
1
60
0
100
AcDbEllipse
10
9.261301
20
-39.748586
30
0
11
-0.217111690140137
21
-0.0899306066058331
31
0
210
0
220
0
230
1
40
0.065482
41
-2.21844607194266
42
-0.798741420853749
0
ELLIPSE
5
16D
100
AcDbEntity
8
1
62
256
6
ByLayer
370
13
48
1
60
0
100
AcDbEllipse
10
5.142734
20
-39.89543
30
0
11
0.144563165812386
21
0.262871624734015
31
0
210
0
220
0
230
1
40
0.067569
41
-1.69304949250397
42
-1.13015027082416
0
ELLIPSE
5
16E
100
AcDbEntity
8
1
62
256
6
ByLayer
370
13
48
1
60
0
100
AcDbEllipse
10
4.275414
20
-40.3
30
0
11
0.299274203712246
21
0.0208554787142697
31
0
210
0
220
0
230
1
40
0.00977
41
1.09562978034946
42
1.71008266168506
0
ELLIPSE
5
16F
100
AcDbEntity
8
1
62
256
6
ByLayer
370
13
48
1
60
0
100
AcDbEllipse
10
5.091864
20
-39.713199
30
0
11
0.247864630999113
21
-0.0326055930734815
31
0
210
0
220
0
230
1
40
0.177743
41
1.23974820972083
42
2.25313765155572
0
ELLIPSE
5
170
100
AcDbEntity
8
1
62
256
6
ByLayer
370
13
48
1
60
0
100
AcDbEllipse
10
9.431003
20
-39.288275
30
0
11
-0.296463349632321
21
-0.0459291010665786
31
0
210
0
220
0
230
1
40
0.015436
41
0.913303379113873
42
1.70957224955135
0
ELLIPSE
5
171
100
AcDbEntity
8
1
62
256
6
ByLayer
370
13
48
1
60
0
100
AcDbEllipse
10
6.303319
20
-34.373428
30
0
11
1.34115676873892
21
0.0654931450262315
31
0
210
0
220
0
230
-1
40
0.257651
41
-3.11110667082091
42
-3.09772561635611
0
ELLIPSE
5
172
100
AcDbEntity
8
1
62
256
6
ByLayer
370
13
48
1
60
0
100
AcDbEllipse
10
7.660238
20
-34.444719
30
0
11
2.72680423543265
21
0.205124817343807
31
0
210
0
220
0
230
-1
40
0.046428
41
-3.11926627231316
42
-3.10222282166469
0
ELLIPSE
5
173
100
AcDbEntity
8
1
62
256
6
ByLayer
370
13
48
1
60
0
100
AcDbEllipse
10
4.788051
20
-39.629441
30
0
11
-0.217111690140136
21
0.0899306066058358
31
0
210
0
220
0
230
1
40
0.04345
41
-2.28925526698945
42
-0.925190615234053
0
ELLIPSE
5
174
100
AcDbEntity
8
1
62
256
6
ByLayer
370
13
48
1
60
0
100
AcDbEllipse
10
9.718773
20
-40.137635
30
0
11
-0.297544068483327
21
-0.0383083190754819
31
0
210
0
220
0
230
1
40
0.011848
41
1.01523157338217
42
1.70992229257226
0
ELLIPSE
5
175
100
AcDbEntity
8
1
62
256
6
ByLayer
370
13
48
1
60
0
100
AcDbEllipse
10
4.522873
20
-39.426317
30
0
11
0.279316470433701
21
-0.109463735293746
31
0
210
0
220
0
230
1
40
0.045477
41
-1.7028493021993
42
-0.923993572058973
0
ELLIPSE
5
176
100
AcDbEntity
8
1
62
256
6
ByLayer
370
13
48
1
60
0
100
AcDbEllipse
10
4.636868
20
-38.059831
30
0
11
0.295796483890588
21
-0.0500443814824909
31
0
210
0
220
0
230
1
40
0.017375
41
-1.70934426454249
42
-0.869658159300102
0
ELLIPSE
5
177
100
AcDbEntity
8
1
62
256
6
ByLayer
370
18
48
1
60
0
100
AcDbEllipse
10
5.085069
20
-39.826415
30
0
11
0.247115895763099
21
0.0378646809203703
31
0
210
0
220
0
230
1
40
0.23743
41
1.16924089839943
42
2.07354271183126
0
ELLIPSE
5
178
100
AcDbEntity
8
1
62
256
6
ByLayer
370
13
48
1
60
0
100
AcDbEllipse
10
4.489194
20
-39.509945
30
0
11
0.277217185582443
21
-0.11467620510703
31
0
210
0
220
0
230
1
40
0.047951
41
-1.70197425790202
42
-0.925361283148785
0
ELLIPSE
5
179
100
AcDbEntity
8
1
62
256
6
ByLayer
370
13
48
1
60
0
100
AcDbEllipse
10
9.493773
20
-39.468217
30
0
11
-0.278282173020054
21
-0.112067087850256
31
0
210
0
220
0
230
1
40
0.046712
41
0.925218310353812
42
1.70241888252945
0
ELLIPSE
5
17A
100
AcDbEntity
8
1
62
256
6
ByLayer
370
13
48
1
60
0
100
AcDbEllipse
10
4.738699
20
-39.748586
30
0
11
-0.217111690140136
21
0.0899306066058358
31
0
210
0
220
0
230
1
40
0.065482
41
-2.34285123273604
42
-0.923146581647132
0
ELLIPSE
5
17B
100
AcDbEntity
8
1
62
256
6
ByLayer
370
18
48
1
60
0
100
AcDbEllipse
10
4.557777
20
-38.992745
30
0
11
0.299679341291701
21
0.013866953629843
31
0
210
0
220
0
230
1
40
0.012613
41
0.882791170741605
42
1.709855487774
0
ELLIPSE
5
17C
100
AcDbEntity
8
1
62
256
6
ByLayer
370
13
48
1
60
0
100
AcDbEllipse
10
8.908136
20
-39.713199
30
0
11
-0.247864630999113
21
-0.0326055930734811
31
0
210
0
220
0
230
1
40
0.177743
41
-2.25313765155576
42
-1.23974820972079
0
ELLIPSE
5
17D
100
AcDbEntity
8
1
62
256
6
ByLayer
370
13
48
1
60
0
100
AcDbEllipse
10
4.917295
20
-34.736508
30
0
11
0.0931671402486977
21
-0.0363302075121998
31
0
210
0
220
0
230
1
40
0.933385
41
1.73856502012535
42
1.91986214317314
0
ELLIPSE
5
17E
100
AcDbEntity
8
1
62
256
6
ByLayer
370
13
48
1
60
0
100
AcDbEllipse
10
8.915891
20
-39.807457
30
0
11
-0.249812382109337
21
-0.00968368446710909
31
0
210
0
220
0
230
1
40
0.280676
41
-2.31094541142495
42
-1.21901087405105
0
ELLIPSE
5
17F
100
AcDbEntity
8
1
62
256
6
ByLayer
370
13
48
1
60
0
100
AcDbEllipse
10
8.90113
20
-39.856491
30
0
11
-0.269204542617771
21
-0.132396805980948
31
0
210
0
220
0
230
1
40
0.125123
41
1.66191072600525
42
2.33894522468225
0
ELLIPSE
5
180
100
AcDbEntity
8
1
62
256
6
ByLayer
370
13
48
1
60
0
100
AcDbEllipse
10
9.597169
20
-34.943694
30
0
11
0.0998828785064967
21
0.00483844822814399
31
0
210
0
220
0
230
1
40
0.94066
41
1.52526110371458
42
1.61778647405902
0
ELLIPSE
5
181
100
AcDbEntity
8
1
62
256
6
ByLayer
370
13
48
1
60
0
100
AcDbEllipse
10
8.108368
20
-39.889044
30
0
11
0.138746638708552
21
0.265987537766488
31
0
210
0
220
0
230
1
40
0.561971
41
-1.62125302498982
42
-0.913094258535502
0
ELLIPSE
5
182
100
AcDbEntity
8
1
62
256
6
ByLayer
370
13
48
1
60
0
100
AcDbEllipse
10
8.418788
20
-36.964702
30
0
11
-0.244320046526077
21
-0.0529878747025716
31
0
210
0
220
0
230
1
40
0.175101
41
0.631471524212708
42
2.25001281646627
0
ELLIPSE
5
183
100
AcDbEntity
8
1
62
256
6
ByLayer
370
13
48
1
60
0
100
AcDbEllipse
10
8.877861
20
-39.577444
30
0
11
0.237629739324786
21
0.0776666401258246
31
0
210
0
220
0
230
1
40
0.042495
41
0.934139371618322
42
1.88221456752905
0
ELLIPSE
5
184
100
AcDbEntity
8
1
62
256
6
ByLayer
370
13
48
1
60
0
100
AcDbEllipse
10
5.798229
20
-35.844577
30
0
11
0.370607906065686
21
0.150498438402556
31
0
210
0
220
0
230
1
40
0.301061
41
1.43622951063433
42
2.20875321551797
0
ELLIPSE
5
185
100
AcDbEntity
8
1
62
256
6
ByLayer
370
13
48
1
60
0
100
AcDbEllipse
10
8.692623
20
-39.140912
30
0
11
-0.24998954143497
21
-0.00228673853630548
31
0
210
0
220
0
230
1
40
0.004846
41
-2.56664571164142
42
-2.0594755730796
0
ELLIPSE
5
186
100
AcDbEntity
8
1
62
256
6
ByLayer
370
13
48
1
60
0
100
AcDbEllipse
10
8.225016
20
-36.221869
30
0
11
0.238807536838463
21
0.0739659404668525
31
0
210
0
220
0
230
1
40
0.240945
41
-2.40854985893657
42
-0.909665121221308
0
ELLIPSE
5
187
100
AcDbEntity
8
1
62
256
6
ByLayer
370
13
48
1
60
0
100
AcDbEllipse
10
-0.861414
20
-36.742363
30
0
11
5.75192269792276
21
-0.344639185796606
31
0
210
0
220
0
230
-1
40
0.642112
41
-0.0384545713178913
42
-0.023532548645368
0
ELLIPSE
5
188
100
AcDbEntity
8
1
62
256
6
ByLayer
370
13
48
1
60
0
100
AcDbEllipse
10
9.178435
20
-39.131957
30
0
11
-0.689259559209281
21
0.406104986473483
31
0
210
0
220
0
230
1
40
0.263572
41
0.897806786094933
42
1.10174912095116
0
ELLIPSE
5
189
100
AcDbEntity
8
1
62
256
6
ByLayer
370
13
48
1
60
0
100
AcDbEllipse
10
9.606953
20
-39.741147
30
0
11
-0.280204446888602
21
-0.10717027546784
31
0
210
0
220
0
230
1
40
0.044389
41
0.925451135843126
42
1.70321765827835
0
ELLIPSE
5
18A
100
AcDbEntity
8
1
62
256
6
ByLayer
370
13
48
1
60
0
100
AcDbEllipse
10
5.086836
20
-39.761033
30
0
11
0.249200806528909
21
-0.0199739336471676
31
0
210
0
220
0
230
1
40
0.228669
41
1.2294679158421
42
2.2799377475595
0
ELLIPSE
5
18B
100
AcDbEntity
8
1
62
256
6
ByLayer
370
13
48
1
60
0
100
AcDbEllipse
10
8.900684
20
-39.666666
30
0
11
-0.245599233822831
21
-0.0467013527174346
31
0
210
0
220
0
230
1
40
0.130272
41
-2.23220863229286
42
-1.24850707125171
0
ELLIPSE
5
18C
100
AcDbEntity
8
1
62
256
6
ByLayer
370
13
48
1
60
0
100
AcDbEllipse
10
5.122139
20
-39.577444
30
0
11
0.237629739324786
21
-0.0776666401258246
31
0
210
0
220
0
230
1
40
0.042495
41
1.25937808606091
42
2.2074532819723
0
ELLIPSE
5
18D
100
AcDbEntity
8
1
62
256
6
ByLayer
370
13
48
1
60
0
100
AcDbEllipse
10
14.861414
20
-36.742363
30
0
11
5.94421088847517
21
0.35616057439871
31
0
210
0
220
0
230
-1
40
0.671719
41
-3.11806010231266
42
-3.10313807910276
0
ELLIPSE
5
18E
100
AcDbEntity
8
1
62
256
6
ByLayer
370
13
48
1
60
0
100
AcDbEllipse
10
6.773116
20
-35.419297
30
0
11
0.0820937866313483
21
0.391485134068366
31
0
210
0
220
0
230
1
40
0.058412
41
0.346444142675081
42
1.2425222463656
0
ELLIPSE
5
18F
100
AcDbEntity
8
1
62
256
6
ByLayer
370
18
48
1
60
0
100
AcDbEllipse
10
4.761619
20
-35.497648
30
0
11
0.0294216597650505
21
0.399738852175179
31
0
210
0
220
0
230
-1
40
0.018225
41
-1.72918388826648
42
-1.23884314296027
0
ELLIPSE
5
190
100
AcDbEntity
8
1
62
256
6
ByLayer
370
13
48
1
60
0
100
AcDbEllipse
10
7.627489
20
-34.436649
30
0
11
0.0128633555315018
21
0.36977632980556
31
0
210
0
220
0
230
1
40
0.345678
41
-2.77198969431278
42
-1.90266038202983
0
ELLIPSE
5
191
100
AcDbEntity
8
1
62
256
6
ByLayer
370
13
48
1
60
0
100
AcDbEllipse
10
4.47967
20
-34.327146
30
0
11
5.10841345024807
21
-0.524348970293099
31
0
210
0
220
0
230
-1
40
0.025361
41
-0.033722444905165
42
-0.0107688229515494
0
ELLIPSE
5
192
100
AcDbEntity
8
1
62
256
6
ByLayer
370
13
48
1
60
0
100
AcDbEllipse
10
5.807654
20
-36.105219
30
0
11
-0.246045908650818
21
0.0442878181466793
31
0
210
0
220
0
230
1
40
0.147032
41
0.885863427562941
42
2.15200844327443
0
ELLIPSE
5
193
100
AcDbEntity
8
1
62
256
6
ByLayer
370
13
48
1
60
0
100
AcDbEllipse
10
7.40428
20
-31.340467
30
0
11
0.156928203707118
21
3.76062613363559
31
0
210
0
220
0
230
-1
40
0.797045
41
3.01048372103924
42
-3.00564547283263
0
ELLIPSE
5
194
100
AcDbEntity
8
1
62
256
6
ByLayer
370
13
48
1
60
0
100
AcDbEllipse
10
5.110458
20
-39.833049
30
0
11
0.268664007068264
21
-0.133490266708939
31
0
210
0
220
0
230
1
40
0.124876
41
-2.34328082157423
42
-2.11038335671722
0
ELLIPSE
5
195
100
AcDbEntity
8
1
62
256
6
ByLayer
370
18
48
1
60
0
100
AcDbEllipse
10
4.799404
20
-35.024868
30
0
11
0.0294584714272173
21
0.400158673670064
31
0
210
0
220
0
230
-1
40
0.018208
41
-1.2392878355876
42
-0.345451486736686
0
ELLIPSE
5
196
100
AcDbEntity
8
1
62
256
6
ByLayer
370
13
48
1
60
0
100
AcDbEllipse
10
8.860896
20
-36.020095
30
0
11
-0.192836282905961
21
-0.229813332935694
31
0
210
0
220
0
230
1
40
0.540716
41
-2.10763555738114
42
-1.14485749595459
0
ELLIPSE
5
197
100
AcDbEntity
8
1
62
256
6
ByLayer
370
13
48
1
60
0
100
AcDbEllipse
10
5.115405
20
-39.599275
30
0
11
0.240081036634329
21
-0.0697215594245153
31
0
210
0
220
0
230
1
40
0.0638
41
1.25761232863665
42
2.2115213135661
0
ELLIPSE
5
198
100
AcDbEntity
8
1
62
256
6
ByLayer
370
13
48
1
60
0
100
AcDbEllipse
10
4.497759
20
-39.489102
30
0
11
0.277753192821578
21
-0.113371794893701
31
0
210
0
220
0
230
1
40
0.047332
41
-1.70219821254628
42
-0.925425085715452
0
ELLIPSE
5
199
100
AcDbEntity
8
1
62
256
6
ByLayer
370
13
48
1
60
0
100
AcDbEllipse
10
9.543618
20
-39.587337
30
0
11
-0.275168422103666
21
-0.119508742261721
31
0
210
0
220
0
230
1
40
0.050246
41
0.922741133658992
42
1.70111517605513
0
ELLIPSE
5
19A
100
AcDbEntity
8
1
62
256
6
ByLayer
370
13
48
1
60
0
100
AcDbEllipse
10
4.539137
20
-39.384243
30
0
11
0.280315057589663
21
-0.106880627283451
31
0
210
0
220
0
230
1
40
0.044251
41
-1.70326346286862
42
-0.921690500707724
0
ELLIPSE
5
19B
100
AcDbEntity
8
1
62
256
6
ByLayer
370
13
48
1
60
0
100
AcDbEllipse
10
8.890635
20
-39.62142
30
0
11
0.242222762608326
21
0.0618719102209593
31
0
210
0
220
0
230
1
40
0.085462
41
0.924591680942984
42
1.88640681208364
0
ELLIPSE
5
19C
100
AcDbEntity
8
1
62
256
6
ByLayer
370
13
48
1
60
0
100
AcDbEllipse
10
5.190215
20
-39.404523
30
0
11
0.227440516824223
21
-0.103782519273385
31
0
210
0
220
0
230
1
40
0.182089
41
-2.22964659898252
42
-1.25235130973787
0
ELLIPSE
5
19D
100
AcDbEntity
8
1
62
256
6
ByLayer
370
13
48
1
60
0
100
AcDbEllipse
10
9.108901
20
-39.34479
30
0
11
-0.23096103554457
21
-0.0433820246205719
31
0
210
0
220
0
230
1
40
0.009251
41
0.890698211461477
42
2.22838816565603
0
ELLIPSE
5
19E
100
AcDbEntity
8
1
62
256
6
ByLayer
370
13
48
1
60
0
100
AcDbEllipse
10
5.023289
20
-40.003015
30
0
11
-0.262961755976822
21
0.144399151291088
31
0
210
0
220
0
230
1
40
0.122265
41
0.839959943443932
42
1.63783478792559
0
ELLIPSE
5
19F
100
AcDbEntity
8
1
62
256
6
ByLayer
370
13
48
1
60
0
100
AcDbEllipse
10
4.902009
20
-39.212435
30
0
11
-0.234946964571316
21
-0.00499237806306675
31
0
210
0
220
0
230
1
40
0.036371
41
0.904549533913733
42
2.47040023183577
0
ELLIPSE
5
1A0
100
AcDbEntity
8
1
62
256
6
ByLayer
370
13
48
1
60
0
100
AcDbEllipse
10
9.250579
20
-39.7227
30
0
11
-0.217111690140137
21
-0.0899306066058331
31
0
210
0
220
0
230
1
40
0.060694
41
-2.21740870959805
42
-0.794345784833675
0
ELLIPSE
5
1A1
100
AcDbEntity
8
1
62
256
6
ByLayer
370
13
48
1
60
0
100
AcDbEllipse
10
9.595631
20
-34.939626
30
0
11
0.0826122658616701
21
0.0563490330813293
31
0
210
0
220
0
230
1
40
0.916602
41
1.01204912496687
42
1.11490842031363
0
ELLIPSE
5
1A2
100
AcDbEntity
8
1
62
256
6
ByLayer
370
13
48
1
60
0
100
AcDbEllipse
10
4.900254
20
-39.129853
30
0
11
-0.234946964571316
21
-0.00499237806306675
31
0
210
0
220
0
230
1
40
0.052884
41
0.89766189052386
42
2.56647562974386
0
ELLIPSE
5
1A3
100
AcDbEntity
8
1
62
256
6
ByLayer
370
13
48
1
60
0
100
AcDbEllipse
10
4.797356
20
-39.606977
30
0
11
-0.217111690140136
21
0.0899306066058358
31
0
210
0
220
0
230
1
40
0.039297
41
-2.27158968838164
42
-0.924794340867836
0
ELLIPSE
5
1A4
100
AcDbEntity
8
1
62
256
6
ByLayer
370
13
48
1
60
0
100
AcDbEllipse
10
9.611321
20
-35.231328
30
0
11
0.0189551693650736
21
-0.399905682905435
31
0
210
0
220
0
230
-1
40
0.029078
41
-2.79447700380286
42
-1.90251496882794
0
ELLIPSE
5
1A5
100
AcDbEntity
8
1
62
256
6
ByLayer
370
13
48
1
60
0
100
AcDbEllipse
10
8.702526
20
-37.462958
30
0
11
-0.20893246594705
21
-0.137285194661642
31
0
210
0
220
0
230
1
40
0.30784
41
0.586237646011626
42
2.20930146966049
0
ELLIPSE
5
1A6
100
AcDbEntity
8
1
62
256
6
ByLayer
370
18
48
1
60
0
100
AcDbEllipse
10
9.694546
20
-34.497456
30
0
11
5.95012862782318E-17
21
0.370000000010473
31
0
210
0
220
0
230
-1
40
0.017455
41
-2.79574056013228
42
-1.93586868475162
0
ELLIPSE
5
1A7
100
AcDbEntity
8
1
62
256
6
ByLayer
370
13
48
1
60
0
100
AcDbEllipse
10
8.895349
20
-39.844767
30
0
11
-0.268932885426804
21
-0.132947745885417
31
0
210
0
220
0
230
1
40
0.124999
41
1.88010686407282
42
2.34107127194205
0
ELLIPSE
5
1A8
100
AcDbEntity
8
1
62
256
6
ByLayer
370
13
48
1
60
0
100
AcDbEllipse
10
7.409102
20
-31.209709
30
0
11
0.172201992094191
21
4.13619299611778
31
0
210
0
220
0
230
-1
40
0.8213
41
3.01052933784166
42
-3.00559985604779
0
ELLIPSE
5
1A9
100
AcDbEntity
8
1
62
256
6
ByLayer
370
13
48
1
60
0
100
AcDbEllipse
10
8.453792
20
-39.013302
30
0
11
-0.112370908881385
21
-0.278159628338067
31
0
210
0
220
0
230
1
40
0.64628
41
0.913100663229329
42
1.66593510264446
0
ELLIPSE
5
1AA
100
AcDbEntity
8
1
62
256
6
ByLayer
370
13
48
1
60
0
100
AcDbEllipse
10
4.928366
20
-34.454525
30
0
11
0.0996775496979515
21
-0.00802409410540561
31
0
210
0
220
0
230
1
40
0.353057
41
1.24757475703151
42
1.5992099818703
0
ELLIPSE
5
1AB
100
AcDbEntity
8
1
62
256
6
ByLayer
370
13
48
1
60
0
100
AcDbEllipse
10
4.853217
20
-39.472115
30
0
11
-0.217111690140136
21
0.0899306066058358
31
0
210
0
220
0
230
1
40
0.014373
41
-2.20853463899812
42
-0.917239260872257
0
ELLIPSE
5
1AC
100
AcDbEntity
8
1
62
256
6
ByLayer
370
13
48
1
60
0
100
AcDbEllipse
10
8.914837
20
-39.785441
30
0
11
-0.249589895075749
21
-0.0143137792380838
31
0
210
0
220
0
230
1
40
0.255666
41
-2.29562642746139
42
-1.22397845083304
0
ELLIPSE
5
1AD
100
AcDbEntity
8
1
62
256
6
ByLayer
370
13
48
1
60
0
100
AcDbEllipse
10
5.546208
20
-39.013302
30
0
11
0.112370908881385
21
-0.278159628338067
31
0
210
0
220
0
230
1
40
0.64628
41
-1.66593510264448
42
-0.913100663229333
0
ELLIPSE
5
1AE
100
AcDbEntity
8
1
62
256
6
ByLayer
370
18
48
1
60
0
100
AcDbEllipse
10
4.563031
20
-39.09252
30
0
11
0.299476982669317
21
0.0177069718269792
31
0
210
0
220
0
230
1
40
0.014405
41
0.889793555208293
42
1.70968232676456
0
ELLIPSE
5
1AF
100
AcDbEntity
8
1
62
256
6
ByLayer
370
13
48
1
60
0
100
AcDbEllipse
10
8.867694
20
-35.536661
30
0
11
0.00385641670177038
21
0.399981409630776
31
0
210
0
220
0
230
1
40
0.00942
41
-2.34455809364936
42
-1.2376737488908
0
ELLIPSE
5
1B0
100
AcDbEntity
8
1
62
256
6
ByLayer
370
18
48
1
60
0
100
AcDbEllipse
10
4.212274
20
-36.51507
30
0
11
0.593314426116443
21
0.995952054781763
31
0
210
0
220
0
230
-1
40
0.151498
41
1.13208462828322
42
1.4807887826546
0
ELLIPSE
5
1B1
100
AcDbEntity
8
1
62
256
6
ByLayer
370
13
48
1
60
0
100
AcDbEllipse
10
-43.103208
20
-36.515099
30
0
11
116.138544004232
21
-0.326931944179203
31
0
210
0
220
0
230
-1
40
0.008138
41
-1.10686194641956
42
-1.09885768086126
0
ELLIPSE
5
1B2
100
AcDbEntity
8
1
62
256
6
ByLayer
370
13
48
1
60
0
100
AcDbEllipse
10
9.452871
20
-39.363139
30
0
11
-0.280799584997073
21
-0.105601103523929
31
0
210
0
220
0
230
1
40
0.043644
41
0.920136676458537
42
1.7034638930324
0
ELLIPSE
5
1B3
100
AcDbEntity
8
1
62
256
6
ByLayer
370
13
48
1
60
0
100
AcDbEllipse
10
4.686825
20
-39.873821
30
0
11
-0.217111690140136
21
0.0899306066058358
31
0
210
0
220
0
230
1
40
0.023767
41
-2.30965349382416
42
-0.924517454079494
0
ELLIPSE
5
1B4
100
AcDbEntity
8
1
62
256
6
ByLayer
370
13
48
1
60
0
100
AcDbEllipse
10
8.976711
20
-40.003015
30
0
11
0.262961755976822
21
0.144399151291087
31
0
210
0
220
0
230
1
40
0.122265
41
-1.63783478792557
42
-0.839959943443651
0
ELLIPSE
5
1B5
100
AcDbEntity
8
1
62
256
6
ByLayer
370
13
48
1
60
0
100
AcDbEllipse
10
6.91207
20
-34.405413
30
0
11
0.019413724093346
21
0.369490334537762
31
0
210
0
220
0
230
1
40
0.345678
41
1.90266038203146
42
2.771989694316
0
ELLIPSE
5
1B6
100
AcDbEntity
8
1
62
256
6
ByLayer
370
18
48
1
60
0
100
AcDbEllipse
10
4.336629
20
-37.058506
30
0
11
0.195147967983091
21
-0.0568804455533079
31
0
210
0
220
0
230
1
40
0.98392
41
2.90532571984922
42
3.13311685246772
0
ELLIPSE
5
1B7
100
AcDbEntity
8
1
62
256
6
ByLayer
370
13
48
1
60
0
100
AcDbEllipse
10
5.099316
20
-39.666666
30
0
11
0.245599233822831
21
-0.0467013527174348
31
0
210
0
220
0
230
1
40
0.130272
41
1.24850707125171
42
2.2322086322926
0
ELLIPSE
5
1B8
100
AcDbEntity
8
1
62
256
6
ByLayer
370
13
48
1
60
0
100
AcDbEllipse
10
9.097991
20
-39.212435
30
0
11
-0.234946964571316
21
0.00499237806306691
31
0
210
0
220
0
230
1
40
0.036371
41
0.671192421754115
42
2.23704311967606
0
ELLIPSE
5
1B9
100
AcDbEntity
8
1
62
256
6
ByLayer
370
13
48
1
60
0
100
AcDbEllipse
10
4.567259
20
-39.159055
30
0
11
0.29930830498164
21
0.0203602202595506
31
0
210
0
220
0
230
1
40
0.015643
41
0.896061835502964
42
1.70954917927913
0
ELLIPSE
5
1BA
100
AcDbEntity
8
1
62
256
6
ByLayer
370
13
48
1
60
0
100
AcDbEllipse
10
-0.861403
20
-36.742363
30
0
11
5.94420018339967
21
-0.356160343047709
31
0
210
0
220
0
230
-1
40
0.67172
41
-0.0384546552073728
42
-0.0235326185848745
0
ELLIPSE
5
1BB
100
AcDbEntity
8
1
62
256
6
ByLayer
370
13
48
1
60
0
100
AcDbEllipse
10
8.425303
20
-36.994626
30
0
11
0.24421374414743
21
0.0534756689485396
31
0
210
0
220
0
230
1
40
0.167877
41
-2.51534658389194
42
-0.890308587446534
0
ELLIPSE
5
1BC
100
AcDbEntity
8
1
62
256
6
ByLayer
370
18
48
1
60
0
100
AcDbEllipse
10
10.692634
20
-36.404216
30
0
11
0.056806552641903
21
1.04930116410266
31
0
210
0
220
0
230
1
40
0.951622
41
1.72797135779409
42
2.17138530725866
0
ELLIPSE
5
1BD
100
AcDbEntity
8
1
62
256
6
ByLayer
370
18
48
1
60
0
100
AcDbEllipse
10
9.244374
20
-38.997199
30
0
11
-0.744150344197874
21
0.293666929071332
31
0
210
0
220
0
230
1
40
0.197953
41
0.858258729588504
42
1.04601267774605
0
ELLIPSE
5
1BE
100
AcDbEntity
8
1
62
256
6
ByLayer
370
18
48
1
60
0
100
AcDbEllipse
10
9.709936
20
-36.51507
30
0
11
1.60814287235294E-16
21
1.00000000000859
31
0
210
0
220
0
230
-1
40
0.017455
41
-1.46351010183734
42
-0.804993585427864
0
ELLIPSE
5
1BF
100
AcDbEntity
8
1
62
256
6
ByLayer
370
18
48
1
60
0
100
AcDbEllipse
10
8.691459
20
-39.069654
30
0
11
0.249942769664185
21
0.00534900856196132
31
0
210
0
220
0
230
1
40
0.022232
41
-1.05731978299137
42
-0.565098731435068
0
ELLIPSE
5
1C0
100
AcDbEntity
8
1
62
256
6
ByLayer
370
13
48
1
60
0
100
AcDbEllipse
10
8.895993
20
-39.643883
30
0
11
0.244058636166494
21
0.0541791667760872
31
0
210
0
220
0
230
1
40
0.107584
41
0.917697796287967
42
1.88945724950381
0
ELLIPSE
5
1C1
100
AcDbEntity
8
1
62
256
6
ByLayer
370
13
48
1
60
0
100
AcDbEllipse
10
5.31579
20
-38.756915
30
0
11
0.249676923578791
21
-0.0127056614243679
31
0
210
0
220
0
230
1
40
0.051215
41
-2.6272605599164
42
-2.20024092658923
0
ELLIPSE
5
1C2
100
AcDbEntity
8
1
62
256
6
ByLayer
370
13
48
1
60
0
100
AcDbEllipse
10
4.74406
20
-39.735644
30
0
11
-0.217111690140136
21
0.0899306066058358
31
0
210
0
220
0
230
1
40
0.063088
41
-2.34501104291048
42
-0.923706339647115
0
ELLIPSE
5
1C3
100
AcDbEntity
8
1
62
256
6
ByLayer
370
13
48
1
60
0
100
AcDbEllipse
10
-43.087548
20
-36.384153
30
0
11
116.124133529416
21
-0.457787084900102
31
0
210
0
220
0
230
-1
40
0.011392
41
-1.10692622013008
42
-1.09895261009872
0
ELLIPSE
5
1C4
100
AcDbEntity
8
1
62
256
6
ByLayer
370
13
48
1
60
0
100
AcDbEllipse
10
12.84568
20
-34.850074
30
0
11
3.25753041589561
21
0.00455422673200025
31
0
210
0
220
0
230
-1
40
0.041511
41
3.13402728174159
42
3.13738447564017
0
ELLIPSE
5
1C5
100
AcDbEntity
8
1
62
256
6
ByLayer
370
13
48
1
60
0
100
AcDbEllipse
10
5.307436
20
-39.135155
30
0
11
0.24998324246926
21
-0.00289456120255313
31
0
210
0
220
0
230
1
40
0.002229
41
2.05479235663506
42
2.56738081233148
0
ELLIPSE
5
1C6
100
AcDbEntity
8
1
62
256
6
ByLayer
370
13
48
1
60
0
100
AcDbEllipse
10
4.749421
20
-39.7227
30
0
11
-0.217111690140136
21
0.0899306066058358
31
0
210
0
220
0
230
1
40
0.060694
41
-2.34724686875613
42
-0.92418394399174
0
ELLIPSE
5
1C7
100
AcDbEntity
8
1
62
256
6
ByLayer
370
13
48
1
60
0
100
AcDbEllipse
10
5.167263
20
-35.501492
30
0
11
0.00379075863209197
21
0.399982037282918
31
0
210
0
220
0
230
1
40
0.009476
41
-2.35614958440806
42
-1.23767529981783
0
ELLIPSE
5
1C8
100
AcDbEntity
8
1
62
256
6
ByLayer
370
13
48
1
60
0
100
AcDbEllipse
10
4.479668
20
-34.233067
30
0
11
5.11746807529263
21
-0.617482402900417
31
0
210
0
220
0
230
-1
40
0.032585
41
-0.0284962488459519
42
-0.00554263236746023
0
ELLIPSE
5
1C9
100
AcDbEntity
8
1
62
256
6
ByLayer
370
13
48
1
60
0
100
AcDbEllipse
10
4.916267
20
-34.741606
30
0
11
-0.0992317312464088
21
0.0123718840052962
31
0
210
0
220
0
230
1
40
0.94059
41
-1.62872896178636
42
-1.45405988882148
0
ELLIPSE
5
1CA
100
AcDbEntity
8
1
62
256
6
ByLayer
370
13
48
1
60
0
100
AcDbEllipse
10
8.685698
20
-38.807999
30
0
11
0.249992909275942
21
0.00188289982491168
31
0
210
0
220
0
230
1
40
0.036814
41
-0.955686546259529
42
-0.52075477478578
0
ELLIPSE
5
1CB
100
AcDbEntity
8
1
62
256
6
ByLayer
370
13
48
1
60
0
100
AcDbEllipse
10
9.239853
20
-39.696805
30
0
11
-0.217111690140137
21
-0.0899306066058331
31
0
210
0
220
0
230
1
40
0.055905
41
-2.21670033245372
42
-0.789647467603035
0
ELLIPSE
5
1CC
100
AcDbEntity
8
1
62
256
6
ByLayer
370
13
48
1
60
0
100
AcDbEllipse
10
8.112618
20
-34.417827
30
0
11
1.49056721550106
21
-0.225382428596837
31
0
210
0
220
0
230
-1
40
0.291704
41
-0.0460672783155784
42
-0.0311629866604756
0
ELLIPSE
5
1CD
100
AcDbEntity
8
1
62
256
6
ByLayer
370
13
48
1
60
0
100
AcDbEllipse
10
8.207923
20
-36.148833
30
0
11
0.246993727345941
21
0.038653572302684
31
0
210
0
220
0
230
1
40
0.128659
41
-2.11967593234113
42
-0.882712685318558
0
ELLIPSE
5
1CE
100
AcDbEntity
8
1
62
256
6
ByLayer
370
13
48
1
60
0
100
AcDbEllipse
10
5.921828
20
-36.51507
30
0
11
0.834227514814997
21
8.43102907296337E-16
31
0
210
0
220
0
230
-1
40
0.8391
41
3.14159265358979
42
-2.35619449019186
0
ELLIPSE
5
1CF
100
AcDbEntity
8
1
62
256
6
ByLayer
370
13
48
1
60
0
100
AcDbEllipse
10
9.477127
20
-39.426317
30
0
11
-0.279316470433701
21
-0.109463735293746
31
0
210
0
220
0
230
1
40
0.045477
41
0.923993572058976
42
1.7028493021993
0
ELLIPSE
5
1D0
100
AcDbEntity
8
1
62
256
6
ByLayer
370
13
48
1
60
0
100
AcDbEllipse
10
5.35
20
-39.56115
30
0
11
0.266820171216205
21
0
31
0
210
0
220
0
230
1
40
0.990268
41
-2.29260836668684
42
-2.07773225858864
0
ELLIPSE
5
1D1
100
AcDbEntity
8
1
62
256
6
ByLayer
370
13
48
1
60
0
100
AcDbEllipse
10
9.245216
20
-39.709753
30
0
11
-0.217111690140137
21
-0.0899306066058331
31
0
210
0
220
0
230
1
40
0.058299
41
-2.21701334606736
42
-0.792034234104789
0
ELLIPSE
5
1D2
100
AcDbEntity
8
1
62
256
6
ByLayer
370
13
48
1
60
0
100
AcDbEllipse
10
8.883361
20
-39.820644
30
0
11
-0.268382434999228
21
-0.134055468310267
31
0
210
0
220
0
230
1
40
0.124747
41
2.32278739409018
42
2.34571159163311
0
ELLIPSE
5
1D3
100
AcDbEntity
8
1
62
256
6
ByLayer
370
13
48
1
60
0
100
AcDbEllipse
10
5.307377
20
-39.140912
30
0
11
0.24998954143497
21
-0.00228673853630568
31
0
210
0
220
0
230
1
40
0.004846
41
2.05947557308127
42
2.5666457116482
0
ELLIPSE
5
1D4
100
AcDbEntity
8
1
62
256
6
ByLayer
370
13
48
1
60
0
100
AcDbEllipse
10
4.514598
20
-39.447288
30
0
11
0.278803500307451
21
-0.110763749558748
31
0
210
0
220
0
230
1
40
0.046094
41
-1.70263600896263
42
-0.924741031350058
0
ELLIPSE
5
1D5
100
AcDbEntity
8
1
62
256
6
ByLayer
370
13
48
1
60
0
100
AcDbEllipse
10
9.502241
20
-39.489102
30
0
11
-0.277753192821578
21
-0.113371794893701
31
0
210
0
220
0
230
1
40
0.047332
41
0.925425085715456
42
1.7021982125462
0
ELLIPSE
5
1D6
100
AcDbEntity
8
1
62
256
6
ByLayer
370
18
48
1
60
0
100
AcDbEllipse
10
9.101089
20
-39.066662
30
0
11
-0.234946964571316
21
0.00499237806306691
31
0
210
0
220
0
230
1
40
0.044987
41
0.565584526892448
42
2.25067584245417
0
ELLIPSE
5
1D7
100
AcDbEntity
8
1
62
256
6
ByLayer
370
13
48
1
60
0
100
AcDbEllipse
10
4.646682
20
-38.001821
30
0
11
0.295796483890588
21
-0.0500443814824909
31
0
210
0
220
0
230
1
40
0.017375
41
-1.7093442645425
42
-0.869658159300102
0
ELLIPSE
5
1D8
100
AcDbEntity
8
1
62
256
6
ByLayer
370
13
48
1
60
0
100
AcDbEllipse
10
4.760147
20
-39.696805
30
0
11
-0.217111690140136
21
0.0899306066058358
31
0
210
0
220
0
230
1
40
0.055905
41
-2.35194518598743
42
-0.924892321136056
0
ELLIPSE
5
1D9
100
AcDbEntity
8
1
62
256
6
ByLayer
370
13
48
1
60
0
100
AcDbEllipse
10
8.91094
20
-39.736952
30
0
11
-0.248635435832102
21
-0.0260848624412861
31
0
210
0
220
0
230
1
40
0.202726
41
-2.26578914035561
42
-1.23475707827816
0
ELLIPSE
5
1DA
100
AcDbEntity
8
1
62
256
6
ByLayer
370
18
48
1
60
0
100
AcDbEllipse
10
4.755626
20
-38.997199
30
0
11
-0.744150344197874
21
-0.293666929071331
31
0
210
0
220
0
230
1
40
0.197953
41
2.09557997584368
42
2.28333392400127
0
ELLIPSE
5
1DB
100
AcDbEntity
8
1
62
256
6
ByLayer
370
13
48
1
60
0
100
AcDbEllipse
10
8.91445
20
-39.829218
30
0
11
-0.245601992845951
21
0.0466868408665361
31
0
210
0
220
0
230
1
40
0.227005
41
-2.03634484889683
42
-1.1609240254337
0
ELLIPSE
5
1DC
100
AcDbEntity
8
1
62
256
6
ByLayer
370
13
48
1
60
0
100
AcDbEllipse
10
4.834592
20
-39.51708
30
0
11
-0.217111690140136
21
0.0899306066058358
31
0
210
0
220
0
230
1
40
0.022682
41
-2.2214983260424
42
-0.920738953919906
0
ELLIPSE
5
1DD
100
AcDbEntity
8
1
62
256
6
ByLayer
370
13
48
1
60
0
100
AcDbEllipse
10
8.692564
20
-39.135155
30
0
11
0.24998324246926
21
0.00289456120255294
31
0
210
0
220
0
230
1
40
0.002229
41
0.574211841259266
42
1.08680029695837
0
ELLIPSE
5
1DE
100
AcDbEntity
8
1
62
256
6
ByLayer
370
13
48
1
60
0
100
AcDbEllipse
10
9.519468
20
-39.530745
30
0
11
-0.276674946143409
21
-0.115978334944685
31
0
210
0
220
0
230
1
40
0.04857
41
0.925027091314992
42
1.70174734995699
0
ELLIPSE
5
1DF
100
AcDbEntity
8
1
62
256
6
ByLayer
370
13
48
1
60
0
100
AcDbEllipse
10
5.104651
20
-39.844767
30
0
11
0.268932885426804
21
-0.132947745885418
31
0
210
0
220
0
230
1
40
0.124999
41
-2.34107127194205
42
-1.88010686407283
0
ELLIPSE
5
1E0
100
AcDbEntity
8
1
62
256
6
ByLayer
370
13
48
1
60
0
100
AcDbEllipse
10
8.809785
20
-39.404523
30
0
11
0.227440516824223
21
0.103782519273385
31
0
210
0
220
0
230
1
40
0.182089
41
-1.88924134385196
42
-0.911946054607272
0
ELLIPSE
5
1E1
100
AcDbEntity
8
1
62
256
6
ByLayer
370
13
48
1
60
0
100
AcDbEllipse
10
8.883708
20
-39.821337
30
0
11
-0.268398078049581
21
-0.134024145956209
31
0
210
0
220
0
230
1
40
0.124754
41
2.31208130153997
42
2.34557332355449
0
ELLIPSE
5
1E2
100
AcDbEntity
8
1
62
256
6
ByLayer
370
13
48
1
60
0
100
AcDbEllipse
10
5.297474
20
-37.462958
30
0
11
-0.20893246594705
21
0.137285194661641
31
0
210
0
220
0
230
1
40
0.30784
41
0.932291183929435
42
2.55535500757817
0
ELLIPSE
5
1E3
100
AcDbEntity
8
1
62
256
6
ByLayer
370
13
48
1
60
0
100
AcDbEllipse
10
9.181093
20
-39.127427
30
0
11
-0.690832506215441
21
0.403423410768504
31
0
210
0
220
0
230
1
40
0.262689
41
0.896665417862416
42
1.16139064598381
0
ELLIPSE
5
1E4
100
AcDbEntity
8
1
62
256
6
ByLayer
370
13
48
1
60
0
100
AcDbEllipse
10
5.792409
20
-36.166346
30
0
11
0.238245243619125
21
-0.0757575335716761
31
0
210
0
220
0
230
1
40
0.246431
41
-2.23009715599552
42
-0.740918981203181
0
ELLIPSE
5
1E5
100
AcDbEntity
8
1
62
256
6
ByLayer
370
13
48
1
60
0
100
AcDbEllipse
10
9.202644
20
-39.606977
30
0
11
-0.217111690140137
21
-0.0899306066058331
31
0
210
0
220
0
230
1
40
0.039297
41
-2.21679831272215
42
-0.870002965207207
0
ELLIPSE
5
1E6
100
AcDbEntity
8
1
62
256
6
ByLayer
370
13
48
1
60
0
100
AcDbEllipse
10
4.461545
20
-39.575406
30
0
11
0.275489304115654
21
-0.11876718114813
31
0
210
0
220
0
230
1
40
0.049894
41
-1.70125003371276
42
-0.923391079169564
0
ELLIPSE
5
1E7
100
AcDbEntity
8
1
62
256
6
ByLayer
370
13
48
1
60
0
100
AcDbEllipse
10
6.767016
20
-34.175179
30
0
11
0.0092892129061134
21
-0.345900912911331
31
0
210
0
220
0
230
-1
40
0.281003
41
-0.107744091726299
42
-0.0898523536314742
0
ELLIPSE
5
1E8
100
AcDbEntity
8
1
62
256
6
ByLayer
370
13
48
1
60
0
100
AcDbEllipse
10
9.221253
20
-39.651901
30
0
11
-0.217111690140137
21
-0.0899306066058331
31
0
210
0
220
0
230
1
40
0.047602
41
-2.21625357466983
42
-0.832552542085465
0
ELLIPSE
5
1E9
100
AcDbEntity
8
1
62
256
6
ByLayer
370
18
48
1
60
0
100
AcDbEllipse
10
4.848721
20
-34.29404
30
0
11
0.0272298351383294
21
0.3699996677927
31
0
210
0
220
0
230
-1
40
0.018209
41
1.93136135413026
42
2.79627503059094
0
ELLIPSE
5
1EA
100
AcDbEntity
8
1
62
256
6
ByLayer
370
13
48
1
60
0
100
AcDbEllipse
10
9.193337
20
-39.584508
30
0
11
-0.217111690140137
21
-0.0899306066058331
31
0
210
0
220
0
230
1
40
0.035144
41
-2.21744214869691
42
-0.885586503886286
0
ELLIPSE
5
1EB
100
AcDbEntity
8
1
62
256
6
ByLayer
370
13
48
1
60
0
100
AcDbEllipse
10
8.618744
20
-39.10236
30
0
11
-0.165211810028478
21
-0.250409779815234
31
0
210
0
220
0
230
1
40
0.454891
41
1.02561154099098
42
1.83148491600697
0
ELLIPSE
5
1EC
100
AcDbEntity
8
1
62
256
6
ByLayer
370
13
48
1
60
0
100
AcDbEllipse
10
5.084109
20
-39.807457
30
0
11
-0.249812382109337
21
0.00968368446710937
31
0
210
0
220
0
230
1
40
0.280676
41
-1.92258177953873
42
-0.83064724216497
0
ELLIPSE
5
1ED
100
AcDbEntity
8
1
62
256
6
ByLayer
370
13
48
1
60
0
100
AcDbEllipse
10
9.169372
20
-36.144134
30
0
11
0.931004014280529
21
-0.417241484409288
31
0
210
0
220
0
230
-1
40
0.654255
41
3.12532018593968
42
-2.19508705981361
0
ELLIPSE
5
1EE
100
AcDbEntity
8
1
62
256
6
ByLayer
370
13
48
1
60
0
100
AcDbEllipse
10
4.891099
20
-39.34479
30
0
11
-0.23096103554457
21
0.0433820246205718
31
0
210
0
220
0
230
1
40
0.009251
41
0.913204487932983
42
2.25089444212832
0
ELLIPSE
5
1EF
100
AcDbEntity
8
1
62
256
6
ByLayer
370
13
48
1
60
0
100
AcDbEllipse
10
5.728992
20
-36.51507
30
0
11
1.60814287233797E-16
21
0.999999999999281
31
0
210
0
220
0
230
-1
40
0.834228
41
-1.5707963267949
42
-0.785398163396917
0
ELLIPSE
5
1F0
100
AcDbEntity
8
1
62
256
6
ByLayer
370
13
48
1
60
0
100
AcDbEllipse
10
5.095275
20
-39.68977
30
0
11
0.246860830859877
21
-0.0394934195426454
31
0
210
0
220
0
230
1
40
0.153624
41
1.24435647276189
42
2.24195121628866
0
ELLIPSE
5
1F1
100
AcDbEntity
8
1
62
256
6
ByLayer
370
18
48
1
60
0
100
AcDbEllipse
10
9.690428
20
-35.230912
30
0
11
1.05668200967976E-07
21
0.400005513158587
31
0
210
0
220
0
230
-1
40
0.017452
41
0.34579870492472
42
1.23776073989482
0
ELLIPSE
5
1F2
100
AcDbEntity
8
1
62
256
6
ByLayer
370
13
48
1
60
0
100
AcDbEllipse
10
9.174719
20
-39.539559
30
0
11
-0.217111690140137
21
-0.0899306066058331
31
0
210
0
220
0
230
1
40
0.026836
41
-2.21947053180876
42
-0.91061275685455
0
ELLIPSE
5
1F3
100
AcDbEntity
8
1
62
256
6
ByLayer
370
13
48
1
60
0
100
AcDbEllipse
10
4.281227
20
-40.137635
30
0
11
0.297544068483327
21
-0.0383083190754822
31
0
210
0
220
0
230
1
40
0.011848
41
-1.70992229257254
42
-1.01523157338272
0
ELLIPSE
5
1F4
100
AcDbEntity
8
1
62
256
6
ByLayer
370
13
48
1
60
0
100
AcDbEllipse
10
4.568997
20
-39.288275
30
0
11
0.296463349632321
21
-0.0459291010665794
31
0
210
0
220
0
230
1
40
0.015436
41
-1.70957224955136
42
-0.91330337911388
0
ELLIPSE
5
1F5
100
AcDbEntity
8
1
62
256
6
ByLayer
370
13
48
1
60
0
100
AcDbEllipse
10
4.815971
20
-39.562035
30
0
11
-0.217111690140136
21
0.0899306066058358
31
0
210
0
220
0
230
1
40
0.03099
41
-2.2424770711929
42
-0.92325957580364
0
ELLIPSE
5
1F6
100
AcDbEntity
8
1
62
256
6
ByLayer
370
13
48
1
60
0
100
AcDbEllipse
10
8.65
20
-39.56115
30
0
11
0.266820171216205
21
0
31
0
210
0
220
0
230
1
40
0.990268
41
-1.06386039500116
42
-0.848984286902952
0
ELLIPSE
5
1F7
100
AcDbEntity
8
1
62
256
6
ByLayer
370
13
48
1
60
0
100
AcDbEllipse
10
4.547129
20
-39.363139
30
0
11
0.280799584997073
21
-0.105601103523929
31
0
210
0
220
0
230
1
40
0.043644
41
-1.70346389303235
42
-0.92013667645774
0
ELLIPSE
5
1F8
100
AcDbEntity
8
1
62
256
6
ByLayer
370
13
48
1
60
0
100
AcDbEllipse
10
3.18211
20
-34.669661
30
0
11
1.75169863346926
21
0.022570314834081
31
0
210
0
220
0
230
-1
40
0.076379
41
0.0153147591557341
42
0.0175466848983747
0
ELLIPSE
5
1F9
100
AcDbEntity
8
1
62
256
6
ByLayer
370
13
48
1
60
0
100
AcDbEllipse
10
9.432741
20
-39.159055
30
0
11
-0.29930830498164
21
0.0203602202595506
31
0
210
0
220
0
230
1
40
0.015643
41
-1.70954917927914
42
-0.89606183550297
0
ELLIPSE
5
1FA
100
AcDbEntity
8
1
62
256
6
ByLayer
370
13
48
1
60
0
100
AcDbEllipse
10
7.792052
20
-34.219971
30
0
11
0.0393956201339429
21
0.343737157379883
31
0
210
0
220
0
230
-1
40
0.281018
41
-3.05173441150316
42
-3.03384167916326
0
ELLIPSE
5
1FB
100
AcDbEntity
8
1
62
256
6
ByLayer
370
13
48
1
60
0
100
AcDbEllipse
10
4.843904
20
-39.494598
30
0
11
-0.217111690140136
21
0.0899306066058358
31
0
210
0
220
0
230
1
40
0.018527
41
-2.2140195212103
42
-0.919110957904413
0
ELLIPSE
5
1FC
100
AcDbEntity
8
1
62
256
6
ByLayer
370
18
48
1
60
0
100
AcDbEllipse
10
9.442223
20
-38.992745
30
0
11
-0.299679341291701
21
0.0138669536298429
31
0
210
0
220
0
230
1
40
0.012613
41
-1.709855487774
42
-0.882791170743948
0
ELLIPSE
5
1FD
100
AcDbEntity
8
1
62
256
6
ByLayer
370
13
48
1
60
0
100
AcDbEllipse
10
4.893463
20
-38.747659
30
0
11
-0.234957465223427
21
0.00447096586681529
31
0
210
0
220
0
230
1
40
0.005117
41
0.877213129617181
42
2.6279945758534
0
ELLIPSE
5
1FE
100
AcDbEntity
8
1
62
256
6
ByLayer
370
13
48
1
60
0
100
AcDbEllipse
10
5.35
20
-39.567592
30
0
11
-0.426912273945929
21
5.22799483198944E-17
31
0
210
0
220
0
230
1
40
0.990268
41
0.930102241127854
42
1.06386039500115
0
ELLIPSE
5
1FF
100
AcDbEntity
8
1
62
256
6
ByLayer
370
13
48
1
60
0
100
AcDbEllipse
10
4.480532
20
-39.530745
30
0
11
0.276674946143409
21
-0.115978334944686
31
0
210
0
220
0
230
1
40
0.04857
41
-1.701747349957
42
-0.925027091315111
0
ELLIPSE
5
200
100
AcDbEntity
8
1
62
256
6
ByLayer
370
13
48
1
60
0
100
AcDbEllipse
10
4.889931
20
-35.024396
30
0
11
0.0298104598441237
21
0.400160709247704
31
0
210
0
220
0
230
-1
40
0.012931
41
-1.23888305803748
42
-0.345046136678755
0
ELLIPSE
5
201
100
AcDbEntity
8
1
62
256
6
ByLayer
370
13
48
1
60
0
100
AcDbEllipse
10
5.08555
20
-39.829218
30
0
11
0.245601992845951
21
0.046686840866536
31
0
210
0
220
0
230
1
40
0.227005
41
1.16092402543377
42
2.03634484889666
0
ELLIPSE
5
202
100
AcDbEntity
8
1
62
256
6
ByLayer
370
18
48
1
60
0
100
AcDbEllipse
10
4.898911
20
-39.066662
30
0
11
-0.234946964571316
21
-0.00499237806306675
31
0
210
0
220
0
230
1
40
0.044987
41
0.89091681113562
42
2.57600812669734
0
ELLIPSE
5
203
100
AcDbEntity
8
1
62
256
6
ByLayer
370
13
48
1
60
0
100
AcDbEllipse
10
7.826232
20
-34.566389
30
0
11
0.471906072089339
21
0.0750651759340808
31
0
210
0
220
0
230
-1
40
0.431945
41
1.99472450894095
42
2.01261740976509
0
ELLIPSE
5
204
100
AcDbEntity
8
1
62
256
6
ByLayer
370
13
48
1
60
0
100
AcDbEllipse
10
4.883799
20
-36.234321
30
0
11
0.64429708466639
21
0.417920472926032
31
0
210
0
220
0
230
-1
40
0.37378
41
-0.891131697492328
42
0.107235881322708
0
ELLIPSE
5
205
100
AcDbEntity
8
1
62
256
6
ByLayer
370
13
48
1
60
0
100
AcDbEllipse
10
9.313175
20
-39.873821
30
0
11
-0.217111690140137
21
-0.0899306066058331
31
0
210
0
220
0
230
1
40
0.023767
41
-2.21707519951061
42
-0.831939159765632
0
ELLIPSE
5
206
100
AcDbEntity
8
1
62
256
6
ByLayer
370
13
48
1
60
0
100
AcDbEllipse
10
5.581212
20
-36.964702
30
0
11
-0.244320046526077
21
0.0529878747025716
31
0
210
0
220
0
230
1
40
0.175101
41
0.891579837123765
42
2.51012112937689
0
ELLIPSE
5
207
100
AcDbEntity
8
1
62
256
6
ByLayer
370
18
48
1
60
0
100
AcDbEllipse
10
5.308541
20
-39.069654
30
0
11
0.249942769664185
21
-0.00534900856196144
31
0
210
0
220
0
230
1
40
0.022232
41
-2.57649392215473
42
-2.08427287059843
0
ELLIPSE
5
208
100
AcDbEntity
8
1
62
256
6
ByLayer
370
13
48
1
60
0
100
AcDbEllipse
10
5.109365
20
-39.62142
30
0
11
0.242222762608326
21
-0.0618719102209595
31
0
210
0
220
0
230
1
40
0.085462
41
1.25518584150624
42
2.21700097264689
0
ELLIPSE
5
209
100
AcDbEntity
8
1
62
256
6
ByLayer
370
13
48
1
60
0
100
AcDbEllipse
10
5.092038
20
-39.860074
30
0
11
0.243610306043093
21
0.0561606516129436
31
0
210
0
220
0
230
1
40
0.039575
41
-1.72059995358715
42
-1.48382354045497
0
ELLIPSE
5
20A
100
AcDbEntity
8
1
62
256
6
ByLayer
370
13
48
1
60
0
100
AcDbEllipse
10
9.303751
20
-38.768913
30
0
11
-0.789125496514253
21
0.131457030055959
31
0
210
0
220
0
230
1
40
0.105545
41
0.824507757570449
42
0.947276290288368
0
ELLIPSE
5
20B
100
AcDbEntity
8
1
62
256
6
ByLayer
370
18
48
1
60
0
100
AcDbEllipse
10
4.896897
20
-38.971835
30
0
11
-0.234946964571316
21
-0.00499237806306675
31
0
210
0
220
0
230
1
40
0.033136
41
0.883362979816165
42
2.59377554924697
0
ELLIPSE
5
20C
100
AcDbEntity
8
1
62
256
6
ByLayer
370
13
48
1
60
0
100
AcDbEllipse
10
9.363132
20
-38.059831
30
0
11
-0.295796483890588
21
-0.0500443814824904
31
0
210
0
220
0
230
1
40
0.017375
41
0.869658159300093
42
1.70934426454267
0
ELLIPSE
5
20D
100
AcDbEntity
8
1
62
256
6
ByLayer
370
13
48
1
60
0
100
AcDbEllipse
10
9.604632
20
-34.658649
30
0
11
0.0999977746868349
21
0.000667126435546275
31
0
210
0
220
0
230
1
40
0.35701
41
1.56841457052507
42
1.88918563151311
0
ELLIPSE
5
20E
100
AcDbEntity
8
1
62
256
6
ByLayer
370
13
48
1
60
0
100
AcDbEllipse
10
5.093115
20
-39.868222
30
0
11
-0.269478863473629
21
0.131837559674629
31
0
210
0
220
0
230
1
40
0.125249
41
0.804689624062441
42
1.63199532793551
0
ELLIPSE
5
20F
100
AcDbEntity
8
1
62
256
6
ByLayer
370
13
48
1
60
0
100
AcDbEllipse
10
9.597452
20
-34.949164
30
0
11
-0.0988078414698572
21
-0.0153951441717044
31
0
210
0
220
0
230
1
40
0.939477
41
-1.71614304943589
42
-1.62380369408988
0
ELLIPSE
5
210
100
AcDbEntity
8
1
62
256
6
ByLayer
370
13
48
1
60
0
100
AcDbEllipse
10
9.184029
20
-39.562035
30
0
11
-0.217111690140137
21
-0.0899306066058331
31
0
210
0
220
0
230
1
40
0.03099
41
-2.21833307778639
42
-0.899115582395671
0
ELLIPSE
5
211
100
AcDbEntity
8
1
62
256
6
ByLayer
370
18
48
1
60
0
100
AcDbEllipse
10
4.634899
20
-39.999181
30
0
11
-0.217111690140136
21
0.0899306066058358
31
0
210
0
220
0
230
1
40
0.017962
41
0.942706850529699
42
2.25826657659767
0
ELLIPSE
5
212
100
AcDbEntity
8
1
62
256
6
ByLayer
370
13
48
1
60
0
100
AcDbEllipse
10
9.611321
20
-35.231328
30
0
11
0.0301557133696995
21
-0.399217575400035
31
0
210
0
220
0
230
-1
40
0.038708
41
-2.79352668528611
42
-1.9015646503056
0
ELLIPSE
5
213
100
AcDbEntity
8
1
62
256
6
ByLayer
370
13
48
1
60
0
100
AcDbEllipse
10
9.485402
20
-39.447288
30
0
11
-0.278803500307451
21
-0.110763749558748
31
0
210
0
220
0
230
1
40
0.046094
41
0.924741031349935
42
1.70263600896262
0
ELLIPSE
5
214
100
AcDbEntity
8
1
62
256
6
ByLayer
370
13
48
1
60
0
100
AcDbEllipse
10
8.421666
20
-36.97796
30
0
11
0.244294082519704
21
0.0531074500033299
31
0
210
0
220
0
230
1
40
0.171592
41
-2.51218450288071
42
-0.890947837766514
0
ELLIPSE
5
215
100
AcDbEntity
8
1
62
256
6
ByLayer
370
13
48
1
60
0
100
AcDbEllipse
10
9.25594
20
-39.735644
30
0
11
-0.217111690140137
21
-0.0899306066058331
31
0
210
0
220
0
230
1
40
0.063088
41
-2.21788631394198
42
-0.796581610679408
0
ELLIPSE
5
216
100
AcDbEntity
8
1
62
256
6
ByLayer
370
13
48
1
60
0
100
AcDbEllipse
10
7.179799
20
-34.341414
30
0
11
-0.225664536579033
21
0.293215819714029
31
0
210
0
220
0
230
1
40
0.87955
41
1.335679355593
42
2.34013872623987
0
ELLIPSE
5
217
100
AcDbEntity
8
1
62
256
6
ByLayer
370
18
48
1
60
0
100
AcDbEllipse
10
9.665086
20
-37.061475
30
0
11
-0.124126345776884
21
-0.161394992300714
31
0
210
0
220
0
230
1
40
0.982286
41
2.52658986001543
42
2.75626377923059
0
ELLIPSE
5
218
100
AcDbEntity
8
1
62
256
6
ByLayer
370
13
48
1
60
0
100
AcDbEllipse
10
4.888621
20
-36.103564
30
0
11
0.908890308754905
21
0.402794909926866
31
0
210
0
220
0
230
-1
40
0.67364
41
-0.977197935288682
42
0.0211696435318331
0
ELLIPSE
5
219
100
AcDbEntity
8
1
62
256
6
ByLayer
370
13
48
1
60
0
100
AcDbEllipse
10
9.448538
20
-38.743256
30
0
11
-0.299955007760689
21
-0.00519550953083337
31
0
210
0
220
0
230
1
40
0.003698
41
-1.71037401282001
42
-0.877205604769404
0
ELLIPSE
5
21A
100
AcDbEntity
8
1
62
256
6
ByLayer
370
13
48
1
60
0
100
AcDbEllipse
10
7.660204
20
-34.350579
30
0
11
2.74368865570016
21
0.29707305740386
31
0
210
0
220
0
230
-1
40
0.060035
41
-3.1274168806694
42
-3.11037332266039
0
ELLIPSE
5
21B
100
AcDbEntity
8
1
62
256
6
ByLayer
370
13
48
1
60
0
100
AcDbEllipse
10
5.139104
20
-36.020095
30
0
11
0.192836282905961
21
-0.229813332935694
31
0
210
0
220
0
230
1
40
0.540716
41
1.14485749595457
42
2.14322507477223
0
ELLIPSE
5
21C
100
AcDbEntity
8
1
62
256
6
ByLayer
370
13
48
1
60
0
100
AcDbEllipse
10
5.085163
20
-39.785441
30
0
11
0.249589895075749
21
-0.0143137792380839
31
0
210
0
220
0
230
1
40
0.255666
41
1.22397845083304
42
2.2956264274614
0
ELLIPSE
5
21D
100
AcDbEntity
8
1
62
256
6
ByLayer
370
13
48
1
60
0
100
AcDbEllipse
10
8.078172
20
-36.51507
30
0
11
0.834227514818143
21
8.43102907299516E-16
31
0
210
0
220
0
230
-1
40
0.8391
41
-0.785398163396358
42
0
0
ELLIPSE
5
21E
100
AcDbEntity
8
1
62
256
6
ByLayer
370
13
48
1
60
0
100
AcDbEllipse
10
4.3
20
-40.367261
30
0
11
0.256080367778455
21
0.15627810223589
31
0
210
0
220
0
230
1
40
0.119112
41
-1.64335901494942
42
-1.17688567142444
0
ELLIPSE
5
21F
100
AcDbEntity
8
1
62
256
6
ByLayer
370
18
48
1
60
0
100
AcDbEllipse
10
8.688992
20
-38.971408
30
0
11
0.249910180778553
21
0.00670086137975934
31
0
210
0
220
0
230
1
40
0.04561
41
-1.01445061995308
42
-0.548117344247465
0
ELLIPSE
5
220
100
AcDbEntity
8
1
62
256
6
ByLayer
370
13
48
1
60
0
100
AcDbEllipse
10
4.817408
20
-37.388696
30
0
11
0.284562691978373
21
-0.0949951279488676
31
0
210
0
220
0
230
1
40
0.112135
41
0.87702862336977
42
1.64906504570472
0
POINT
5
6C
100
AcDbEntity
8
80
62
256
6
ByLayer
370
18
48
1
60
0
100
AcDbPoint
10
0
20
0
30
0
39
0
210
0
220
0
230
1
50
360
0
POINT
5
6E
100
AcDbEntity
8
81
62
256
6
ByLayer
370
18
48
1
60
0
100
AcDbPoint
10
10
20
-40.6
30
0
39
0
210
0
220
0
230
1
50
360
0
SPLINE
5
221
100
AcDbEntity
8
SK1
62
256
6
ByLayer
370
18
48
1
60
0
100
AcDbSpline
70
4
71
3
72
12
73
8
40
0
40
0
40
0
40
0
40
0.362564935986098
40
0.362564935986098
40
0.721382890960574
40
0.721382890960574
40
1
40
1
40
1
40
1
41
1
10
-1.10000000000017
20
-12.425
30
0
41
1
10
-0.952490788031525
20
-12.425
30
0
41
1
10
-0.806274222063166
20
-12.446283698381
30
0
41
1
10
-0.543981776984737
20
-12.5186010974054
30
0
41
1
10
-0.423841056728264
20
-12.5699359760131
30
0
41
1
10
-0.237901315714169
20
-12.6739115853666
30
0
41
1
10
-0.164673373614221
20
-12.7242202607345
30
0
41
1
10
-0.0999999999999943
20
-12.7760004003205
30
0
0
SPLINE
5
222
100
AcDbEntity
8
1
62
256
6
ByLayer
370
18
48
1
60
0
100
AcDbSpline
70
4
71
3
72
10
73
6
40
0
40
0
40
0
40
0
40
0.448762915870059
40
0.448762915870059
40
1
40
1
40
1
40
1
41
1
10
4.3794228208113
20
-21.369812347705
30
0
41
1
10
4.37314539521924
20
-21.2988036477431
30
0
41
1
10
4.36764052669304
20
-21.2370306737924
30
0
41
1
10
4.35777239160871
20
-21.1222675391247
30
0
41
1
10
4.35391107813868
20
-21.0736495347065
30
0
41
1
10
4.35182894590002
20
-21.0403624341545
30
0
0
SPLINE
5
223
100
AcDbEntity
8
1
62
256
6
ByLayer
370
18
48
1
60
0
100
AcDbSpline
70
4
71
3
72
10
73
6
40
0
40
0
40
0
40
0
40
0.248018593876211
40
0.248018593876211
40
1
40
1
40
1
40
1
41
1
10
10.1058887536112
20
-27.9629551662952
30
0
41
1
10
10.1004819481286
20
-27.9567880441886
30
0
41
1
10
10.0950921035628
20
-27.9515600807343
30
0
41
1
10
10.073454687866
20
-27.934298980646
30
0
41
1
10
10.0573805008787
20
-27.9300787260343
30
0
41
1
10
10.0418226916007
20
-27.9347610951587
30
0
0
SPLINE
5
224
100
AcDbEntity
8
1
62
256
6
ByLayer
370
18
48
1
60
0
100
AcDbSpline
70
4
71
3
72
10
73
6
40
0
40
0
40
0
40
0
40
0.5
40
0.5
40
1
40
1
40
1
40
1
41
1
10
14.3387375898097
20
-30.9094006270813
30
0
41
1
10
14.2213078824807
20
-33.4647876409953
30
0
41
1
10
13.589139636531
20
-35.805694406231
30
0
41
1
10
12.1256046795698
20
-39.0548025231318
30
0
41
1
10
11.3185231693029
20
-40.0000000000126
30
0
41
1
10
10.7407813292818
20
-40
30
0
0
SPLINE
5
225
100
AcDbEntity
8
1
62
256
6
ByLayer
370
18
48
1
60
0
100
AcDbSpline
70
4
71
2
72
6
73
3
40
0
40
0
40
0
40
1
40
1
40
1
41
0.5000000063469
10
10.2954662183711
20
-31.7618523867491
30
0
41
0.4999999936531
10
10.2971696151119
20
-31.7584619075835
30
0
41
0.5000000063469
10
10.2988771508605
20
-31.755071879558
30
0
0
SPLINE
5
226
100
AcDbEntity
8
1
62
256
6
ByLayer
370
18
48
1
60
0
100
AcDbSpline
70
4
71
3
72
16
73
12
40
0
40
0
40
0
40
0
40
0.230649997239168
40
0.230649997239168
40
0.466738674519021
40
0.466738674519021
40
0.694301481286822
40
0.694301481286822
40
0.906055216258206
40
0.906055216258206
40
1
40
1
40
1
40
1
41
1
10
4.65166916384396
20
-13
30
0
41
1
10
4.85099406687107
20
-13
30
0
41
1
10
5.05299695993722
20
-13.0334024408021
30
0
41
1
10
5.43435758604781
20
-13.1641137627138
30
0
41
1
10
5.61865923272961
20
-13.2649412363514
30
0
41
1
10
5.9295278530544
20
-13.516968186851
30
0
41
1
10
6.06246935730758
20
-13.6701804307177
30
0
41
1
10
6.25296676014267
20
-13.9981503078249
30
0
41
1
10
6.31769780313866
20
-14.1755699928756
30
0
41
1
10
6.36106636880734
20
-14.4365017499004
30
0
41
1
10
6.36784489637336
20
-14.5183874086209
30
0
41
1
10
6.36784489637336
20
-14.6
30
0
0
SPLINE
5
227
100
AcDbEntity
8
1
62
256
6
ByLayer
370
18
48
1
60
0
100
AcDbSpline
70
4
71
3
72
8
73
4
40
0
40
0
40
0
40
0
40
1
40
1
40
1
40
1
41
1
10
9.95713922582081
20
-27.9925545722791
30
0
41
1
10
10.006944893452
20
-27.9820799056105
30
0
41
1
10
10.0565403364649
20
-27.9721982790819
30
0
41
1
10
10.1058887536112
20
-27.9629551662952
30
0
0
SPLINE
5
228
100
AcDbEntity
8
1
62
256
6
ByLayer
370
18
48
1
60
0
100
AcDbSpline
70
4
71
3
72
8
73
4
40
0
40
0
40
0
40
0
40
1
40
1
40
1
40
1
41
1
10
10.3499810831134
20
-24.8576512255866
30
0
41
1
10
10.4893082585276
20
-23.9657498015062
30
0
41
1
10
10.6160743907166
20
-22.9669732488888
30
0
41
1
10
10.7074778051346
20
-21.8716148666001
30
0
0
SPLINE
5
229
100
AcDbEntity
8
1
62
256
6
ByLayer
370
18
48
1
60
0
100
AcDbSpline
70
4
71
3
72
26
73
22
40
0
40
0
40
0
40
0
40
0.108940762680118
40
0.108940762680118
40
0.217938163913325
40
0.217938163913325
40
0.32603724504456
40
0.32603724504456
40
0.432550414410395
40
0.432550414410395
40
0.537729623025311
40
0.537729623025311
40
0.642281321820618
40
0.642281321820618
40
0.747082146512321
40
0.747082146512321
40
0.852920716081275
40
0.852920716081275
40
0.960262764500141
40
0.960262764500141
40
1
40
1
40
1
40
1
41
1
10
4.806568502186
20
-15.399939338831
30
0
41
1
10
4.79831633075443
20
-15.4007276465568
30
0
41
1
10
4.79004287954376
20
-15.3936330488722
30
0
41
1
10
4.7747853990021
20
-15.3647367500297
30
0
41
1
10
4.76758841566007
20
-15.3425178330934
30
0
41
1
10
4.75525001084762
20
-15.2863347337778
30
0
41
1
10
4.74991780740248
20
-15.251674647756
30
0
41
1
10
4.74176358740607
20
-15.1753063332169
30
0
41
1
10
4.73879102675124
20
-15.1326414559268
30
0
41
1
10
4.73546651413798
20
-15.0455194675085
30
0
41
1
10
4.73503574155404
20
-14.9998877705457
30
0
41
1
10
4.73667580842692
20
-14.911840302974
30
0
41
1
10
4.73875454775279
20
-14.8682013471678
30
0
41
1
10
4.74513772677878
20
-14.7885013218045
30
0
41
1
10
4.74953539232709
20
-14.7513715604546
30
0
41
1
10
4.76014265575631
20
-14.6882639590485
30
0
41
1
10
4.76651526255691
20
-14.6615370248841
30
0
41
1
10
4.7804930811464
20
-14.6219058899772
30
0
41
1
10
4.78830645693142
20
-14.6086553851154
30
0
41
1
10
4.79926119482303
20
-14.6010380381945
30
0
41
1
10
4.80227555335432
20
-14.6
30
0
41
1
10
4.80529928326186
20
-14.6
30
0
0
SPLINE
5
22A
100
AcDbEntity
8
1
62
256
6
ByLayer
370
18
48
1
60
0
100
AcDbSpline
70
4
71
3
72
10
73
6
40
0
40
0
40
0
40
0
40
0.5
40
0.5
40
1
40
1
40
1
40
1
41
1
10
4.8772999783242
20
-14.8768666302454
30
0
41
1
10
4.9755204756068
20
-16.4231685625576
30
0
41
1
10
4.89821791372398
20
-18.1729120093873
30
0
41
1
10
4.57088086050234
20
-20.7350609205834
30
0
41
1
10
4.37800815813887
20
-21.4877071795338
30
0
41
1
10
4.35325930644143
20
-21.4103925750221
30
0
0
SPLINE
5
22B
100
AcDbEntity
8
1
62
256
6
ByLayer
370
18
48
1
60
0
100
AcDbSpline
70
4
71
3
72
8
73
4
40
0
40
0
40
0
40
0
40
1
40
1
40
1
40
1
41
1
10
14.9908807301604
20
-20.4821541061106
30
0
41
1
10
14.8468059543912
20
-21.2526621907317
30
0
41
1
10
14.7562563168314
20
-22.0492121519851
30
0
41
1
10
14.7166588134119
20
-22.8724113603755
30
0
0
SPLINE
5
22C
100
AcDbEntity
8
1
62
256
6
ByLayer
370
18
48
1
60
0
100
AcDbSpline
70
4
71
3
72
16
73
12
40
0
40
0
40
0
40
0
40
0.240398104187086
40
0.240398104187086
40
0.480625406854778
40
0.480625406854778
40
0.723438187613107
40
0.723438187613107
40
0.97021267410888
40
0.97021267410888
40
1
40
1
40
1
40
1
41
1
10
4.82491920815855
20
-15.4794752990155
30
0
41
1
10
4.82449616458786
20
-15.4685908969476
30
0
41
1
10
4.82372038400726
20
-15.4579602989207
30
0
41
1
10
4.82160484986377
20
-15.4389689030863
30
0
41
1
10
4.82023711563161
20
-15.4303459942032
30
0
41
1
10
4.81710044226298
20
-15.4161241980177
30
0
41
1
10
4.81528514370387
20
-15.4103636973786
30
0
41
1
10
4.81144817289115
20
-15.4024368867102
30
0
41
1
10
4.80937118921509
20
-15.4002205321069
30
0
41
1
10
4.80707018213983
20
-15.3999198113757
30
0
41
1
10
4.8068192214954
20
-15.3999153882902
30
0
41
1
10
4.806568502186
20
-15.399939338831
30
0
0
SPLINE
5
22D
100
AcDbEntity
8
1
62
256
6
ByLayer
370
18
48
1
60
0
100
AcDbSpline
70
4
71
3
72
8
73
4
40
0
40
0
40
0
40
0
40
1
40
1
40
1
40
1
41
1
10
5.54843879392962
20
-24.8576512255866
30
0
41
1
10
5.99970157892017
20
-23.0739995955319
30
0
41
1
10
6.36784489637336
20
-20.8044591591114
30
0
41
1
10
6.36784489637336
20
-18.4297751287213
30
0
0
SPLINE
5
22E
100
AcDbEntity
8
1
62
256
6
ByLayer
370
18
48
1
60
0
100
AcDbSpline
70
4
71
3
72
14
73
10
40
0
40
0
40
0
40
0
40
0.172725248922334
40
0.172725248922334
40
0.446687056257418
40
0.446687056257418
40
0.719518222388725
40
0.719518222388725
40
1
40
1
40
1
40
1
41
1
10
4.80529928326186
20
-14.6
30
0
41
1
10
4.81053296536501
20
-14.6
30
0
41
1
10
4.81584159717099
20
-14.6031323082117
30
0
41
1
10
4.82927925525664
20
-14.6190459704471
30
0
41
1
10
4.83743545483051
20
-14.6367385813769
30
0
41
1
10
4.85210899217577
20
-14.6850884705634
30
0
41
1
10
4.85883603333747
20
-14.7163798528195
30
0
41
1
10
4.86995846637254
20
-14.7891286398449
30
0
41
1
10
4.87444794556697
20
-14.8319665952676
30
0
41
1
10
4.8772999783242
20
-14.8768666302454
30
0
0
SPLINE
5
22F
100
AcDbEntity
8
1
62
256
6
ByLayer
370
18
48
1
60
0
100
AcDbSpline
70
4
71
3
72
10
73
6
40
0
40
0
40
0
40
0
40
0.5
40
0.5
40
1
40
1
40
1
40
1
41
1
10
4.35356991625542
20
-20.9908664339033
30
0
41
1
10
4.37597490974269
20
-21.0577441288782
30
0
41
1
10
4.52292860031878
20
-20.4459457629797
30
0
41
1
10
4.79118141511154
20
-18.3398055071814
30
0
41
1
10
4.87846851820879
20
-16.857234616043
30
0
41
1
10
4.82491920815855
20
-15.4794752990155
30
0
0
SPLINE
5
230
100
AcDbEntity
8
1
62
256
6
ByLayer
370
18
48
1
60
0
100
AcDbSpline
70
4
71
3
72
14
73
10
40
0
40
0
40
0
40
0
40
0.277867078664056
40
0.277867078664056
40
0.555976108873643
40
0.555976108873643
40
0.830494025663379
40
0.830494025663379
40
1
40
1
40
1
40
1
41
1
10
10.2988771508605
20
-31.755071879558
30
0
41
1
10
10.3290258877961
20
-31.6952165803497
30
0
41
1
10
10.3588003438156
20
-31.6054507714158
30
0
41
1
10
10.4117477301903
20
-31.3799664579937
30
0
41
1
10
10.4356231724737
20
-31.2410249192269
30
0
41
1
10
10.4726417775785
20
-30.9356724722009
30
0
41
1
10
10.4864037074254
20
-30.7653613743801
30
0
41
1
10
10.4986530324774
20
-30.4821069105698
30
0
41
1
10
10.501055681553
20
-30.3702195268496
30
0
41
1
10
10.501055681553
20
-30.2589586216378
30
0
0
SPLINE
5
231
100
AcDbEntity
8
1
62
256
6
ByLayer
370
18
48
1
60
0
100
AcDbSpline
70
4
71
3
72
10
73
6
40
0
40
0
40
0
40
0
40
0.59195231415918
40
0.59195231415918
40
1
40
1
40
1
40
1
41
1
10
-0.0999999999999943
20
-12.7760004003205
30
0
41
1
10
-0.0448858102096779
20
-12.8201270676184
30
0
41
1
10
0.0044110843943201
20
-12.8656367876261
30
0
41
1
10
0.0774653363334892
20
-12.9408372396506
30
0
41
1
10
0.104506528554879
20
-12.9711620037735
30
0
41
1
10
0.128566237530379
20
-13
30
0
0
SPLINE
5
232
100
AcDbEntity
8
1
62
256
6
ByLayer
370
18
48
1
60
0
100
AcDbSpline
70
4
71
3
72
18
73
14
40
0
40
0
40
0
40
0
40
0.168509889790176
40
0.168509889790176
40
0.336861107155395
40
0.336861107155395
40
0.507608967982882
40
0.507608967982882
40
0.681623035403328
40
0.681623035403328
40
0.85699674765684
40
0.85699674765684
40
1
40
1
40
1
40
1
41
1
10
10.501055681553
20
-29.4581964735072
30
0
41
1
10
10.501055681553
20
-29.2803037881914
30
0
41
1
10
10.4947909506039
20
-29.0999731520368
30
0
41
1
10
10.4713095651321
20
-28.7645434960344
30
0
41
1
10
10.4538102427795
20
-28.6048340021669
30
0
41
1
10
10.41086567765
20
-28.3244776411767
30
0
41
1
10
10.3847578946766
20
-28.2005783756238
30
0
41
1
10
10.3283541932728
20
-28.0046605631213
30
0
41
1
10
10.2972331824433
20
-27.9309606628036
30
0
41
1
10
10.235311744049
20
-27.8456035822306
30
0
41
1
10
10.2036619648187
20
-27.8332646612099
30
0
41
1
10
10.1500979938763
20
-27.8687765011354
30
0
41
1
10
10.1269407698358
20
-27.9061195841711
30
0
41
1
10
10.1058887536112
20
-27.9629551662952
30
0
0
SPLINE
5
233
100
AcDbEntity
8
1
62
256
6
ByLayer
370
18
48
1
60
0
100
AcDbSpline
70
4
71
3
72
8
73
4
40
0
40
0
40
0
40
0
40
1
40
1
40
1
40
1
41
1
10
4.35325930644143
20
-21.4103925750222
30
0
41
1
10
4.35110892669354
20
-21.4036748589119
30
0
41
1
10
4.35006197038453
20
-21.4071983547463
30
0
41
1
10
4.35005915268087
20
-21.4207024722505
30
0
0
SPLINE
5
234
100
AcDbEntity
8
1
62
256
6
ByLayer
370
18
48
1
60
0
100
AcDbSpline
70
4
71
3
72
8
73
4
40
0
40
0
40
0
40
0
40
1
40
1
40
1
40
1
41
1
10
10.2199494020393
20
-18.4297751287213
30
0
41
1
10
10.4794257479404
20
-19.590199075732
30
0
41
1
10
10.8009587749923
20
-20.7513595176046
30
0
41
1
10
10.7074778051346
20
-21.8716148666001
30
0
0
SPLINE
5
235
100
AcDbEntity
8
1
62
256
6
ByLayer
370
13
48
1
60
0
100
AcDbSpline
70
4
71
3
72
8
73
4
40
0
40
0
40
0
40
0
40
1
40
1
40
1
40
1
41
1
10
9.08235758650957
20
-39.7491544982117
30
0
41
1
10
9.08122923401149
20
-39.7506100918294
30
0
41
1
10
9.08007831714409
20
-39.7520662573624
30
0
41
1
10
9.07890528001954
20
-39.7535224694941
30
0
0
SPLINE
5
236
100
AcDbEntity
8
1
62
256
6
ByLayer
370
13
48
1
60
0
100
AcDbSpline
70
4
71
3
72
8
73
4
40
0
40
0
40
0
40
0
40
1
40
1
40
1
40
1
41
1
10
4.9224224941575
20
-39.7281803124967
30
0
41
1
10
4.92079254191543
20
-39.7351683055007
30
0
41
1
10
4.91919990955242
20
-39.742160487636
30
0
41
1
10
4.91764241349233
20
-39.7491544982324
30
0
0
SPLINE
5
237
100
AcDbEntity
8
1
62
256
6
ByLayer
370
13
48
1
60
0
100
AcDbSpline
70
4
71
3
72
8
73
4
40
0
40
0
40
0
40
0
40
1
40
1
40
1
40
1
41
1
10
9.34843964690606
20
-39.5895465466143
30
0
41
1
10
9.35143939059205
20
-39.5967925750812
30
0
41
1
10
9.35444611463808
20
-39.6040351840507
30
0
41
1
10
9.35745979050637
20
-39.6112743152022
30
0
0
SPLINE
5
238
100
AcDbEntity
8
1
62
256
6
ByLayer
370
13
48
1
60
0
100
AcDbSpline
70
4
71
3
72
26
73
22
40
0
40
0
40
0
40
0
40
0.0370947090477843
40
0.0370947090477843
40
0.0557329816629237
40
0.0557329816629237
40
0.10082249159168
40
0.10082249159168
40
0.127191804986483
40
0.127191804986483
40
0.163501813557855
40
0.163501813557855
40
0.184449012382371
40
0.184449012382371
40
0.233247336227719
40
0.233247336227719
40
0.352688065432853
40
0.352688065432853
40
0.48999919815105
40
0.48999919815105
40
1
40
1
40
1
40
1
41
1
10
9.58452674519359
20
-40.3354471297938
30
0
41
1
10
9.58276193882804
20
-40.3422061961718
30
0
41
1
10
9.58057472793803
20
-40.3488830129341
30
0
41
1
10
9.57642717671118
20
-40.3585322149378
30
0
41
1
10
9.57488888918758
20
-40.3617051050649
30
0
41
1
10
9.56909403265806
20
-40.3721308786112
30
0
41
1
10
9.56390716179311
20
-40.3790726623238
30
0
41
1
10
9.55384201160948
20
-40.3878660379589
30
0
41
1
10
9.54965130428667
20
-40.3906797404485
30
0
41
1
10
9.53908980331133
20
-40.395759252099
30
0
41
1
10
9.53231491891952
20
-40.397488603306
30
0
41
1
10
9.52164407936093
20
-40.3983141379953
30
0
41
1
10
9.51766867283803
20
-40.3982323812219
30
0
41
1
10
9.5046793225045
20
-40.3969197818947
30
0
41
1
10
9.49574559772071
20
-40.3943315514621
30
0
41
1
10
9.4668691016748
20
-40.3825095602198
30
0
41
1
10
9.44847926538253
20
-40.3691478236312
30
0
41
1
10
9.41245315092169
20
-40.3379189775827
30
0
41
1
10
9.39494236797398
20
-40.3190328418847
30
0
41
1
10
9.31826809136999
20
-40.2268356630614
30
0
41
1
10
9.27104152893367
20
-40.1433451313258
30
0
41
1
10
9.22845087829552
20
-40.0593115493021
30
0
0
SPLINE
5
239
100
AcDbEntity
8
1
62
256
6
ByLayer
370
13
48
1
60
0
100
AcDbSpline
70
4
71
3
72
10
73
6
40
0
40
0
40
0
40
0
40
0.99983399802267
40
0.99983399802267
40
1
40
1
40
1
40
1
41
1
10
9.19422196081541
20
-37.3494567864937
30
0
41
1
10
9.14955830154489
20
-37.2383314152635
30
0
41
1
10
9.10920879722698
20
-37.1204744205474
30
0
41
1
10
9.10587778689177
20
-37.000039984794
30
0
41
1
10
9.10587723574955
20
-37.0000199923894
30
0
41
1
10
9.10587668406006
20
-37
30
0
0
SPLINE
5
23A
100
AcDbEntity
8
1
62
256
6
ByLayer
370
13
48
1
60
0
100
AcDbSpline
70
4
71
3
72
28
73
24
40
0
40
0
40
0
40
0
40
0.0289307218226278
40
0.0289307218226278
40
0.150913367346592
40
0.150913367346592
40
0.272817464159844
40
0.272817464159844
40
0.387849894384309
40
0.387849894384309
40
0.500169480406806
40
0.500169480406806
40
0.618478793469971
40
0.618478793469971
40
0.655223308181593
40
0.655223308181593
40
0.759917593477755
40
0.759917593477755
40
0.866506061007576
40
0.866506061007576
40
0.976134549817021
40
0.976134549817021
40
1
40
1
40
1
40
1
41
1
10
5.74934255150504
20
-39.980331589594
30
0
41
1
10
5.76068012030046
20
-39.9751762105656
30
0
41
1
10
5.77177880594269
20
-39.9693883827676
30
0
41
1
10
5.82728519692381
20
-39.9365384041104
30
0
41
1
10
5.86739689385547
20
-39.8989333781026
30
0
41
1
10
5.92896144161668
20
-39.8095168441141
30
0
41
1
10
5.95143576759028
20
-39.756179031321
30
0
41
1
10
5.97351023646493
20
-39.6466940358799
30
0
41
1
10
5.97465971055527
20
-39.5891795137495
30
0
41
1
10
5.95781762818231
20
-39.4776904561292
30
0
41
1
10
5.94004545038831
20
-39.4220031574376
30
0
41
1
10
5.88824020314547
20
-39.3162140565334
30
0
41
1
10
5.85186685926431
20
-39.2658179742536
30
0
41
1
10
5.80044824865513
20
-39.2059856814281
30
0
41
1
10
5.7875202218128
20
-39.192368599704
30
0
41
1
10
5.73647500216725
20
-39.1432739155112
30
0
41
1
10
5.69440679108439
20
-39.1123764669923
30
0
41
1
10
5.60738526649376
20
-39.0661765059664
30
0
41
1
10
5.56117663809829
20
-39.0505097086246
30
0
41
1
10
5.47059542600229
20
-39.0368721370462
30
0
41
1
10
5.42498500413572
20
-39.0392054171296
30
0
41
1
10
5.37436919217669
20
-39.0529276910134
30
0
41
1
10
5.36537483190145
20
-39.0558413928676
30
0
41
1
10
5.35657724638415
20
-39.0591730137723
30
0
0
SPLINE
5
23B
100
AcDbEntity
8
1
62
256
6
ByLayer
370
13
48
1
60
0
100
AcDbSpline
70
4
71
3
72
8
73
4
40
0
40
0
40
0
40
0
40
1
40
1
40
1
40
1
41
1
10
8.77138718396444
20
-39.1104320378298
30
0
41
1
10
8.72876185825419
20
-39.0851737575816
30
0
41
1
10
8.68508049770188
20
-39.0676714457117
30
0
41
1
10
8.64342275361545
20
-39.0591730137738
30
0
0
SPLINE
5
23C
100
AcDbEntity
8
1
62
256
6
ByLayer
370
13
48
1
60
0
100
AcDbSpline
70
4
71
3
72
8
73
4
40
0
40
0
40
0
40
0
40
1
40
1
40
1
40
1
41
1
10
5.17269859602047
20
-39.7463045145135
30
0
41
1
10
5.17270827969946
20
-39.7458597837756
30
0
41
1
10
5.1727217950978
20
-39.7454153279883
30
0
41
1
10
5.1727390103643
20
-39.7449712215366
30
0
0
SPLINE
5
23D
100
AcDbEntity
8
1
62
256
6
ByLayer
370
13
48
1
60
0
100
AcDbSpline
70
4
71
3
72
8
73
4
40
0
40
0
40
0
40
0
40
1
40
1
40
1
40
1
41
1
10
9.0823575865077
20
-39.7491544982324
30
0
41
1
10
9.08080009044761
20
-39.742160487636
30
0
41
1
10
9.07920745808457
20
-39.7351683055007
30
0
41
1
10
9.07757750584253
20
-39.7281803124967
30
0
0
SPLINE
5
23E
100
AcDbEntity
8
1
62
256
6
ByLayer
370
13
48
1
60
0
100
AcDbSpline
70
4
71
3
72
8
73
4
40
0
40
0
40
0
40
0
40
1
40
1
40
1
40
1
41
1
10
8.76055571413903
20
-38.7234394395964
30
0
41
1
10
8.78308658781728
20
-38.7293278171245
30
0
41
1
10
8.80689814601647
20
-38.7352695393143
30
0
41
1
10
8.83182363754838
20
-38.7412229965732
30
0
0
SPLINE
5
23F
100
AcDbEntity
8
1
62
256
6
ByLayer
370
13
48
1
60
0
100
AcDbSpline
70
4
71
3
72
8
73
4
40
0
40
0
40
0
40
0
40
1
40
1
40
1
40
1
41
1
10
4.74793746754705
20
-38.9810199560951
30
0
41
1
10
4.74618334235817
20
-38.9271346700752
30
0
41
1
10
4.74468380849643
20
-38.8732317120774
30
0
41
1
10
4.7434312990344
20
-38.819320778088
30
0
0
SPLINE
5
240
100
AcDbEntity
8
1
62
256
6
ByLayer
370
13
48
1
60
0
100
AcDbSpline
70
4
71
3
72
8
73
4
40
0
40
0
40
0
40
0
40
1
40
1
40
1
40
1
41
1
10
5.63171205898507
20
-36.1663461399327
30
0
41
1
10
5.54928447353407
20
-36.4255676226138
30
0
41
1
10
5.47963385946935
20
-36.6921153870775
30
0
41
1
10
5.42051549330884
20
-36.9647023147842
30
0
0
SPLINE
5
241
100
AcDbEntity
8
1
62
256
6
ByLayer
370
18
48
1
60
0
100
AcDbSpline
70
4
71
3
72
10
73
6
40
0
40
0
40
0
40
0
40
0.147172701768274
40
0.147172701768274
40
1
40
1
40
1
40
1
41
1
10
8.93590105047946
20
-38.7251482641528
30
0
41
1
10
8.93389906318174
20
-38.7255106385013
30
0
41
1
10
8.93193601942556
20
-38.725871047586
30
0
41
1
10
8.91897860770152
20
-38.7282848423621
30
0
41
1
10
8.90922545735071
20
-38.7302766722728
30
0
41
1
10
8.90108698763783
20
-38.7321403749872
30
0
0
SPLINE
5
242
100
AcDbEntity
8
1
62
256
6
ByLayer
370
13
48
1
60
0
100
AcDbSpline
70
4
71
3
72
8
73
4
40
0
40
0
40
0
40
0
40
1
40
1
40
1
40
1
41
1
10
5.1734420514712
20
-39.730293747724
30
0
41
1
10
5.17375221369531
20
-39.7248854376137
30
0
41
1
10
5.17412179376021
20
-39.7194593998073
30
0
41
1
10
5.17455762170925
20
-39.7140218791706
30
0
0
SPLINE
5
243
100
AcDbEntity
8
1
62
256
6
ByLayer
370
13
48
1
60
0
100
AcDbSpline
70
4
71
3
72
8
73
4
40
0
40
0
40
0
40
0
40
1
40
1
40
1
40
1
41
1
10
4.23951494905558
20
-40.1358136768824
30
0
41
1
10
4.23257303707396
20
-40.1901317622663
30
0
41
1
10
4.2298971527913
20
-40.2453684895892
30
0
41
1
10
4.2336620472781
20
-40.2999999999999
30
0
0
SPLINE
5
244
100
AcDbEntity
8
1
62
256
6
ByLayer
370
13
48
1
60
0
100
AcDbSpline
70
4
71
3
72
12
73
8
40
0
40
0
40
0
40
0
40
0.479946025428491
40
0.479946025428491
40
0.999912389962866
40
0.999912389962866
40
1
40
1
40
1
40
1
41
1
10
4.80577803918462
20
-37.3494567864937
30
0
41
1
10
4.76515445863589
20
-37.4505302440408
30
0
41
1
10
4.72471453714454
20
-37.5518248750018
30
0
41
1
10
4.6530269888778
20
-37.767471109021
30
0
41
1
10
4.62229742588917
20
-37.8828707362143
30
0
41
1
10
4.60497604613673
20
-37.9999604345994
30
0
41
1
10
4.60497312034582
20
-37.9999802173162
30
0
41
1
10
4.60497019429766
20
-38
30
0
0
SPLINE
5
245
100
AcDbEntity
8
1
62
256
6
ByLayer
370
13
48
1
60
0
100
AcDbSpline
70
4
71
3
72
8
73
4
40
0
40
0
40
0
40
0
40
1
40
1
40
1
40
1
41
1
10
4.56623928347759
20
-38.2326091072271
30
0
41
1
10
4.644345652044
20
-38.245639332193
30
0
41
1
10
4.72660259419257
20
-38.2587871946329
30
0
41
1
10
4.78901835537494
20
-38.268214749946
30
0
0
SPLINE
5
246
100
AcDbEntity
8
1
62
256
6
ByLayer
370
13
48
1
60
0
100
AcDbSpline
70
4
71
3
72
8
73
4
40
0
40
0
40
0
40
0
40
1
40
1
40
1
40
1
41
1
10
8.8086910031252
20
-39.1350906272079
30
0
41
1
10
8.7963374684935
20
-39.1262650834516
30
0
41
1
10
8.78387511607079
20
-39.1180112341903
30
0
41
1
10
8.77138718396756
20
-39.1104320378387
30
0
0
SPLINE
5
247
100
AcDbEntity
8
1
62
256
6
ByLayer
370
18
48
1
60
0
100
AcDbSpline
70
4
71
3
72
8
73
4
40
0
40
0
40
0
40
0
40
1
40
1
40
1
40
1
41
1
10
4.14196204702438
20
-37
30
0
41
1
10
4.13727227250016
20
-37.0155887599178
30
0
41
1
10
4.13451183067005
20
-37.0318866938357
30
0
41
1
10
4.13380127380029
20
-37.0481501043749
30
0
0
SPLINE
5
248
100
AcDbEntity
8
1
62
256
6
ByLayer
370
13
48
1
60
0
100
AcDbSpline
70
4
71
3
72
8
73
4
40
0
40
0
40
0
40
0
40
1
40
1
40
1
40
1
41
1
10
4.9835197529539
20
-39.5231502777687
30
0
41
1
10
4.98077379658091
20
-39.5305184819129
30
0
41
1
10
4.97808604078577
20
-39.5379082971913
30
0
41
1
10
4.97545633861807
20
-39.5453177155276
30
0
0
SPLINE
5
249
100
AcDbEntity
8
1
62
256
6
ByLayer
370
13
48
1
60
0
100
AcDbSpline
70
4
71
3
72
8
73
4
40
0
40
0
40
0
40
0
40
1
40
1
40
1
40
1
41
1
10
4.43882018383744
20
-39.5289237938151
30
0
41
1
10
4.43591658148623
20
-39.5358505532355
30
0
41
1
10
4.43299673174735
20
-39.542770402259
30
0
41
1
10
4.43006071591458
20
-39.5496832385472
30
0
0
SPLINE
5
24A
100
AcDbEntity
8
1
62
256
6
ByLayer
370
13
48
1
60
0
100
AcDbSpline
70
4
71
3
72
9
73
5
40
0
40
0
40
0
40
0
40
0.18613606862602
40
1
40
1
40
1
40
1
41
1
10
5.93090081376997
20
-40.5257417215668
30
0
41
1
10
5.96198146833569
20
-40.5302867577796
30
0
41
1
10
6.13058903825308
20
-40.5536398825763
30
0
41
1
10
6.30720823873895
20
-40.5711474610575
30
0
41
1
10
6.4539176054528
20
-40.5813002257187
30
0
0
SPLINE
5
24B
100
AcDbEntity
8
1
62
256
6
ByLayer
370
13
48
1
60
0
100
AcDbSpline
70
4
71
3
72
8
73
4
40
0
40
0
40
0
40
0
40
1
40
1
40
1
40
1
41
1
10
5.17268775309148
20
-39.7469132650767
30
0
41
1
10
5.17269055989661
20
-39.7467102912711
30
0
41
1
10
5.17269417892615
20
-39.7465073719164
30
0
41
1
10
5.17269859599432
20
-39.7463045145122
30
0
0
SPLINE
5
24C
100
AcDbEntity
8
1
62
256
6
ByLayer
370
13
48
1
60
0
100
AcDbSpline
70
4
71
3
72
8
73
4
40
0
40
0
40
0
40
0
40
1
40
1
40
1
40
1
41
1
10
9.23941175183754
20
-38.6887628171811
30
0
41
1
10
9.24468900747831
20
-38.6884006764784
30
0
41
1
10
9.24981639869179
20
-38.6880695059572
30
0
41
1
10
9.25477637789032
20
-38.6877704704758
30
0
0
SPLINE
5
24D
100
AcDbEntity
8
1
62
256
6
ByLayer
370
13
48
1
60
0
100
AcDbSpline
70
4
71
3
72
8
73
4
40
0
40
0
40
0
40
0
40
1
40
1
40
1
40
1
41
1
10
4.92802755337928
20
-39.7047794882309
30
0
41
1
10
4.92611066483445
20
-39.7125730847456
30
0
41
1
10
4.92424322290532
20
-39.7203743871262
30
0
41
1
10
4.92242249415753
20
-39.7281803124967
30
0
0
SPLINE
5
24E
100
AcDbEntity
8
1
62
256
6
ByLayer
370
13
48
1
60
0
100
AcDbSpline
70
4
71
3
72
8
73
4
40
0
40
0
40
0
40
0
40
1
40
1
40
1
40
1
41
1
10
5.16998729190499
20
-38.8144285509218
30
0
41
1
10
5.17237246839755
20
-38.8688285804819
30
0
41
1
10
5.17524582887967
20
-38.9232142213976
30
0
41
1
10
5.17877393381931
20
-38.9775484919094
30
0
0
SPLINE
5
24F
100
AcDbEntity
8
1
62
256
6
ByLayer
370
13
48
1
60
0
100
AcDbSpline
70
4
71
3
72
8
73
4
40
0
40
0
40
0
40
0
40
1
40
1
40
1
40
1
41
1
10
4.52554699255725
20
-39.1572341336389
30
0
41
1
10
4.5272624598185
20
-39.1824526033639
30
0
41
1
10
4.52876484424257
20
-39.2076870341285
30
0
41
1
10
4.53004514801043
20
-39.2329322187786
30
0
0
SPLINE
5
250
100
AcDbEntity
8
1
62
256
6
ByLayer
370
13
48
1
60
0
100
AcDbSpline
70
4
71
3
72
8
73
4
40
0
40
0
40
0
40
0
40
1
40
1
40
1
40
1
41
1
10
9.47868131533289
20
-39.0906987911262
30
0
41
1
10
9.48064701695012
20
-39.0574529942192
30
0
41
1
10
9.4823957656721
20
-39.0241932586177
30
0
41
1
10
9.4839352133252
20
-38.9909241915162
30
0
0
SPLINE
5
251
100
AcDbEntity
8
1
62
256
6
ByLayer
370
13
48
1
60
0
100
AcDbSpline
70
4
71
3
72
8
73
4
40
0
40
0
40
0
40
0
40
1
40
1
40
1
40
1
41
1
10
4.92109471998049
20
-39.7535224694942
30
0
41
1
10
4.92163445658321
20
-39.7541935305911
30
0
41
1
10
4.92217876029645
20
-39.7548648266207
30
0
41
1
10
4.92272758768129
20
-39.7555363061338
30
0
0
SPLINE
5
252
100
AcDbEntity
8
1
62
256
6
ByLayer
370
13
48
1
60
0
100
AcDbSpline
70
4
71
3
72
11
73
7
40
0
40
0
40
0
40
0
40
0.31634033295872
40
0.63268066591744
40
0.94902099887616
40
1
40
1
40
1
40
1
41
1
10
7
20
-38.65
30
0
41
1
10
6.79412631416145
20
-38.65
30
0
41
1
10
6.38239058333534
20
-38.65
30
0
41
1
10
5.80014122633119
20
-38.65
30
0
41
1
10
5.43018701660006
20
-38.65
30
0
41
1
10
5.25346118113143
20
-38.65
30
0
41
1
10
5.22937519847108
20
-38.65
30
0
0
SPLINE
5
253
100
AcDbEntity
8
1
62
256
6
ByLayer
370
18
48
1
60
0
100
AcDbSpline
70
4
71
3
72
12
73
8
40
0
40
0
40
0
40
0
40
0.319492598917539
40
0.319492598917539
40
0.639721012127947
40
0.639721012127947
40
1
40
1
40
1
40
1
41
1
10
4.01310495793243
20
-40.3
30
0
41
1
10
4.02473500223979
20
-40.3435362608082
30
0
41
1
10
4.04405836629229
20
-40.3856643725364
30
0
41
1
10
4.09480979111206
20
-40.4603290213913
30
0
41
1
10
4.12696102116021
20
-40.4938777650608
30
0
41
1
10
4.20387767441329
20
-40.551060437544
30
0
41
1
10
4.25108324737718
20
-40.5739349240157
30
0
41
1
10
4.30000000000001
20
-40.5869540414901
30
0
0
SPLINE
5
254
100
AcDbEntity
8
1
62
256
6
ByLayer
370
13
48
1
60
0
100
AcDbSpline
70
4
71
3
72
9
73
5
40
0
40
0
40
0
40
0
40
0.502056005627223
40
1
40
1
40
1
40
1
41
1
10
4.91170748670675
20
-38.7032376854617
30
0
41
1
10
4.88465046201
20
-38.7002005661405
30
0
41
1
10
4.83075801894896
20
-38.6941512025492
30
0
41
1
10
4.78391377601113
20
-38.6905540021711
30
0
41
1
10
4.76058796656932
20
-38.6887627978462
30
0
0
SPLINE
5
255
100
AcDbEntity
8
1
62
256
6
ByLayer
370
13
48
1
60
0
100
AcDbSpline
70
4
71
3
72
12
73
8
40
0
40
0
40
0
40
0
40
0.587045223615726
40
0.587045223615726
40
0.873404334263926
40
0.873404334263926
40
1
40
1
40
1
40
1
41
1
10
9.70000000000329
20
-40.4090128030826
30
0
41
1
10
9.71789204386758
20
-40.3909234472429
30
0
41
1
10
9.73638733925949
20
-40.3727062361441
30
0
41
1
10
9.75662480345989
20
-40.3405462388878
30
0
41
1
10
9.76181252746346
20
-40.3288003096613
30
0
41
1
10
9.76553565346484
20
-40.3111627787902
30
0
41
1
10
9.76619392574668
20
-40.3055765647838
30
0
41
1
10
9.76633795272193
20
-40.3
30
0
0
SPLINE
5
256
100
AcDbEntity
8
1
62
256
6
ByLayer
370
13
48
1
60
0
100
AcDbSpline
70
4
71
3
72
8
73
4
40
0
40
0
40
0
40
0
40
1
40
1
40
1
40
1
41
1
10
8.58593288653685
20
-36.9928470379229
30
0
41
1
10
8.58472933241353
20
-36.9876210092493
30
0
41
1
10
8.5835299157909
20
-36.9823958986584
30
0
41
1
10
8.58233471803271
20
-36.9771717426968
30
0
0
SPLINE
5
257
100
AcDbEntity
8
1
62
256
6
ByLayer
370
18
48
1
60
0
100
AcDbSpline
70
4
71
3
72
8
73
4
40
0
40
0
40
0
40
0
40
1
40
1
40
1
40
1
41
1
10
7.54583199063325
20
-40.5812906265149
30
0
41
1
10
7.71844500943465
20
-40.5838307160388
30
0
41
1
10
7.88742389202892
20
-40.5876787570157
30
0
41
1
10
8.04574557488081
20
-40.5931426148848
30
0
0
SPLINE
5
258
100
AcDbEntity
8
1
62
256
6
ByLayer
370
13
48
1
60
0
100
AcDbSpline
70
4
71
3
72
8
73
4
40
0
40
0
40
0
40
0
40
1
40
1
40
1
40
1
41
1
10
5.19111969352289
20
-39.1333151391335
30
0
41
1
10
5.19118255658293
20
-39.1339070074101
30
0
41
1
10
5.19124565764341
20
-39.1344988369518
30
0
41
1
10
5.19130899687792
20
-39.1350906272073
30
0
0
SPLINE
5
259
100
AcDbEntity
8
1
62
256
6
ByLayer
370
13
48
1
60
0
100
AcDbSpline
70
4
71
3
72
8
73
4
40
0
40
0
40
0
40
0
40
1
40
1
40
1
40
1
41
1
10
5.09754857616139
20
-39.132422271337
30
0
41
1
10
5.09755992445383
20
-39.1343929015704
30
0
41
1
10
5.09757240186582
20
-39.1363635087407
30
0
41
1
10
5.0975860164877
20
-39.1383340901905
30
0
0
SPLINE
5
25A
100
AcDbEntity
8
1
62
256
6
ByLayer
370
13
48
1
60
0
100
AcDbSpline
70
4
71
3
72
10
73
6
40
0
40
0
40
0
40
0
40
0.445562852045973
40
0.445562852045973
40
1
40
1
40
1
40
1
41
1
10
8.90260817753068
20
-39.0681116696245
30
0
41
1
10
8.90261105805089
20
-39.0537826107304
30
0
41
1
10
8.90259618589738
20
-39.0394526045083
30
0
41
1
10
8.90254106188965
20
-39.0072910939293
30
0
41
1
10
8.90249547302039
20
-38.9894592215656
30
0
41
1
10
8.90245168524967
20
-38.9716279354541
30
0
0
SPLINE
5
25B
100
AcDbEntity
8
1
62
256
6
ByLayer
370
18
48
1
60
0
100
AcDbSpline
70
4
71
3
72
10
73
6
40
0
40
0
40
0
40
0
40
0.951835912113433
40
0.951835912113433
40
1
40
1
40
1
40
1
41
1
10
5.19130899687443
20
-39.1350906272085
30
0
41
1
10
5.19090156150085
20
-39.1362575084262
30
0
41
1
10
5.19049290850086
20
-39.1374237051075
30
0
41
1
10
5.19006720895652
20
-39.1386504511153
30
0
41
1
10
5.1900466839412
20
-39.1387096166092
30
0
41
1
10
5.19002616315137
20
-39.1387687835788
30
0
0
SPLINE
5
25C
100
AcDbEntity
8
1
62
256
6
ByLayer
370
18
48
1
60
0
100
AcDbSpline
70
4
71
3
72
10
73
6
40
0
40
0
40
0
40
0
40
0.7750240996405
40
0.7750240996405
40
1
40
1
40
1
40
1
41
1
10
5.09803544205602
20
-39.1903913856543
30
0
41
1
10
5.09508448139968
20
-39.1963447568496
30
0
41
1
10
5.09202070129277
20
-39.2023841470655
30
0
41
1
10
5.08795537801848
20
-39.2102719594456
30
0
41
1
10
5.08703802040617
20
-39.2120593575571
30
0
41
1
10
5.08610436596177
20
-39.2138402616837
30
0
0
SPLINE
5
25D
100
AcDbEntity
8
1
62
256
6
ByLayer
370
13
48
1
60
0
100
AcDbSpline
70
4
71
3
72
8
73
4
40
0
40
0
40
0
40
0
40
1
40
1
40
1
40
1
41
1
10
5.11004242108234
20
-38.6310739318799
30
0
41
1
10
5.10447144437006
20
-38.6643148627437
30
0
41
1
10
5.10052668649794
20
-38.6981858751893
30
0
41
1
10
5.09891301236397
20
-38.7321403749877
30
0
0
SPLINE
5
25E
100
AcDbEntity
8
1
62
256
6
ByLayer
370
13
48
1
60
0
100
AcDbSpline
70
4
71
3
72
8
73
4
40
0
40
0
40
0
40
0
40
1
40
1
40
1
40
1
41
1
10
4.50607260353428
20
-39.949516358124
30
0
41
1
10
4.52278167304203
20
-39.904649409651
30
0
41
1
10
4.54004057568028
20
-39.8599854482607
30
0
41
1
10
4.55778232082358
20
-39.8155438239172
30
0
0
SPLINE
5
25F
100
AcDbEntity
8
1
62
256
6
ByLayer
370
13
48
1
60
0
100
AcDbSpline
70
4
71
3
72
8
73
4
40
0
40
0
40
0
40
0
40
1
40
1
40
1
40
1
41
1
10
9.55251803501378
20
-39.5081234667093
30
0
41
1
10
9.54964681674085
20
-39.5011826105127
30
0
41
1
10
9.54679186906625
20
-39.494234879972
30
0
41
1
10
9.54395322616344
20
-39.4872803977718
30
0
0
SPLINE
5
260
100
AcDbEntity
8
1
62
256
6
ByLayer
370
13
48
1
60
0
100
AcDbSpline
70
4
71
3
72
8
73
4
40
0
40
0
40
0
40
0
40
1
40
1
40
1
40
1
41
1
10
4.65156035309397
20
-39.5895465466143
30
0
41
1
10
4.65456031052707
20
-39.5823000018185
30
0
41
1
10
4.65755329533761
20
-39.575050017303
30
0
41
1
10
4.66053928827421
20
-39.5677966553318
30
0
0
SPLINE
5
261
100
AcDbEntity
8
1
62
256
6
ByLayer
370
13
48
1
60
0
100
AcDbSpline
70
4
71
3
72
8
73
4
40
0
40
0
40
0
40
0
40
1
40
1
40
1
40
1
41
1
10
9.03966632872752
20
-39.5901075129053
30
0
41
1
10
9.03725813409676
20
-39.582599916396
30
0
41
1
10
9.03479312653457
20
-39.5751088642765
30
0
41
1
10
9.03227053716358
20
-39.5676365699848
30
0
0
SPLINE
5
262
100
AcDbEntity
8
1
62
256
6
ByLayer
370
13
48
1
60
0
100
AcDbSpline
70
4
71
3
72
12
73
8
40
0
40
0
40
0
40
0
40
0.133997004843638
40
0.133997004843638
40
0.145469846309754
40
0.145469846309754
40
1
40
1
40
1
40
1
41
1
10
5.13627610408551
20
-38.2890217302607
30
0
41
1
10
5.14530125156193
20
-38.2559606001494
30
0
41
1
10
5.15511656366638
20
-38.2231278370484
30
0
41
1
10
5.16657230802869
20
-38.1878175198312
30
0
41
1
10
5.16748160241909
20
-38.1850336861356
30
0
41
1
10
5.23546895889021
20
-37.9782809122478
30
0
41
1
10
5.33286481622264
20
-37.7837735328535
30
0
41
1
10
5.44813959461408
20
-37.6129028909293
30
0
0
SPLINE
5
263
100
AcDbEntity
8
1
62
256
6
ByLayer
370
13
48
1
60
0
100
AcDbSpline
70
4
71
3
72
8
73
4
40
0
40
0
40
0
40
0
40
1
40
1
40
1
40
1
41
1
10
4.91101487614606
20
-39.7639112600577
30
0
41
1
10
4.90916026726086
20
-39.7680464246978
30
0
41
1
10
4.9073075330241
20
-39.7721821241731
30
0
41
1
10
4.90545670174757
20
-39.7763183605698
30
0
0
SPLINE
5
264
100
AcDbEntity
8
1
62
256
6
ByLayer
370
13
48
1
60
0
100
AcDbSpline
70
4
71
3
72
8
73
4
40
0
40
0
40
0
40
0
40
1
40
1
40
1
40
1
41
1
10
4.41214672111161
20
-40.2878589937233
30
0
41
1
10
4.41789139438569
20
-40.2451537056346
30
0
41
1
10
4.42695997810162
20
-40.2027360254064
30
0
41
1
10
4.43777316252525
20
-40.1608347348722
30
0
0
SPLINE
5
265
100
AcDbEntity
8
1
62
256
6
ByLayer
370
13
48
1
60
0
100
AcDbSpline
70
4
71
3
72
8
73
4
40
0
40
0
40
0
40
0
40
1
40
1
40
1
40
1
41
1
10
9.05994440618863
20
-39.6584451186158
30
0
41
1
10
9.05784796092533
20
-39.6507883351677
30
0
41
1
10
9.05569848959209
20
-39.6431427768363
30
0
41
1
10
9.05349427563164
20
-39.6355109932399
30
0
0
SPLINE
5
266
100
AcDbEntity
8
1
62
256
6
ByLayer
370
13
48
1
60
0
100
AcDbSpline
70
4
71
3
72
8
73
4
40
0
40
0
40
0
40
0
40
1
40
1
40
1
40
1
41
1
10
4.75694519829432
20
-39.2222385465933
30
0
41
1
10
4.7560549584569
20
-39.195711580666
30
0
41
1
10
4.75506718522885
20
-39.1691911256232
30
0
41
1
10
4.75398538324026
20
-39.1426803174654
30
0
0
SPLINE
5
267
100
AcDbEntity
8
1
62
256
6
ByLayer
370
18
48
1
60
0
100
AcDbSpline
70
4
71
3
72
18
73
14
40
0
40
0
40
0
40
0
40
0.563555519297564
40
0.563555519297564
40
0.706157369198542
40
0.706157369198542
40
0.84766570720418
40
0.84766570720418
40
0.908967419554955
40
0.908967419554955
40
0.960858955127962
40
0.960858955127962
40
1
40
1
40
1
40
1
41
1
10
8.83053120131899
20
-39.2113098780262
30
0
41
1
10
8.84630240223686
20
-39.2044138361006
30
0
41
1
10
8.86088606249618
20
-39.1970850046236
30
0
41
1
10
8.8774611795142
20
-39.1894447510552
30
0
41
1
10
8.88075981525134
20
-39.1879794952601
30
0
41
1
10
8.88717581731493
20
-39.185606990282
30
0
41
1
10
8.89033163828475
20
-39.1846227014504
30
0
41
1
10
8.89469777813798
20
-39.1845930337916
30
0
41
1
10
8.89601467503775
20
-39.1847861474796
30
0
41
1
10
8.89829652780406
20
-39.1858080943317
30
0
41
1
10
8.89930129816716
20
-39.1865597340579
30
0
41
1
10
8.90084012942393
20
-39.1883795657871
30
0
41
1
10
8.90144086397768
20
-39.1893348670587
30
0
41
1
10
8.90196455796072
20
-39.1903913856098
30
0
0
SPLINE
5
268
100
AcDbEntity
8
1
62
256
6
ByLayer
370
13
48
1
60
0
100
AcDbSpline
70
4
71
3
72
10
73
6
40
0
40
0
40
0
40
0
40
0.0762840566433824
40
0.0762840566433824
40
1
40
1
40
1
40
1
41
1
10
5.09481232557269
20
-39.9065084491738
30
0
41
1
10
5.09532025571826
20
-39.9054486723053
30
0
41
1
10
5.09582676733228
20
-39.9043872680981
30
0
41
1
10
5.10250344403423
20
-39.8904798567386
30
0
41
1
10
5.10889314801901
20
-39.8775721362027
30
0
41
1
10
5.11541268882161
20
-39.8648003373363
30
0
0
SPLINE
5
269
100
AcDbEntity
8
1
62
256
6
ByLayer
370
13
48
1
60
0
100
AcDbSpline
70
4
71
3
72
8
73
4
40
0
40
0
40
0
40
0
40
1
40
1
40
1
40
1
41
1
10
8.86769386367939
20
-35.8162067632696
30
0
41
1
10
8.86271497695492
20
-35.8150651835681
30
0
41
1
10
8.85772741199992
20
-35.8139832356739
30
0
41
1
10
8.852733517503
20
-35.8129617005957
30
0
0
SPLINE
5
26A
100
AcDbEntity
8
1
62
256
6
ByLayer
370
18
48
1
60
0
100
AcDbSpline
70
4
71
3
72
8
73
4
40
0
40
0
40
0
40
0
40
1
40
1
40
1
40
1
41
1
10
9.99936032655765
20
-40.1253841571116
30
0
41
1
10
9.99981362189811
20
-40.1502613325694
30
0
41
1
10
10.0000345545326
20
-40.1751438271316
30
0
41
1
10
10.0000230721854
20
-40.2000251289714
30
0
0
SPLINE
5
26B
100
AcDbEntity
8
1
62
256
6
ByLayer
370
13
48
1
60
0
100
AcDbSpline
70
4
71
3
72
8
73
4
40
0
40
0
40
0
40
0
40
1
40
1
40
1
40
1
41
1
10
4.6783724618839
20
-39.5242336007821
30
0
41
1
10
4.68133093012176
20
-39.5169658419914
30
0
41
1
10
4.68428242037152
20
-39.5096947817258
30
0
41
1
10
4.687226941266
20
-39.5024204932651
30
0
0
SPLINE
5
26C
100
AcDbEntity
8
1
62
256
6
ByLayer
370
13
48
1
60
0
100
AcDbSpline
70
4
71
3
72
8
73
4
40
0
40
0
40
0
40
0
40
1
40
1
40
1
40
1
41
1
10
9.24305480171927
20
-39.2222385465932
30
0
41
1
10
9.24213078315859
20
-39.2548819261954
30
0
41
1
10
9.24460073962587
20
-39.2878098311353
30
0
41
1
10
9.25038490708695
20
-39.319965552646
30
0
0
SPLINE
5
26D
100
AcDbEntity
8
1
62
256
6
ByLayer
370
13
48
1
60
0
100
AcDbSpline
70
4
71
3
72
8
73
4
40
0
40
0
40
0
40
0
40
1
40
1
40
1
40
1
41
1
10
8.90190408328505
20
-38.7521435364737
30
0
41
1
10
8.90168775983949
20
-38.7454721861246
30
0
41
1
10
8.90142405782649
20
-38.7388024261769
30
0
41
1
10
8.90111290321877
20
-38.7321353515756
30
0
0
SPLINE
5
26E
100
AcDbEntity
8
1
62
256
6
ByLayer
370
13
48
1
60
0
100
AcDbSpline
70
4
71
3
72
8
73
4
40
0
40
0
40
0
40
0
40
1
40
1
40
1
40
1
41
1
10
5.42051549330884
20
-36.9647023147842
30
0
41
1
10
5.41956656536757
20
-36.9688575812662
30
0
41
1
10
5.4186164869304
20
-36.9730140683332
30
0
41
1
10
5.41766528196732
20
-36.9771717426968
30
0
0
SPLINE
5
26F
100
AcDbEntity
8
1
62
256
6
ByLayer
370
13
48
1
60
0
100
AcDbSpline
70
4
71
3
72
8
73
4
40
0
40
0
40
0
40
0
40
1
40
1
40
1
40
1
41
1
10
4.49742522150862
20
-39.3824213915825
30
0
41
1
10
4.4947463435204
20
-39.3894472657437
30
0
41
1
10
4.49205140227022
20
-39.3964669282881
30
0
41
1
10
4.48934031300905
20
-39.4034802160183
30
0
0
SPLINE
5
270
100
AcDbEntity
8
1
62
256
6
ByLayer
370
13
48
1
60
0
100
AcDbSpline
70
4
71
3
72
8
73
4
40
0
40
0
40
0
40
0
40
1
40
1
40
1
40
1
41
1
10
5.18566352660125
20
-39.0718661171761
30
0
41
1
10
5.18734489805775
20
-39.0923701074299
30
0
41
1
10
5.18915664517488
20
-39.1128580907964
30
0
41
1
10
5.19111969352292
20
-39.1333151391335
30
0
0
SPLINE
5
271
100
AcDbEntity
8
1
62
256
6
ByLayer
370
13
48
1
60
0
100
AcDbSpline
70
4
71
3
72
8
73
4
40
0
40
0
40
0
40
0
40
1
40
1
40
1
40
1
41
1
10
9.09454329825246
20
-39.7763183605698
30
0
41
1
10
9.0926924669759
20
-39.7721821241731
30
0
41
1
10
9.09083973273917
20
-39.7680464246978
30
0
41
1
10
9.08898512385397
20
-39.7639112600577
30
0
0
SPLINE
5
272
100
AcDbEntity
8
1
62
256
6
ByLayer
370
13
48
1
60
0
100
AcDbSpline
70
4
71
3
72
8
73
4
40
0
40
0
40
0
40
0
40
1
40
1
40
1
40
1
41
1
10
9.54395322616142
20
-39.4872803977669
30
0
41
1
10
9.54111440198602
20
-39.4803254714617
30
0
41
1
10
9.53829186659618
20
-39.4733637546294
30
0
41
1
10
9.53548563031023
20
-39.4663953792872
30
0
0
SPLINE
5
273
100
AcDbEntity
8
1
62
256
6
ByLayer
370
13
48
1
60
0
100
AcDbSpline
70
4
71
1
72
4
73
2
40
0
40
0
40
1
40
1
41
1
10
4.14196204702438
20
-37
30
0
41
1
10
4.89412331593996
20
-37
30
0
0
SPLINE
5
274
100
AcDbEntity
8
1
62
256
6
ByLayer
370
18
48
1
60
0
100
AcDbSpline
70
4
71
3
72
8
73
4
40
0
40
0
40
0
40
0
40
1
40
1
40
1
40
1
41
1
10
5.17166041686954
20
-38.6456188726499
30
0
41
1
10
5.19111497451692
20
-38.6425811022887
30
0
41
1
10
5.20985188853209
20
-38.6395199887753
30
0
41
1
10
5.22778952203385
20
-38.6364488698075
30
0
0
SPLINE
5
275
100
AcDbEntity
8
1
62
256
6
ByLayer
370
18
48
1
60
0
100
AcDbSpline
70
4
71
3
72
12
73
8
40
0
40
0
40
0
40
0
40
0.517270320015116
40
0.517270320015116
40
0.978212487093878
40
0.978212487093878
40
1
40
1
40
1
40
1
41
1
10
5.16946879868053
20
-39.2113098780285
30
0
41
1
10
5.19029188676058
20
-39.237108132621
30
0
41
1
10
5.21443663580382
20
-39.26171436764
30
0
41
1
10
5.26122243520373
20
-39.3034972884388
30
0
41
1
10
5.28427342434534
20
-39.321667748258
30
0
41
1
10
5.30753367179409
20
-39.3382141724792
30
0
41
1
10
5.30857826691968
20
-39.3389544411017
30
0
41
1
10
5.30962267346371
20
-39.3396886118677
30
0
0
SPLINE
5
276
100
AcDbEntity
8
1
62
256
6
ByLayer
370
18
48
1
60
0
100
AcDbSpline
70
4
71
3
72
14
73
10
40
0
40
0
40
0
40
0
40
0.318886263131678
40
0.318886263131678
40
0.63838347587441
40
0.63838347587441
40
0.959645569304921
40
0.959645569304921
40
1
40
1
40
1
40
1
41
1
10
9.70000000000002
20
-40.5869801279459
30
0
41
1
10
9.74343993799869
20
-40.5754539604247
30
0
41
1
10
9.78549039003073
20
-40.5562550258379
30
0
41
1
10
9.86001927506902
20
-40.5057625909069
30
0
41
1
10
9.89350987389793
20
-40.473754857856
30
0
41
1
10
9.94752360224894
20
-40.4013253375134
30
0
41
1
10
9.96872224369113
20
-40.3598455791321
30
0
41
1
10
9.98391934921989
20
-40.3111202534395
30
0
41
1
10
9.98551824293884
20
-40.3055753626753
30
0
41
1
10
9.98699609893333
20
-40.3
30
0
0
SPLINE
5
277
100
AcDbEntity
8
1
62
256
6
ByLayer
370
13
48
1
60
0
100
AcDbSpline
70
4
71
3
72
8
73
4
40
0
40
0
40
0
40
0
40
1
40
1
40
1
40
1
41
1
10
8.81433647334313
20
-39.0718661171709
30
0
41
1
10
8.81691177309241
20
-39.0404608506527
30
0
41
1
10
8.8191830857609
20
-39.0090112369568
30
0
41
1
10
8.82122606634988
20
-38.9775484919209
30
0
0
SPLINE
5
278
100
AcDbEntity
8
1
62
256
6
ByLayer
370
13
48
1
60
0
100
AcDbSpline
70
4
71
3
72
20
73
16
40
0
40
0
40
0
40
0
40
0.0757314374928539
40
0.0757314374928539
40
0.281367462382476
40
0.281367462382476
40
0.435296429454482
40
0.435296429454482
40
0.612829509115955
40
0.612829509115955
40
0.791646515465603
40
0.791646515465603
40
0.979316934342293
40
0.979316934342293
40
1
40
1
40
1
40
1
41
1
10
8.05947351857907
20
-36.3153380276099
30
0
41
1
10
8.02126258532419
20
-36.267138878762
30
0
41
1
10
7.9805306744872
20
-36.2207152799762
30
0
41
1
10
7.8215022202709
20
-36.058441516045
30
0
41
1
10
7.68509706137203
20
-35.9553404206691
30
0
41
1
10
7.42297710245626
20
-35.8255041129298
30
0
41
1
10
7.30066673770884
20
-35.7851142026622
30
0
41
1
10
7.03346682466278
20
-35.741406527514
30
0
41
1
10
6.88379782088819
20
-35.7442585837055
30
0
41
1
10
6.59947480394851
20
-35.8018855964401
30
0
41
1
10
6.46070434582435
20
-35.8576535315815
30
0
41
1
10
6.2065074899956
20
-36.0105691898161
30
0
41
1
10
6.08898714509894
20
-36.1112991986696
30
0
41
1
10
5.97739129586935
20
-36.236338965623
30
0
41
1
10
5.96639872724163
20
-36.2490303069421
30
0
41
1
10
5.95559693959498
20
-36.261871652138
30
0
0
SPLINE
5
279
100
AcDbEntity
8
1
62
256
6
ByLayer
370
13
48
1
60
0
100
AcDbSpline
70
4
71
3
72
10
73
6
40
0
40
0
40
0
40
0
40
0.565105076028522
40
0.565105076028522
40
1
40
1
40
1
40
1
41
1
10
8.23269415829623
20
-37.061983131599
30
0
41
1
10
8.25012711628204
20
-37.1351844997325
30
0
41
1
10
8.27653619457644
20
-37.2061345186553
30
0
41
1
10
8.3361642096186
20
-37.3203955048542
30
0
41
1
10
8.36678830308657
20
-37.3670340951309
30
0
41
1
10
8.40083775989149
20
-37.408829342978
30
0
0
SPLINE
5
27A
100
AcDbEntity
8
1
62
256
6
ByLayer
370
13
48
1
60
0
100
AcDbSpline
70
4
71
3
72
8
73
4
40
0
40
0
40
0
40
0
40
1
40
1
40
1
40
1
41
1
10
4.687226941266
20
-39.5024204932651
30
0
41
1
10
4.69017174430323
20
-39.4951455074457
30
0
41
1
10
4.69310958499995
20
-39.4878672731079
30
0
41
1
10
4.69604048117262
20
-39.4805858669151
30
0
0
SPLINE
5
27B
100
AcDbEntity
8
1
62
256
6
ByLayer
370
13
48
1
60
0
100
AcDbSpline
70
4
71
3
72
8
73
4
40
0
40
0
40
0
40
0
40
1
40
1
40
1
40
1
41
1
10
5.25103265807334
20
-38.7915623806973
30
0
41
1
10
5.24787924266471
20
-38.7746799864671
30
0
41
1
10
5.24493028265709
20
-38.7577618906644
30
0
41
1
10
5.24218777911608
20
-38.7408158168117
30
0
0
SPLINE
5
27C
100
AcDbEntity
8
1
62
256
6
ByLayer
370
13
48
1
60
0
100
AcDbSpline
70
4
71
3
72
8
73
4
40
0
40
0
40
0
40
0
40
1
40
1
40
1
40
1
41
1
10
9.24862484946237
20
-39.0780203692055
30
0
41
1
10
9.24779780022791
20
-39.0995770884471
30
0
41
1
10
9.24692821694882
20
-39.12113064247
30
0
41
1
10
9.24601461675977
20
-39.1426803174654
30
0
0
SPLINE
5
27D
100
AcDbEntity
8
1
62
256
6
ByLayer
370
13
48
1
60
0
100
AcDbSpline
70
4
71
3
72
8
73
4
40
0
40
0
40
0
40
0
40
1
40
1
40
1
40
1
41
1
10
4.94650572436839
20
-39.6355109932399
30
0
41
1
10
4.94430151040794
20
-39.6431427768363
30
0
41
1
10
4.94215203907467
20
-39.6507883351677
30
0
41
1
10
4.94005559381139
20
-39.6584451186158
30
0
0
SPLINE
5
27E
100
AcDbEntity
8
1
62
256
6
ByLayer
370
13
48
1
60
0
100
AcDbSpline
70
4
71
3
72
8
73
4
40
0
40
0
40
0
40
0
40
1
40
1
40
1
40
1
41
1
10
9.22869579943131
20
-40.0592143058028
30
0
41
1
10
9.20695387150073
20
-40.0166193694879
30
0
41
1
10
9.18589672217007
20
-39.9736969440676
30
0
41
1
10
9.1653825379758
20
-39.9305699234432
30
0
0
SPLINE
5
27F
100
AcDbEntity
8
1
62
256
6
ByLayer
370
13
48
1
60
0
100
AcDbSpline
70
4
71
3
72
8
73
4
40
0
40
0
40
0
40
0
40
1
40
1
40
1
40
1
41
1
10
7.23861181598863
20
-34.6220305501845
30
0
41
1
10
7.2120323053459
20
-34.6448336258622
30
0
41
1
10
7.1830130064387
20
-34.6669217934163
30
0
41
1
10
7.151519615133
20
-34.6879774155725
30
0
0
SPLINE
5
280
100
AcDbEntity
8
1
62
256
6
ByLayer
370
13
48
1
60
0
100
AcDbSpline
70
4
71
3
72
8
73
4
40
0
40
0
40
0
40
0
40
1
40
1
40
1
40
1
41
1
10
8.66510219512813
20
-39.0208798836103
30
0
41
1
10
8.65791067797591
20
-39.0336199091963
30
0
41
1
10
8.65068715590246
20
-39.0463888361772
30
0
41
1
10
8.64342275361545
20
-39.0591730137738
30
0
0
SPLINE
5
281
100
AcDbEntity
8
1
62
256
6
ByLayer
370
13
48
1
60
0
100
AcDbSpline
70
4
71
3
72
10
73
6
40
0
40
0
40
0
40
0
40
0.0761117852937327
40
0.0761117852937327
40
1
40
1
40
1
40
1
41
1
10
5.09481232561851
20
-39.9065084491241
30
0
41
1
10
5.09387025939944
20
-39.9057979286698
30
0
41
1
10
5.0929279977594
20
-39.9050866931816
30
0
41
1
10
5.08055376354787
20
-39.8957243604834
30
0
41
1
10
5.06913009487877
20
-39.8868872774648
30
0
41
1
10
5.05787806482476
20
-39.8779887348242
30
0
0
SPLINE
5
282
100
AcDbEntity
8
1
62
256
6
ByLayer
370
13
48
1
60
0
100
AcDbSpline
70
4
71
3
72
8
73
4
40
0
40
0
40
0
40
0
40
1
40
1
40
1
40
1
41
1
10
5.00755824362997
20
-37.4249063417945
30
0
41
1
10
5.05054758404475
20
-37.2893370251233
30
0
41
1
10
5.08323361883953
20
-37.1473615103141
30
0
41
1
10
5.08678090013822
20
-37.0044717327584
30
0
0
SPLINE
5
283
100
AcDbEntity
8
1
62
256
6
ByLayer
370
13
48
1
60
0
100
AcDbSpline
70
4
71
3
72
8
73
4
40
0
40
0
40
0
40
0
40
1
40
1
40
1
40
1
41
1
10
8.99304264437509
20
-39.8363185748554
30
0
41
1
10
9.00737521499519
20
-39.8241734988697
30
0
41
1
10
9.02120617797488
20
-39.8120745424287
30
0
41
1
10
9.03417466711878
20
-39.8003567929701
30
0
0
SPLINE
5
284
100
AcDbEntity
8
1
62
256
6
ByLayer
370
13
48
1
60
0
100
AcDbSpline
70
4
71
3
72
8
73
4
40
0
40
0
40
0
40
0
40
1
40
1
40
1
40
1
41
1
10
9.07890528001954
20
-39.7535224694942
30
0
41
1
10
9.07836554341682
20
-39.7541935305911
30
0
41
1
10
9.07782123970355
20
-39.7548648266207
30
0
41
1
10
9.07727241231873
20
-39.7555363061338
30
0
0
SPLINE
5
285
100
AcDbEntity
8
1
62
256
6
ByLayer
370
13
48
1
60
0
100
AcDbSpline
70
4
71
3
72
26
73
22
40
0
40
0
40
0
40
0
40
0.0118737075175029
40
0.0118737075175029
40
0.0226461272404103
40
0.0226461272404103
40
0.0360264457090024
40
0.0360264457090024
40
0.0573861628740461
40
0.0573861628740461
40
0.0915323487363545
40
0.0915323487363545
40
0.146349722604986
40
0.146349722604986
40
0.235416431403924
40
0.235416431403924
40
0.385366672882143
40
0.385366672882143
40
0.502080648992031
40
0.502080648992031
40
1
40
1
40
1
40
1
41
1
10
5.85148473403612
20
-35.8330892411893
30
0
41
1
10
5.85060433287981
20
-35.8340704174731
30
0
41
1
10
5.84972362656316
20
-35.8350531667764
30
0
41
1
10
5.84803229141195
20
-35.8369454185622
30
0
41
1
10
5.84722138720227
20
-35.8378544587718
30
0
41
1
10
5.84540370462699
20
-35.8398961702836
30
0
41
1
10
5.84439701301039
20
-35.84102972537
30
0
41
1
10
5.84178419902233
20
-35.8439790481935
30
0
41
1
10
5.84017853901437
20
-35.8457986140224
30
0
41
1
10
5.83600887118044
20
-35.8505422435473
30
0
41
1
10
5.83344622901683
20
-35.8534758231572
30
0
41
1
10
5.82677895406221
20
-35.8611555707712
30
0
41
1
10
5.82267860820076
20
-35.8659255342081
30
0
41
1
10
5.811949041905
20
-35.8785306771218
30
0
41
1
10
5.80533450069655
20
-35.8864259188356
30
0
41
1
10
5.78771139546353
20
-35.9077959883218
30
0
41
1
10
5.7767613071349
20
-35.9214304082037
30
0
41
1
10
5.75761407146982
20
-35.9459101676066
30
0
41
1
10
5.74932885418042
20
-35.9567241347781
30
0
41
1
10
5.70692546307498
20
-36.0132344882074
30
0
41
1
10
5.67444349770796
20
-36.0606686986384
30
0
41
1
10
5.64695726076212
20
-36.1052192301255
30
0
0
SPLINE
5
286
100
AcDbEntity
8
1
62
256
6
ByLayer
370
13
48
1
60
0
100
AcDbSpline
70
4
71
3
72
10
73
6
40
0
40
0
40
0
40
0
40
0.253003115224058
40
0.253003115224058
40
1
40
1
40
1
40
1
41
1
10
5.6317120589851
20
-36.1663461399326
30
0
41
1
10
5.63330716320843
20
-36.1613297940146
30
0
41
1
10
5.63482986489043
20
-36.1562730926922
30
0
41
1
10
5.64053883449077
20
-36.1361687178615
30
0
41
1
10
5.64415191497645
20
-36.1208046412342
30
0
41
1
10
5.64695726076212
20
-36.1052192301255
30
0
0
SPLINE
5
287
100
AcDbEntity
8
1
62
256
6
ByLayer
370
13
48
1
60
0
100
AcDbSpline
70
4
71
3
72
8
73
4
40
0
40
0
40
0
40
0
40
1
40
1
40
1
40
1
41
1
10
4.96033367127231
20
-39.5901075129052
30
0
41
1
10
4.95791983146381
20
-39.5976327023415
30
0
41
1
10
4.95556288743174
20
-39.6051750867673
30
0
41
1
10
4.95326175723429
20
-39.6127323492319
30
0
0
SPLINE
5
288
100
AcDbEntity
8
1
62
256
6
ByLayer
370
13
48
1
60
0
100
AcDbSpline
70
4
71
3
72
8
73
4
40
0
40
0
40
0
40
0
40
1
40
1
40
1
40
1
41
1
10
4.51198979149234
20
-38.6759023479156
30
0
41
1
10
4.59439572348353
20
-38.6801469676241
30
0
41
1
10
4.68124858506084
20
-38.6845766370967
30
0
41
1
10
4.74524052376111
20
-38.687770978052
30
0
0
SPLINE
5
289
100
AcDbEntity
8
1
62
256
6
ByLayer
370
13
48
1
60
0
100
AcDbSpline
70
4
71
3
72
8
73
4
40
0
40
0
40
0
40
0
40
1
40
1
40
1
40
1
41
1
10
4.91764241347758
20
-39.7491544982285
30
0
41
1
10
4.91739985225863
20
-39.7496935155364
30
0
41
1
10
4.91715738759453
20
-39.7502325780362
30
0
41
1
10
4.91691501955987
20
-39.7507716856815
30
0
0
SPLINE
5
28A
100
AcDbEntity
8
1
62
256
6
ByLayer
370
13
48
1
60
0
100
AcDbSpline
70
4
71
3
72
8
73
4
40
0
40
0
40
0
40
0
40
1
40
1
40
1
40
1
41
1
10
9.25475784593252
20
-38.6877720844474
30
0
41
1
10
9.25574224656717
20
-38.7070761777234
30
0
41
1
10
9.25641040273464
20
-38.7263991381601
30
0
41
1
10
9.25676175608982
20
-38.7457249471383
30
0
0
SPLINE
5
28B
100
AcDbEntity
8
1
62
256
6
ByLayer
370
13
48
1
60
0
100
AcDbSpline
70
4
71
3
72
8
73
4
40
0
40
0
40
0
40
0
40
1
40
1
40
1
40
1
41
1
10
5.16828034616526
20
-38.7597714746036
30
0
41
1
10
5.16849831251326
20
-38.7779978148841
30
0
41
1
10
5.16906900584291
20
-38.7962239434943
30
0
41
1
10
5.1699872919053
20
-38.8144285509218
30
0
0
SPLINE
5
28C
100
AcDbEntity
8
1
62
256
6
ByLayer
370
13
48
1
60
0
100
AcDbSpline
70
4
71
3
72
8
73
4
40
0
40
0
40
0
40
0
40
1
40
1
40
1
40
1
41
1
10
9.04187747400181
20
-39.7932468780101
30
0
41
1
10
9.03935866386047
20
-39.7956228027206
30
0
41
1
10
9.03679009301229
20
-39.7979936105664
30
0
41
1
10
9.03417466711872
20
-39.8003567929701
30
0
0
SPLINE
5
28D
100
AcDbEntity
8
1
62
256
6
ByLayer
370
13
48
1
60
0
100
AcDbSpline
70
4
71
3
72
8
73
4
40
0
40
0
40
0
40
0
40
1
40
1
40
1
40
1
41
1
10
9.03227053716364
20
-39.5676365699848
30
0
41
1
10
9.02975262529898
20
-39.5601781291824
30
0
41
1
10
9.02717715247789
20
-39.5527378070835
30
0
41
1
10
9.02454366138181
20
-39.5453177155277
30
0
0
SPLINE
5
28E
100
AcDbEntity
8
1
62
256
6
ByLayer
370
13
48
1
60
0
100
AcDbSpline
70
4
71
3
72
8
73
4
40
0
40
0
40
0
40
0
40
1
40
1
40
1
40
1
41
1
10
8.82730140400571
20
-39.7463045145122
30
0
41
1
10
8.82730582107388
20
-39.7465073719164
30
0
41
1
10
8.82730944010342
20
-39.7467102912711
30
0
41
1
10
8.82731224690852
20
-39.7469132650767
30
0
0
SPLINE
5
28F
100
AcDbEntity
8
1
62
256
6
ByLayer
370
18
48
1
60
0
100
AcDbSpline
70
4
71
3
72
8
73
4
40
0
40
0
40
0
40
0
40
1
40
1
40
1
40
1
41
1
10
5.95425441222039
20
-40.5931425964415
30
0
41
1
10
6.11257609838171
20
-40.5876787380509
30
0
41
1
10
6.28155498669992
20
-40.5838307069815
30
0
41
1
10
6.45416801046952
20
-40.5812906265912
30
0
0
SPLINE
5
290
100
AcDbEntity
8
1
62
256
6
ByLayer
370
13
48
1
60
0
100
AcDbSpline
70
4
71
3
72
8
73
4
40
0
40
0
40
0
40
0
40
1
40
1
40
1
40
1
41
1
10
8.57948450669119
20
-36.9647023147842
30
0
41
1
10
8.5245785436025
20
-36.711538217683
30
0
41
1
10
8.4605806264463
20
-36.4635874231275
30
0
41
1
10
8.38571315827866
20
-36.2218692005293
30
0
0
SPLINE
5
291
100
AcDbEntity
8
1
62
256
6
ByLayer
370
13
48
1
60
0
100
AcDbSpline
70
4
71
3
72
8
73
4
40
0
40
0
40
0
40
0
40
1
40
1
40
1
40
1
41
1
10
5.35657724638457
20
-39.0591730137738
30
0
41
1
10
5.31491950229812
20
-39.0676714457117
30
0
41
1
10
5.27123814174584
20
-39.0851737575816
30
0
41
1
10
5.22861281603556
20
-39.1104320378298
30
0
0
SPLINE
5
292
100
AcDbEntity
8
1
62
256
6
ByLayer
370
13
48
1
60
0
100
AcDbSpline
70
4
71
3
72
8
73
4
40
0
40
0
40
0
40
0
40
1
40
1
40
1
40
1
41
1
10
4.5300451482012
20
-39.2329322201164
30
0
41
1
10
4.53094987898848
20
-39.2507718090994
30
0
41
1
10
4.53001973160454
20
-39.2688019284834
30
0
41
1
10
4.52728512033201
20
-39.2864533085229
30
0
0
SPLINE
5
293
100
AcDbEntity
8
1
62
256
6
ByLayer
370
13
48
1
60
0
100
AcDbSpline
70
4
71
3
72
8
73
4
40
0
40
0
40
0
40
0
40
1
40
1
40
1
40
1
41
1
10
9.90339057196371
20
-38
30
0
41
1
10
9.90487149184312
20
-38
30
0
41
1
10
9.90635241172254
20
-38
30
0
41
1
10
9.90783333160192
20
-38
30
0
0
SPLINE
5
294
100
AcDbEntity
8
1
62
256
6
ByLayer
370
13
48
1
60
0
100
AcDbSpline
70
4
71
3
72
8
73
4
40
0
40
0
40
0
40
0
40
1
40
1
40
1
40
1
41
1
10
4.44748196498531
20
-39.5081234667115
30
0
41
1
10
4.44461097065994
20
-39.5150637815396
30
0
41
1
10
4.44172369099275
20
-39.5219972614916
30
0
41
1
10
4.43882018383735
20
-39.5289237938153
30
0
0
SPLINE
5
295
100
AcDbEntity
8
1
62
256
6
ByLayer
370
13
48
1
60
0
100
AcDbSpline
70
4
71
3
72
8
73
4
40
0
40
0
40
0
40
0
40
1
40
1
40
1
40
1
41
1
10
9.4744530074428
20
-39.1572341336386
30
0
41
1
10
9.47596122298918
20
-39.1350623971359
30
0
41
1
10
9.47736961885471
20
-39.1128834357454
30
0
41
1
10
9.47868131526036
20
-39.0906987914786
30
0
0
SPLINE
5
296
100
AcDbEntity
8
1
62
256
6
ByLayer
370
13
48
1
60
0
100
AcDbSpline
70
4
71
3
72
8
73
4
40
0
40
0
40
0
40
0
40
1
40
1
40
1
40
1
41
1
10
4.5577823208296
20
-39.8155438239195
30
0
41
1
10
4.57550944239344
20
-39.7711387609177
30
0
41
1
10
4.59372459161179
20
-39.7269429780689
30
0
41
1
10
4.61240886459836
20
-39.6829919691138
30
0
0
SPLINE
5
297
100
AcDbEntity
8
1
62
256
6
ByLayer
370
13
48
1
60
0
100
AcDbSpline
70
4
71
3
72
10
73
6
40
0
40
0
40
0
40
0
40
0.999897275492532
40
0.999897275492532
40
1
40
1
40
1
40
1
41
1
10
8.25065744849499
20
-39.980331589594
30
0
41
1
10
8.19279466690654
20
-40.1630572606719
30
0
41
1
10
8.12956896098319
20
-40.3439707952222
30
0
41
1
10
8.0691797709701
20
-40.5256944163087
30
0
41
1
10
8.06917356757739
20
-40.5257130837922
30
0
41
1
10
8.06916736416244
20
-40.5257317512729
30
0
0
SPLINE
5
298
100
AcDbEntity
8
1
62
256
6
ByLayer
370
18
48
1
60
0
100
AcDbSpline
70
4
71
3
72
8
73
4
40
0
40
0
40
0
40
0
40
1
40
1
40
1
40
1
41
1
10
5.22782889307089
20
-38.6364412607261
30
0
41
1
10
5.2171215353203
20
-38.5237183249655
30
0
41
1
10
5.24586556679336
20
-38.4080154263125
30
0
41
1
10
5.25587635396784
20
-38.2961878440829
30
0
0
SPLINE
5
299
100
AcDbEntity
8
1
62
256
6
ByLayer
370
13
48
1
60
0
100
AcDbSpline
70
4
71
3
72
10
73
6
40
0
40
0
40
0
40
0
40
0.0008284803458377
40
0.0008284803458377
40
1
40
1
40
1
40
1
41
1
10
8.06900732912052
20
-40.5257362274199
30
0
41
1
10
8.06900092570049
20
-40.5257548496025
30
0
41
1
10
8.0689945222872
20
-40.5257734717842
30
0
41
1
10
8.06126516704413
20
-40.5482516004838
30
0
41
1
10
8.05351815951389
20
-40.5707019819771
30
0
41
1
10
8.04574562000403
20
-40.5931426257589
30
0
0
SPLINE
5
29A
100
AcDbEntity
8
1
62
256
6
ByLayer
370
13
48
1
60
0
100
AcDbSpline
70
4
71
3
72
14
73
10
40
0
40
0
40
0
40
0
40
0.0145259528164127
40
0.0145259528164127
40
0.325817690670902
40
0.325817690670902
40
0.675804538922668
40
0.675804538922668
40
1
40
1
40
1
40
1
41
1
10
5.25587635457185
20
-38.2961878425085
30
0
41
1
10
5.25472212349271
20
-38.2974369049592
30
0
41
1
10
5.25356070280245
20
-38.2986737185566
30
0
41
1
10
5.22780962667059
20
-38.3269577622835
30
0
41
1
10
5.20594365054561
20
-38.358836887333
30
0
41
1
10
5.1666501523253
20
-38.4295875729733
30
0
41
1
10
5.15026638306193
20
-38.470133331313
30
0
41
1
10
5.12581840554282
20
-38.5505974537135
30
0
41
1
10
5.11683307220619
20
-38.5905881272561
30
0
41
1
10
5.11004736807027
20
-38.6310712343537
30
0
0
SPLINE
5
29B
100
AcDbEntity
8
1
62
256
6
ByLayer
370
13
48
1
60
0
100
AcDbSpline
70
4
71
3
72
8
73
4
40
0
40
0
40
0
40
0
40
1
40
1
40
1
40
1
41
1
10
8.81042338481424
20
-39.6209469220189
30
0
41
1
10
8.81169470797707
20
-39.6259240337254
30
0
41
1
10
8.81288470261006
20
-39.6309178672316
30
0
41
1
10
8.81399556061362
20
-39.6359219030158
30
0
0
SPLINE
5
29C
100
AcDbEntity
8
1
62
256
6
ByLayer
370
13
48
1
60
0
100
AcDbSpline
70
4
71
3
72
8
73
4
40
0
40
0
40
0
40
0
40
1
40
1
40
1
40
1
41
1
10
8.58233471803271
20
-36.9771717426968
30
0
41
1
10
8.58138351306962
20
-36.9730140683332
30
0
41
1
10
8.58043343463245
20
-36.9688575812662
30
0
41
1
10
8.57948450669119
20
-36.9647023147842
30
0
0
SPLINE
5
29D
100
AcDbEntity
8
1
62
256
6
ByLayer
370
18
48
1
60
0
100
AcDbSpline
70
4
71
3
72
8
73
4
40
0
40
0
40
0
40
0
40
1
40
1
40
1
40
1
41
1
10
6.99999993382275
20
-40.5774062521179
30
0
41
1
10
7.18338679128584
20
-40.5774072248594
30
0
41
1
10
7.36805197541492
20
-40.5786607671738
30
0
41
1
10
7.54631421475119
20
-40.5812841794277
30
0
0
SPLINE
5
29E
100
AcDbEntity
8
1
62
256
6
ByLayer
370
13
48
1
60
0
100
AcDbSpline
70
4
71
3
72
8
73
4
40
0
40
0
40
0
40
0
40
1
40
1
40
1
40
1
41
1
10
5.16818049012977
20
-38.7411611560268
30
0
41
1
10
5.16817278622025
20
-38.7473645928929
30
0
41
1
10
5.16820613592111
20
-38.7535683222094
30
0
41
1
10
5.16828034616583
20
-38.7597714746036
30
0
0
SPLINE
5
29F
100
AcDbEntity
8
1
62
256
6
ByLayer
370
13
48
1
60
0
100
AcDbSpline
70
4
71
3
72
8
73
4
40
0
40
0
40
0
40
0
40
1
40
1
40
1
40
1
41
1
10
9.17298174358331
20
-38.0960412522587
30
0
41
1
10
9.18684137957138
20
-38.153132555155
30
0
41
1
10
9.19953170714263
20
-38.2105639578302
30
0
41
1
10
9.21114518886264
20
-38.2682038738256
30
0
0
SPLINE
5
2A0
100
AcDbEntity
8
1
62
256
6
ByLayer
370
13
48
1
60
0
100
AcDbSpline
70
4
71
3
72
8
73
4
40
0
40
0
40
0
40
0
40
1
40
1
40
1
40
1
41
1
10
9.25656870096563
20
-38.819320778088
30
0
41
1
10
9.25531619150357
20
-38.8732317120774
30
0
41
1
10
9.25381665764186
20
-38.9271346700752
30
0
41
1
10
9.25206253245298
20
-38.9810199560951
30
0
0
SPLINE
5
2A1
100
AcDbEntity
8
1
62
256
6
ByLayer
370
13
48
1
60
0
100
AcDbSpline
70
4
71
3
72
11
73
7
40
0
40
0
40
0
40
0
40
0.229785135224463
40
0.486390411751833
40
0.742823076866302
40
1
40
1
40
1
40
1
41
1
10
4.78893663035842
20
-38.2682087528674
30
0
41
1
10
4.81401833803386
20
-38.2697121489769
30
0
41
1
10
4.86710924886142
20
-38.2728944151057
30
0
41
1
10
4.96390005654072
20
-38.2786933225244
30
0
41
1
10
5.06223929145619
20
-38.2845856795524
30
0
41
1
10
5.11157333699018
20
-38.2875416189014
30
0
41
1
10
5.136276104085
20
-38.2890217302625
30
0
0
SPLINE
5
2A2
100
AcDbEntity
8
1
62
256
6
ByLayer
370
13
48
1
60
0
100
AcDbSpline
70
4
71
3
72
8
73
4
40
0
40
0
40
0
40
0
40
1
40
1
40
1
40
1
41
1
10
5.28610770758232
20
-38.9166804451044
30
0
41
1
10
5.2709166062117
20
-38.8764505849298
30
0
41
1
10
5.25903029599422
20
-38.8343792184332
30
0
41
1
10
5.25103265809636
20
-38.79156238069
30
0
0
SPLINE
5
2A3
100
AcDbEntity
8
1
62
256
6
ByLayer
370
13
48
1
60
0
100
AcDbSpline
70
4
71
3
72
8
73
4
40
0
40
0
40
0
40
0
40
1
40
1
40
1
40
1
41
1
10
8.81981667373802
20
-39.6665132813234
30
0
41
1
10
8.82064945410713
20
-39.6717187270973
30
0
41
1
10
8.82140585089084
20
-39.6769272366318
30
0
41
1
10
8.82209057101034
20
-39.6821324141415
30
0
0
SPLINE
5
2A4
100
AcDbEntity
8
1
62
256
6
ByLayer
370
18
48
1
60
0
100
AcDbSpline
70
4
71
3
72
8
73
4
40
0
40
0
40
0
40
0
40
1
40
1
40
1
40
1
41
1
10
5.85985615280788
20
-40.5954661228629
30
0
41
1
10
5.89195626687433
20
-40.5949794010984
30
0
41
1
10
5.92350373425995
20
-40.5942038367841
30
0
41
1
10
5.95425437034217
20
-40.5931425978868
30
0
0
SPLINE
5
2A5
100
AcDbEntity
8
1
62
256
6
ByLayer
370
13
48
1
60
0
100
AcDbSpline
70
4
71
3
72
8
73
4
40
0
40
0
40
0
40
0
40
1
40
1
40
1
40
1
41
1
10
9.59052473470652
20
-39.5974332539165
30
0
41
1
10
9.58878775837408
20
-39.5934630917035
30
0
41
1
10
9.58705608849385
20
-39.5894905615203
30
0
41
1
10
9.58532975167111
20
-39.5855156775869
30
0
0
SPLINE
5
2A6
100
AcDbEntity
8
1
62
256
6
ByLayer
370
13
48
1
60
0
100
AcDbSpline
70
4
71
3
72
8
73
4
40
0
40
0
40
0
40
0
40
1
40
1
40
1
40
1
41
1
10
4.70481295561063
20
-39.4587307350278
30
0
41
1
10
4.70773050916341
20
-39.4514417666613
30
0
41
1
10
4.71064115929693
20
-39.4441496661436
30
0
41
1
10
4.71354494182864
20
-39.436854516378
30
0
0
SPLINE
5
2A7
100
AcDbEntity
8
1
62
256
6
ByLayer
370
13
48
1
60
0
100
AcDbSpline
70
4
71
3
72
14
73
10
40
0
40
0
40
0
40
0
40
0.0165534603430757
40
0.0165534603430757
40
0.587389014307657
40
0.587389014307657
40
0.69285898076326
40
0.69285898076326
40
1
40
1
40
1
40
1
41
1
10
7.28331054153082
20
-34.6239821386885
30
0
41
1
10
7.28375704268691
20
-34.6235704603021
30
0
41
1
10
7.28420395918704
20
-34.6231527888559
30
0
41
1
10
7.29984760496276
20
-34.6083142224278
30
0
41
1
10
7.31524111429047
20
-34.5865486128447
30
0
41
1
10
7.33205829009972
20
-34.5539101328021
30
0
41
1
10
7.33467700353901
20
-34.5485503698171
30
0
41
1
10
7.34464069971247
20
-34.527057254551
30
0
41
1
10
7.35173442481459
20
-34.5092943657811
30
0
41
1
10
7.35834839659577
20
-34.490163090053
30
0
0
SPLINE
5
2A8
100
AcDbEntity
8
1
62
256
6
ByLayer
370
13
48
1
60
0
100
AcDbSpline
70
4
71
3
72
8
73
4
40
0
40
0
40
0
40
0
40
1
40
1
40
1
40
1
41
1
10
4.52728512033201
20
-39.2864533085229
30
0
41
1
10
4.52445170216774
20
-39.3047424676917
30
0
41
1
10
4.51974592568001
20
-39.322832963943
30
0
41
1
10
4.51331476733043
20
-39.3401710352723
30
0
0
SPLINE
5
2A9
100
AcDbEntity
8
1
62
256
6
ByLayer
370
13
48
1
60
0
100
AcDbSpline
70
4
71
3
72
8
73
4
40
0
40
0
40
0
40
0
40
1
40
1
40
1
40
1
41
1
10
9.51883941096142
20
-39.4244955588815
30
0
41
1
10
9.51609663966931
20
-39.4174968830692
30
0
41
1
10
9.51337008542211
20
-39.4104917166475
30
0
41
1
10
9.5106596869899
20
-39.4034802160155
30
0
0
SPLINE
5
2AA
100
AcDbEntity
8
1
62
256
6
ByLayer
370
13
48
1
60
0
100
AcDbSpline
70
4
71
3
72
8
73
4
40
0
40
0
40
0
40
0
40
1
40
1
40
1
40
1
41
1
10
9.33946071172579
20
-39.5677966553318
30
0
41
1
10
9.34244670466242
20
-39.575050017303
30
0
41
1
10
9.34543968947295
20
-39.5823000018185
30
0
41
1
10
9.34843964690606
20
-39.5895465466143
30
0
0
SPLINE
5
2AB
100
AcDbEntity
8
1
62
256
6
ByLayer
370
13
48
1
60
0
100
AcDbSpline
70
4
71
3
72
8
73
4
40
0
40
0
40
0
40
0
40
1
40
1
40
1
40
1
41
1
10
9.47271487966802
20
-39.2864533085229
30
0
41
1
10
9.46998026839549
20
-39.2688019284834
30
0
41
1
10
9.46905012101155
20
-39.2507718090994
30
0
41
1
10
9.46995485179883
20
-39.2329322201164
30
0
0
SPLINE
5
2AC
100
AcDbEntity
8
1
62
256
6
ByLayer
370
18
48
1
60
0
100
AcDbSpline
70
4
71
3
72
8
73
4
40
0
40
0
40
0
40
0
40
1
40
1
40
1
40
1
41
1
10
5.5
20
-40.5995702589143
30
0
41
1
10
5.58000081437342
20
-40.5987813698449
30
0
41
1
10
5.65986124075715
20
-40.597998753504
30
0
41
1
10
5.73725549776495
20
-40.5970865249753
30
0
0
SPLINE
5
2AD
100
AcDbEntity
8
1
62
256
6
ByLayer
370
18
48
1
60
0
100
AcDbSpline
70
4
71
3
72
8
73
4
40
0
40
0
40
0
40
0
40
1
40
1
40
1
40
1
41
1
10
8.04574562319294
20
-40.5931426165519
30
0
41
1
10
8.07649629763907
20
-40.5942038567045
30
0
41
1
10
8.1080438054816
20
-40.5949794212116
30
0
41
1
10
8.14014396114518
20
-40.5954661419978
30
0
0
SPLINE
5
2AE
100
AcDbEntity
8
1
62
256
6
ByLayer
370
18
48
1
60
0
100
AcDbSpline
70
4
71
3
72
8
73
4
40
0
40
0
40
0
40
0
40
1
40
1
40
1
40
1
41
1
10
8.58763969546752
20
-40.6
30
0
41
1
10
8.55840833704755
20
-40.6
30
0
41
1
10
8.52915825741934
20
-40.5998577899933
30
0
41
1
10
8.5
20
-40.5995702589276
30
0
0
SPLINE
5
2AF
100
AcDbEntity
8
1
62
256
6
ByLayer
370
13
48
1
60
0
100
AcDbSpline
70
4
71
3
72
8
73
4
40
0
40
0
40
0
40
0
40
1
40
1
40
1
40
1
41
1
10
9.3717684290869
20
-39.6454946127906
30
0
41
1
10
9.37351965789284
20
-39.6496645688001
30
0
41
1
10
9.37527318629077
20
-39.6538333548367
30
0
41
1
10
9.37702900463688
20
-39.6580009615612
30
0
0
SPLINE
5
2B0
100
AcDbEntity
8
1
62
256
6
ByLayer
370
13
48
1
60
0
100
AcDbSpline
70
4
71
3
72
8
73
4
40
0
40
0
40
0
40
0
40
1
40
1
40
1
40
1
41
1
10
8.82395989410929
20
-39.6979680340497
30
0
41
1
10
8.82452220868973
20
-39.7033278986483
30
0
41
1
10
8.82501431784968
20
-39.7086812682998
30
0
41
1
10
8.8254423782908
20
-39.7140218791706
30
0
0
SPLINE
5
2B1
100
AcDbEntity
8
1
62
256
6
ByLayer
370
13
48
1
60
0
100
AcDbSpline
70
4
71
3
72
12
73
8
40
0
40
0
40
0
40
0
40
0.0117976486322119
40
0.0588549034592494
40
0.247083922767399
40
0.6235419613837
40
1
40
1
40
1
40
1
41
1
10
8.86371660805008
20
-38.2890221669292
30
0
41
1
10
8.86306372268857
20
-38.2890612860014
30
0
41
1
10
8.86021209806174
20
-38.2892321474057
30
0
41
1
10
8.85164612188925
20
-38.289745396837
30
0
41
1
10
8.8270026471711
20
-38.2912219651965
30
0
41
1
10
8.79023397876739
20
-38.2934250413863
30
0
41
1
10
8.75963271458872
20
-38.2952585838946
30
0
41
1
10
8.74412364603234
20
-38.2961878440812
30
0
0
SPLINE
5
2B2
100
AcDbEntity
8
1
62
256
6
ByLayer
370
13
48
1
60
0
100
AcDbSpline
70
4
71
3
72
8
73
4
40
0
40
0
40
0
40
0
40
1
40
1
40
1
40
1
41
1
10
4.89437725625751
20
-39.8011366675815
30
0
41
1
10
4.8749440554426
20
-39.8444490533785
30
0
41
1
10
4.85504833998127
20
-39.8876182607099
30
0
41
1
10
4.83461746202426
20
-39.9305699234432
30
0
0
SPLINE
5
2B3
100
AcDbEntity
8
1
62
256
6
ByLayer
370
13
48
1
60
0
100
AcDbSpline
70
4
71
3
72
12
73
8
40
0
40
0
40
0
40
0
40
0.44930789930254
40
0.44930789930254
40
0.788927170829435
40
0.788927170829435
40
1
40
1
40
1
40
1
41
1
10
7.70859983488583
20
-34.5014441311707
30
0
41
1
10
7.71141342020516
20
-34.5113651374135
30
0
41
1
10
7.71478379147095
20
-34.5211171210792
30
0
41
1
10
7.72227553397528
20
-34.5376083150604
30
0
41
1
10
7.72604297783738
20
-34.5445838564559
30
0
41
1
10
7.73418832420674
20
-34.5545215284542
30
0
41
1
10
7.73788314561949
20
-34.5581131958233
30
0
41
1
10
7.74249696242586
20
-34.5605243087826
30
0
0
SPLINE
5
2B4
100
AcDbEntity
8
1
62
256
6
ByLayer
370
13
48
1
60
0
100
AcDbSpline
70
4
71
3
72
8
73
4
40
0
40
0
40
0
40
0
40
1
40
1
40
1
40
1
41
1
10
8.68664543709951
20
-38.9798988508422
30
0
41
1
10
8.68046108424767
20
-38.9926091789433
30
0
41
1
10
8.6739310603426
20
-39.0051147023053
30
0
41
1
10
8.6670695446949
20
-39.0173790825026
30
0
0
SPLINE
5
2B5
100
AcDbEntity
8
1
62
256
6
ByLayer
370
13
48
1
60
0
100
AcDbSpline
70
4
71
3
72
8
73
4
40
0
40
0
40
0
40
0
40
1
40
1
40
1
40
1
41
1
10
4.09213238757428
20
-38
30
0
41
1
10
4.09362473439495
20
-38
30
0
41
1
10
4.09511708121562
20
-38
30
0
41
1
10
4.09660942803632
20
-38
30
0
0
SPLINE
5
2B6
100
AcDbEntity
8
1
62
256
6
ByLayer
370
13
48
1
60
0
100
AcDbSpline
70
4
71
3
72
8
73
4
40
0
40
0
40
0
40
0
40
1
40
1
40
1
40
1
41
1
10
8.80190710655279
20
-39.5916290701336
30
0
41
1
10
8.80348514664266
20
-39.5964572596188
30
0
41
1
10
8.80498150770012
20
-39.601310757391
30
0
41
1
10
8.80639651082893
20
-39.60618321608
30
0
0
SPLINE
5
2B7
100
AcDbEntity
8
1
62
256
6
ByLayer
370
13
48
1
60
0
100
AcDbSpline
70
4
71
3
72
8
73
4
40
0
40
0
40
0
40
0
40
1
40
1
40
1
40
1
41
1
10
4.43777316252556
20
-40.1608347348723
30
0
41
1
10
4.45623724383466
20
-40.0892860767647
30
0
41
1
10
4.47969019919785
20
-40.0186870952114
30
0
41
1
10
4.50596266584333
20
-39.94946913131
30
0
0
SPLINE
5
2B8
100
AcDbEntity
8
1
62
256
6
ByLayer
370
13
48
1
60
0
100
AcDbSpline
70
4
71
3
72
8
73
4
40
0
40
0
40
0
40
0
40
1
40
1
40
1
40
1
41
1
10
5.11004670943222
20
-38.631075163795
30
0
41
1
10
5.12564586850272
20
-38.635554529254
30
0
41
1
10
5.14670189015436
20
-38.6405246353072
30
0
41
1
10
5.17167210210258
20
-38.6456212956711
30
0
0
SPLINE
5
2B9
100
AcDbEntity
8
1
62
256
6
ByLayer
370
13
48
1
60
0
100
AcDbSpline
70
4
71
3
72
8
73
4
40
0
40
0
40
0
40
0
40
1
40
1
40
1
40
1
41
1
10
9.36652171980833
20
-39.6329814138829
30
0
41
1
10
9.36826831943546
20
-39.6371536472928
30
0
41
1
10
9.37001722540765
20
-39.6413247168622
30
0
41
1
10
9.37176842908681
20
-39.6454946127906
30
0
0
SPLINE
5
2BA
100
AcDbEntity
8
1
62
256
6
ByLayer
370
13
48
1
60
0
100
AcDbSpline
70
4
71
3
72
8
73
4
40
0
40
0
40
0
40
0
40
1
40
1
40
1
40
1
41
1
10
4.40947526529158
20
-39.5974332539208
30
0
41
1
10
4.38899058782556
20
-39.6442545553436
30
0
41
1
10
4.36959713956989
20
-39.6915777637058
30
0
41
1
10
4.35133481390113
20
-39.7393259367936
30
0
0
SPLINE
5
2BB
100
AcDbEntity
8
1
62
256
6
ByLayer
370
13
48
1
60
0
100
AcDbSpline
70
4
71
3
72
12
73
8
40
0
40
0
40
0
40
0
40
0.854530153690246
40
0.854530153690246
40
0.866002995156362
40
0.866002995156362
40
1
40
1
40
1
40
1
41
1
10
8.55186040538595
20
-37.6129028909293
30
0
41
1
10
8.66713518377739
20
-37.7837735328535
30
0
41
1
10
8.76453104110982
20
-37.9782809122478
30
0
41
1
10
8.83251839758091
20
-38.1850336861356
30
0
41
1
10
8.83342769197134
20
-38.1878175198312
30
0
41
1
10
8.84488343633362
20
-38.2231278370484
30
0
41
1
10
8.85469874843807
20
-38.2559606001494
30
0
41
1
10
8.86372389591452
20
-38.2890217302607
30
0
0
SPLINE
5
2BC
100
AcDbEntity
8
1
62
256
6
ByLayer
370
13
48
1
60
0
100
AcDbSpline
70
4
71
3
72
8
73
4
40
0
40
0
40
0
40
0
40
1
40
1
40
1
40
1
41
1
10
4.48934031301013
20
-39.4034802160155
30
0
41
1
10
4.48662991457792
20
-39.4104917166475
30
0
41
1
10
4.48390336033071
20
-39.4174968830692
30
0
41
1
10
4.48116058903858
20
-39.4244955588815
30
0
0
SPLINE
5
2BD
100
AcDbEntity
8
1
62
256
6
ByLayer
370
13
48
1
60
0
100
AcDbSpline
70
4
71
3
72
12
73
8
40
0
40
0
40
0
40
0
40
0.457246059745221
40
0.457246059745221
40
0.79853660117001
40
0.79853660117001
40
1
40
1
40
1
40
1
41
1
10
7.15151961512967
20
-34.6879774155718
30
0
41
1
10
7.12491259250086
20
-34.7057661449508
30
0
41
1
10
7.08900369590043
20
-34.721504353541
30
0
41
1
10
7.01226383327673
20
-34.7407592089789
30
0
41
1
10
6.97417337381816
20
-34.7464803692961
30
0
41
1
10
6.90830060744466
20
-34.7496166024348
30
0
41
1
10
6.88234213977285
20
-34.74948076225
30
0
41
1
10
6.85573253932409
20
-34.7479073705877
30
0
0
SPLINE
5
2BE
100
AcDbEntity
8
1
62
256
6
ByLayer
370
13
48
1
60
0
100
AcDbSpline
70
4
71
3
72
8
73
4
40
0
40
0
40
0
40
0
40
1
40
1
40
1
40
1
41
1
10
5.73723849825407
20
-40.5970930975732
30
0
41
1
10
5.80422442222832
20
-40.5712490424292
30
0
41
1
10
5.86922423657245
20
-40.547312565751
30
0
41
1
10
5.93085384335384
20
-40.525793411817
30
0
0
SPLINE
5
2BF
100
AcDbEntity
8
1
62
256
6
ByLayer
370
18
48
1
60
0
100
AcDbSpline
70
4
71
3
72
8
73
4
40
0
40
0
40
0
40
0
40
1
40
1
40
1
40
1
41
1
10
5.25587635396784
20
-38.2961878440829
30
0
41
1
10
5.18872476152001
20
-38.4183885486939
30
0
41
1
10
5.17997961151829
20
-38.5182827945868
30
0
41
1
10
5.17131396502717
20
-38.6455903209915
30
0
0
SPLINE
5
2C0
100
AcDbEntity
8
1
62
256
6
ByLayer
370
13
48
1
60
0
100
AcDbSpline
70
4
71
3
72
8
73
4
40
0
40
0
40
0
40
0
40
1
40
1
40
1
40
1
41
1
10
9.28645505817138
20
-39.436854516378
30
0
41
1
10
9.2893588407031
20
-39.4441496661436
30
0
41
1
10
9.29226949083662
20
-39.4514417666613
30
0
41
1
10
9.29518704438939
20
-39.4587307350278
30
0
0
SPLINE
5
2C1
100
AcDbEntity
8
1
62
256
6
ByLayer
370
13
48
1
60
0
100
AcDbSpline
70
4
71
3
72
12
73
8
40
0
40
0
40
0
40
0
40
0.0165486677268194
40
0.0165486677268194
40
0.698261559142449
40
0.698261559142449
40
1
40
1
40
1
40
1
41
1
10
7.23861181598849
20
-34.6220305501844
30
0
41
1
10
7.23820289401198
20
-34.6215815232202
30
0
41
1
10
7.23779408054631
20
-34.621126489806
30
0
41
1
10
7.22090349879679
20
-34.602043826343
30
0
41
1
10
7.20501252006736
20
-34.5729124466402
30
0
41
1
10
7.18596883828729
20
-34.5201122841927
30
0
41
1
10
7.18054632165436
20
-34.5021346756154
30
0
41
1
10
7.17569775806973
20
-34.4828744692145
30
0
0
SPLINE
5
2C2
100
AcDbEntity
8
1
62
256
6
ByLayer
370
13
48
1
60
0
100
AcDbSpline
70
4
71
3
72
8
73
4
40
0
40
0
40
0
40
0
40
1
40
1
40
1
40
1
41
1
10
8.06914615664618
20
-40.525793411817
30
0
41
1
10
8.13077541782911
20
-40.5473124450786
30
0
41
1
10
8.19577484867509
20
-40.571248773889
30
0
41
1
10
8.26276037484146
20
-40.5970926627987
30
0
0
SPLINE
5
2C3
100
AcDbEntity
8
1
62
256
6
ByLayer
370
13
48
1
60
0
100
AcDbSpline
70
4
71
3
72
8
73
4
40
0
40
0
40
0
40
0
40
1
40
1
40
1
40
1
41
1
10
4.42496300118933
20
-39.5616408036898
30
0
41
1
10
4.4232582836936
20
-39.5656245728578
30
0
41
1
10
4.42154819593833
20
-39.569606006912
30
0
41
1
10
4.41983275956437
20
-39.5735850890822
30
0
0
SPLINE
5
2C4
100
AcDbEntity
8
1
62
256
6
ByLayer
370
13
48
1
60
0
100
AcDbSpline
70
4
71
3
72
8
73
4
40
0
40
0
40
0
40
0
40
1
40
1
40
1
40
1
41
1
10
4.75398538324026
20
-39.1426803174654
30
0
41
1
10
4.75307178305121
20
-39.12113064247
30
0
41
1
10
4.75220219977211
20
-39.0995770884471
30
0
41
1
10
4.75137515053765
20
-39.0780203692055
30
0
0
SPLINE
5
2C5
100
AcDbEntity
8
1
62
256
6
ByLayer
370
13
48
1
60
0
100
AcDbSpline
70
4
71
3
72
10
73
6
40
0
40
0
40
0
40
0
40
0.671649637539646
40
0.671649637539646
40
1
40
1
40
1
40
1
41
1
10
4.41547325480644
20
-40.3354471297938
30
0
41
1
10
4.41276428342582
20
-40.3250719873787
30
0
41
1
10
4.41126814969604
20
-40.3142838869193
30
0
41
1
10
4.41111536254977
20
-40.2983205038718
30
0
41
1
10
4.41144853006804
20
-40.2930492714346
30
0
41
1
10
4.41214672111153
20
-40.2878589937234
30
0
0
SPLINE
5
2C6
100
AcDbEntity
8
1
62
256
6
ByLayer
370
13
48
1
60
0
100
AcDbSpline
70
4
71
3
72
8
73
4
40
0
40
0
40
0
40
0
40
1
40
1
40
1
40
1
41
1
10
9.07727241231794
20
-39.7555363061483
30
0
41
1
10
9.06701224848618
20
-39.7680894292275
30
0
41
1
10
9.0550973988538
20
-39.7807768973381
30
0
41
1
10
9.04187747399936
20
-39.7932468780271
30
0
0
SPLINE
5
2C7
100
AcDbEntity
8
1
62
256
6
ByLayer
370
13
48
1
60
0
100
AcDbSpline
70
4
71
3
72
10
73
6
40
0
40
0
40
0
40
0
40
0.496989922909902
40
0.496989922909902
40
1
40
1
40
1
40
1
41
1
10
8.99244175636971
20
-37.4249063417947
30
0
41
1
10
9.02577422248604
20
-37.5247554234596
30
0
41
1
10
9.05968586345259
20
-37.6244506035879
30
0
41
1
10
9.11935831343695
20
-37.8281442161718
30
0
41
1
10
9.14531646758027
20
-37.9325205707173
30
0
41
1
10
9.16316731973424
20
-38.0380313022955
30
0
0
SPLINE
5
2C8
100
AcDbEntity
8
1
62
256
6
ByLayer
370
13
48
1
60
0
100
AcDbSpline
70
4
71
3
72
10
73
6
40
0
40
0
40
0
40
0
40
0.977341738729276
40
0.977341738729276
40
1
40
1
40
1
40
1
41
1
10
5.13901495728354
20
-37.4327828618976
30
0
41
1
10
5.01152648326683
20
-37.626805832268
30
0
41
1
10
4.90497772808408
20
-37.8480045111205
30
0
41
1
10
4.83039634340082
20
-38.0851102388762
30
0
41
1
10
4.82869833516477
20
-38.0905722459195
30
0
41
1
10
4.82701825641965
20
-38.0960412522594
30
0
0
SPLINE
5
2C9
100
AcDbEntity
8
1
62
256
6
ByLayer
370
13
48
1
60
0
100
AcDbSpline
70
4
71
3
72
8
73
4
40
0
40
0
40
0
40
0
40
1
40
1
40
1
40
1
41
1
10
9.08898512385352
20
-39.7639112600579
30
0
41
1
10
9.0871302858562
20
-39.7597755858061
30
0
41
1
10
9.08527357168012
20
-39.7556404436165
30
0
41
1
10
9.08341501019046
20
-39.751505831046
30
0
0
SPLINE
5
2CA
100
AcDbEntity
8
1
62
256
6
ByLayer
370
18
48
1
60
0
100
AcDbSpline
70
4
71
3
72
8
73
4
40
0
40
0
40
0
40
0
40
1
40
1
40
1
40
1
41
1
10
4.94640503589045
20
-40.1760620927764
30
0
41
1
10
4.88226403806124
20
-40.1373250311478
30
0
41
1
10
4.81834491817051
20
-40.0947458789442
30
0
41
1
10
4.77142676481435
20
-40.0592629624681
30
0
0
SPLINE
5
2CB
100
AcDbEntity
8
1
62
256
6
ByLayer
370
13
48
1
60
0
100
AcDbSpline
70
4
71
3
72
10
73
6
40
0
40
0
40
0
40
0
40
0.444735918194378
40
0.444735918194378
40
1
40
1
40
1
40
1
41
1
10
8.90245168515429
20
-38.971627935454
30
0
41
1
10
8.90239318682782
20
-38.9478061875936
30
0
41
1
10
8.90233794894462
20
-38.9239850573845
30
0
41
1
10
8.90231647340505
20
-38.8704242585479
30
0
41
1
10
8.90237686715633
20
-38.8406842618644
30
0
41
1
10
8.90258745346688
20
-38.8109443135566
30
0
0
SPLINE
5
2CC
100
AcDbEntity
8
1
62
256
6
ByLayer
370
13
48
1
60
0
100
AcDbSpline
70
4
71
3
72
8
73
4
40
0
40
0
40
0
40
0
40
1
40
1
40
1
40
1
41
1
10
5.057878064828
20
-39.877988734826
30
0
41
1
10
5.04046097001265
20
-39.8642146234362
30
0
41
1
10
5.02329473720496
20
-39.8501624840576
30
0
41
1
10
5.00695735561618
20
-39.8363185748499
30
0
0
SPLINE
5
2CD
100
AcDbEntity
8
1
62
256
6
ByLayer
370
18
48
1
60
0
100
AcDbSpline
70
4
71
3
72
8
73
4
40
0
40
0
40
0
40
0
40
1
40
1
40
1
40
1
41
1
10
8.14014216304818
20
-40.5954643317178
30
0
41
1
10
8.18021401030529
20
-40.5960721399628
30
0
41
1
10
8.22122022709112
20
-40.59660225325
30
0
41
1
10
8.26276913190588
20
-40.5970914593061
30
0
0
SPLINE
5
2CE
100
AcDbEntity
8
1
62
256
6
ByLayer
370
13
48
1
60
0
100
AcDbSpline
70
4
71
3
72
8
73
4
40
0
40
0
40
0
40
0
40
1
40
1
40
1
40
1
41
1
10
9.76048505094553
20
-40.135813676882
30
0
41
1
10
9.74939235071105
20
-40.0496557028996
30
0
41
1
10
9.72787611274688
20
-39.9645588867477
30
0
41
1
10
9.69951772627067
20
-39.882516190279
30
0
0
SPLINE
5
2CF
100
AcDbEntity
8
1
62
256
6
ByLayer
370
13
48
1
60
0
100
AcDbSpline
70
4
71
3
72
22
73
18
40
0
40
0
40
0
40
0
40
0.024056360938814
40
0.024056360938814
40
0.223170719546322
40
0.223170719546322
40
0.426944695423133
40
0.426944695423133
40
0.499598923054341
40
0.499598923054341
40
0.586244542315605
40
0.586244542315605
40
0.793171827106043
40
0.793171827106043
40
0.890047315178981
40
0.890047315178981
40
1
40
1
40
1
40
1
41
1
10
5.59916224010854
20
-37.408829342978
30
0
41
1
10
5.61617669395062
20
-37.4098416838871
30
0
41
1
10
5.63356155362305
20
-37.4111311966218
30
0
41
1
10
5.79646034448626
20
-37.425471729484
30
0
41
1
10
5.96668875766093
20
-37.4571056392869
30
0
41
1
10
6.33624474373963
20
-37.5492713465278
30
0
41
1
10
6.53879098394657
20
-37.6182971404776
30
0
41
1
10
6.83442564998464
20
-37.6887477164396
30
0
41
1
10
6.91729252455121
20
-37.7034140431195
30
0
41
1
10
7.09810996671476
20
-37.7034140431195
30
0
41
1
10
7.1960602439294
20
-37.6828311201533
30
0
41
1
10
7.50509565137406
20
-37.6030927648219
30
0
41
1
10
7.70880566065244
20
-37.5364679202331
30
0
41
1
10
7.98384333718499
20
-37.470495159733
30
0
41
1
10
8.06871388451873
20
-37.4527578326494
30
0
41
1
10
8.23906763367756
20
-37.4237140355628
30
0
41
1
10
8.3238593740154
20
-37.4134094705484
30
0
41
1
10
8.40083775989149
20
-37.408829342978
30
0
0
SPLINE
5
2D0
100
AcDbEntity
8
1
62
256
6
ByLayer
370
13
48
1
60
0
100
AcDbSpline
70
4
71
3
72
8
73
4
40
0
40
0
40
0
40
0
40
1
40
1
40
1
40
1
41
1
10
5.17369966832445
20
-39.7594785615588
30
0
41
1
10
5.17358151025448
20
-39.7588569761846
30
0
41
1
10
5.17347501182056
20
-39.7582339340971
30
0
41
1
10
5.17337942636257
20
-39.7576101156604
30
0
0
SPLINE
5
2D1
100
AcDbEntity
8
1
62
256
6
ByLayer
370
18
48
1
60
0
100
AcDbSpline
70
4
71
3
72
12
73
8
40
0
40
0
40
0
40
0
40
0.473188120093464
40
0.473188120093464
40
0.762428297819199
40
0.762428297819199
40
1
40
1
40
1
40
1
41
1
10
9.90783333160192
20
-38
30
0
41
1
10
9.90128503493375
20
-37.8500193483707
30
0
41
1
10
9.89472090447111
20
-37.7000394035795
30
0
41
1
10
9.88414234040403
20
-37.4583831346807
30
0
41
1
10
9.88012871508607
20
-37.3667067271491
30
0
41
1
10
9.87282326938401
20
-37.1997303057052
30
0
41
1
10
9.86953057408198
20
-37.1244303315441
30
0
41
1
10
9.86624131878429
20
-37.0491302033296
30
0
0
SPLINE
5
2D2
100
AcDbEntity
8
1
62
256
6
ByLayer
370
13
48
1
60
0
100
AcDbSpline
70
4
71
3
72
8
73
4
40
0
40
0
40
0
40
0
40
1
40
1
40
1
40
1
41
1
10
4.64254020949366
20
-39.6112743152022
30
0
41
1
10
4.64555388536192
20
-39.6040351840507
30
0
41
1
10
4.64856060940798
20
-39.5967925750812
30
0
41
1
10
4.65156035309397
20
-39.5895465466143
30
0
0
SPLINE
5
2D3
100
AcDbEntity
8
1
62
256
6
ByLayer
370
13
48
1
60
0
100
AcDbSpline
70
4
71
3
72
8
73
4
40
0
40
0
40
0
40
0
40
1
40
1
40
1
40
1
41
1
10
8.91321909986181
20
-37.0044717327584
30
0
41
1
10
8.9167663811605
20
-37.1473615103141
30
0
41
1
10
8.94945241595528
20
-37.2893370251233
30
0
41
1
10
8.99244175637006
20
-37.4249063417945
30
0
0
SPLINE
5
2D4
100
AcDbEntity
8
1
62
256
6
ByLayer
370
13
48
1
60
0
100
AcDbSpline
70
4
71
3
72
11
73
7
40
0
40
0
40
0
40
0
40
0.0509790011238405
40
0.36731933408256
40
0.68365966704128
40
1
40
1
40
1
40
1
41
1
10
8.77062480152895
20
-38.65
30
0
41
1
10
8.7465388188686
20
-38.65
30
0
41
1
10
8.56981298339997
20
-38.65
30
0
41
1
10
8.19985877366884
20
-38.65
30
0
41
1
10
7.61760941666469
20
-38.65
30
0
41
1
10
7.20587368583858
20
-38.65
30
0
41
1
10
7
20
-38.65
30
0
0
SPLINE
5
2D5
100
AcDbEntity
8
1
62
256
6
ByLayer
370
13
48
1
60
0
100
AcDbSpline
70
4
71
3
72
10
73
6
40
0
40
0
40
0
40
0
40
0.905448857482973
40
0.905448857482973
40
1
40
1
40
1
40
1
41
1
10
8.58763969547991
20
-40.5999999999717
30
0
41
1
10
8.67417804651882
20
-40.4020816177212
30
0
41
1
10
8.75940941167312
20
-40.2033710982749
30
0
41
1
10
8.84198778966947
20
-39.9796373246759
30
0
41
1
10
8.84968783469611
20
-39.9584306129507
30
0
41
1
10
8.8572662551141
20
-39.9371816925958
30
0
0
SPLINE
5
2D6
100
AcDbEntity
8
1
62
256
6
ByLayer
370
13
48
1
60
0
100
AcDbSpline
70
4
71
3
72
10
73
6
40
0
40
0
40
0
40
0
40
0.491307620910544
40
0.491307620910544
40
1
40
1
40
1
40
1
41
1
10
8.90196455794398
20
-39.1903913856543
30
0
41
1
10
8.90205304562642
20
-39.1818655754359
30
0
41
1
10
8.90213413528926
20
-39.1733399423986
30
0
41
1
10
8.90228437518502
20
-39.1559874722113
30
0
41
1
10
8.90235300150283
20
-39.1471606305851
30
0
41
1
10
8.90241398350886
20
-39.1383340901891
30
0
0
SPLINE
5
2D7
100
AcDbEntity
8
1
62
256
6
ByLayer
370
13
48
1
60
0
100
AcDbSpline
70
4
71
3
72
8
73
4
40
0
40
0
40
0
40
0
40
1
40
1
40
1
40
1
41
1
10
5.17455762170923
20
-39.7140218791706
30
0
41
1
10
5.17498568215035
20
-39.7086812682998
30
0
41
1
10
5.1754777913103
20
-39.7033278986483
30
0
41
1
10
5.17604010589073
20
-39.6979680340497
30
0
0
SPLINE
5
2D8
100
AcDbEntity
8
1
62
256
6
ByLayer
370
13
48
1
60
0
100
AcDbSpline
70
4
71
3
72
8
73
4
40
0
40
0
40
0
40
0
40
1
40
1
40
1
40
1
41
1
10
4.69604048117264
20
-39.4805858669152
30
0
41
1
10
4.69897156728234
20
-39.4733039881168
30
0
41
1
10
4.70189571646594
20
-39.4660189175328
30
0
41
1
10
4.70481295561066
20
-39.4587307350278
30
0
0
SPLINE
5
2D9
100
AcDbEntity
8
1
62
256
6
ByLayer
370
13
48
1
60
0
100
AcDbSpline
70
4
71
3
72
8
73
4
40
0
40
0
40
0
40
0
40
1
40
1
40
1
40
1
41
1
10
8.69037732653629
20
-39.3396886118677
30
0
41
1
10
8.71018793044883
20
-39.381937874527
30
0
41
1
10
8.7345583143962
20
-39.4282116293392
30
0
41
1
10
8.75652360683114
20
-39.4763488059907
30
0
0
SPLINE
5
2DA
100
AcDbEntity
8
1
62
256
6
ByLayer
370
18
48
1
60
0
100
AcDbSpline
70
4
71
3
72
8
73
4
40
0
40
0
40
0
40
0
40
1
40
1
40
1
40
1
41
1
10
9.86624131878429
20
-37.0491302033296
30
0
41
1
10
9.86551649750285
20
-37.032537044549
30
0
41
1
10
9.86271494489216
20
-37.0159071548908
30
0
41
1
10
9.85793784163587
20
-37
30
0
0
SPLINE
5
2DB
100
AcDbEntity
8
1
62
256
6
ByLayer
370
13
48
1
60
0
100
AcDbSpline
70
4
71
3
72
8
73
4
40
0
40
0
40
0
40
0
40
1
40
1
40
1
40
1
41
1
10
4.8999108727854
20
-39.7887266056559
30
0
41
1
10
4.8980643975332
20
-39.7928627483197
30
0
41
1
10
4.89621984964583
20
-39.796999435178
30
0
41
1
10
4.89437725625763
20
-39.8011366675816
30
0
0
SPLINE
5
2DC
100
AcDbEntity
8
1
62
256
6
ByLayer
370
18
48
1
60
0
100
AcDbSpline
70
4
71
3
72
12
73
8
40
0
40
0
40
0
40
0
40
0.0217875129061179
40
0.0217875129061179
40
0.482729679984895
40
0.482729679984895
40
1
40
1
40
1
40
1
41
1
10
8.69037732653632
20
-39.3396886118677
30
0
41
1
10
8.69142173308035
20
-39.3389544411017
30
0
41
1
10
8.69246632820591
20
-39.3382141724792
30
0
41
1
10
8.71572657565471
20
-39.3216677482581
30
0
41
1
10
8.73877756479629
20
-39.3034972884388
30
0
41
1
10
8.78556336419624
20
-39.26171436764
30
0
41
1
10
8.80970811323945
20
-39.237108132621
30
0
41
1
10
8.8305312013195
20
-39.2113098780285
30
0
0
SPLINE
5
2DD
100
AcDbEntity
8
1
62
256
6
ByLayer
370
13
48
1
60
0
100
AcDbSpline
70
4
71
3
72
8
73
4
40
0
40
0
40
0
40
0
40
1
40
1
40
1
40
1
41
1
10
5.09809591671495
20
-38.7521435364737
30
0
41
1
10
5.09746068402538
20
-38.7717331200064
30
0
41
1
10
5.09723372605498
20
-38.7913424452924
30
0
41
1
10
5.09741254653301
20
-38.8109443135566
30
0
0
SPLINE
5
2DE
100
AcDbEntity
8
1
62
256
6
ByLayer
370
13
48
1
60
0
100
AcDbSpline
70
4
71
3
72
8
73
4
40
0
40
0
40
0
40
0
40
1
40
1
40
1
40
1
41
1
10
4.62823157091321
20
-39.6454946127906
30
0
41
1
10
4.62998277459238
20
-39.6413247168622
30
0
41
1
10
4.63173168056457
20
-39.6371536472928
30
0
41
1
10
4.6334782801917
20
-39.6329814138829
30
0
0
SPLINE
5
2DF
100
AcDbEntity
8
1
62
256
6
ByLayer
370
13
48
1
60
0
100
AcDbSpline
70
4
71
3
72
8
73
4
40
0
40
0
40
0
40
0
40
1
40
1
40
1
40
1
41
1
10
5.33489780486229
20
-39.0208798836219
30
0
41
1
10
5.33423987407082
20
-39.0197143360831
30
0
41
1
10
5.33358408914128
20
-39.0185473978274
30
0
41
1
10
5.33293045530479
20
-39.0173790825029
30
0
0
SPLINE
5
2E0
100
AcDbEntity
8
1
62
256
6
ByLayer
370
13
48
1
60
0
100
AcDbSpline
70
4
71
3
72
8
73
4
40
0
40
0
40
0
40
0
40
1
40
1
40
1
40
1
41
1
10
8.88458731117973
20
-39.8648003373389
30
0
41
1
10
8.87453648882209
20
-39.8451107479208
30
0
41
1
10
8.86406986819188
20
-39.8255504098525
30
0
41
1
10
8.85361789089714
20
-39.806816810296
30
0
0
SPLINE
5
2E1
100
AcDbEntity
8
1
62
256
6
ByLayer
370
13
48
1
60
0
100
AcDbSpline
70
4
71
3
72
8
73
4
40
0
40
0
40
0
40
0
40
1
40
1
40
1
40
1
41
1
10
9.08829252501758
20
-38.703237684077
30
0
41
1
10
9.14118185900281
20
-38.696973049112
30
0
41
1
10
9.19551191017331
20
-38.6917684825363
30
0
41
1
10
9.23941175183754
20
-38.6887628171811
30
0
0
SPLINE
5
2E2
100
AcDbEntity
8
1
62
256
6
ByLayer
370
13
48
1
60
0
100
AcDbSpline
70
4
71
3
72
8
73
4
40
0
40
0
40
0
40
0
40
1
40
1
40
1
40
1
41
1
10
9.44221767917645
20
-39.8155438239172
30
0
41
1
10
9.45995942431975
20
-39.8599854482607
30
0
41
1
10
9.477218326958
20
-39.904649409651
30
0
41
1
10
9.49392739646575
20
-39.949516358124
30
0
0
SPLINE
5
2E3
100
AcDbEntity
8
1
62
256
6
ByLayer
370
13
48
1
60
0
100
AcDbSpline
70
4
71
3
72
8
73
4
40
0
40
0
40
0
40
0
40
1
40
1
40
1
40
1
41
1
10
8.8536178908968
20
-39.8068168102954
30
0
41
1
10
8.84447683558273
20
-39.7904328415089
30
0
41
1
10
8.83525688253275
20
-39.7745142858403
30
0
41
1
10
8.82630033168013
20
-39.7594785615561
30
0
0
SPLINE
5
2E4
100
AcDbEntity
8
1
62
256
6
ByLayer
370
18
48
1
60
0
100
AcDbSpline
70
4
71
3
72
8
73
4
40
0
40
0
40
0
40
0
40
1
40
1
40
1
40
1
41
1
10
3.99996709297778
20
-40.2000253230699
30
0
41
1
10
3.9999507158833
20
-40.1751436458835
30
0
41
1
10
4.0001667654785
20
-40.1502607301229
30
0
41
1
10
4.00061519341236
20
-40.1253830882904
30
0
0
SPLINE
5
2E5
100
AcDbEntity
8
1
62
256
6
ByLayer
370
13
48
1
60
0
100
AcDbSpline
70
4
71
3
72
8
73
4
40
0
40
0
40
0
40
0
40
1
40
1
40
1
40
1
41
1
10
8.83182323352264
20
-38.7411583357063
30
0
41
1
10
8.83165849578603
20
-38.7148382818733
30
0
41
1
10
8.83092506106698
20
-38.6885098870252
30
0
41
1
10
8.82941133731572
20
-38.6622393695503
30
0
0
SPLINE
5
2E6
100
AcDbEntity
8
1
62
256
6
ByLayer
370
13
48
1
60
0
100
AcDbSpline
70
4
71
3
72
8
73
4
40
0
40
0
40
0
40
0
40
1
40
1
40
1
40
1
41
1
10
9.58016724043563
20
-39.5735850890822
30
0
41
1
10
9.5784518040617
20
-39.569606006912
30
0
41
1
10
9.57674171630643
20
-39.5656245728578
30
0
41
1
10
9.5750369988107
20
-39.5616408036898
30
0
0
SPLINE
5
2E7
100
AcDbEntity
8
1
62
256
6
ByLayer
370
13
48
1
60
0
100
AcDbSpline
70
4
71
3
72
8
73
4
40
0
40
0
40
0
40
0
40
1
40
1
40
1
40
1
41
1
10
9.30395951882741
20
-39.4805858669151
30
0
41
1
10
9.30689041500008
20
-39.4878672731079
30
0
41
1
10
9.3098282556968
20
-39.4951455074457
30
0
41
1
10
9.31277305873402
20
-39.5024204932651
30
0
0
SPLINE
5
2E8
100
AcDbEntity
8
1
62
256
6
ByLayer
370
13
48
1
60
0
100
AcDbSpline
70
4
71
3
72
8
73
4
40
0
40
0
40
0
40
0
40
1
40
1
40
1
40
1
41
1
10
5.09889218919193
20
-38.732135605736
30
0
41
1
10
5.11606194183989
20
-38.7350058010257
30
0
41
1
10
5.13985251099817
20
-38.7381049968074
30
0
41
1
10
5.16817676661577
20
-38.7411583357223
30
0
0
SPLINE
5
2E9
100
AcDbEntity
8
1
62
256
6
ByLayer
370
13
48
1
60
0
100
AcDbSpline
70
4
71
3
72
8
73
4
40
0
40
0
40
0
40
0
40
1
40
1
40
1
40
1
41
1
10
9.56222683747478
20
-40.1608347348722
30
0
41
1
10
9.57304002189841
20
-40.2027360254064
30
0
41
1
10
9.58210860561434
20
-40.2451537056346
30
0
41
1
10
9.58785327888842
20
-40.2878589937233
30
0
0
SPLINE
5
2EA
100
AcDbEntity
8
1
62
256
6
ByLayer
370
13
48
1
60
0
100
AcDbSpline
70
4
71
3
72
8
73
4
40
0
40
0
40
0
40
0
40
1
40
1
40
1
40
1
41
1
10
9.16538253797575
20
-39.9305699234432
30
0
41
1
10
9.14495166001876
20
-39.8876182607099
30
0
41
1
10
9.12505594455743
20
-39.8444490533785
30
0
41
1
10
9.10562274374249
20
-39.8011366675815
30
0
0
SPLINE
5
2EB
100
AcDbEntity
8
1
62
256
6
ByLayer
370
13
48
1
60
0
100
AcDbSpline
70
4
71
3
72
8
73
4
40
0
40
0
40
0
40
0
40
1
40
1
40
1
40
1
41
1
10
8.8265579485288
20
-39.730293747724
30
0
41
1
10
8.82683937540796
20
-39.7352009985676
30
0
41
1
10
8.82707196744849
20
-39.7400949698369
30
0
41
1
10
8.82726098963593
20
-39.7449712215412
30
0
0
SPLINE
5
2EC
100
AcDbEntity
8
1
62
256
6
ByLayer
370
13
48
1
60
0
100
AcDbSpline
70
4
71
3
72
8
73
4
40
0
40
0
40
0
40
0
40
1
40
1
40
1
40
1
41
1
10
4.74961509291307
20
-39.319965552646
30
0
41
1
10
4.75539926037413
20
-39.2878098311353
30
0
41
1
10
4.75786921684144
20
-39.2548819261954
30
0
41
1
10
4.75694519828073
20
-39.2222385465932
30
0
0
SPLINE
5
2ED
100
AcDbEntity
8
1
62
256
6
ByLayer
370
13
48
1
60
0
100
AcDbSpline
70
4
71
3
72
8
73
4
40
0
40
0
40
0
40
0
40
1
40
1
40
1
40
1
41
1
10
5.00695735562493
20
-39.8363185748554
30
0
41
1
10
4.99262478500484
20
-39.8241734988697
30
0
41
1
10
4.97879382202515
20
-39.8120745424287
30
0
41
1
10
4.96582533288125
20
-39.8003567929701
30
0
0
SPLINE
5
2EE
100
AcDbEntity
8
1
62
256
6
ByLayer
370
13
48
1
60
0
100
AcDbSpline
70
4
71
3
72
8
73
4
40
0
40
0
40
0
40
0
40
1
40
1
40
1
40
1
41
1
10
8.97671128997516
20
-40.0447669894049
30
0
41
1
10
9.00111708527959
20
-40.0892117851802
30
0
41
1
10
9.02666978092944
20
-40.1330676502928
30
0
41
1
10
9.05359496417196
20
-40.1760620928796
30
0
0
SPLINE
5
2EF
100
AcDbEntity
8
1
62
256
6
ByLayer
370
13
48
1
60
0
100
AcDbSpline
70
4
71
3
72
10
73
6
40
0
40
0
40
0
40
0
40
0.503010077090098
40
0.503010077090098
40
1
40
1
40
1
40
1
41
1
10
4.83683268026579
20
-38.0380313022955
30
0
41
1
10
4.85468353241976
20
-37.9325205707173
30
0
41
1
10
4.88064168656308
20
-37.8281442161718
30
0
41
1
10
4.94031413654744
20
-37.6244506035879
30
0
41
1
10
4.97422577751396
20
-37.5247554234596
30
0
41
1
10
5.00755824363031
20
-37.4249063417947
30
0
0
SPLINE
5
2F0
100
AcDbEntity
8
1
62
256
6
ByLayer
370
13
48
1
60
0
100
AcDbSpline
70
4
71
3
72
10
73
6
40
0
40
0
40
0
40
0
40
0.0001027245074679
40
0.0001027245074679
40
1
40
1
40
1
40
1
41
1
10
5.93083263583756
20
-40.5257317512729
30
0
41
1
10
5.93082643242022
20
-40.5257130837966
30
0
41
1
10
5.93082022902993
20
-40.5256944163087
30
0
41
1
10
5.87043103901686
20
-40.3439707952222
30
0
41
1
10
5.80720533309346
20
-40.1630572606719
30
0
41
1
10
5.74934255150507
20
-39.980331589594
30
0
0
SPLINE
5
2F1
100
AcDbEntity
8
1
62
256
6
ByLayer
370
13
48
1
60
0
100
AcDbSpline
70
4
71
3
72
8
73
4
40
0
40
0
40
0
40
0
40
1
40
1
40
1
40
1
41
1
10
9.38230316629617
20
-39.6704998734366
30
0
41
1
10
9.38406354371051
20
-39.6746650888763
30
0
41
1
10
9.38582620395326
20
-39.6788291235697
30
0
41
1
10
9.38759113539894
20
-39.6829919691149
30
0
0
SPLINE
5
2F2
100
AcDbEntity
8
1
62
256
6
ByLayer
370
18
48
1
60
0
100
AcDbSpline
70
4
71
3
72
8
73
4
40
0
40
0
40
0
40
0
40
1
40
1
40
1
40
1
41
1
10
8.77221047796618
20
-38.6364488698075
30
0
41
1
10
8.79014811146794
20
-38.6395199887753
30
0
41
1
10
8.80888502548311
20
-38.6425811022887
30
0
41
1
10
8.82833958313049
20
-38.6456188726499
30
0
0
SPLINE
5
2F3
100
AcDbEntity
8
1
62
256
6
ByLayer
370
13
48
1
60
0
100
AcDbSpline
70
4
71
3
72
14
73
10
40
0
40
0
40
0
40
0
40
0.316230754235731
40
0.316230754235731
40
0.632807878942948
40
0.632807878942948
40
0.943049244289811
40
0.943049244289811
40
1
40
1
40
1
40
1
41
1
10
5.68851987301937
20
-39.7881525715208
30
0
41
1
10
5.64922810320596
20
-39.8086482723201
30
0
41
1
10
5.60324654060409
20
-39.8242076231655
30
0
41
1
10
5.5054404890389
20
-39.8430946161005
30
0
41
1
10
5.45217348155768
20
-39.8466715230383
30
0
41
1
10
5.34765816974473
20
-39.8384095594332
30
0
41
1
10
5.29455755793109
20
-39.8266652859381
30
0
41
1
10
5.23783163195426
20
-39.8012241024376
30
0
41
1
10
5.22903778230378
20
-39.7968616272907
30
0
41
1
10
5.22045859055251
20
-39.7921436014447
30
0
0
SPLINE
5
2F4
100
AcDbEntity
8
1
62
256
6
ByLayer
370
13
48
1
60
0
100
AcDbSpline
70
4
71
3
72
9
73
5
40
0
40
0
40
0
40
0
40
0.813863931047213
40
1
40
1
40
1
40
1
41
1
10
7.5460823954966
20
-40.5813002256529
30
0
41
1
10
7.69279176188118
20
-40.571147460996
30
0
41
1
10
7.86941096204293
20
-40.5536398825353
30
0
41
1
10
8.03801853166433
20
-40.5302867577796
30
0
41
1
10
8.06909918623006
20
-40.5257417215668
30
0
0
SPLINE
5
2F5
100
AcDbEntity
8
1
62
256
6
ByLayer
370
13
48
1
60
0
100
AcDbSpline
70
4
71
3
72
8
73
4
40
0
40
0
40
0
40
0
40
1
40
1
40
1
40
1
41
1
10
5.35657724638457
20
-39.0591730137738
30
0
41
1
10
5.34931284409757
20
-39.0463888361773
30
0
41
1
10
5.34208932202412
20
-39.0336199091963
30
0
41
1
10
5.3348978048719
20
-39.0208798836103
30
0
0
SPLINE
5
2F6
100
AcDbEntity
8
1
62
256
6
ByLayer
370
18
48
1
60
0
100
AcDbSpline
70
4
71
3
72
8
73
4
40
0
40
0
40
0
40
0
40
1
40
1
40
1
40
1
41
1
10
8.26274337535122
20
-40.5970860899748
30
0
41
1
10
8.34013795975042
20
-40.5979987159963
30
0
41
1
10
8.41999879190743
20
-40.5987813598682
30
0
41
1
10
8.50000000000003
20
-40.5995702589143
30
0
0
SPLINE
5
2F7
100
AcDbEntity
8
1
62
256
6
ByLayer
370
13
48
1
60
0
100
AcDbSpline
70
4
71
3
72
8
73
4
40
0
40
0
40
0
40
0
40
1
40
1
40
1
40
1
41
1
10
9.50257477849107
20
-39.3824213915817
30
0
41
1
10
9.49989501272427
20
-39.3753931890501
30
0
41
1
10
9.49723130599082
20
-39.3683587336016
30
0
41
1
10
9.49458355033215
20
-39.3613181945792
30
0
0
SPLINE
5
2F8
100
AcDbEntity
8
1
62
256
6
ByLayer
370
13
48
1
60
0
100
AcDbSpline
70
4
71
3
72
8
73
4
40
0
40
0
40
0
40
0
40
1
40
1
40
1
40
1
41
1
10
5.22861281603247
20
-39.1104320378387
30
0
41
1
10
5.21612488392924
20
-39.1180112341903
30
0
41
1
10
5.20366253150652
20
-39.1262650834516
30
0
41
1
10
5.19130899687482
20
-39.1350906272079
30
0
0
SPLINE
5
2F9
100
AcDbEntity
8
1
62
256
6
ByLayer
370
13
48
1
60
0
100
AcDbSpline
70
4
71
3
72
12
73
8
40
0
40
0
40
0
40
0
40
0.363459108279232
40
0.363459108279232
40
0.708127036348683
40
0.708127036348683
40
1
40
1
40
1
40
1
41
1
10
7.65376195917702
20
-34.7827500875272
30
0
41
1
10
7.60622896445545
20
-34.7814089921779
30
0
41
1
10
7.56101834321288
20
-34.7755778485381
30
0
41
1
10
7.48430776570973
20
-34.7580840972457
30
0
41
1
10
7.45123674239306
20
-34.7465961203319
30
0
41
1
10
7.40023384026029
20
-34.7224963448688
30
0
41
1
10
7.38038563562932
20
-34.7101669172397
30
0
41
1
10
7.36432368223774
20
-34.6972686417965
30
0
0
SPLINE
5
2FA
100
AcDbEntity
8
1
62
256
6
ByLayer
370
18
48
1
60
0
100
AcDbSpline
70
4
71
3
72
8
73
4
40
0
40
0
40
0
40
0
40
1
40
1
40
1
40
1
41
1
10
4.30048227376005
20
-39.8825161901852
30
0
41
1
10
4.37188410905804
20
-39.9069617660421
30
0
41
1
10
4.44709288408464
20
-39.9314003232839
30
0
41
1
10
4.50601761744713
20
-39.9494927365344
30
0
0
SPLINE
5
2FB
100
AcDbEntity
8
1
62
256
6
ByLayer
370
13
48
1
60
0
100
AcDbSpline
70
4
71
3
72
8
73
4
40
0
40
0
40
0
40
0
40
1
40
1
40
1
40
1
41
1
10
8.74896734190366
20
-38.79156238069
30
0
41
1
10
8.74096970400586
20
-38.8343792184332
30
0
41
1
10
8.7290833937883
20
-38.8764505849298
30
0
41
1
10
8.71389229241771
20
-38.9166804451044
30
0
0
SPLINE
5
2FC
100
AcDbEntity
8
1
62
256
6
ByLayer
370
13
48
1
60
0
100
AcDbSpline
70
4
71
3
72
20
73
16
40
0
40
0
40
0
40
0
40
0.0511781701555284
40
0.0511781701555284
40
0.303128062667495
40
0.303128062667495
40
0.356489085308172
40
0.356489085308172
40
0.613164842054324
40
0.613164842054324
40
0.673251350208871
40
0.673251350208871
40
0.936987103992265
40
0.936987103992265
40
1
40
1
40
1
40
1
41
1
10
8.25065744849508
20
-39.9803315895939
30
0
41
1
10
8.25885119230179
20
-39.9852028949995
30
0
41
1
10
8.26731987050056
20
-39.9898222673739
30
0
41
1
10
8.31835181960389
20
-40.0153222644013
30
0
41
1
10
8.36736518702151
20
-40.0304554530919
30
0
41
1
10
8.43003654649632
20
-40.0401463347828
30
0
41
1
10
8.44126713702607
20
-40.0415422491477
30
0
41
1
10
8.50643287192068
20
-40.0477016725801
30
0
41
1
10
8.56364755597735
20
-40.0454136874493
30
0
41
1
10
8.63260689286344
20
-40.033081379169
30
0
41
1
10
8.64579442301905
20
-40.0302854319023
30
0
41
1
10
8.71562460593009
20
-40.0130839410954
30
0
41
1
10
8.77153691470863
20
-39.9906080389161
30
0
41
1
10
8.833874770497
20
-39.9531599013357
30
0
41
1
10
8.84574379101178
20
-39.9453931341021
30
0
41
1
10
8.85726625511413
20
-39.9371816925958
30
0
0
SPLINE
5
2FD
100
AcDbEntity
8
1
62
256
6
ByLayer
370
13
48
1
60
0
100
AcDbSpline
70
4
71
3
72
8
73
4
40
0
40
0
40
0
40
0
40
1
40
1
40
1
40
1
41
1
10
4.51331476733182
20
-39.3401710352685
30
0
41
1
10
4.51069785495707
20
-39.3472260961063
30
0
41
1
10
4.50806512598606
20
-39.3542752074691
30
0
41
1
10
4.50541644966916
20
-39.3613181945758
30
0
0
SPLINE
5
2FE
100
AcDbEntity
8
1
62
256
6
ByLayer
370
13
48
1
60
0
100
AcDbSpline
70
4
71
3
72
8
73
4
40
0
40
0
40
0
40
0
40
1
40
1
40
1
40
1
41
1
10
4.95326175723432
20
-39.6127323492319
30
0
41
1
10
4.95095426420198
20
-39.6203105039504
30
0
41
1
10
4.9487027189642
20
-39.6279041942021
30
0
41
1
10
4.94650572436851
20
-39.63551099324
30
0
0
SPLINE
5
2FF
100
AcDbEntity
8
1
62
256
6
ByLayer
370
18
48
1
60
0
100
AcDbSpline
70
4
71
3
72
10
73
6
40
0
40
0
40
0
40
0
40
0.536380919412187
40
0.536380919412187
40
1
40
1
40
1
40
1
41
1
10
4.74978471962044
20
-35.5601677780022
30
0
41
1
10
4.74665864296745
20
-35.6043988029483
30
0
41
1
10
4.74134155238323
20
-35.6478650425994
30
0
41
1
10
4.73076988750734
20
-35.7211045298042
30
0
41
1
10
4.72552606011075
20
-35.7527402003991
30
0
41
1
10
4.72117109086992
20
-35.7801073675193
30
0
0
SPLINE
5
300
100
AcDbEntity
8
1
62
256
6
ByLayer
370
13
48
1
60
0
100
AcDbSpline
70
4
71
3
72
8
73
4
40
0
40
0
40
0
40
0
40
1
40
1
40
1
40
1
41
1
10
4.30048227372936
20
-39.882516190279
30
0
41
1
10
4.27212388725312
20
-39.9645588867477
30
0
41
1
10
4.25060764928898
20
-40.0496557028996
30
0
41
1
10
4.2395149490545
20
-40.135813676882
30
0
0
SPLINE
5
301
100
AcDbEntity
8
1
62
256
6
ByLayer
370
13
48
1
60
0
100
AcDbSpline
70
4
71
3
72
20
73
16
40
0
40
0
40
0
40
0
40
0.289433662900987
40
0.289433662900987
40
0.581653230579823
40
0.581653230579823
40
0.734424428191342
40
0.734424428191342
40
0.813835652770598
40
0.813835652770598
40
0.851817205456352
40
0.851817205456352
40
0.9998580932927
40
0.9998580932927
40
1
40
1
40
1
40
1
41
1
10
4.74520675800886
20
-38.6877692412714
30
0
41
1
10
4.74734647555729
20
-38.6470333233469
30
0
41
1
10
4.7491556107241
20
-38.6062788847873
30
0
41
1
10
4.75402509360458
20
-38.5245211970633
30
0
41
1
10
4.75698365636674
20
-38.4834582214744
30
0
41
1
10
4.76464878463301
20
-38.4212520845594
30
0
41
1
10
4.76797794440822
20
-38.3999444294999
30
0
41
1
10
4.77431532280963
20
-38.3678429405989
30
0
41
1
10
4.7766984558381
20
-38.3569032149485
30
0
41
1
10
4.78027928337815
20
-38.3407767110538
30
0
41
1
10
4.78084713003449
20
-38.3354443387808
30
0
41
1
10
4.78358024246614
20
-38.3094897344781
30
0
41
1
10
4.78446601164407
20
-38.2885685781032
30
0
41
1
10
4.78901170323675
20
-38.268254158121
30
0
41
1
10
4.78901606715172
20
-38.2682346478803
30
0
41
1
10
4.78902043123816
20
-38.2682151376414
30
0
0
SPLINE
5
302
100
AcDbEntity
8
1
62
256
6
ByLayer
370
13
48
1
60
0
100
AcDbSpline
70
4
71
3
72
8
73
4
40
0
40
0
40
0
40
0
40
1
40
1
40
1
40
1
41
1
10
5.17604010589071
20
-39.6979680340497
30
0
41
1
10
5.17659327229651
20
-39.6926953679314
30
0
41
1
10
5.17721456280663
20
-39.6874147210658
30
0
41
1
10
5.17790942898969
20
-39.6821324141415
30
0
0
SPLINE
5
303
100
AcDbEntity
8
1
62
256
6
ByLayer
370
13
48
1
60
0
100
AcDbSpline
70
4
71
3
72
8
73
4
40
0
40
0
40
0
40
0
40
1
40
1
40
1
40
1
41
1
10
5.30336803126193
20
-37.217398644719
30
0
41
1
10
5.24650559385421
20
-37.2847799921849
30
0
41
1
10
5.19154318803845
20
-37.3568996027647
30
0
41
1
10
5.13901495728354
20
-37.4327828618976
30
0
0
SPLINE
5
304
100
AcDbEntity
8
1
62
256
6
ByLayer
370
13
48
1
60
0
100
AcDbSpline
70
4
71
3
72
8
73
4
40
0
40
0
40
0
40
0
40
1
40
1
40
1
40
1
41
1
10
5.19809289344724
20
-39.5916290701336
30
0
41
1
10
5.21094181778082
20
-39.5523163544692
30
0
41
1
10
5.22657871531749
20
-39.5133802503087
30
0
41
1
10
5.24347639316889
20
-39.4763488059907
30
0
0
SPLINE
5
305
100
AcDbEntity
8
1
62
256
6
ByLayer
370
13
48
1
60
0
100
AcDbSpline
70
4
71
3
72
8
73
4
40
0
40
0
40
0
40
0
40
1
40
1
40
1
40
1
41
1
10
9.64866518609887
20
-39.7393259367936
30
0
41
1
10
9.63040286043014
20
-39.6915777637058
30
0
41
1
10
9.61100941217447
20
-39.6442545553436
30
0
41
1
10
9.59052473470845
20
-39.5974332539208
30
0
0
SPLINE
5
306
100
AcDbEntity
8
1
62
256
6
ByLayer
370
13
48
1
60
0
100
AcDbSpline
70
4
71
3
72
8
73
4
40
0
40
0
40
0
40
0
40
1
40
1
40
1
40
1
41
1
10
5.1936034891711
20
-39.60618321608
30
0
41
1
10
5.19501849229991
20
-39.601310757391
30
0
41
1
10
5.19651485335737
20
-39.5964572596188
30
0
41
1
10
5.19809289344724
20
-39.5916290701336
30
0
0
SPLINE
5
307
100
AcDbEntity
8
1
62
256
6
ByLayer
370
13
48
1
60
0
100
AcDbSpline
70
4
71
3
72
10
73
6
40
0
40
0
40
0
40
0
40
0.434894923971479
40
0.434894923971479
40
1
40
1
40
1
40
1
41
1
10
5.59916224010854
20
-37.408829342978
30
0
41
1
10
5.63321169691343
20
-37.3670340951309
30
0
41
1
10
5.66383579038143
20
-37.3203955048542
30
0
41
1
10
5.72346380542359
20
-37.2061345186553
30
0
41
1
10
5.74987288371798
20
-37.1351844997325
30
0
41
1
10
5.7673058417038
20
-37.061983131599
30
0
0
SPLINE
5
308
100
AcDbEntity
8
1
62
256
6
ByLayer
370
13
48
1
60
0
100
AcDbSpline
70
4
71
3
72
8
73
4
40
0
40
0
40
0
40
0
40
1
40
1
40
1
40
1
41
1
10
8.84667146279816
20
-35.406025607507
30
0
41
1
10
8.855283927057
20
-35.4058608834616
30
0
41
1
10
8.86390059217098
20
-35.4058205374692
30
0
41
1
10
8.87251546449323
20
-35.4059035976733
30
0
0
SPLINE
5
309
100
AcDbEntity
8
1
62
256
6
ByLayer
370
13
48
1
60
0
100
AcDbSpline
70
4
71
3
72
10
73
6
40
0
40
0
40
0
40
0
40
0.437831856690119
40
0.437831856690119
40
1
40
1
40
1
40
1
41
1
10
8.6966319687381
20
-37.217398644719
30
0
41
1
10
8.67397048085127
20
-37.1905450369771
30
0
41
1
10
8.65352073982095
20
-37.1603923985102
30
0
41
1
10
8.61416045814002
20
-37.0865084278264
30
0
41
1
10
8.59690877760815
20
-37.0405061504995
30
0
41
1
10
8.58593288653688
20
-36.9928470379229
30
0
0
SPLINE
5
30A
100
AcDbEntity
8
1
62
256
6
ByLayer
370
13
48
1
60
0
100
AcDbSpline
70
4
71
3
72
18
73
14
40
0
40
0
40
0
40
0
40
0.297753116171375
40
0.297753116171375
40
0.595496835617224
40
0.595496835617224
40
0.744301119644224
40
0.744301119644224
40
0.81870172035805
40
0.81870172035805
40
0.855902029480288
40
0.855902029480288
40
1
40
1
40
1
40
1
41
1
10
9.48799519765623
20
-38.6756163060044
30
0
41
1
10
9.48567312879678
20
-38.6313570840831
30
0
41
1
10
9.48240377424406
20
-38.5871321897618
30
0
41
1
10
9.47354075227148
20
-38.4989387562939
30
0
41
1
10
9.46795767000546
20
-38.4549525740475
30
0
41
1
10
9.45843540545363
20
-38.3891699956829
30
0
41
1
10
9.45508049810638
20
-38.3672731053029
30
0
41
1
10
9.4500353217162
20
-38.3344307667064
30
0
41
1
10
9.44835442090741
20
-38.3234833070402
30
0
41
1
10
9.44585270984956
20
-38.3070590787403
30
0
41
1
10
9.44502085032968
20
-38.3015840021964
30
0
41
1
10
9.44088145169539
20
-38.2749149760045
30
0
41
1
10
9.4372359703041
20
-38.2537757964872
30
0
41
1
10
9.43375602822582
20
-38.2326098900027
30
0
0
SPLINE
5
30B
100
AcDbEntity
8
1
62
256
6
ByLayer
370
13
48
1
60
0
100
AcDbSpline
70
4
71
3
72
8
73
4
40
0
40
0
40
0
40
0
40
1
40
1
40
1
40
1
41
1
10
4.76058796656932
20
-38.6887627978462
30
0
41
1
10
4.75546706987856
20
-38.6884322213589
30
0
41
1
10
4.75034617318778
20
-38.6881016448716
30
0
41
1
10
4.74522527649702
20
-38.6877710683842
30
0
0
SPLINE
5
30C
100
AcDbEntity
8
1
62
256
6
ByLayer
370
13
48
1
60
0
100
AcDbSpline
70
4
71
3
72
8
73
4
40
0
40
0
40
0
40
0
40
1
40
1
40
1
40
1
41
1
10
4.71354494182862
20
-39.4368545163779
30
0
41
1
10
4.71644898001207
20
-39.4295587236344
30
0
41
1
10
4.71934615754466
20
-39.4222598617321
30
0
41
1
10
4.72223651899796
20
-39.4149580164183
30
0
0
SPLINE
5
30D
100
AcDbEntity
8
1
62
256
6
ByLayer
370
13
48
1
60
0
100
AcDbSpline
70
4
71
3
72
8
73
4
40
0
40
0
40
0
40
0
40
1
40
1
40
1
40
1
41
1
10
9.25038490708695
20
-39.319965552646
30
0
41
1
10
9.25621352950901
20
-39.3524003181638
30
0
41
1
10
9.26543791592101
20
-39.3844035113633
30
0
41
1
10
9.27776348100201
20
-39.4149580164184
30
0
0
SPLINE
5
30E
100
AcDbEntity
8
1
62
256
6
ByLayer
370
13
48
1
60
0
100
AcDbSpline
70
4
71
3
72
8
73
4
40
0
40
0
40
0
40
0
40
1
40
1
40
1
40
1
41
1
10
5.18600443938641
20
-39.6359219030158
30
0
41
1
10
5.18711529738996
20
-39.6309178672316
30
0
41
1
10
5.18830529202296
20
-39.6259240337254
30
0
41
1
10
5.18957661518576
20
-39.6209469220189
30
0
0
SPLINE
5
30F
100
AcDbEntity
8
1
62
256
6
ByLayer
370
13
48
1
60
0
100
AcDbSpline
70
4
71
3
72
26
73
22
40
0
40
0
40
0
40
0
40
0.510000801848949
40
0.510000801848949
40
0.647311934567147
40
0.647311934567147
40
0.76675266377228
40
0.76675266377228
40
0.815550987617627
40
0.815550987617627
40
0.836498186442143
40
0.836498186442143
40
0.872808195013516
40
0.872808195013516
40
0.899177508408315
40
0.899177508408315
40
0.944267018337072
40
0.944267018337072
40
0.962905290952211
40
0.962905290952211
40
1
40
1
40
1
40
1
41
1
10
4.77154912170451
20
-40.0593115493021
30
0
41
1
10
4.72895847106636
20
-40.1433451313258
30
0
41
1
10
4.68173190863004
20
-40.2268356630614
30
0
41
1
10
4.60505763202605
20
-40.3190328418847
30
0
41
1
10
4.58754684907831
20
-40.3379189775827
30
0
41
1
10
4.5515207346175
20
-40.3691478236312
30
0
41
1
10
4.53313089832523
20
-40.3825095602198
30
0
41
1
10
4.50425440227932
20
-40.3943315514621
30
0
41
1
10
4.4953206774955
20
-40.3969197818947
30
0
41
1
10
4.48233132716197
20
-40.3982323812219
30
0
41
1
10
4.47835592063907
20
-40.3983141379953
30
0
41
1
10
4.4676850810805
20
-40.397488603306
30
0
41
1
10
4.4609101966887
20
-40.395759252099
30
0
41
1
10
4.45034869571336
20
-40.3906797404485
30
0
41
1
10
4.44615798839055
20
-40.3878660379589
30
0
41
1
10
4.43609283820689
20
-40.3790726623238
30
0
41
1
10
4.43090596734197
20
-40.3721308786112
30
0
41
1
10
4.42511111081242
20
-40.3617051050649
30
0
41
1
10
4.42357282328885
20
-40.3585322149378
30
0
41
1
10
4.41942527206197
20
-40.3488830129341
30
0
41
1
10
4.41723806117199
20
-40.3422061961718
30
0
41
1
10
4.41547325480644
20
-40.3354471297938
30
0
0
SPLINE
5
310
100
AcDbEntity
8
1
62
256
6
ByLayer
370
13
48
1
60
0
100
AcDbSpline
70
4
71
3
72
14
73
10
40
0
40
0
40
0
40
0
40
0.0738386433543257
40
0.0738386433543257
40
0.343456716621554
40
0.343456716621554
40
0.672647811750661
40
0.672647811750661
40
1
40
1
40
1
40
1
41
1
10
9.58562761809029
20
-34.8468286927604
30
0
41
1
10
9.58293527056955
20
-34.8443359888424
30
0
41
1
10
9.58080609818109
20
-34.8415585741699
30
0
41
1
10
9.57286659400242
20
-34.8275921518825
30
0
41
1
10
9.57135545350712
20
-34.8131623554373
30
0
41
1
10
9.56982511113193
20
-34.775400863715
30
0
41
1
10
9.57055890626066
20
-34.7502740351531
30
0
41
1
10
9.57198576757384
20
-34.6943727162844
30
0
41
1
10
9.57279873691368
20
-34.6630568484845
30
0
41
1
10
9.57320136387719
20
-34.6301583517775
30
0
0
SPLINE
5
311
100
AcDbEntity
8
1
62
256
6
ByLayer
370
13
48
1
60
0
100
AcDbSpline
70
4
71
3
72
8
73
4
40
0
40
0
40
0
40
0
40
1
40
1
40
1
40
1
41
1
10
8.80869100312211
20
-39.1350906272073
30
0
41
1
10
8.80875434235662
20
-39.1344988369518
30
0
41
1
10
8.8088174434171
20
-39.1339070074101
30
0
41
1
10
8.80888030647711
20
-39.1333151391335
30
0
0
SPLINE
5
312
100
AcDbEntity
8
1
62
256
6
ByLayer
370
18
48
1
60
0
100
AcDbSpline
70
4
71
3
72
8
73
4
40
0
40
0
40
0
40
0
40
1
40
1
40
1
40
1
41
1
10
9.69951772623847
20
-39.8825161901858
30
0
41
1
10
9.62815561145027
20
-39.9069289714629
30
0
41
1
10
9.55298275129593
20
-39.9315020768134
30
0
41
1
10
9.4939823825529
20
-39.9494927365344
30
0
0
SPLINE
5
313
100
AcDbEntity
8
1
62
256
6
ByLayer
370
13
48
1
60
0
100
AcDbSpline
70
4
71
3
72
8
73
4
40
0
40
0
40
0
40
0
40
1
40
1
40
1
40
1
41
1
10
9.51065968699098
20
-39.4034802160183
30
0
41
1
10
9.50794859772981
20
-39.3964669282881
30
0
41
1
10
9.50525365647962
20
-39.3894472657437
30
0
41
1
10
9.50257477849141
20
-39.3824213915825
30
0
0
SPLINE
5
314
100
AcDbEntity
8
1
62
256
6
ByLayer
370
13
48
1
60
0
100
AcDbSpline
70
4
71
3
72
8
73
4
40
0
40
0
40
0
40
0
40
1
40
1
40
1
40
1
41
1
10
4.66947646553749
20
-39.5460260607215
30
0
41
1
10
4.67244878344965
20
-39.5387652355361
30
0
41
1
10
4.67541411577474
20
-39.5315010589711
30
0
41
1
10
4.6783724618839
20
-39.5242336007821
30
0
0
SPLINE
5
315
100
AcDbEntity
8
1
62
256
6
ByLayer
370
13
48
1
60
0
100
AcDbSpline
70
4
71
3
72
8
73
4
40
0
40
0
40
0
40
0
40
1
40
1
40
1
40
1
41
1
10
9.05349427563152
20
-39.63551099324
30
0
41
1
10
9.0512972810358
20
-39.6279041942021
30
0
41
1
10
9.04904573579805
20
-39.6203105039504
30
0
41
1
10
9.04673824276571
20
-39.6127323492319
30
0
0
SPLINE
5
316
100
AcDbEntity
8
1
62
256
6
ByLayer
370
13
48
1
60
0
100
AcDbSpline
70
4
71
3
72
8
73
4
40
0
40
0
40
0
40
0
40
1
40
1
40
1
40
1
41
1
10
5.17058866268428
20
-38.6622393695503
30
0
41
1
10
5.16907493893305
20
-38.6885098870252
30
0
41
1
10
5.16834150421388
20
-38.7148382818733
30
0
41
1
10
5.16817676647739
20
-38.7411583357063
30
0
0
SPLINE
5
317
100
AcDbEntity
8
1
62
256
6
ByLayer
370
13
48
1
60
0
100
AcDbSpline
70
4
71
3
72
8
73
4
40
0
40
0
40
0
40
0
40
1
40
1
40
1
40
1
41
1
10
8.80639651082896
20
-39.60618321608
30
0
41
1
10
8.80782018257813
20
-39.6110855245221
30
0
41
1
10
8.80916205057744
20
-39.6160089160268
30
0
41
1
10
8.81042338481424
20
-39.6209469220189
30
0
0
SPLINE
5
318
100
AcDbEntity
8
1
62
256
6
ByLayer
370
18
48
1
60
0
100
AcDbSpline
70
4
71
3
72
14
73
10
40
0
40
0
40
0
40
0
40
0.287858117648574
40
0.287858117648574
40
0.595038451639169
40
0.595038451639169
40
0.902232133585136
40
0.902232133585136
40
1
40
1
40
1
40
1
41
1
10
9.69735423881161
20
-35.8219543041171
30
0
41
1
10
9.69786177379976
20
-35.7917151774559
30
0
41
1
10
9.69829036901581
20
-35.7564192550234
30
0
41
1
10
9.69894854055897
20
-35.678327541203
30
0
41
1
10
9.69917152008074
20
-35.6340978973891
30
0
41
1
10
9.69934700799976
20
-35.5451277105782
30
0
41
1
10
9.69930192539593
20
-35.4991602968088
30
0
41
1
10
9.69907164308097
20
-35.4414566536607
30
0
41
1
10
9.69900213699324
20
-35.4275497019793
30
0
41
1
10
9.69891984726456
20
-35.4139183902214
30
0
0
SPLINE
5
319
100
AcDbEntity
8
1
62
256
6
ByLayer
370
13
48
1
60
0
100
AcDbSpline
70
4
71
3
72
10
73
6
40
0
40
0
40
0
40
0
40
0.562168143309881
40
0.562168143309881
40
1
40
1
40
1
40
1
41
1
10
5.41406711346315
20
-36.9928470379229
30
0
41
1
10
5.40309122239188
20
-37.0405061504995
30
0
41
1
10
5.38583954186001
20
-37.0865084278264
30
0
41
1
10
5.34647926017908
20
-37.1603923985102
30
0
41
1
10
5.32602951914876
20
-37.1905450369771
30
0
41
1
10
5.30336803126193
20
-37.217398644719
30
0
0
SPLINE
5
31A
100
AcDbEntity
8
1
62
256
6
ByLayer
370
13
48
1
60
0
100
AcDbSpline
70
4
71
3
72
8
73
4
40
0
40
0
40
0
40
0
40
1
40
1
40
1
40
1
41
1
10
9.4940373341567
20
-39.94946913131
30
0
41
1
10
9.52030980080218
20
-40.0186870952114
30
0
41
1
10
9.54376275616536
20
-40.0892860767647
30
0
41
1
10
9.56222683747444
20
-40.1608347348723
30
0
0
SPLINE
5
31B
100
AcDbEntity
8
1
62
256
6
ByLayer
370
13
48
1
60
0
100
AcDbSpline
70
4
71
3
72
14
73
10
40
0
40
0
40
0
40
0
40
0.0142595095454378
40
0.0142595095454378
40
0.503363468225892
40
0.503363468225892
40
0.594705536481072
40
0.594705536481072
40
1
40
1
40
1
40
1
41
1
10
7.28331054152983
20
-34.6239821386885
30
0
41
1
10
7.28441383354604
20
-34.6237601579634
30
0
41
1
10
7.28551724486746
20
-34.6235319315433
30
0
41
1
10
7.32396435174596
20
-34.6153718656787
30
0
41
1
10
7.36216407773341
20
-34.6001632942615
30
0
41
1
10
7.40480330353222
20
-34.5747701836938
30
0
41
1
10
7.4115299486092
20
-34.5705002100713
30
0
41
1
10
7.44720209026696
20
-34.5464142098699
30
0
41
1
10
7.47503521519306
20
-34.5222745806484
30
0
41
1
10
7.49988077968771
20
-34.4949746554928
30
0
0
SPLINE
5
31C
100
AcDbEntity
8
1
62
256
6
ByLayer
370
18
48
1
60
0
100
AcDbSpline
70
4
71
3
72
8
73
4
40
0
40
0
40
0
40
0
40
1
40
1
40
1
40
1
41
1
10
8.74412364603219
20
-38.2961878440829
30
0
41
1
10
8.75413443320667
20
-38.4080154263125
30
0
41
1
10
8.78287846467973
20
-38.5237183249655
30
0
41
1
10
8.77217110692914
20
-38.6364412607261
30
0
0
SPLINE
5
31D
100
AcDbEntity
8
1
62
256
6
ByLayer
370
13
48
1
60
0
100
AcDbSpline
70
4
71
3
72
8
73
4
40
0
40
0
40
0
40
0
40
1
40
1
40
1
40
1
41
1
10
9.43375779059116
20
-38.232591327196
30
0
41
1
10
9.42417962015963
20
-38.1743875377864
30
0
41
1
10
9.41468395552417
20
-38.1161694527838
30
0
41
1
10
9.40484422954879
20
-38.0580099499638
30
0
0
SPLINE
5
31E
100
AcDbEntity
8
1
62
256
6
ByLayer
370
13
48
1
60
0
100
AcDbSpline
70
4
71
3
72
8
73
4
40
0
40
0
40
0
40
0
40
1
40
1
40
1
40
1
41
1
10
9.37702900463685
20
-39.6580009615612
30
0
41
1
10
9.37878477054224
20
-39.6621684439719
30
0
41
1
10
9.38054282797484
20
-39.6663347508874
30
0
41
1
10
9.3823031662962
20
-39.6704998734366
30
0
0
SPLINE
5
31F
100
AcDbEntity
8
1
62
256
6
ByLayer
370
13
48
1
60
0
100
AcDbSpline
70
4
71
3
72
8
73
4
40
0
40
0
40
0
40
0
40
1
40
1
40
1
40
1
41
1
10
4.91691501955987
20
-39.7507716856813
30
0
41
1
10
4.91680500317386
20
-39.7510163989533
30
0
41
1
10
4.91669499325496
20
-39.7512611140747
30
0
41
1
10
4.91658498980922
20
-39.7515058310458
30
0
0
SPLINE
5
320
100
AcDbEntity
8
1
62
256
6
ByLayer
370
13
48
1
60
0
100
AcDbSpline
70
4
71
3
72
8
73
4
40
0
40
0
40
0
40
0
40
1
40
1
40
1
40
1
41
1
10
8.82544237829077
20
-39.7140218791706
30
0
41
1
10
8.82587820623982
20
-39.7194593998073
30
0
41
1
10
8.82624778630472
20
-39.7248854376137
30
0
41
1
10
8.82655794852883
20
-39.730293747724
30
0
0
SPLINE
5
321
100
AcDbEntity
8
1
62
256
6
ByLayer
370
13
48
1
60
0
100
AcDbSpline
70
4
71
3
72
8
73
4
40
0
40
0
40
0
40
0
40
1
40
1
40
1
40
1
41
1
10
9.48800649981084
20
-38.6759025432334
30
0
41
1
10
9.40560068495805
20
-38.6801330572889
30
0
41
1
10
9.3187482351245
20
-38.6845527986922
30
0
41
1
10
9.25475784593181
20
-38.6877720844473
30
0
0
SPLINE
5
322
100
AcDbEntity
8
1
62
256
6
ByLayer
370
13
48
1
60
0
100
AcDbSpline
70
4
71
3
72
8
73
4
40
0
40
0
40
0
40
0
40
1
40
1
40
1
40
1
41
1
10
4.09660942803632
20
-38
30
0
41
1
10
4.2660630167901
20
-38
30
0
41
1
10
4.43551660554388
20
-38
30
0
41
1
10
4.60497019429766
20
-38
30
0
0
SPLINE
5
323
100
AcDbEntity
8
1
62
256
6
ByLayer
370
13
48
1
60
0
100
AcDbSpline
70
4
71
3
72
8
73
4
40
0
40
0
40
0
40
0
40
1
40
1
40
1
40
1
41
1
10
4.50541644966788
20
-39.3613181945792
30
0
41
1
10
4.50276869400921
20
-39.3683587336016
30
0
41
1
10
4.50010498727576
20
-39.3753931890501
30
0
41
1
10
4.49742522150896
20
-39.3824213915817
30
0
0
SPLINE
5
324
100
AcDbEntity
8
1
62
256
6
ByLayer
370
13
48
1
60
0
100
AcDbSpline
70
4
71
3
72
8
73
4
40
0
40
0
40
0
40
0
40
1
40
1
40
1
40
1
41
1
10
8.81712285435685
20
-39.6511104023502
30
0
41
1
10
8.81809809973828
20
-39.6562391514019
30
0
41
1
10
8.81899473446151
20
-39.661375599779
30
0
41
1
10
8.81981667373802
20
-39.6665132813234
30
0
0
SPLINE
5
325
100
AcDbEntity
8
1
62
256
6
ByLayer
370
13
48
1
60
0
100
AcDbSpline
70
4
71
3
72
8
73
4
40
0
40
0
40
0
40
0
40
1
40
1
40
1
40
1
41
1
10
8.82122606618071
20
-38.9775484919094
30
0
41
1
10
8.82475417112033
20
-38.9232142213976
30
0
41
1
10
8.8276275316027
20
-38.8688285804819
30
0
41
1
10
8.83001270809504
20
-38.8144285509218
30
0
0
SPLINE
5
326
100
AcDbEntity
8
1
62
256
6
ByLayer
370
18
48
1
60
0
100
AcDbSpline
70
4
71
3
72
12
73
8
40
0
40
0
40
0
40
0
40
0.42211456910065
40
0.42211456910065
40
0.711057259361882
40
0.711057259361882
40
1
40
1
40
1
40
1
41
1
10
4.13380127380029
20
-37.0481501043749
30
0
41
1
10
4.12794978347688
20
-37.1820805375966
30
0
41
1
10
4.12208259441078
20
-37.3160102631972
30
0
41
1
10
4.11219540085577
20
-37.5416163352194
30
0
41
1
10
4.10817661429655
20
-37.6332927656927
30
0
41
1
10
4.10014643939834
20
-37.8166459967653
30
0
41
1
10
4.09613510010618
20
-37.908322810612
30
0
41
1
10
4.09213238757428
20
-38
30
0
0
SPLINE
5
327
100
AcDbEntity
8
1
62
256
6
ByLayer
370
13
48
1
60
0
100
AcDbSpline
70
4
71
3
72
8
73
4
40
0
40
0
40
0
40
0
40
1
40
1
40
1
40
1
41
1
10
4.35133481390113
20
-39.7393259367937
30
0
41
1
10
4.33324314386815
20
-39.7866279183623
30
0
41
1
10
4.31624950728241
20
-39.8343751227863
30
0
41
1
10
4.30048227372936
20
-39.882516190279
30
0
0
SPLINE
5
328
100
AcDbEntity
8
1
62
256
6
ByLayer
370
13
48
1
60
0
100
AcDbSpline
70
4
71
3
72
8
73
4
40
0
40
0
40
0
40
0
40
1
40
1
40
1
40
1
41
1
10
9.38759113540166
20
-39.6829919691138
30
0
41
1
10
9.40627540838824
20
-39.7269429780689
30
0
41
1
10
9.42449055760659
20
-39.7711387609177
30
0
41
1
10
9.44221767917043
20
-39.8155438239195
30
0
0
SPLINE
5
329
100
AcDbEntity
8
1
62
256
6
ByLayer
370
13
48
1
60
0
100
AcDbSpline
70
4
71
3
72
8
73
4
40
0
40
0
40
0
40
0
40
1
40
1
40
1
40
1
41
1
10
5.24218777911588
20
-38.7408158168118
30
0
41
1
10
5.24125371527572
20
-38.7350441871398
30
0
41
1
10
5.24034353965121
20
-38.7292691217604
30
0
41
1
10
5.23945732793763
20
-38.7234909295233
30
0
0
SPLINE
5
32A
100
AcDbEntity
8
1
62
256
6
ByLayer
370
13
48
1
60
0
100
AcDbSpline
70
4
71
3
72
8
73
4
40
0
40
0
40
0
40
0
40
1
40
1
40
1
40
1
41
1
10
4.41467024832892
20
-39.5855156775869
30
0
41
1
10
4.41294391150618
20
-39.5894905615203
30
0
41
1
10
4.41121224162595
20
-39.5934630917035
30
0
41
1
10
4.40947526529351
20
-39.5974332539165
30
0
0
SPLINE
5
32B
100
AcDbEntity
8
1
62
256
6
ByLayer
370
13
48
1
60
0
100
AcDbSpline
70
4
71
3
72
8
73
4
40
0
40
0
40
0
40
0
40
1
40
1
40
1
40
1
41
1
10
8.52736995816187
20
-39.2408138737781
30
0
41
1
10
8.56066587994795
20
-39.2542647581336
30
0
41
1
10
8.59548474994398
20
-39.2733962141756
30
0
41
1
10
8.6304650608599
20
-39.2964750271758
30
0
0
SPLINE
5
32C
100
AcDbEntity
8
1
62
256
6
ByLayer
370
13
48
1
60
0
100
AcDbSpline
70
4
71
3
72
8
73
4
40
0
40
0
40
0
40
0
40
1
40
1
40
1
40
1
41
1
10
9.08308498044016
20
-39.7507716856815
30
0
41
1
10
9.0828426124055
20
-39.7502325780362
30
0
41
1
10
9.0826001477414
20
-39.7496935155364
30
0
41
1
10
9.08235758652245
20
-39.7491544982285
30
0
0
SPLINE
5
32D
100
AcDbEntity
8
1
62
256
6
ByLayer
370
13
48
1
60
0
100
AcDbSpline
70
4
71
3
72
8
73
4
40
0
40
0
40
0
40
0
40
1
40
1
40
1
40
1
41
1
10
9.24601461675977
20
-39.1426803174654
30
0
41
1
10
9.24493281477118
20
-39.1691911256232
30
0
41
1
10
9.24394504154313
20
-39.195711580666
30
0
41
1
10
9.24305480170571
20
-39.2222385465933
30
0
0
SPLINE
5
32E
100
AcDbEntity
8
1
62
256
6
ByLayer
370
13
48
1
60
0
100
AcDbSpline
70
4
71
3
72
8
73
4
40
0
40
0
40
0
40
0
40
1
40
1
40
1
40
1
41
1
10
8.75652360683114
20
-39.4763488059907
30
0
41
1
10
8.77342128468251
20
-39.5133802503087
30
0
41
1
10
8.78905818221921
20
-39.5523163544692
30
0
41
1
10
8.80190710655279
20
-39.5916290701336
30
0
0
SPLINE
5
32F
100
AcDbEntity
8
1
62
256
6
ByLayer
370
13
48
1
60
0
100
AcDbSpline
70
4
71
3
72
8
73
4
40
0
40
0
40
0
40
0
40
1
40
1
40
1
40
1
41
1
10
9.57503699880328
20
-39.5616408036725
30
0
41
1
10
9.57333238831873
20
-39.5576572845809
30
0
41
1
10
9.57163314370777
20
-39.553671423533
30
0
41
1
10
9.56993928407979
20
-39.549683238534
30
0
0
SPLINE
5
330
100
AcDbEntity
8
1
62
256
6
ByLayer
370
18
48
1
60
0
100
AcDbSpline
70
4
71
3
72
8
73
4
40
0
40
0
40
0
40
0
40
1
40
1
40
1
40
1
41
1
10
4.40000000000001
20
-40.6
30
0
41
1
10
4.36637864647011
20
-40.5999999999999
30
0
41
1
10
4.33246911000762
20
-40.5955956445159
30
0
41
1
10
4.30000000000001
20
-40.5869540414901
30
0
0
SPLINE
5
331
100
AcDbEntity
8
1
62
256
6
ByLayer
370
13
48
1
60
0
100
AcDbSpline
70
4
71
3
72
8
73
4
40
0
40
0
40
0
40
0
40
1
40
1
40
1
40
1
41
1
10
4.75137515054516
20
-39.0780203692056
30
0
41
1
10
4.75013490530057
20
-39.0456938544172
30
0
41
1
10
4.74899021953345
20
-39.0133596321301
30
0
41
1
10
4.74793746749884
20
-38.9810199560948
30
0
0
SPLINE
5
332
100
AcDbEntity
8
1
62
256
6
ByLayer
370
13
48
1
60
0
100
AcDbSpline
70
4
71
3
72
8
73
4
40
0
40
0
40
0
40
0
40
1
40
1
40
1
40
1
41
1
10
8.7605426720624
20
-38.7234909295233
30
0
41
1
10
8.75965646034882
20
-38.7292691217604
30
0
41
1
10
8.75874628472431
20
-38.7350441871398
30
0
41
1
10
8.75781222088415
20
-38.7408158168118
30
0
0
SPLINE
5
333
100
AcDbEntity
8
1
62
256
6
ByLayer
370
13
48
1
60
0
100
AcDbSpline
70
4
71
3
72
14
73
10
40
0
40
0
40
0
40
0
40
0.0143305415674637
40
0.0143305415674637
40
0.107260966796892
40
0.107260966796892
40
0.598402967610821
40
0.598402967610821
40
1
40
1
40
1
40
1
41
1
10
7.23861181598849
20
-34.6220305501844
30
0
41
1
10
7.23753206922692
20
-34.6217132559279
30
0
41
1
10
7.23645274795911
20
-34.6213897293464
30
0
41
1
10
7.22837696734797
20
-34.6189233785393
30
0
41
1
10
7.22138736614374
20
-34.6165284558979
30
0
41
1
10
7.17813856130203
20
-34.6000893037918
30
0
41
1
10
7.1420330711257
20
-34.5790711282749
30
0
41
1
10
7.08237799755557
20
-34.5306785155223
30
0
41
1
10
7.05710843301705
20
-34.5046345592233
30
0
41
1
10
7.03497193241967
20
-34.4757640921996
30
0
0
SPLINE
5
334
100
AcDbEntity
8
1
62
256
6
ByLayer
370
13
48
1
60
0
100
AcDbSpline
70
4
71
3
72
8
73
4
40
0
40
0
40
0
40
0
40
1
40
1
40
1
40
1
41
1
10
9.35745979050637
20
-39.6112743152022
30
0
41
1
10
9.36047348498022
20
-39.6185134912905
30
0
41
1
10
9.36349414067237
20
-39.6257492089483
30
0
41
1
10
9.36652171980839
20
-39.6329814138829
30
0
0
SPLINE
5
335
100
AcDbEntity
8
1
62
256
6
ByLayer
370
13
48
1
60
0
100
AcDbSpline
70
4
71
3
72
10
73
6
40
0
40
0
40
0
40
0
40
0.405280592224645
40
0.405280592224645
40
1
40
1
40
1
40
1
41
1
10
5.30962267346374
20
-39.3396886118677
30
0
41
1
10
5.3177105362077
20
-39.3333611488476
30
0
41
1
10
5.32581958930172
20
-39.3272182650202
30
0
41
1
10
5.34580810925695
20
-39.3125691188401
30
0
41
1
10
5.35770400022073
20
-39.3042806761192
30
0
41
1
10
5.36953493913501
20
-39.2964750271792
30
0
0
SPLINE
5
336
100
AcDbEntity
8
1
62
256
6
ByLayer
370
13
48
1
60
0
100
AcDbSpline
70
4
71
3
72
8
73
4
40
0
40
0
40
0
40
0
40
1
40
1
40
1
40
1
41
1
10
4.91764241349046
20
-39.7491544982117
30
0
41
1
10
4.91877076598854
20
-39.7506100918294
30
0
41
1
10
4.91992168285594
20
-39.7520662573624
30
0
41
1
10
4.92109471998049
20
-39.7535224694941
30
0
0
SPLINE
5
337
100
AcDbEntity
8
1
62
256
6
ByLayer
370
13
48
1
60
0
100
AcDbSpline
70
4
71
3
72
8
73
4
40
0
40
0
40
0
40
0
40
1
40
1
40
1
40
1
41
1
10
5.03603130702916
20
-39.3737330027423
30
0
41
1
10
5.01921578865904
20
-39.4235236041376
30
0
41
1
10
5.00159672310909
20
-39.4735123832403
30
0
41
1
10
4.98351975295401
20
-39.5231502777688
30
0
0
SPLINE
5
338
100
AcDbEntity
8
1
62
256
6
ByLayer
370
13
48
1
60
0
100
AcDbSpline
70
4
71
3
72
10
73
6
40
0
40
0
40
0
40
0
40
0.0945511425129532
40
0.0945511425129532
40
1
40
1
40
1
40
1
41
1
10
5.14273374488582
20
-39.9371816925959
30
0
41
1
10
5.1503121653038
20
-39.9584306129508
30
0
41
1
10
5.15801221033055
20
-39.9796373246759
30
0
41
1
10
5.24059058833046
20
-40.2033710982845
30
0
41
1
10
5.32582195348928
20
-40.40208161774
30
0
41
1
10
5.4123603045324
20
-40.6
30
0
0
SPLINE
5
339
100
AcDbEntity
8
1
62
256
6
ByLayer
370
13
48
1
60
0
100
AcDbSpline
70
4
71
3
72
8
73
4
40
0
40
0
40
0
40
0
40
1
40
1
40
1
40
1
41
1
10
5.18018332626201
20
-39.6665132813234
30
0
41
1
10
5.18100526553849
20
-39.661375599779
30
0
41
1
10
5.18190190026175
20
-39.6562391514019
30
0
41
1
10
5.18287714564318
20
-39.6511104023502
30
0
0
SPLINE
5
33A
100
AcDbEntity
8
1
62
256
6
ByLayer
370
13
48
1
60
0
100
AcDbSpline
70
4
71
3
72
8
73
4
40
0
40
0
40
0
40
0
40
1
40
1
40
1
40
1
41
1
10
4.47288560631674
20
-39.4454668759635
30
0
41
1
10
4.47011147284778
20
-39.4524496489785
30
0
41
1
10
4.46732106517067
20
-39.4594258636835
30
0
41
1
10
4.46451436968954
20
-39.4663953792878
30
0
0
SPLINE
5
33B
100
AcDbEntity
8
1
62
256
6
ByLayer
370
18
48
1
60
0
100
AcDbSpline
70
4
71
3
72
8
73
4
40
0
40
0
40
0
40
0
40
1
40
1
40
1
40
1
41
1
10
8.8305312013166
20
-39.2113098780317
30
0
41
1
10
8.82438513982129
20
-39.1869472527841
30
0
41
1
10
8.81819546433636
20
-39.162473952268
30
0
41
1
10
8.8099738368588
20
-39.1387687836018
30
0
0
SPLINE
5
33C
100
AcDbEntity
8
1
62
256
6
ByLayer
370
13
48
1
60
0
100
AcDbSpline
70
4
71
3
72
8
73
4
40
0
40
0
40
0
40
0
40
1
40
1
40
1
40
1
41
1
10
4.95812252599822
20
-39.7932468780101
30
0
41
1
10
4.96064133613956
20
-39.7956228027206
30
0
41
1
10
4.96320990698774
20
-39.7979936105664
30
0
41
1
10
4.96582533288128
20
-39.8003567929701
30
0
0
SPLINE
5
33D
100
AcDbEntity
8
1
62
256
6
ByLayer
370
13
48
1
60
0
100
AcDbSpline
70
4
71
3
72
8
73
4
40
0
40
0
40
0
40
0
40
1
40
1
40
1
40
1
41
1
10
5.31335456289142
20
-38.9798988508494
30
0
41
1
10
5.30335946340719
20
-38.9593565245428
30
0
41
1
10
5.29424792792284
20
-38.9382377969679
30
0
41
1
10
5.28610770768722
20
-38.9166804450442
30
0
0
SPLINE
5
33E
100
AcDbEntity
8
1
62
256
6
ByLayer
370
13
48
1
60
0
100
AcDbSpline
70
4
71
3
72
8
73
4
40
0
40
0
40
0
40
0
40
1
40
1
40
1
40
1
41
1
10
9.07197244662103
20
-39.7047794882308
30
0
41
1
10
9.07006469652251
20
-39.6970230347327
30
0
41
1
10
9.06810782022842
20
-39.6892735986023
30
0
41
1
10
9.06609943794362
20
-39.6815340464424
30
0
0
SPLINE
5
33F
100
AcDbEntity
8
1
62
256
6
ByLayer
370
13
48
1
60
0
100
AcDbSpline
70
4
71
3
72
8
73
4
40
0
40
0
40
0
40
0
40
1
40
1
40
1
40
1
41
1
10
9.08341501019081
20
-39.7515058310458
30
0
41
1
10
9.08330500674506
20
-39.7512611140747
30
0
41
1
10
9.08319499682614
20
-39.7510163989533
30
0
41
1
10
9.08308498044016
20
-39.7507716856813
30
0
0
SPLINE
5
340
100
AcDbEntity
8
1
62
256
6
ByLayer
370
13
48
1
60
0
100
AcDbSpline
70
4
71
3
72
10
73
6
40
0
40
0
40
0
40
0
40
0.508692379089456
40
0.508692379089456
40
1
40
1
40
1
40
1
41
1
10
5.09758601649116
20
-39.1383340901891
30
0
41
1
10
5.0976469984972
20
-39.1471606305851
30
0
41
1
10
5.09771562481501
20
-39.1559874722113
30
0
41
1
10
5.09786586471077
20
-39.1733399423986
30
0
41
1
10
5.09794695437361
20
-39.1818655754359
30
0
41
1
10
5.09803544205602
20
-39.1903913856543
30
0
0
SPLINE
5
341
100
AcDbEntity
8
1
62
256
6
ByLayer
370
13
48
1
60
0
100
AcDbSpline
70
4
71
3
72
8
73
4
40
0
40
0
40
0
40
0
40
1
40
1
40
1
40
1
41
1
10
9.48393521360256
20
-38.9909241904585
30
0
41
1
10
9.48649860113429
20
-38.9355267103992
30
0
41
1
10
9.48848307499605
20
-38.8800985030963
30
0
41
1
10
9.48990467261274
20
-38.8246581827827
30
0
0
SPLINE
5
342
100
AcDbEntity
8
1
62
256
6
ByLayer
370
13
48
1
60
0
100
AcDbSpline
70
4
71
3
72
8
73
4
40
0
40
0
40
0
40
0
40
1
40
1
40
1
40
1
41
1
10
9.06609943794422
20
-39.6815340464423
30
0
41
1
10
9.06409966066786
20
-39.6738276358528
30
0
41
1
10
9.06204866425338
20
-39.6661304290162
30
0
41
1
10
9.05994440618869
20
-39.6584451186158
30
0
0
SPLINE
5
343
100
AcDbEntity
8
1
62
256
6
ByLayer
370
18
48
1
60
0
100
AcDbSpline
70
4
71
3
72
8
73
4
40
0
40
0
40
0
40
0
40
1
40
1
40
1
40
1
41
1
10
10.0000230721854
20
-40.2000251289714
30
0
41
1
10
10.0000075602401
20
-40.2336382385321
30
0
41
1
10
9.99560294727178
20
-40.2675297856103
30
0
41
1
10
9.98699609893333
20
-40.3
30
0
0
SPLINE
5
344
100
AcDbEntity
8
1
62
256
6
ByLayer
370
13
48
1
60
0
100
AcDbSpline
70
4
71
3
72
8
73
4
40
0
40
0
40
0
40
0
40
1
40
1
40
1
40
1
41
1
10
8.22705954963854
20
-37.0327268129396
30
0
41
1
10
8.22788821447537
20
-37.0370056113086
30
0
41
1
10
8.22871812495137
20
-37.041285724127
30
0
41
1
10
8.22954926152244
20
-37.0455671218847
30
0
0
SPLINE
5
345
100
AcDbEntity
8
1
62
256
6
ByLayer
370
13
48
1
60
0
100
AcDbSpline
70
4
71
3
72
8
73
4
40
0
40
0
40
0
40
0
40
1
40
1
40
1
40
1
41
1
10
4.83461746202423
20
-39.9305699234432
30
0
41
1
10
4.81410327782993
20
-39.9736969440676
30
0
41
1
10
4.7930461284993
20
-40.0166193694879
30
0
41
1
10
4.77130420056872
20
-40.0592143058028
30
0
0
SPLINE
5
346
100
AcDbEntity
8
1
62
256
6
ByLayer
370
13
48
1
60
0
100
AcDbSpline
70
4
71
3
72
20
73
16
40
0
40
0
40
0
40
0
40
0.420305174844398
40
0.420305174844398
40
0.549360329208304
40
0.549360329208304
40
0.679941947335811
40
0.679941947335811
40
0.774080647274698
40
0.774080647274698
40
0.868875554966441
40
0.868875554966441
40
0.955720119024969
40
0.955720119024969
40
1
40
1
40
1
40
1
41
1
10
9.05359496416582
20
-40.1760620928875
30
0
41
1
10
9.11282993906724
20
-40.2740549355636
30
0
41
1
10
9.18550826472233
20
-40.3681803378038
30
0
41
1
10
9.30567746915159
20
-40.4593532669864
30
0
41
1
10
9.33650583557881
20
-40.4786925862559
30
0
41
1
10
9.4021405349946
20
-40.5088355420622
30
0
41
1
10
9.43775667906851
20
-40.5198065499011
30
0
41
1
10
9.49996888463266
20
-40.5261959242199
30
0
41
1
10
9.5268931469723
20
-40.525041491203
30
0
41
1
10
9.57821083947829
20
-40.5135317961734
30
0
41
1
10
9.60324981698116
20
-40.5028881180043
30
0
41
1
10
9.64534762537369
20
-40.4750357574553
30
0
41
1
10
9.6634214527449
20
-40.4581762197096
30
0
41
1
10
9.68641197203573
20
-40.4297951537144
30
0
41
1
10
9.69354548122621
20
-40.4195893043163
30
0
41
1
10
9.70000000000002
20
-40.4090128030805
30
0
0
SPLINE
5
347
100
AcDbEntity
8
1
62
256
6
ByLayer
370
13
48
1
60
0
100
AcDbSpline
70
4
71
3
72
8
73
4
40
0
40
0
40
0
40
0
40
1
40
1
40
1
40
1
41
1
10
4.46451436968977
20
-39.4663953792872
30
0
41
1
10
4.46170813340382
20
-39.4733637546294
30
0
41
1
10
4.45888559801401
20
-39.4803254714617
30
0
41
1
10
4.45604677383861
20
-39.4872803977669
30
0
0
SPLINE
5
348
100
AcDbEntity
8
1
62
256
6
ByLayer
370
13
48
1
60
0
100
AcDbSpline
70
4
71
3
72
28
73
24
40
0
40
0
40
0
40
0
40
0.0238654501829992
40
0.0238654501829992
40
0.133493938992442
40
0.133493938992442
40
0.240082406522265
40
0.240082406522265
40
0.344776691818427
40
0.344776691818427
40
0.381521206530059
40
0.381521206530059
40
0.49983051959323
40
0.49983051959323
40
0.612150105615729
40
0.612150105615729
40
0.727182535840185
40
0.727182535840185
40
0.849086632653424
40
0.849086632653424
40
0.971069278177375
40
0.971069278177375
40
1
40
1
40
1
40
1
41
1
10
8.64342275361588
20
-39.0591730137723
30
0
41
1
10
8.63462516809858
20
-39.0558413928676
30
0
41
1
10
8.62563080782334
20
-39.0529276910134
30
0
41
1
10
8.57501499586431
20
-39.0392054171296
30
0
41
1
10
8.52940457399774
20
-39.0368721370463
30
0
41
1
10
8.43882336190174
20
-39.0505097086246
30
0
41
1
10
8.39261473350626
20
-39.0661765059664
30
0
41
1
10
8.30559320891564
20
-39.1123764669923
30
0
41
1
10
8.2635249978328
20
-39.1432739155113
30
0
41
1
10
8.21247977818723
20
-39.192368599704
30
0
41
1
10
8.19955175134487
20
-39.2059856814281
30
0
41
1
10
8.14813314073575
20
-39.2658179742537
30
0
41
1
10
8.11175979685456
20
-39.3162140565334
30
0
41
1
10
8.05995454961172
20
-39.4220031574376
30
0
41
1
10
8.04218237181769
20
-39.4776904561292
30
0
41
1
10
8.02534028944476
20
-39.5891795137495
30
0
41
1
10
8.0264897635351
20
-39.6466940358799
30
0
41
1
10
8.04856423240975
20
-39.756179031321
30
0
41
1
10
8.07103855838335
20
-39.8095168441141
30
0
41
1
10
8.13260310614453
20
-39.8989333781026
30
0
41
1
10
8.17271480307622
20
-39.9365384041104
30
0
41
1
10
8.22822119405734
20
-39.9693883827676
30
0
41
1
10
8.23931987969954
20
-39.9751762105656
30
0
41
1
10
8.25065744849499
20
-39.980331589594
30
0
0
SPLINE
5
349
100
AcDbEntity
8
1
62
256
6
ByLayer
370
13
48
1
60
0
100
AcDbSpline
70
4
71
3
72
8
73
4
40
0
40
0
40
0
40
0
40
1
40
1
40
1
40
1
41
1
10
8.86098504271649
20
-37.4327828618976
30
0
41
1
10
8.80845681196158
20
-37.3568996027647
30
0
41
1
10
8.75349440614582
20
-37.2847799921849
30
0
41
1
10
8.6966319687381
20
-37.217398644719
30
0
0
SPLINE
5
34A
100
AcDbEntity
8
1
62
256
6
ByLayer
370
13
48
1
60
0
100
AcDbSpline
70
4
71
3
72
14
73
10
40
0
40
0
40
0
40
0
40
0.0506235582345237
40
0.0506235582345237
40
0.270787131415134
40
0.270787131415134
40
0.962251762207655
40
0.962251762207655
40
1
40
1
40
1
40
1
41
1
10
6.78670345235756
20
-34.5187934629083
30
0
41
1
10
6.78785677357871
20
-34.5183135963341
30
0
41
1
10
6.78896275629418
20
-34.5177568815568
30
0
41
1
10
6.79456478740366
20
-34.5145211510911
30
0
41
1
10
6.79832007259481
20
-34.5109255659681
30
0
41
1
10
6.8118520937154
20
-34.4952097771278
30
0
41
1
10
6.81846949643818
20
-34.4807878917762
30
0
41
1
10
6.82450856118115
20
-34.465597039921
30
0
41
1
10
6.82481854086475
20
-34.4648080869709
30
0
41
1
10
6.82512540470901
20
-34.4640179336235
30
0
0
SPLINE
5
34B
100
AcDbEntity
8
1
62
256
6
ByLayer
370
13
48
1
60
0
100
AcDbSpline
70
4
71
3
72
8
73
4
40
0
40
0
40
0
40
0
40
1
40
1
40
1
40
1
41
1
10
5.1727390103641
20
-39.7449712215412
30
0
41
1
10
5.17292803255154
20
-39.7400949698369
30
0
41
1
10
5.17316062459207
20
-39.7352009985676
30
0
41
1
10
5.17344205147123
20
-39.730293747724
30
0
0
SPLINE
5
34C
100
AcDbEntity
8
1
62
256
6
ByLayer
370
13
48
1
60
0
100
AcDbSpline
70
4
71
3
72
8
73
4
40
0
40
0
40
0
40
0
40
1
40
1
40
1
40
1
41
1
10
9.33052353446254
20
-39.5460260607215
30
0
41
1
10
9.33349560388461
20
-39.5532862786722
30
0
41
1
10
9.33647466628344
20
-39.5605431655646
30
0
41
1
10
9.33946071172582
20
-39.5677966553318
30
0
0
SPLINE
5
34D
100
AcDbEntity
8
1
62
256
6
ByLayer
370
13
48
1
60
0
100
AcDbSpline
70
4
71
3
72
26
73
22
40
0
40
0
40
0
40
0
40
0.0122865037332731
40
0.0122865037332731
40
0.0203633243287143
40
0.0203633243287143
40
0.0324483024075956
40
0.0324483024075956
40
0.0517995738135045
40
0.0517995738135045
40
0.0828572599965518
40
0.0828572599965518
40
0.132959910827485
40
0.132959910827485
40
0.21478442682823
40
0.21478442682823
40
0.352758585347198
40
0.352758585347198
40
0.512659311053162
40
0.512659311053162
40
1
40
1
40
1
40
1
41
1
10
8.17453920771712
20
-35.8790160745721
30
0
41
1
10
8.17419545961121
20
-35.8802631387214
30
0
41
1
10
8.17385229597022
20
-35.8815121178776
30
0
41
1
10
8.17327797065664
20
-35.8835965018358
30
0
41
1
10
8.17304784823511
20
-35.8844312261931
30
0
41
1
10
8.1724726319066
20
-35.8865165813827
30
0
41
1
10
8.1721271496001
20
-35.8877680601335
30
0
41
1
10
8.17122668897372
20
-35.8910272677862
30
0
41
1
10
8.17067062507917
20
-35.8930373472372
30
0
41
1
10
8.16921770273942
20
-35.8982827003007
30
0
41
1
10
8.16831808653393
20
-35.9015238746159
30
0
41
1
10
8.1659563866007
20
-35.9100155123904
30
0
41
1
10
8.16448728312764
20
-35.9152807131758
30
0
41
1
10
8.16059316734638
20
-35.9291930246603
30
0
41
1
10
8.15815009287991
20
-35.9378769144195
30
0
41
1
10
8.15153004346067
20
-35.9612949416929
30
0
41
1
10
8.14730477179586
20
-35.976122613555
30
0
41
1
10
8.13809697424497
20
-36.0082176667697
30
0
41
1
10
8.13308726457439
20
-36.0255451730317
30
0
41
1
10
8.11295360592061
20
-36.0948148203061
30
0
41
1
10
8.09737650568877
20
-36.1474689063881
30
0
41
1
10
8.08330064940867
20
-36.1961097614156
30
0
0
SPLINE
5
34E
100
AcDbEntity
8
1
62
256
6
ByLayer
370
13
48
1
60
0
100
AcDbSpline
70
4
71
3
72
10
73
6
40
0
40
0
40
0
40
0
40
0.0761117852937315
40
0.0761117852937315
40
1
40
1
40
1
40
1
41
1
10
8.90518767438152
20
-39.9065084491241
30
0
41
1
10
8.90612974060056
20
-39.9057979286698
30
0
41
1
10
8.90707200224062
20
-39.9050866931816
30
0
41
1
10
8.91944623645216
20
-39.8957243604834
30
0
41
1
10
8.93086990512126
20
-39.8868872774648
30
0
41
1
10
8.94212193517527
20
-39.8779887348242
30
0
0
SPLINE
5
34F
100
AcDbEntity
8
1
62
256
6
ByLayer
370
13
48
1
60
0
100
AcDbSpline
70
4
71
3
72
8
73
4
40
0
40
0
40
0
40
0
40
1
40
1
40
1
40
1
41
1
10
9.58532975167259
20
-39.5855156775903
30
0
41
1
10
9.58360357826297
20
-39.5815411699149
30
0
41
1
10
9.58188273313706
20
-39.5775643019078
30
0
41
1
10
9.58016724043225
20
-39.5735850890743
30
0
0
SPLINE
5
350
100
AcDbEntity
8
1
62
256
6
ByLayer
370
13
48
1
60
0
100
AcDbSpline
70
4
71
3
72
8
73
4
40
0
40
0
40
0
40
0
40
1
40
1
40
1
40
1
41
1
10
4.51009532738729
20
-38.8246581827827
30
0
41
1
10
4.51151692500397
20
-38.8800985030963
30
0
41
1
10
4.51350139886574
20
-38.9355267103992
30
0
41
1
10
4.51606478639746
20
-38.9909241904585
30
0
0
SPLINE
5
351
100
AcDbEntity
8
1
62
256
6
ByLayer
370
13
48
1
60
0
100
AcDbSpline
70
4
71
3
72
8
73
4
40
0
40
0
40
0
40
0
40
1
40
1
40
1
40
1
41
1
10
9.56117981616268
20
-39.5289237938153
30
0
41
1
10
9.55827630900728
20
-39.5219972614916
30
0
41
1
10
9.55538902934009
20
-39.5150637815396
30
0
41
1
10
9.55251803501469
20
-39.5081234667115
30
0
0
SPLINE
5
352
100
AcDbEntity
8
1
62
256
6
ByLayer
370
18
48
1
60
0
100
AcDbSpline
70
4
71
3
72
8
73
4
40
0
40
0
40
0
40
0
40
1
40
1
40
1
40
1
41
1
10
5.19002616314123
20
-39.1387687836018
30
0
41
1
10
5.18180453566367
20
-39.162473952268
30
0
41
1
10
5.1756148601788
20
-39.1869472527841
30
0
41
1
10
5.16946879868348
20
-39.2113098780317
30
0
0
SPLINE
5
353
100
AcDbEntity
8
1
62
256
6
ByLayer
370
18
48
1
60
0
100
AcDbSpline
70
4
71
3
72
8
73
4
40
0
40
0
40
0
40
0
40
1
40
1
40
1
40
1
41
1
10
9.05359496410853
20
-40.1760620927783
30
0
41
1
10
9.11785050184488
20
-40.1372984054744
30
0
41
1
10
9.18167593946472
20
-40.0946138634622
30
0
41
1
10
9.22857323518582
20
-40.0592629624678
30
0
0
SPLINE
5
354
100
AcDbEntity
8
1
62
256
6
ByLayer
370
13
48
1
60
0
100
AcDbSpline
70
4
71
3
72
8
73
4
40
0
40
0
40
0
40
0
40
1
40
1
40
1
40
1
41
1
10
4.45604677383659
20
-39.4872803977718
30
0
41
1
10
4.45320813093377
20
-39.494234879972
30
0
41
1
10
4.45035318325918
20
-39.5011826105127
30
0
41
1
10
4.44748196498625
20
-39.5081234667093
30
0
0
SPLINE
5
355
100
AcDbEntity
8
1
62
256
6
ByLayer
370
13
48
1
60
0
100
AcDbSpline
70
4
71
3
72
8
73
4
40
0
40
0
40
0
40
0
40
1
40
1
40
1
40
1
41
1
10
9.4866852326696
20
-39.3401710352723
30
0
41
1
10
9.48025407432002
20
-39.322832963943
30
0
41
1
10
9.47554829783229
20
-39.3047424676917
30
0
41
1
10
9.47271487966802
20
-39.2864533085229
30
0
0
SPLINE
5
356
100
AcDbEntity
8
1
62
256
6
ByLayer
370
13
48
1
60
0
100
AcDbSpline
70
4
71
3
72
8
73
4
40
0
40
0
40
0
40
0
40
1
40
1
40
1
40
1
41
1
10
9.1056227437424
20
-39.8011366675816
30
0
41
1
10
9.1037801503542
20
-39.796999435178
30
0
41
1
10
9.1019356024668
20
-39.7928627483197
30
0
41
1
10
9.10008912721463
20
-39.7887266056559
30
0
0
SPLINE
5
357
100
AcDbEntity
8
1
62
256
6
ByLayer
370
13
48
1
60
0
100
AcDbSpline
70
4
71
3
72
18
73
14
40
0
40
0
40
0
40
0
40
0.144097970519712
40
0.144097970519712
40
0.18129827964195
40
0.18129827964195
40
0.255698880355777
40
0.255698880355777
40
0.404503164382778
40
0.404503164382778
40
0.702246883828629
40
0.702246883828629
40
1
40
1
40
1
40
1
41
1
10
4.56624397177421
20
-38.2326098900027
30
0
41
1
10
4.56276402969593
20
-38.2537757964872
30
0
41
1
10
4.55911854830467
20
-38.2749149760046
30
0
41
1
10
4.55497914967034
20
-38.3015840021964
30
0
41
1
10
4.55414729015047
20
-38.3070590787403
30
0
41
1
10
4.55164557909262
20
-38.3234833070402
30
0
41
1
10
4.54996467828383
20
-38.3344307667064
30
0
41
1
10
4.54491950189362
20
-38.3672731053029
30
0
41
1
10
4.54156459454637
20
-38.3891699956829
30
0
41
1
10
4.53204232999457
20
-38.4549525740475
30
0
41
1
10
4.52645924772855
20
-38.4989387562939
30
0
41
1
10
4.51759622575594
20
-38.5871321897618
30
0
41
1
10
4.51432687120311
20
-38.6313570840831
30
0
41
1
10
4.5120048023438
20
-38.6756163060044
30
0
0
SPLINE
5
358
100
AcDbEntity
8
1
62
256
6
ByLayer
370
13
48
1
60
0
100
AcDbSpline
70
4
71
3
72
28
73
24
40
0
40
0
40
0
40
0
40
0.0285048011796414
40
0.0285048011796414
40
0.151898778447307
40
0.151898778447307
40
0.279699530330896
40
0.279699530330896
40
0.401871057836521
40
0.401871057836521
40
0.519220341004479
40
0.519220341004479
40
0.637363844465004
40
0.637363844465004
40
0.671870169364807
40
0.671870169364807
40
0.770694734486077
40
0.770694734486077
40
0.871988274207652
40
0.871988274207652
40
0.977006585692239
40
0.977006585692239
40
1
40
1
40
1
40
1
41
1
10
8.31148012697994
20
-39.7881525715215
30
0
41
1
10
8.30523327256128
20
-39.7848940351992
30
0
41
1
10
8.29914874389874
20
-39.7812573426557
30
0
41
1
10
8.26824642360452
20
-39.7603548107668
30
0
41
1
10
8.24650321567515
20
-39.7367300056093
30
0
41
1
10
8.21300138336375
20
-39.6814237342445
30
0
41
1
10
8.20101657818952
20
-39.6485897215335
30
0
41
1
10
8.18913098860673
20
-39.5815865558034
30
0
41
1
10
8.18854775347464
20
-39.5466205369648
30
0
41
1
10
8.19776652520505
20
-39.4789842092364
30
0
41
1
10
8.20728787788138
20
-39.4454183487516
30
0
41
1
10
8.2353299934791
20
-39.3823466523737
30
0
41
1
10
8.25433026685357
20
-39.3518885884218
30
0
41
1
10
8.28345561248125
20
-39.3180282855937
30
0
41
1
10
8.29045954862841
20
-39.3106168994869
30
0
41
1
10
8.31824976200983
20
-39.2838531739458
30
0
41
1
10
8.34129838654502
20
-39.2671272257887
30
0
41
1
10
8.38905588268165
20
-39.2422670568049
30
0
41
1
10
8.41449469573249
20
-39.233984636385
30
0
41
1
10
8.46444181142948
20
-39.2271881355798
30
0
41
1
10
8.48963890483316
20
-39.2289358942438
30
0
41
1
10
8.51753054684229
20
-39.2371189091745
30
0
41
1
10
8.52250697723255
20
-39.2388493270533
30
0
41
1
10
8.52736995816164
20
-39.2408138737783
30
0
0
SPLINE
5
359
100
AcDbEntity
8
1
62
256
6
ByLayer
370
13
48
1
60
0
100
AcDbSpline
70
4
71
3
72
20
73
16
40
0
40
0
40
0
40
0
40
0.0442798809751474
40
0.0442798809751474
40
0.131124445033902
40
0.131124445033902
40
0.225919352725892
40
0.225919352725892
40
0.320058052665024
40
0.320058052665024
40
0.45063967079287
40
0.45063967079287
40
0.579694825157114
40
0.579694825157114
40
1
40
1
40
1
40
1
41
1
10
4.30000000000001
20
-40.4090128030805
30
0
41
1
10
4.30645451877382
20
-40.4195893043163
30
0
41
1
10
4.3135880279643
20
-40.4297951537144
30
0
41
1
10
4.33657854725513
20
-40.4581762197096
30
0
41
1
10
4.35465237462634
20
-40.4750357574553
30
0
41
1
10
4.39675018301887
20
-40.5028881180043
30
0
41
1
10
4.42178916052174
20
-40.5135317961734
30
0
41
1
10
4.47310685302773
20
-40.525041491203
30
0
41
1
10
4.50003111536736
20
-40.5261959242199
30
0
41
1
10
4.56224332093151
20
-40.5198065499011
30
0
41
1
10
4.59785946500543
20
-40.5088355420622
30
0
41
1
10
4.66349416442122
20
-40.4786925862559
30
0
41
1
10
4.69432253084844
20
-40.4593532669864
30
0
41
1
10
4.8144917352777
20
-40.3681803378038
30
0
41
1
10
4.88717006093276
20
-40.2740549355636
30
0
41
1
10
4.9464050358342
20
-40.1760620928875
30
0
0
SPLINE
5
35A
100
AcDbEntity
8
1
62
256
6
ByLayer
370
13
48
1
60
0
100
AcDbSpline
70
4
71
3
72
8
73
4
40
0
40
0
40
0
40
0
40
1
40
1
40
1
40
1
41
1
10
4.41983275956778
20
-39.5735850890743
30
0
41
1
10
4.41811726686296
20
-39.5775643019078
30
0
41
1
10
4.41639642173706
20
-39.5815411699149
30
0
41
1
10
4.41467024832744
20
-39.5855156775903
30
0
0
SPLINE
5
35B
100
AcDbEntity
8
1
62
256
6
ByLayer
370
13
48
1
60
0
100
AcDbSpline
70
4
71
3
72
10
73
6
40
0
40
0
40
0
40
0
40
0.0762840566433824
40
0.0762840566433824
40
1
40
1
40
1
40
1
41
1
10
8.90518767442734
20
-39.9065084491738
30
0
41
1
10
8.90467974428176
20
-39.9054486723054
30
0
41
1
10
8.90417323266774
20
-39.9043872680981
30
0
41
1
10
8.8974965559658
20
-39.8904798567386
30
0
41
1
10
8.89110685198102
20
-39.8775721362027
30
0
41
1
10
8.88458731117842
20
-39.8648003373363
30
0
0
SPLINE
5
35C
100
AcDbEntity
8
1
62
256
6
ByLayer
370
13
48
1
60
0
100
AcDbSpline
70
4
71
3
72
8
73
4
40
0
40
0
40
0
40
0
40
1
40
1
40
1
40
1
41
1
10
8.90108698763606
20
-38.7321403749877
30
0
41
1
10
8.89947331350189
20
-38.6981858751893
30
0
41
1
10
8.89552855562997
20
-38.6643148627437
30
0
41
1
10
8.88995757891766
20
-38.6310739318799
30
0
0
SPLINE
5
35D
100
AcDbEntity
8
1
62
256
6
ByLayer
370
13
48
1
60
0
100
AcDbSpline
70
4
71
3
72
8
73
4
40
0
40
0
40
0
40
0
40
1
40
1
40
1
40
1
41
1
10
9.29518704438937
20
-39.4587307350278
30
0
41
1
10
9.29810428353406
20
-39.4660189175328
30
0
41
1
10
9.30102843271766
20
-39.4733039881168
30
0
41
1
10
9.30395951882738
20
-39.4805858669152
30
0
0
SPLINE
5
35E
100
AcDbEntity
8
1
62
256
6
ByLayer
370
13
48
1
60
0
100
AcDbSpline
70
4
71
3
72
8
73
4
40
0
40
0
40
0
40
0
40
1
40
1
40
1
40
1
41
1
10
5.09311549757501
20
-39.9099740956112
30
0
41
1
10
5.09368074938513
20
-39.908818708514
30
0
41
1
10
5.09424635926885
20
-39.907663493138
30
0
41
1
10
5.0948123256149
20
-39.906508449111
30
0
0
SPLINE
5
35F
100
AcDbEntity
8
1
62
256
6
ByLayer
370
13
48
1
60
0
100
AcDbSpline
70
4
71
3
72
8
73
4
40
0
40
0
40
0
40
0
40
1
40
1
40
1
40
1
41
1
10
9.53548563031049
20
-39.4663953792878
30
0
41
1
10
9.53267893482933
20
-39.4594258636835
30
0
41
1
10
9.52988852715225
20
-39.4524496489785
30
0
41
1
10
9.52711439368326
20
-39.4454668759635
30
0
0
SPLINE
5
360
100
AcDbEntity
8
1
62
256
6
ByLayer
370
13
48
1
60
0
100
AcDbSpline
70
4
71
3
72
8
73
4
40
0
40
0
40
0
40
0
40
1
40
1
40
1
40
1
41
1
10
9.27776348100207
20
-39.4149580164183
30
0
41
1
10
9.28065384245537
20
-39.4222598617321
30
0
41
1
10
9.28355101998795
20
-39.4295587236344
30
0
41
1
10
9.28645505817141
20
-39.4368545163779
30
0
0
SPLINE
5
361
100
AcDbEntity
8
1
62
256
6
ByLayer
370
13
48
1
60
0
100
AcDbSpline
70
4
71
3
72
8
73
4
40
0
40
0
40
0
40
0
40
1
40
1
40
1
40
1
41
1
10
8.90258745346702
20
-38.8109443135566
30
0
41
1
10
8.90276627394505
20
-38.7913424452924
30
0
41
1
10
8.90253931597465
20
-38.7717331200064
30
0
41
1
10
8.90190408328505
20
-38.7521435364737
30
0
0
SPLINE
5
362
100
AcDbEntity
8
1
62
256
6
ByLayer
370
13
48
1
60
0
100
AcDbSpline
70
4
71
3
72
8
73
4
40
0
40
0
40
0
40
0
40
1
40
1
40
1
40
1
41
1
10
9.69951772627067
20
-39.882516190279
30
0
41
1
10
9.68375049271762
20
-39.8343751227863
30
0
41
1
10
9.66675685613188
20
-39.7866279183623
30
0
41
1
10
9.6486651860989
20
-39.7393259367937
30
0
0
SPLINE
5
363
100
AcDbEntity
8
1
62
256
6
ByLayer
370
13
48
1
60
0
100
AcDbSpline
70
4
71
3
72
12
73
8
40
0
40
0
40
0
40
0
40
0.376458038616303
40
0.752916077232605
40
0.941145096540757
40
0.988202351367794
40
1
40
1
40
1
40
1
41
1
10
5.25587635396769
20
-38.2961878440812
30
0
41
1
10
5.24036728541131
20
-38.2952585838946
30
0
41
1
10
5.20976602123264
20
-38.2934250413863
30
0
41
1
10
5.1729973528289
20
-38.2912219651965
30
0
41
1
10
5.14835387811075
20
-38.289745396837
30
0
41
1
10
5.13978790193826
20
-38.2892321474057
30
0
41
1
10
5.13693627731146
20
-38.2890612860014
30
0
41
1
10
5.13628339194995
20
-38.2890221669292
30
0
0
SPLINE
5
364
100
AcDbEntity
8
1
62
256
6
ByLayer
370
13
48
1
60
0
100
AcDbSpline
70
4
71
3
72
8
73
4
40
0
40
0
40
0
40
0
40
1
40
1
40
1
40
1
41
1
10
4.43006071592021
20
-39.549683238534
30
0
41
1
10
4.42836685629226
20
-39.553671423533
30
0
41
1
10
4.4266676116813
20
-39.5576572845809
30
0
41
1
10
4.42496300119674
20
-39.5616408036725
30
0
0
SPLINE
5
365
100
AcDbEntity
8
1
62
256
6
ByLayer
370
13
48
1
60
0
100
AcDbSpline
70
4
71
3
72
8
73
4
40
0
40
0
40
0
40
0
40
1
40
1
40
1
40
1
41
1
10
4.72223651899802
20
-39.4149580164184
30
0
41
1
10
4.73456208407902
20
-39.3844035113633
30
0
41
1
10
4.74378647049102
20
-39.3524003181638
30
0
41
1
10
4.74961509291307
20
-39.319965552646
30
0
0
SPLINE
5
366
100
AcDbEntity
8
1
62
256
6
ByLayer
370
13
48
1
60
0
100
AcDbSpline
70
4
71
3
72
11
73
7
40
0
40
0
40
0
40
0
40
0.257176923133702
40
0.513609588248166
40
0.770214864775536
40
1
40
1
40
1
40
1
41
1
10
8.86372389591503
20
-38.2890217302625
30
0
41
1
10
8.88842666300985
20
-38.2875416189014
30
0
41
1
10
8.93776070854383
20
-38.2845856795524
30
0
41
1
10
9.03609994345931
20
-38.2786933225244
30
0
41
1
10
9.1328907511386
20
-38.2728944151057
30
0
41
1
10
9.18598166196614
20
-38.2697121489769
30
0
41
1
10
9.21106336964161
20
-38.2682087528674
30
0
0
SPLINE
5
367
100
AcDbEntity
8
1
62
256
6
ByLayer
370
13
48
1
60
0
100
AcDbSpline
70
4
71
3
72
8
73
4
40
0
40
0
40
0
40
0
40
1
40
1
40
1
40
1
41
1
10
8.71389229231281
20
-38.9166804450442
30
0
41
1
10
8.70575207207719
20
-38.9382377969679
30
0
41
1
10
8.69664053659284
20
-38.9593565245428
30
0
41
1
10
8.68664543710861
20
-38.9798988508494
30
0
0
SPLINE
5
368
100
AcDbEntity
8
1
62
256
6
ByLayer
370
18
48
1
60
0
100
AcDbSpline
70
4
71
3
72
8
73
4
40
0
40
0
40
0
40
0
40
1
40
1
40
1
40
1
41
1
10
6.45368578604479
20
-40.5812841794829
30
0
41
1
10
6.63194802598733
20
-40.5786607767305
30
0
41
1
10
6.81661320898451
20
-40.5774072426711
30
0
41
1
10
7.00000006617728
20
-40.5774062521179
30
0
0
SPLINE
5
369
100
AcDbEntity
8
1
62
256
6
ByLayer
370
13
48
1
60
0
100
AcDbSpline
70
4
71
3
72
28
73
24
40
0
40
0
40
0
40
0
40
0.116082472703728
40
0.116082472703728
40
0.214332186871181
40
0.214332186871181
40
0.420442855905034
40
0.420442855905034
40
0.455141483268879
40
0.455141483268879
40
0.499181997485061
40
0.499181997485061
40
0.499614608087971
40
0.499614608087971
40
0.520836126473475
40
0.520836126473475
40
0.565426012991209
40
0.565426012991209
40
0.768179570531313
40
0.768179570531313
40
0.97068120938367
40
0.97068120938367
40
1
40
1
40
1
40
1
41
1
10
8.23269415829662
20
-37.061983131599
30
0
41
1
10
8.16322018969771
20
-37.0921107466435
30
0
41
1
10
8.08618243716012
20
-37.1286966306219
30
0
41
1
10
7.93390867555527
20
-37.2056916716426
30
0
41
1
10
7.85981676441722
20
-37.2448779560936
30
0
41
1
10
7.62170116230843
20
-37.374764391258
30
0
41
1
10
7.44876121985024
20
-37.4839667373907
30
0
41
1
10
7.21747491836231
20
-37.5905955092177
30
0
41
1
10
7.18259265923081
20
-37.6052861613364
30
0
41
1
10
7.10057441814317
20
-37.6322340040757
30
0
41
1
10
7.05090781976944
20
-37.6427529473172
30
0
41
1
10
7.00099354378628
20
-37.6429451876798
30
0
41
1
10
7.00049677118511
20
-37.6429461443519
30
0
41
1
10
6.97578722705435
20
-37.6429461443519
30
0
41
1
10
6.9514549323919
20
-37.6405862956807
30
0
41
1
10
6.87853378498809
20
-37.6274836547347
30
0
41
1
10
6.83145056976844
20
-37.6107286924557
30
0
41
1
10
6.58797307486276
20
-37.507889527918
30
0
41
1
10
6.41711867779424
20
-37.396811408232
30
0
41
1
10
6.09646107416722
20
-37.2203516214697
30
0
41
1
10
5.94814336537527
20
-37.1437420941416
30
0
41
1
10
5.80299718811349
20
-37.077664249671
30
0
41
1
10
5.78491429124915
20
-37.0696190936743
30
0
41
1
10
5.7673058417034
20
-37.061983131599
30
0
0
SPLINE
5
36A
100
AcDbEntity
8
1
62
256
6
ByLayer
370
13
48
1
60
0
100
AcDbSpline
70
4
71
3
72
8
73
4
40
0
40
0
40
0
40
0
40
1
40
1
40
1
40
1
41
1
10
9.49458355033087
20
-39.3613181945758
30
0
41
1
10
9.49193487401396
20
-39.3542752074691
30
0
41
1
10
9.48930214504296
20
-39.3472260961063
30
0
41
1
10
9.48668523266821
20
-39.3401710352685
30
0
0
SPLINE
5
36B
100
AcDbEntity
8
1
62
256
6
ByLayer
370
13
48
1
60
0
100
AcDbSpline
70
4
71
3
72
8
73
4
40
0
40
0
40
0
40
0
40
1
40
1
40
1
40
1
41
1
10
8.82662057363746
20
-39.7576101156604
30
0
41
1
10
8.82652498817947
20
-39.7582339340971
30
0
41
1
10
8.82641848974555
20
-39.7588569761846
30
0
41
1
10
8.82630033167558
20
-39.7594785615588
30
0
0
SPLINE
5
36C
100
AcDbEntity
8
1
62
256
6
ByLayer
370
13
48
1
60
0
100
AcDbSpline
70
4
71
3
72
8
73
4
40
0
40
0
40
0
40
0
40
1
40
1
40
1
40
1
41
1
10
4.90545670174777
20
-39.77631836057
30
0
41
1
10
4.90360618170328
20
-39.7804539020509
30
0
41
1
10
4.90175756280544
20
-39.7845899831722
30
0
41
1
10
4.89991087278531
20
-39.7887266056559
30
0
0
SPLINE
5
36D
100
AcDbEntity
8
1
62
256
6
ByLayer
370
13
48
1
60
0
100
AcDbSpline
70
4
71
3
72
8
73
4
40
0
40
0
40
0
40
0
40
1
40
1
40
1
40
1
41
1
10
5.17877393365015
20
-38.9775484919209
30
0
41
1
10
5.1808169142391
20
-39.0090112369568
30
0
41
1
10
5.18308822690761
20
-39.0404608506527
30
0
41
1
10
5.1856635266569
20
-39.0718661171709
30
0
0
SPLINE
5
36E
100
AcDbEntity
8
1
62
256
6
ByLayer
370
13
48
1
60
0
100
AcDbSpline
70
4
71
3
72
8
73
4
40
0
40
0
40
0
40
0
40
1
40
1
40
1
40
1
41
1
10
8.36861940840581
20
-36.1488329740574
30
0
41
1
10
8.37252260787633
20
-36.173774156162
30
0
41
1
10
8.37840344586172
20
-36.198268954169
30
0
41
1
10
8.38571315827866
20
-36.2218692005293
30
0
0
SPLINE
5
36F
100
AcDbEntity
8
1
62
256
6
ByLayer
370
13
48
1
60
0
100
AcDbSpline
70
4
71
3
72
8
73
4
40
0
40
0
40
0
40
0
40
1
40
1
40
1
40
1
41
1
10
8.66706954469524
20
-39.0173790825029
30
0
41
1
10
8.66641591085875
20
-39.0185473978274
30
0
41
1
10
8.66576012592921
20
-39.0197143360831
30
0
41
1
10
8.66510219513773
20
-39.0208798836219
30
0
0
SPLINE
5
370
100
AcDbEntity
8
1
62
256
6
ByLayer
370
13
48
1
60
0
100
AcDbSpline
70
4
71
3
72
8
73
4
40
0
40
0
40
0
40
0
40
1
40
1
40
1
40
1
41
1
10
8.9051876743851
20
-39.906508449111
30
0
41
1
10
8.90575364073118
20
-39.907663493138
30
0
41
1
10
8.9063192506149
20
-39.908818708514
30
0
41
1
10
8.90688450242502
20
-39.9099740956112
30
0
0
SPLINE
5
371
100
AcDbEntity
8
1
62
256
6
ByLayer
370
13
48
1
60
0
100
AcDbSpline
70
4
71
3
72
10
73
6
40
0
40
0
40
0
40
0
40
0.32835036246084
40
0.32835036246084
40
1
40
1
40
1
40
1
41
1
10
9.5878532788885
20
-40.2878589937234
30
0
41
1
10
9.58855146993199
20
-40.2930492714346
30
0
41
1
10
9.58888463745026
20
-40.2983205038718
30
0
41
1
10
9.58873185030399
20
-40.3142838869193
30
0
41
1
10
9.58723571657418
20
-40.3250719873787
30
0
41
1
10
9.58452674519359
20
-40.3354471297938
30
0
0
SPLINE
5
372
100
AcDbEntity
8
1
62
256
6
ByLayer
370
18
48
1
60
0
100
AcDbSpline
70
4
71
3
72
10
73
6
40
0
40
0
40
0
40
0
40
0.0481640878865046
40
0.0481640878865046
40
1
40
1
40
1
40
1
41
1
10
8.80997383684891
20
-39.1387687835787
30
0
41
1
10
8.80995331605908
20
-39.1387096166091
30
0
41
1
10
8.80993279104351
20
-39.1386504511154
30
0
41
1
10
8.80950709149917
20
-39.1374237051075
30
0
41
1
10
8.80909843849918
20
-39.1362575084262
30
0
41
1
10
8.8086910031256
20
-39.1350906272085
30
0
0
SPLINE
5
373
100
AcDbEntity
8
1
62
256
6
ByLayer
370
13
48
1
60
0
100
AcDbSpline
70
4
71
3
72
8
73
4
40
0
40
0
40
0
40
0
40
1
40
1
40
1
40
1
41
1
10
8.96396869297087
20
-39.3737330027423
30
0
41
1
10
8.9458655161948
20
-39.320042226577
30
0
41
1
10
8.92836170127435
20
-39.2660036127091
30
0
41
1
10
8.91389563504913
20
-39.2138402654707
30
0
0
SPLINE
5
374
100
AcDbEntity
8
1
62
256
6
ByLayer
370
13
48
1
60
0
100
AcDbSpline
70
4
71
3
72
8
73
4
40
0
40
0
40
0
40
0
40
1
40
1
40
1
40
1
41
1
10
9.04673824276574
20
-39.6127323492319
30
0
41
1
10
9.04443711256829
20
-39.6051750867673
30
0
41
1
10
9.04208016853622
20
-39.5976327023415
30
0
41
1
10
9.03966632872772
20
-39.5901075129052
30
0
0
SPLINE
5
375
100
AcDbEntity
8
1
62
256
6
ByLayer
370
13
48
1
60
0
100
AcDbSpline
70
4
71
3
72
8
73
4
40
0
40
0
40
0
40
0
40
1
40
1
40
1
40
1
41
1
10
5.41766528196732
20
-36.9771717426968
30
0
41
1
10
5.41647008420912
20
-36.9823958986584
30
0
41
1
10
5.4152706675865
20
-36.9876210092493
30
0
41
1
10
5.41406711346315
20
-36.9928470379229
30
0
0
SPLINE
5
376
100
AcDbEntity
8
1
62
256
6
ByLayer
370
13
48
1
60
0
100
AcDbSpline
70
4
71
3
72
8
73
4
40
0
40
0
40
0
40
0
40
1
40
1
40
1
40
1
41
1
10
5.7673058417034
20
-37.061983131599
30
0
41
1
10
5.76835825736848
20
-37.0565099554025
30
0
41
1
10
5.76940657766815
20
-37.0510379427018
30
0
41
1
10
5.77045073847759
20
-37.0455671218847
30
0
0
SPLINE
5
377
100
AcDbEntity
8
1
62
256
6
ByLayer
370
13
48
1
60
0
100
AcDbSpline
70
4
71
3
72
10
73
6
40
0
40
0
40
0
40
0
40
0.0001660019773297
40
0.0001660019773297
40
1
40
1
40
1
40
1
41
1
10
4.89412331593996
20
-37
30
0
41
1
10
4.89412276401129
20
-37.0000199923828
30
0
41
1
10
4.89412221310826
20
-37.000039984794
30
0
41
1
10
4.89079120277304
20
-37.1204744205474
30
0
41
1
10
4.85044169845514
20
-37.2383314152635
30
0
41
1
10
4.80577803918462
20
-37.3494567864937
30
0
0
SPLINE
5
378
100
AcDbEntity
8
1
62
256
6
ByLayer
370
18
48
1
60
0
100
AcDbSpline
70
4
71
3
72
8
73
4
40
0
40
0
40
0
40
0
40
1
40
1
40
1
40
1
41
1
10
4.01310495793243
20
-40.3
30
0
41
1
10
4.00443432455921
20
-40.2675420878946
30
0
41
1
10
3.99998922026967
20
-40.2336432603182
30
0
41
1
10
3.99996709297778
20
-40.2000253230699
30
0
0
SPLINE
5
379
100
AcDbEntity
8
1
62
256
6
ByLayer
370
13
48
1
60
0
100
AcDbSpline
70
4
71
3
72
8
73
4
40
0
40
0
40
0
40
0
40
1
40
1
40
1
40
1
41
1
10
5.77045073847759
20
-37.0455671218847
30
0
41
1
10
5.77128187504866
20
-37.041285724127
30
0
41
1
10
5.77211178552463
20
-37.0370056113086
30
0
41
1
10
5.77294045036149
20
-37.0327268129396
30
0
0
SPLINE
5
37A
100
AcDbEntity
8
1
62
256
6
ByLayer
370
13
48
1
60
0
100
AcDbSpline
70
4
71
3
72
8
73
4
40
0
40
0
40
0
40
0
40
1
40
1
40
1
40
1
41
1
10
4.63347828019164
20
-39.6329814138829
30
0
41
1
10
4.63650585932766
20
-39.6257492089483
30
0
41
1
10
4.63952651501981
20
-39.6185134912905
30
0
41
1
10
4.64254020949366
20
-39.6112743152022
30
0
0
SPLINE
5
37B
100
AcDbEntity
8
1
62
256
6
ByLayer
370
13
48
1
60
0
100
AcDbSpline
70
4
71
3
72
14
73
10
40
0
40
0
40
0
40
0
40
0.0569507557103623
40
0.0569507557103623
40
0.367192121057469
40
0.367192121057469
40
0.683769245764476
40
0.683769245764476
40
1
40
1
40
1
40
1
41
1
10
8.77954140944752
20
-39.7921436014447
30
0
41
1
10
8.77096221769625
20
-39.7968616272907
30
0
41
1
10
8.76216836804576
20
-39.8012241024376
30
0
41
1
10
8.70544244206894
20
-39.8266652859381
30
0
41
1
10
8.65234183025535
20
-39.8384095594336
30
0
41
1
10
8.54782651844229
20
-39.8466715230379
30
0
41
1
10
8.49455951096112
20
-39.8430946161005
30
0
41
1
10
8.39675345939594
20
-39.8242076231654
30
0
41
1
10
8.35077189679407
20
-39.8086482723201
30
0
41
1
10
8.31148012698065
20
-39.7881525715208
30
0
0
SPLINE
5
37C
100
AcDbEntity
8
1
62
256
6
ByLayer
370
13
48
1
60
0
100
AcDbSpline
70
4
71
3
72
8
73
4
40
0
40
0
40
0
40
0
40
1
40
1
40
1
40
1
41
1
10
8.82832789789745
20
-38.645621295671
30
0
41
1
10
8.85329810984564
20
-38.6405246353072
30
0
41
1
10
8.87435413149728
20
-38.6355545292539
30
0
41
1
10
8.8899532905678
20
-38.631075163795
30
0
0
SPLINE
5
37D
100
AcDbEntity
8
1
62
256
6
ByLayer
370
13
48
1
60
0
100
AcDbSpline
70
4
71
3
72
8
73
4
40
0
40
0
40
0
40
0
40
1
40
1
40
1
40
1
41
1
10
5.18287714564318
20
-39.6511104023502
30
0
41
1
10
5.1838413615003
20
-39.6460396568156
30
0
41
1
10
5.18488276733765
20
-39.6409746523795
30
0
41
1
10
5.18600443938641
20
-39.6359219030158
30
0
0
SPLINE
5
37E
100
AcDbEntity
8
1
62
256
6
ByLayer
370
13
48
1
60
0
100
AcDbSpline
70
4
71
3
72
8
73
4
40
0
40
0
40
0
40
0
40
1
40
1
40
1
40
1
41
1
10
9.31277305873402
20
-39.5024204932651
30
0
41
1
10
9.31571757962851
20
-39.5096947817258
30
0
41
1
10
9.31866906987824
20
-39.5169658419914
30
0
41
1
10
9.32162753811613
20
-39.5242336007821
30
0
0
SPLINE
5
37F
100
AcDbEntity
8
1
62
256
6
ByLayer
370
13
48
1
60
0
100
AcDbSpline
70
4
71
3
72
8
73
4
40
0
40
0
40
0
40
0
40
1
40
1
40
1
40
1
41
1
10
9.4699548519896
20
-39.2329322187786
30
0
41
1
10
9.47123515575746
20
-39.2076870341285
30
0
41
1
10
9.47273754018153
20
-39.1824526033639
30
0
41
1
10
9.47445300744278
20
-39.1572341336389
30
0
0
SPLINE
5
380
100
AcDbEntity
8
1
62
256
6
ByLayer
370
13
48
1
60
0
100
AcDbSpline
70
4
71
3
72
8
73
4
40
0
40
0
40
0
40
0
40
1
40
1
40
1
40
1
41
1
10
4.62297099536312
20
-39.6580009615612
30
0
41
1
10
4.62472681370926
20
-39.6538333548367
30
0
41
1
10
4.62648034210719
20
-39.6496645688001
30
0
41
1
10
4.62823157091313
20
-39.6454946127906
30
0
0
SPLINE
5
381
100
AcDbEntity
8
1
62
256
6
ByLayer
370
13
48
1
60
0
100
AcDbSpline
70
4
71
3
72
14
73
10
40
0
40
0
40
0
40
0
40
0.324195461079351
40
0.324195461079351
40
0.67418230933008
40
0.67418230933008
40
0.985474047183631
40
0.985474047183631
40
1
40
1
40
1
40
1
41
1
10
8.88995263192976
20
-38.6310712343537
30
0
41
1
10
8.88316692779381
20
-38.5905881272561
30
0
41
1
10
8.87418159445721
20
-38.5505974537135
30
0
41
1
10
8.8497336169381
20
-38.470133331313
30
0
41
1
10
8.83334984767473
20
-38.4295875729733
30
0
41
1
10
8.79405634945442
20
-38.358836887333
30
0
41
1
10
8.77219037332958
20
-38.3269577622833
30
0
41
1
10
8.74643929719758
20
-38.2986737185566
30
0
41
1
10
8.74527787650612
20
-38.2974369049595
30
0
41
1
10
8.74412364542815
20
-38.2961878425085
30
0
0
SPLINE
5
382
100
AcDbEntity
8
1
62
256
6
ByLayer
370
13
48
1
60
0
100
AcDbSpline
70
4
71
3
72
8
73
4
40
0
40
0
40
0
40
0
40
1
40
1
40
1
40
1
41
1
10
8.82726098963573
20
-39.7449712215366
30
0
41
1
10
8.82727820490223
20
-39.7454153279883
30
0
41
1
10
8.82729172030056
20
-39.7458597837756
30
0
41
1
10
8.82730140397953
20
-39.7463045145135
30
0
0
SPLINE
5
383
100
AcDbEntity
8
1
62
256
6
ByLayer
370
13
48
1
60
0
100
AcDbSpline
70
4
71
3
72
8
73
4
40
0
40
0
40
0
40
0
40
1
40
1
40
1
40
1
41
1
10
4.61240886460106
20
-39.6829919691149
30
0
41
1
10
4.61417379604674
20
-39.6788291235697
30
0
41
1
10
4.61593645628952
20
-39.6746650888763
30
0
41
1
10
4.61769683370386
20
-39.6704998734366
30
0
0
SPLINE
5
384
100
AcDbEntity
8
1
62
256
6
ByLayer
370
13
48
1
60
0
100
AcDbSpline
70
4
71
3
72
10
73
6
40
0
40
0
40
0
40
0
40
0.555264081805622
40
0.555264081805622
40
1
40
1
40
1
40
1
41
1
10
5.09741254653315
20
-38.8109443135566
30
0
41
1
10
5.09762313284367
20
-38.8406842618644
30
0
41
1
10
5.09768352659498
20
-38.8704242585479
30
0
41
1
10
5.09766205105541
20
-38.9239850573845
30
0
41
1
10
5.09760681317218
20
-38.9478061875936
30
0
41
1
10
5.09754831484574
20
-38.971627935454
30
0
0
SPLINE
5
385
100
AcDbEntity
8
1
62
256
6
ByLayer
370
18
48
1
60
0
100
AcDbSpline
70
4
71
3
72
18
73
14
40
0
40
0
40
0
40
0
40
0.241127574926362
40
0.494085049950908
40
0.620563787463181
40
0.652183471841249
40
0.683803156219317
40
0.691708077313834
40
0.699612998408352
40
0.715422840597386
40
0.747042524975454
40
0.873521262487727
40
1
40
1
40
1
40
1
41
1
10
7.00000006617728
20
-40.5774062521179
30
0
41
1
10
7.00000006085821
20
-40.4241317760481
30
0
41
1
10
7.00000004995914
20
-40.1100657019432
30
0
41
1
10
7.00000003627008
20
-39.715608043869
30
0
41
1
10
7.00000002720256
20
-39.4543219603001
30
0
41
1
10
7.00000002301755
20
-39.3337304361565
30
0
41
1
10
7.00000002144819
20
-39.2885133742642
30
0
41
1
10
7.00000002040193
20
-39.2583532660819
30
0
41
1
10
7.00000001970443
20
-39.2382035159291
30
0
41
1
10
7.0000000184838
20
-39.2027931172254
30
0
41
1
10
7.00000001464753
20
-39.0907451805646
30
0
41
1
10
7.00000000837002
20
-38.9035990461038
30
0
41
1
10
7.00000000279002
20
-38.7345331674349
30
0
41
1
10
7
20
-38.65
30
0
0
SPLINE
5
386
100
AcDbEntity
8
1
62
256
6
ByLayer
370
18
48
1
60
0
100
AcDbSpline
70
4
71
3
72
8
73
4
40
0
40
0
40
0
40
0
40
1
40
1
40
1
40
1
41
1
10
5.5
20
-40.5995702589276
30
0
41
1
10
5.47084174257867
20
-40.5998577899933
30
0
41
1
10
5.44159166294841
20
-40.6
30
0
41
1
10
5.4123603045264
20
-40.6
30
0
0
SPLINE
5
387
100
AcDbEntity
8
1
62
256
6
ByLayer
370
13
48
1
60
0
100
AcDbSpline
70
4
71
3
72
8
73
4
40
0
40
0
40
0
40
0
40
1
40
1
40
1
40
1
41
1
10
5.0861043649509
20
-39.2138402654707
30
0
41
1
10
5.07163829872567
20
-39.2660036127091
30
0
41
1
10
5.05413448380523
20
-39.320042226577
30
0
41
1
10
5.03603130702913
20
-39.3737330027423
30
0
0
SPLINE
5
388
100
AcDbEntity
8
1
62
256
6
ByLayer
370
13
48
1
60
0
100
AcDbSpline
70
4
71
3
72
20
73
16
40
0
40
0
40
0
40
0
40
0.0630128960077353
40
0.0630128960077353
40
0.326748649791132
40
0.326748649791132
40
0.386835157945678
40
0.386835157945678
40
0.64351091469183
40
0.64351091469183
40
0.696871937332506
40
0.696871937332506
40
0.948821829844473
40
0.948821829844473
40
1
40
1
40
1
40
1
41
1
10
5.1427337448859
20
-39.9371816925958
30
0
41
1
10
5.15425620898822
20
-39.9453931341021
30
0
41
1
10
5.166125229503
20
-39.9531599013357
30
0
41
1
10
5.22846308529139
20
-39.9906080389161
30
0
41
1
10
5.28437539406994
20
-40.0130839410954
30
0
41
1
10
5.35420557698097
20
-40.0302854319023
30
0
41
1
10
5.36739310713656
20
-40.033081379169
30
0
41
1
10
5.43635244402267
20
-40.0454136874493
30
0
41
1
10
5.49356712807935
20
-40.0477016725801
30
0
41
1
10
5.55873286297393
20
-40.0415422491477
30
0
41
1
10
5.5699634535037
20
-40.0401463347828
30
0
41
1
10
5.63263481297852
20
-40.0304554530919
30
0
41
1
10
5.68164818039614
20
-40.0153222644013
30
0
41
1
10
5.73268012949947
20
-39.9898222673739
30
0
41
1
10
5.74114880769824
20
-39.9852028949995
30
0
41
1
10
5.74934255150495
20
-39.9803315895939
30
0
0
SPLINE
5
389
100
AcDbEntity
8
1
62
256
6
ByLayer
370
13
48
1
60
0
100
AcDbSpline
70
4
71
3
72
14
73
10
40
0
40
0
40
0
40
0
40
0.331677825676057
40
0.331677825676057
40
0.662805943003778
40
0.662805943003778
40
0.759335348761248
40
0.759335348761248
40
1
40
1
40
1
40
1
41
1
10
9.60451035370588
20
-34.629552374945
30
0
41
1
10
9.6026922625916
20
-34.6623530215082
30
0
41
1
10
9.60002839035073
20
-34.693616394114
30
0
41
1
10
9.5942792401062
20
-34.7493500781111
30
0
41
1
10
9.59101930260758
20
-34.7743980364482
30
0
41
1
10
9.58863192452745
20
-34.8013339427125
30
0
41
1
10
9.58822483758061
20
-34.8071214954234
30
0
41
1
10
9.58770931378052
20
-34.8258947260198
30
0
41
1
10
9.58844988728265
20
-34.8372586786918
30
0
41
1
10
9.59563146793522
20
-34.8455472938192
30
0
0
SPLINE
5
38A
100
AcDbEntity
8
1
62
256
6
ByLayer
370
13
48
1
60
0
100
AcDbSpline
70
4
71
3
72
8
73
4
40
0
40
0
40
0
40
0
40
1
40
1
40
1
40
1
41
1
10
9.56993928408545
20
-39.5496832385472
30
0
41
1
10
9.56700326825268
20
-39.542770402259
30
0
41
1
10
9.5640834185138
20
-39.5358505532355
30
0
41
1
10
9.56117981616259
20
-39.5289237938151
30
0
0
SPLINE
5
38B
100
AcDbEntity
8
1
62
256
6
ByLayer
370
13
48
1
60
0
100
AcDbSpline
70
4
71
3
72
8
73
4
40
0
40
0
40
0
40
0
40
1
40
1
40
1
40
1
41
1
10
5.44813959461408
20
-37.6129028909293
30
0
41
1
10
5.49640471817332
20
-37.5413599848384
30
0
41
1
10
5.54688233324495
20
-37.47299712768
30
0
41
1
10
5.59916224010854
20
-37.408829342978
30
0
0
SPLINE
5
38C
100
AcDbEntity
8
1
62
256
6
ByLayer
370
13
48
1
60
0
100
AcDbSpline
70
4
71
3
72
8
73
4
40
0
40
0
40
0
40
0
40
1
40
1
40
1
40
1
41
1
10
7.36432368223433
20
-34.697268641797
30
0
41
1
10
7.33478525117872
20
-34.673548312729
30
0
41
1
10
7.30780149011414
20
-34.6490149987708
30
0
41
1
10
7.28331054153159
20
-34.6239821386885
30
0
0
SPLINE
5
38D
100
AcDbEntity
8
1
62
256
6
ByLayer
370
18
48
1
60
0
100
AcDbSpline
70
4
71
3
72
8
73
4
40
0
40
0
40
0
40
0
40
1
40
1
40
1
40
1
41
1
10
5.73722974105627
20
-40.5970918941543
30
0
41
1
10
5.77877841048053
20
-40.5966029021592
30
0
41
1
10
5.81978441278005
20
-40.5960730752883
30
0
41
1
10
5.8598560634868
20
-40.5954654841959
30
0
0
SPLINE
5
38E
100
AcDbEntity
8
1
62
256
6
ByLayer
370
13
48
1
60
0
100
AcDbSpline
70
4
71
3
72
8
73
4
40
0
40
0
40
0
40
0
40
1
40
1
40
1
40
1
41
1
10
8.94212193517203
20
-39.877988734826
30
0
41
1
10
8.95953902998738
20
-39.8642146234362
30
0
41
1
10
8.97670526279506
20
-39.8501624840576
30
0
41
1
10
8.99304264438382
20
-39.8363185748499
30
0
0
SPLINE
5
38F
100
AcDbEntity
8
1
62
256
6
ByLayer
370
13
48
1
60
0
100
AcDbSpline
70
4
71
3
72
8
73
4
40
0
40
0
40
0
40
0
40
1
40
1
40
1
40
1
41
1
10
8.08330064940867
20
-36.1961097614156
30
0
41
1
10
8.07141393614805
20
-36.2371857631138
30
0
41
1
10
8.063316267457
20
-36.2776576844643
30
0
41
1
10
8.05947351857904
20
-36.3153380276099
30
0
0
SPLINE
5
390
100
AcDbEntity
8
1
62
256
6
ByLayer
370
13
48
1
60
0
100
AcDbSpline
70
4
71
3
72
8
73
4
40
0
40
0
40
0
40
0
40
1
40
1
40
1
40
1
41
1
10
4.91658498980956
20
-39.751505831046
30
0
41
1
10
4.91472642831991
20
-39.7556404436165
30
0
41
1
10
4.91286971414382
20
-39.7597755858061
30
0
41
1
10
4.91101487614651
20
-39.7639112600579
30
0
0
SPLINE
5
391
100
AcDbEntity
8
1
62
256
6
ByLayer
370
13
48
1
60
0
100
AcDbSpline
70
4
71
3
72
8
73
4
40
0
40
0
40
0
40
0
40
1
40
1
40
1
40
1
41
1
10
5.24347639316889
20
-39.4763488059907
30
0
41
1
10
5.26544168560383
20
-39.4282116293392
30
0
41
1
10
5.2898120695512
20
-39.381937874527
30
0
41
1
10
5.30962267346371
20
-39.3396886118677
30
0
0
SPLINE
5
392
100
AcDbEntity
8
1
62
256
6
ByLayer
370
13
48
1
60
0
100
AcDbSpline
70
4
71
3
72
8
73
4
40
0
40
0
40
0
40
0
40
1
40
1
40
1
40
1
41
1
10
8.90241398351233
20
-39.1383340901905
30
0
41
1
10
8.90242759813418
20
-39.1363635087407
30
0
41
1
10
8.9024400755462
20
-39.1343929015704
30
0
41
1
10
8.90245142383864
20
-39.132422271337
30
0
0
SPLINE
5
393
100
AcDbEntity
8
1
62
256
6
ByLayer
370
13
48
1
60
0
100
AcDbSpline
70
4
71
3
72
8
73
4
40
0
40
0
40
0
40
0
40
1
40
1
40
1
40
1
41
1
10
8.22954926152244
20
-37.0455671218847
30
0
41
1
10
8.23059342233188
20
-37.0510379427018
30
0
41
1
10
8.23164174263155
20
-37.0565099554025
30
0
41
1
10
8.23269415829662
20
-37.061983131599
30
0
0
SPLINE
5
394
100
AcDbEntity
8
1
62
256
6
ByLayer
370
13
48
1
60
0
100
AcDbSpline
70
4
71
3
72
8
73
4
40
0
40
0
40
0
40
0
40
1
40
1
40
1
40
1
41
1
10
5.16817636245159
20
-38.7412229965729
30
0
41
1
10
5.19310185398348
20
-38.7352695393141
30
0
41
1
10
5.21691341218263
20
-38.7293278171244
30
0
41
1
10
5.23944428586083
20
-38.7234394395965
30
0
0
SPLINE
5
395
100
AcDbEntity
8
1
62
256
6
ByLayer
370
13
48
1
60
0
100
AcDbSpline
70
4
71
3
72
8
73
4
40
0
40
0
40
0
40
0
40
1
40
1
40
1
40
1
41
1
10
5.17790942898966
20
-39.6821324141415
30
0
41
1
10
5.17859414910916
20
-39.6769272366318
30
0
41
1
10
5.17935054589287
20
-39.6717187270973
30
0
41
1
10
5.18018332626201
20
-39.6665132813234
30
0
0
SPLINE
5
396
100
AcDbEntity
8
1
62
256
6
ByLayer
370
13
48
1
60
0
100
AcDbSpline
70
4
71
3
72
8
73
4
40
0
40
0
40
0
40
0
40
1
40
1
40
1
40
1
41
1
10
4.59515577045124
20
-38.0580099499638
30
0
41
1
10
4.58531604447586
20
-38.1161694527838
30
0
41
1
10
4.57582037984039
20
-38.1743875377864
30
0
41
1
10
4.56624220940887
20
-38.232591327196
30
0
0
SPLINE
5
397
100
AcDbEntity
8
1
62
256
6
ByLayer
370
13
48
1
60
0
100
AcDbSpline
70
4
71
3
72
8
73
4
40
0
40
0
40
0
40
0
40
1
40
1
40
1
40
1
41
1
10
8.80888030647711
20
-39.1333151391335
30
0
41
1
10
8.81084335482515
20
-39.1128580907964
30
0
41
1
10
8.81265510194226
20
-39.0923701074299
30
0
41
1
10
8.81433647339878
20
-39.0718661171761
30
0
0
SPLINE
5
398
100
AcDbEntity
8
1
62
256
6
ByLayer
370
13
48
1
60
0
100
AcDbSpline
70
4
71
3
72
8
73
4
40
0
40
0
40
0
40
0
40
1
40
1
40
1
40
1
41
1
10
5.33293045530513
20
-39.0173790825026
30
0
41
1
10
5.32606893965743
20
-39.0051147023053
30
0
41
1
10
5.31953891575233
20
-38.9926091789433
30
0
41
1
10
5.31335456290051
20
-38.9798988508422
30
0
0
SPLINE
5
399
100
AcDbEntity
8
1
62
256
6
ByLayer
370
13
48
1
60
0
100
AcDbSpline
70
4
71
3
72
8
73
4
40
0
40
0
40
0
40
0
40
1
40
1
40
1
40
1
41
1
10
9.25676175609547
20
-38.7457249471384
30
0
41
1
10
9.25720769640495
20
-38.7702534660004
30
0
41
1
10
9.25714333014562
20
-38.7947963383193
30
0
41
1
10
9.2565687009656
20
-38.819320778088
30
0
0
SPLINE
5
39A
100
AcDbEntity
8
1
62
256
6
ByLayer
370
13
48
1
60
0
100
AcDbSpline
70
4
71
3
72
8
73
4
40
0
40
0
40
0
40
0
40
1
40
1
40
1
40
1
41
1
10
8.90688450242689
20
-39.909974095615
30
0
41
1
10
8.92911791781225
20
-39.9554196842923
30
0
41
1
10
8.95235032436457
20
-40.0004038318865
30
0
41
1
10
8.97671128997516
20
-40.0447669894049
30
0
0
SPLINE
5
39B
100
AcDbEntity
8
1
62
256
6
ByLayer
370
13
48
1
60
0
100
AcDbSpline
70
4
71
3
72
8
73
4
40
0
40
0
40
0
40
0
40
1
40
1
40
1
40
1
41
1
10
9.48990467261473
20
-38.8246581827813
30
0
41
1
10
9.49061576093018
20
-38.7969267322443
30
0
41
1
10
9.49073111857197
20
-38.7691726710115
30
0
41
1
10
9.49025067787966
20
-38.7414351429145
30
0
0
SPLINE
5
39C
100
AcDbEntity
8
1
62
256
6
ByLayer
370
13
48
1
60
0
100
AcDbSpline
70
4
71
3
72
26
73
22
40
0
40
0
40
0
40
0
40
0.0121737243132062
40
0.0121737243132062
40
0.020675629531819
40
0.020675629531819
40
0.0329249259548993
40
0.0329249259548993
40
0.0524979046361217
40
0.0524979046361217
40
0.0838075523988997
40
0.0838075523988997
40
0.134056899530876
40
0.134056899530876
40
0.215466821412678
40
0.215466821412678
40
0.351029108198929
40
0.351029108198929
40
0.50760258997399
40
0.50760258997399
40
1
40
1
40
1
40
1
41
1
10
8.17453920771672
20
-35.8790160745717
30
0
41
1
10
8.17540352425084
20
-35.8800176688895
30
0
41
1
10
8.17626801823593
20
-35.8810208320786
30
0
41
1
10
8.17774386997363
20
-35.8827380691821
30
0
41
1
10
8.17835563395613
20
-35.8834510302484
30
0
41
1
10
8.17984837820805
20
-35.8851934823566
30
0
41
1
10
8.18072918178791
20
-35.8862239929943
30
0
41
1
10
8.18301636772762
20
-35.8889060695185
30
0
41
1
10
8.18442218416061
20
-35.8905606478691
30
0
41
1
10
8.1880737832378
20
-35.8948741183559
30
0
41
1
10
8.19031799070018
20
-35.8975405801957
30
0
41
1
10
8.19615480284472
20
-35.9045159554969
30
0
41
1
10
8.19974281892414
20
-35.9088438312865
30
0
41
1
10
8.20911417707634
20
-35.9202524343111
30
0
41
1
10
8.21488315751361
20
-35.9273808963616
30
0
41
1
10
8.23015346933533
20
-35.946531386281
30
0
41
1
10
8.23960368368262
20
-35.9586779430269
30
0
41
1
10
8.25965697859763
20
-35.9850941261854
30
0
41
1
10
8.27023873206088
20
-35.9994365904184
30
0
41
1
10
8.31265411646518
20
-36.0586081475736
30
0
41
1
10
8.34292462530198
20
-36.1049876501873
30
0
41
1
10
8.36861940840581
20
-36.1488329740574
30
0
0
SPLINE
5
39D
100
AcDbEntity
8
1
62
256
6
ByLayer
370
13
48
1
60
0
100
AcDbSpline
70
4
71
3
72
8
73
4
40
0
40
0
40
0
40
0
40
1
40
1
40
1
40
1
41
1
10
8.83001270809473
20
-38.8144285509218
30
0
41
1
10
8.83093099415711
20
-38.7962239434943
30
0
41
1
10
8.83150168748679
20
-38.7779978148841
30
0
41
1
10
8.83171965383477
20
-38.7597714746036
30
0
0
SPLINE
5
39E
100
AcDbEntity
8
1
62
256
6
ByLayer
370
13
48
1
60
0
100
AcDbSpline
70
4
71
3
72
8
73
4
40
0
40
0
40
0
40
0
40
1
40
1
40
1
40
1
41
1
10
5.09888709678123
20
-38.7321353515756
30
0
41
1
10
5.09857594217351
20
-38.7388024261769
30
0
41
1
10
5.09831224016054
20
-38.7454721861246
30
0
41
1
10
5.09809591671498
20
-38.7521435364737
30
0
0
SPLINE
5
39F
100
AcDbEntity
8
1
62
256
6
ByLayer
370
13
48
1
60
0
100
AcDbSpline
70
4
71
3
72
10
73
6
40
0
40
0
40
0
40
0
40
0.751276148010964
40
0.751276148010964
40
1
40
1
40
1
40
1
41
1
10
5.93730008767835
20
-36.1597712449568
30
0
41
1
10
5.94410452442588
20
-36.1862090763578
30
0
41
1
10
5.94929261824194
20
-36.2122417154431
30
0
41
1
10
5.95388041175747
20
-36.2455603655769
30
0
41
1
10
5.95483528153571
20
-36.2537746557938
30
0
41
1
10
5.95559693959498
20
-36.261871652138
30
0
0
SPLINE
5
3A0
100
AcDbEntity
8
1
62
256
6
ByLayer
370
13
48
1
60
0
100
AcDbSpline
70
4
71
3
72
8
73
4
40
0
40
0
40
0
40
0
40
1
40
1
40
1
40
1
41
1
10
9.0775775058425
20
-39.7281803124967
30
0
41
1
10
9.07575677709471
20
-39.7203743871262
30
0
41
1
10
9.07388933516557
20
-39.7125730847456
30
0
41
1
10
9.07197244662075
20
-39.7047794882309
30
0
0
SPLINE
5
3A1
100
AcDbEntity
8
1
62
256
6
ByLayer
370
13
48
1
60
0
100
AcDbSpline
70
4
71
3
72
10
73
6
40
0
40
0
40
0
40
0
40
0.500444942515687
40
0.500444942515687
40
1
40
1
40
1
40
1
41
1
10
5.09739182244749
20
-39.0681116696244
30
0
41
1
10
5.09739397933629
20
-39.0788410897352
30
0
41
1
10
5.09740607719937
20
-39.0895701406674
30
0
41
1
10
5.09745636942466
20
-39.1110072515821
30
0
41
1
10
5.0974945189931
20
-39.1217155042592
30
0
41
1
10
5.09754857616139
20
-39.132422271337
30
0
0
SPLINE
5
3A2
100
AcDbEntity
8
1
62
256
6
ByLayer
370
13
48
1
60
0
100
AcDbSpline
70
4
71
3
72
8
73
4
40
0
40
0
40
0
40
0
40
1
40
1
40
1
40
1
41
1
10
8.9359010504773
20
-38.7251482641532
30
0
41
1
10
8.9756413992703
20
-38.7179725866135
30
0
41
1
10
9.0309835405487
20
-38.71000619587
30
0
41
1
10
9.08829252501758
20
-38.703237684077
30
0
0
SPLINE
5
3A3
100
AcDbEntity
8
1
62
256
6
ByLayer
370
13
48
1
60
0
100
AcDbSpline
70
4
71
3
72
10
73
6
40
0
40
0
40
0
40
0
40
0.999171519409621
40
0.999171519409621
40
1
40
1
40
1
40
1
41
1
10
5.95425437310641
20
-40.5931426058675
30
0
41
1
10
5.94648183590814
20
-40.5707019687104
30
0
41
1
10
5.93873483067401
20
-40.5482515938478
30
0
41
1
10
5.93100547771283
20
-40.5257734717842
30
0
41
1
10
5.93099907430474
20
-40.5257548495991
30
0
41
1
10
5.9309926708795
20
-40.5257362274199
30
0
0
SPLINE
5
3A4
100
AcDbEntity
8
1
62
256
6
ByLayer
370
13
48
1
60
0
100
AcDbSpline
70
4
71
3
72
26
73
22
40
0
40
0
40
0
40
0
40
0.0119860129375691
40
0.0119860129375691
40
0.022244099098693
40
0.022244099098693
40
0.0354142985428184
40
0.0354142985428184
40
0.0564887825623031
40
0.0564887825623031
40
0.0903045534325061
40
0.0903045534325061
40
0.144905049250836
40
0.144905049250836
40
0.234410294862892
40
0.234410294862892
40
0.387183908707102
40
0.387183908707102
40
0.510065677889504
40
0.510065677889504
40
1
40
1
40
1
40
1
41
1
10
5.85148473404107
20
-35.8330892411823
30
0
41
1
10
5.85180575408811
20
-35.8343436114139
30
0
41
1
10
5.85212603725591
20
-35.8355998967055
30
0
41
1
10
5.85272718624756
20
-35.8379511454044
30
0
41
1
10
5.85300723522101
20
-35.8390458955045
30
0
41
1
10
5.85364785157117
20
-35.8415487970697
30
0
41
1
10
5.85400871428033
20
-35.8429577179751
30
0
41
1
10
5.85494888093126
20
-35.8466258828833
30
0
41
1
10
5.85552933274556
20
-35.8488880838002
30
0
41
1
10
5.85704577139202
20
-35.8547916324119
30
0
41
1
10
5.85798466236349
20
-35.8584403757883
30
0
41
1
10
5.8604506576541
20
-35.868007247148
30
0
41
1
10
5.86198512027221
20
-35.8739437824075
30
0
41
1
10
5.8660607706573
20
-35.8896696065239
30
0
41
1
10
5.86862080159966
20
-35.8995047644044
30
0
41
1
10
5.87560369043544
20
-35.9262266408994
30
0
41
1
10
5.88007674961838
20
-35.9432307545764
30
0
41
1
10
5.88819902575085
20
-35.9739621101286
30
0
41
1
10
5.891845733639
20
-35.98770843712
30
0
41
1
10
5.90981033901514
20
-36.055297421403
30
0
41
1
10
5.92444830777171
20
-36.1098371794374
30
0
41
1
10
5.93730008767835
20
-36.1597712449568
30
0
0
SPLINE
5
3A5
100
AcDbEntity
8
1
62
256
6
ByLayer
370
13
48
1
60
0
100
AcDbSpline
70
4
71
3
72
8
73
4
40
0
40
0
40
0
40
0
40
1
40
1
40
1
40
1
41
1
10
4.74343129903443
20
-38.819320778088
30
0
41
1
10
4.74285666985438
20
-38.7947963383193
30
0
41
1
10
4.74279230359508
20
-38.7702534660004
30
0
41
1
10
4.74323824390456
20
-38.7457249471384
30
0
0
SPLINE
5
3A6
100
AcDbEntity
8
1
62
256
6
ByLayer
370
13
48
1
60
0
100
AcDbSpline
70
4
71
3
72
8
73
4
40
0
40
0
40
0
40
0
40
1
40
1
40
1
40
1
41
1
10
4.94640503582806
20
-40.1760620928796
30
0
41
1
10
4.97333021907059
20
-40.1330676502928
30
0
41
1
10
4.99888291472044
20
-40.0892117851802
30
0
41
1
10
5.02328871002487
20
-40.0447669894049
30
0
0
SPLINE
5
3A7
100
AcDbEntity
8
1
62
256
6
ByLayer
370
13
48
1
60
0
100
AcDbSpline
70
4
71
3
72
8
73
4
40
0
40
0
40
0
40
0
40
1
40
1
40
1
40
1
41
1
10
4.97545633861822
20
-39.5453177155277
30
0
41
1
10
4.97282284752214
20
-39.5527378070835
30
0
41
1
10
4.97024737470105
20
-39.5601781291824
30
0
41
1
10
4.96772946283639
20
-39.5676365699848
30
0
0
SPLINE
5
3A8
100
AcDbEntity
8
1
62
256
6
ByLayer
370
13
48
1
60
0
100
AcDbSpline
70
4
71
3
72
8
73
4
40
0
40
0
40
0
40
0
40
1
40
1
40
1
40
1
41
1
10
8.81399556061359
20
-39.6359219030158
30
0
41
1
10
8.81511723266237
20
-39.6409746523795
30
0
41
1
10
8.81615863849973
20
-39.6460396568156
30
0
41
1
10
8.81712285435685
20
-39.6511104023502
30
0
0
SPLINE
5
3A9
100
AcDbEntity
8
1
62
256
6
ByLayer
370
13
48
1
60
0
100
AcDbSpline
70
4
71
3
72
12
73
8
40
0
40
0
40
0
40
0
40
0.378111815645349
40
0.378111815645349
40
0.754171086922308
40
0.754171086922308
40
1
40
1
40
1
40
1
41
1
10
4.91729535992414
20
-34.6423661230247
30
0
41
1
10
4.92390320558022
20
-34.6290260366044
30
0
41
1
10
4.924609704055
20
-34.608972587509
30
0
41
1
10
4.92542906830093
20
-34.5592681504676
30
0
41
1
10
4.92515481081779
20
-34.5289368416966
30
0
41
1
10
4.92609180572896
20
-34.4733594567357
30
0
41
1
10
4.92679197234474
20
-34.4496206143955
30
0
41
1
10
4.92801187032623
20
-34.4250413754572
30
0
0
SPLINE
5
3AA
100
AcDbEntity
8
1
62
256
6
ByLayer
370
13
48
1
60
0
100
AcDbSpline
70
4
71
3
72
12
73
8
40
0
40
0
40
0
40
0
40
0.0014841804582521
40
0.0014841804582521
40
0.99919589346247
40
0.99919589346247
40
1
40
1
40
1
40
1
41
1
10
5.23945242289335
20
-38.7234921769646
30
0
41
1
10
5.2394468231403
20
-38.7234558907656
30
0
41
1
10
5.23944122547198
20
-38.7234196041506
30
0
41
1
10
5.23567469424111
20
-38.6989938355546
30
0
41
1
10
5.23224639498761
20
-38.6745645774325
30
0
41
1
10
5.22942223333163
20
-38.6500395064211
30
0
41
1
10
5.22941995927928
20
-38.6500197531865
30
0
41
1
10
5.22941768516873
20
-38.65
30
0
0
SPLINE
5
3AB
100
AcDbEntity
8
1
62
256
6
ByLayer
370
13
48
1
60
0
100
AcDbSpline
70
4
71
3
72
8
73
4
40
0
40
0
40
0
40
0
40
1
40
1
40
1
40
1
41
1
10
5.14638210910323
20
-39.8068168102954
30
0
41
1
10
5.1555231644173
20
-39.7904328415089
30
0
41
1
10
5.16474311746725
20
-39.7745142858403
30
0
41
1
10
5.1736996683199
20
-39.7594785615561
30
0
0
SPLINE
5
3AC
100
AcDbEntity
8
1
62
256
6
ByLayer
370
13
48
1
60
0
100
AcDbSpline
70
4
71
3
72
8
73
4
40
0
40
0
40
0
40
0
40
1
40
1
40
1
40
1
41
1
10
4.50974932212037
20
-38.7414351429145
30
0
41
1
10
4.50926888142806
20
-38.7691726710115
30
0
41
1
10
4.50938423906985
20
-38.7969267322443
30
0
41
1
10
4.5100953273853
20
-38.8246581827813
30
0
0
SPLINE
5
3AD
100
AcDbEntity
8
1
62
256
6
ByLayer
370
13
48
1
60
0
100
AcDbSpline
70
4
71
3
72
8
73
4
40
0
40
0
40
0
40
0
40
1
40
1
40
1
40
1
41
1
10
9.02454366138196
20
-39.5453177155276
30
0
41
1
10
9.02191395921426
20
-39.5379082971913
30
0
41
1
10
9.01922620341912
20
-39.5305184819129
30
0
41
1
10
9.01648024704613
20
-39.5231502777687
30
0
0
SPLINE
5
3AE
100
AcDbEntity
8
1
62
256
6
ByLayer
370
13
48
1
60
0
100
AcDbSpline
70
4
71
3
72
8
73
4
40
0
40
0
40
0
40
0
40
1
40
1
40
1
40
1
41
1
10
4.91170747498242
20
-38.703237684077
30
0
41
1
10
4.96901645945132
20
-38.71000619587
30
0
41
1
10
5.02435860072973
20
-38.7179725866135
30
0
41
1
10
5.06409894952273
20
-38.7251482641532
30
0
0
SPLINE
5
3AF
100
AcDbEntity
8
1
62
256
6
ByLayer
370
13
48
1
60
0
100
AcDbSpline
70
4
71
3
72
8
73
4
40
0
40
0
40
0
40
0
40
1
40
1
40
1
40
1
41
1
10
4.51606478667483
20
-38.9909241915162
30
0
41
1
10
4.51760423432793
20
-39.0241932586177
30
0
41
1
10
4.51935298304991
20
-39.0574529942192
30
0
41
1
10
4.52131868466714
20
-39.0906987911262
30
0
0
SPLINE
5
3B0
100
AcDbEntity
8
1
62
256
6
ByLayer
370
13
48
1
60
0
100
AcDbSpline
70
4
71
3
72
8
73
4
40
0
40
0
40
0
40
0
40
1
40
1
40
1
40
1
41
1
10
4.94005559381131
20
-39.6584451186158
30
0
41
1
10
4.93795133574665
20
-39.6661304290162
30
0
41
1
10
4.93590033933216
20
-39.6738276358528
30
0
41
1
10
4.93390056205581
20
-39.6815340464423
30
0
0
SPLINE
5
3B1
100
AcDbEntity
8
1
62
256
6
ByLayer
370
13
48
1
60
0
100
AcDbSpline
70
4
71
3
72
10
73
6
40
0
40
0
40
0
40
0
40
0.499555057484529
40
0.499555057484529
40
1
40
1
40
1
40
1
41
1
10
8.90245142383861
20
-39.132422271337
30
0
41
1
10
8.9025054810069
20
-39.1217155042592
30
0
41
1
10
8.90254363057537
20
-39.1110072515821
30
0
41
1
10
8.90259392280066
20
-39.0895701406674
30
0
41
1
10
8.90260602066374
20
-39.0788410897352
30
0
41
1
10
8.90260817755254
20
-39.0681116696244
30
0
0
SPLINE
5
3B2
100
AcDbEntity
8
1
62
256
6
ByLayer
370
13
48
1
60
0
100
AcDbSpline
70
4
71
3
72
10
73
6
40
0
40
0
40
0
40
0
40
0.554437147954027
40
0.554437147954027
40
1
40
1
40
1
40
1
41
1
10
5.09754831475033
20
-38.9716279354541
30
0
41
1
10
5.09750452697961
20
-38.9894592215656
30
0
41
1
10
5.09745893811038
20
-39.0072910939293
30
0
41
1
10
5.09740381410262
20
-39.0394526045083
30
0
41
1
10
5.09738894194913
20
-39.0537826107304
30
0
41
1
10
5.09739182246935
20
-39.0681116696245
30
0
0
SPLINE
5
3B3
100
AcDbEntity
8
1
62
256
6
ByLayer
370
13
48
1
60
0
100
AcDbSpline
70
4
71
3
72
8
73
4
40
0
40
0
40
0
40
0
40
1
40
1
40
1
40
1
41
1
10
4.51199350018979
20
-38.6759025432335
30
0
41
1
10
4.5108761283235
20
-38.6977309752335
30
0
41
1
10
4.51012784745299
20
-38.7195815463633
30
0
41
1
10
4.50974932212009
20
-38.7414351429146
30
0
0
SPLINE
5
3B4
100
AcDbEntity
8
1
62
256
6
ByLayer
370
13
48
1
60
0
100
AcDbSpline
70
4
71
3
72
8
73
4
40
0
40
0
40
0
40
0
40
1
40
1
40
1
40
1
41
1
10
5.02328871002487
20
-40.0447669894049
30
0
41
1
10
5.04764967563546
20
-40.0004038318865
30
0
41
1
10
5.07088208218778
20
-39.9554196842923
30
0
41
1
10
5.09311549757314
20
-39.909974095615
30
0
0
SPLINE
5
3B5
100
AcDbEntity
8
1
62
256
6
ByLayer
370
18
48
1
60
0
100
AcDbSpline
70
4
71
3
72
18
73
14
40
0
40
0
40
0
40
0
40
0.0391410449334328
40
0.0391410449334328
40
0.0910325805031207
40
0.0910325805031207
40
0.152334292849979
40
0.152334292849979
40
0.293842630846575
40
0.293842630846575
40
0.436444480738441
40
0.436444480738441
40
1
40
1
40
1
40
1
41
1
10
5.0980354420393
20
-39.1903913856098
30
0
41
1
10
5.09855913602235
20
-39.1893348670587
30
0
41
1
10
5.0991598705761
20
-39.1883795657871
30
0
41
1
10
5.10069870183287
20
-39.1865597340579
30
0
41
1
10
5.10170347219596
20
-39.1858080943317
30
0
41
1
10
5.10398532496228
20
-39.1847861474796
30
0
41
1
10
5.10530222186205
20
-39.1845930337916
30
0
41
1
10
5.10966836171528
20
-39.1846227014504
30
0
41
1
10
5.11282418268507
20
-39.185606990282
30
0
41
1
10
5.11924018474869
20
-39.1879794952601
30
0
41
1
10
5.12253882048583
20
-39.1894447510552
30
0
41
1
10
5.13911393750385
20
-39.1970850046236
30
0
41
1
10
5.15369759776314
20
-39.2044138361006
30
0
41
1
10
5.16946879868104
20
-39.2113098780262
30
0
0
SPLINE
5
3B6
100
AcDbEntity
8
1
62
256
6
ByLayer
370
13
48
1
60
0
100
AcDbSpline
70
4
71
3
72
8
73
4
40
0
40
0
40
0
40
0
40
1
40
1
40
1
40
1
41
1
10
9.32162753811613
20
-39.5242336007821
30
0
41
1
10
9.32458588422529
20
-39.5315010589711
30
0
41
1
10
9.32755121655038
20
-39.5387652355361
30
0
41
1
10
9.33052353446254
20
-39.5460260607215
30
0
0
SPLINE
5
3B7
100
AcDbEntity
8
1
62
256
6
ByLayer
370
13
48
1
60
0
100
AcDbSpline
70
4
71
3
72
12
73
8
40
0
40
0
40
0
40
0
40
0.242775972403974
40
0.242775972403974
40
0.616819959521345
40
0.616819959521345
40
1
40
1
40
1
40
1
41
1
10
4.96227082584491
20
-34.4283576460834
30
0
41
1
10
4.96057108467423
20
-34.4529464685306
30
0
41
1
10
4.95913338862962
20
-34.4766389381339
30
0
41
1
10
4.95575020338916
20
-34.5321861671557
30
0
41
1
10
4.95397144150644
20
-34.5624114014209
30
0
41
1
10
4.94828277959658
20
-34.612000113712
30
0
41
1
10
4.944537202211
20
-34.6318163822645
30
0
41
1
10
4.93517200969075
20
-34.6447018349481
30
0
0
SPLINE
5
3B8
100
AcDbEntity
8
1
62
256
6
ByLayer
370
13
48
1
60
0
100
AcDbSpline
70
4
71
3
72
8
73
4
40
0
40
0
40
0
40
0
40
1
40
1
40
1
40
1
41
1
10
8.82209057101034
20
-39.6821324141415
30
0
41
1
10
8.8227854371934
20
-39.6874147210658
30
0
41
1
10
8.82340672770351
20
-39.6926953679314
30
0
41
1
10
8.82395989410929
20
-39.6979680340497
30
0
0
SPLINE
5
3B9
100
AcDbEntity
8
1
62
256
6
ByLayer
370
18
48
1
60
0
100
AcDbSpline
70
4
71
3
72
10
73
6
40
0
40
0
40
0
40
0
40
0.204285832849742
40
0.204285832849742
40
1
40
1
40
1
40
1
41
1
10
4.00061519341236
20
-40.1253830882904
30
0
41
1
10
4.00073770140696
20
-40.1185866561746
30
0
41
1
10
4.00087800258785
20
-40.1117905120457
30
0
41
1
10
4.0016518243971
20
-40.0785258973899
30
0
41
1
10
4.00253743594561
20
-40.0520617664265
30
0
41
1
10
4.00369231027051
20
-40.025610795651
30
0
0
SPLINE
5
3BA
100
AcDbEntity
8
1
62
256
6
ByLayer
370
13
48
1
60
0
100
AcDbSpline
70
4
71
3
72
12
73
8
40
0
40
0
40
0
40
0
40
0.126595665736643
40
0.126595665736643
40
0.412954776386125
40
0.412954776386125
40
1
40
1
40
1
40
1
41
1
10
4.2336620472781
20
-40.3
30
0
41
1
10
4.23380607425335
20
-40.3055765647838
30
0
41
1
10
4.23446434653519
20
-40.3111627787902
30
0
41
1
10
4.23818747253657
20
-40.3288003096613
30
0
41
1
10
4.24337519654014
20
-40.3405462388878
30
0
41
1
10
4.26361266074053
20
-40.3727062361441
30
0
41
1
10
4.28210795613245
20
-40.3909234472429
30
0
41
1
10
4.29999999999671
20
-40.4090128030826
30
0
0
SPLINE
5
3BB
100
AcDbEntity
8
1
62
256
6
ByLayer
370
18
48
1
60
0
100
AcDbSpline
70
4
71
3
72
8
73
4
40
0
40
0
40
0
40
0
40
1
40
1
40
1
40
1
41
1
10
9.70000000000002
20
-40.5869801279459
30
0
41
1
10
9.66752532547696
20
-40.5955968193133
30
0
41
1
10
9.63362020775108
20
-40.6
30
0
41
1
10
9.60000000000002
20
-40.6
30
0
0
SPLINE
5
3BC
100
AcDbEntity
8
1
62
256
6
ByLayer
370
13
48
1
60
0
100
AcDbSpline
70
4
71
3
72
8
73
4
40
0
40
0
40
0
40
0
40
1
40
1
40
1
40
1
41
1
10
8.75781222088395
20
-38.7408158168117
30
0
41
1
10
8.75506971734615
20
-38.7577618906652
30
0
41
1
10
8.75212075733532
20
-38.7746799864671
30
0
41
1
10
8.74896734192666
20
-38.7915623806973
30
0
0
SPLINE
5
3BD
100
AcDbEntity
8
1
62
256
6
ByLayer
370
13
48
1
60
0
100
AcDbSpline
70
4
71
1
72
4
73
2
40
0
40
0
40
1
40
1
41
1
10
9.10587668406006
20
-37
30
0
41
1
10
9.85793784163587
20
-37
30
0
0
SPLINE
5
3BE
100
AcDbEntity
8
1
62
256
6
ByLayer
370
18
48
1
60
0
100
AcDbSpline
70
4
71
3
72
10
73
6
40
0
40
0
40
0
40
0
40
0.638354565756791
40
0.638354565756791
40
1
40
1
40
1
40
1
41
1
10
4.60089412532597
20
-36.1733899251209
30
0
41
1
10
4.6418654821494
20
-36.0919889429359
30
0
41
1
10
4.67070055055825
20
-36.007985142935
30
0
41
1
10
4.70155529826479
20
-35.8881861444792
30
0
41
1
10
4.7100423898211
20
-35.8464796055663
30
0
41
1
10
4.71658804410998
20
-35.8079633817629
30
0
0
SPLINE
5
3BF
100
AcDbEntity
8
1
62
256
6
ByLayer
370
13
48
1
60
0
100
AcDbSpline
70
4
71
3
72
8
73
4
40
0
40
0
40
0
40
0
40
1
40
1
40
1
40
1
41
1
10
8.05947351857904
20
-36.3153380276099
30
0
41
1
10
8.1244802607589
20
-36.5490679220661
30
0
41
1
10
8.17976258994264
20
-36.7885096759172
30
0
41
1
10
8.22705954963854
20
-37.0327268129396
30
0
0
SPLINE
5
3C0
100
AcDbEntity
8
1
62
256
6
ByLayer
370
18
48
1
60
0
100
AcDbSpline
70
4
71
3
72
10
73
6
40
0
40
0
40
0
40
0
40
0.2249759003595
40
0.2249759003595
40
1
40
1
40
1
40
1
41
1
10
8.91389563403825
20
-39.2138402616837
30
0
41
1
10
8.91296197959386
20
-39.2120593575571
30
0
41
1
10
8.91204462198155
20
-39.2102719594456
30
0
41
1
10
8.90797929870723
20
-39.2023841470655
30
0
41
1
10
8.90491551860032
20
-39.1963447568496
30
0
41
1
10
8.90196455794401
20
-39.1903913856543
30
0
0
SPLINE
5
3C1
100
AcDbEntity
8
1
62
256
6
ByLayer
370
13
48
1
60
0
100
AcDbSpline
70
4
71
3
72
8
73
4
40
0
40
0
40
0
40
0
40
1
40
1
40
1
40
1
41
1
10
4.96772946283645
20
-39.5676365699848
30
0
41
1
10
4.96520687346546
20
-39.5751088642765
30
0
41
1
10
4.96274186590324
20
-39.582599916396
30
0
41
1
10
4.96033367127251
20
-39.5901075129053
30
0
0
SPLINE
5
3C2
100
AcDbEntity
8
1
62
256
6
ByLayer
370
13
48
1
60
0
100
AcDbSpline
70
4
71
3
72
8
73
4
40
0
40
0
40
0
40
0
40
1
40
1
40
1
40
1
41
1
10
4.61769683370383
20
-39.6704998734366
30
0
41
1
10
4.61945717202519
20
-39.6663347508874
30
0
41
1
10
4.62121522945779
20
-39.6621684439719
30
0
41
1
10
4.62297099536317
20
-39.6580009615612
30
0
0
SPLINE
5
3C3
100
AcDbEntity
8
1
62
256
6
ByLayer
370
13
48
1
60
0
100
AcDbSpline
70
4
71
3
72
8
73
4
40
0
40
0
40
0
40
0
40
1
40
1
40
1
40
1
41
1
10
9.76633795272193
20
-40.2999999999999
30
0
41
1
10
9.77010284720873
20
-40.2453684895892
30
0
41
1
10
9.76742696292607
20
-40.1901317622663
30
0
41
1
10
9.76048505094445
20
-40.1358136768824
30
0
0
SPLINE
5
3C4
100
AcDbEntity
8
1
62
256
6
ByLayer
370
13
48
1
60
0
100
AcDbSpline
70
4
71
3
72
8
73
4
40
0
40
0
40
0
40
0
40
1
40
1
40
1
40
1
41
1
10
4.48116058903852
20
-39.4244955588816
30
0
41
1
10
4.47841849876622
20
-39.431492496949
30
0
41
1
10
4.47566018368425
20
-39.4384829856112
30
0
41
1
10
4.4728856063162
20
-39.4454668759649
30
0
0
SPLINE
5
3C5
100
AcDbEntity
8
1
62
256
6
ByLayer
370
13
48
1
60
0
100
AcDbSpline
70
4
71
3
72
8
73
4
40
0
40
0
40
0
40
0
40
1
40
1
40
1
40
1
41
1
10
8.8317196538342
20
-38.7597714746036
30
0
41
1
10
8.83179386407892
20
-38.7535683222094
30
0
41
1
10
8.83182721377977
20
-38.7473645928929
30
0
41
1
10
8.83181950987026
20
-38.7411611560268
30
0
0
SPLINE
5
3C6
100
AcDbEntity
8
1
62
256
6
ByLayer
370
13
48
1
60
0
100
AcDbSpline
70
4
71
3
72
8
73
4
40
0
40
0
40
0
40
0
40
1
40
1
40
1
40
1
41
1
10
8.9011128975109
20
-38.7321352292739
30
0
41
1
10
8.88394414940663
20
-38.7350099033475
30
0
41
1
10
8.86015313023424
20
-38.7381088728107
30
0
41
1
10
8.83182402510579
20
-38.7411606696334
30
0
0
SPLINE
5
3C7
100
AcDbEntity
8
1
62
256
6
ByLayer
370
13
48
1
60
0
100
AcDbSpline
70
4
71
3
72
8
73
4
40
0
40
0
40
0
40
0
40
1
40
1
40
1
40
1
41
1
10
4.93390056205641
20
-39.6815340464424
30
0
41
1
10
4.93189217977161
20
-39.6892735986023
30
0
41
1
10
4.92993530347752
20
-39.6970230347327
30
0
41
1
10
4.928027553379
20
-39.7047794882308
30
0
0
SPLINE
5
3C8
100
AcDbEntity
8
1
62
256
6
ByLayer
370
13
48
1
60
0
100
AcDbSpline
70
4
71
3
72
8
73
4
40
0
40
0
40
0
40
0
40
1
40
1
40
1
40
1
41
1
10
8.82731224693504
20
-39.7469132650805
30
0
41
1
10
8.82736141450346
20
-39.7504688123718
30
0
41
1
10
8.82716493318955
20
-39.754057467254
30
0
41
1
10
8.82662057363797
20
-39.757610115657
30
0
0
SPLINE
5
3C9
100
AcDbEntity
8
1
62
256
6
ByLayer
370
13
48
1
60
0
100
AcDbSpline
70
4
71
3
72
8
73
4
40
0
40
0
40
0
40
0
40
1
40
1
40
1
40
1
41
1
10
5.18957661518579
20
-39.6209469220189
30
0
41
1
10
5.19083794942259
20
-39.6160089160268
30
0
41
1
10
5.1921798174219
20
-39.6110855245221
30
0
41
1
10
5.19360348917107
20
-39.60618321608
30
0
0
SPLINE
5
3CA
100
AcDbEntity
8
1
62
256
6
ByLayer
370
13
48
1
60
0
100
AcDbSpline
70
4
71
3
72
8
73
4
40
0
40
0
40
0
40
0
40
1
40
1
40
1
40
1
41
1
10
5.17337942636203
20
-39.757610115657
30
0
41
1
10
5.17283506681048
20
-39.754057467254
30
0
41
1
10
5.17263858549657
20
-39.7504688123718
30
0
41
1
10
5.17268775306499
20
-39.7469132650805
30
0
0
SPLINE
5
3CB
100
AcDbEntity
8
1
62
256
6
ByLayer
370
13
48
1
60
0
100
AcDbSpline
70
4
71
3
72
8
73
4
40
0
40
0
40
0
40
0
40
1
40
1
40
1
40
1
41
1
10
5.77294045036149
20
-37.0327268129396
30
0
41
1
10
5.82385065753994
20
-36.769852727115
30
0
41
1
10
5.88400499564409
20
-36.5125066778575
30
0
41
1
10
5.95559693959498
20
-36.261871652138
30
0
0
SPLINE
5
3CC
100
AcDbEntity
8
1
62
256
6
ByLayer
370
13
48
1
60
0
100
AcDbSpline
70
4
71
3
72
8
73
4
40
0
40
0
40
0
40
0
40
1
40
1
40
1
40
1
41
1
10
9.52711439368383
20
-39.4454668759649
30
0
41
1
10
9.52433981631577
20
-39.4384829856112
30
0
41
1
10
9.52158150123378
20
-39.431492496949
30
0
41
1
10
9.51883941096148
20
-39.4244955588816
30
0
0
SPLINE
5
3CD
100
AcDbEntity
8
1
62
256
6
ByLayer
370
18
48
1
60
0
100
AcDbSpline
70
4
71
3
72
8
73
4
40
0
40
0
40
0
40
0
40
1
40
1
40
1
40
1
41
1
10
9.99627337937079
20
-40.02561011919
30
0
41
1
10
9.99772476998936
20
-40.0588524296368
30
0
41
1
10
9.99875413472398
20
-40.0921159117529
30
0
41
1
10
9.99936032655765
20
-40.1253841571116
30
0
0
SPLINE
5
3CE
100
AcDbEntity
8
1
62
256
6
ByLayer
370
13
48
1
60
0
100
AcDbSpline
70
4
71
3
72
8
73
4
40
0
40
0
40
0
40
0
40
1
40
1
40
1
40
1
41
1
10
9.49025067787994
20
-38.7414351429146
30
0
41
1
10
9.48987215254704
20
-38.7195815463633
30
0
41
1
10
9.48912387167653
20
-38.6977309752335
30
0
41
1
10
9.48800649981024
20
-38.6759025432335
30
0
0
SPLINE
5
3CF
100
AcDbEntity
8
1
62
256
6
ByLayer
370
13
48
1
60
0
100
AcDbSpline
70
4
71
3
72
10
73
6
40
0
40
0
40
0
40
0
40
0.0226582612707247
40
0.0226582612707247
40
1
40
1
40
1
40
1
41
1
10
9.17298174358035
20
-38.0960412522594
30
0
41
1
10
9.17130166483526
20
-38.0905722459195
30
0
41
1
10
9.16960365659921
20
-38.0851102388762
30
0
41
1
10
9.09502227191595
20
-37.8480045111205
30
0
41
1
10
8.98847351673317
20
-37.626805832268
30
0
41
1
10
8.86098504271649
20
-37.4327828618976
30
0
0
SPLINE
5
3D0
100
AcDbEntity
8
1
62
256
6
ByLayer
370
18
48
1
60
0
100
AcDbSpline
70
4
71
3
72
8
73
4
40
0
40
0
40
0
40
0
40
1
40
1
40
1
40
1
41
1
10
9.69258160244698
20
-36.4079896362885
30
0
41
1
10
9.6925147212163
20
-36.4435665312855
30
0
41
1
10
9.69409679913656
20
-36.4794508668293
30
0
41
1
10
9.69751249972808
20
-36.5150701629494
30
0
0
SPLINE
5
3D1
100
AcDbEntity
8
1
62
256
6
ByLayer
370
13
48
1
60
0
100
AcDbSpline
70
4
71
3
72
8
73
4
40
0
40
0
40
0
40
0
40
1
40
1
40
1
40
1
41
1
10
4.66053928827421
20
-39.5677966553318
30
0
41
1
10
4.66352533371659
20
-39.5605431655646
30
0
41
1
10
4.66650439611541
20
-39.5532862786722
30
0
41
1
10
4.66947646553749
20
-39.5460260607215
30
0
0
SPLINE
5
3D2
100
AcDbEntity
8
1
62
256
6
ByLayer
370
13
48
1
60
0
100
AcDbSpline
70
4
71
3
72
8
73
4
40
0
40
0
40
0
40
0
40
1
40
1
40
1
40
1
41
1
10
9.10008912721469
20
-39.7887266056559
30
0
41
1
10
9.09824243719459
20
-39.7845899831722
30
0
41
1
10
9.09639381829675
20
-39.7804539020509
30
0
41
1
10
9.09454329825226
20
-39.77631836057
30
0
0
SPLINE
5
3D3
100
AcDbEntity
8
1
62
256
6
ByLayer
370
13
48
1
60
0
100
AcDbSpline
70
4
71
3
72
8
73
4
40
0
40
0
40
0
40
0
40
1
40
1
40
1
40
1
41
1
10
4.52131868473967
20
-39.0906987914786
30
0
41
1
10
4.52263038114532
20
-39.1128834357454
30
0
41
1
10
4.52403877701084
20
-39.1350623971359
30
0
41
1
10
4.52554699255722
20
-39.1572341336386
30
0
0
SPLINE
5
3D4
100
AcDbEntity
8
1
62
256
6
ByLayer
370
18
48
1
60
0
100
AcDbSpline
70
4
71
3
72
8
73
4
40
0
40
0
40
0
40
0
40
1
40
1
40
1
40
1
41
1
10
8.82868603497286
20
-38.6455903209915
30
0
41
1
10
8.82002038848171
20
-38.5182827945868
30
0
41
1
10
8.81127523848002
20
-38.4183885486939
30
0
41
1
10
8.74412364603219
20
-38.2961878440829
30
0
0
SPLINE
5
3D5
100
AcDbEntity
8
1
62
256
6
ByLayer
370
13
48
1
60
0
100
AcDbSpline
70
4
71
3
72
8
73
4
40
0
40
0
40
0
40
0
40
1
40
1
40
1
40
1
41
1
10
9.4337560282267
20
-38.2326098900026
30
0
41
1
10
9.3556500780571
20
-38.2456387803163
30
0
41
1
10
9.27339423586614
20
-38.2587853202963
30
0
41
1
10
9.21097956876216
20
-38.2682151376413
30
0
0
SPLINE
5
3D6
100
AcDbEntity
8
1
62
256
6
ByLayer
370
13
48
1
60
0
100
AcDbSpline
70
4
71
3
72
28
73
24
40
0
40
0
40
0
40
0
40
0.0229934143077628
40
0.0229934143077628
40
0.12801172579236
40
0.12801172579236
40
0.229305265513945
40
0.229305265513945
40
0.328129830635224
40
0.328129830635224
40
0.362636155535028
40
0.362636155535028
40
0.480779658995557
40
0.480779658995557
40
0.598128942163515
40
0.598128942163515
40
0.720300469669145
40
0.720300469669145
40
0.848101221552739
40
0.848101221552739
40
0.971495198820407
40
0.971495198820407
40
1
40
1
40
1
40
1
41
1
10
5.47263004183836
20
-39.2408138737783
30
0
41
1
10
5.47749302276748
20
-39.2388493270533
30
0
41
1
10
5.48246945315773
20
-39.2371189091745
30
0
41
1
10
5.51036109516687
20
-39.2289358942438
30
0
41
1
10
5.53555818857055
20
-39.2271881355798
30
0
41
1
10
5.58550530426754
20
-39.233984636385
30
0
41
1
10
5.61094411731835
20
-39.2422670568049
30
0
41
1
10
5.65870161345501
20
-39.2671272257887
30
0
41
1
10
5.68175023799017
20
-39.2838531739458
30
0
41
1
10
5.70954045137162
20
-39.3106168994869
30
0
41
1
10
5.71654438751878
20
-39.3180282855937
30
0
41
1
10
5.74566973314646
20
-39.3518885884218
30
0
41
1
10
5.76467000652093
20
-39.3823466523737
30
0
41
1
10
5.79271212211864
20
-39.4454183487516
30
0
41
1
10
5.80223347479497
20
-39.4789842092364
30
0
41
1
10
5.81145224652539
20
-39.5466205369648
30
0
41
1
10
5.81086901139329
20
-39.5815865558034
30
0
41
1
10
5.79898342181051
20
-39.6485897215335
30
0
41
1
10
5.78699861663628
20
-39.6814237342445
30
0
41
1
10
5.75349678432488
20
-39.7367300056093
30
0
41
1
10
5.73175357639551
20
-39.7603548107668
30
0
41
1
10
5.70085125610129
20
-39.7812573426557
30
0
41
1
10
5.69476672743875
20
-39.7848940351992
30
0
41
1
10
5.68851987302008
20
-39.7881525715215
30
0
0
SPLINE
5
3D7
100
AcDbEntity
8
1
62
256
6
ByLayer
370
13
48
1
60
0
100
AcDbSpline
70
4
71
3
72
20
73
16
40
0
40
0
40
0
40
0
40
0.0001419067072187
40
0.0001419067072187
40
0.148182794543681
40
0.148182794543681
40
0.186164347229415
40
0.186164347229415
40
0.265575571808657
40
0.265575571808657
40
0.418346769420178
40
0.418346769420178
40
0.710566337099013
40
0.710566337099013
40
1
40
1
40
1
40
1
41
1
10
9.21097956876187
20
-38.2682151376414
30
0
41
1
10
9.21098393319082
20
-38.268234647772
30
0
41
1
10
9.21098829676328
20
-38.268254158121
30
0
41
1
10
9.21553398835721
20
-38.2885685781029
30
0
41
1
10
9.21641975753326
20
-38.3094897344782
30
0
41
1
10
9.21915286996568
20
-38.3354443387808
30
0
41
1
10
9.21972071662188
20
-38.3407767110538
30
0
41
1
10
9.22330154416187
20
-38.3569032149485
30
0
41
1
10
9.22568467719037
20
-38.3678429405989
30
0
41
1
10
9.23202205559184
20
-38.3999444294999
30
0
41
1
10
9.23535121536702
20
-38.4212520845594
30
0
41
1
10
9.24301634363329
20
-38.4834582214744
30
0
41
1
10
9.24597490639542
20
-38.5245211970633
30
0
41
1
10
9.25084438927593
20
-38.6062788847873
30
0
41
1
10
9.25265352444202
20
-38.6470333233469
30
0
41
1
10
9.25479324199117
20
-38.6877692412714
30
0
0
SPLINE
5
3D8
100
AcDbEntity
8
1
62
256
6
ByLayer
370
13
48
1
60
0
100
AcDbSpline
70
4
71
3
72
8
73
4
40
0
40
0
40
0
40
0
40
1
40
1
40
1
40
1
41
1
10
8.40083775989149
20
-37.408829342978
30
0
41
1
10
8.45311766675505
20
-37.47299712768
30
0
41
1
10
8.5035952818267
20
-37.5413599848384
30
0
41
1
10
8.55186040538595
20
-37.6129028909293
30
0
0
SPLINE
5
3D9
100
AcDbEntity
8
1
62
256
6
ByLayer
370
13
48
1
60
0
100
AcDbSpline
70
4
71
3
72
16
73
12
40
0
40
0
40
0
40
0
40
0.156028807467025
40
0.156028807467025
40
0.367658685186322
40
0.367658685186322
40
0.579760283715667
40
0.579760283715667
40
0.76238805866035
40
0.76238805866035
40
1
40
1
40
1
40
1
41
1
10
5.85148473403603
20
-35.8330892411895
30
0
41
1
10
5.95062245215289
20
-35.7480987832717
30
0
41
1
10
6.05965913415136
20
-35.6722024093894
30
0
41
1
10
6.33234232519675
20
-35.5246265811639
30
0
41
1
10
6.50543282670145
20
-35.4622775107062
30
0
41
1
10
6.86004512677741
20
-35.3971160943003
30
0
41
1
10
7.04625579857759
20
-35.3937323798961
30
0
41
1
10
7.37978858767565
20
-35.4425853243162
30
0
41
1
10
7.53236829855589
20
-35.487550898613
30
0
41
1
10
7.85787817337533
20
-35.6321844654472
30
0
41
1
10
8.02799987348686
20
-35.7461048481066
30
0
41
1
10
8.17453920771675
20
-35.8790160745718
30
0
0
SPLINE
5
3DA
100
AcDbEntity
8
1
62
256
6
ByLayer
370
13
48
1
60
0
100
AcDbSpline
70
4
71
3
72
12
73
8
40
0
40
0
40
0
40
0
40
0.0008041065375559
40
0.0008041065375559
40
0.998515819541746
40
0.998515819541746
40
1
40
1
40
1
40
1
41
1
10
8.7705823148313
20
-38.65
30
0
41
1
10
8.77058004067331
20
-38.6500197531826
30
0
41
1
10
8.7705777666684
20
-38.6500395064211
30
0
41
1
10
8.76775360501242
20
-38.6745645774325
30
0
41
1
10
8.76432530575889
20
-38.6989938355546
30
0
41
1
10
8.76055877452805
20
-38.7234196041506
30
0
41
1
10
8.76055317685973
20
-38.7234558907656
30
0
41
1
10
8.76054757710668
20
-38.7234921769646
30
0
0
SPLINE
5
3DB
100
AcDbEntity
8
1
62
256
6
ByLayer
370
13
48
1
60
0
100
AcDbSpline
70
4
71
3
72
10
73
6
40
0
40
0
40
0
40
0
40
0.594719407810296
40
0.594719407810296
40
1
40
1
40
1
40
1
41
1
10
8.63046506086502
20
-39.2964750271792
30
0
41
1
10
8.64229599977929
20
-39.3042806761192
30
0
41
1
10
8.65419189074308
20
-39.3125691188401
30
0
41
1
10
8.67418041069831
20
-39.3272182650202
30
0
41
1
10
8.68228946379233
20
-39.3333611488476
30
0
41
1
10
8.69037732653629
20
-39.3396886118677
30
0
0
SPLINE
5
3DC
100
AcDbEntity
8
1
62
256
6
ByLayer
370
18
48
1
60
0
100
AcDbSpline
70
4
71
3
72
10
73
6
40
0
40
0
40
0
40
0
40
0.852827298233842
40
0.852827298233842
40
1
40
1
40
1
40
1
41
1
10
5.09891301236229
20
-38.7321403749872
30
0
41
1
10
5.09077454264937
20
-38.7302766722728
30
0
41
1
10
5.08102139229854
20
-38.7282848423622
30
0
41
1
10
5.06806398057449
20
-38.725871047586
30
0
41
1
10
5.06610093681834
20
-38.7255106385013
30
0
41
1
10
5.06409894952063
20
-38.7251482641528
30
0
0
SPLINE
5
3DD
100
AcDbEntity
8
1
62
256
6
ByLayer
370
13
48
1
60
0
100
AcDbSpline
70
4
71
3
72
8
73
4
40
0
40
0
40
0
40
0
40
1
40
1
40
1
40
1
41
1
10
4.74323824391021
20
-38.7457249471383
30
0
41
1
10
4.74358959726538
20
-38.7263991381601
30
0
41
1
10
4.74425775343286
20
-38.7070761777234
30
0
41
1
10
4.74524215406751
20
-38.6877720844474
30
0
0
SPLINE
5
3DE
100
AcDbEntity
8
1
62
256
6
ByLayer
370
13
48
1
60
0
100
AcDbSpline
70
4
71
3
72
8
73
4
40
0
40
0
40
0
40
0
40
1
40
1
40
1
40
1
41
1
10
4.92272758768209
20
-39.7555363061483
30
0
41
1
10
4.93298775151385
20
-39.7680894292275
30
0
41
1
10
4.94490260114623
20
-39.7807768973381
30
0
41
1
10
4.95812252600066
20
-39.7932468780271
30
0
0
SPLINE
5
3DF
100
AcDbEntity
8
1
62
256
6
ByLayer
370
13
48
1
60
0
100
AcDbSpline
70
4
71
3
72
8
73
4
40
0
40
0
40
0
40
0
40
1
40
1
40
1
40
1
41
1
10
9.39502980570236
20
-38
30
0
41
1
10
9.56448339445615
20
-38
30
0
41
1
10
9.73393698320993
20
-38
30
0
41
1
10
9.90339057196371
20
-38
30
0
0
SPLINE
5
3E0
100
AcDbEntity
8
1
62
256
6
ByLayer
370
13
48
1
60
0
100
AcDbSpline
70
4
71
3
72
12
73
8
40
0
40
0
40
0
40
0
40
8.76100371325E-05
40
8.76100371325E-05
40
0.520053974571509
40
0.520053974571509
40
1
40
1
40
1
40
1
41
1
10
9.39502980570236
20
-38
30
0
41
1
10
9.39502687962585
20
-37.9999802173251
30
0
41
1
10
9.3950239538633
20
-37.9999604345994
30
0
41
1
10
9.37770257411086
20
-37.8828707362143
30
0
41
1
10
9.34697301112223
20
-37.767471109021
30
0
41
1
10
9.27528546285549
20
-37.5518248750018
30
0
41
1
10
9.23484554136414
20
-37.4505302440408
30
0
41
1
10
9.19422196081541
20
-37.3494567864937
30
0
0
SPLINE
5
3E1
100
AcDbEntity
8
1
62
256
6
ByLayer
370
13
48
1
60
0
100
AcDbSpline
70
4
71
3
72
8
73
4
40
0
40
0
40
0
40
0
40
1
40
1
40
1
40
1
41
1
10
9.01648024704602
20
-39.5231502777688
30
0
41
1
10
8.99840327689091
20
-39.4735123832403
30
0
41
1
10
8.98078421134099
20
-39.4235236041376
30
0
41
1
10
8.96396869297087
20
-39.3737330027423
30
0
0
SPLINE
5
3E2
100
AcDbEntity
8
1
62
256
6
ByLayer
370
13
48
1
60
0
100
AcDbSpline
70
4
71
3
72
8
73
4
40
0
40
0
40
0
40
0
40
1
40
1
40
1
40
1
41
1
10
5.1154126888203
20
-39.8648003373389
30
0
41
1
10
5.12546351117794
20
-39.8451107479208
30
0
41
1
10
5.13593013180815
20
-39.8255504098525
30
0
41
1
10
5.14638210910289
20
-39.806816810296
30
0
0
SPLINE
5
3E3
100
AcDbEntity
8
1
62
256
6
ByLayer
370
13
48
1
60
0
100
AcDbSpline
70
4
71
3
72
8
73
4
40
0
40
0
40
0
40
0
40
1
40
1
40
1
40
1
41
1
10
4.78885481113738
20
-38.2682038738256
30
0
41
1
10
4.8004682928574
20
-38.2105639578302
30
0
41
1
10
4.81315862042865
20
-38.153132555155
30
0
41
1
10
4.82701825641672
20
-38.0960412522587
30
0
0
SPLINE
5
3E4
100
AcDbEntity
8
1
62
256
6
ByLayer
370
13
48
1
60
0
100
AcDbSpline
70
4
71
3
72
8
73
4
40
0
40
0
40
0
40
0
40
1
40
1
40
1
40
1
41
1
10
9.25206253250118
20
-38.9810199560948
30
0
41
1
10
9.25100978046657
20
-39.0133596321301
30
0
41
1
10
9.24986509469946
20
-39.0456938544172
30
0
41
1
10
9.24862484945484
20
-39.0780203692056
30
0
0
SPLINE
5
3E5
100
AcDbEntity
8
1
62
256
6
ByLayer
370
13
48
1
60
0
100
AcDbSpline
70
4
71
3
72
8
73
4
40
0
40
0
40
0
40
0
40
1
40
1
40
1
40
1
41
1
10
5.36953493914012
20
-39.2964750271758
30
0
41
1
10
5.40451525005605
20
-39.2733962141756
30
0
41
1
10
5.43933412005208
20
-39.2542647581336
30
0
41
1
10
5.47263004183816
20
-39.2408138737781
30
0
0
LINE
5
70
100
AcDbEntity
8
1
62
256
6
ByLayer
370
18
48
1
60
0
100
AcDbLine
10
4.35
20
-21.425509
30
0
11
4.35
21
-33.808096
31
0
39
0
210
0
220
0
230
1
0
LINE
5
72
100
AcDbEntity
8
1
62
256
6
ByLayer
370
18
48
1
60
0
100
AcDbLine
10
10.719949
20
-21.519666
30
0
11
10.719949
21
-1.082449
31
0
39
0
210
0
220
0
230
1
0
LINE
5
73
100
AcDbEntity
8
1
62
256
6
ByLayer
370
18
48
1
60
0
100
AcDbLine
10
4.35
20
-20.996034
30
0
11
4.476317
21
-20.996034
31
0
39
0
210
0
220
0
230
1
0
LINE
5
74
100
AcDbEntity
8
1
62
256
6
ByLayer
370
18
48
1
60
0
100
AcDbLine
10
4.35
20
-14.6
30
0
11
4.35
21
-21.011396
31
0
39
0
210
0
220
0
230
1
0
LINE
5
75
100
AcDbEntity
8
80
62
256
6
ByLayer
370
18
48
1
60
0
100
AcDbLine
10
0
20
0
30
0
11
-5
21
0
31
0
39
0
210
0
220
0
230
1
0
LINE
5
76
100
AcDbEntity
8
81
62
256
6
ByLayer
370
18
48
1
60
0
100
AcDbLine
10
10
20
-40.6
30
0
11
10
21
-45.6
31
0
39
0
210
0
220
0
230
1
0
LINE
5
77
100
AcDbEntity
8
SK1
62
256
6
ByLayer
370
18
48
1
60
0
100
AcDbLine
10
-0.1
20
12.182991
30
0
11
-0.1
21
12.5
31
0
39
0
210
0
220
0
230
1
0
LINE
5
79
100
AcDbEntity
8
SK1
62
256
6
ByLayer
370
18
48
1
60
0
100
AcDbLine
10
-0.1
20
-12.776
30
0
11
-0.1
21
12.182991
31
0
39
0
210
0
220
0
230
1
0
LINE
5
7A
100
AcDbEntity
8
SK1
62
256
6
ByLayer
370
18
48
1
60
0
100
AcDbLine
10
-1.342559
20
12.5
30
0
11
-0.44569
21
12.5
31
0
39
0
210
0
220
0
230
1
0
LINE
5
7B
100
AcDbEntity
8
SK1
62
256
6
ByLayer
370
18
48
1
60
0
100
AcDbLine
10
-81
20
12.5
30
0
11
-1.342559
21
12.5
31
0
39
0
210
0
220
0
230
1
0
LINE
5
7C
100
AcDbEntity
8
SK1
62
256
6
ByLayer
370
18
48
1
60
0
100
AcDbLine
10
-81
20
12.5
30
0
11
-84
21
9.5
31
0
39
0
210
0
220
0
230
1
0
LINE
5
7D
100
AcDbEntity
8
SK1
62
256
6
ByLayer
370
18
48
1
60
0
100
AcDbLine
10
-81
20
-12.425
30
0
11
-1.342559
21
-12.425
31
0
39
0
210
0
220
0
230
1
0
LINE
5
7E
100
AcDbEntity
8
SK1
62
256
6
ByLayer
370
13
48
1
60
0
100
AcDbLine
10
-1.342559
20
12.5
30
0
11
-1.342559
21
-12.425
31
0
39
0
210
0
220
0
230
1
0
LINE
5
7F
100
AcDbEntity
8
SK1
62
256
6
ByLayer
370
18
48
1
60
0
100
AcDbLine
10
-84
20
9.5
30
0
11
-84
21
-9.425
31
0
39
0
210
0
220
0
230
1
0
LINE
5
80
100
AcDbEntity
8
SK1
62
256
6
ByLayer
370
18
48
1
60
0
100
AcDbLine
10
-0.1
20
12.5
30
0
11
-0.44569
21
12.5
31
0
39
0
210
0
220
0
230
1
0
LINE
5
81
100
AcDbEntity
8
SK1
62
256
6
ByLayer
370
18
48
1
60
0
100
AcDbLine
10
-1.342559
20
-12.425
30
0
11
-1.1
21
-12.425
31
0
39
0
210
0
220
0
230
1
0
LINE
5
82
100
AcDbEntity
8
SK1
62
256
6
ByLayer
370
18
48
1
60
0
100
AcDbLine
10
-81
20
-12.425
30
0
11
-84
21
-9.425
31
0
39
0
210
0
220
0
230
1
0
LINE
5
83
100
AcDbEntity
8
1
62
256
6
ByLayer
370
18
48
1
60
0
100
AcDbLine
10
1.858627
20
2.2342
30
0
11
0.233133
21
11.452837
31
0
39
0
210
0
220
0
230
1
0
LINE
5
84
100
AcDbEntity
8
1
62
256
6
ByLayer
370
18
48
1
60
0
100
AcDbLine
10
10.719949
20
-1.082449
30
0
11
10.219949
21
-0.582449
31
0
39
0
210
0
220
0
230
1
0
LINE
5
85
100
AcDbEntity
8
1
62
256
6
ByLayer
370
18
48
1
60
0
100
AcDbLine
10
10.219949
20
-0.582449
30
0
11
10.068629
21
-0.431129
31
0
39
0
210
0
220
0
230
1
0
LINE
5
86
100
AcDbEntity
8
1
62
256
6
ByLayer
370
18
48
1
60
0
100
AcDbLine
10
4.351435
20
-20.987008
30
0
11
4.35357
21
-20.990866
31
0
39
0
210
0
220
0
230
1
0
LINE
5
87
100
AcDbEntity
8
1
62
256
6
ByLayer
370
13
48
1
60
0
100
AcDbLine
10
0.233133
20
-13
30
0
11
0.233133
21
11.452837
31
0
39
0
210
0
220
0
230
1
0
LINE
5
88
100
AcDbEntity
8
1
62
256
6
ByLayer
370
13
48
1
60
0
100
AcDbLine
10
10.219949
20
-0.582449
30
0
11
10.219949
21
-18.429775
31
0
39
0
210
0
220
0
230
1
0
LINE
5
89
100
AcDbEntity
8
1
62
256
6
ByLayer
370
13
48
1
60
0
100
AcDbLine
10
5.548439
20
-24.857651
30
0
11
10.349981
21
-24.857651
31
0
39
0
210
0
220
0
230
1
0
LINE
5
8A
100
AcDbEntity
8
1
62
256
6
ByLayer
370
18
48
1
60
0
100
AcDbLine
10
6.367845
20
-18.429775
30
0
11
6.367845
21
-14.6
31
0
39
0
210
0
220
0
230
1
0
LINE
5
8B
100
AcDbEntity
8
1
62
256
6
ByLayer
370
18
48
1
60
0
100
AcDbLine
10
10.720002
20
-1.082502
30
0
11
14.990881
21
-5.353381
31
0
39
0
210
0
220
0
230
1
0
LINE
5
8C
100
AcDbEntity
8
1
62
256
6
ByLayer
370
18
48
1
60
0
100
AcDbLine
10
10.041823
20
-27.934761
30
0
11
9.944425
21
-27.964075
31
0
39
0
210
0
220
0
230
1
0
LINE
5
8D
100
AcDbEntity
8
1
62
256
6
ByLayer
370
18
48
1
60
0
100
AcDbLine
10
5.426475
20
-34.40549
30
0
11
4.352626
21
-34.083933
31
0
39
0
210
0
220
0
230
1
0
LINE
5
8E
100
AcDbEntity
8
1
62
256
6
ByLayer
370
18
48
1
60
0
100
AcDbLine
10
1.858627
20
-13
30
0
11
4.651669
21
-13
31
0
39
0
210
0
220
0
230
1
0
LINE
5
8F
100
AcDbEntity
8
1
62
256
6
ByLayer
370
18
48
1
60
0
100
AcDbLine
10
10.501056
20
-30.258959
30
0
11
10.501056
21
-29.458196
31
0
39
0
210
0
220
0
230
1
0
LINE
5
90
100
AcDbEntity
8
1
62
256
6
ByLayer
370
18
48
1
60
0
100
AcDbLine
10
9.6
20
11.5
30
0
11
9.6
21
2.2342
31
0
39
0
210
0
220
0
230
1
0
LINE
5
91
100
AcDbEntity
8
1
62
256
6
ByLayer
370
18
48
1
60
0
100
AcDbLine
10
9.669812
20
-31.831611
30
0
11
10.295466
21
-31.761852
31
0
39
0
210
0
220
0
230
1
0
LINE
5
92
100
AcDbEntity
8
1
62
256
6
ByLayer
370
18
48
1
60
0
100
AcDbLine
10
4.901688
20
-15.399939
30
0
11
4.806569
21
-15.399939
31
0
39
0
210
0
220
0
230
1
0
LINE
5
93
100
AcDbEntity
8
1
62
256
6
ByLayer
370
18
48
1
60
0
100
AcDbLine
10
1.858627
20
2.2342
30
0
11
9.6
21
2.2342
31
0
39
0
210
0
220
0
230
1
0
LINE
5
94
100
AcDbEntity
8
1
62
256
6
ByLayer
370
18
48
1
60
0
100
AcDbLine
10
9.6
20
0.700242
30
0
11
9.6
21
2.2342
31
0
39
0
210
0
220
0
230
1
0
LINE
5
95
100
AcDbEntity
8
1
62
256
6
ByLayer
370
18
48
1
60
0
100
AcDbLine
10
-0.1
20
12.182991
30
0
11
-0.1
21
12.5
31
0
39
0
210
0
220
0
230
1
0
LINE
5
96
100
AcDbEntity
8
1
62
256
6
ByLayer
370
13
48
1
60
0
100
AcDbLine
10
10.501056
20
-29.458196
30
0
11
9.80784
21
-29.42793
31
0
39
0
210
0
220
0
230
1
0
LINE
5
97
100
AcDbEntity
8
1
62
256
6
ByLayer
370
13
48
1
60
0
100
AcDbLine
10
10.501056
20
-30.258959
30
0
11
9.747896
21
-30.226075
31
0
39
0
210
0
220
0
230
1
0
LINE
5
98
100
AcDbEntity
8
1
62
256
6
ByLayer
370
18
48
1
60
0
100
AcDbLine
10
0.233133
20
-13
30
0
11
1.858627
21
-13
31
0
39
0
210
0
220
0
230
1
0
LINE
5
99
100
AcDbEntity
8
1
62
256
6
ByLayer
370
18
48
1
60
0
100
AcDbLine
10
9.600183
20
-34.390024
30
0
11
8.921518
21
-34.551653
31
0
39
0
210
0
220
0
230
1
0
LINE
5
9A
100
AcDbEntity
8
1
62
256
6
ByLayer
370
18
48
1
60
0
100
AcDbLine
10
14.990881
20
-5.353381
30
0
11
14.990881
21
-20.482154
31
0
39
0
210
0
220
0
230
1
0
LINE
5
9B
100
AcDbEntity
8
1
62
256
6
ByLayer
370
18
48
1
60
0
100
AcDbLine
10
0.128566
20
-13
30
0
11
0.233133
21
-13
31
0
39
0
210
0
220
0
230
1
0
LINE
5
9C
100
AcDbEntity
8
1
62
256
6
ByLayer
370
18
48
1
60
0
100
AcDbLine
10
1.858627
20
2.2342
30
0
11
1.858627
21
-13
31
0
39
0
210
0
220
0
230
1
0
LINE
5
9D
100
AcDbEntity
8
1
62
256
6
ByLayer
370
13
48
1
60
0
100
AcDbLine
10
10.298877
20
-31.755072
30
0
11
9.669136
21
-31.727577
31
0
39
0
210
0
220
0
230
1
0
LINE
5
9E
100
AcDbEntity
8
1
62
256
6
ByLayer
370
18
48
1
60
0
100
AcDbLine
10
8.6
20
12.5
30
0
11
9.6
21
11.5
31
0
39
0
210
0
220
0
230
1
0
LINE
5
9F
100
AcDbEntity
8
1
62
256
6
ByLayer
370
18
48
1
60
0
100
AcDbLine
10
8.6
20
12.5
30
0
11
-0.1
21
12.5
31
0
39
0
210
0
220
0
230
1
0
LINE
5
A0
100
AcDbEntity
8
1
62
256
6
ByLayer
370
18
48
1
60
0
100
AcDbLine
10
-0.1
20
-12.776
30
0
11
-0.1
21
12.182991
31
0
39
0
210
0
220
0
230
1
0
LINE
5
A1
100
AcDbEntity
8
1
62
256
6
ByLayer
370
13
48
1
60
0
100
AcDbLine
10
6.367845
20
-14.6
30
0
11
4.805299
21
-14.6
31
0
39
0
210
0
220
0
230
1
0
LINE
5
A2
100
AcDbEntity
8
1
62
256
6
ByLayer
370
13
48
1
60
0
100
AcDbLine
10
10.219949
20
-18.429775
30
0
11
6.367845
21
-18.429775
31
0
39
0
210
0
220
0
230
1
0
LINE
5
A3
100
AcDbEntity
8
1
62
256
6
ByLayer
370
13
48
1
60
0
100
AcDbLine
10
4.9054
20
-15.479475
30
0
11
4.824919
21
-15.479475
31
0
39
0
210
0
220
0
230
1
0
LINE
5
A4
100
AcDbEntity
8
1
62
256
6
ByLayer
370
13
48
1
60
0
100
AcDbLine
10
4.35
20
-14.6
30
0
11
4.805299
21
-14.6
31
0
39
0
210
0
220
0
230
1
0
LINE
5
A5
100
AcDbEntity
8
1
62
256
6
ByLayer
370
18
48
1
60
0
100
AcDbLine
10
9.995155
20
-40
30
0
11
10.740781
21
-40
31
0
39
0
210
0
220
0
230
1
0
LINE
5
A6
100
AcDbEntity
8
1
62
256
6
ByLayer
370
18
48
1
60
0
100
AcDbLine
10
5.426475
20
-34.40549
30
0
11
8.921518
21
-34.551653
31
0
39
0
210
0
220
0
230
1
0
LINE
5
A7
100
AcDbEntity
8
1
62
256
6
ByLayer
370
13
48
1
60
0
100
AcDbLine
10
9.60451
20
-34.629552
30
0
11
9.688513
21
-34.629552
31
0
39
0
210
0
220
0
230
1
0
LINE
5
A8
100
AcDbEntity
8
1
62
256
6
ByLayer
370
13
48
1
60
0
100
AcDbLine
10
4.3
20
-40.586954
30
0
11
4.3
21
-40.409013
31
0
39
0
210
0
220
0
230
1
0
LINE
5
A9
100
AcDbEntity
8
1
62
256
6
ByLayer
370
13
48
1
60
0
100
AcDbLine
10
4.894764
20
-36.51507
30
0
11
4.894764
21
-36.944755
31
0
39
0
210
0
220
0
230
1
0
LINE
5
AA
100
AcDbEntity
8
1
62
256
6
ByLayer
370
13
48
1
60
0
100
AcDbLine
10
4.845418
20
-34.425041
30
0
11
4.928012
21
-34.425041
31
0
39
0
210
0
220
0
230
1
0
LINE
5
AB
100
AcDbEntity
8
1
62
256
6
ByLayer
370
13
48
1
60
0
100
AcDbLine
10
8.860985
20
-37.432783
30
0
11
8.992442
21
-37.424906
31
0
39
0
210
0
220
0
230
1
0
LINE
5
AC
100
AcDbEntity
8
1
62
256
6
ByLayer
370
13
48
1
60
0
100
AcDbLine
10
4.239515
20
-40.135814
30
0
11
4.000615
21
-40.125383
31
0
39
0
210
0
220
0
230
1
0
LINE
5
AD
100
AcDbEntity
8
1
62
256
6
ByLayer
370
13
48
1
60
0
100
AcDbLine
10
8.9124
20
-36.944755
30
0
11
8.579485
21
-36.964702
31
0
39
0
210
0
220
0
230
1
0
LINE
5
AE
100
AcDbEntity
8
1
62
256
6
ByLayer
370
13
48
1
60
0
100
AcDbLine
10
4.894764
20
-36.51507
30
0
11
5.0876
21
-36.51507
31
0
39
0
210
0
220
0
230
1
0
LINE
5
AF
100
AcDbEntity
8
1
62
256
6
ByLayer
370
18
48
1
60
0
100
AcDbLine
10
4.860634
20
-34.236022
30
0
11
4.845418
21
-34.425041
31
0
39
0
210
0
220
0
230
1
0
LINE
5
B0
100
AcDbEntity
8
1
62
256
6
ByLayer
370
13
48
1
60
0
100
AcDbLine
10
4.60497
20
-38
30
0
11
4.595156
21
-38.05801
31
0
39
0
210
0
220
0
230
1
0
LINE
5
B1
100
AcDbEntity
8
1
62
256
6
ByLayer
370
13
48
1
60
0
100
AcDbLine
10
9.163167
20
-38.038031
30
0
11
9.172982
21
-38.096041
31
0
39
0
210
0
220
0
230
1
0
LINE
5
B2
100
AcDbEntity
8
1
62
256
6
ByLayer
370
13
48
1
60
0
100
AcDbLine
10
9.573103
20
-34.624952
30
0
11
9.571581
21
-34.39682
31
0
39
0
210
0
220
0
230
1
0
LINE
5
B3
100
AcDbEntity
8
1
62
256
6
ByLayer
370
13
48
1
60
0
100
AcDbLine
10
8.486343
20
-35.867617
30
0
11
8.368619
21
-36.148833
31
0
39
0
210
0
220
0
230
1
0
LINE
5
B4
100
AcDbEntity
8
1
62
256
6
ByLayer
370
13
48
1
60
0
100
AcDbLine
10
9.105877
20
-37
30
0
11
8.913219
21
-37.004472
31
0
39
0
210
0
220
0
230
1
0
LINE
5
B5
100
AcDbEntity
8
1
62
256
6
ByLayer
370
13
48
1
60
0
100
AcDbLine
10
4.93363
20
-34.649142
30
0
11
6.842567
21
-35.049443
31
0
39
0
210
0
220
0
230
1
0
LINE
5
B6
100
AcDbEntity
8
1
62
256
6
ByLayer
370
13
48
1
60
0
100
AcDbLine
10
9.986996
20
-40.3
30
0
11
9.766338
21
-40.3
31
0
39
0
210
0
220
0
230
1
0
LINE
5
B7
100
AcDbEntity
8
1
62
256
6
ByLayer
370
13
48
1
60
0
100
AcDbLine
10
4.917295
20
-34.642366
30
0
11
4.825379
21
-34.642366
31
0
39
0
210
0
220
0
230
1
0
LINE
5
B8
100
AcDbEntity
8
1
62
256
6
ByLayer
370
13
48
1
60
0
100
AcDbLine
10
4.824655
20
-34.648168
30
0
11
4.916238
21
-34.647691
31
0
39
0
210
0
220
0
230
1
0
LINE
5
B9
100
AcDbEntity
8
1
62
256
6
ByLayer
370
13
48
1
60
0
100
AcDbLine
10
9.697026
20
-35.100145
30
0
11
9.616142
21
-35.10057
31
0
39
0
210
0
220
0
230
1
0
LINE
5
BA
100
AcDbEntity
8
1
62
256
6
ByLayer
370
13
48
1
60
0
100
AcDbLine
10
4.76432
20
-35.36687
30
0
11
5.172084
21
-35.370735
31
0
39
0
210
0
220
0
230
1
0
LINE
5
BB
100
AcDbEntity
8
1
62
256
6
ByLayer
370
13
48
1
60
0
100
AcDbLine
10
6.855733
20
-34.747907
30
0
11
6.842567
21
-35.049443
31
0
39
0
210
0
220
0
230
1
0
LINE
5
BC
100
AcDbEntity
8
1
62
256
6
ByLayer
370
13
48
1
60
0
100
AcDbLine
10
9.692357
20
-34.845547
30
0
11
9.595631
21
-34.845547
31
0
39
0
210
0
220
0
230
1
0
LINE
5
BD
100
AcDbEntity
8
1
62
256
6
ByLayer
370
13
48
1
60
0
100
AcDbLine
10
4.933901
20
-34.646966
30
0
11
4.93363
21
-34.649142
31
0
39
0
210
0
220
0
230
1
0
LINE
5
BE
100
AcDbEntity
8
1
62
256
6
ByLayer
370
13
48
1
60
0
100
AcDbLine
10
9.105236
20
-36.51507
30
0
11
8.9124
21
-36.51507
31
0
39
0
210
0
220
0
230
1
0
LINE
5
BF
100
AcDbEntity
8
1
62
256
6
ByLayer
370
18
48
1
60
0
100
AcDbLine
10
4.415879
20
-36.51507
30
0
11
4.160002
21
-36.958261
31
0
39
0
210
0
220
0
230
1
0
LINE
5
C0
100
AcDbEntity
8
1
62
256
6
ByLayer
370
13
48
1
60
0
100
AcDbLine
10
4.233662
20
-40.3
30
0
11
4.013105
21
-40.3
31
0
39
0
210
0
220
0
230
1
0
LINE
5
C1
100
AcDbEntity
8
1
62
256
6
ByLayer
370
18
48
1
60
0
100
AcDbLine
10
9.69892
20
-35.413918
30
0
11
9.697026
21
-35.100145
31
0
39
0
210
0
220
0
230
1
0
LINE
5
C2
100
AcDbEntity
8
1
62
256
6
ByLayer
370
13
48
1
60
0
100
AcDbLine
10
4.894123
20
-37
30
0
11
5.086781
21
-37.004472
31
0
39
0
210
0
220
0
230
1
0
LINE
5
C3
100
AcDbEntity
8
1
62
256
6
ByLayer
370
13
48
1
60
0
100
AcDbLine
10
6.777937
20
-35.288539
30
0
11
4.894752
21
-34.893639
31
0
39
0
210
0
220
0
230
1
0
LINE
5
C4
100
AcDbEntity
8
1
62
256
6
ByLayer
370
13
48
1
60
0
100
AcDbLine
10
5.007558
20
-37.424906
30
0
11
5.139015
21
-37.432783
31
0
39
0
210
0
220
0
230
1
0
LINE
5
C5
100
AcDbEntity
8
1
62
256
6
ByLayer
370
13
48
1
60
0
100
AcDbLine
10
8.486343
20
-35.867617
30
0
11
8.66806
21
-36.020095
31
0
39
0
210
0
220
0
230
1
0
LINE
5
C6
100
AcDbEntity
8
1
62
256
6
ByLayer
370
13
48
1
60
0
100
AcDbLine
10
9.105236
20
-36.944755
30
0
11
8.9124
21
-36.944755
31
0
39
0
210
0
220
0
230
1
0
LINE
5
C7
100
AcDbEntity
8
1
62
256
6
ByLayer
370
13
48
1
60
0
100
AcDbLine
10
9.601345
20
-34.130269
30
0
11
9.604632
21
-34.622947
31
0
39
0
210
0
220
0
230
1
0
LINE
5
C8
100
AcDbEntity
8
1
62
256
6
ByLayer
370
13
48
1
60
0
100
AcDbLine
10
5.0876
20
-36.944755
30
0
11
5.0876
21
-36.51507
31
0
39
0
210
0
220
0
230
1
0
LINE
5
C9
100
AcDbEntity
8
1
62
256
6
ByLayer
370
13
48
1
60
0
100
AcDbLine
10
5.33194
20
-36.020095
30
0
11
5.541114
21
-35.844577
31
0
39
0
210
0
220
0
230
1
0
LINE
5
CA
100
AcDbEntity
8
1
62
256
6
ByLayer
370
18
48
1
60
0
100
AcDbLine
10
9.839699
20
-36.957743
30
0
11
9.836734
21
-36.952608
31
0
39
0
210
0
220
0
230
1
0
LINE
5
CB
100
AcDbEntity
8
1
62
256
6
ByLayer
370
18
48
1
60
0
100
AcDbLine
10
4.824655
20
-34.648168
30
0
11
4.825379
21
-34.642366
31
0
39
0
210
0
220
0
230
1
0
LINE
5
CC
100
AcDbEntity
8
1
62
256
6
ByLayer
370
13
48
1
60
0
100
AcDbLine
10
9.597452
20
-34.855086
30
0
11
9.692794
21
-34.854585
31
0
39
0
210
0
220
0
230
1
0
LINE
5
CD
100
AcDbEntity
8
1
62
256
6
ByLayer
370
18
48
1
60
0
100
AcDbLine
10
4.76432
20
-35.36687
30
0
11
4.802103
21
-34.894122
31
0
39
0
210
0
220
0
230
1
0
LINE
5
CE
100
AcDbEntity
8
1
62
256
6
ByLayer
370
13
48
1
60
0
100
AcDbLine
10
7.744147
20
-34.561328
30
0
11
9.573103
21
-34.624952
31
0
39
0
210
0
220
0
230
1
0
LINE
5
CF
100
AcDbEntity
8
1
62
256
6
ByLayer
370
18
48
1
60
0
100
AcDbLine
10
5.41236
20
-40.6
30
0
11
4.4
21
-40.6
31
0
39
0
210
0
220
0
230
1
0
LINE
5
D0
100
AcDbEntity
8
1
62
256
6
ByLayer
370
18
48
1
60
0
100
AcDbLine
10
9.6
20
-40.6
30
0
11
8.58764
21
-40.6
31
0
39
0
210
0
220
0
230
1
0
LINE
5
D1
100
AcDbEntity
8
1
62
256
6
ByLayer
370
13
48
1
60
0
100
AcDbLine
10
8.174539
20
-35.879016
30
0
11
8.234049
21
-35.736859
31
0
39
0
210
0
220
0
230
1
0
LINE
5
D2
100
AcDbEntity
8
1
62
256
6
ByLayer
370
13
48
1
60
0
100
AcDbLine
10
5.803051
20
-35.713819
30
0
11
5.851485
21
-35.833089
31
0
39
0
210
0
220
0
230
1
0
LINE
5
D3
100
AcDbEntity
8
1
62
256
6
ByLayer
370
18
48
1
60
0
100
AcDbLine
10
4.916238
20
-34.647691
30
0
11
4.916267
21
-34.647464
31
0
39
0
210
0
220
0
230
1
0
LINE
5
D4
100
AcDbEntity
8
1
62
256
6
ByLayer
370
18
48
1
60
0
100
AcDbLine
10
9.907833
20
-38
30
0
11
9.996273
21
-40.02561
31
0
39
0
210
0
220
0
230
1
0
LINE
5
D5
100
AcDbEntity
8
1
62
256
6
ByLayer
370
13
48
1
60
0
100
AcDbLine
10
7.640558
20
-35.085169
30
0
11
9.588179
21
-34.855197
31
0
39
0
210
0
220
0
230
1
0
LINE
5
D6
100
AcDbEntity
8
1
62
256
6
ByLayer
370
13
48
1
60
0
100
AcDbLine
10
6.847827
20
-34.747528
30
0
11
4.933901
21
-34.646966
31
0
39
0
210
0
220
0
230
1
0
LINE
5
D7
100
AcDbEntity
8
1
62
256
6
ByLayer
370
13
48
1
60
0
100
AcDbLine
10
9.404844
20
-38.05801
30
0
11
9.39503
21
-38
31
0
39
0
210
0
220
0
230
1
0
LINE
5
D8
100
AcDbEntity
8
1
62
256
6
ByLayer
370
13
48
1
60
0
100
AcDbLine
10
5.139104
20
-35.807963
30
0
11
4.716588
21
-35.807963
31
0
39
0
210
0
220
0
230
1
0
LINE
5
D9
100
AcDbEntity
8
1
62
256
6
ByLayer
370
13
48
1
60
0
100
AcDbLine
10
4.916267
20
-34.647464
30
0
11
4.916538
21
-34.645288
31
0
39
0
210
0
220
0
230
1
0
LINE
5
DA
100
AcDbEntity
8
1
62
256
6
ByLayer
370
13
48
1
60
0
100
AcDbLine
10
9.588179
20
-34.855197
30
0
11
9.587931
21
-34.850069
31
0
39
0
210
0
220
0
230
1
0
LINE
5
DB
100
AcDbEntity
8
1
62
256
6
ByLayer
370
13
48
1
60
0
100
AcDbLine
10
4.894764
20
-36.944755
30
0
11
5.0876
21
-36.944755
31
0
39
0
210
0
220
0
230
1
0
LINE
5
DC
100
AcDbEntity
8
1
62
256
6
ByLayer
370
18
48
1
60
0
100
AcDbLine
10
9.66835
20
-31.607223
30
0
11
9.688513
21
-34.629552
31
0
39
0
210
0
220
0
230
1
0
LINE
5
DD
100
AcDbEntity
8
1
62
256
6
ByLayer
370
13
48
1
60
0
100
AcDbLine
10
4.975063
20
-34.270285
30
0
11
4.962712
21
-34.423704
31
0
39
0
210
0
220
0
230
1
0
LINE
5
DE
100
AcDbEntity
8
1
62
256
6
ByLayer
370
18
48
1
60
0
100
AcDbLine
10
4.003692
20
-40.025611
30
0
11
4.092132
21
-38
31
0
39
0
210
0
220
0
230
1
0
LINE
5
DF
100
AcDbEntity
8
1
62
256
6
ByLayer
370
13
48
1
60
0
100
AcDbLine
10
4.827018
20
-38.096041
30
0
11
4.836833
21
-38.038031
31
0
39
0
210
0
220
0
230
1
0
LINE
5
E0
100
AcDbEntity
8
1
62
256
6
ByLayer
370
13
48
1
60
0
100
AcDbLine
10
6.787481
20
-34.462386
30
0
11
6.784989
21
-34.51945
31
0
39
0
210
0
220
0
230
1
0
LINE
5
E1
100
AcDbEntity
8
1
62
256
6
ByLayer
370
13
48
1
60
0
100
AcDbLine
10
9.105236
20
-36.944755
30
0
11
9.105236
21
-36.51507
31
0
39
0
210
0
220
0
230
1
0
LINE
5
E2
100
AcDbEntity
8
1
62
256
6
ByLayer
370
13
48
1
60
0
100
AcDbLine
10
4.894752
20
-34.893639
30
0
11
4.802103
21
-34.894122
31
0
39
0
210
0
220
0
230
1
0
LINE
5
E3
100
AcDbEntity
8
1
62
256
6
ByLayer
370
13
48
1
60
0
100
AcDbLine
10
5.167263
20
-35.784335
30
0
11
4.721171
21
-35.780107
31
0
39
0
210
0
220
0
230
1
0
LINE
5
E4
100
AcDbEntity
8
1
62
256
6
ByLayer
370
13
48
1
60
0
100
AcDbLine
10
4.962712
20
-34.423704
30
0
11
6.784989
21
-34.51945
31
0
39
0
210
0
220
0
230
1
0
LINE
5
E5
100
AcDbEntity
8
1
62
256
6
ByLayer
370
13
48
1
60
0
100
AcDbLine
10
7.746716
20
-34.502497
30
0
11
7.744147
21
-34.561328
31
0
39
0
210
0
220
0
230
1
0
LINE
5
E6
100
AcDbEntity
8
1
62
256
6
ByLayer
370
13
48
1
60
0
100
AcDbLine
10
9.99936
20
-40.125384
30
0
11
9.760485
21
-40.135814
31
0
39
0
210
0
220
0
230
1
0
LINE
5
E7
100
AcDbEntity
8
1
62
256
6
ByLayer
370
13
48
1
60
0
100
AcDbLine
10
9.105236
20
-36.51507
30
0
11
9.697512
21
-36.51507
31
0
39
0
210
0
220
0
230
1
0
LINE
5
E8
100
AcDbEntity
8
1
62
256
6
ByLayer
370
18
48
1
60
0
100
AcDbLine
10
9.692794
20
-34.854585
30
0
11
9.692357
21
-34.845547
31
0
39
0
210
0
220
0
230
1
0
LINE
5
E9
100
AcDbEntity
8
1
62
256
6
ByLayer
370
13
48
1
60
0
100
AcDbLine
10
7.640558
20
-35.085169
30
0
11
7.653762
21
-34.78275
31
0
39
0
210
0
220
0
230
1
0
LINE
5
EA
100
AcDbEntity
8
1
62
256
6
ByLayer
370
13
48
1
60
0
100
AcDbLine
10
4.928366
20
-34.41912
30
0
11
4.941165
21
-34.260133
31
0
39
0
210
0
220
0
230
1
0
LINE
5
EB
100
AcDbEntity
8
1
62
256
6
ByLayer
370
13
48
1
60
0
100
AcDbLine
10
4.415879
20
-36.51507
30
0
11
4.894764
21
-36.51507
31
0
39
0
210
0
220
0
230
1
0
LINE
5
EC
100
AcDbEntity
8
1
62
256
6
ByLayer
370
13
48
1
60
0
100
AcDbLine
10
5.420515
20
-36.964702
30
0
11
5.0876
21
-36.944755
31
0
39
0
210
0
220
0
230
1
0
LINE
5
ED
100
AcDbEntity
8
1
62
256
6
ByLayer
370
13
48
1
60
0
100
AcDbLine
10
5.646957
20
-36.105219
30
0
11
5.541114
21
-35.844577
31
0
39
0
210
0
220
0
230
1
0
LINE
5
EE
100
AcDbEntity
8
1
62
256
6
ByLayer
370
13
48
1
60
0
100
AcDbLine
10
5.167263
20
-35.784335
30
0
11
5.139104
21
-35.807963
31
0
39
0
210
0
220
0
230
1
0
LINE
5
EF
100
AcDbEntity
8
1
62
256
6
ByLayer
370
13
48
1
60
0
100
AcDbLine
10
8.9124
20
-36.51507
30
0
11
8.9124
21
-36.944755
31
0
39
0
210
0
220
0
230
1
0
LINE
5
F0
100
AcDbEntity
8
1
62
256
6
ByLayer
370
13
48
1
60
0
100
AcDbLine
10
9.616142
20
-35.10057
30
0
11
7.682332
21
-35.328911
31
0
39
0
210
0
220
0
230
1
0
LINE
5
F1
100
AcDbEntity
8
1
62
256
6
ByLayer
370
13
48
1
60
0
100
AcDbLine
10
9.7
20
-40.409013
30
0
11
9.7
21
-40.58698
31
0
39
0
210
0
220
0
230
1
0
LINE
5
F2
100
AcDbEntity
8
1
62
256
6
ByLayer
370
13
48
1
60
0
100
AcDbLine
10
9.587931
20
-34.850069
30
0
11
7.66167
21
-34.783061
31
0
39
0
210
0
220
0
230
1
0
LINE
5
F3
100
AcDbEntity
8
1
62
256
6
ByLayer
370
13
48
1
60
0
100
AcDbLine
10
9.597169
20
-34.849615
30
0
11
9.597417
21
-34.854744
31
0
39
0
210
0
220
0
230
1
0
LINE
5
F4
100
AcDbEntity
8
SK2
62
256
6
ByLayer
370
13
48
1
60
0
100
AcDbLine
10
-93.60005
20
-12.5
30
0
11
-93.60005
21
12.5
31
0
39
0
210
0
220
0
230
1
0
LINE
5
F6
100
AcDbEntity
8
SK2
62
256
6
ByLayer
370
13
48
1
60
0
100
AcDbLine
10
-2
20
12.5
30
0
11
-95.60005
21
12.5
31
0
39
0
210
0
220
0
230
1
0
LINE
5
F7
100
AcDbEntity
8
SK2
62
256
6
ByLayer
370
13
48
1
60
0
100
AcDbLine
10
-2
20
-12.5
30
0
11
-95.60005
21
-12.5
31
0
39
0
210
0
220
0
230
1
0
LINE
5
F8
100
AcDbEntity
8
SK2
62
256
6
ByLayer
370
18
48
1
60
0
100
AcDbLine
10
-93.60005
20
12.5
30
0
11
-93.182053
21
9.325002
31
0
39
0
210
0
220
0
230
1
0
LINE
5
F9
100
AcDbEntity
8
SK2
62
256
6
ByLayer
370
18
48
1
60
0
100
AcDbLine
10
-93.60005
20
12.5
30
0
11
-94.018047
21
9.324998
31
0
39
0
210
0
220
0
230
1
0
LINE
5
FA
100
AcDbEntity
8
SK2
62
256
6
ByLayer
370
18
48
1
60
0
100
AcDbLine
10
-93.182053
20
9.325002
30
0
11
-94.018047
21
9.324998
31
0
39
0
210
0
220
0
230
1
0
LINE
5
FB
100
AcDbEntity
8
SK2
62
256
6
ByLayer
370
18
48
1
60
0
100
AcDbLine
10
-93.60005
20
-12.5
30
0
11
-94.018047
21
-9.325002
31
0
39
0
210
0
220
0
230
1
0
LINE
5
FC
100
AcDbEntity
8
SK2
62
256
6
ByLayer
370
18
48
1
60
0
100
AcDbLine
10
-93.60005
20
-12.5
30
0
11
-93.182053
21
-9.324998
31
0
39
0
210
0
220
0
230
1
0
LINE
5
FD
100
AcDbEntity
8
SK2
62
256
6
ByLayer
370
18
48
1
60
0
100
AcDbLine
10
-94.018047
20
-9.325002
30
0
11
-93.182053
21
-9.324998
31
0
39
0
210
0
220
0
230
1
0
MTEXT
5
3E6
100
AcDbEntity
8
SK6
62
256
6
ByLayer
370
18
48
1
60
0
100
AcDbMText
10
-68.418155
20
-67.424841
30
0
210
0
220
0
230
1
1
\W0.7957;QFT-LGK26C2525-045B
40
3.5
41
0
44
1.084337
50
0
71
7
72
5
7
iso_b_vert
0
MTEXT
5
3EA
100
AcDbEntity
8
SK2
62
256
6
ByLayer
370
18
48
1
60
0
100
AcDbMText
10
-94.475184
20
-1.214932
30
0
210
0
220
0
230
1
1
\W0.6740;25
40
3.5
41
0
44
1.084337
50
89.9999999999999
71
7
72
5
7
iso_b_vert
0
DIMENSION
5
3F9
100
AcDbEntity
8
2
62
256
6
ByLayer
370
13
48
1
60
0
100
AcDbDimension
2
DimnDraft3D1
10
10
20
29.10005
30
0
11
3.346967
21
29.10005
31
0
70
32
71
5
72
1
41
1
210
0
220
0
230
1
3
Standard
100
AcDbAlignedDimension
13
0
23
14.5
33
0
14
10
24
-38.6
34
0
50
0
100
AcDbRotatedDimension
1001
ACAD
1000
DSTYLE
1002
{
1070
   279
1070
     0
1070
   172
1070
     1
1070
   173
1070
     1
1070
   340
1005
3E7
1070
   271
1070
     1
1070
    77
1070
     1
1070
    73
1070
     0
1070
   171
1070
     3
1070
   274
1070
     4
1070
   177
1070
     2
1070
   176
1070
     2
1070
   178
1070
     7
1070
    78
1070
     8
1070
    41
1041
3.175
1070
   147
1041
1.75
1070
    42
1041
2.0
1070
    44
1041
2.0
1070
   140
1041
3.5
1070
   343
1005
3FA
1070
   344
1005
3FA
1002
}
0
DIMENSION
5
40E
100
AcDbEntity
8
SK2
62
256
6
ByLayer
370
13
48
1
60
0
100
AcDbDimension
2
DimnDraft3D2
10
10
20
35.10005
30
0
11
-39.274733
21
35.10005
31
0
70
32
71
5
72
1
41
1
210
0
220
0
230
1
3
Standard
100
AcDbAlignedDimension
13
-84
23
14.5
33
0
14
10
24
-38.6
34
0
50
0
100
AcDbRotatedDimension
1001
ACAD
1000
DSTYLE
1002
{
1070
   279
1070
     0
1070
   172
1070
     1
1070
   173
1070
     1
1070
   340
1005
3E7
1070
   271
1070
     1
1070
    77
1070
     1
1070
    73
1070
     0
1070
   171
1070
     3
1070
   274
1070
     4
1070
   177
1070
     2
1070
   176
1070
     2
1070
   178
1070
     7
1070
    78
1070
     8
1070
    41
1041
3.175
1070
   147
1041
1.75
1070
    42
1041
2.0
1070
    44
1041
2.0
1070
   140
1041
3.5
1070
   343
1005
3FA
1070
   344
1005
3FA
1002
}
0
DIMENSION
5
41C
100
AcDbEntity
8
2
62
256
6
ByLayer
370
13
48
1
60
0
100
AcDbDimension
2
DimnDraft3D3
10
4
20
-58.7
30
0
11
6.217267
21
-58.7
31
0
70
32
71
5
72
1
41
1
210
0
220
0
230
1
3
Standard
100
AcDbAlignedDimension
13
10
23
-42.6
33
0
14
4
24
-42.6
34
0
50
0
100
AcDbRotatedDimension
1001
ACAD
1000
DSTYLE
1002
{
1070
   279
1070
     0
1070
   172
1070
     1
1070
   173
1070
     1
1070
   340
1005
3E7
1070
   271
1070
     1
1070
    77
1070
     1
1070
    73
1070
     0
1070
   171
1070
     3
1070
   274
1070
     4
1070
   177
1070
     2
1070
   176
1070
     2
1070
   178
1070
     7
1070
    78
1070
     8
1070
    41
1041
3.175
1070
   147
1041
1.75
1070
    42
1041
2.0
1070
    44
1041
2.0
1070
   140
1041
3.5
1070
   343
1005
3FA
1070
   344
1005
3FA
1002
}
0
DIMENSION
5
42A
100
AcDbEntity
8
SK2
62
256
6
ByLayer
370
13
48
1
60
0
100
AcDbDimension
2
DimnDraft3D4
10
-81
20
-58.7
30
0
11
-83.282466
21
-58.7
31
0
70
32
71
5
72
1
41
1
210
0
220
0
230
1
3
Standard
100
AcDbAlignedDimension
13
-84
23
10.5
33
0
14
-81
24
-14.5
34
0
50
0
100
AcDbRotatedDimension
1001
ACAD
1000
DSTYLE
1002
{
1070
   279
1070
     0
1070
   172
1070
     1
1070
   173
1070
     1
1070
   340
1005
3E7
1070
    77
1070
     1
1070
    73
1070
     0
1070
   171
1070
     3
1070
   274
1070
     4
1070
   177
1070
     2
1070
   176
1070
     2
1070
   178
1070
     7
1070
    78
1070
     8
1070
    41
1041
3.175
1070
   147
1041
1.75
1070
    42
1041
2.0
1070
    44
1041
2.0
1070
   140
1041
3.5
1070
   343
1005
3FA
1070
   344
1005
3FA
1002
}
0
DIMENSION
5
438
100
AcDbEntity
8
2
62
256
6
ByLayer
370
13
48
1
60
0
100
AcDbDimension
2
DimnDraft3D5
10
35.513739
20
-40.6
30
0
11
35.513739
21
-17.719766
31
0
70
32
71
5
72
1
41
1
210
0
220
0
230
1
3
Standard
100
AcDbAlignedDimension
13
2
23
12.5
33
0
14
12
24
-40.6
34
0
50
90
100
AcDbRotatedDimension
1001
ACAD
1000
DSTYLE
1002
{
1070
    74
1070
     0
1070
   279
1070
     0
1070
   172
1070
     1
1070
   173
1070
     1
1070
   340
1005
3E7
1070
   271
1070
     1
1070
    77
1070
     1
1070
    73
1070
     0
1070
   171
1070
     3
1070
   274
1070
     4
1070
   177
1070
     2
1070
   176
1070
     2
1070
   178
1070
     7
1070
    78
1070
     8
1070
    41
1041
3.175
1070
   147
1041
1.75
1070
    42
1041
2.0
1070
    44
1041
2.0
1070
   140
1041
3.5
1070
   343
1005
3FA
1070
   344
1005
3FA
1002
}
0
DIMENSION
5
446
100
AcDbEntity
8
2
62
256
6
ByLayer
370
13
48
1
60
0
100
AcDbDimension
2
DimnDraft3D6
10
28.513739
20
-14.6
30
0
11
28.513739
21
-29.690466
31
0
70
32
71
5
72
1
41
1
210
0
220
0
230
1
3
Standard
100
AcDbAlignedDimension
13
12
23
-40.6
33
0
14
6
24
-14.6
34
0
50
90
100
AcDbRotatedDimension
1001
ACAD
1000
DSTYLE
1002
{
1070
    74
1070
     0
1070
   279
1070
     0
1070
   172
1070
     1
1070
   173
1070
     1
1070
   340
1005
3E7
1070
   271
1070
     1
1070
    77
1070
     1
1070
    73
1070
     0
1070
   171
1070
     3
1070
   274
1070
     4
1070
   177
1070
     2
1070
   176
1070
     2
1070
   178
1070
     7
1070
    78
1070
     8
1070
    41
1041
3.175
1070
   147
1041
1.75
1070
    42
1041
2.0
1070
    44
1041
2.0
1070
   140
1041
3.5
1070
   343
1005
3FA
1070
   344
1005
3FA
1002
}
0
ENDSEC
0
SECTION
2
OBJECTS
0
DICTIONARY
5
4b0
330
0
100
AcDbDictionary
280
0
281
1
3
ACAD_GROUP
350
4b1
3
ACAD_MLINESTYLE
350
4b2
0
DICTIONARY
5
4b1
330
0
100
AcDbDictionary
280
0
281
1
0
DICTIONARY
5
4b2
330
0
100
AcDbDictionary
280
0
281
1
3
Standard
350
18
0
MLINESTYLE
5
18
330
4b2
100
AcDbMlineStyle
2
Standard
70
0
3

62
256
51
90
52
90
71
2
49
-0.5
62
256
6
ByLayer
49
0.5
62
256
6
ByLayer
0
RASTERVARIABLES
5
49f
330

100
AcDbRasterVariables
90
0
70
1
71
1
72
1
0
ENDSEC
0
EOF
