0
SECTION
2
HEADER
9
$ACADVER
1
AC1015
9
$DWGCODEPAGE
3
ANSI_1252
9
$HANDSEED
5
4bc
9
$ANGBASE
50
0
9
$ANGDIR
70
0
9
$ATTMODE
70
1
9
$AUNITS
70
0
9
$AUPREC
70
0
9
$CECOLOR
62
256
9
$CELTSCALE
40
1
9
$CELTYPE
6
ByLayer
9
$CELWEIGHT
370
18
9
$CLAYER
8
0
9
$CMLJUST
70
0
9
$CMLSCALE
40
1
9
$CMLSTYLE
2
Standard
9
$DIMSTYLE
2
Standard
9
$TEXTSIZE
40
0.2
9
$TEXTSTYLE
7
Standard
9
$LUNITS
70
2
9
$LUPREC
70
4
9
$EXTNAMES
290
1
9
$INSUNITS
70
4
9
$LTSCALE
40
1
9
$LWDISPLAY
290
1
9
$PDMODE
70
0
9
$PDSIZE
40
0
9
$PLINEGEN
70
0
0
ENDSEC
0
SECTION
2
CLASSES
0
CLASS
1
RASTERVARIABLES
2
AcDbRasterVariables
3
ISM
90
0
280
0
281
0
0
ENDSEC
0
SECTION
2
TABLES
0
TABLE
2
VPORT
5
4b2
100
AcDbSymbolTable
0
VPORT
5
1
100
AcDbSymbolTableRecord
100
AcDbViewportTableRecord
2
*Active
70
0
10
0
20
0
11
1
21
1
12
-1
22
1
13
0
23
0
14
0.5
24
0.5
15
10
25
10
16
0
26
0
36
1
17
0
27
0
37
0
0
ENDTAB
0
TABLE
2
LTYPE
5
4b3
100
AcDbSymbolTable
0
LTYPE
5
14
100
AcDbSymbolTableRecord
100
AcDbLinetypeTableRecord
70
0
2
ByBlock
3

72
65
73
0
40
0
0
LTYPE
5
15
100
AcDbSymbolTableRecord
100
AcDbLinetypeTableRecord
70
0
2
ByLayer
3

72
65
73
0
40
0
0
LTYPE
5
16
100
AcDbSymbolTableRecord
100
AcDbLinetypeTableRecord
70
0
2
CONTINUOUS
3
Solid line
72
65
73
0
40
0
0
LTYPE
5
6A
100
AcDbSymbolTableRecord
100
AcDbLinetypeTableRecord
70
0
2
CENTER
3
____ _ ____ _ ____ _ ____
72
65
73
4
40
47.5
49
22
74
0
49
-8.5
74
0
49
8.5
74
0
49
-8.5
74
0
0
LTYPE
5
6B
100
AcDbSymbolTableRecord
100
AcDbLinetypeTableRecord
70
0
2
DASHED
3
__ __ __ __ __ __ __ __ __
72
65
73
2
40
25.72
49
12.86
74
0
49
-12.86
74
0
0
ENDTAB
0
TABLE
2
LAYER
5
4b4
100
AcDbSymbolTable
0
LAYER
5
10
100
AcDbSymbolTableRecord
100
AcDbLayerTableRecord
2
0
70
0
62
7
6
CONTINUOUS
290
1
370
-3
390
0
0
LAYER
5
6D
100
AcDbSymbolTableRecord
100
AcDbLayerTableRecord
2
80
70
0
62
-6
6
CONTINUOUS
290
1
370
-3
390
0
0
LAYER
5
6F
100
AcDbSymbolTableRecord
100
AcDbLayerTableRecord
2
81
70
0
62
-3
6
CONTINUOUS
290
1
370
-3
390
0
0
LAYER
5
71
100
AcDbSymbolTableRecord
100
AcDbLayerTableRecord
2
1
70
0
62
4
6
CONTINUOUS
290
1
370
-3
390
0
0
LAYER
5
3EC
100
AcDbSymbolTableRecord
100
AcDbLayerTableRecord
2
2
70
0
62
7
6
CONTINUOUS
290
1
370
-3
390
0
0
LAYER
5
49f
100
AcDbSymbolTableRecord
100
AcDbLayerTableRecord
2
SK1
70
0
62
4
6
CONTINUOUS
290
1
370
-3
390
0
0
LAYER
5
4a0
100
AcDbSymbolTableRecord
100
AcDbLayerTableRecord
2
SK2
70
0
62
7
6
CONTINUOUS
290
1
370
-3
390
0
0
LAYER
5
4a1
100
AcDbSymbolTableRecord
100
AcDbLayerTableRecord
2
SK6
70
0
62
5
6
CONTINUOUS
290
1
370
-3
390
0
0
ENDTAB
0
TABLE
2
STYLE
5
4b5
100
AcDbSymbolTable
0
STYLE
5
11
100
AcDbSymbolTableRecord
100
AcDbTextStyleTableRecord
2
Standard
3
txt
70
0
71
0
40
0
41
1
42
0
50
0
0
STYLE
5
3E6
100
AcDbSymbolTableRecord
100
AcDbTextStyleTableRecord
2
iso_b_vert
3
simplex.shx
70
0
71
0
40
0
41
1
42
0
50
0
0
STYLE
5
3E7
100
AcDbSymbolTableRecord
100
AcDbTextStyleTableRecord
2
DWGDirectTextStyle
3
simplex
70
0
71
0
40
0
41
1
42
0
50
0
0
ENDTAB
0
TABLE
2
DIMSTYLE
5
4b6
100
AcDbSymbolTable
100
AcDbDimStyleTable
0
DIMSTYLE
105
27
100
AcDbSymbolTableRecord
100
AcDbDimStyleTableRecord
2
Standard
70
0
3
<>
41
0.18
42
0.0625
44
0.18
140
0.18
147
0.09
73
0
74
0
77
1
271
2
275
0
278
52
280
0
340
11
0
ENDTAB
0
TABLE
2
VIEW
5
4b7
100
AcDbSymbolTable
0
ENDTAB
0
TABLE
2
UCS
5
4b8
100
AcDbSymbolTable
0
ENDTAB
0
TABLE
2
APPID
5
4b9
100
AcDbSymbolTable
0
APPID
5
12
100
AcDbSymbolTableRecord
100
AcDbRegAppTableRecord
2
ACAD
70
0
0
ENDTAB
0
TABLE
2
BLOCK_RECORD
5
4ba
100
AcDbSymbolTable
0
BLOCK_RECORD
5
1F
100
AcDbSymbolTableRecord
100
AcDbBlockTableRecord
2
*Model_Space
340
0
70
0
0
BLOCK_RECORD
5
1B
100
AcDbSymbolTableRecord
100
AcDbBlockTableRecord
2
*Paper_Space
340
0
70
0
0
BLOCK_RECORD
5
23
100
AcDbSymbolTableRecord
100
AcDbBlockTableRecord
2
*Paper_Space0
340
0
70
0
0
BLOCK_RECORD
5
3EA
100
AcDbSymbolTableRecord
100
AcDbBlockTableRecord
2
DimnDraft3D1
340
0
70
0
0
BLOCK_RECORD
5
3F9
100
AcDbSymbolTableRecord
100
AcDbBlockTableRecord
2
_CLOSED
340
0
70
0
0
BLOCK_RECORD
5
400
100
AcDbSymbolTableRecord
100
AcDbBlockTableRecord
2
DimnDraft3D2
340
0
70
0
0
BLOCK_RECORD
5
40E
100
AcDbSymbolTableRecord
100
AcDbBlockTableRecord
2
DimnDraft3D3
340
0
70
0
0
BLOCK_RECORD
5
41C
100
AcDbSymbolTableRecord
100
AcDbBlockTableRecord
2
DimnDraft3D4
340
0
70
0
0
BLOCK_RECORD
5
42A
100
AcDbSymbolTableRecord
100
AcDbBlockTableRecord
2
DimnDraft3D5
340
0
70
0
0
BLOCK_RECORD
5
438
100
AcDbSymbolTableRecord
100
AcDbBlockTableRecord
2
DimnDraft3D6
340
0
70
0
0
ENDTAB
0
ENDSEC
0
SECTION
2
BLOCKS
0
BLOCK
5
20
100
AcDbEntity
8
0
100
AcDbBlockBegin
2
*Model_Space
70
0
10
0
20
0
30
0
3
*Model_Space
0
ENDBLK
5
21
100
AcDbEntity
8
0
100
AcDbBlockEnd
0
BLOCK
5
1C
100
AcDbEntity
8
0
100
AcDbBlockBegin
2
*Paper_Space
70
0
10
0
20
0
30
0
3
*Paper_Space
0
ENDBLK
5
1D
100
AcDbEntity
8
0
100
AcDbBlockEnd
0
BLOCK
5
24
100
AcDbEntity
8
0
100
AcDbBlockBegin
2
*Paper_Space0
70
0
10
0
20
0
30
0
3
*Paper_Space0
0
ENDBLK
5
25
100
AcDbEntity
8
0
100
AcDbBlockEnd
0
BLOCK
5
3F6
100
AcDbEntity
8
0
100
AcDbBlockBegin
2
DimnDraft3D1
70
0
10
0
20
0
30
0
3
DimnDraft3D1
0
MTEXT
5
3EB
100
AcDbEntity
8
2
62
256
6
ByLayer
370
18
48
1
60
0
100
AcDbMText
10
65.823666
20
-2.982199
30
0
210
0
220
0
230
1
1
\W0.7346;25.5
40
3.5
41
0
44
1.084337
50
90
71
7
72
5
7
iso_b_vert
0
LINE
5
3ED
100
AcDbEntity
8
2
62
256
6
ByLayer
370
13
48
1
60
0
100
AcDbLine
10
11.5988
20
-12.5
30
0
11
68.6988
21
-12.5
31
0
39
0
210
0
220
0
230
1
0
LINE
5
3EE
100
AcDbEntity
8
2
62
256
6
ByLayer
370
13
48
1
60
0
100
AcDbLine
10
43.5988
20
13
30
0
11
68.6988
21
13
31
0
39
0
210
0
220
0
230
1
0
LINE
5
3EF
100
AcDbEntity
8
2
62
256
6
ByLayer
370
13
48
1
60
0
100
AcDbLine
10
66.6988
20
-12.5
30
0
11
66.6988
21
13
31
0
39
0
210
0
220
0
230
1
0
LINE
5
3F0
100
AcDbEntity
8
2
62
256
6
ByLayer
370
13
48
1
60
0
100
AcDbLine
10
66.6988
20
-12.5
30
0
11
66.280803
21
-9.325002
31
0
39
0
210
0
220
0
230
1
0
LINE
5
3F1
100
AcDbEntity
8
2
62
256
6
ByLayer
370
13
48
1
60
0
100
AcDbLine
10
66.6988
20
-12.5
30
0
11
67.116797
21
-9.324998
31
0
39
0
210
0
220
0
230
1
0
LINE
5
3F2
100
AcDbEntity
8
2
62
256
6
ByLayer
370
13
48
1
60
0
100
AcDbLine
10
66.280803
20
-9.325002
30
0
11
67.116797
21
-9.324998
31
0
39
0
210
0
220
0
230
1
0
LINE
5
3F3
100
AcDbEntity
8
2
62
256
6
ByLayer
370
13
48
1
60
0
100
AcDbLine
10
66.6988
20
13
30
0
11
67.116797
21
9.825002
31
0
39
0
210
0
220
0
230
1
0
LINE
5
3F4
100
AcDbEntity
8
2
62
256
6
ByLayer
370
13
48
1
60
0
100
AcDbLine
10
66.6988
20
13
30
0
11
66.280803
21
9.824998
31
0
39
0
210
0
220
0
230
1
0
LINE
5
3F5
100
AcDbEntity
8
2
62
256
6
ByLayer
370
13
48
1
60
0
100
AcDbLine
10
67.116797
20
9.825002
30
0
11
66.280803
21
9.824998
31
0
39
0
210
0
220
0
230
1
0
ENDBLK
5
3F7
100
AcDbEntity
8
0
100
AcDbBlockEnd
0
BLOCK
5
3FA
100
AcDbEntity
8
0
100
AcDbBlockBegin
2
_CLOSED
70
0
10
0
20
0
30
0
3
_CLOSED
0
LINE
5
3FC
100
AcDbEntity
8
0
62
256
6
ByLayer
370
-2
48
1
60
0
100
AcDbLine
10
-1
20
0.166667
30
0
11
0
21
0
31
0
39
0
210
0
220
0
230
1
0
LINE
5
3FD
100
AcDbEntity
8
0
62
256
6
ByLayer
370
-2
48
1
60
0
100
AcDbLine
10
0
20
0
30
0
11
-1
21
-0.166667
31
0
39
0
210
0
220
0
230
1
0
LINE
5
3FE
100
AcDbEntity
8
0
62
256
6
ByLayer
370
-2
48
1
60
0
100
AcDbLine
10
-1
20
0.166667
30
0
11
-1
21
-0.166667
31
0
39
0
210
0
220
0
230
1
0
LINE
5
3FF
100
AcDbEntity
8
0
62
256
6
ByLayer
370
-2
48
1
60
0
100
AcDbLine
10
0
20
0
30
0
11
-1
21
0
31
0
39
0
210
0
220
0
230
1
0
ENDBLK
5
3FB
100
AcDbEntity
8
0
100
AcDbBlockEnd
0
BLOCK
5
40B
100
AcDbEntity
8
0
100
AcDbBlockBegin
2
DimnDraft3D2
70
0
10
0
20
0
30
0
3
DimnDraft3D2
0
MTEXT
5
401
100
AcDbEntity
8
SK2
62
256
6
ByLayer
370
18
48
1
60
0
100
AcDbMText
10
-82.407466
20
-24.724916
30
0
210
0
220
0
230
1
1
\W0.5404;3
40
3.5
41
0
44
1.084337
50
0
71
7
72
5
7
iso_b_vert
0
LINE
5
402
100
AcDbEntity
8
SK2
62
256
6
ByLayer
370
13
48
1
60
0
100
AcDbLine
10
-84
20
-14.5
30
0
11
-84
21
-27.60005
31
0
39
0
210
0
220
0
230
1
0
LINE
5
403
100
AcDbEntity
8
SK2
62
256
6
ByLayer
370
13
48
1
60
0
100
AcDbLine
10
-81
20
-14.5
30
0
11
-81
21
-27.60005
31
0
39
0
210
0
220
0
230
1
0
LINE
5
404
100
AcDbEntity
8
SK2
62
256
6
ByLayer
370
13
48
1
60
0
100
AcDbLine
10
-92.75
20
-25.60005
30
0
11
-72.25
21
-25.60005
31
0
39
0
210
0
220
0
230
1
0
LINE
5
405
100
AcDbEntity
8
SK2
62
256
6
ByLayer
370
13
48
1
60
0
100
AcDbLine
10
-84
20
-25.60005
30
0
11
-87.174998
21
-26.018047
31
0
39
0
210
0
220
0
230
1
0
LINE
5
406
100
AcDbEntity
8
SK2
62
256
6
ByLayer
370
13
48
1
60
0
100
AcDbLine
10
-84
20
-25.60005
30
0
11
-87.175002
21
-25.182053
31
0
39
0
210
0
220
0
230
1
0
LINE
5
407
100
AcDbEntity
8
SK2
62
256
6
ByLayer
370
13
48
1
60
0
100
AcDbLine
10
-87.174998
20
-26.018047
30
0
11
-87.175002
21
-25.182053
31
0
39
0
210
0
220
0
230
1
0
LINE
5
408
100
AcDbEntity
8
SK2
62
256
6
ByLayer
370
13
48
1
60
0
100
AcDbLine
10
-81
20
-25.60005
30
0
11
-77.825002
21
-25.182053
31
0
39
0
210
0
220
0
230
1
0
LINE
5
409
100
AcDbEntity
8
SK2
62
256
6
ByLayer
370
13
48
1
60
0
100
AcDbLine
10
-81
20
-25.60005
30
0
11
-77.824998
21
-26.018047
31
0
39
0
210
0
220
0
230
1
0
LINE
5
40A
100
AcDbEntity
8
SK2
62
256
6
ByLayer
370
13
48
1
60
0
100
AcDbLine
10
-77.825002
20
-25.182053
30
0
11
-77.824998
21
-26.018047
31
0
39
0
210
0
220
0
230
1
0
ENDBLK
5
40C
100
AcDbEntity
8
0
100
AcDbBlockEnd
0
BLOCK
5
419
100
AcDbEntity
8
0
100
AcDbBlockBegin
2
DimnDraft3D3
70
0
10
0
20
0
30
0
3
DimnDraft3D3
0
MTEXT
5
40F
100
AcDbEntity
8
SK2
62
256
6
ByLayer
370
18
48
1
60
0
100
AcDbMText
10
-25.303099
20
38.773903
30
0
210
0
220
0
230
1
1
\W0.6864;125.6
40
3.5
41
0
44
1.084337
50
0
71
7
72
5
7
iso_b_vert
0
LINE
5
410
100
AcDbEntity
8
SK2
62
256
6
ByLayer
370
13
48
1
60
0
100
AcDbLine
10
-84
20
-10.5
30
0
11
-84
21
39.89877
31
0
39
0
210
0
220
0
230
1
0
LINE
5
411
100
AcDbEntity
8
SK2
62
256
6
ByLayer
370
13
48
1
60
0
100
AcDbLine
10
41.5988
20
15
30
0
11
41.5988
21
39.89877
31
0
39
0
210
0
220
0
230
1
0
LINE
5
412
100
AcDbEntity
8
SK2
62
256
6
ByLayer
370
13
48
1
60
0
100
AcDbLine
10
-84
20
37.89877
30
0
11
41.5988
21
37.89877
31
0
39
0
210
0
220
0
230
1
0
LINE
5
413
100
AcDbEntity
8
SK2
62
256
6
ByLayer
370
13
48
1
60
0
100
AcDbLine
10
-84
20
37.89877
30
0
11
-80.825002
21
38.316766
31
0
39
0
210
0
220
0
230
1
0
LINE
5
414
100
AcDbEntity
8
SK2
62
256
6
ByLayer
370
13
48
1
60
0
100
AcDbLine
10
-84
20
37.89877
30
0
11
-80.824998
21
37.480773
31
0
39
0
210
0
220
0
230
1
0
LINE
5
415
100
AcDbEntity
8
SK2
62
256
6
ByLayer
370
13
48
1
60
0
100
AcDbLine
10
-80.825002
20
38.316766
30
0
11
-80.824998
21
37.480773
31
0
39
0
210
0
220
0
230
1
0
LINE
5
416
100
AcDbEntity
8
SK2
62
256
6
ByLayer
370
13
48
1
60
0
100
AcDbLine
10
41.5988
20
37.89877
30
0
11
38.423802
21
37.480773
31
0
39
0
210
0
220
0
230
1
0
LINE
5
417
100
AcDbEntity
8
SK2
62
256
6
ByLayer
370
13
48
1
60
0
100
AcDbLine
10
41.5988
20
37.89877
30
0
11
38.423798
21
38.316766
31
0
39
0
210
0
220
0
230
1
0
LINE
5
418
100
AcDbEntity
8
SK2
62
256
6
ByLayer
370
13
48
1
60
0
100
AcDbLine
10
38.423802
20
37.480773
30
0
11
38.423798
21
38.316766
31
0
39
0
210
0
220
0
230
1
0
ENDBLK
5
41A
100
AcDbEntity
8
0
100
AcDbBlockEnd
0
BLOCK
5
427
100
AcDbEntity
8
0
100
AcDbBlockBegin
2
DimnDraft3D4
70
0
10
0
20
0
30
0
3
DimnDraft3D4
0
MTEXT
5
41D
100
AcDbEntity
8
2
62
256
6
ByLayer
370
18
48
1
60
0
100
AcDbMText
10
17.820367
20
32.773903
30
0
210
0
220
0
230
1
1
\W0.6856;41.6
40
3.5
41
0
44
1.084337
50
0
71
7
72
5
7
iso_b_vert
0
LINE
5
41E
100
AcDbEntity
8
2
62
256
6
ByLayer
370
13
48
1
60
0
100
AcDbLine
10
0
20
14.5
30
0
11
0
21
33.89877
31
0
39
0
210
0
220
0
230
1
0
LINE
5
41F
100
AcDbEntity
8
2
62
256
6
ByLayer
370
13
48
1
60
0
100
AcDbLine
10
41.5988
20
15
30
0
11
41.5988
21
33.89877
31
0
39
0
210
0
220
0
230
1
0
LINE
5
420
100
AcDbEntity
8
2
62
256
6
ByLayer
370
13
48
1
60
0
100
AcDbLine
10
0
20
31.89877
30
0
11
41.5988
21
31.89877
31
0
39
0
210
0
220
0
230
1
0
LINE
5
421
100
AcDbEntity
8
2
62
256
6
ByLayer
370
13
48
1
60
0
100
AcDbLine
10
0
20
31.89877
30
0
11
3.174998
21
32.316766
31
0
39
0
210
0
220
0
230
1
0
LINE
5
422
100
AcDbEntity
8
2
62
256
6
ByLayer
370
13
48
1
60
0
100
AcDbLine
10
0
20
31.89877
30
0
11
3.175002
21
31.480773
31
0
39
0
210
0
220
0
230
1
0
LINE
5
423
100
AcDbEntity
8
2
62
256
6
ByLayer
370
13
48
1
60
0
100
AcDbLine
10
3.174998
20
32.316766
30
0
11
3.175002
21
31.480773
31
0
39
0
210
0
220
0
230
1
0
LINE
5
424
100
AcDbEntity
8
2
62
256
6
ByLayer
370
13
48
1
60
0
100
AcDbLine
10
41.5988
20
31.89877
30
0
11
38.423802
21
31.480773
31
0
39
0
210
0
220
0
230
1
0
LINE
5
425
100
AcDbEntity
8
2
62
256
6
ByLayer
370
13
48
1
60
0
100
AcDbLine
10
41.5988
20
31.89877
30
0
11
38.423798
21
32.316766
31
0
39
0
210
0
220
0
230
1
0
LINE
5
426
100
AcDbEntity
8
2
62
256
6
ByLayer
370
13
48
1
60
0
100
AcDbLine
10
38.423802
20
31.480773
30
0
11
38.423798
21
32.316766
31
0
39
0
210
0
220
0
230
1
0
ENDBLK
5
428
100
AcDbEntity
8
0
100
AcDbBlockEnd
0
BLOCK
5
435
100
AcDbEntity
8
0
100
AcDbBlockBegin
2
DimnDraft3D5
70
0
10
0
20
0
30
0
3
DimnDraft3D5
0
MTEXT
5
42B
100
AcDbEntity
8
2
62
256
6
ByLayer
370
18
48
1
60
0
100
AcDbMText
10
24.383334
20
-24.724916
30
0
210
0
220
0
230
1
1
\W0.6740;32
40
3.5
41
0
44
1.084337
50
0
71
7
72
5
7
iso_b_vert
0
LINE
5
42C
100
AcDbEntity
8
2
62
256
6
ByLayer
370
13
48
1
60
0
100
AcDbLine
10
41.5988
20
11
30
0
11
41.5988
21
-27.60005
31
0
39
0
210
0
220
0
230
1
0
LINE
5
42D
100
AcDbEntity
8
2
62
256
6
ByLayer
370
13
48
1
60
0
100
AcDbLine
10
9.5988
20
-14.5
30
0
11
9.5988
21
-27.60005
31
0
39
0
210
0
220
0
230
1
0
LINE
5
42E
100
AcDbEntity
8
2
62
256
6
ByLayer
370
13
48
1
60
0
100
AcDbLine
10
41.5988
20
-25.60005
30
0
11
9.5988
21
-25.60005
31
0
39
0
210
0
220
0
230
1
0
LINE
5
42F
100
AcDbEntity
8
2
62
256
6
ByLayer
370
13
48
1
60
0
100
AcDbLine
10
41.5988
20
-25.60005
30
0
11
38.423802
21
-26.018047
31
0
39
0
210
0
220
0
230
1
0
LINE
5
430
100
AcDbEntity
8
2
62
256
6
ByLayer
370
13
48
1
60
0
100
AcDbLine
10
41.5988
20
-25.60005
30
0
11
38.423798
21
-25.182053
31
0
39
0
210
0
220
0
230
1
0
LINE
5
431
100
AcDbEntity
8
2
62
256
6
ByLayer
370
13
48
1
60
0
100
AcDbLine
10
38.423802
20
-26.018047
30
0
11
38.423798
21
-25.182053
31
0
39
0
210
0
220
0
230
1
0
LINE
5
432
100
AcDbEntity
8
2
62
256
6
ByLayer
370
13
48
1
60
0
100
AcDbLine
10
9.5988
20
-25.60005
30
0
11
12.773798
21
-25.182053
31
0
39
0
210
0
220
0
230
1
0
LINE
5
433
100
AcDbEntity
8
2
62
256
6
ByLayer
370
13
48
1
60
0
100
AcDbLine
10
9.5988
20
-25.60005
30
0
11
12.773802
21
-26.018047
31
0
39
0
210
0
220
0
230
1
0
LINE
5
434
100
AcDbEntity
8
2
62
256
6
ByLayer
370
13
48
1
60
0
100
AcDbLine
10
12.773798
20
-25.182053
30
0
11
12.773802
21
-26.018047
31
0
39
0
210
0
220
0
230
1
0
ENDBLK
5
436
100
AcDbEntity
8
0
100
AcDbBlockEnd
0
BLOCK
5
443
100
AcDbEntity
8
0
100
AcDbBlockBegin
2
DimnDraft3D6
70
0
10
0
20
0
30
0
3
DimnDraft3D6
0
MTEXT
5
439
100
AcDbEntity
8
2
62
256
6
ByLayer
370
18
48
1
60
0
100
AcDbMText
10
58.823666
20
10.092267
30
0
210
0
220
0
230
1
1
\W0.5404;6
40
3.5
41
0
44
1.084337
50
90
71
7
72
5
7
iso_b_vert
0
LINE
5
43A
100
AcDbEntity
8
2
62
256
6
ByLayer
370
13
48
1
60
0
100
AcDbLine
10
43.5988
20
13
30
0
11
61.6988
21
13
31
0
39
0
210
0
220
0
230
1
0
LINE
5
43B
100
AcDbEntity
8
2
62
256
6
ByLayer
370
13
48
1
60
0
100
AcDbLine
10
43.5988
20
7
30
0
11
61.6988
21
7
31
0
39
0
210
0
220
0
230
1
0
LINE
5
43C
100
AcDbEntity
8
2
62
256
6
ByLayer
370
13
48
1
60
0
100
AcDbLine
10
59.6988
20
21.75
30
0
11
59.6988
21
-1.75
31
0
39
0
210
0
220
0
230
1
0
LINE
5
43D
100
AcDbEntity
8
2
62
256
6
ByLayer
370
13
48
1
60
0
100
AcDbLine
10
59.6988
20
13
30
0
11
59.280803
21
16.174998
31
0
39
0
210
0
220
0
230
1
0
LINE
5
43E
100
AcDbEntity
8
2
62
256
6
ByLayer
370
13
48
1
60
0
100
AcDbLine
10
59.6988
20
13
30
0
11
60.116797
21
16.175002
31
0
39
0
210
0
220
0
230
1
0
LINE
5
43F
100
AcDbEntity
8
2
62
256
6
ByLayer
370
13
48
1
60
0
100
AcDbLine
10
59.280803
20
16.174998
30
0
11
60.116797
21
16.175002
31
0
39
0
210
0
220
0
230
1
0
LINE
5
440
100
AcDbEntity
8
2
62
256
6
ByLayer
370
13
48
1
60
0
100
AcDbLine
10
59.6988
20
7
30
0
11
60.116797
21
3.825002
31
0
39
0
210
0
220
0
230
1
0
LINE
5
441
100
AcDbEntity
8
2
62
256
6
ByLayer
370
13
48
1
60
0
100
AcDbLine
10
59.6988
20
7
30
0
11
59.280803
21
3.824998
31
0
39
0
210
0
220
0
230
1
0
LINE
5
442
100
AcDbEntity
8
2
62
256
6
ByLayer
370
13
48
1
60
0
100
AcDbLine
10
60.116797
20
3.825002
30
0
11
59.280803
21
3.824998
31
0
39
0
210
0
220
0
230
1
0
ENDBLK
5
444
100
AcDbEntity
8
0
100
AcDbBlockEnd
0
ENDSEC
0
SECTION
2
ENTITIES
0
ARC
5
F7
100
AcDbEntity
8
1
62
256
6
ByLayer
370
18
48
1
60
0
100
AcDbCircle
39
0
10
-9.5988
20
5.75
30
0
40
1.6
210
0
220
0
230
-1
100
AcDbArc
50
0
51
90
0
ARC
5
F8
100
AcDbEntity
8
SK1
62
256
6
ByLayer
370
18
48
1
60
0
100
AcDbCircle
39
0
10
0.1012
20
-13.1
30
0
40
1.6
210
0
220
0
230
-1
100
AcDbArc
50
22.024313
51
45.244977
0
ARC
5
F9
100
AcDbEntity
8
SK1
62
256
6
ByLayer
370
18
48
1
60
0
100
AcDbCircle
39
0
10
1.227723
20
14.025
30
0
40
1.59999999999146
210
0
220
0
230
-1
100
AcDbArc
50
242.949863
51
270
0
ELLIPSE
5
FA
100
AcDbEntity
8
1
62
256
6
ByLayer
370
18
48
1
60
0
100
AcDbEllipse
10
86.574478
20
207.000003
30
0
11
522.705927020192
21
5.28267024169637E-13
31
0
210
0
220
0
230
-1
40
0.371911
41
1.67061621117782
42
1.70768871126002
0
ELLIPSE
5
FB
100
AcDbEntity
8
1
62
256
6
ByLayer
370
18
48
1
60
0
100
AcDbEllipse
10
271.151945
20
206.999838
30
0
11
599.596121809795
21
77.0646647258164
31
0
210
0
220
0
230
-1
40
0.297654
41
2.00930728293665
42
2.01749191707645
0
ELLIPSE
5
FC
100
AcDbEntity
8
1
62
256
6
ByLayer
370
18
48
1
60
0
100
AcDbEllipse
10
-26.895819
20
92.999999
30
0
11
239.070985827988
21
-32.2645670510129
31
0
210
0
220
0
230
-1
40
0.33187
41
1.25467034315589
42
1.26371921139358
0
ELLIPSE
5
FD
100
AcDbEntity
8
1
62
256
6
ByLayer
370
18
48
1
60
0
100
AcDbEllipse
10
35.540932
20
207.000002
30
0
11
231.676899731159
21
2.3414172302871E-13
31
0
210
0
220
0
230
-1
40
0.8391
41
1.57145273549282
42
1.61261017891865
0
ELLIPSE
5
FE
100
AcDbEntity
8
1
62
256
6
ByLayer
370
18
48
1
60
0
100
AcDbEllipse
10
2.690424
20
12.354957
30
0
11
8.04071436169432E-17
21
0.499999999999919
31
0
210
0
220
0
230
-1
40
0.267949
41
-0.0511551966899702
42
1.5707963267949
0
ELLIPSE
5
FF
100
AcDbEntity
8
1
62
256
6
ByLayer
370
18
48
1
60
0
100
AcDbEllipse
10
0.020096
20
207
30
0
11
3.12622974518254E-14
21
194.400000084276
31
0
210
0
220
0
230
-1
40
0.267949
41
3.09043745691097
42
3.13587817018604
0
ELLIPSE
5
100
100
AcDbEntity
8
1
62
256
6
ByLayer
370
18
48
1
60
0
100
AcDbEllipse
10
75.823718
20
93.000105
30
0
11
60.7848860992488
21
79.5361222091519
31
0
210
0
220
0
230
-1
40
0.522821
41
2.75696949985365
42
2.76146374029943
0
ELLIPSE
5
101
100
AcDbEntity
8
1
62
256
6
ByLayer
370
18
48
1
60
0
100
AcDbEllipse
10
32.224309
20
10.003653
30
0
11
1.13167576558314
21
0.00362039273132035
31
0
210
0
220
0
230
-1
40
0.88364
41
0
42
6.28318530717959
0
ELLIPSE
5
102
100
AcDbEntity
8
1
62
256
6
ByLayer
370
18
48
1
60
0
100
AcDbEllipse
10
35.540932
20
93
30
0
11
102.07369515712
21
1.03159662822357E-13
31
0
210
0
220
0
230
-1
40
0.8391
41
1.57529041699441
42
1.66581659264359
0
ELLIPSE
5
103
100
AcDbEntity
8
1
62
256
6
ByLayer
370
18
48
1
60
0
100
AcDbEllipse
10
44.158089
20
208.519429
30
0
11
9.87183016468058
21
195.886816042737
31
0
210
0
220
0
230
-1
40
0.362106
41
-3.12091325952658
42
-3.11962097007293
0
ELLIPSE
5
104
100
AcDbEntity
8
1
62
256
6
ByLayer
370
13
48
1
60
0
100
AcDbEllipse
10
40.673156
20
12.230554
30
0
11
0.0899306066058329
21
-0.217111690140137
31
0
210
0
220
0
230
1
40
0.051754
41
-2.21635302763531
42
-0.810603691073712
0
ELLIPSE
5
105
100
AcDbEntity
8
1
62
256
6
ByLayer
370
13
48
1
60
0
100
AcDbEllipse
10
40.55995
20
8.35
30
0
11
7.55834633536984E-17
21
0.266820171216205
31
0
210
0
220
0
230
1
40
0.990268
41
-2.29260836668684
42
-2.07773225858863
0
ELLIPSE
5
106
100
AcDbEntity
8
1
62
256
6
ByLayer
370
13
48
1
60
0
100
AcDbEllipse
10
40.340792
20
12.444973
30
0
11
0.1043319672617
21
-0.281273604533564
31
0
210
0
220
0
230
1
40
0.043042
41
0.918316256071582
42
1.70365962724734
0
ELLIPSE
5
107
100
AcDbEntity
8
1
62
256
6
ByLayer
370
13
48
1
60
0
100
AcDbEllipse
10
35.668634
20
6.167226
30
0
11
0.0227431396072256
21
-1.76658284427898
31
0
210
0
220
0
230
-1
40
0.076057
41
-3.12634335862251
42
-3.12412085636045
0
ELLIPSE
5
108
100
AcDbEntity
8
1
62
256
6
ByLayer
370
18
48
1
60
0
100
AcDbEllipse
10
39.995999
20
7.755626
30
0
11
0.293666929071331
21
-0.744150344197874
31
0
210
0
220
0
230
1
40
0.197953
41
2.09557997584374
42
2.28333392400132
0
ELLIPSE
5
109
100
AcDbEntity
8
1
62
256
6
ByLayer
370
13
48
1
60
0
100
AcDbEllipse
10
40.560835
20
7.815971
30
0
11
-0.0899306066058339
21
-0.217111690140137
31
0
210
0
220
0
230
1
40
0.03099
41
-2.24247707119268
42
-0.923259575803538
0
ELLIPSE
5
10A
100
AcDbEntity
8
1
62
256
6
ByLayer
370
13
48
1
60
0
100
AcDbEllipse
10
37.741162
20
2.138559
30
0
11
0.356161188568837
21
5.94423851515876
31
0
210
0
220
0
230
-1
40
0.671717
41
-0.0384543680963968
42
-0.0235323795010197
0
ELLIPSE
5
10B
100
AcDbEntity
8
1
62
256
6
ByLayer
370
13
48
1
60
0
100
AcDbEllipse
10
39.806799
20
8.314302
30
0
11
0.00188289982491174
21
0.249992909275942
31
0
210
0
220
0
230
1
40
0.036814
41
-2.62083787880427
42
-2.18590610733064
0
ELLIPSE
5
10C
100
AcDbEntity
8
1
62
256
6
ByLayer
370
18
48
1
60
0
100
AcDbEllipse
10
39.970208
20
11.688992
30
0
11
-0.00670086137975934
21
0.249910180778553
31
0
210
0
220
0
230
1
40
0.04561
41
-1.01445061995365
42
-0.548117344248185
0
ELLIPSE
5
10D
100
AcDbEntity
8
1
62
256
6
ByLayer
370
13
48
1
60
0
100
AcDbEllipse
10
40.157855
20
12.432741
30
0
11
-0.0203602202595511
21
-0.29930830498164
31
0
210
0
220
0
230
1
40
0.015643
41
-1.70954917927871
42
-0.896061835504817
0
ELLIPSE
5
10E
100
AcDbEntity
8
1
62
256
6
ByLayer
370
13
48
1
60
0
100
AcDbEllipse
10
41.136435
20
12.718773
30
0
11
0.038308319075482
21
-0.297544068483327
31
0
210
0
220
0
230
1
40
0.011848
41
1.01523157338172
42
1.70992229257241
0
ELLIPSE
5
10F
100
AcDbEntity
8
1
62
256
6
ByLayer
370
13
48
1
60
0
100
AcDbEllipse
10
40.157855
20
7.567259
30
0
11
-0.0203602202595508
21
0.29930830498164
31
0
210
0
220
0
230
1
40
0.015643
41
0.896061835504799
42
1.70954917927866
0
ELLIPSE
5
110
100
AcDbEntity
8
1
62
256
6
ByLayer
370
13
48
1
60
0
100
AcDbEllipse
10
37.142934
20
12.169372
30
0
11
0.417241484415274
21
0.93100401428516
31
0
210
0
220
0
230
-1
40
0.654255
41
3.1253201859376
42
-2.19508705981925
0
ELLIPSE
5
111
100
AcDbEntity
8
1
62
256
6
ByLayer
370
13
48
1
60
0
100
AcDbEllipse
10
40.51588
20
7.834592
30
0
11
-0.0899306066058339
21
-0.217111690140137
31
0
210
0
220
0
230
1
40
0.022682
41
-2.22149832604061
42
-0.920738953920731
0
ELLIPSE
5
112
100
AcDbEntity
8
1
62
256
6
ByLayer
370
13
48
1
60
0
100
AcDbEllipse
10
40.806257
20
11.915891
30
0
11
0.0096836844671094
21
-0.249812382109337
31
0
210
0
220
0
230
1
40
0.280676
41
-2.3109454114249
42
-1.21901087405108
0
ELLIPSE
5
113
100
AcDbEntity
8
1
62
256
6
ByLayer
370
13
48
1
60
0
100
AcDbEllipse
10
40.759833
20
8.086836
30
0
11
0.0199739336471676
21
0.249200806528909
31
0
210
0
220
0
230
1
40
0.228669
41
1.22946791584222
42
2.27993774755953
0
ELLIPSE
5
114
100
AcDbEntity
8
1
62
256
6
ByLayer
370
13
48
1
60
0
100
AcDbEllipse
10
39.825279
20
12.448192
30
0
11
-0.00769005562271942
21
-0.299901422211565
31
0
210
0
220
0
230
1
40
0.009727
41
-1.71008563317766
42
-0.877406756926865
0
ELLIPSE
5
115
100
AcDbEntity
8
1
62
256
6
ByLayer
370
13
48
1
60
0
100
AcDbEllipse
10
35.942494
20
12.597169
30
0
11
-0.004838448228144
21
0.0998828785064967
31
0
210
0
220
0
230
1
40
0.94066
41
1.52526110371456
42
1.617786474059
0
ELLIPSE
5
116
100
AcDbEntity
8
1
62
256
6
ByLayer
370
13
48
1
60
0
100
AcDbEllipse
10
40.139712
20
8.307377
30
0
11
0.00228673853630575
21
0.24998954143497
31
0
210
0
220
0
230
1
40
0.004846
41
2.05947557308128
42
2.5666457116482
0
ELLIPSE
5
117
100
AcDbEntity
8
1
62
256
6
ByLayer
370
13
48
1
60
0
100
AcDbEllipse
10
40.487902
20
12.502241
30
0
11
0.113371794893701
21
-0.277753192821578
31
0
210
0
220
0
230
1
40
0.047332
41
0.925425085715824
42
1.70219821254625
0
ELLIPSE
5
118
100
AcDbEntity
8
1
62
256
6
ByLayer
370
18
48
1
60
0
100
AcDbEllipse
10
37.403016
20
13.692634
30
0
11
-1.04930116410266
21
0.0568065526419026
31
0
210
0
220
0
230
1
40
0.951622
41
1.7279713577941
42
2.17138530725867
0
ELLIPSE
5
119
100
AcDbEntity
8
1
62
256
6
ByLayer
370
13
48
1
60
0
100
AcDbEllipse
10
40.128653
20
12.099746
30
0
11
-0.00499237806306121
21
-0.234946964571317
31
0
210
0
220
0
230
1
40
0.052884
41
0.57511702384746
42
2.24393076306578
0
ELLIPSE
5
11A
100
AcDbEntity
8
1
62
256
6
ByLayer
370
18
48
1
60
0
100
AcDbEllipse
10
35.29284
20
7.848721
30
0
11
0.369999667713035
21
-0.0272298351334838
31
0
210
0
220
0
230
-1
40
0.018209
41
-1.21023129960063
42
-0.345317623015031
0
ELLIPSE
5
11B
100
AcDbEntity
8
1
62
256
6
ByLayer
370
18
48
1
60
0
100
AcDbEllipse
10
37.51387
20
12.709936
30
0
11
0.999999999881294
21
1.01063905496239E-15
31
0
210
0
220
0
230
-1
40
0.017455
41
1.67808255174256
42
2.33659906824717
0
ELLIPSE
5
11C
100
AcDbEntity
8
1
62
256
6
ByLayer
370
13
48
1
60
0
100
AcDbEllipse
10
35.218788
20
10.79205
30
0
11
0.34372004091448
21
-0.0393931377108547
31
0
210
0
220
0
230
-1
40
0.281025
41
0.0898609023833569
42
0.107754083925492
0
ELLIPSE
5
11D
100
AcDbEntity
8
1
62
256
6
ByLayer
370
13
48
1
60
0
100
AcDbEllipse
10
36.023196
20
7.889931
30
0
11
0.400160709220874
21
-0.0298104598423901
31
0
210
0
220
0
230
-1
40
0.012931
41
1.90270959550921
42
2.79654651691224
0
ELLIPSE
5
11E
100
AcDbEntity
8
1
62
256
6
ByLayer
370
13
48
1
60
0
100
AcDbEllipse
10
40.425117
20
12.477127
30
0
11
0.109463735293747
21
-0.279316470433701
31
0
210
0
220
0
230
1
40
0.045477
41
0.923993572059097
42
1.70284930219931
0
ELLIPSE
5
11F
100
AcDbEntity
8
1
62
256
6
ByLayer
370
13
48
1
60
0
100
AcDbEllipse
10
40.566392
20
11.65
30
0
11
-7.84199224798416E-17
21
-0.426912273945929
31
0
210
0
220
0
230
1
40
0.990268
41
2.07773225858864
42
2.21149041246192
0
ELLIPSE
5
120
100
AcDbEntity
8
1
62
256
6
ByLayer
370
13
48
1
60
0
100
AcDbEllipse
10
40.598054
20
7.451187
30
0
11
0.120247414553652
21
0.274846428561774
31
0
210
0
220
0
230
1
40
0.050597
41
-1.70097974226937
42
-0.922002067894885
0
ELLIPSE
5
121
100
AcDbEntity
8
1
62
256
6
ByLayer
370
13
48
1
60
0
100
AcDbEllipse
10
40.831849
20
11.889542
30
0
11
0.133490266708939
21
-0.268664007068264
31
0
210
0
220
0
230
1
40
0.124876
41
2.11038335671732
42
2.34328082157442
0
ELLIPSE
5
122
100
AcDbEntity
8
1
62
256
6
ByLayer
370
13
48
1
60
0
100
AcDbEllipse
10
40.598075
20
11.884595
30
0
11
-0.0697215594245148
21
0.240081036634329
31
0
210
0
220
0
230
1
40
0.0638
41
0.930071340023258
42
1.88398032495323
0
ELLIPSE
5
123
100
AcDbEntity
8
1
62
256
6
ByLayer
370
13
48
1
60
0
100
AcDbEllipse
10
39.755715
20
8.31579
30
0
11
0.0127056614243677
21
0.249676923578791
31
0
210
0
220
0
230
1
40
0.051215
41
-2.62726055991717
42
-2.20024092658963
0
ELLIPSE
5
124
100
AcDbEntity
8
1
62
256
6
ByLayer
370
13
48
1
60
0
100
AcDbEllipse
10
40.819444
20
11.883361
30
0
11
0.134055468310266
21
-0.268382434999229
31
0
210
0
220
0
230
1
40
0.124747
41
2.32278739409023
42
2.34571159163288
0
ELLIPSE
5
125
100
AcDbEntity
8
1
62
256
6
ByLayer
370
13
48
1
60
0
100
AcDbEllipse
10
40.126227
20
7.818907
30
0
11
0.403423410768503
21
-0.690832506215442
31
0
210
0
220
0
230
1
40
0.262689
41
1.98020200760595
42
2.24492723572738
0
ELLIPSE
5
126
100
AcDbEntity
8
1
62
256
6
ByLayer
370
13
48
1
60
0
100
AcDbEllipse
10
36.230128
20
12.611321
30
0
11
0.399217575426075
21
0.030155713370922
31
0
210
0
220
0
230
-1
40
0.038708
41
-2.79352668528936
42
-1.90156465034914
0
ELLIPSE
5
127
100
AcDbEntity
8
1
62
256
6
ByLayer
370
13
48
1
60
0
100
AcDbEllipse
10
40.734444
20
7.74406
30
0
11
-0.0899306066058339
21
-0.217111690140137
31
0
210
0
220
0
230
1
40
0.063088
41
-2.34501104291004
42
-0.923706339647684
0
ELLIPSE
5
128
100
AcDbEntity
8
1
62
256
6
ByLayer
370
13
48
1
60
0
100
AcDbEllipse
10
40.650701
20
7.778747
30
0
11
-0.0899306066058339
21
-0.217111690140137
31
0
210
0
220
0
230
1
40
0.047602
41
-2.30904011150434
42
-0.925339078919551
0
ELLIPSE
5
129
100
AcDbEntity
8
1
62
256
6
ByLayer
370
13
48
1
60
0
100
AcDbEllipse
10
40.828018
20
8.08555
30
0
11
-0.046686840866536
21
0.245601992845951
31
0
210
0
220
0
230
1
40
0.227005
41
1.16092402543371
42
2.0363448488968
0
ELLIPSE
5
12A
100
AcDbEntity
8
1
62
256
6
ByLayer
370
18
48
1
60
0
100
AcDbEllipse
10
38.057306
20
7.336629
30
0
11
0.0568804455533077
21
0.195147967983091
31
0
210
0
220
0
230
1
40
0.98392
41
2.90532571984923
42
3.13311685246771
0
ELLIPSE
5
12B
100
AcDbEntity
8
1
62
256
6
ByLayer
370
13
48
1
60
0
100
AcDbEllipse
10
40.808257
20
8.084048
30
0
11
0.00544227291733993
21
0.249940756311357
31
0
210
0
220
0
230
1
40
0.277734
41
1.21430322697362
42
2.28700392656684
0
ELLIPSE
5
12C
100
AcDbEntity
8
1
62
256
6
ByLayer
370
13
48
1
60
0
100
AcDbEllipse
10
35.740633
20
7.916234
30
0
11
-0.0160804796559802
21
-0.0986986229591559
31
0
210
0
220
0
230
1
40
0.940003
41
-1.59332440207817
42
-1.41887042542435
0
ELLIPSE
5
12D
100
AcDbEntity
8
1
62
256
6
ByLayer
370
13
48
1
60
0
100
AcDbEllipse
10
41.001815
20
8.023289
30
0
11
-0.144399151291087
21
-0.262961755976822
31
0
210
0
220
0
230
1
40
0.122265
41
0.839959943443646
42
1.63783478792556
0
ELLIPSE
5
12E
100
AcDbEntity
8
1
62
256
6
ByLayer
370
13
48
1
60
0
100
AcDbEllipse
10
36.023196
20
7.889931
30
0
11
0.398035563687757
21
-0.0508504071262362
31
0
210
0
220
0
230
-1
40
0.031059
41
1.90154908621636
42
2.79538543508346
0
ELLIPSE
5
12F
100
AcDbEntity
8
1
62
256
6
ByLayer
370
13
48
1
60
0
100
AcDbEllipse
10
40.508745
20
12.510806
30
0
11
0.11467620510703
21
-0.277217185582443
31
0
210
0
220
0
230
1
40
0.047951
41
0.925361283148663
42
1.70197425790188
0
ELLIPSE
5
130
100
AcDbEntity
8
1
62
256
6
ByLayer
370
13
48
1
60
0
100
AcDbEllipse
10
41.2988
20
7.275414
30
0
11
-0.02085547871427
21
0.299274203712246
31
0
210
0
220
0
230
1
40
0.00977
41
1.09562978035207
42
1.71008266168489
0
ELLIPSE
5
131
100
AcDbEntity
8
1
62
256
6
ByLayer
370
13
48
1
60
0
100
AcDbEllipse
10
37.018895
20
11.860896
30
0
11
0.229813332935695
21
-0.19283628290596
31
0
210
0
220
0
230
1
40
0.540716
41
-2.10763555738117
42
-1.14485749595457
0
ELLIPSE
5
132
100
AcDbEntity
8
1
62
256
6
ByLayer
370
13
48
1
60
0
100
AcDbEllipse
10
40.566392
20
8.35
30
0
11
-7.84199224798416E-17
21
-0.426912273945929
31
0
210
0
220
0
230
1
40
0.990268
41
0.930102241127878
42
1.06386039500115
0
ELLIPSE
5
133
100
AcDbEntity
8
1
62
256
6
ByLayer
370
13
48
1
60
0
100
AcDbEllipse
10
40.747386
20
12.261301
30
0
11
0.0899306066058329
21
-0.217111690140137
31
0
210
0
220
0
230
1
40
0.065482
41
-2.21844607194311
42
-0.798741420853501
0
ELLIPSE
5
134
100
AcDbEntity
8
1
62
256
6
ByLayer
370
13
48
1
60
0
100
AcDbEllipse
10
40.784241
20
11.914837
30
0
11
0.0143137792380838
21
-0.249589895075749
31
0
210
0
220
0
230
1
40
0.255666
41
-2.29562642746138
42
-1.22397845083301
0
ELLIPSE
5
135
100
AcDbEntity
8
1
62
256
6
ByLayer
370
13
48
1
60
0
100
AcDbEllipse
10
40.598054
20
12.548813
30
0
11
0.120247414553652
21
-0.274846428561774
31
0
210
0
220
0
230
1
40
0.050597
41
0.922002067894831
42
1.7009797422693
0
ELLIPSE
5
136
100
AcDbEntity
8
1
62
256
6
ByLayer
370
13
48
1
60
0
100
AcDbEllipse
10
40.576244
20
11.877861
30
0
11
-0.0776666401258246
21
0.237629739324786
31
0
210
0
220
0
230
1
40
0.042495
41
0.934139371617652
42
1.88221456752887
0
ELLIPSE
5
137
100
AcDbEntity
8
1
62
256
6
ByLayer
370
13
48
1
60
0
100
AcDbEllipse
10
40.583308
20
12.193337
30
0
11
0.0899306066058329
21
-0.217111690140137
31
0
210
0
220
0
230
1
40
0.035144
41
-2.21744214869734
42
-0.885586503886074
0
ELLIPSE
5
138
100
AcDbEntity
8
1
62
256
6
ByLayer
370
13
48
1
60
0
100
AcDbEllipse
10
39.806799
20
11.685698
30
0
11
-0.00188289982491171
21
0.249992909275942
31
0
210
0
220
0
230
1
40
0.036814
41
-0.95568654625876
42
-0.520754774785527
0
ELLIPSE
5
139
100
AcDbEntity
8
1
62
256
6
ByLayer
370
13
48
1
60
0
100
AcDbEllipse
10
40.867022
20
11.906885
30
0
11
-0.131837559674628
21
0.269478863473629
31
0
210
0
220
0
230
1
40
0.125249
41
-1.63199532793553
42
-0.804689624062454
0
ELLIPSE
5
13A
100
AcDbEntity
8
1
62
256
6
ByLayer
370
13
48
1
60
0
100
AcDbEllipse
10
40.739947
20
7.393047
30
0
11
0.10717027546784
21
0.280204446888602
31
0
210
0
220
0
230
1
40
0.044389
41
-1.70321765827845
42
-0.925451135842731
0
ELLIPSE
5
13B
100
AcDbEntity
8
1
62
256
6
ByLayer
370
13
48
1
60
0
100
AcDbEllipse
10
39.000621
20
12.353318
30
0
11
0.0500443814824902
21
-0.295796483890588
31
0
210
0
220
0
230
1
40
0.017375
41
0.869658159300453
42
1.70934426454286
0
ELLIPSE
5
13C
100
AcDbEntity
8
1
62
256
6
ByLayer
370
18
48
1
60
0
100
AcDbEllipse
10
39.995999
20
12.244374
30
0
11
-0.293666929071332
21
-0.744150344197874
31
0
210
0
220
0
230
1
40
0.197953
41
0.858258729588463
42
1.04601267774603
0
ELLIPSE
5
13D
100
AcDbEntity
8
1
62
256
6
ByLayer
370
13
48
1
60
0
100
AcDbEllipse
10
40.562262
20
12.533325
30
0
11
0.11802298671236
21
-0.275808945843847
31
0
210
0
220
0
230
1
40
0.049541
41
0.923951733534346
42
1.70138426024319
0
ELLIPSE
5
13E
100
AcDbEntity
8
1
62
256
6
ByLayer
370
13
48
1
60
0
100
AcDbEllipse
10
35.848891
20
15.835434
30
0
11
0.00453729619666284
21
-3.24728409456023
31
0
210
0
220
0
230
-1
40
0.041576
41
-0.00757733150488438
42
-0.00421484511364014
0
ELLIPSE
5
13F
100
AcDbEntity
8
1
62
256
6
ByLayer
370
13
48
1
60
0
100
AcDbEllipse
10
35.755104
20
15.830233
30
0
11
0.0983816338276255
21
-3.23281862391662
31
0
210
0
220
0
230
-1
40
0.031509
41
-0.00393180448891748
42
-0.000566608080221432
0
ELLIPSE
5
140
100
AcDbEntity
8
1
62
256
6
ByLayer
370
13
48
1
60
0
100
AcDbEllipse
10
40.538359
20
12.174719
30
0
11
0.0899306066058329
21
-0.217111690140137
31
0
210
0
220
0
230
1
40
0.026836
41
-2.2194705318085
42
-0.910612756854264
0
ELLIPSE
5
141
100
AcDbEntity
8
1
62
256
6
ByLayer
370
13
48
1
60
0
100
AcDbEllipse
10
40.233553
20
12.428243
30
0
11
-0.015194903409073
21
-0.299614944404295
31
0
210
0
220
0
230
1
40
0.013233
41
-1.70979821750721
42
-0.903819571922461
0
ELLIPSE
5
142
100
AcDbEntity
8
1
62
256
6
ByLayer
370
13
48
1
60
0
100
AcDbEllipse
10
36.500292
20
8.167263
30
0
11
-0.399982037282918
21
0.0037907586320912
31
0
210
0
220
0
230
1
40
0.009476
41
-2.3561495844081
42
-1.23767529981803
0
ELLIPSE
5
143
100
AcDbEntity
8
1
62
256
6
ByLayer
370
13
48
1
60
0
100
AcDbEllipse
10
35.336822
20
9.303324
30
0
11
0.103070604473998
21
-1.37502795045847
31
0
210
0
220
0
230
-1
40
0.318906
41
0.0364556580215391
42
0.04983668622231
0
ELLIPSE
5
144
100
AcDbEntity
8
1
62
256
6
ByLayer
370
18
48
1
60
0
100
AcDbEllipse
10
36.369485
20
6.75541
30
0
11
1.68533947360521
21
-0.0274260867512183
31
0
210
0
220
0
230
-1
40
0.593243
41
-1.33507505089341
42
-1.31799970409031
0
ELLIPSE
5
145
100
AcDbEntity
8
1
62
256
6
ByLayer
370
13
48
1
60
0
100
AcDbEllipse
10
35.565183
20
10.826237
30
0
11
0.0750691834806549
21
-0.471913615044827
31
0
210
0
220
0
230
-1
40
0.431949
41
-1.14686007295897
42
-1.12896742970327
0
ELLIPSE
5
146
100
AcDbEntity
8
1
62
256
6
ByLayer
370
13
48
1
60
0
100
AcDbEllipse
10
40.62022
20
11.890635
30
0
11
-0.0618719102209598
21
0.242222762608326
31
0
210
0
220
0
230
1
40
0.085462
41
0.924591680943158
42
1.88640681208365
0
ELLIPSE
5
147
100
AcDbEntity
8
1
62
256
6
ByLayer
370
13
48
1
60
0
100
AcDbEllipse
10
35.452325
20
11.112598
30
0
11
0.185968938751489
21
1.45995560236309
31
0
210
0
220
0
230
-1
40
0.235034
41
-0.0419176071969719
42
-0.0270134165617314
0
ELLIPSE
5
148
100
AcDbEntity
8
1
62
256
6
ByLayer
370
13
48
1
60
0
100
AcDbEllipse
10
40.467017
20
7.506227
30
0
11
0.112067087850255
21
0.278282173020054
31
0
210
0
220
0
230
1
40
0.046712
41
-1.70241888252952
42
-0.925218310353683
0
ELLIPSE
5
149
100
AcDbEntity
8
1
62
256
6
ByLayer
370
18
48
1
60
0
100
AcDbEllipse
10
31.873867
20
12.661597
30
0
11
0.228999151566114
21
0.00120909166979331
31
0
210
0
220
0
230
-1
40
0.00804
41
-2.0845947920447
42
-1.74216087701519
0
ELLIPSE
5
14A
100
AcDbEntity
8
1
62
256
6
ByLayer
370
13
48
1
60
0
100
AcDbEllipse
10
40.858874
20
11.907962
30
0
11
-0.0561606516129442
21
-0.243610306043093
31
0
210
0
220
0
230
1
40
0.039575
41
1.48382354045494
42
1.72059995358683
0
ELLIPSE
5
14B
100
AcDbEntity
8
1
62
256
6
ByLayer
370
13
48
1
60
0
100
AcDbEllipse
10
40.62022
20
8.109365
30
0
11
0.0618719102209597
21
0.242222762608326
31
0
210
0
220
0
230
1
40
0.085462
41
1.25518584150615
42
2.21700097264689
0
ELLIPSE
5
14C
100
AcDbEntity
8
1
62
256
6
ByLayer
370
13
48
1
60
0
100
AcDbEllipse
10
35.416622
20
11.112582
30
0
11
0.225387494246782
21
1.49060382366063
31
0
210
0
220
0
230
-1
40
0.2917
41
-0.0460666238844446
42
-0.03116251504529
0
ELLIPSE
5
14D
100
AcDbEntity
8
1
62
256
6
ByLayer
370
13
48
1
60
0
100
AcDbEllipse
10
40.867022
20
8.093115
30
0
11
-0.131837559674629
21
-0.269478863473629
31
0
210
0
220
0
230
1
40
0.125249
41
0.804689624062637
42
1.63199532793551
0
ELLIPSE
5
14E
100
AcDbEntity
8
1
62
256
6
ByLayer
370
13
48
1
60
0
100
AcDbEllipse
10
35.740406
20
7.916267
30
0
11
-0.0123718840052962
21
-0.0992317312464088
31
0
210
0
220
0
230
1
40
0.94059
41
-1.62872896178638
42
-1.45405988882155
0
ELLIPSE
5
14F
100
AcDbEntity
8
1
62
256
6
ByLayer
370
13
48
1
60
0
100
AcDbEllipse
10
41.366061
20
12.7
30
0
11
-0.156278102235891
21
-0.256080367778455
31
0
210
0
220
0
230
1
40
0.119112
41
1.17688567142437
42
1.64335901494941
0
ELLIPSE
5
150
100
AcDbEntity
8
1
62
256
6
ByLayer
370
13
48
1
60
0
100
AcDbEllipse
10
37.993426
20
8.574697
30
0
11
0.0534756689485393
21
0.24421374414743
31
0
210
0
220
0
230
1
40
0.167877
41
-2.25128406614329
42
-0.626246069697794
0
ELLIPSE
5
151
100
AcDbEntity
8
1
62
256
6
ByLayer
370
13
48
1
60
0
100
AcDbEllipse
10
40.404101
20
7.531053
30
0
11
0.10816872897329
21
0.279820524751675
31
0
210
0
220
0
230
1
40
0.044862
41
-1.70305853510147
42
-0.922976457337261
0
ELLIPSE
5
152
100
AcDbEntity
8
1
62
256
6
ByLayer
370
13
48
1
60
0
100
AcDbEllipse
10
40.734444
20
12.25594
30
0
11
0.0899306066058329
21
-0.217111690140137
31
0
210
0
220
0
230
1
40
0.063088
41
-2.21788631394222
42
-0.796581610679524
0
ELLIPSE
5
153
100
AcDbEntity
8
1
62
256
6
ByLayer
370
13
48
1
60
0
100
AcDbEllipse
10
35.325948
20
7.479692
30
0
11
0.52434677358781
21
5.1083919296899
31
0
210
0
220
0
230
-1
40
0.025361
41
-0.03372251599792
42
-0.0107688456855378
0
ELLIPSE
5
154
100
AcDbEntity
8
1
62
256
6
ByLayer
370
13
48
1
60
0
100
AcDbEllipse
10
40.759833
20
11.913164
30
0
11
0.0199739336471672
21
-0.249200806528909
31
0
210
0
220
0
230
1
40
0.228669
41
-2.27993774755953
42
-1.22946791584222
0
ELLIPSE
5
155
100
AcDbEntity
8
1
62
256
6
ByLayer
370
13
48
1
60
0
100
AcDbEllipse
10
40.642683
20
8.104007
30
0
11
0.0541791667760877
21
0.244058636166494
31
0
210
0
220
0
230
1
40
0.107584
41
1.25213540408607
42
2.22389485730165
0
ELLIPSE
5
156
100
AcDbEntity
8
1
62
256
6
ByLayer
370
13
48
1
60
0
100
AcDbEllipse
10
35.453325
20
7.928366
30
0
11
0.00802409410540568
21
0.0996775496979515
31
0
210
0
220
0
230
1
40
0.353057
41
1.24757475703155
42
1.5992099818703
0
ELLIPSE
5
157
100
AcDbEntity
8
1
62
256
6
ByLayer
370
13
48
1
60
0
100
AcDbEllipse
10
36.230128
20
12.611321
30
0
11
0.399905682936428
21
0.018955169365902
31
0
210
0
220
0
230
-1
40
0.029078
41
-2.79447700380799
42
-1.90251496888041
0
ELLIPSE
5
158
100
AcDbEntity
8
1
62
256
6
ByLayer
370
13
48
1
60
0
100
AcDbEllipse
10
40.7215
20
7.749421
30
0
11
-0.0899306066058339
21
-0.217111690140137
31
0
210
0
220
0
230
1
40
0.060694
41
-2.34724686875649
42
-0.924183943991307
0
ELLIPSE
5
159
100
AcDbEntity
8
1
62
256
6
ByLayer
370
13
48
1
60
0
100
AcDbEllipse
10
40.831849
20
8.110458
30
0
11
0.133490266708939
21
0.268664007068264
31
0
210
0
220
0
230
1
40
0.124876
41
-2.34328082157454
42
-2.1103833567174
0
ELLIPSE
5
15A
100
AcDbEntity
8
1
62
256
6
ByLayer
370
13
48
1
60
0
100
AcDbEllipse
10
37.97676
20
11.421666
30
0
11
-0.0531074500033295
21
0.244294082519704
31
0
210
0
220
0
230
1
40
0.171592
41
-2.51218450288066
42
-0.890947837766342
0
ELLIPSE
5
15B
100
AcDbEntity
8
1
62
256
6
ByLayer
370
13
48
1
60
0
100
AcDbEllipse
10
40.887844
20
8.891632
30
0
11
-0.265987537766487
21
-0.138746638708552
31
0
210
0
220
0
230
1
40
0.561971
41
0.913094258535509
42
1.62125302498979
0
ELLIPSE
5
15C
100
AcDbEntity
8
1
62
256
6
ByLayer
370
13
48
1
60
0
100
AcDbEllipse
10
40.650701
20
12.221253
30
0
11
0.0899306066058329
21
-0.217111690140137
31
0
210
0
220
0
230
1
40
0.047602
41
-2.21625357467031
42
-0.832552542084848
0
ELLIPSE
5
15D
100
AcDbEntity
8
1
62
256
6
ByLayer
370
18
48
1
60
0
100
AcDbEllipse
10
35.496256
20
12.694546
30
0
11
0.370000000010473
21
3.73936450391059E-16
31
0
210
0
220
0
230
-1
40
0.017455
41
0.345852093456936
42
1.20572396883799
0
ELLIPSE
5
15E
100
AcDbEntity
8
1
62
256
6
ByLayer
370
13
48
1
60
0
100
AcDbEllipse
10
40.404101
20
12.468947
30
0
11
0.10816872897329
21
-0.279820524751675
31
0
210
0
220
0
230
1
40
0.044862
41
0.922976457337319
42
1.70305853510153
0
ELLIPSE
5
15F
100
AcDbEntity
8
1
62
256
6
ByLayer
370
13
48
1
60
0
100
AcDbEllipse
10
40.80917
20
11.915968
30
0
11
0.00345677215695889
21
-0.249976100310119
31
0
210
0
220
0
230
1
40
0.276293
41
-2.27599777500412
42
-1.21207107964997
0
ELLIPSE
5
160
100
AcDbEntity
8
1
62
256
6
ByLayer
370
13
48
1
60
0
100
AcDbEllipse
10
40.708553
20
12.245216
30
0
11
0.0899306066058329
21
-0.217111690140137
31
0
210
0
220
0
230
1
40
0.058299
41
-2.21701334606788
42
-0.792034234104521
0
ELLIPSE
5
161
100
AcDbEntity
8
1
62
256
6
ByLayer
370
13
48
1
60
0
100
AcDbEllipse
10
35.73823
20
7.916538
30
0
11
0.0123718840052963
21
0.0992317312464087
31
0
210
0
220
0
230
1
40
0.94059
41
1.51286369180341
42
1.68753276476831
0
ELLIPSE
5
162
100
AcDbEntity
8
1
62
256
6
ByLayer
370
13
48
1
60
0
100
AcDbEllipse
10
40.586137
20
7.456382
30
0
11
0.119508742261721
21
0.275168422103666
31
0
210
0
220
0
230
1
40
0.050246
41
-1.70111517605502
42
-0.922741133659231
0
ELLIPSE
5
163
100
AcDbEntity
8
1
62
256
6
ByLayer
370
13
48
1
60
0
100
AcDbEllipse
10
40.784241
20
8.085163
30
0
11
0.0143137792380839
21
0.249589895075749
31
0
210
0
220
0
230
1
40
0.255666
41
1.22397845083305
42
2.29562642746138
0
ELLIPSE
5
164
100
AcDbEntity
8
1
62
256
6
ByLayer
370
13
48
1
60
0
100
AcDbEllipse
10
37.51387
20
11.078172
30
0
11
1.34155703186341E-16
21
0.834227514817788
31
0
210
0
220
0
230
-1
40
0.8391
41
-0.785398163396532
42
0
0
ELLIPSE
5
165
100
AcDbEntity
8
1
62
256
6
ByLayer
370
13
48
1
60
0
100
AcDbEllipse
10
40.446088
20
7.514598
30
0
11
0.110763749558749
21
0.278803500307451
31
0
210
0
220
0
230
1
40
0.046094
41
-1.70263600896268
42
-0.924741031349559
0
ELLIPSE
5
166
100
AcDbEntity
8
1
62
256
6
ByLayer
370
13
48
1
60
0
100
AcDbEllipse
10
35.349381
20
10.660187
30
0
11
0.297071298203138
21
-2.74367219329647
31
0
210
0
220
0
230
-1
40
0.060036
41
0.0141758159333553
42
0.0312194250802261
0
ELLIPSE
5
167
100
AcDbEntity
8
1
62
256
6
ByLayer
370
13
48
1
60
0
100
AcDbEllipse
10
40.508745
20
7.489194
30
0
11
0.11467620510703
21
0.277217185582443
31
0
210
0
220
0
230
1
40
0.047951
41
-1.70197425790191
42
-0.92536128314855
0
ELLIPSE
5
168
100
AcDbEntity
8
1
62
256
6
ByLayer
370
13
48
1
60
0
100
AcDbEllipse
10
37.273692
20
12.16455
30
0
11
0.431694099078816
21
0.666569088592133
31
0
210
0
220
0
230
-1
40
0.359878
41
3.04760145096362
42
-2.27280579478775
0
ELLIPSE
5
169
100
AcDbEntity
8
1
62
256
6
ByLayer
370
13
48
1
60
0
100
AcDbEllipse
10
39.833804
20
12.291819
30
0
11
-0.152783137582234
21
-0.785275310238727
31
0
210
0
220
0
230
1
40
0.103584
41
0.827870062561091
42
0.962408612124999
0
ELLIPSE
5
16A
100
AcDbEntity
8
1
62
256
6
ByLayer
370
18
48
1
60
0
100
AcDbEllipse
10
40.825215
20
11.914931
30
0
11
-0.0378646809203705
21
-0.247115895763099
31
0
210
0
220
0
230
1
40
0.23743
41
-2.0735427118313
42
-1.16924089839947
0
ELLIPSE
5
16B
100
AcDbEntity
8
1
62
256
6
ByLayer
370
13
48
1
60
0
100
AcDbEllipse
10
37.018895
20
8.139104
30
0
11
0.229813332935695
21
0.19283628290596
31
0
210
0
220
0
230
1
40
0.540716
41
1.14485749595457
42
2.14322507477219
0
ELLIPSE
5
16C
100
AcDbEntity
8
1
62
256
6
ByLayer
370
13
48
1
60
0
100
AcDbEllipse
10
40.529545
20
7.480532
30
0
11
0.115978334944685
21
0.276674946143409
31
0
210
0
220
0
230
1
40
0.04857
41
-1.70174734995705
42
-0.925027091314807
0
ELLIPSE
5
16D
100
AcDbEntity
8
1
62
256
6
ByLayer
370
13
48
1
60
0
100
AcDbEllipse
10
40.7215
20
12.250579
30
0
11
0.0899306066058329
21
-0.217111690140137
31
0
210
0
220
0
230
1
40
0.060694
41
-2.21740870959829
42
-0.794345784833409
0
ELLIPSE
5
16E
100
AcDbEntity
8
1
62
256
6
ByLayer
370
13
48
1
60
0
100
AcDbEllipse
10
40.708553
20
7.754784
30
0
11
-0.0899306066058339
21
-0.217111690140137
31
0
210
0
220
0
230
1
40
0.058299
41
-2.34955841948503
42
-0.924579307522309
0
ELLIPSE
5
16F
100
AcDbEntity
8
1
62
256
6
ByLayer
370
13
48
1
60
0
100
AcDbEllipse
10
35.372229
20
9.303291
30
0
11
0.0654920873841178
21
-1.34112943025434
31
0
210
0
220
0
230
-1
40
0.257654
41
0.0304863463764165
42
0.0438675372503325
0
ELLIPSE
5
170
100
AcDbEntity
8
1
62
256
6
ByLayer
370
13
48
1
60
0
100
AcDbEllipse
10
40.711999
20
8.091864
30
0
11
0.0326055930734814
21
0.247864630999113
31
0
210
0
220
0
230
1
40
0.177743
41
1.23974820972086
42
2.25313765155552
0
ELLIPSE
5
171
100
AcDbEntity
8
1
62
256
6
ByLayer
370
13
48
1
60
0
100
AcDbEllipse
10
40.34359
20
12.108901
30
0
11
0.0433820246205717
21
-0.23096103554457
31
0
210
0
220
0
230
1
40
0.009251
41
0.890698211463055
42
2.2283881656544
0
ELLIPSE
5
172
100
AcDbEntity
8
1
62
256
6
ByLayer
370
13
48
1
60
0
100
AcDbEllipse
10
37.51387
20
11.271008
30
0
11
1.00000000000129
21
1.01063905508367E-15
31
0
210
0
220
0
230
-1
40
0.834228
41
-2.34460350345765
42
-1.5707963267949
0
ELLIPSE
5
173
100
AcDbEntity
8
1
62
256
6
ByLayer
370
13
48
1
60
0
100
AcDbEllipse
10
40.383043
20
7.539137
30
0
11
0.106880627283451
21
0.280315057589663
31
0
210
0
220
0
230
1
40
0.044251
41
-1.70326346286855
42
-0.921690500707305
0
ELLIPSE
5
174
100
AcDbEntity
8
1
62
256
6
ByLayer
370
18
48
1
60
0
100
AcDbEllipse
10
40.842159
20
8.088368
30
0
11
-0.0510447664513676
21
0.244733389258445
31
0
210
0
220
0
230
1
40
0.099036
41
1.31086871070241
42
1.88918250016545
0
ELLIPSE
5
175
100
AcDbEntity
8
1
62
256
6
ByLayer
370
18
48
1
60
0
100
AcDbEllipse
10
36.496448
20
7.761619
30
0
11
0.399738852515072
21
-0.0294216597884044
31
0
210
0
220
0
230
-1
40
0.018225
41
1.41240876568686
42
1.90274951057424
0
ELLIPSE
5
176
100
AcDbEntity
8
1
62
256
6
ByLayer
370
13
48
1
60
0
100
AcDbEllipse
10
35.51615
20
9.702784
30
0
11
0.115900377783125
21
0.463554932076045
31
0
210
0
220
0
230
-1
40
0.431938
41
1.12898959220335
42
1.1468829607928
0
ELLIPSE
5
177
100
AcDbEntity
8
1
62
256
6
ByLayer
370
13
48
1
60
0
100
AcDbEllipse
10
40.403323
20
11.809785
30
0
11
-0.103782519273385
21
0.227440516824222
31
0
210
0
220
0
230
1
40
0.182089
41
-1.88924134385187
42
-0.911946054607335
0
ELLIPSE
5
178
100
AcDbEntity
8
1
62
256
6
ByLayer
370
18
48
1
60
0
100
AcDbEllipse
10
36.023668
20
7.799404
30
0
11
0.400158673634255
21
-0.0294584714250467
31
0
210
0
220
0
230
-1
40
0.018208
41
1.90230481794146
42
2.79614116684678
0
ELLIPSE
5
179
100
AcDbEntity
8
1
62
256
6
ByLayer
370
13
48
1
60
0
100
AcDbEllipse
10
40.470915
20
12.146783
30
0
11
0.0899306066058329
21
-0.217111690140137
31
0
210
0
220
0
230
1
40
0.014373
41
-2.22435339271853
42
-0.933058014592159
0
ELLIPSE
5
17A
100
AcDbEntity
8
1
62
256
6
ByLayer
370
13
48
1
60
0
100
AcDbEllipse
10
41.136435
20
7.281227
30
0
11
0.0383083190754822
21
0.297544068483327
31
0
210
0
220
0
230
1
40
0.011848
41
-1.70992229257207
42
-1.01523157338172
0
ELLIPSE
5
17B
100
AcDbEntity
8
1
62
256
6
ByLayer
370
13
48
1
60
0
100
AcDbEllipse
10
40.628241
20
7.788051
30
0
11
-0.0899306066058339
21
-0.217111690140137
31
0
210
0
220
0
230
1
40
0.04345
41
-2.28925526698902
42
-0.925190615234217
0
ELLIPSE
5
17C
100
AcDbEntity
8
1
62
256
6
ByLayer
370
13
48
1
60
0
100
AcDbEllipse
10
36.866417
20
11.229228
30
0
11
-0.154460786869287
21
-0.368974071337975
31
0
210
0
220
0
230
1
40
0.308243
41
-2.20548879774865
42
-1.45542865462766
0
ELLIPSE
5
17D
100
AcDbEntity
8
1
62
256
6
ByLayer
370
18
48
1
60
0
100
AcDbEllipse
10
40.077746
20
7.792455
30
0
11
0.362647687601748
21
-0.71308250201299
31
0
210
0
220
0
230
1
40
0.239608
41
2.02875854580627
42
2.2607553005294
0
ELLIPSE
5
17E
100
AcDbEntity
8
1
62
256
6
ByLayer
370
13
48
1
60
0
100
AcDbEllipse
10
40.855291
20
11.90113
30
0
11
0.132396805980949
21
-0.26920454261777
31
0
210
0
220
0
230
1
40
0.125123
41
1.66191072600529
42
2.3389452246822
0
ELLIPSE
5
17F
100
AcDbEntity
8
1
62
256
6
ByLayer
370
13
48
1
60
0
100
AcDbEllipse
10
38.387496
20
12.182592
30
0
11
0.0949951279488672
21
-0.284562691978373
31
0
210
0
220
0
230
1
40
0.112135
41
-1.6490650457047
42
-0.877028623369515
0
ELLIPSE
5
180
100
AcDbEntity
8
1
62
256
6
ByLayer
370
13
48
1
60
0
100
AcDbEllipse
10
37.233121
20
7.883799
30
0
11
0.417920472922839
21
-0.6442970846627
31
0
210
0
220
0
230
-1
40
0.37378
41
2.2504609560941
42
-3.03435677226709
0
ELLIPSE
5
181
100
AcDbEntity
8
1
62
256
6
ByLayer
370
13
48
1
60
0
100
AcDbEllipse
10
40.628241
20
12.211949
30
0
11
0.0899306066058329
21
-0.217111690140137
31
0
210
0
220
0
230
1
40
0.04345
41
-2.21640203835575
42
-0.852337386600693
0
ELLIPSE
5
182
100
AcDbEntity
8
1
62
256
6
ByLayer
370
13
48
1
60
0
100
AcDbEllipse
10
38.232377
20
11.536841
30
0
11
-0.155796455764522
21
0.195518450206658
31
0
210
0
220
0
230
1
40
0.413181
41
-2.61062962229899
42
-1.00012232647626
0
ELLIPSE
5
183
100
AcDbEntity
8
1
62
256
6
ByLayer
370
18
48
1
60
0
100
AcDbEllipse
10
40.068454
20
8.308541
30
0
11
0.00534900856196139
21
0.249942769664185
31
0
210
0
220
0
230
1
40
0.022232
41
-2.57649392215543
42
-2.08427287059905
0
ELLIPSE
5
184
100
AcDbEntity
8
1
62
256
6
ByLayer
370
13
48
1
60
0
100
AcDbEllipse
10
40.665466
20
8.099316
30
0
11
0.0467013527174348
21
0.245599233822831
31
0
210
0
220
0
230
1
40
0.130272
41
1.24850707125166
42
2.23220863229281
0
ELLIPSE
5
185
100
AcDbEntity
8
1
62
256
6
ByLayer
370
13
48
1
60
0
100
AcDbEllipse
10
39.833804
20
7.708181
30
0
11
0.152783137582234
21
-0.785275310238727
31
0
210
0
220
0
230
1
40
0.103584
41
2.1791840414648
42
2.31372259102864
0
ELLIPSE
5
186
100
AcDbEntity
8
1
62
256
6
ByLayer
370
13
48
1
60
0
100
AcDbEllipse
10
39.767713
20
12.303751
30
0
11
-0.13145703005596
21
-0.789125496514253
31
0
210
0
220
0
230
1
40
0.105545
41
0.82450775757037
42
0.947276290288286
0
ELLIPSE
5
187
100
AcDbEntity
8
1
62
256
6
ByLayer
370
13
48
1
60
0
100
AcDbEllipse
10
40.735752
20
11.91094
30
0
11
0.0260848624412862
21
-0.248635435832102
31
0
210
0
220
0
230
1
40
0.202726
41
-2.26578914035564
42
-1.23475707827811
0
ELLIPSE
5
188
100
AcDbEntity
8
1
62
256
6
ByLayer
370
13
48
1
60
0
100
AcDbEllipse
10
35.231867
20
7.47967
30
0
11
0.617482178340637
21
5.1174662094075
31
0
210
0
220
0
230
-1
40
0.032585
41
-0.0284962540448376
42
-0.00554263338171023
0
ELLIPSE
5
189
100
AcDbEntity
8
1
62
256
6
ByLayer
370
13
48
1
60
0
100
AcDbEllipse
10
40.665466
20
11.900684
30
0
11
0.0467013527174346
21
-0.245599233822831
31
0
210
0
220
0
230
1
40
0.130272
41
-2.23220863229281
42
-1.24850707125166
0
ELLIPSE
5
18A
100
AcDbEntity
8
1
62
256
6
ByLayer
370
18
48
1
60
0
100
AcDbEllipse
10
40.997981
20
12.365101
30
0
11
0.0899306066058329
21
-0.217111690140137
31
0
210
0
220
0
230
1
40
0.017962
41
0.883326076992501
42
2.19888580305885
0
ELLIPSE
5
18B
100
AcDbEntity
8
1
62
256
6
ByLayer
370
13
48
1
60
0
100
AcDbEllipse
10
40.598075
20
8.115405
30
0
11
0.0697215594245149
21
0.240081036634329
31
0
210
0
220
0
230
1
40
0.0638
41
1.25761232863665
42
2.21152131356622
0
ELLIPSE
5
18C
100
AcDbEntity
8
1
62
256
6
ByLayer
370
13
48
1
60
0
100
AcDbEllipse
10
35.348359
20
10.366357
30
0
11
-0.272432084697608
21
0.250361257440753
31
0
210
0
220
0
230
1
40
0.87955
41
-2.34013872624605
42
-1.33124884256838
0
ELLIPSE
5
18D
100
AcDbEntity
8
1
62
256
6
ByLayer
370
13
48
1
60
0
100
AcDbEllipse
10
35.657449
20
12.604632
30
0
11
-0.00066712643554633
21
0.0999977746868349
31
0
210
0
220
0
230
1
40
0.35701
41
1.56841457052507
42
1.88918563151315
0
ELLIPSE
5
18E
100
AcDbEntity
8
1
62
256
6
ByLayer
370
13
48
1
60
0
100
AcDbEllipse
10
40.808257
20
11.915952
30
0
11
0.00544227291733992
21
-0.249940756311357
31
0
210
0
220
0
230
1
40
0.277734
41
-2.28700392656684
42
-1.21430322697365
0
ELLIPSE
5
18F
100
AcDbEntity
8
1
62
256
6
ByLayer
370
13
48
1
60
0
100
AcDbEllipse
10
39.742056
20
12.448538
30
0
11
0.00519550953083375
21
-0.299955007760689
31
0
210
0
220
0
230
1
40
0.003698
41
-1.71037401282174
42
-0.877205604775717
0
ELLIPSE
5
190
100
AcDbEntity
8
1
62
256
6
ByLayer
370
13
48
1
60
0
100
AcDbEllipse
10
36.535583
20
11.84185
30
0
11
0.399926857467002
21
0.00764909645437632
31
0
210
0
220
0
230
1
40
0.019365
41
0.808146409726577
42
1.90350487086523
0
ELLIPSE
5
191
100
AcDbEntity
8
1
62
256
6
ByLayer
370
13
48
1
60
0
100
AcDbEllipse
10
38.387496
20
7.817408
30
0
11
0.0949951279488674
21
0.284562691978373
31
0
210
0
220
0
230
1
40
0.112135
41
0.877028623369531
42
1.6490650457047
0
ELLIPSE
5
192
100
AcDbEntity
8
1
62
256
6
ByLayer
370
13
48
1
60
0
100
AcDbEllipse
10
40.493398
20
7.843904
30
0
11
-0.0899306066058339
21
-0.217111690140137
31
0
210
0
220
0
230
1
40
0.018527
41
-2.2140195212081
42
-0.919110957906616
0
ELLIPSE
5
193
100
AcDbEntity
8
1
62
256
6
ByLayer
370
13
48
1
60
0
100
AcDbEllipse
10
37.383348
20
-40.10876
30
0
11
0.45768292096802
21
116.152430644652
31
0
210
0
220
0
230
-1
40
0.011393
41
-1.10684389406929
42
-1.09887189822081
0
ELLIPSE
5
194
100
AcDbEntity
8
1
62
256
6
ByLayer
370
13
48
1
60
0
100
AcDbEllipse
10
40.012102
20
8.546208
30
0
11
0.278159628338067
21
0.112370908881385
31
0
210
0
220
0
230
1
40
0.64628
41
-1.66593510264451
42
-0.913100663229369
0
ELLIPSE
5
195
100
AcDbEntity
8
1
62
256
6
ByLayer
370
13
48
1
60
0
100
AcDbEllipse
10
40.012102
20
11.453792
30
0
11
0.278159628338067
21
-0.112370908881385
31
0
210
0
220
0
230
1
40
0.64628
41
0.913100663229393
42
1.66593510264449
0
ELLIPSE
5
196
100
AcDbEntity
8
1
62
256
6
ByLayer
370
18
48
1
60
0
100
AcDbEllipse
10
38.060275
20
12.665086
30
0
11
0.161394992300714
21
-0.124126345776884
31
0
210
0
220
0
230
1
40
0.982286
41
2.52658986001543
42
2.7562637792306
0
ELLIPSE
5
197
100
AcDbEntity
8
1
62
256
6
ByLayer
370
13
48
1
60
0
100
AcDbEllipse
10
36.418097
20
9.773116
30
0
11
-0.391485134068366
21
0.0820937866313489
31
0
210
0
220
0
230
1
40
0.058412
41
0.346444142675078
42
1.24252224636555
0
ELLIPSE
5
198
100
AcDbEntity
8
1
62
256
6
ByLayer
370
13
48
1
60
0
100
AcDbEllipse
10
39.825279
20
7.551808
30
0
11
-0.00769005562271934
21
0.299901422211565
31
0
210
0
220
0
230
1
40
0.009727
41
0.877406756928341
42
1.71008563317703
0
ELLIPSE
5
199
100
AcDbEntity
8
1
62
256
6
ByLayer
370
13
48
1
60
0
100
AcDbEllipse
10
35.435449
20
10.627489
30
0
11
-0.36977632980556
21
0.0128633555315017
31
0
210
0
220
0
230
1
40
0.345678
41
-2.77198969431281
42
-1.90266038202977
0
ELLIPSE
5
19A
100
AcDbEntity
8
1
62
256
6
ByLayer
370
18
48
1
60
0
100
AcDbEllipse
10
39.970635
20
12.103103
30
0
11
-0.00499237806306121
21
-0.234946964571317
31
0
210
0
220
0
230
1
40
0.033136
41
0.547817104343918
42
2.25822967377363
0
ELLIPSE
5
19B
100
AcDbEntity
8
1
62
256
6
ByLayer
370
13
48
1
60
0
100
AcDbEllipse
10
40.287075
20
12.431003
30
0
11
0.045929101066579
21
-0.296463349632321
31
0
210
0
220
0
230
1
40
0.015436
41
0.913303379112738
42
1.70957224955165
0
ELLIPSE
5
19C
100
AcDbEntity
8
1
62
256
6
ByLayer
370
13
48
1
60
0
100
AcDbEllipse
10
40.126227
20
12.181093
30
0
11
-0.403423410768504
21
-0.690832506215441
31
0
210
0
220
0
230
1
40
0.262689
41
0.896665417862416
42
1.16139064598384
0
ELLIPSE
5
19D
100
AcDbEntity
8
1
62
256
6
ByLayer
370
13
48
1
60
0
100
AcDbEllipse
10
40.493398
20
12.156096
30
0
11
0.0899306066058329
21
-0.217111690140137
31
0
210
0
220
0
230
1
40
0.018527
41
-2.22248169568459
42
-0.927573132379897
0
ELLIPSE
5
19E
100
AcDbEntity
8
1
62
256
6
ByLayer
370
13
48
1
60
0
100
AcDbEllipse
10
40.642683
20
11.895993
30
0
11
-0.0541791667760876
21
0.244058636166494
31
0
210
0
220
0
230
1
40
0.107584
41
0.917697796288229
42
1.88945724950372
0
ELLIPSE
5
19F
100
AcDbEntity
8
1
62
256
6
ByLayer
370
13
48
1
60
0
100
AcDbEllipse
10
37.741163
20
2.138586
30
0
11
0.344639185796605
21
5.75192269792276
31
0
210
0
220
0
230
-1
40
0.642112
41
-0.0384545713178922
42
-0.0235325486453672
0
ELLIPSE
5
1A0
100
AcDbEntity
8
1
62
256
6
ByLayer
370
13
48
1
60
0
100
AcDbEllipse
10
40.538359
20
7.825281
30
0
11
-0.0899306066058339
21
-0.217111690140137
31
0
210
0
220
0
230
1
40
0.026836
41
-2.23097989673622
42
-0.922122121780221
0
ELLIPSE
5
1A1
100
AcDbEntity
8
1
62
256
6
ByLayer
370
13
48
1
60
0
100
AcDbEllipse
10
40.130757
20
12.178435
30
0
11
-0.406104986473482
21
-0.689259559209281
31
0
210
0
220
0
230
1
40
0.263572
41
0.897806786094936
42
1.10174912095114
0
ELLIPSE
5
1A2
100
AcDbEntity
8
1
62
256
6
ByLayer
370
13
48
1
60
0
100
AcDbEllipse
10
40.550304
20
7.471773
30
0
11
0.117276566594167
21
0.276127157171988
31
0
210
0
220
0
230
1
40
0.049186
41
-1.70151777506374
42
-0.924422877111381
0
ELLIPSE
5
1A3
100
AcDbEntity
8
1
62
256
6
ByLayer
370
13
48
1
60
0
100
AcDbEllipse
10
40.843567
20
11.895349
30
0
11
0.132947745885417
21
-0.268932885426804
31
0
210
0
220
0
230
1
40
0.124999
41
1.88010686407286
42
2.34107127194195
0
ELLIPSE
5
1A4
100
AcDbEntity
8
1
62
256
6
ByLayer
370
13
48
1
60
0
100
AcDbEllipse
10
36.843377
20
8.798229
30
0
11
-0.150498438402556
21
0.370607906065686
31
0
210
0
220
0
230
1
40
0.301061
41
1.43622951063432
42
2.20875321551793
0
ELLIPSE
5
1A5
100
AcDbEntity
8
1
62
256
6
ByLayer
370
13
48
1
60
0
100
AcDbEllipse
10
41.366061
20
7.3
30
0
11
-0.156278102235891
21
0.256080367778455
31
0
210
0
220
0
230
1
40
0.119112
41
-1.64335901494941
42
-1.17688567142434
0
ELLIPSE
5
1A6
100
AcDbEntity
8
1
62
256
6
ByLayer
370
13
48
1
60
0
100
AcDbEllipse
10
40.828018
20
11.91445
30
0
11
-0.0466868408665363
21
-0.245601992845951
31
0
210
0
220
0
230
1
40
0.227005
41
-2.0363448488968
42
-1.16092402543374
0
ELLIPSE
5
1A7
100
AcDbEntity
8
1
62
256
6
ByLayer
370
13
48
1
60
0
100
AcDbEllipse
10
37.97676
20
8.578334
30
0
11
-0.0531074500033295
21
-0.244294082519704
31
0
210
0
220
0
230
1
40
0.171592
41
0.890947837766342
42
2.51218450288066
0
ELLIPSE
5
1A8
100
AcDbEntity
8
1
62
256
6
ByLayer
370
13
48
1
60
0
100
AcDbEllipse
10
40.574206
20
7.461545
30
0
11
0.118767181148129
21
0.275489304115654
31
0
210
0
220
0
230
1
40
0.049894
41
-1.70125003371275
42
-0.923391079169384
0
ELLIPSE
5
1A9
100
AcDbEntity
8
1
62
256
6
ByLayer
370
13
48
1
60
0
100
AcDbEllipse
10
35.174015
20
9.767018
30
0
11
0.345864892193433
21
0.009287168830443
31
0
210
0
220
0
230
-1
40
0.281017
41
-0.107750575246071
42
-0.0898579002573466
0
ELLIPSE
5
1AA
100
AcDbEntity
8
1
62
256
6
ByLayer
370
13
48
1
60
0
100
AcDbEllipse
10
37.741163
20
17.861414
30
0
11
0.344639185796605
21
-5.75192269792276
31
0
210
0
220
0
230
-1
40
0.642112
41
0.0235325486453671
42
0.0384545713178951
0
ELLIPSE
5
1AB
100
AcDbEntity
8
1
62
256
6
ByLayer
370
13
48
1
60
0
100
AcDbEllipse
10
40.470915
20
7.853217
30
0
11
-0.0899306066058339
21
-0.217111690140137
31
0
210
0
220
0
230
1
40
0.014373
41
-2.20853463899736
42
-0.917239260871491
0
ELLIPSE
5
1AC
100
AcDbEntity
8
1
62
256
6
ByLayer
370
13
48
1
60
0
100
AcDbEllipse
10
37.963502
20
11.418788
30
0
11
0.0529878747025714
21
-0.244320046526077
31
0
210
0
220
0
230
1
40
0.175101
41
0.631471524212799
42
2.25001281646631
0
ELLIPSE
5
1AD
100
AcDbEntity
8
1
62
256
6
ByLayer
370
13
48
1
60
0
100
AcDbEllipse
10
40.605777
20
7.797356
30
0
11
-0.0899306066058339
21
-0.217111690140137
31
0
210
0
220
0
230
1
40
0.039297
41
-2.27158968838202
42
-0.924794340867736
0
ELLIPSE
5
1AE
100
AcDbEntity
8
1
62
256
6
ByLayer
370
13
48
1
60
0
100
AcDbEllipse
10
40.361939
20
7.547129
30
0
11
0.105601103523929
21
0.280799584997073
31
0
210
0
220
0
230
1
40
0.043644
41
-1.70346389303243
42
-0.920136676458067
0
ELLIPSE
5
1AF
100
AcDbEntity
8
1
62
256
6
ByLayer
370
18
48
1
60
0
100
AcDbEllipse
10
39.991545
20
7.557777
30
0
11
-0.013866953629843
21
0.299679341291701
31
0
210
0
220
0
230
1
40
0.012613
41
0.882791170743448
42
1.70985548777358
0
ELLIPSE
5
1B0
100
AcDbEntity
8
1
62
256
6
ByLayer
370
13
48
1
60
0
100
AcDbEllipse
10
32.339267
20
10.40428
30
0
11
3.760626133638
21
-0.156928203707612
31
0
210
0
220
0
230
-1
40
0.797045
41
-0.131108932550594
42
0.135947180757034
0
ELLIPSE
5
1B1
100
AcDbEntity
8
1
62
256
6
ByLayer
370
13
48
1
60
0
100
AcDbEllipse
10
40.89423
20
11.857266
30
0
11
-0.262871624734014
21
-0.144563165812386
31
0
210
0
220
0
230
1
40
0.067569
41
1.13015027082407
42
1.693049492504
0
ELLIPSE
5
1B2
100
AcDbEntity
8
1
62
256
6
ByLayer
370
13
48
1
60
0
100
AcDbEllipse
10
40.130757
20
7.821565
30
0
11
0.406104986473482
21
-0.689259559209281
31
0
210
0
220
0
230
1
40
0.263572
41
2.03984353263865
42
2.24378586749483
0
ELLIPSE
5
1B3
100
AcDbEntity
8
1
62
256
6
ByLayer
370
13
48
1
60
0
100
AcDbEllipse
10
40.550304
20
12.528227
30
0
11
0.117276566594167
21
-0.276127157171988
31
0
210
0
220
0
230
1
40
0.049186
41
0.924422877111381
42
1.70151777506379
0
ELLIPSE
5
1B4
100
AcDbEntity
8
1
62
256
6
ByLayer
370
13
48
1
60
0
100
AcDbEllipse
10
40.560835
20
12.184029
30
0
11
0.0899306066058329
21
-0.217111690140137
31
0
210
0
220
0
230
1
40
0.03099
41
-2.21833307778567
42
-0.899115582397353
0
ELLIPSE
5
1B5
100
AcDbEntity
8
1
62
256
6
ByLayer
370
13
48
1
60
0
100
AcDbEllipse
10
35.947622
20
12.597417
30
0
11
0.00483844822814666
21
-0.0998828785064965
31
0
210
0
220
0
230
1
40
0.94066
41
-1.61633154987523
42
-1.5238061795308
0
ELLIPSE
5
1B6
100
AcDbEntity
8
1
62
256
6
ByLayer
370
13
48
1
60
0
100
AcDbEllipse
10
35.947964
20
12.597452
30
0
11
0.0153951441717045
21
-0.0988078414698572
31
0
210
0
220
0
230
1
40
0.939477
41
-1.71614304943587
42
-1.62380369408988
0
ELLIPSE
5
1B7
100
AcDbEntity
8
1
62
256
6
ByLayer
370
13
48
1
60
0
100
AcDbEllipse
10
40.403323
20
8.190215
30
0
11
0.103782519273386
21
0.227440516824222
31
0
210
0
220
0
230
1
40
0.182089
41
-2.22964659898248
42
-1.25235130973787
0
ELLIPSE
5
1B8
100
AcDbEntity
8
1
62
256
6
ByLayer
370
18
48
1
60
0
100
AcDbEllipse
10
40.065462
20
12.101089
30
0
11
-0.00499237806306121
21
-0.234946964571317
31
0
210
0
220
0
230
1
40
0.044987
41
0.565584526892266
42
2.25067584245403
0
ELLIPSE
5
1B9
100
AcDbEntity
8
1
62
256
6
ByLayer
370
13
48
1
60
0
100
AcDbEllipse
10
40.340792
20
7.555027
30
0
11
0.1043319672617
21
0.281273604533564
31
0
210
0
220
0
230
1
40
0.043042
41
-1.70365962724727
42
-0.918316256071582
0
ELLIPSE
5
1BA
100
AcDbEntity
8
1
62
256
6
ByLayer
370
13
48
1
60
0
100
AcDbEllipse
10
35.443521
20
10.660209
30
0
11
0.205122688975601
21
-2.7267753747238
31
0
210
0
220
0
230
-1
40
0.046428
41
0.0223265000890472
42
0.0393700409687192
0
ELLIPSE
5
1BB
100
AcDbEntity
8
1
62
256
6
ByLayer
370
13
48
1
60
0
100
AcDbEllipse
10
40.139712
20
11.692623
30
0
11
0.00228673853630558
21
-0.24998954143497
31
0
210
0
220
0
230
1
40
0.004846
41
-2.56664571164823
42
-2.05947557307836
0
ELLIPSE
5
1BC
100
AcDbEntity
8
1
62
256
6
ByLayer
370
13
48
1
60
0
100
AcDbEllipse
10
37.513609
20
-40.08127
30
0
11
0.327008894791045
21
116.109314432769
31
0
210
0
220
0
230
-1
40
0.008137
41
-1.10694726627717
42
-1.09894132747639
0
ELLIPSE
5
1BD
100
AcDbEntity
8
1
62
256
6
ByLayer
370
13
48
1
60
0
100
AcDbEllipse
10
40.446088
20
12.485402
30
0
11
0.110763749558749
21
-0.278803500307451
31
0
210
0
220
0
230
1
40
0.046094
41
0.924741031349673
42
1.70263600896281
0
ELLIPSE
5
1BE
100
AcDbEntity
8
1
62
256
6
ByLayer
370
13
48
1
60
0
100
AcDbEllipse
10
40.55995
20
11.65
30
0
11
7.55834633536984E-17
21
0.266820171216205
31
0
210
0
220
0
230
1
40
0.990268
41
-1.06386039500116
42
-0.848984286902952
0
ELLIPSE
5
1BF
100
AcDbEntity
8
1
62
256
6
ByLayer
370
18
48
1
60
0
100
AcDbEllipse
10
39.991545
20
12.442223
30
0
11
-0.0138669536298432
21
-0.299679341291701
31
0
210
0
220
0
230
1
40
0.012613
41
-1.70985548777366
42
-0.882791170743485
0
ELLIPSE
5
1C0
100
AcDbEntity
8
1
62
256
6
ByLayer
370
18
48
1
60
0
100
AcDbEllipse
10
40.077746
20
12.207545
30
0
11
-0.362647687601748
21
-0.713082502012989
31
0
210
0
220
0
230
1
40
0.239608
41
0.880837353060389
42
1.11283410778354
0
ELLIPSE
5
1C1
100
AcDbEntity
8
1
62
256
6
ByLayer
370
13
48
1
60
0
100
AcDbEllipse
10
40.133955
20
11.692564
30
0
11
-0.00289456120255294
21
0.24998324246926
31
0
210
0
220
0
230
1
40
0.002229
41
0.574211841262726
42
1.08680029695571
0
ELLIPSE
5
1C2
100
AcDbEntity
8
1
62
256
6
ByLayer
370
13
48
1
60
0
100
AcDbEllipse
10
40.467017
20
12.493773
30
0
11
0.112067087850255
21
-0.278282173020054
31
0
210
0
220
0
230
1
40
0.046712
41
0.925218310353683
42
1.70241888252953
0
ELLIPSE
5
1C3
100
AcDbEntity
8
1
62
256
6
ByLayer
370
13
48
1
60
0
100
AcDbEllipse
10
40.855291
20
8.09887
30
0
11
0.132396805980949
21
0.26920454261777
31
0
210
0
220
0
230
1
40
0.125123
41
-2.33894522468221
42
-1.66191072600529
0
ELLIPSE
5
1C4
100
AcDbEntity
8
1
62
256
6
ByLayer
370
13
48
1
60
0
100
AcDbEllipse
10
40.820137
20
11.883708
30
0
11
0.134024145956209
21
-0.268398078049581
31
0
210
0
220
0
230
1
40
0.124754
41
2.31208130153983
42
2.3455733235543
0
ELLIPSE
5
1C5
100
AcDbEntity
8
1
62
256
6
ByLayer
370
13
48
1
60
0
100
AcDbEllipse
10
32.208509
20
10.409102
30
0
11
4.13619299643894
21
-0.172201992079969
31
0
210
0
220
0
230
-1
40
0.8213
41
-0.131063315737601
42
0.135992797542201
0
ELLIPSE
5
1C6
100
AcDbEntity
8
1
62
256
6
ByLayer
370
13
48
1
60
0
100
AcDbEllipse
10
35.664054
20
12.60451
30
0
11
0.0043593731367285
21
0.0999049341416868
31
0
210
0
220
0
230
1
40
0.356721
41
1.58636065336277
42
1.90507916135075
0
ELLIPSE
5
1C7
100
AcDbEntity
8
1
62
256
6
ByLayer
370
13
48
1
60
0
100
AcDbEllipse
10
40.80917
20
8.084032
30
0
11
0.00345677215695895
21
0.249976100310119
31
0
210
0
220
0
230
1
40
0.276293
41
1.21207107964997
42
2.27599777500414
0
ELLIPSE
5
1C8
100
AcDbEntity
8
1
62
256
6
ByLayer
370
13
48
1
60
0
100
AcDbEllipse
10
40.211235
20
12.097991
30
0
11
-0.00499237806306121
21
-0.234946964571317
31
0
210
0
220
0
230
1
40
0.036371
41
0.671192421754572
42
2.23704311967544
0
ELLIPSE
5
1C9
100
AcDbEntity
8
1
62
256
6
ByLayer
370
13
48
1
60
0
100
AcDbEllipse
10
37.963502
20
8.581212
30
0
11
-0.0529878747025718
21
-0.244320046526077
31
0
210
0
220
0
230
1
40
0.175101
41
0.891579837123603
42
2.51012112937699
0
ELLIPSE
5
1CA
100
AcDbEntity
8
1
62
256
6
ByLayer
370
13
48
1
60
0
100
AcDbEllipse
10
38.461758
20
8.297474
30
0
11
-0.137285194661642
21
-0.20893246594705
31
0
210
0
220
0
230
1
40
0.30784
41
0.93229118392939
42
2.55535500757814
0
ELLIPSE
5
1CB
100
AcDbEntity
8
1
62
256
6
ByLayer
370
18
48
1
60
0
100
AcDbEllipse
10
40.842159
20
11.911632
30
0
11
-0.0510447664513676
21
-0.244733389258444
31
0
210
0
220
0
230
1
40
0.099036
41
-1.88918250016545
42
-1.31086871070252
0
ELLIPSE
5
1CC
100
AcDbEntity
8
1
62
256
6
ByLayer
370
13
48
1
60
0
100
AcDbEllipse
10
39.742056
20
7.551462
30
0
11
0.00519550953083376
21
0.299955007760689
31
0
210
0
220
0
230
1
40
0.003698
41
0.877205604775717
42
1.71037401282089
0
ELLIPSE
5
1CD
100
AcDbEntity
8
1
62
256
6
ByLayer
370
13
48
1
60
0
100
AcDbEllipse
10
39.746459
20
7.893463
30
0
11
-0.00447096586681541
21
-0.234957465223427
31
0
210
0
220
0
230
1
40
0.005117
41
0.877213129616422
42
2.6279945758558
0
ELLIPSE
5
1CE
100
AcDbEntity
8
1
62
256
6
ByLayer
370
13
48
1
60
0
100
AcDbEllipse
10
40.872621
20
7.686825
30
0
11
-0.0899306066058339
21
-0.217111690140137
31
0
210
0
220
0
230
1
40
0.023767
41
-2.30965349382465
42
-0.924517454079012
0
ELLIPSE
5
1CF
100
AcDbEntity
8
1
62
256
6
ByLayer
370
13
48
1
60
0
100
AcDbEllipse
10
37.102364
20
7.888621
30
0
11
0.402794909932265
21
-0.90889030875845
31
0
210
0
220
0
230
-1
40
0.67364
41
2.16439471830639
42
-3.12042301005586
0
ELLIPSE
5
1D0
100
AcDbEntity
8
1
62
256
6
ByLayer
370
13
48
1
60
0
100
AcDbEllipse
10
39.000621
20
7.646682
30
0
11
0.0500443814824905
21
0.295796483890588
31
0
210
0
220
0
230
1
40
0.017375
41
-1.70934426454241
42
-0.869658159301418
0
ELLIPSE
5
1D1
100
AcDbEntity
8
1
62
256
6
ByLayer
370
13
48
1
60
0
100
AcDbEllipse
10
38.477052
20
10
30
0
11
-2.93905524917371E-16
21
-1.6
31
0
210
0
220
0
230
1
40
0.422618
41
-2.44724030693222
42
-0.694352346657571
0
ELLIPSE
5
1D2
100
AcDbEntity
8
1
62
256
6
ByLayer
370
13
48
1
60
0
100
AcDbEllipse
10
35.459247
20
7.928012
30
0
11
-0.00390416090988999
21
-0.0999237585741734
31
0
210
0
220
0
230
1
40
0.35382
41
-1.9068881972531
42
-1.5569729485277
0
ELLIPSE
5
1D3
100
AcDbEntity
8
1
62
256
6
ByLayer
370
13
48
1
60
0
100
AcDbEllipse
10
40.858874
20
8.092038
30
0
11
-0.056160651612944
21
0.243610306043093
31
0
210
0
220
0
230
1
40
0.039575
41
-1.72059995358692
42
-1.48382354045494
0
ELLIPSE
5
1D4
100
AcDbEntity
8
1
62
256
6
ByLayer
370
13
48
1
60
0
100
AcDbEllipse
10
40.806257
20
8.084109
30
0
11
-0.00968368446710927
21
-0.249812382109337
31
0
210
0
220
0
230
1
40
0.280676
41
-1.92258177953869
42
-0.830647242164967
0
ELLIPSE
5
1D5
100
AcDbEntity
8
1
62
256
6
ByLayer
370
13
48
1
60
0
100
AcDbEllipse
10
40.68857
20
11.904725
30
0
11
0.0394934195426455
21
-0.246860830859877
31
0
210
0
220
0
230
1
40
0.153624
41
-2.24195121628886
42
-1.24435647276182
0
ELLIPSE
5
1D6
100
AcDbEntity
8
1
62
256
6
ByLayer
370
13
48
1
60
0
100
AcDbEllipse
10
35.938426
20
12.595631
30
0
11
-0.0563490330813293
21
0.0826122658616701
31
0
210
0
220
0
230
1
40
0.916602
41
1.01204912496694
42
1.11490842031366
0
ELLIPSE
5
1D7
100
AcDbEntity
8
1
62
256
6
ByLayer
370
13
48
1
60
0
100
AcDbEllipse
10
37.51387
20
8.921828
30
0
11
1.34155703186359E-16
21
0.834227514817903
31
0
210
0
220
0
230
-1
40
0.8391
41
3.14159265358979
42
-2.35619449019331
0
ELLIPSE
5
1D8
100
AcDbEntity
8
1
62
256
6
ByLayer
370
18
48
1
60
0
100
AcDbEllipse
10
37.51387
20
7.212274
30
0
11
0.995952054818727
21
-0.593314426146735
31
0
210
0
220
0
230
-1
40
0.151498
41
-2.00950802533526
42
-1.66080387097507
0
ELLIPSE
5
1D9
100
AcDbEntity
8
1
62
256
6
ByLayer
370
13
48
1
60
0
100
AcDbEllipse
10
40.34359
20
7.891099
30
0
11
-0.0433820246205716
21
-0.23096103554457
31
0
210
0
220
0
230
1
40
0.009251
41
0.913204487933376
42
2.25089444213073
0
ELLIPSE
5
1DA
100
AcDbEntity
8
1
62
256
6
ByLayer
370
13
48
1
60
0
100
AcDbEllipse
10
40.735752
20
8.08906
30
0
11
0.0260848624412863
21
0.248635435832102
31
0
210
0
220
0
230
1
40
0.202726
41
1.23475707827814
42
2.26578914035562
0
ELLIPSE
5
1DB
100
AcDbEntity
8
1
62
256
6
ByLayer
370
13
48
1
60
0
100
AcDbEllipse
10
40.383043
20
12.460863
30
0
11
0.106880627283451
21
-0.280315057589663
31
0
210
0
220
0
230
1
40
0.044251
41
0.921690500707324
42
1.70326346286857
0
ELLIPSE
5
1DC
100
AcDbEntity
8
1
62
256
6
ByLayer
370
13
48
1
60
0
100
AcDbEllipse
10
35.404593
20
9.919975
30
0
11
-0.369650414171165
21
0.0160801524584188
31
0
210
0
220
0
230
1
40
0.365917
41
1.89734175800279
42
2.76877998113447
0
ELLIPSE
5
1DD
100
AcDbEntity
8
1
62
256
6
ByLayer
370
13
48
1
60
0
100
AcDbEllipse
10
40.586137
20
12.543618
30
0
11
0.119508742261721
21
-0.275168422103666
31
0
210
0
220
0
230
1
40
0.050246
41
0.92274113365912
42
1.70111517605507
0
ELLIPSE
5
1DE
100
AcDbEntity
8
1
62
256
6
ByLayer
370
13
48
1
60
0
100
AcDbEllipse
10
39.812513
20
7.893537
30
0
11
0.00499237806306674
21
-0.234946964571316
31
0
210
0
220
0
230
1
40
0.013375
41
0.877457472673986
42
2.62117537190197
0
ELLIPSE
5
1DF
100
AcDbEntity
8
1
62
256
6
ByLayer
370
13
48
1
60
0
100
AcDbEllipse
10
40.711999
20
11.908136
30
0
11
0.0326055930734814
21
-0.247864630999113
31
0
210
0
220
0
230
1
40
0.177743
41
-2.25313765155556
42
-1.23974820972081
0
ELLIPSE
5
1E0
100
AcDbEntity
8
1
62
256
6
ByLayer
370
18
48
1
60
0
100
AcDbEllipse
10
40.068454
20
11.691459
30
0
11
-0.00534900856196131
21
0.249942769664185
31
0
210
0
220
0
230
1
40
0.022232
41
-1.05731978299074
42
-0.565098731434368
0
ELLIPSE
5
1E1
100
AcDbEntity
8
1
62
256
6
ByLayer
370
13
48
1
60
0
100
AcDbEllipse
10
32.051408
20
10.416848
30
0
11
3.57049792202144
21
-0.155891382140642
31
0
210
0
220
0
230
-1
40
0.839424
41
-0.00745692951149589
42
0.0074568937447066
0
ELLIPSE
5
1E2
100
AcDbEntity
8
1
62
256
6
ByLayer
370
13
48
1
60
0
100
AcDbEllipse
10
40.605777
20
12.202644
30
0
11
0.0899306066058329
21
-0.217111690140137
31
0
210
0
220
0
230
1
40
0.039297
41
-2.21679831272234
42
-0.870002965207046
0
ELLIPSE
5
1E3
100
AcDbEntity
8
1
62
256
6
ByLayer
370
13
48
1
60
0
100
AcDbEllipse
10
37.741165
20
17.861356
30
0
11
0.356159250542928
21
-5.94415276535908
31
0
210
0
220
0
230
-1
40
0.671722
41
0.0235329091137035
42
0.0384550051506336
0
ELLIPSE
5
1E4
100
AcDbEntity
8
1
62
256
6
ByLayer
370
13
48
1
60
0
100
AcDbEllipse
10
40.233553
20
7.571757
30
0
11
-0.0151949034090729
21
0.299614944404295
31
0
210
0
220
0
230
1
40
0.013233
41
0.903819571922248
42
1.709798217507
0
ELLIPSE
5
1E5
100
AcDbEntity
8
1
62
256
6
ByLayer
370
13
48
1
60
0
100
AcDbEllipse
10
40.747386
20
7.738699
30
0
11
-0.0899306066058339
21
-0.217111690140137
31
0
210
0
220
0
230
1
40
0.065482
41
-2.34285123273673
42
-0.92314658164654
0
ELLIPSE
5
1E6
100
AcDbEntity
8
1
62
256
6
ByLayer
370
13
48
1
60
0
100
AcDbEllipse
10
37.51387
20
8.728992
30
0
11
1.00000000000194
21
1.01063905508432E-15
31
0
210
0
220
0
230
-1
40
0.834228
41
1.5707963267949
42
2.35619449019078
0
ELLIPSE
5
1E7
100
AcDbEntity
8
1
62
256
6
ByLayer
370
13
48
1
60
0
100
AcDbEllipse
10
40.843567
20
8.104651
30
0
11
0.132947745885417
21
0.268932885426804
31
0
210
0
220
0
230
1
40
0.124999
41
-2.34107127194188
42
-1.88010686407283
0
ELLIPSE
5
1E8
100
AcDbEntity
8
1
62
256
6
ByLayer
370
13
48
1
60
0
100
AcDbEllipse
10
40.133955
20
8.307436
30
0
11
0.00289456120255303
21
0.24998324246926
31
0
210
0
220
0
230
1
40
0.002229
41
2.0547923566404
42
2.56738081232711
0
ELLIPSE
5
1E9
100
AcDbEntity
8
1
62
256
6
ByLayer
370
13
48
1
60
0
100
AcDbEllipse
10
40.529545
20
12.519468
30
0
11
0.115978334944685
21
-0.276674946143409
31
0
210
0
220
0
230
1
40
0.04857
41
0.925027091315106
42
1.70174734995696
0
ELLIPSE
5
1EA
100
AcDbEntity
8
1
62
256
6
ByLayer
370
13
48
1
60
0
100
AcDbEllipse
10
39.058631
20
12.363132
30
0
11
0.0500443814824902
21
-0.295796483890588
31
0
210
0
220
0
230
1
40
0.017375
41
0.869658159300453
42
1.70934426454269
0
ELLIPSE
5
1EB
100
AcDbEntity
8
1
62
256
6
ByLayer
370
13
48
1
60
0
100
AcDbEllipse
10
40.583308
20
7.806663
30
0
11
-0.0899306066058339
21
-0.217111690140137
31
0
210
0
220
0
230
1
40
0.035144
41
-2.25600614970404
42
-0.924150504891924
0
ELLIPSE
5
1EC
100
AcDbEntity
8
1
62
256
6
ByLayer
370
13
48
1
60
0
100
AcDbEllipse
10
35.404213
20
9.91207
30
0
11
-0.369490334537762
21
0.019413724093346
31
0
210
0
220
0
230
1
40
0.345678
41
1.90266038203144
42
2.771989694316
0
ELLIPSE
5
1ED
100
AcDbEntity
8
1
62
256
6
ByLayer
370
13
48
1
60
0
100
AcDbEllipse
10
40.487902
20
7.497759
30
0
11
0.113371794893701
21
0.277753192821578
31
0
210
0
220
0
230
1
40
0.047332
41
-1.7021982125462
42
-0.925425085715692
0
ELLIPSE
5
1EE
100
AcDbEntity
8
1
62
256
6
ByLayer
370
18
48
1
60
0
100
AcDbEllipse
10
40.09132
20
12.436969
30
0
11
-0.0177069718269793
21
-0.299476982669317
31
0
210
0
220
0
230
1
40
0.014405
41
-1.70968232676469
42
-0.88979355520867
0
ELLIPSE
5
1EF
100
AcDbEntity
8
1
62
256
6
ByLayer
370
13
48
1
60
0
100
AcDbEllipse
10
40.211235
20
7.902009
30
0
11
0.00499237806306674
21
-0.234946964571316
31
0
210
0
220
0
230
1
40
0.036371
41
0.904549533914358
42
2.47040023183589
0
ELLIPSE
5
1F0
100
AcDbEntity
8
1
62
256
6
ByLayer
370
13
48
1
60
0
100
AcDbEllipse
10
40.68857
20
8.095275
30
0
11
0.0394934195426455
21
0.246860830859877
31
0
210
0
220
0
230
1
40
0.153624
41
1.24435647276187
42
2.24195121628876
0
ELLIPSE
5
1F1
100
AcDbEntity
8
1
62
256
6
ByLayer
370
13
48
1
60
0
100
AcDbEllipse
10
40.89423
20
8.142734
30
0
11
-0.262871624734014
21
0.144563165812386
31
0
210
0
220
0
230
1
40
0.067569
41
-1.69304949250398
42
-1.13015027082411
0
ELLIPSE
5
1F2
100
AcDbEntity
8
1
62
256
6
ByLayer
370
13
48
1
60
0
100
AcDbEllipse
10
36.535461
20
11.867694
30
0
11
-0.399981409630776
21
0.00385641670177031
31
0
210
0
220
0
230
1
40
0.00942
41
-2.3445580936482
42
-1.23767374889154
0
ELLIPSE
5
1F3
100
AcDbEntity
8
1
62
256
6
ByLayer
370
13
48
1
60
0
100
AcDbEllipse
10
40.673156
20
7.769446
30
0
11
-0.0899306066058339
21
-0.217111690140137
31
0
210
0
220
0
230
1
40
0.051754
41
-2.3309889625158
42
-0.925239625955231
0
ELLIPSE
5
1F4
100
AcDbEntity
8
1
62
256
6
ByLayer
370
13
48
1
60
0
100
AcDbEllipse
10
40.51588
20
12.165408
30
0
11
0.0899306066058329
21
-0.217111690140137
31
0
210
0
220
0
230
1
40
0.022682
41
-2.22085369966958
42
-0.920094327548378
0
ELLIPSE
5
1F5
100
AcDbEntity
8
1
62
256
6
ByLayer
370
13
48
1
60
0
100
AcDbEllipse
10
39.755715
20
11.68421
30
0
11
-0.0127056614243677
21
0.249676923578791
31
0
210
0
220
0
230
1
40
0.051215
41
-0.941351727000553
42
-0.514332093673243
0
ELLIPSE
5
1F6
100
AcDbEntity
8
1
62
256
6
ByLayer
370
13
48
1
60
0
100
AcDbEllipse
10
37.993426
20
11.425303
30
0
11
-0.0534756689485392
21
0.24421374414743
31
0
210
0
220
0
230
1
40
0.167877
41
-2.51534658389215
42
-0.890308587446409
0
ELLIPSE
5
1F7
100
AcDbEntity
8
1
62
256
6
ByLayer
370
13
48
1
60
0
100
AcDbEllipse
10
37.220669
20
11.225016
30
0
11
-0.0739659404668525
21
0.238807536838463
31
0
210
0
220
0
230
1
40
0.240945
41
-2.40854985893663
42
-0.909665121221296
0
ELLIPSE
5
1F8
100
AcDbEntity
8
1
62
256
6
ByLayer
370
13
48
1
60
0
100
AcDbEllipse
10
37.147633
20
11.207923
30
0
11
-0.038653572302684
21
0.246993727345941
31
0
210
0
220
0
230
1
40
0.128659
41
-2.11967593234118
42
-0.882712685318762
0
ELLIPSE
5
1F9
100
AcDbEntity
8
1
62
256
6
ByLayer
370
13
48
1
60
0
100
AcDbEllipse
10
40.819444
20
8.116639
30
0
11
0.134055468310266
21
0.268382434999228
31
0
210
0
220
0
230
1
40
0.124747
41
-2.34571159163288
42
-2.32278739409028
0
ELLIPSE
5
1FA
100
AcDbEntity
8
1
62
256
6
ByLayer
370
13
48
1
60
0
100
AcDbEllipse
10
40.872621
20
12.313175
30
0
11
0.0899306066058329
21
-0.217111690140137
31
0
210
0
220
0
230
1
40
0.023767
41
-2.21707519951064
42
-0.831939159764398
0
ELLIPSE
5
1FB
100
AcDbEntity
8
1
62
256
6
ByLayer
370
18
48
1
60
0
100
AcDbEllipse
10
39.970635
20
7.896897
30
0
11
0.00499237806306674
21
-0.234946964571316
31
0
210
0
220
0
230
1
40
0.033136
41
0.883362979815617
42
2.59377554924587
0
ELLIPSE
5
1FC
100
AcDbEntity
8
1
62
256
6
ByLayer
370
18
48
1
60
0
100
AcDbEllipse
10
36.229712
20
12.690428
30
0
11
0.400005513209423
21
-1.05668829707082E-07
31
0
210
0
220
0
230
-1
40
0.017452
41
-2.79579394867328
42
-1.90383191378067
0
ELLIPSE
5
1FD
100
AcDbEntity
8
1
62
256
6
ByLayer
370
13
48
1
60
0
100
AcDbEllipse
10
39.746459
20
12.106537
30
0
11
0.00447096586681512
21
-0.234957465223427
31
0
210
0
220
0
230
1
40
0.005117
41
0.513598077733189
42
2.26437952396979
0
ELLIPSE
5
1FE
100
AcDbEntity
8
1
62
256
6
ByLayer
370
13
48
1
60
0
100
AcDbEllipse
10
37.165146
20
8.792409
30
0
11
0.0757575335716764
21
0.238245243619125
31
0
210
0
220
0
230
1
40
0.246431
41
-2.23009715599554
42
-0.740918981203093
0
ELLIPSE
5
1FF
100
AcDbEntity
8
1
62
256
6
ByLayer
370
13
48
1
60
0
100
AcDbEllipse
10
35.735308
20
7.917295
30
0
11
0.0363302075121997
21
0.0931671402486977
31
0
210
0
220
0
230
1
40
0.933385
41
1.73856502012534
42
1.91986214317323
0
ELLIPSE
5
200
100
AcDbEntity
8
1
62
256
6
ByLayer
370
13
48
1
60
0
100
AcDbEllipse
10
40.820137
20
8.116292
30
0
11
0.134024145956209
21
0.268398078049581
31
0
210
0
220
0
230
1
40
0.124754
41
-2.34557332355452
42
-2.31208130153983
0
ELLIPSE
5
201
100
AcDbEntity
8
1
62
256
6
ByLayer
370
13
48
1
60
0
100
AcDbEllipse
10
40.128653
20
7.900254
30
0
11
0.00499237806306674
21
-0.234946964571316
31
0
210
0
220
0
230
1
40
0.052884
41
0.897661890523665
42
2.56647562974284
0
ELLIPSE
5
202
100
AcDbEntity
8
1
62
256
6
ByLayer
370
13
48
1
60
0
100
AcDbEllipse
10
40.739947
20
12.606953
30
0
11
0.10717027546784
21
-0.280204446888602
31
0
210
0
220
0
230
1
40
0.044389
41
0.925451135842615
42
1.70321765827842
0
ELLIPSE
5
203
100
AcDbEntity
8
1
62
256
6
ByLayer
370
13
48
1
60
0
100
AcDbEllipse
10
40.287075
20
7.568997
30
0
11
0.0459291010665791
21
0.296463349632321
31
0
210
0
220
0
230
1
40
0.015436
41
-1.70957224955149
42
-0.913303379112738
0
ELLIPSE
5
204
100
AcDbEntity
8
1
62
256
6
ByLayer
370
13
48
1
60
0
100
AcDbEllipse
10
41.2988
20
12.724586
30
0
11
-0.02085547871427
21
-0.299274203712246
31
0
210
0
220
0
230
1
40
0.00977
41
-1.71008266168554
42
-1.09562978035114
0
ELLIPSE
5
205
100
AcDbEntity
8
1
62
256
6
ByLayer
370
18
48
1
60
0
100
AcDbEllipse
10
40.09132
20
7.563031
30
0
11
-0.0177069718269793
21
0.299476982669317
31
0
210
0
220
0
230
1
40
0.014405
41
0.889793555207675
42
1.70968232676462
0
ELLIPSE
5
206
100
AcDbEntity
8
1
62
256
6
ByLayer
370
13
48
1
60
0
100
AcDbEllipse
10
40.10116
20
8.381256
30
0
11
0.250409779815234
21
0.165211810028478
31
0
210
0
220
0
230
1
40
0.454891
41
-1.83148491600698
42
-1.02561154099095
0
ELLIPSE
5
207
100
AcDbEntity
8
1
62
256
6
ByLayer
370
13
48
1
60
0
100
AcDbEllipse
10
38.232377
20
8.463159
30
0
11
0.155796455764522
21
0.195518450206658
31
0
210
0
220
0
230
1
40
0.413181
41
-2.14147032711357
42
-0.530963031290771
0
ELLIPSE
5
208
100
AcDbEntity
8
1
62
256
6
ByLayer
370
13
48
1
60
0
100
AcDbEllipse
10
35.435138
20
10.619581
30
0
11
-0.369645260375742
21
0.0161981937804868
31
0
210
0
220
0
230
1
40
0.365917
41
-2.76877998113442
42
-1.89734175800276
0
ELLIPSE
5
209
100
AcDbEntity
8
1
62
256
6
ByLayer
370
13
48
1
60
0
100
AcDbEllipse
10
37.104019
20
8.807654
30
0
11
-0.0442878181466796
21
-0.246045908650818
31
0
210
0
220
0
230
1
40
0.147032
41
0.885863427562806
42
2.15200844327434
0
ELLIPSE
5
20A
100
AcDbEntity
8
1
62
256
6
ByLayer
370
13
48
1
60
0
100
AcDbEllipse
10
40.576244
20
8.122139
30
0
11
0.0776666401258247
21
0.237629739324786
31
0
210
0
220
0
230
1
40
0.042495
41
1.25937808606092
42
2.20745328197214
0
ELLIPSE
5
20B
100
AcDbEntity
8
1
62
256
6
ByLayer
370
13
48
1
60
0
100
AcDbEllipse
10
40.887844
20
11.108368
30
0
11
-0.265987537766487
21
0.138746638708552
31
0
210
0
220
0
230
1
40
0.561971
41
-1.62125302498979
42
-0.913094258535445
0
ELLIPSE
5
20C
100
AcDbEntity
8
1
62
256
6
ByLayer
370
13
48
1
60
0
100
AcDbEllipse
10
40.562262
20
7.466675
30
0
11
0.11802298671236
21
0.275808945843847
31
0
210
0
220
0
230
1
40
0.049541
41
-1.70138426024314
42
-0.923951733534401
0
ELLIPSE
5
20D
100
AcDbEntity
8
1
62
256
6
ByLayer
370
18
48
1
60
0
100
AcDbEllipse
10
39.970208
20
8.311008
30
0
11
0.00670086137975943
21
0.249910180778553
31
0
210
0
220
0
230
1
40
0.04561
41
-2.59347530934217
42
-2.12714203363611
0
ELLIPSE
5
20E
100
AcDbEntity
8
1
62
256
6
ByLayer
370
13
48
1
60
0
100
AcDbEllipse
10
40.574206
20
12.538455
30
0
11
0.118767181148129
21
-0.275489304115654
31
0
210
0
220
0
230
1
40
0.049894
41
0.923391079169438
42
1.70125003371275
0
ELLIPSE
5
20F
100
AcDbEntity
8
1
62
256
6
ByLayer
370
13
48
1
60
0
100
AcDbEllipse
10
40.425117
20
7.522873
30
0
11
0.109463735293747
21
0.279316470433701
31
0
210
0
220
0
230
1
40
0.045477
41
-1.7028493021993
42
-0.923993572059364
0
ELLIPSE
5
210
100
AcDbEntity
8
1
62
256
6
ByLayer
370
13
48
1
60
0
100
AcDbEllipse
10
35.340214
20
10.179799
30
0
11
-0.293215819714029
21
-0.225664536579034
31
0
210
0
220
0
230
1
40
0.87955
41
1.33567935559299
42
2.34013872623986
0
ELLIPSE
5
211
100
AcDbEntity
8
1
62
256
6
ByLayer
370
13
48
1
60
0
100
AcDbEllipse
10
39.767713
20
7.696249
30
0
11
0.131457030055959
21
-0.789125496514253
31
0
210
0
220
0
230
1
40
0.105545
41
2.19431636330147
42
2.31708489601936
0
ELLIPSE
5
212
100
AcDbEntity
8
1
62
256
6
ByLayer
370
18
48
1
60
0
100
AcDbEllipse
10
40.065462
20
7.898911
30
0
11
0.00499237806306674
21
-0.234946964571316
31
0
210
0
220
0
230
1
40
0.044987
41
0.890916811136281
42
2.57600812669753
0
ELLIPSE
5
213
100
AcDbEntity
8
1
62
256
6
ByLayer
370
13
48
1
60
0
100
AcDbEllipse
10
36.458469
20
10.67751
30
0
11
-0.397240319677026
21
-0.0469055265709112
31
0
210
0
220
0
230
1
40
0.053157
41
-1.24166013851989
42
-0.346338008279385
0
ELLIPSE
5
214
100
AcDbEntity
8
1
62
256
6
ByLayer
370
18
48
1
60
0
100
AcDbEllipse
10
40.825215
20
8.085069
30
0
11
-0.0378646809203704
21
0.247115895763099
31
0
210
0
220
0
230
1
40
0.23743
41
1.16924089839937
42
2.07354271183128
0
ELLIPSE
5
215
100
AcDbEntity
8
1
62
256
6
ByLayer
370
13
48
1
60
0
100
AcDbEllipse
10
40.10116
20
11.618744
30
0
11
0.250409779815235
21
-0.165211810028477
31
0
210
0
220
0
230
1
40
0.454891
41
1.02561154099097
42
1.83148491600698
0
ELLIPSE
5
216
100
AcDbEntity
8
1
62
256
6
ByLayer
370
13
48
1
60
0
100
AcDbEllipse
10
40.695605
20
7.760147
30
0
11
-0.0899306066058339
21
-0.217111690140137
31
0
210
0
220
0
230
1
40
0.055905
41
-2.35194518598728
42
-0.924892321135599
0
ELLIPSE
5
217
100
AcDbEntity
8
1
62
256
6
ByLayer
370
13
48
1
60
0
100
AcDbEllipse
10
41.001815
20
11.976711
30
0
11
-0.144399151291087
21
0.262961755976822
31
0
210
0
220
0
230
1
40
0.122265
41
-1.63783478792556
42
-0.839959943443664
0
ELLIPSE
5
218
100
AcDbEntity
8
1
62
256
6
ByLayer
370
13
48
1
60
0
100
AcDbEllipse
10
39.812513
20
12.106463
30
0
11
-0.00499237806306121
21
-0.234946964571317
31
0
210
0
220
0
230
1
40
0.013375
41
0.520417281689778
42
2.26413518091415
0
ELLIPSE
5
219
100
AcDbEntity
8
1
62
256
6
ByLayer
370
18
48
1
60
0
100
AcDbEllipse
10
40.997981
20
7.634899
30
0
11
-0.0899306066058339
21
-0.217111690140137
31
0
210
0
220
0
230
1
40
0.017962
41
0.942706850531363
42
2.25826657659626
0
ELLIPSE
5
21A
100
AcDbEntity
8
1
62
256
6
ByLayer
370
13
48
1
60
0
100
AcDbEllipse
10
38.461758
20
11.702526
30
0
11
0.137285194661642
21
-0.20893246594705
31
0
210
0
220
0
230
1
40
0.30784
41
0.586237646011653
42
2.20930146966046
0
ELLIPSE
5
21B
100
AcDbEntity
8
1
62
256
6
ByLayer
370
13
48
1
60
0
100
AcDbEllipse
10
40.695605
20
12.239853
30
0
11
0.0899306066058329
21
-0.217111690140137
31
0
210
0
220
0
230
1
40
0.055905
41
-2.21670033245386
42
-0.789647467602491
0
ELLIPSE
5
21C
100
AcDbEntity
8
1
62
256
6
ByLayer
370
13
48
1
60
0
100
AcDbEllipse
10
39.058631
20
7.636868
30
0
11
0.0500443814824905
21
0.295796483890588
31
0
210
0
220
0
230
1
40
0.017375
41
-1.70934426454248
42
-0.869658159301454
0
ELLIPSE
5
21D
100
AcDbEntity
8
1
62
256
6
ByLayer
370
13
48
1
60
0
100
AcDbEllipse
10
40.361939
20
12.452871
30
0
11
0.105601103523929
21
-0.280799584997073
31
0
210
0
220
0
230
1
40
0.043644
41
0.92013667645801
42
1.70346389303243
0
POINT
5
6C
100
AcDbEntity
8
80
62
256
6
ByLayer
370
18
48
1
60
0
100
AcDbPoint
10
0
20
0
30
0
39
0
210
0
220
0
230
1
50
360
0
POINT
5
6E
100
AcDbEntity
8
81
62
256
6
ByLayer
370
18
48
1
60
0
100
AcDbPoint
10
41.5988
20
13
30
0
39
0
210
0
220
0
230
1
50
360
0
SPLINE
5
21E
100
AcDbEntity
8
SK1
62
256
6
ByLayer
370
18
48
1
60
0
100
AcDbSpline
70
4
71
3
72
10
73
6
40
0
40
0
40
0
40
0
40
0.476895808372515
40
0.476895808372515
40
1
40
1
40
1
40
1
41
1
10
-0.0999999999999943
20
12.600391190463
30
0
41
1
10
-0.155906687555273
20
12.6002797534509
30
0
41
1
10
-0.216091977964737
20
12.6002002342238
30
0
41
1
10
-0.349162146411004
20
12.6000812884881
30
0
41
1
10
-0.423150765688064
20
12.6000459484542
30
0
41
1
10
-0.500091172438431
20
12.6000257334054
30
0
0
SPLINE
5
21F
100
AcDbEntity
8
SK1
62
256
6
ByLayer
370
18
48
1
60
0
100
AcDbSpline
70
4
71
3
72
14
73
10
40
0
40
0
40
0
40
0
40
0.312259698363549
40
0.312259698363549
40
0.626254013507716
40
0.626254013507716
40
0.921775909167498
40
0.921775909167498
40
1
40
1
40
1
40
1
41
1
10
-1.22772318076633
20
-11.9638021637074
30
0
41
1
10
-1.12691191262974
20
-11.8638492973924
30
0
41
1
10
-1.01083152014266
20
-11.7763557183186
30
0
41
1
10
-0.767595850199712
20
-11.6386599083221
30
0
41
1
10
-0.637193031411812
20
-11.5869979759265
30
0
41
1
10
-0.396169967621603
20
-11.5227670583598
30
0
41
1
10
-0.281992422160727
20
-11.5069965094968
30
0
41
1
10
-0.153205218482668
20
-11.5006135788319
30
0
41
1
10
-0.126764194613543
20
-11.5
30
0
41
1
10
-0.101200000000006
20
-11.5
30
0
0
SPLINE
5
220
100
AcDbEntity
8
SK1
62
256
6
ByLayer
370
18
48
1
60
0
100
AcDbSpline
70
4
71
3
72
8
73
4
40
0
40
0
40
0
40
0
40
1
40
1
40
1
40
1
41
1
10
-0.500137466171054
20
12.600000245136
30
0
41
1
10
-0.500216701902986
20
12.5998166313838
30
0
41
1
10
-0.294542867020226
20
12.6966987657525
30
0
41
1
10
-0.0999999999991132
20
12.8899932037374
30
0
0
SPLINE
5
221
100
AcDbEntity
8
1
62
256
6
ByLayer
370
18
48
1
60
0
100
AcDbSpline
70
4
71
3
72
32
73
28
40
0
40
0
40
0
40
0
40
0.0765231266491034
40
0.0765231266491034
40
0.153050420705716
40
0.153050420705716
40
0.229512918987843
40
0.229512918987843
40
0.305856470711373
40
0.305856470711373
40
0.382097443388198
40
0.382097443388198
40
0.458287826269519
40
0.458287826269519
40
0.534495365826001
40
0.534495365826001
40
0.610782440492943
40
0.610782440492943
40
0.687185470936061
40
0.687185470936061
40
0.763697865090433
40
0.763697865090433
40
0.840264430945389
40
0.840264430945389
40
0.916797129929455
40
0.916797129929455
40
1
40
1
40
1
40
1
41
1
10
16.3987393388309
20
7.49896990021634
30
0
41
1
10
16.3995199053197
20
7.49632330339634
30
0
41
1
10
16.3925656667789
20
7.49366944474761
30
0
41
1
10
16.3643273464642
20
7.48877623477497
30
0
41
1
10
16.3426519400861
20
7.48646887859303
30
0
41
1
10
16.287789805067
20
7.48248917235216
30
0
41
1
10
16.2538542857578
20
7.48076054481936
30
0
41
1
10
16.1786315915478
20
7.47807978661194
30
0
41
1
10
16.1363170655709
20
7.47708872164711
30
0
41
1
10
16.0493019251679
20
7.47594423577399
30
0
41
1
10
16.0034043211387
20
7.47577354652734
30
0
41
1
10
15.9144110684502
20
7.47625811708656
30
0
41
1
10
15.8700872254607
20
7.47691966495162
30
0
41
1
10
15.789081361636
20
7.47898916866353
30
0
41
1
10
15.7512852966441
20
7.48042639448522
30
0
41
1
10
15.6873184550289
20
7.48390096478079
30
0
41
1
10
15.6602785130522
20
7.485987558049
30
0
41
1
10
15.6205355486019
20
7.49054827537285
30
0
41
1
10
15.607306126196
20
7.49308643575836
30
0
41
1
10
15.5963228707704
20
7.49827800942617
30
0
41
1
10
15.5984392702302
20
7.5010033672614
30
0
41
1
10
15.6175506287211
20
7.50625742817164
30
0
41
1
10
15.6348202110906
20
7.50885818662925
30
0
41
1
10
15.6819216149962
20
7.51354879969864
30
0
41
1
10
15.7123995579585
20
7.51570292408704
30
0
41
1
10
15.7851198551305
20
7.51938559022105
30
0
41
1
10
15.8293501014718
20
7.52090261476613
30
0
41
1
10
15.8756666302454
20
7.5218533396548
30
0
0
SPLINE
5
222
100
AcDbEntity
8
1
62
256
6
ByLayer
370
18
48
1
60
0
100
AcDbSpline
70
4
71
3
72
8
73
4
40
0
40
0
40
0
40
0
40
1
40
1
40
1
40
1
41
1
10
29.0481422020177
20
12.707960024636
30
0
41
1
10
29.0395258062162
20
12.7054188320359
30
0
41
1
10
29.0355650940096
20
12.7029005097849
30
0
41
1
10
29.0363074326729
20
12.7004339884501
30
0
0
SPLINE
5
223
100
AcDbEntity
8
1
62
256
6
ByLayer
370
18
48
1
60
0
100
AcDbSpline
70
4
71
3
72
14
73
10
40
0
40
0
40
0
40
0
40
0.249935919364828
40
0.249935919364828
40
0.499851115452349
40
0.499851115452349
40
0.750054062364753
40
0.750054062364753
40
1
40
1
40
1
40
1
41
1
10
30.426554300477
20
12.8038152876856
30
0
41
1
10
30.2470618445902
20
12.8038152876856
30
0
41
1
10
30.0650968130116
20
12.8023879718181
30
0
41
1
10
29.7263755293683
20
12.7970011492954
30
0
41
1
10
29.5649457800364
20
12.7929714364535
30
0
41
1
10
29.2844298738664
20
12.7831079891003
30
0
41
1
10
29.1615213500316
20
12.7771417919835
30
0
41
1
10
28.971031297798
20
12.7643815989984
30
0
41
1
10
28.9007691633424
20
12.7574176936122
30
0
41
1
10
28.8613023506517
20
12.7505279834657
30
0
0
SPLINE
5
224
100
AcDbEntity
8
1
62
256
6
ByLayer
370
18
48
1
60
0
100
AcDbSpline
70
4
71
3
72
12
73
8
40
0
40
0
40
0
40
0
40
0.220371811235345
40
0.220371811235345
40
0.845886759611584
40
0.845886759611584
40
1
40
1
40
1
40
1
41
1
10
28.8222531146957
20
12.7371163812214
30
0
41
1
10
28.8220860989606
20
12.7347302311377
30
0
41
1
10
28.8256629278223
20
12.7323777990118
30
0
41
1
10
28.8539073420716
20
12.72357659615
30
0
41
1
10
28.9058406862469
20
12.7173669922045
30
0
41
1
10
29.0040861851401
20
12.7105504419829
30
0
41
1
10
29.025324380961
20
12.7092331159903
30
0
41
1
10
29.0481422020177
20
12.707960024636
30
0
0
SPLINE
5
225
100
AcDbEntity
8
1
62
256
6
ByLayer
370
18
48
1
60
0
100
AcDbSpline
70
4
71
3
72
8
73
4
40
0
40
0
40
0
40
0
40
1
40
1
40
1
40
1
41
1
10
25.8564512255849
20
7.73636970287652
30
0
41
1
10
24.057225327785
20
7.88025793791269
30
0
41
1
10
21.7819769061634
20
7.99182668495931
30
0
41
1
10
19.4285751287195
20
7.99182668495931
30
0
0
SPLINE
5
226
100
AcDbEntity
8
1
62
256
6
ByLayer
370
18
48
1
60
0
100
AcDbSpline
70
4
71
3
72
10
73
6
40
0
40
0
40
0
40
0
40
0.5
40
0.5
40
1
40
1
40
1
40
1
41
1
10
21.9896664339032
20
7.35117323360981
30
0
41
1
10
22.0564060414506
20
7.35852089401021
30
0
41
1
10
21.4452634625072
20
7.40677945276201
30
0
41
1
10
19.3347292992903
20
7.49421202399404
30
0
41
1
10
17.853869757647
20
7.5222187311694
30
0
41
1
10
16.4782752990154
20
7.50491185550513
30
0
0
SPLINE
5
227
100
AcDbEntity
8
1
62
256
6
ByLayer
370
18
48
1
60
0
100
AcDbSpline
70
4
71
3
72
8
73
4
40
0
40
0
40
0
40
0
40
1
40
1
40
1
40
1
41
1
10
22.4091925750222
20
7.35107115865125
30
0
41
1
10
22.4024742331349
20
7.35036441520234
30
0
41
1
10
22.405996725797
20
7.35002043391134
30
0
41
1
10
22.4195012833228
20
7.35001960367052
30
0
0
SPLINE
5
228
100
AcDbEntity
8
1
62
256
6
ByLayer
370
18
48
1
60
0
100
AcDbSpline
70
4
71
3
72
14
73
10
40
0
40
0
40
0
40
0
40
0.275988373224256
40
0.275988373224256
40
0.5519850832225
40
0.5519850832225
40
0.827878011061299
40
0.827878011061299
40
1
40
1
40
1
40
1
41
1
10
32.7302753774301
20
12.7584283983586
30
0
41
1
10
32.6693610411126
20
12.7652156932424
30
0
41
1
10
32.5785938883244
20
12.7718997907264
30
0
41
1
10
32.3523306636648
20
12.7837465824099
30
0
41
1
10
32.2137125102323
20
12.7890668061401
30
0
41
1
10
31.9085326382468
20
12.7973782273405
30
0
41
1
10
31.737778686265
20
12.8004796445374
30
0
41
1
10
31.4529604649425
20
12.803265329184
30
0
41
1
10
31.3398279126748
20
12.8038152876856
30
0
41
1
10
31.2273164486077
20
12.8038152876856
30
0
0
SPLINE
5
229
100
AcDbEntity
8
1
62
256
6
ByLayer
370
18
48
1
60
0
100
AcDbSpline
70
4
71
3
72
8
73
4
40
0
40
0
40
0
40
0
40
1
40
1
40
1
40
1
41
1
10
11.8025930601589
20
14.7252357265069
30
0
41
1
10
12.7974435835417
20
14.5854296328152
30
0
41
1
10
13.9566158891964
20
14.4845573676202
30
0
41
1
10
15.2432905300413
20
14.4186391526341
30
0
0
SPLINE
5
22A
100
AcDbEntity
8
1
62
256
6
ByLayer
370
18
48
1
60
0
100
AcDbSpline
70
4
71
3
72
14
73
10
40
0
40
0
40
0
40
0
40
0.243535372344127
40
0.243535372344127
40
0.487052171634539
40
0.487052171634539
40
0.730849577780589
40
0.730849577780589
40
1
40
1
40
1
40
1
41
1
10
16.4782752990154
20
7.50491185550513
30
0
41
1
10
16.4673271393698
20
7.50477411255585
30
0
41
1
10
16.4566240677749
20
7.50452077113604
30
0
41
1
10
16.4374809265989
20
7.50382661297482
30
0
41
1
10
16.4287768564457
20
7.50337630694838
30
0
41
1
10
16.4145290595831
20
7.50234544543605
30
0
41
1
10
16.4087926025667
20
7.50175060750928
30
0
41
1
10
16.4006549971066
20
7.50044011837855
30
0
41
1
10
16.3985250764677
20
7.49969638040372
30
0
41
1
10
16.3987393388309
20
7.49896990021634
30
0
0
SPLINE
5
22B
100
AcDbEntity
8
1
62
256
6
ByLayer
370
18
48
1
60
0
100
AcDbSpline
70
4
71
3
72
10
73
6
40
0
40
0
40
0
40
0
40
0.425996849089332
40
0.425996849089332
40
1
40
1
40
1
40
1
41
1
10
22.3490060967939
20
7.35909631756408
30
0
41
1
10
22.285691426255
20
7.3572564341269
30
0
41
1
10
22.2301783882102
20
7.35563589122498
30
0
41
1
10
22.1200148929805
20
7.35252557923977
30
0
41
1
10
22.0715051510438
20
7.35126184867931
30
0
41
1
10
22.0383943732063
20
7.35058552384837
30
0
0
SPLINE
5
22C
100
AcDbEntity
8
1
62
256
6
ByLayer
370
18
48
1
60
0
100
AcDbSpline
70
4
71
3
72
10
73
6
40
0
40
0
40
0
40
0
40
0.610175896799025
40
0.610175896799025
40
1
40
1
40
1
40
1
41
1
10
21.998083952708
20
7.35001380448961
30
0
41
1
10
21.990323038145
20
7.35000592438365
30
0
41
1
10
21.9862157868456
20
7.35014247824242
30
0
41
1
10
21.9855923920235
20
7.35061760646093
30
0
41
1
10
21.9868695755906
20
7.35086531503154
30
0
41
1
10
21.9896664339032
20
7.35117323360981
30
0
0
SPLINE
5
22D
100
AcDbEntity
8
1
62
256
6
ByLayer
370
18
48
1
60
0
100
AcDbSpline
70
4
71
3
72
10
73
6
40
0
40
0
40
0
40
0
40
0.640256774772423
40
0.640256774772423
40
1
40
1
40
1
40
1
41
1
10
0.317758141296167
20
12.6031740885234
30
0
41
1
10
0.271410862214907
20
12.6021856412819
30
0
41
1
10
0.194561297521318
20
12.6014709392044
30
0
41
1
10
0.0366742587367526
20
12.6007303805671
30
0
41
1
10
-0.0284285420953836
20
12.6005338515608
30
0
41
1
10
-0.0999999999999943
20
12.600391190463
30
0
0
SPLINE
5
22E
100
AcDbEntity
8
1
62
256
6
ByLayer
370
18
48
1
60
0
100
AcDbSpline
70
4
71
3
72
8
73
4
40
0
40
0
40
0
40
0
40
1
40
1
40
1
40
1
41
1
10
25.8564512255849
20
12.7699195504348
30
0
41
1
10
24.8968984030979
20
12.8036060441004
30
0
41
1
10
23.8079981495273
20
12.8338988800872
30
0
41
1
10
22.627810787311
20
12.8543027598636
30
0
0
SPLINE
5
22F
100
AcDbEntity
8
1
62
256
6
ByLayer
370
18
48
1
60
0
100
AcDbSpline
70
4
71
3
72
8
73
4
40
0
40
0
40
0
40
0
40
1
40
1
40
1
40
1
41
1
10
-0.0999999999991132
20
12.8899932037374
30
0
41
1
10
0.068657801998512
20
13.0575686874757
30
0
41
1
10
0.233867466193629
20
13.297805266072
30
0
41
1
10
0.317758141296167
20
13.610889527836
30
0
0
SPLINE
5
230
100
AcDbEntity
8
1
62
256
6
ByLayer
370
18
48
1
60
0
100
AcDbSpline
70
4
71
3
72
8
73
4
40
0
40
0
40
0
40
0
40
1
40
1
40
1
40
1
41
1
10
19.4285751287195
20
12.3549568307479
30
0
41
1
10
20.5041883545909
20
12.5954690835354
30
0
41
1
10
21.5789636492437
20
12.8724359407415
30
0
41
1
10
22.627810787311
20
12.8543027598635
30
0
0
SPLINE
5
231
100
AcDbEntity
8
1
62
256
6
ByLayer
370
18
48
1
60
0
100
AcDbSpline
70
4
71
3
72
10
73
6
40
0
40
0
40
0
40
0
40
0.611481337414948
40
0.611481337414948
40
1
40
1
40
1
40
1
41
1
10
34.4846371970142
20
13.5676978080805
30
0
41
1
10
36.4007102087436
20
13.496328126302
30
0
41
1
10
38.0503272110199
20
13.3707129785421
30
0
41
1
10
39.9399530834554
20
13.1505960838551
30
0
41
1
10
40.4650162612576
20
13.0633283081675
30
0
41
1
10
40.7503127542991
20
12.9840695867588
30
0
0
SPLINE
5
232
100
AcDbEntity
8
1
62
256
6
ByLayer
370
18
48
1
60
0
100
AcDbSpline
70
4
71
3
72
10
73
6
40
0
40
0
40
0
40
0
40
0.5
40
0.5
40
1
40
1
40
1
40
1
41
1
10
15.8756666302454
20
7.5218533396548
30
0
41
1
10
17.4208086489751
20
7.55356998623054
30
0
41
1
10
19.1667654001778
20
7.52887775280189
30
0
41
1
10
21.7305438548377
20
7.42269687274947
30
0
41
1
10
22.4863286876353
20
7.35918557783086
30
0
41
1
10
22.4091925750222
20
7.35107115865125
30
0
0
SPLINE
5
233
100
AcDbEntity
8
1
62
256
6
ByLayer
370
18
48
1
60
0
100
AcDbSpline
70
4
71
3
72
18
73
14
40
0
40
0
40
0
40
0
40
0.108390154564867
40
0.108390154564867
40
0.325431822841604
40
0.325431822841604
40
0.542132392785734
40
0.542132392785734
40
0.757537093122969
40
0.757537093122969
40
0.971349722867184
40
0.971349722867184
40
1
40
1
40
1
40
1
41
1
10
7.99879999999999
20
6.37997038582822
30
0
41
1
10
7.99879999999999
20
6.47098737032096
30
0
41
1
10
8.00650806102561
20
6.56232476410392
30
0
41
1
10
8.05220594018746
20
6.83108123748093
30
0
41
1
10
8.11397244397361
20
7.00734302596157
30
0
41
1
10
8.28999166302776
20
7.32469197707943
30
0
41
1
10
8.40662148373647
20
7.47023696032235
30
0
41
1
10
8.67724115627291
20
7.70994627421001
30
0
41
1
10
8.83477511310636
20
7.80772768308464
30
0
41
1
10
9.16761731567243
20
7.94259337318187
30
0
41
1
10
9.34739603542735
20
7.98197392526686
30
0
41
1
10
9.55032519443066
20
7.99127164099795
30
0
41
1
10
9.57456577042097
20
7.99182668495934
30
0
41
1
10
9.59879999999998
20
7.99182668495934
30
0
0
SPLINE
5
234
100
AcDbEntity
8
1
62
256
6
ByLayer
370
13
48
1
60
0
100
AcDbSpline
70
4
71
3
72
8
73
4
40
0
40
0
40
0
40
0
40
1
40
1
40
1
40
1
41
1
10
39.6610393695503
20
8.17058866268428
30
0
41
1
10
39.6873098870252
20
8.16907493893299
30
0
41
1
10
39.7136382818733
20
8.16834150421448
30
0
41
1
10
39.7399583357063
20
8.16817676647739
30
0
0
SPLINE
5
235
100
AcDbEntity
8
1
62
256
6
ByLayer
370
13
48
1
60
0
100
AcDbSpline
70
4
71
3
72
8
73
4
40
0
40
0
40
0
40
0
40
1
40
1
40
1
40
1
41
1
10
37.3141380276099
20
11.059473518579
30
0
41
1
10
37.5478679220661
20
11.1244802607589
30
0
41
1
10
37.7873096759172
20
11.1797625899426
30
0
41
1
10
38.0315268129396
20
11.2270595496385
30
0
0
SPLINE
5
236
100
AcDbEntity
8
1
62
256
6
ByLayer
370
13
48
1
60
0
100
AcDbSpline
70
4
71
3
72
8
73
4
40
0
40
0
40
0
40
0
40
1
40
1
40
1
40
1
41
1
10
40.7564101156604
20
11.8266205736375
30
0
41
1
10
40.7570339340971
20
11.8265249881795
30
0
41
1
10
40.7576569761846
20
11.8264184897455
30
0
41
1
10
40.7582785615588
20
11.8263003316756
30
0
0
SPLINE
5
237
100
AcDbEntity
8
1
62
256
6
ByLayer
370
13
48
1
60
0
100
AcDbSpline
70
4
71
3
72
8
73
4
40
0
40
0
40
0
40
0
40
1
40
1
40
1
40
1
41
1
10
40.1321151391335
20
11.8088803064771
30
0
41
1
10
40.1116580907964
20
11.8108433548252
30
0
41
1
10
40.09117010743
20
11.8126551019422
30
0
41
1
10
40.0706661171761
20
11.8143364733988
30
0
0
SPLINE
5
238
100
AcDbEntity
8
1
62
256
6
ByLayer
370
18
48
1
60
0
100
AcDbSpline
70
4
71
3
72
8
73
4
40
0
40
0
40
0
40
0
40
1
40
1
40
1
40
1
41
1
10
41.5988
20
11.5876396954675
30
0
41
1
10
41.5988
20
11.5584083370475
30
0
41
1
10
41.5986577899932
20
11.5291582574193
30
0
41
1
10
41.5983702589276
20
11.5
30
0
0
SPLINE
5
239
100
AcDbEntity
8
1
62
256
6
ByLayer
370
13
48
1
60
0
100
AcDbSpline
70
4
71
3
72
10
73
6
40
0
40
0
40
0
40
0
40
0.999171519409532
40
0.999171519409532
40
1
40
1
40
1
40
1
41
1
10
41.5919426058675
20
8.95425437310644
30
0
41
1
10
41.5695019687104
20
8.94648183590817
30
0
41
1
10
41.5470515938477
20
8.93873483067401
30
0
41
1
10
41.5245734717843
20
8.93100547771283
30
0
41
1
10
41.5245548495991
20
8.93099907430474
30
0
41
1
10
41.52453622742
20
8.9309926708795
30
0
0
SPLINE
5
23A
100
AcDbEntity
8
1
62
256
6
ByLayer
370
13
48
1
60
0
100
AcDbSpline
70
4
71
3
72
8
73
4
40
0
40
0
40
0
40
0
40
1
40
1
40
1
40
1
41
1
10
39.7400229965735
20
8.16817636245156
30
0
41
1
10
39.7340695393144
20
8.19310185398348
30
0
41
1
10
39.7281278171246
20
8.21691341218266
30
0
41
1
10
39.7222394395965
20
8.23944428586088
30
0
0
SPLINE
5
23B
100
AcDbEntity
8
1
62
256
6
ByLayer
370
13
48
1
60
0
100
AcDbSpline
70
4
71
3
72
8
73
4
40
0
40
0
40
0
40
0
40
1
40
1
40
1
40
1
41
1
10
41.0580143058028
20
12.2286957994313
30
0
41
1
10
41.0154193694879
20
12.2069538715007
30
0
41
1
10
40.9724969440676
20
12.1858967221701
30
0
41
1
10
40.9293699234432
20
12.1653825379758
30
0
0
SPLINE
5
23C
100
AcDbEntity
8
1
62
256
6
ByLayer
370
13
48
1
60
0
100
AcDbSpline
70
4
71
3
72
8
73
4
40
0
40
0
40
0
40
0
40
1
40
1
40
1
40
1
41
1
10
40.6572451186158
20
12.0599444061886
30
0
41
1
10
40.6495883351677
20
12.0578479609253
30
0
41
1
10
40.6419427768363
20
12.0556984895921
30
0
41
1
10
40.6343109932399
20
12.0534942756316
30
0
0
SPLINE
5
23D
100
AcDbEntity
8
1
62
256
6
ByLayer
370
18
48
1
60
0
100
AcDbSpline
70
4
71
3
72
8
73
4
40
0
40
0
40
0
40
0
40
1
40
1
40
1
40
1
41
1
10
37.4067896362885
20
12.692581602447
30
0
41
1
10
37.4423665312856
20
12.6925147212163
30
0
41
1
10
37.4782508668293
20
12.6940967991366
30
0
41
1
10
37.5138701629494
20
12.6975124997281
30
0
0
SPLINE
5
23E
100
AcDbEntity
8
1
62
256
6
ByLayer
370
13
48
1
60
0
100
AcDbSpline
70
4
71
3
72
10
73
6
40
0
40
0
40
0
40
0
40
0.555264081805622
40
0.555264081805622
40
1
40
1
40
1
40
1
41
1
10
39.8097443135566
20
8.09741254653315
30
0
41
1
10
39.8394842618644
20
8.09762313284367
30
0
41
1
10
39.8692242585479
20
8.09768352659498
30
0
41
1
10
39.9227850573845
20
8.09766205105541
30
0
41
1
10
39.9466061875936
20
8.09760681317218
30
0
41
1
10
39.970427935454
20
8.09754831484574
30
0
0
SPLINE
5
23F
100
AcDbEntity
8
1
62
256
6
ByLayer
370
13
48
1
60
0
100
AcDbSpline
70
4
71
3
72
8
73
4
40
0
40
0
40
0
40
0
40
1
40
1
40
1
40
1
41
1
10
40.6803340464423
20
12.0660994379442
30
0
41
1
10
40.6726276358528
20
12.0640996606679
30
0
41
1
10
40.6649304290162
20
12.0620486642534
30
0
41
1
10
40.6572451186158
20
12.0599444061887
30
0
0
SPLINE
5
240
100
AcDbEntity
8
1
62
256
6
ByLayer
370
13
48
1
60
0
100
AcDbSpline
70
4
71
3
72
10
73
6
40
0
40
0
40
0
40
0
40
0.405280592224665
40
0.405280592224665
40
1
40
1
40
1
40
1
41
1
10
40.3384886118677
20
8.30962267346371
30
0
41
1
10
40.3321611488476
20
8.3177105362077
30
0
41
1
10
40.3260182650202
20
8.32581958930172
30
0
41
1
10
40.3113691188401
20
8.34580810925695
30
0
41
1
10
40.3030806761192
20
8.35770400022074
30
0
41
1
10
40.2952750271792
20
8.36953493913501
30
0
0
SPLINE
5
241
100
AcDbEntity
8
1
62
256
6
ByLayer
370
13
48
1
60
0
100
AcDbSpline
70
4
71
3
72
8
73
4
40
0
40
0
40
0
40
0
40
1
40
1
40
1
40
1
41
1
10
40.3389710352723
20
12.4866852326696
30
0
41
1
10
40.321632963943
20
12.48025407432
30
0
41
1
10
40.3035424676917
20
12.4755482978323
30
0
41
1
10
40.2852533085229
20
12.472714879668
30
0
0
SPLINE
5
242
100
AcDbEntity
8
1
62
256
6
ByLayer
370
13
48
1
60
0
100
AcDbSpline
70
4
71
3
72
14
73
10
40
0
40
0
40
0
40
0
40
0.0506235582344746
40
0.0506235582344746
40
0.270787131414896
40
0.270787131414896
40
0.962251762206852
40
0.962251762206852
40
1
40
1
40
1
40
1
41
1
10
35.5175934629083
20
9.78670345235756
30
0
41
1
10
35.5171135963341
20
9.78785677357871
30
0
41
1
10
35.5165568815568
20
9.78896275629418
30
0
41
1
10
35.5133211510911
20
9.79456478740366
30
0
41
1
10
35.5097255659681
20
9.79832007259478
30
0
41
1
10
35.4940097771278
20
9.8118520937154
30
0
41
1
10
35.4795878917762
20
9.81846949643818
30
0
41
1
10
35.464397039921
20
9.82450856118115
30
0
41
1
10
35.4636080869709
20
9.82481854086478
30
0
41
1
10
35.4628179336235
20
9.82512540470901
30
0
0
SPLINE
5
243
100
AcDbEntity
8
1
62
256
6
ByLayer
370
13
48
1
60
0
100
AcDbSpline
70
4
71
3
72
8
73
4
40
0
40
0
40
0
40
0
40
1
40
1
40
1
40
1
41
1
10
40.1092320378299
20
11.7713871839644
30
0
41
1
10
40.0839737575816
20
11.7287618582542
30
0
41
1
10
40.0664714457117
20
11.6850804977019
30
0
41
1
10
40.0579730137738
20
11.6434227536155
30
0
0
SPLINE
5
244
100
AcDbEntity
8
1
62
256
6
ByLayer
370
13
48
1
60
0
100
AcDbSpline
70
4
71
3
72
8
73
4
40
0
40
0
40
0
40
0
40
1
40
1
40
1
40
1
41
1
10
40.7269803124967
20
7.9224224941575
30
0
41
1
10
40.7339683055008
20
7.92079254191543
30
0
41
1
10
40.740960487636
20
7.91919990955239
30
0
41
1
10
40.7479544982324
20
7.91764241349233
30
0
0
SPLINE
5
245
100
AcDbEntity
8
1
62
256
6
ByLayer
370
13
48
1
60
0
100
AcDbSpline
70
4
71
3
72
8
73
4
40
0
40
0
40
0
40
0
40
1
40
1
40
1
40
1
41
1
10
40.5441177155276
20
12.0245436613819
30
0
41
1
10
40.5367082971913
20
12.0219139592142
30
0
41
1
10
40.5293184819129
20
12.0192262034191
30
0
41
1
10
40.5219502777688
20
12.0164802470461
30
0
0
SPLINE
5
246
100
AcDbEntity
8
1
62
256
6
ByLayer
370
13
48
1
60
0
100
AcDbSpline
70
4
71
3
72
8
73
4
40
0
40
0
40
0
40
0
40
1
40
1
40
1
40
1
41
1
10
38.0315268129396
20
11.2270595496385
30
0
41
1
10
38.0358056113086
20
11.2278882144754
30
0
41
1
10
38.040085724127
20
11.2287181249514
30
0
41
1
10
38.0443671218847
20
11.2295492615224
30
0
0
SPLINE
5
247
100
AcDbEntity
8
1
62
256
6
ByLayer
370
13
48
1
60
0
100
AcDbSpline
70
4
71
3
72
8
73
4
40
0
40
0
40
0
40
0
40
1
40
1
40
1
40
1
41
1
10
40.2317322187786
20
12.4699548519896
30
0
41
1
10
40.2064870341286
20
12.4712351557575
30
0
41
1
10
40.1812526033639
20
12.4727375401815
30
0
41
1
10
40.1560341336389
20
12.4744530074428
30
0
0
SPLINE
5
248
100
AcDbEntity
8
1
62
256
6
ByLayer
370
13
48
1
60
0
100
AcDbSpline
70
4
71
3
72
8
73
4
40
0
40
0
40
0
40
0
40
1
40
1
40
1
40
1
41
1
10
40.5012204932652
20
12.312773058734
30
0
41
1
10
40.5084947817258
20
12.3157175796285
30
0
41
1
10
40.5157658419914
20
12.3186690698782
30
0
41
1
10
40.5230336007821
20
12.3216275381161
30
0
0
SPLINE
5
249
100
AcDbEntity
8
1
62
256
6
ByLayer
370
13
48
1
60
0
100
AcDbSpline
70
4
71
3
72
11
73
7
40
0
40
0
40
0
40
0
40
0.257176923133693
40
0.513609588248167
40
0.770214864775533
40
1
40
1
40
1
40
1
41
1
10
39.2878217302625
20
11.863723895915
30
0
41
1
10
39.2863416189014
20
11.8884266630099
30
0
41
1
10
39.2833856795523
20
11.9377607085438
30
0
41
1
10
39.2774933225244
20
12.0360999434593
30
0
41
1
10
39.2716944151057
20
12.1328907511386
30
0
41
1
10
39.2685121489769
20
12.1859816619661
30
0
41
1
10
39.2670087528674
20
12.2110633696416
30
0
0
SPLINE
5
24A
100
AcDbEntity
8
1
62
256
6
ByLayer
370
18
48
1
60
0
100
AcDbSpline
70
4
71
3
72
8
73
4
40
0
40
0
40
0
40
0
40
1
40
1
40
1
40
1
41
1
10
41.585780127946
20
12.7
30
0
41
1
10
41.5943968193133
20
12.667525325477
30
0
41
1
10
41.5988
20
12.6336202077511
30
0
41
1
10
41.5988
20
12.6
30
0
0
SPLINE
5
24B
100
AcDbEntity
8
1
62
256
6
ByLayer
370
13
48
1
60
0
100
AcDbSpline
70
4
71
3
72
8
73
4
40
0
40
0
40
0
40
0
40
1
40
1
40
1
40
1
41
1
10
40.1092320378387
20
8.22861281603247
30
0
41
1
10
40.1168112341903
20
8.21612488392924
30
0
41
1
10
40.1250650834516
20
8.20366253150652
30
0
41
1
10
40.1338906272079
20
8.19130899687482
30
0
0
SPLINE
5
24C
100
AcDbEntity
8
1
62
256
6
ByLayer
370
13
48
1
60
0
100
AcDbSpline
70
4
71
3
72
8
73
4
40
0
40
0
40
0
40
0
40
1
40
1
40
1
40
1
41
1
10
40.2210385465933
20
7.75694519829432
30
0
41
1
10
40.194511580666
20
7.7560549584569
30
0
41
1
10
40.1679911256233
20
7.75506718522885
30
0
41
1
10
40.1414803174655
20
7.75398538324026
30
0
0
SPLINE
5
24D
100
AcDbEntity
8
1
62
256
6
ByLayer
370
13
48
1
60
0
100
AcDbSpline
70
4
71
3
72
8
73
4
40
0
40
0
40
0
40
0
40
1
40
1
40
1
40
1
41
1
10
40.3384886118677
20
11.6903773265363
30
0
41
1
10
40.380737874527
20
11.7101879304488
30
0
41
1
10
40.4270116293392
20
11.7345583143962
30
0
41
1
10
40.4751488059907
20
11.7565236068311
30
0
0
SPLINE
5
24E
100
AcDbEntity
8
1
62
256
6
ByLayer
370
13
48
1
60
0
100
AcDbSpline
70
4
71
3
72
8
73
4
40
0
40
0
40
0
40
0
40
1
40
1
40
1
40
1
41
1
10
40.0579730137738
20
8.35657724638457
30
0
41
1
10
40.0664714457117
20
8.31491950229812
30
0
41
1
10
40.0839737575816
20
8.27123814174584
30
0
41
1
10
40.1092320378299
20
8.22861281603556
30
0
0
SPLINE
5
24F
100
AcDbEntity
8
1
62
256
6
ByLayer
370
13
48
1
60
0
100
AcDbSpline
70
4
71
3
72
8
73
4
40
0
40
0
40
0
40
0
40
1
40
1
40
1
40
1
41
1
10
39.6747025432335
20
7.51199350018979
30
0
41
1
10
39.6965309752335
20
7.5108761283235
30
0
41
1
10
39.7183815463634
20
7.51012784745296
30
0
41
1
10
39.7402351429146
20
7.50974932212009
30
0
0
SPLINE
5
250
100
AcDbEntity
8
1
62
256
6
ByLayer
370
18
48
1
60
0
100
AcDbSpline
70
4
71
3
72
8
73
4
40
0
40
0
40
0
40
0
40
1
40
1
40
1
40
1
41
1
10
37.9988
20
7.14196204702438
30
0
41
1
10
38.0143887599178
20
7.13727227250016
30
0
41
1
10
38.0306866938357
20
7.13451183067005
30
0
41
1
10
38.0469501043749
20
7.13380127380029
30
0
0
SPLINE
5
251
100
AcDbEntity
8
1
62
256
6
ByLayer
370
18
48
1
60
0
100
AcDbSpline
70
4
71
3
72
12
73
8
40
0
40
0
40
0
40
0
40
0.319492598917537
40
0.319492598917537
40
0.639721012127939
40
0.639721012127939
40
1
40
1
40
1
40
1
41
1
10
41.2988
20
7.01310495793243
30
0
41
1
10
41.3423362608083
20
7.02473500223979
30
0
41
1
10
41.3844643725364
20
7.04405836629229
30
0
41
1
10
41.4591290213913
20
7.09480979111208
30
0
41
1
10
41.4926777650608
20
7.12696102116018
30
0
41
1
10
41.549860437544
20
7.20387767441329
30
0
41
1
10
41.5727349240157
20
7.25108324737718
30
0
41
1
10
41.5857540414901
20
7.30000000000001
30
0
0
SPLINE
5
252
100
AcDbEntity
8
1
62
256
6
ByLayer
370
13
48
1
60
0
100
AcDbSpline
70
4
71
3
72
8
73
4
40
0
40
0
40
0
40
0
40
1
40
1
40
1
40
1
41
1
10
40.5441177155277
20
7.97545633861822
30
0
41
1
10
40.5515378070834
20
7.97282284752214
30
0
41
1
10
40.5589781291824
20
7.97024737470102
30
0
41
1
10
40.5664365699848
20
7.96772946283639
30
0
0
SPLINE
5
253
100
AcDbEntity
8
1
62
256
6
ByLayer
370
18
48
1
60
0
100
AcDbSpline
70
4
71
3
72
14
73
10
40
0
40
0
40
0
40
0
40
0.287858117648573
40
0.287858117648573
40
0.595038451639169
40
0.595038451639169
40
0.902232133585136
40
0.902232133585136
40
1
40
1
40
1
40
1
41
1
10
36.8207543041171
20
12.6973542388116
30
0
41
1
10
36.7905151774559
20
12.6978617737998
30
0
41
1
10
36.7552192550234
20
12.6982903690158
30
0
41
1
10
36.677127541203
20
12.698948540559
30
0
41
1
10
36.6328978973891
20
12.6991715200807
30
0
41
1
10
36.5439277105782
20
12.6993470079998
30
0
41
1
10
36.4979602968088
20
12.6993019253959
30
0
41
1
10
36.4402566536606
20
12.699071643081
30
0
41
1
10
36.4263497019792
20
12.6990021369932
30
0
41
1
10
36.4127183902214
20
12.6989198472646
30
0
0
SPLINE
5
254
100
AcDbEntity
8
1
62
256
6
ByLayer
370
13
48
1
60
0
100
AcDbSpline
70
4
71
3
72
8
73
4
40
0
40
0
40
0
40
0
40
1
40
1
40
1
40
1
41
1
10
39.8234581827827
20
7.51009532738729
30
0
41
1
10
39.8788985030963
20
7.51151692500397
30
0
41
1
10
39.9343267103992
20
7.51350139886574
30
0
41
1
10
39.9897241904585
20
7.51606478639746
30
0
0
SPLINE
5
255
100
AcDbEntity
8
1
62
256
6
ByLayer
370
13
48
1
60
0
100
AcDbSpline
70
4
71
3
72
22
73
18
40
0
40
0
40
0
40
0
40
0.0240563609388145
40
0.0240563609388145
40
0.223170719546322
40
0.223170719546322
40
0.426944695423134
40
0.426944695423134
40
0.499598923054341
40
0.499598923054341
40
0.586244542315605
40
0.586244542315605
40
0.793171827106042
40
0.793171827106042
40
0.890047315178981
40
0.890047315178981
40
1
40
1
40
1
40
1
41
1
10
38.407629342978
20
8.59916224010854
30
0
41
1
10
38.4086416838871
20
8.61617669395062
30
0
41
1
10
38.4099311966218
20
8.63356155362305
30
0
41
1
10
38.424271729484
20
8.79646034448626
30
0
41
1
10
38.4559056392869
20
8.96668875766093
30
0
41
1
10
38.5480713465278
20
9.33624474373963
30
0
41
1
10
38.6170971404776
20
9.53879098394657
30
0
41
1
10
38.6875477164396
20
9.83442564998461
30
0
41
1
10
38.7022140431195
20
9.91729252455121
30
0
41
1
10
38.7022140431195
20
10.0981099667148
30
0
41
1
10
38.6816311201533
20
10.1960602439294
30
0
41
1
10
38.6018927648219
20
10.5050956513741
30
0
41
1
10
38.5352679202331
20
10.7088056606524
30
0
41
1
10
38.469295159733
20
10.983843337185
30
0
41
1
10
38.4515578326494
20
11.0687138845187
30
0
41
1
10
38.4225140355628
20
11.2390676336776
30
0
41
1
10
38.4122094705484
20
11.3238593740154
30
0
41
1
10
38.407629342978
20
11.4008377598915
30
0
0
SPLINE
5
256
100
AcDbEntity
8
1
62
256
6
ByLayer
370
13
48
1
60
0
100
AcDbSpline
70
4
71
3
72
8
73
4
40
0
40
0
40
0
40
0
40
1
40
1
40
1
40
1
41
1
10
40.6197469220189
20
8.18957661518579
30
0
41
1
10
40.6148089160268
20
8.19083794942259
30
0
41
1
10
40.6098855245221
20
8.1921798174219
30
0
41
1
10
40.60498321608
20
8.19360348917107
30
0
0
SPLINE
5
257
100
AcDbEntity
8
1
62
256
6
ByLayer
370
13
48
1
60
0
100
AcDbSpline
70
4
71
3
72
8
73
4
40
0
40
0
40
0
40
0
40
1
40
1
40
1
40
1
41
1
10
40.0768203692055
20
12.2486248494624
30
0
41
1
10
40.0983770884471
20
12.2477978002279
30
0
41
1
10
40.11993064247
20
12.2469282169488
30
0
41
1
10
40.1414803174655
20
12.2460146167598
30
0
0
SPLINE
5
258
100
AcDbEntity
8
1
62
256
6
ByLayer
370
13
48
1
60
0
100
AcDbSpline
70
4
71
3
72
10
73
6
40
0
40
0
40
0
40
0
40
0.491307620910411
40
0.491307620910411
40
1
40
1
40
1
40
1
41
1
10
40.1891913856543
20
11.901964557944
30
0
41
1
10
40.1806655754359
20
11.9020530456264
30
0
41
1
10
40.1721399423986
20
11.9021341352893
30
0
41
1
10
40.1547874722113
20
11.902284375185
30
0
41
1
10
40.1459606305852
20
11.9023530015028
30
0
41
1
10
40.1371340901891
20
11.9024139835089
30
0
0
SPLINE
5
259
100
AcDbEntity
8
1
62
256
6
ByLayer
370
13
48
1
60
0
100
AcDbSpline
70
4
71
3
72
8
73
4
40
0
40
0
40
0
40
0
40
1
40
1
40
1
40
1
41
1
10
40.3812213915817
20
12.5025747784911
30
0
41
1
10
40.3741931890502
20
12.4998950127243
30
0
41
1
10
40.3671587336016
20
12.4972313059908
30
0
41
1
10
40.3601181945792
20
12.4945835503322
30
0
0
SPLINE
5
25A
100
AcDbEntity
8
1
62
256
6
ByLayer
370
13
48
1
60
0
100
AcDbSpline
70
4
71
3
72
8
73
4
40
0
40
0
40
0
40
0
40
1
40
1
40
1
40
1
41
1
10
40.9087740956112
20
8.09311549757501
30
0
41
1
10
40.907618708514
20
8.0936807493851
30
0
41
1
10
40.906463493138
20
8.09424635926885
30
0
41
1
10
40.9053084491111
20
8.0948123256149
30
0
0
SPLINE
5
25B
100
AcDbEntity
8
1
62
256
6
ByLayer
370
13
48
1
60
0
100
AcDbSpline
70
4
71
3
72
8
73
4
40
0
40
0
40
0
40
0
40
1
40
1
40
1
40
1
41
1
10
39.6298739318799
20
8.11004242108234
30
0
41
1
10
39.6631148627437
20
8.10447144437006
30
0
41
1
10
39.6969858751893
20
8.10052668649772
30
0
41
1
10
39.7309403749877
20
8.09891301236397
30
0
0
SPLINE
5
25C
100
AcDbEntity
8
1
62
256
6
ByLayer
370
13
48
1
60
0
100
AcDbSpline
70
4
71
3
72
10
73
6
40
0
40
0
40
0
40
0
40
0.594719407810273
40
0.594719407810273
40
1
40
1
40
1
40
1
41
1
10
40.2952750271792
20
11.630465060865
30
0
41
1
10
40.3030806761192
20
11.6422959997793
30
0
41
1
10
40.3113691188401
20
11.6541918907431
30
0
41
1
10
40.3260182650202
20
11.6741804106983
30
0
41
1
10
40.3321611488476
20
11.6822894637923
30
0
41
1
10
40.3384886118677
20
11.6903773265363
30
0
0
SPLINE
5
25D
100
AcDbEntity
8
1
62
256
6
ByLayer
370
13
48
1
60
0
100
AcDbSpline
70
4
71
3
72
8
73
4
40
0
40
0
40
0
40
0
40
1
40
1
40
1
40
1
41
1
10
40.6442946127906
20
12.3717684290869
30
0
41
1
10
40.6484645688002
20
12.3735196578928
30
0
41
1
10
40.6526333548367
20
12.3752731862908
30
0
41
1
10
40.6568009615612
20
12.3770290046369
30
0
0
SPLINE
5
25E
100
AcDbEntity
8
1
62
256
6
ByLayer
370
13
48
1
60
0
100
AcDbSpline
70
4
71
3
72
8
73
4
40
0
40
0
40
0
40
0
40
1
40
1
40
1
40
1
41
1
10
40.6967680340497
20
11.8239598941093
30
0
41
1
10
40.7021278986483
20
11.8245222086897
30
0
41
1
10
40.7074812682998
20
11.8250143178497
30
0
41
1
10
40.7128218791706
20
11.8254423782908
30
0
0
SPLINE
5
25F
100
AcDbEntity
8
1
62
256
6
ByLayer
370
13
48
1
60
0
100
AcDbSpline
70
4
71
3
72
18
73
14
40
0
40
0
40
0
40
0
40
0.144097970519712
40
0.144097970519712
40
0.18129827964195
40
0.18129827964195
40
0.255698880355777
40
0.255698880355777
40
0.404503164382779
40
0.404503164382779
40
0.70224688382863
40
0.70224688382863
40
1
40
1
40
1
40
1
41
1
10
39.2314098900027
20
7.56624397177421
30
0
41
1
10
39.2525757964872
20
7.56276402969596
30
0
41
1
10
39.2737149760046
20
7.55911854830467
30
0
41
1
10
39.3003840021964
20
7.55497914967034
30
0
41
1
10
39.3058590787403
20
7.55414729015047
30
0
41
1
10
39.3222833070402
20
7.55164557909262
30
0
41
1
10
39.3332307667064
20
7.54996467828383
30
0
41
1
10
39.3660731053029
20
7.54491950189362
30
0
41
1
10
39.3879699956829
20
7.54156459454637
30
0
41
1
10
39.4537525740475
20
7.53204232999457
30
0
41
1
10
39.4977387562939
20
7.52645924772855
30
0
41
1
10
39.5859321897618
20
7.51759622575594
30
0
41
1
10
39.6301570840831
20
7.5143268712032
30
0
41
1
10
39.6744163060044
20
7.5120048023438
30
0
0
SPLINE
5
260
100
AcDbEntity
8
1
62
256
6
ByLayer
370
13
48
1
60
0
100
AcDbSpline
70
4
71
3
72
10
73
6
40
0
40
0
40
0
40
0
40
0.496989922909901
40
0.496989922909901
40
1
40
1
40
1
40
1
41
1
10
38.4237063417947
20
11.9924417563697
30
0
41
1
10
38.5235554234596
20
12.025774222486
30
0
41
1
10
38.6232506035878
20
12.0596858634526
30
0
41
1
10
38.8269442161719
20
12.1193583134369
30
0
41
1
10
38.9313205707173
20
12.1453164675803
30
0
41
1
10
39.0368313022955
20
12.1631673197342
30
0
0
SPLINE
5
261
100
AcDbEntity
8
1
62
256
6
ByLayer
370
13
48
1
60
0
100
AcDbSpline
70
4
71
3
72
20
73
16
40
0
40
0
40
0
40
0
40
0.420305174844408
40
0.420305174844408
40
0.54936032920831
40
0.54936032920831
40
0.679941947335817
40
0.679941947335817
40
0.774080647274704
40
0.774080647274704
40
0.868875554966447
40
0.868875554966447
40
0.95572011902497
40
0.95572011902497
40
1
40
1
40
1
40
1
41
1
10
41.1748620928875
20
12.0535949641658
30
0
41
1
10
41.2728549355636
20
12.1128299390672
30
0
41
1
10
41.3669803378038
20
12.1855082647223
30
0
41
1
10
41.4581532669864
20
12.3056774691516
30
0
41
1
10
41.4774925862559
20
12.3365058355788
30
0
41
1
10
41.5076355420622
20
12.4021405349946
30
0
41
1
10
41.5186065499011
20
12.4377566790685
30
0
41
1
10
41.5249959242199
20
12.4999688846327
30
0
41
1
10
41.523841491203
20
12.5268931469723
30
0
41
1
10
41.5123317961734
20
12.5782108394783
30
0
41
1
10
41.5016881180043
20
12.6032498169811
30
0
41
1
10
41.4738357574554
20
12.6453476253737
30
0
41
1
10
41.4569762197097
20
12.6634214527449
30
0
41
1
10
41.4285951537144
20
12.6864119720357
30
0
41
1
10
41.4183893043163
20
12.6935454812262
30
0
41
1
10
41.4078128030806
20
12.7
30
0
0
SPLINE
5
262
100
AcDbEntity
8
1
62
256
6
ByLayer
370
13
48
1
60
0
100
AcDbSpline
70
4
71
3
72
8
73
4
40
0
40
0
40
0
40
0
40
1
40
1
40
1
40
1
41
1
10
40.7999366675815
20
7.89437725625751
30
0
41
1
10
40.8432490533785
20
7.8749440554426
30
0
41
1
10
40.8864182607099
20
7.85504833998127
30
0
41
1
10
40.9293699234432
20
7.83461746202426
30
0
0
SPLINE
5
263
100
AcDbEntity
8
1
62
256
6
ByLayer
370
13
48
1
60
0
100
AcDbSpline
70
4
71
3
72
8
73
4
40
0
40
0
40
0
40
0
40
1
40
1
40
1
40
1
41
1
10
40.8767887348261
20
11.942121935172
30
0
41
1
10
40.8630146234362
20
11.9595390299874
30
0
41
1
10
40.8489624840576
20
11.9767052627951
30
0
41
1
10
40.8351185748499
20
11.9930426443838
30
0
0
SPLINE
5
264
100
AcDbEntity
8
1
62
256
6
ByLayer
370
13
48
1
60
0
100
AcDbSpline
70
4
71
3
72
8
73
4
40
0
40
0
40
0
40
0
40
1
40
1
40
1
40
1
41
1
10
40.584315677587
20
7.41467024832889
30
0
41
1
10
40.5882905615203
20
7.41294391150618
30
0
41
1
10
40.5922630917035
20
7.41121224162595
30
0
41
1
10
40.5962332539165
20
7.40947526529351
30
0
0
SPLINE
5
265
100
AcDbEntity
8
1
62
256
6
ByLayer
370
13
48
1
60
0
100
AcDbSpline
70
4
71
3
72
8
73
4
40
0
40
0
40
0
40
0
40
1
40
1
40
1
40
1
41
1
10
40.5665966553318
20
12.3394607117258
30
0
41
1
10
40.573850017303
20
12.3424467046624
30
0
41
1
10
40.5811000018185
20
12.345439689473
30
0
41
1
10
40.5883465466143
20
12.3484396469061
30
0
0
SPLINE
5
266
100
AcDbEntity
8
1
62
256
6
ByLayer
370
13
48
1
60
0
100
AcDbSpline
70
4
71
3
72
8
73
4
40
0
40
0
40
0
40
0
40
1
40
1
40
1
40
1
41
1
10
40.4860803977669
20
12.5439532261614
30
0
41
1
10
40.4791254714617
20
12.541114401986
30
0
41
1
10
40.4721637546294
20
12.5382918665962
30
0
41
1
10
40.4651953792872
20
12.5354856303102
30
0
0
SPLINE
5
267
100
AcDbEntity
8
1
62
256
6
ByLayer
370
13
48
1
60
0
100
AcDbSpline
70
4
71
3
72
8
73
4
40
0
40
0
40
0
40
0
40
1
40
1
40
1
40
1
41
1
10
41.134613676882
20
12.7604850509455
30
0
41
1
10
41.0484557028996
20
12.749392350711
30
0
41
1
10
40.9633588867477
20
12.7278761127469
30
0
41
1
10
40.881316190279
20
12.6995177262707
30
0
0
SPLINE
5
268
100
AcDbEntity
8
1
62
256
6
ByLayer
370
13
48
1
60
0
100
AcDbSpline
70
4
71
3
72
8
73
4
40
0
40
0
40
0
40
0
40
1
40
1
40
1
40
1
41
1
10
37.9635023147842
20
8.42051549330884
30
0
41
1
10
37.9676575812662
20
8.41956656536757
30
0
41
1
10
37.9718140683332
20
8.41861648693038
30
0
41
1
10
37.9759717426968
20
8.41766528196732
30
0
0
SPLINE
5
269
100
AcDbEntity
8
1
62
256
6
ByLayer
370
13
48
1
60
0
100
AcDbSpline
70
4
71
3
72
10
73
6
40
0
40
0
40
0
40
0
40
0.328350362460844
40
0.328350362460844
40
1
40
1
40
1
40
1
41
1
10
41.2866589937234
20
12.5878532788885
30
0
41
1
10
41.2918492714347
20
12.588551469932
30
0
41
1
10
41.2971205038718
20
12.5888846374502
30
0
41
1
10
41.3130838869193
20
12.588731850304
30
0
41
1
10
41.3238719873787
20
12.5872357165742
30
0
41
1
10
41.3342471297939
20
12.5845267451936
30
0
0
SPLINE
5
26A
100
AcDbEntity
8
1
62
256
6
ByLayer
370
13
48
1
60
0
100
AcDbSpline
70
4
71
3
72
8
73
4
40
0
40
0
40
0
40
0
40
1
40
1
40
1
40
1
41
1
10
40.881316190279
20
12.6995177262707
30
0
41
1
10
40.8331751227863
20
12.6837504927176
30
0
41
1
10
40.7854279183623
20
12.6667568561319
30
0
41
1
10
40.7381259367937
20
12.6486651860989
30
0
0
SPLINE
5
26B
100
AcDbEntity
8
1
62
256
6
ByLayer
370
13
48
1
60
0
100
AcDbSpline
70
4
71
3
72
8
73
4
40
0
40
0
40
0
40
0
40
1
40
1
40
1
40
1
41
1
10
40.6817919691138
20
12.3875911354017
30
0
41
1
10
40.7257429780689
20
12.4062754083882
30
0
41
1
10
40.7699387609177
20
12.4244905576066
30
0
41
1
10
40.8143438239195
20
12.4422176791704
30
0
0
SPLINE
5
26C
100
AcDbEntity
8
1
62
256
6
ByLayer
370
13
48
1
60
0
100
AcDbSpline
70
4
71
3
72
8
73
4
40
0
40
0
40
0
40
0
40
1
40
1
40
1
40
1
41
1
10
40.7381259367937
20
12.6486651860989
30
0
41
1
10
40.6903777637058
20
12.6304028604301
30
0
41
1
10
40.6430545553436
20
12.6110094121745
30
0
41
1
10
40.5962332539209
20
12.5905247347084
30
0
0
SPLINE
5
26D
100
AcDbEntity
8
1
62
256
6
ByLayer
370
13
48
1
60
0
100
AcDbSpline
70
4
71
3
72
8
73
4
40
0
40
0
40
0
40
0
40
1
40
1
40
1
40
1
41
1
10
40.131222271337
20
8.09754857616139
30
0
41
1
10
40.1331929015704
20
8.09755992445383
30
0
41
1
10
40.1351635087407
20
8.09757240186582
30
0
41
1
10
40.1371340901905
20
8.0975860164877
30
0
0
SPLINE
5
26E
100
AcDbEntity
8
1
62
256
6
ByLayer
370
13
48
1
60
0
100
AcDbSpline
70
4
71
3
72
14
73
10
40
0
40
0
40
0
40
0
40
0.0569507557103094
40
0.0569507557103094
40
0.367192121057131
40
0.367192121057131
40
0.683769245764308
40
0.683769245764308
40
1
40
1
40
1
40
1
41
1
10
40.7909436014448
20
11.7795414094475
30
0
41
1
10
40.7956616272907
20
11.7709622176962
30
0
41
1
10
40.8000241024376
20
11.7621683680458
30
0
41
1
10
40.8254652859382
20
11.7054424420689
30
0
41
1
10
40.8372095594332
20
11.6523418302553
30
0
41
1
10
40.8454715230384
20
11.5478265184423
30
0
41
1
10
40.8418946161005
20
11.4945595109611
30
0
41
1
10
40.8230076231655
20
11.3967534593959
30
0
41
1
10
40.8074482723202
20
11.3507718967941
30
0
41
1
10
40.7869525715208
20
11.3114801269806
30
0
0
SPLINE
5
26F
100
AcDbEntity
8
1
62
256
6
ByLayer
370
13
48
1
60
0
100
AcDbSpline
70
4
71
3
72
8
73
4
40
0
40
0
40
0
40
0
40
1
40
1
40
1
40
1
41
1
10
40.0579730137738
20
8.35657724638457
30
0
41
1
10
40.0451888361773
20
8.34931284409757
30
0
41
1
10
40.0324199091963
20
8.34208932202412
30
0
41
1
10
40.0196798836103
20
8.3348978048719
30
0
0
SPLINE
5
270
100
AcDbEntity
8
1
62
256
6
ByLayer
370
13
48
1
60
0
100
AcDbSpline
70
4
71
1
72
4
73
2
40
0
40
0
40
1
40
1
41
1
10
37.9988
20
7.14196204702438
30
0
41
1
10
37.9988
20
7.89412331593996
30
0
0
SPLINE
5
271
100
AcDbEntity
8
1
62
256
6
ByLayer
370
13
48
1
60
0
100
AcDbSpline
70
4
71
3
72
8
73
4
40
0
40
0
40
0
40
0
40
1
40
1
40
1
40
1
41
1
10
40.7627112600577
20
7.91101487614606
30
0
41
1
10
40.7668464246978
20
7.90916026726083
30
0
41
1
10
40.7709821241731
20
7.9073075330241
30
0
41
1
10
40.7751183605698
20
7.90545670174757
30
0
0
SPLINE
5
272
100
AcDbEntity
8
1
62
256
6
ByLayer
370
13
48
1
60
0
100
AcDbSpline
70
4
71
3
72
8
73
4
40
0
40
0
40
0
40
0
40
1
40
1
40
1
40
1
41
1
10
40.5723850890743
20
7.41983275956778
30
0
41
1
10
40.5763643019078
20
7.41811726686294
30
0
41
1
10
40.5803411699149
20
7.41639642173706
30
0
41
1
10
40.5843156775903
20
7.41467024832744
30
0
0
SPLINE
5
273
100
AcDbEntity
8
1
62
256
6
ByLayer
370
13
48
1
60
0
100
AcDbSpline
70
4
71
3
72
14
73
10
40
0
40
0
40
0
40
0
40
0.0165534603430685
40
0.0165534603430685
40
0.58738901430765
40
0.58738901430765
40
0.692858980763252
40
0.692858980763252
40
1
40
1
40
1
40
1
41
1
10
35.6227821386885
20
10.2833105415308
30
0
41
1
10
35.6223704603021
20
10.2837570426869
30
0
41
1
10
35.6219527888559
20
10.284203959187
30
0
41
1
10
35.6071142224278
20
10.2998476049628
30
0
41
1
10
35.5853486128447
20
10.3152411142905
30
0
41
1
10
35.5527101328021
20
10.3320582900997
30
0
41
1
10
35.5473503698171
20
10.334677003539
30
0
41
1
10
35.525857254551
20
10.3446406997125
30
0
41
1
10
35.508094365781
20
10.3517344248146
30
0
41
1
10
35.4889630900531
20
10.3583483965957
30
0
0
SPLINE
5
274
100
AcDbEntity
8
1
62
256
6
ByLayer
370
13
48
1
60
0
100
AcDbSpline
70
4
71
3
72
10
73
6
40
0
40
0
40
0
40
0
40
0.0008284803458646
40
0.0008284803458646
40
1
40
1
40
1
40
1
41
1
10
41.52453622742
20
11.0690073291205
30
0
41
1
10
41.5245548496025
20
11.0690009257005
30
0
41
1
10
41.5245734717843
20
11.0689945222872
30
0
41
1
10
41.5470516004838
20
11.0612651670441
30
0
41
1
10
41.5695019819771
20
11.0535181595139
30
0
41
1
10
41.5919426257589
20
11.045745620004
30
0
0
SPLINE
5
275
100
AcDbEntity
8
1
62
256
6
ByLayer
370
13
48
1
60
0
100
AcDbSpline
70
4
71
3
72
8
73
4
40
0
40
0
40
0
40
0
40
1
40
1
40
1
40
1
41
1
10
40.7451045145135
20
8.17269859602047
30
0
41
1
10
40.7446597837757
20
8.17270827969946
30
0
41
1
10
40.7442153279883
20
8.1727217950978
30
0
41
1
10
40.7437712215366
20
8.1727390103643
30
0
0
SPLINE
5
276
100
AcDbEntity
8
1
62
256
6
ByLayer
370
13
48
1
60
0
100
AcDbSpline
70
4
71
3
72
8
73
4
40
0
40
0
40
0
40
0
40
1
40
1
40
1
40
1
41
1
10
40.548483238534
20
7.43006071592021
30
0
41
1
10
40.552471423533
20
7.42836685629226
30
0
41
1
10
40.5564572845809
20
7.4266676116813
30
0
41
1
10
40.5604408036725
20
7.42496300119674
30
0
0
SPLINE
5
277
100
AcDbEntity
8
1
62
256
6
ByLayer
370
13
48
1
60
0
100
AcDbSpline
70
4
71
3
72
8
73
4
40
0
40
0
40
0
40
0
40
1
40
1
40
1
40
1
41
1
10
38.407629342978
20
11.4008377598915
30
0
41
1
10
38.47179712768
20
11.4531176667551
30
0
41
1
10
38.5401599848384
20
11.5035952818267
30
0
41
1
10
38.6117028909294
20
11.551860405386
30
0
0
SPLINE
5
278
100
AcDbEntity
8
1
62
256
6
ByLayer
370
13
48
1
60
0
100
AcDbSpline
70
4
71
3
72
20
73
16
40
0
40
0
40
0
40
0
40
0.0630128960077348
40
0.0630128960077348
40
0.326748649791128
40
0.326748649791128
40
0.386835157945675
40
0.386835157945675
40
0.64351091469183
40
0.64351091469183
40
0.696871937332506
40
0.696871937332506
40
0.948821829844474
40
0.948821829844474
40
1
40
1
40
1
40
1
41
1
10
40.9359816925958
20
8.1427337448859
30
0
41
1
10
40.9441931341021
20
8.15425620898822
30
0
41
1
10
40.9519599013358
20
8.166125229503
30
0
41
1
10
40.9894080389161
20
8.22846308529139
30
0
41
1
10
41.0118839410954
20
8.28437539406994
30
0
41
1
10
41.0290854319023
20
8.35420557698095
30
0
41
1
10
41.031881379169
20
8.36739310713656
30
0
41
1
10
41.0442136874494
20
8.43635244402267
30
0
41
1
10
41.0465016725801
20
8.49356712807935
30
0
41
1
10
41.0403422491477
20
8.55873286297395
30
0
41
1
10
41.0389463347828
20
8.5699634535037
30
0
41
1
10
41.0292554530919
20
8.63263481297852
30
0
41
1
10
41.0141222644013
20
8.68164818039614
30
0
41
1
10
40.9886222673739
20
8.73268012949947
30
0
41
1
10
40.9840028949995
20
8.74114880769824
30
0
41
1
10
40.9791315895939
20
8.74934255150492
30
0
0
SPLINE
5
279
100
AcDbEntity
8
1
62
256
6
ByLayer
370
18
48
1
60
0
100
AcDbSpline
70
4
71
3
72
8
73
4
40
0
40
0
40
0
40
0
40
1
40
1
40
1
40
1
41
1
10
41.5762062521179
20
9.99999993382275
30
0
41
1
10
41.5762072248594
20
10.1833867912858
30
0
41
1
10
41.5774607671738
20
10.3680519754149
30
0
41
1
10
41.5800841794278
20
10.5463142147512
30
0
0
SPLINE
5
27A
100
AcDbEntity
8
1
62
256
6
ByLayer
370
13
48
1
60
0
100
AcDbSpline
70
4
71
3
72
8
73
4
40
0
40
0
40
0
40
0
40
1
40
1
40
1
40
1
41
1
10
38.4237063417946
20
8.00755824362997
30
0
41
1
10
38.2881370251233
20
8.05054758404475
30
0
41
1
10
38.1461615103141
20
8.08323361883953
30
0
41
1
10
38.0032717327584
20
8.08678090013822
30
0
0
SPLINE
5
27B
100
AcDbEntity
8
1
62
256
6
ByLayer
370
13
48
1
60
0
100
AcDbSpline
70
4
71
3
72
8
73
4
40
0
40
0
40
0
40
0
40
1
40
1
40
1
40
1
41
1
10
40.7479544982116
20
7.91764241349046
30
0
41
1
10
40.7494100918294
20
7.91877076598854
30
0
41
1
10
40.7508662573624
20
7.91992168285594
30
0
41
1
10
40.7523224694942
20
7.92109471998049
30
0
0
SPLINE
5
27C
100
AcDbEntity
8
1
62
256
6
ByLayer
370
13
48
1
60
0
100
AcDbSpline
70
4
71
3
72
8
73
4
40
0
40
0
40
0
40
0
40
1
40
1
40
1
40
1
41
1
10
39.7402351429146
20
12.4902506778799
30
0
41
1
10
39.7183815463634
20
12.489872152547
30
0
41
1
10
39.6965309752335
20
12.4891238716765
30
0
41
1
10
39.6747025432335
20
12.4880064998102
30
0
0
SPLINE
5
27D
100
AcDbEntity
8
1
62
256
6
ByLayer
370
13
48
1
60
0
100
AcDbSpline
70
4
71
3
72
8
73
4
40
0
40
0
40
0
40
0
40
1
40
1
40
1
40
1
41
1
10
40.0161790825026
20
8.33293045530513
30
0
41
1
10
40.0039147023054
20
8.3260689396574
30
0
41
1
10
39.9914091789433
20
8.31953891575233
30
0
41
1
10
39.9786988508423
20
8.31335456290051
30
0
0
SPLINE
5
27E
100
AcDbEntity
8
1
62
256
6
ByLayer
370
13
48
1
60
0
100
AcDbSpline
70
4
71
3
72
12
73
8
40
0
40
0
40
0
40
0
40
0.126595665736698
40
0.126595665736698
40
0.412954776386075
40
0.412954776386075
40
1
40
1
40
1
40
1
41
1
10
41.2988
20
7.2336620472781
30
0
41
1
10
41.3043765647838
20
7.23380607425335
30
0
41
1
10
41.3099627787902
20
7.23446434653519
30
0
41
1
10
41.3276003096613
20
7.23818747253657
30
0
41
1
10
41.3393462388878
20
7.24337519654014
30
0
41
1
10
41.3715062361441
20
7.26361266074053
30
0
41
1
10
41.389723447243
20
7.28210795613245
30
0
41
1
10
41.4078128030826
20
7.29999999999671
30
0
0
SPLINE
5
27F
100
AcDbEntity
8
1
62
256
6
ByLayer
370
13
48
1
60
0
100
AcDbSpline
70
4
71
3
72
8
73
4
40
0
40
0
40
0
40
0
40
1
40
1
40
1
40
1
41
1
10
40.908774095615
20
11.9068845024269
30
0
41
1
10
40.9542196842923
20
11.9291179178122
30
0
41
1
10
40.9992038318865
20
11.9523503243646
30
0
41
1
10
41.0435669894049
20
11.9767112899752
30
0
0
SPLINE
5
280
100
AcDbEntity
8
1
62
256
6
ByLayer
370
18
48
1
60
0
100
AcDbSpline
70
4
71
3
72
8
73
4
40
0
40
0
40
0
40
0
40
1
40
1
40
1
40
1
41
1
10
38.0479302033296
20
12.8662413187843
30
0
41
1
10
38.031337044549
20
12.8655164975029
30
0
41
1
10
38.0147071548908
20
12.8627149448922
30
0
41
1
10
37.9988
20
12.8579378416359
30
0
0
SPLINE
5
281
100
AcDbEntity
8
1
62
256
6
ByLayer
370
13
48
1
60
0
100
AcDbSpline
70
4
71
3
72
8
73
4
40
0
40
0
40
0
40
0
40
1
40
1
40
1
40
1
41
1
10
40.6347219030158
20
11.8139955606136
30
0
41
1
10
40.6397746523795
20
11.8151172326624
30
0
41
1
10
40.6448396568156
20
11.8161586384997
30
0
41
1
10
40.6499104023501
20
11.8171228543568
30
0
0
SPLINE
5
282
100
AcDbEntity
8
1
62
256
6
ByLayer
370
13
48
1
60
0
100
AcDbSpline
70
4
71
3
72
8
73
4
40
0
40
0
40
0
40
0
40
1
40
1
40
1
40
1
41
1
10
40.8636003373389
20
11.8845873111797
30
0
41
1
10
40.8439107479208
20
11.8745364888221
30
0
41
1
10
40.8243504098525
20
11.8640698681919
30
0
41
1
10
40.805616810296
20
11.8536178908971
30
0
0
SPLINE
5
283
100
AcDbEntity
8
1
62
256
6
ByLayer
370
13
48
1
60
0
100
AcDbSpline
70
4
71
3
72
8
73
4
40
0
40
0
40
0
40
0
40
1
40
1
40
1
40
1
41
1
10
40.9053084491111
20
11.9051876743851
30
0
41
1
10
40.906463493138
20
11.9057536407312
30
0
41
1
10
40.907618708514
20
11.9063192506149
30
0
41
1
10
40.9087740956112
20
11.906884502425
30
0
0
SPLINE
5
284
100
AcDbEntity
8
1
62
256
6
ByLayer
370
13
48
1
60
0
100
AcDbSpline
70
4
71
3
72
8
73
4
40
0
40
0
40
0
40
0
40
1
40
1
40
1
40
1
41
1
10
40.6317814138828
20
7.63347828019164
30
0
41
1
10
40.6245492089483
20
7.63650585932766
30
0
41
1
10
40.6173134912905
20
7.63952651501981
30
0
41
1
10
40.6100743152022
20
7.64254020949366
30
0
0
SPLINE
5
285
100
AcDbEntity
8
1
62
256
6
ByLayer
370
13
48
1
60
0
100
AcDbSpline
70
4
71
3
72
8
73
4
40
0
40
0
40
0
40
0
40
1
40
1
40
1
40
1
41
1
10
40.6817919691149
20
7.61240886460106
30
0
41
1
10
40.6776291235697
20
7.61417379604677
30
0
41
1
10
40.6734650888763
20
7.61593645628949
30
0
41
1
10
40.6692998734366
20
7.61769683370386
30
0
0
SPLINE
5
286
100
AcDbEntity
8
1
62
256
6
ByLayer
370
13
48
1
60
0
100
AcDbSpline
70
4
71
3
72
8
73
4
40
0
40
0
40
0
40
0
40
1
40
1
40
1
40
1
41
1
10
39.6865720844474
20
12.2547578459325
30
0
41
1
10
39.7058761777234
20
12.2557422465672
30
0
41
1
10
39.7251991381601
20
12.2564104027346
30
0
41
1
10
39.7445249471383
20
12.2567617560898
30
0
0
SPLINE
5
287
100
AcDbEntity
8
1
62
256
6
ByLayer
370
13
48
1
60
0
100
AcDbSpline
70
4
71
3
72
8
73
4
40
0
40
0
40
0
40
0
40
1
40
1
40
1
40
1
41
1
10
39.7445249471383
20
7.74323824391021
30
0
41
1
10
39.7251991381601
20
7.74358959726538
30
0
41
1
10
39.7058761777234
20
7.74425775343286
30
0
41
1
10
39.6865720844474
20
7.74524215406751
30
0
0
SPLINE
5
288
100
AcDbEntity
8
1
62
256
6
ByLayer
370
13
48
1
60
0
100
AcDbSpline
70
4
71
3
72
12
73
8
40
0
40
0
40
0
40
0
40
0.0165486677268259
40
0.0165486677268259
40
0.698261559142702
40
0.698261559142702
40
1
40
1
40
1
40
1
41
1
10
35.6208305501845
20
10.2386118159885
30
0
41
1
10
35.6203815232203
20
10.238202894012
30
0
41
1
10
35.6199264898061
20
10.2377940805463
30
0
41
1
10
35.600843826343
20
10.2209034987968
30
0
41
1
10
35.5717124466402
20
10.2050125200673
30
0
41
1
10
35.5189122841927
20
10.1859688382873
30
0
41
1
10
35.5009346756154
20
10.1805463216544
30
0
41
1
10
35.4816744692145
20
10.1756977580698
30
0
0
SPLINE
5
289
100
AcDbEntity
8
1
62
256
6
ByLayer
370
13
48
1
60
0
100
AcDbSpline
70
4
71
3
72
11
73
7
40
0
40
0
40
0
40
0
40
0.050979001123843
40
0.367319334082562
40
0.683659667041281
40
1
40
1
40
1
40
1
41
1
10
39.6488
20
11.7706248015289
30
0
41
1
10
39.6488
20
11.7465388188686
30
0
41
1
10
39.6488
20
11.5698129834
30
0
41
1
10
39.6488
20
11.1998587736688
30
0
41
1
10
39.6488
20
10.6176094166647
30
0
41
1
10
39.6488
20
10.2058736858386
30
0
41
1
10
39.6488
20
10
30
0
0
SPLINE
5
28A
100
AcDbEntity
8
1
62
256
6
ByLayer
370
13
48
1
60
0
100
AcDbSpline
70
4
71
3
72
8
73
4
40
0
40
0
40
0
40
0
40
1
40
1
40
1
40
1
41
1
10
40.0196798836219
20
8.33489780486229
30
0
41
1
10
40.0185143360831
20
8.33423987407082
30
0
41
1
10
40.0173473978274
20
8.33358408914128
30
0
41
1
10
40.0161790825029
20
8.33293045530476
30
0
0
SPLINE
5
28B
100
AcDbEntity
8
1
62
256
6
ByLayer
370
18
48
1
60
0
100
AcDbSpline
70
4
71
3
72
8
73
4
40
0
40
0
40
0
40
0
40
1
40
1
40
1
40
1
41
1
10
41.0244101191901
20
12.9962733793708
30
0
41
1
10
41.0576524296368
20
12.9977247699894
30
0
41
1
10
41.0909159117529
20
12.998754134724
30
0
41
1
10
41.1241841571116
20
12.9993603265576
30
0
0
SPLINE
5
28C
100
AcDbEntity
8
1
62
256
6
ByLayer
370
13
48
1
60
0
100
AcDbSpline
70
4
71
3
72
8
73
4
40
0
40
0
40
0
40
0
40
1
40
1
40
1
40
1
41
1
10
40.1560341336389
20
7.52554699255722
30
0
41
1
10
40.1812526033639
20
7.5272624598185
30
0
41
1
10
40.2064870341286
20
7.52876484424257
30
0
41
1
10
40.2317322187786
20
7.53004514801043
30
0
0
SPLINE
5
28D
100
AcDbEntity
8
1
62
256
6
ByLayer
370
13
48
1
60
0
100
AcDbSpline
70
4
71
3
72
8
73
4
40
0
40
0
40
0
40
0
40
1
40
1
40
1
40
1
41
1
10
39.7396158168118
20
8.24218777911588
30
0
41
1
10
39.7338441871398
20
8.24125371527572
30
0
41
1
10
39.7280691217604
20
8.24034353965118
30
0
41
1
10
39.7222909295233
20
8.23945732793763
30
0
0
SPLINE
5
28E
100
AcDbEntity
8
1
62
256
6
ByLayer
370
13
48
1
60
0
100
AcDbSpline
70
4
71
3
72
8
73
4
40
0
40
0
40
0
40
0
40
1
40
1
40
1
40
1
41
1
10
39.7396158168117
20
11.7578122208839
30
0
41
1
10
39.7565618906644
20
11.7550697173429
30
0
41
1
10
39.7734799864671
20
11.7521207573353
30
0
41
1
10
39.7903623806973
20
11.7489673419267
30
0
0
SPLINE
5
28F
100
AcDbEntity
8
1
62
256
6
ByLayer
370
13
48
1
60
0
100
AcDbSpline
70
4
71
3
72
8
73
4
40
0
40
0
40
0
40
0
40
1
40
1
40
1
40
1
41
1
10
39.976348491921
20
8.17877393365015
30
0
41
1
10
40.0078112369568
20
8.18081691423913
30
0
41
1
10
40.0392608506527
20
8.18308822690761
30
0
41
1
10
40.0706661171708
20
8.1856635266569
30
0
0
SPLINE
5
290
100
AcDbEntity
8
1
62
256
6
ByLayer
370
13
48
1
60
0
100
AcDbSpline
70
4
71
3
72
8
73
4
40
0
40
0
40
0
40
0
40
1
40
1
40
1
40
1
41
1
10
40.6809324141415
20
11.8220905710103
30
0
41
1
10
40.6862147210658
20
11.8227854371934
30
0
41
1
10
40.6914953679315
20
11.8234067277035
30
0
41
1
10
40.6967680340497
20
11.8239598941093
30
0
0
SPLINE
5
291
100
AcDbEntity
8
1
62
256
6
ByLayer
370
18
48
1
60
0
100
AcDbSpline
70
4
71
3
72
8
73
4
40
0
40
0
40
0
40
0
40
1
40
1
40
1
40
1
41
1
10
39.6352412607262
20
8.22782889307089
30
0
41
1
10
39.5225183249655
20
8.2171215353203
30
0
41
1
10
39.4068154263125
20
8.24586556679336
30
0
41
1
10
39.294987844083
20
8.25587635396784
30
0
0
SPLINE
5
292
100
AcDbEntity
8
1
62
256
6
ByLayer
370
13
48
1
60
0
100
AcDbSpline
70
4
71
3
72
8
73
4
40
0
40
0
40
0
40
0
40
1
40
1
40
1
40
1
41
1
10
40.5883465466143
20
7.65156035309397
30
0
41
1
10
40.5811000018185
20
7.65456031052707
30
0
41
1
10
40.573850017303
20
7.65755329533761
30
0
41
1
10
40.5665966553318
20
7.66053928827421
30
0
0
SPLINE
5
293
100
AcDbEntity
8
1
62
256
6
ByLayer
370
13
48
1
60
0
100
AcDbSpline
70
4
71
3
72
10
73
6
40
0
40
0
40
0
40
0
40
0.508692379089589
40
0.508692379089589
40
1
40
1
40
1
40
1
41
1
10
40.1371340901891
20
8.09758601649116
30
0
41
1
10
40.1459606305852
20
8.0976469984972
30
0
41
1
10
40.1547874722113
20
8.09771562481501
30
0
41
1
10
40.1721399423986
20
8.09786586471077
30
0
41
1
10
40.1806655754359
20
8.09794695437361
30
0
41
1
10
40.1891913856543
20
8.09803544205602
30
0
0
SPLINE
5
294
100
AcDbEntity
8
1
62
256
6
ByLayer
370
13
48
1
60
0
100
AcDbSpline
70
4
71
3
72
8
73
4
40
0
40
0
40
0
40
0
40
1
40
1
40
1
40
1
41
1
10
40.611532349232
20
7.95326175723432
30
0
41
1
10
40.6191105039504
20
7.95095426420198
30
0
41
1
10
40.6267041942021
20
7.9487027189642
30
0
41
1
10
40.63431099324
20
7.94650572436851
30
0
0
SPLINE
5
295
100
AcDbEntity
8
1
62
256
6
ByLayer
370
13
48
1
60
0
100
AcDbSpline
70
4
71
3
72
11
73
7
40
0
40
0
40
0
40
0
40
0.31634033295872
40
0.632680665917441
40
0.949020998876161
40
1
40
1
40
1
40
1
41
1
10
39.6488
20
10
30
0
41
1
10
39.6488
20
9.79412631416145
30
0
41
1
10
39.6488
20
9.38239058333534
30
0
41
1
10
39.6488
20
8.80014122633119
30
0
41
1
10
39.6488
20
8.43018701660006
30
0
41
1
10
39.6488
20
8.25346118113143
30
0
41
1
10
39.6488
20
8.22937519847108
30
0
0
SPLINE
5
296
100
AcDbEntity
8
1
62
256
6
ByLayer
370
18
48
1
60
0
100
AcDbSpline
70
4
71
3
72
8
73
4
40
0
40
0
40
0
40
0
40
1
40
1
40
1
40
1
41
1
10
41.1988251289714
20
13.0000230721854
30
0
41
1
10
41.2324382385321
20
13.0000075602401
30
0
41
1
10
41.2663297856103
20
12.9956029472718
30
0
41
1
10
41.2988
20
12.9869960989333
30
0
0
SPLINE
5
297
100
AcDbEntity
8
1
62
256
6
ByLayer
370
13
48
1
60
0
100
AcDbSpline
70
4
71
3
72
8
73
4
40
0
40
0
40
0
40
0
40
1
40
1
40
1
40
1
41
1
10
40.5962332539165
20
12.5905247347065
30
0
41
1
10
40.5922630917035
20
12.5887877583741
30
0
41
1
10
40.5882905615203
20
12.5870560884938
30
0
41
1
10
40.584315677587
20
12.5853297516711
30
0
0
SPLINE
5
298
100
AcDbEntity
8
1
62
256
6
ByLayer
370
13
48
1
60
0
100
AcDbSpline
70
4
71
3
72
10
73
6
40
0
40
0
40
0
40
0
40
0.751276148010879
40
0.751276148010879
40
1
40
1
40
1
40
1
41
1
10
37.1585712449568
20
8.93730008767835
30
0
41
1
10
37.1850090763578
20
8.94410452442588
30
0
41
1
10
37.2110417154431
20
8.94929261824194
30
0
41
1
10
37.244360365577
20
8.95388041175747
30
0
41
1
10
37.2525746557938
20
8.95483528153571
30
0
41
1
10
37.2606716521381
20
8.95559693959498
30
0
0
SPLINE
5
299
100
AcDbEntity
8
1
62
256
6
ByLayer
370
13
48
1
60
0
100
AcDbSpline
70
4
71
3
72
8
73
4
40
0
40
0
40
0
40
0
40
1
40
1
40
1
40
1
41
1
10
39.7309403749877
20
11.9010869876361
30
0
41
1
10
39.6969858751893
20
11.8994733135021
30
0
41
1
10
39.6631148627437
20
11.89552855563
30
0
41
1
10
39.6298739318799
20
11.8899575789177
30
0
0
SPLINE
5
29A
100
AcDbEntity
8
1
62
256
6
ByLayer
370
13
48
1
60
0
100
AcDbSpline
70
4
71
3
72
8
73
4
40
0
40
0
40
0
40
0
40
1
40
1
40
1
40
1
41
1
10
39.6298751637949
20
8.11004670943225
30
0
41
1
10
39.6343545292539
20
8.12564586850274
30
0
41
1
10
39.6393246353072
20
8.14670189015436
30
0
41
1
10
39.644421295671
20
8.17167210210258
30
0
0
SPLINE
5
29B
100
AcDbEntity
8
1
62
256
6
ByLayer
370
13
48
1
60
0
100
AcDbSpline
70
4
71
3
72
18
73
14
40
0
40
0
40
0
40
0
40
0.297753116171361
40
0.297753116171361
40
0.595496835617218
40
0.595496835617218
40
0.744301119644222
40
0.744301119644222
40
0.818701720358049
40
0.818701720358049
40
0.855902029480288
40
0.855902029480288
40
1
40
1
40
1
40
1
41
1
10
39.6744163060044
20
12.4879951976562
30
0
41
1
10
39.6301570840831
20
12.4856731287971
30
0
41
1
10
39.5859321897618
20
12.4824037742441
30
0
41
1
10
39.4977387562939
20
12.4735407522715
30
0
41
1
10
39.4537525740475
20
12.4679576700055
30
0
41
1
10
39.3879699956829
20
12.4584354054536
30
0
41
1
10
39.3660731053029
20
12.4550804981064
30
0
41
1
10
39.3332307667064
20
12.4500353217162
30
0
41
1
10
39.3222833070402
20
12.4483544209074
30
0
41
1
10
39.3058590787403
20
12.4458527098496
30
0
41
1
10
39.3003840021964
20
12.4450208503297
30
0
41
1
10
39.2737149760046
20
12.4408814516953
30
0
41
1
10
39.2525757964872
20
12.4372359703041
30
0
41
1
10
39.2314098900027
20
12.4337560282258
30
0
0
SPLINE
5
29C
100
AcDbEntity
8
1
62
256
6
ByLayer
370
13
48
1
60
0
100
AcDbSpline
70
4
71
3
72
10
73
6
40
0
40
0
40
0
40
0
40
0.0001027245074679
40
0.0001027245074679
40
1
40
1
40
1
40
1
41
1
10
41.5245317512729
20
8.93083263583759
30
0
41
1
10
41.5245130837966
20
8.93082643242022
30
0
41
1
10
41.5244944163086
20
8.93082022902993
30
0
41
1
10
41.3427707952222
20
8.87043103901684
30
0
41
1
10
41.1618572606719
20
8.80720533309346
30
0
41
1
10
40.979131589594
20
8.74934255150507
30
0
0
SPLINE
5
29D
100
AcDbEntity
8
1
62
256
6
ByLayer
370
13
48
1
60
0
100
AcDbSpline
70
4
71
3
72
8
73
4
40
0
40
0
40
0
40
0
40
1
40
1
40
1
40
1
41
1
10
41.1596347348722
20
12.5622268374748
30
0
41
1
10
41.2015360254064
20
12.5730400218984
30
0
41
1
10
41.2439537056346
20
12.5821086056143
30
0
41
1
10
41.2866589937234
20
12.5878532788884
30
0
0
SPLINE
5
29E
100
AcDbEntity
8
1
62
256
6
ByLayer
370
13
48
1
60
0
100
AcDbSpline
70
4
71
3
72
12
73
8
40
0
40
0
40
0
40
0
40
0.376458038616294
40
0.752916077232588
40
0.941145096540735
40
0.988202351367772
40
1
40
1
40
1
40
1
41
1
10
39.2949878440812
20
8.25587635396769
30
0
41
1
10
39.2940585838946
20
8.24036728541131
30
0
41
1
10
39.2922250413864
20
8.20976602123264
30
0
41
1
10
39.2900219651965
20
8.1729973528289
30
0
41
1
10
39.288545396837
20
8.14835387811075
30
0
41
1
10
39.2880321474057
20
8.13978790193826
30
0
41
1
10
39.2878612860014
20
8.13693627731146
30
0
41
1
10
39.2878221669292
20
8.13628339194992
30
0
0
SPLINE
5
29F
100
AcDbEntity
8
1
62
256
6
ByLayer
370
18
48
1
60
0
100
AcDbSpline
70
4
71
3
72
8
73
4
40
0
40
0
40
0
40
0
40
1
40
1
40
1
40
1
41
1
10
40.8813161901858
20
12.6995177262385
30
0
41
1
10
40.9057289714629
20
12.6281556114502
30
0
41
1
10
40.9303020768134
20
12.5529827512959
30
0
41
1
10
40.9482927365344
20
12.4939823825529
30
0
0
SPLINE
5
2A0
100
AcDbEntity
8
1
62
256
6
ByLayer
370
13
48
1
60
0
100
AcDbSpline
70
4
71
3
72
8
73
4
40
0
40
0
40
0
40
0
40
1
40
1
40
1
40
1
41
1
10
40.5664365699848
20
12.0322705371636
30
0
41
1
10
40.5589781291824
20
12.029752625299
30
0
41
1
10
40.5515378070834
20
12.0271771524779
30
0
41
1
10
40.5441177155277
20
12.0245436613818
30
0
0
SPLINE
5
2A1
100
AcDbEntity
8
1
62
256
6
ByLayer
370
13
48
1
60
0
100
AcDbSpline
70
4
71
3
72
8
73
4
40
0
40
0
40
0
40
0
40
1
40
1
40
1
40
1
41
1
10
40.6653132813234
20
8.18018332626201
30
0
41
1
10
40.660175599779
20
8.18100526553849
30
0
41
1
10
40.6550391514019
20
8.18190190026175
30
0
41
1
10
40.6499104023501
20
8.18287714564318
30
0
0
SPLINE
5
2A2
100
AcDbEntity
8
1
62
256
6
ByLayer
370
13
48
1
60
0
100
AcDbSpline
70
4
71
3
72
8
73
4
40
0
40
0
40
0
40
0
40
1
40
1
40
1
40
1
41
1
10
38.216198644719
20
8.30336803126193
30
0
41
1
10
38.2835799921849
20
8.24650559385418
30
0
41
1
10
38.3556996027647
20
8.19154318803845
30
0
41
1
10
38.4315828618976
20
8.13901495728354
30
0
0
SPLINE
5
2A3
100
AcDbEntity
8
1
62
256
6
ByLayer
370
18
48
1
60
0
100
AcDbSpline
70
4
71
3
72
8
73
4
40
0
40
0
40
0
40
0
40
1
40
1
40
1
40
1
41
1
10
39.294987844083
20
11.7441236460322
30
0
41
1
10
39.4068154263125
20
11.7541344332067
30
0
41
1
10
39.5225183249655
20
11.7828784646798
30
0
41
1
10
39.6352412607262
20
11.7721711069291
30
0
0
SPLINE
5
2A4
100
AcDbEntity
8
1
62
256
6
ByLayer
370
13
48
1
60
0
100
AcDbSpline
70
4
71
3
72
8
73
4
40
0
40
0
40
0
40
0
40
1
40
1
40
1
40
1
41
1
10
40.8636003373389
20
8.1154126888203
30
0
41
1
10
40.8439107479208
20
8.12546351117794
30
0
41
1
10
40.8243504098525
20
8.13593013180815
30
0
41
1
10
40.805616810296
20
8.14638210910289
30
0
0
SPLINE
5
2A5
100
AcDbEntity
8
1
62
256
6
ByLayer
370
18
48
1
60
0
100
AcDbSpline
70
4
71
3
72
8
73
4
40
0
40
0
40
0
40
0
40
1
40
1
40
1
40
1
41
1
10
39.2949878440829
20
8.25587635396784
30
0
41
1
10
39.4171885486939
20
8.18872476152001
30
0
41
1
10
39.5170827945869
20
8.17997961151829
30
0
41
1
10
39.6443903209915
20
8.17131396502717
30
0
0
SPLINE
5
2A6
100
AcDbEntity
8
1
62
256
6
ByLayer
370
13
48
1
60
0
100
AcDbSpline
70
4
71
3
72
8
73
4
40
0
40
0
40
0
40
0
40
1
40
1
40
1
40
1
41
1
10
40.4137580164183
20
7.72223651899802
30
0
41
1
10
40.3832035113633
20
7.73456208407902
30
0
41
1
10
40.3512003181638
20
7.74378647049102
30
0
41
1
10
40.3187655526461
20
7.74961509291307
30
0
0
SPLINE
5
2A7
100
AcDbEntity
8
1
62
256
6
ByLayer
370
13
48
1
60
0
100
AcDbSpline
70
4
71
3
72
14
73
10
40
0
40
0
40
0
40
0
40
0.331677825676057
40
0.331677825676057
40
0.662805943003765
40
0.662805943003765
40
0.759335348761248
40
0.759335348761248
40
1
40
1
40
1
40
1
41
1
10
35.628352374945
20
12.6045103537059
30
0
41
1
10
35.6611530215082
20
12.6026922625916
30
0
41
1
10
35.692416394114
20
12.6000283903507
30
0
41
1
10
35.7481500781111
20
12.5942792401062
30
0
41
1
10
35.7731980364482
20
12.5910193026076
30
0
41
1
10
35.8001339427125
20
12.5886319245274
30
0
41
1
10
35.8059214954234
20
12.5882248375806
30
0
41
1
10
35.8246947260198
20
12.5877093137805
30
0
41
1
10
35.8360586786918
20
12.5884498872826
30
0
41
1
10
35.8443472938192
20
12.5956314679352
30
0
0
SPLINE
5
2A8
100
AcDbEntity
8
1
62
256
6
ByLayer
370
13
48
1
60
0
100
AcDbSpline
70
4
71
3
72
8
73
4
40
0
40
0
40
0
40
0
40
1
40
1
40
1
40
1
41
1
10
40.7495716856813
20
7.91691501955987
30
0
41
1
10
40.7498163989533
20
7.91680500317386
30
0
41
1
10
40.7500611140747
20
7.91669499325496
30
0
41
1
10
40.7503058310459
20
7.91658498980922
30
0
0
SPLINE
5
2A9
100
AcDbEntity
8
1
62
256
6
ByLayer
370
13
48
1
60
0
100
AcDbSpline
70
4
71
3
72
8
73
4
40
0
40
0
40
0
40
0
40
1
40
1
40
1
40
1
41
1
10
40.8143438239173
20
12.4422176791764
30
0
41
1
10
40.8587854482608
20
12.4599594243197
30
0
41
1
10
40.903449409651
20
12.477218326958
30
0
41
1
10
40.948316358124
20
12.4939273964658
30
0
0
SPLINE
5
2AA
100
AcDbEntity
8
1
62
256
6
ByLayer
370
13
48
1
60
0
100
AcDbSpline
70
4
71
3
72
8
73
4
40
0
40
0
40
0
40
0
40
1
40
1
40
1
40
1
41
1
10
40.9293699234432
20
12.1653825379757
30
0
41
1
10
40.8864182607099
20
12.1449516600187
30
0
41
1
10
40.8432490533785
20
12.1250559445574
30
0
41
1
10
40.7999366675815
20
12.1056227437425
30
0
0
SPLINE
5
2AB
100
AcDbEntity
8
1
62
256
6
ByLayer
370
13
48
1
60
0
100
AcDbSpline
70
4
71
3
72
8
73
4
40
0
40
0
40
0
40
0
40
1
40
1
40
1
40
1
41
1
10
40.5484832385472
20
12.5699392840855
30
0
41
1
10
40.541570402259
20
12.5670032682527
30
0
41
1
10
40.5346505532355
20
12.5640834185138
30
0
41
1
10
40.5277237938151
20
12.5611798161626
30
0
0
SPLINE
5
2AC
100
AcDbEntity
8
1
62
256
6
ByLayer
370
13
48
1
60
0
100
AcDbSpline
70
4
71
3
72
8
73
4
40
0
40
0
40
0
40
0
40
1
40
1
40
1
40
1
41
1
10
39.2314098900027
20
12.4337560282262
30
0
41
1
10
39.2444387803165
20
12.3556500780567
30
0
41
1
10
39.2575853202964
20
12.2733942358657
30
0
41
1
10
39.2670151376414
20
12.2109795687617
30
0
0
SPLINE
5
2AD
100
AcDbEntity
8
1
62
256
6
ByLayer
370
13
48
1
60
0
100
AcDbSpline
70
4
71
3
72
8
73
4
40
0
40
0
40
0
40
0
40
1
40
1
40
1
40
1
41
1
10
38.0032717327584
20
11.9132190998618
30
0
41
1
10
38.1461615103141
20
11.9167663811605
30
0
41
1
10
38.2881370251233
20
11.9494524159553
30
0
41
1
10
38.4237063417946
20
11.9924417563701
30
0
0
SPLINE
5
2AE
100
AcDbEntity
8
1
62
256
6
ByLayer
370
13
48
1
60
0
100
AcDbSpline
70
4
71
3
72
8
73
4
40
0
40
0
40
0
40
0
40
1
40
1
40
1
40
1
41
1
10
40.4022802160155
20
7.48934031301013
30
0
41
1
10
40.4092917166475
20
7.48662991457792
30
0
41
1
10
40.4162968830692
20
7.48390336033071
30
0
41
1
10
40.4232955588815
20
7.48116058903858
30
0
0
SPLINE
5
2AF
100
AcDbEntity
8
1
62
256
6
ByLayer
370
13
48
1
60
0
100
AcDbSpline
70
4
71
3
72
8
73
4
40
0
40
0
40
0
40
0
40
1
40
1
40
1
40
1
41
1
10
40.4442668759649
20
12.5271143936838
30
0
41
1
10
40.4372829856112
20
12.5243398163158
30
0
41
1
10
40.430292496949
20
12.5215815012338
30
0
41
1
10
40.4232955588816
20
12.5188394109615
30
0
0
SPLINE
5
2B0
100
AcDbEntity
8
1
62
256
6
ByLayer
370
13
48
1
60
0
100
AcDbSpline
70
4
71
3
72
8
73
4
40
0
40
0
40
0
40
0
40
1
40
1
40
1
40
1
41
1
10
40.3725330027423
20
11.9639686929709
30
0
41
1
10
40.318842226577
20
11.9458655161948
30
0
41
1
10
40.2648036127091
20
11.9283617012743
30
0
41
1
10
40.2126402654707
20
11.9138956350491
30
0
0
SPLINE
5
2B1
100
AcDbEntity
8
1
62
256
6
ByLayer
370
13
48
1
60
0
100
AcDbSpline
70
4
71
3
72
8
73
4
40
0
40
0
40
0
40
0
40
1
40
1
40
1
40
1
41
1
10
41.0435669894049
20
11.9767112899752
30
0
41
1
10
41.0880117851802
20
12.0011170852796
30
0
41
1
10
41.1318676502928
20
12.0266697809294
30
0
41
1
10
41.1748620928796
20
12.053594964172
30
0
0
SPLINE
5
2B2
100
AcDbEntity
8
1
62
256
6
ByLayer
370
13
48
1
60
0
100
AcDbSpline
70
4
71
3
72
8
73
4
40
0
40
0
40
0
40
0
40
1
40
1
40
1
40
1
41
1
10
38.0443671218847
20
11.2295492615224
30
0
41
1
10
38.0498379427018
20
11.2305934223319
30
0
41
1
10
38.0553099554025
20
11.2316417426316
30
0
41
1
10
38.060783131599
20
11.2326941582966
30
0
0
SPLINE
5
2B3
100
AcDbEntity
8
1
62
256
6
ByLayer
370
13
48
1
60
0
100
AcDbSpline
70
4
71
3
72
8
73
4
40
0
40
0
40
0
40
0
40
1
40
1
40
1
40
1
41
1
10
40.5904290701336
20
11.8019071065528
30
0
41
1
10
40.5952572596188
20
11.8034851466427
30
0
41
1
10
40.600110757391
20
11.8049815077001
30
0
41
1
10
40.60498321608
20
11.8063965108289
30
0
0
SPLINE
5
2B4
100
AcDbEntity
8
1
62
256
6
ByLayer
370
13
48
1
60
0
100
AcDbSpline
70
4
71
3
72
8
73
4
40
0
40
0
40
0
40
0
40
1
40
1
40
1
40
1
41
1
10
40.7543363061484
20
12.0772724123179
30
0
41
1
10
40.7668894292275
20
12.0670122484862
30
0
41
1
10
40.7795768973381
20
12.0550973988538
30
0
41
1
10
40.7920468780271
20
12.0418774739994
30
0
0
SPLINE
5
2B5
100
AcDbEntity
8
1
62
256
6
ByLayer
370
13
48
1
60
0
100
AcDbSpline
70
4
71
3
72
8
73
4
40
0
40
0
40
0
40
0
40
1
40
1
40
1
40
1
41
1
10
38.4315828618976
20
11.8609850427165
30
0
41
1
10
38.3556996027647
20
11.8084568119616
30
0
41
1
10
38.2835799921849
20
11.7534944061458
30
0
41
1
10
38.216198644719
20
11.6966319687381
30
0
0
SPLINE
5
2B6
100
AcDbEntity
8
1
62
256
6
ByLayer
370
13
48
1
60
0
100
AcDbSpline
70
4
71
3
72
8
73
4
40
0
40
0
40
0
40
0
40
1
40
1
40
1
40
1
41
1
10
41.0435669894049
20
8.02328871002487
30
0
41
1
10
40.9992038318865
20
8.04764967563546
30
0
41
1
10
40.9542196842923
20
8.07088208218778
30
0
41
1
10
40.908774095615
20
8.09311549757314
30
0
0
SPLINE
5
2B7
100
AcDbEntity
8
1
62
256
6
ByLayer
370
13
48
1
60
0
100
AcDbSpline
70
4
71
3
72
8
73
4
40
0
40
0
40
0
40
0
40
1
40
1
40
1
40
1
41
1
10
40.5277237938151
20
7.43882018383744
30
0
41
1
10
40.5346505532355
20
7.43591658148623
30
0
41
1
10
40.541570402259
20
7.43299673174735
30
0
41
1
10
40.5484832385472
20
7.43006071591458
30
0
0
SPLINE
5
2B8
100
AcDbEntity
8
1
62
256
6
ByLayer
370
13
48
1
60
0
100
AcDbSpline
70
4
71
3
72
10
73
6
40
0
40
0
40
0
40
0
40
0.565105076028529
40
0.565105076028529
40
1
40
1
40
1
40
1
41
1
10
38.060783131599
20
11.2326941582962
30
0
41
1
10
38.1339844997325
20
11.250127116282
30
0
41
1
10
38.2049345186554
20
11.2765361945764
30
0
41
1
10
38.3191955048542
20
11.3361642096186
30
0
41
1
10
38.3658340951309
20
11.3667883030866
30
0
41
1
10
38.407629342978
20
11.4008377598915
30
0
0
SPLINE
5
2B9
100
AcDbEntity
8
1
62
256
6
ByLayer
370
13
48
1
60
0
100
AcDbSpline
70
4
71
3
72
8
73
4
40
0
40
0
40
0
40
0
40
1
40
1
40
1
40
1
41
1
10
39.0948412522587
20
12.1729817435833
30
0
41
1
10
39.151932555155
20
12.1868413795714
30
0
41
1
10
39.2093639578302
20
12.1995317071426
30
0
41
1
10
39.2670038738256
20
12.2111451888626
30
0
0
SPLINE
5
2BA
100
AcDbEntity
8
1
62
256
6
ByLayer
370
13
48
1
60
0
100
AcDbSpline
70
4
71
3
72
8
73
4
40
0
40
0
40
0
40
0
40
1
40
1
40
1
40
1
41
1
10
40.4232955588815
20
12.5188394109614
30
0
41
1
10
40.4162968830692
20
12.5160966396693
30
0
41
1
10
40.4092917166475
20
12.5133700854221
30
0
41
1
10
40.4022802160155
20
12.5106596869899
30
0
0
SPLINE
5
2BB
100
AcDbEntity
8
1
62
256
6
ByLayer
370
13
48
1
60
0
100
AcDbSpline
70
4
71
3
72
8
73
4
40
0
40
0
40
0
40
0
40
1
40
1
40
1
40
1
41
1
10
38.9988
20
12.3950298057024
30
0
41
1
10
38.9988
20
12.5644833944562
30
0
41
1
10
38.9988
20
12.7339369832099
30
0
41
1
10
38.9988
20
12.9033905719637
30
0
0
SPLINE
5
2BC
100
AcDbEntity
8
1
62
256
6
ByLayer
370
18
48
1
60
0
100
AcDbSpline
70
4
71
3
72
8
73
4
40
0
40
0
40
0
40
0
40
1
40
1
40
1
40
1
41
1
10
41.1241841571116
20
12.9993603265576
30
0
41
1
10
41.1490613325695
20
12.9998136218981
30
0
41
1
10
41.1739438271317
20
13.0000345545326
30
0
41
1
10
41.1988251289714
20
13.0000230721854
30
0
0
SPLINE
5
2BD
100
AcDbEntity
8
1
62
256
6
ByLayer
370
13
48
1
60
0
100
AcDbSpline
70
4
71
3
72
8
73
4
40
0
40
0
40
0
40
0
40
1
40
1
40
1
40
1
41
1
10
39.7309356057355
20
8.09889218919196
30
0
41
1
10
39.7338058010251
20
8.11606194183989
30
0
41
1
10
39.7369049968079
20
8.13985251099811
30
0
41
1
10
39.7399583357223
20
8.16817676661574
30
0
0
SPLINE
5
2BE
100
AcDbEntity
8
1
62
256
6
ByLayer
370
13
48
1
60
0
100
AcDbSpline
70
4
71
3
72
8
73
4
40
0
40
0
40
0
40
0
40
1
40
1
40
1
40
1
41
1
10
39.6875628171811
20
12.2394117518375
30
0
41
1
10
39.6872006764784
20
12.2446890074783
30
0
41
1
10
39.6868695059572
20
12.2498163986918
30
0
41
1
10
39.6865704704758
20
12.2547763778903
30
0
0
SPLINE
5
2BF
100
AcDbEntity
8
1
62
256
6
ByLayer
370
13
48
1
60
0
100
AcDbSpline
70
4
71
3
72
8
73
4
40
0
40
0
40
0
40
0
40
1
40
1
40
1
40
1
41
1
10
40.0196798836103
20
11.6651021951281
30
0
41
1
10
40.0324199091963
20
11.6579106779759
30
0
41
1
10
40.0451888361773
20
11.6506871559024
30
0
41
1
10
40.0579730137738
20
11.6434227536154
30
0
0
SPLINE
5
2C0
100
AcDbEntity
8
1
62
256
6
ByLayer
370
13
48
1
60
0
100
AcDbSpline
70
4
71
3
72
8
73
4
40
0
40
0
40
0
40
0
40
1
40
1
40
1
40
1
41
1
10
40.5230336007821
20
12.3216275381161
30
0
41
1
10
40.5303010589712
20
12.3245858842253
30
0
41
1
10
40.5375652355361
20
12.3275512165504
30
0
41
1
10
40.5448260607215
20
12.3305235344625
30
0
0
SPLINE
5
2C1
100
AcDbEntity
8
1
62
256
6
ByLayer
370
13
48
1
60
0
100
AcDbSpline
70
4
71
3
72
12
73
8
40
0
40
0
40
0
40
0
40
0.378111815645349
40
0.378111815645349
40
0.754171086922308
40
0.754171086922308
40
1
40
1
40
1
40
1
41
1
10
35.6411661230247
20
7.91729535992411
30
0
41
1
10
35.6278260366043
20
7.92390320558022
30
0
41
1
10
35.607772587509
20
7.924609704055
30
0
41
1
10
35.5580681504676
20
7.9254290683009
30
0
41
1
10
35.5277368416966
20
7.92515481081779
30
0
41
1
10
35.4721594567357
20
7.92609180572896
30
0
41
1
10
35.4484206143955
20
7.92679197234474
30
0
41
1
10
35.4238413754572
20
7.92801187032623
30
0
0
SPLINE
5
2C2
100
AcDbEntity
8
1
62
256
6
ByLayer
370
13
48
1
60
0
100
AcDbSpline
70
4
71
3
72
8
73
4
40
0
40
0
40
0
40
0
40
1
40
1
40
1
40
1
41
1
10
40.8767887348261
20
8.057878064828
30
0
41
1
10
40.8630146234362
20
8.04046097001265
30
0
41
1
10
40.8489624840576
20
8.02329473720496
30
0
41
1
10
40.8351185748499
20
8.00695735561618
30
0
0
SPLINE
5
2C3
100
AcDbEntity
8
1
62
256
6
ByLayer
370
13
48
1
60
0
100
AcDbSpline
70
4
71
3
72
8
73
4
40
0
40
0
40
0
40
0
40
1
40
1
40
1
40
1
41
1
10
40.7479544982324
20
12.0823575865077
30
0
41
1
10
40.740960487636
20
12.0808000904476
30
0
41
1
10
40.7339683055008
20
12.0792074580846
30
0
41
1
10
40.7269803124967
20
12.0775775058425
30
0
0
SPLINE
5
2C4
100
AcDbEntity
8
1
62
256
6
ByLayer
370
13
48
1
60
0
100
AcDbSpline
70
4
71
3
72
8
73
4
40
0
40
0
40
0
40
0
40
1
40
1
40
1
40
1
41
1
10
40.4575307350278
20
12.2951870443894
30
0
41
1
10
40.4648189175328
20
12.2981042835341
30
0
41
1
10
40.4721039881168
20
12.3010284327177
30
0
41
1
10
40.4793858669152
20
12.3039595188274
30
0
0
SPLINE
5
2C5
100
AcDbEntity
8
1
62
256
6
ByLayer
370
13
48
1
60
0
100
AcDbSpline
70
4
71
3
72
12
73
8
40
0
40
0
40
0
40
0
40
0.587045223615787
40
0.587045223615787
40
0.873404334263873
40
0.873404334263873
40
1
40
1
40
1
40
1
41
1
10
41.4078128030826
20
12.7000000000033
30
0
41
1
10
41.389723447243
20
12.7178920438676
30
0
41
1
10
41.3715062361441
20
12.7363873392595
30
0
41
1
10
41.3393462388878
20
12.7566248034599
30
0
41
1
10
41.3276003096613
20
12.7618125274634
30
0
41
1
10
41.3099627787902
20
12.7655356534648
30
0
41
1
10
41.3043765647838
20
12.7661939257467
30
0
41
1
10
41.2988
20
12.7663379527219
30
0
0
SPLINE
5
2C6
100
AcDbEntity
8
1
62
256
6
ByLayer
370
18
48
1
60
0
100
AcDbSpline
70
4
71
3
72
8
73
4
40
0
40
0
40
0
40
0
40
1
40
1
40
1
40
1
41
1
10
41.1748620927764
20
7.94640503589042
30
0
41
1
10
41.1361250311479
20
7.88226403806124
30
0
41
1
10
41.0935458789442
20
7.81834491817051
30
0
41
1
10
41.0580629624681
20
7.77142676481435
30
0
0
SPLINE
5
2C7
100
AcDbEntity
8
1
62
256
6
ByLayer
370
13
48
1
60
0
100
AcDbSpline
70
4
71
3
72
8
73
4
40
0
40
0
40
0
40
0
40
1
40
1
40
1
40
1
41
1
10
39.7222394395966
20
11.7605557141394
30
0
41
1
10
39.7281278171246
20
11.7830865878176
30
0
41
1
10
39.7340695393143
20
11.8068981460167
30
0
41
1
10
39.7400229965732
20
11.8318236375485
30
0
0
SPLINE
5
2C8
100
AcDbEntity
8
1
62
256
6
ByLayer
370
18
48
1
60
0
100
AcDbSpline
70
4
71
3
72
8
73
4
40
0
40
0
40
0
40
0
40
1
40
1
40
1
40
1
41
1
10
41.5919425964415
20
8.95425441222039
30
0
41
1
10
41.586478738051
20
9.11257609838171
30
0
41
1
10
41.5826307069815
20
9.28155498669992
30
0
41
1
10
41.5800906265912
20
9.45416801046952
30
0
0
SPLINE
5
2C9
100
AcDbEntity
8
1
62
256
6
ByLayer
370
18
48
1
60
0
100
AcDbSpline
70
4
71
3
72
8
73
4
40
0
40
0
40
0
40
0
40
1
40
1
40
1
40
1
41
1
10
41.5958860899748
20
11.2627433753512
30
0
41
1
10
41.5967987159963
20
11.3401379597504
30
0
41
1
10
41.5975813598682
20
11.4199987919074
30
0
41
1
10
41.5983702589143
20
11.5
30
0
0
SPLINE
5
2CA
100
AcDbEntity
8
1
62
256
6
ByLayer
370
13
48
1
60
0
100
AcDbSpline
70
4
71
3
72
28
73
24
40
0
40
0
40
0
40
0
40
0.0238654501830182
40
0.0238654501830182
40
0.133493938992539
40
0.133493938992539
40
0.240082406522428
40
0.240082406522428
40
0.34477669181866
40
0.34477669181866
40
0.381521206530308
40
0.381521206530308
40
0.499830519593442
40
0.499830519593442
40
0.612150105615888
40
0.612150105615888
40
0.727182535840296
40
0.727182535840296
40
0.849086632653485
40
0.849086632653485
40
0.971069278177385
40
0.971069278177385
40
1
40
1
40
1
40
1
41
1
10
40.0579730137723
20
11.6434227536159
30
0
41
1
10
40.0546413928676
20
11.6346251680986
30
0
41
1
10
40.0517276910134
20
11.6256308078233
30
0
41
1
10
40.0380054171297
20
11.5750149958643
30
0
41
1
10
40.0356721370462
20
11.5294045739977
30
0
41
1
10
40.0493097086246
20
11.4388233619017
30
0
41
1
10
40.0649765059664
20
11.3926147335063
30
0
41
1
10
40.1111764669924
20
11.3055932089156
30
0
41
1
10
40.1420739155112
20
11.2635249978328
30
0
41
1
10
40.191168599704
20
11.2124797781872
30
0
41
1
10
40.204785681428
20
11.1995517513448
30
0
41
1
10
40.2646179742538
20
11.1481331407359
30
0
41
1
10
40.3150140565334
20
11.1117597968545
30
0
41
1
10
40.4208031574376
20
11.0599545496117
30
0
41
1
10
40.4764904561292
20
11.0421823718177
30
0
41
1
10
40.5879795137496
20
11.0253402894448
30
0
41
1
10
40.6454940358799
20
11.0264897635351
30
0
41
1
10
40.7549790313211
20
11.0485642324098
30
0
41
1
10
40.8083168441141
20
11.0710385583833
30
0
41
1
10
40.8977333781026
20
11.1326031061445
30
0
41
1
10
40.9353384041104
20
11.1727148030762
30
0
41
1
10
40.9681883827677
20
11.2282211940573
30
0
41
1
10
40.9739762105656
20
11.2393198796995
30
0
41
1
10
40.9791315895941
20
11.250657448495
30
0
0
SPLINE
5
2CB
100
AcDbEntity
8
1
62
256
6
ByLayer
370
13
48
1
60
0
100
AcDbSpline
70
4
71
3
72
8
73
4
40
0
40
0
40
0
40
0
40
1
40
1
40
1
40
1
41
1
10
40.3187655526461
20
12.2503849070869
30
0
41
1
10
40.3512003181638
20
12.256213529509
30
0
41
1
10
40.3832035113633
20
12.265437915921
30
0
41
1
10
40.4137580164183
20
12.277763481002
30
0
0
SPLINE
5
2CC
100
AcDbEntity
8
1
62
256
6
ByLayer
370
18
48
1
60
0
100
AcDbSpline
70
4
71
3
72
12
73
8
40
0
40
0
40
0
40
0
40
0.422114569100643
40
0.422114569100643
40
0.711057259361882
40
0.711057259361882
40
1
40
1
40
1
40
1
41
1
10
38.046950104375
20
7.13380127380029
30
0
41
1
10
38.1808805375966
20
7.12794978347688
30
0
41
1
10
38.3148102631972
20
7.12208259441078
30
0
41
1
10
38.5404163352194
20
7.11219540085577
30
0
41
1
10
38.6320927656927
20
7.10817661429655
30
0
41
1
10
38.8154459967653
20
7.10014643939834
30
0
41
1
10
38.907122810612
20
7.09613510010618
30
0
41
1
10
38.9988
20
7.09213238757428
30
0
0
SPLINE
5
2CD
100
AcDbEntity
8
1
62
256
6
ByLayer
370
13
48
1
60
0
100
AcDbSpline
70
4
71
3
72
20
73
16
40
0
40
0
40
0
40
0
40
0.0511781701555259
40
0.0511781701555259
40
0.303128062667491
40
0.303128062667491
40
0.356489085308167
40
0.356489085308167
40
0.613164842054321
40
0.613164842054321
40
0.673251350208868
40
0.673251350208868
40
0.936987103992264
40
0.936987103992264
40
1
40
1
40
1
40
1
41
1
10
40.9791315895939
20
11.2506574484951
30
0
41
1
10
40.9840028949995
20
11.2588511923018
30
0
41
1
10
40.9886222673739
20
11.2673198705006
30
0
41
1
10
41.0141222644013
20
11.3183518196039
30
0
41
1
10
41.0292554530918
20
11.3673651870215
30
0
41
1
10
41.0389463347828
20
11.4300365464963
30
0
41
1
10
41.0403422491477
20
11.4412671370261
30
0
41
1
10
41.0465016725801
20
11.5064328719207
30
0
41
1
10
41.0442136874494
20
11.5636475559774
30
0
41
1
10
41.031881379169
20
11.6326068928634
30
0
41
1
10
41.0290854319023
20
11.645794423019
30
0
41
1
10
41.0118839410954
20
11.7156246059301
30
0
41
1
10
40.9894080389161
20
11.7715369147086
30
0
41
1
10
40.9519599013358
20
11.833874770497
30
0
41
1
10
40.9441931341021
20
11.8457437910118
30
0
41
1
10
40.9359816925958
20
11.8572662551141
30
0
0
SPLINE
5
2CE
100
AcDbEntity
8
1
62
256
6
ByLayer
370
18
48
1
60
0
100
AcDbSpline
70
4
71
3
72
8
73
4
40
0
40
0
40
0
40
0
40
1
40
1
40
1
40
1
41
1
10
41.5800841794829
20
9.45368578604479
30
0
41
1
10
41.5774607767305
20
9.63194802598733
30
0
41
1
10
41.5762072426711
20
9.81661320898451
30
0
41
1
10
41.5762062521179
20
10.0000000661773
30
0
0
SPLINE
5
2CF
100
AcDbEntity
8
1
62
256
6
ByLayer
370
13
48
1
60
0
100
AcDbSpline
70
4
71
3
72
8
73
4
40
0
40
0
40
0
40
0
40
1
40
1
40
1
40
1
41
1
10
40.4793858669152
20
7.69604048117264
30
0
41
1
10
40.4721039881168
20
7.69897156728234
30
0
41
1
10
40.4648189175328
20
7.70189571646594
30
0
41
1
10
40.4575307350278
20
7.70481295561063
30
0
0
SPLINE
5
2D0
100
AcDbEntity
8
1
62
256
6
ByLayer
370
18
48
1
60
0
100
AcDbSpline
70
4
71
3
72
10
73
6
40
0
40
0
40
0
40
0
40
0.951835912113294
40
0.951835912113294
40
1
40
1
40
1
40
1
41
1
10
40.1338906272085
20
8.1913089968744
30
0
41
1
10
40.1350575084263
20
8.19090156150085
30
0
41
1
10
40.1362237051075
20
8.19049290850086
30
0
41
1
10
40.1374504511153
20
8.19006720895652
30
0
41
1
10
40.1375096166096
20
8.1900466839422
30
0
41
1
10
40.1375687835792
20
8.19002616315237
30
0
0
SPLINE
5
2D1
100
AcDbEntity
8
1
62
256
6
ByLayer
370
13
48
1
60
0
100
AcDbSpline
70
4
71
3
72
8
73
4
40
0
40
0
40
0
40
0
40
1
40
1
40
1
40
1
41
1
10
39.79036238069
20
11.7489673419037
30
0
41
1
10
39.8331792184332
20
11.7409697040058
30
0
41
1
10
39.8752505849298
20
11.7290833937883
30
0
41
1
10
39.9154804451044
20
11.7138922924177
30
0
0
SPLINE
5
2D2
100
AcDbEntity
8
1
62
256
6
ByLayer
370
13
48
1
60
0
100
AcDbSpline
70
4
71
3
72
8
73
4
40
0
40
0
40
0
40
0
40
1
40
1
40
1
40
1
41
1
10
40.881316190279
20
7.30048227372936
30
0
41
1
10
40.9633588867477
20
7.27212388725314
30
0
41
1
10
41.0484557028996
20
7.25060764928898
30
0
41
1
10
41.134613676882
20
7.2395149490545
30
0
0
SPLINE
5
2D3
100
AcDbEntity
8
1
62
256
6
ByLayer
370
13
48
1
60
0
100
AcDbSpline
70
4
71
3
72
8
73
4
40
0
40
0
40
0
40
0
40
1
40
1
40
1
40
1
41
1
10
40.6100743152022
20
7.64254020949366
30
0
41
1
10
40.6028351840507
20
7.64555388536192
30
0
41
1
10
40.5955925750812
20
7.64856060940798
30
0
41
1
10
40.5883465466143
20
7.65156035309397
30
0
0
SPLINE
5
2D4
100
AcDbEntity
8
1
62
256
6
ByLayer
370
13
48
1
60
0
100
AcDbSpline
70
4
71
3
72
8
73
4
40
0
40
0
40
0
40
0
40
1
40
1
40
1
40
1
41
1
10
40.7035794882308
20
12.071972446621
30
0
41
1
10
40.6958230347327
20
12.0700646965225
30
0
41
1
10
40.6880735986024
20
12.0681078202284
30
0
41
1
10
40.6803340464424
20
12.0660994379436
30
0
0
SPLINE
5
2D5
100
AcDbEntity
8
1
62
256
6
ByLayer
370
13
48
1
60
0
100
AcDbSpline
70
4
71
3
72
8
73
4
40
0
40
0
40
0
40
0
40
1
40
1
40
1
40
1
41
1
10
39.7903623806973
20
8.25103265807334
30
0
41
1
10
39.7734799864671
20
8.24787924266471
30
0
41
1
10
39.7565618906644
20
8.24493028265709
30
0
41
1
10
39.7396158168117
20
8.24218777911608
30
0
0
SPLINE
5
2D6
100
AcDbEntity
8
1
62
256
6
ByLayer
370
13
48
1
60
0
100
AcDbSpline
70
4
71
3
72
8
73
4
40
0
40
0
40
0
40
0
40
1
40
1
40
1
40
1
41
1
10
40.7920468780101
20
7.95812252599819
30
0
41
1
10
40.7944228027206
20
7.96064133613956
30
0
41
1
10
40.7967936105663
20
7.96320990698774
30
0
41
1
10
40.7991567929701
20
7.96582533288128
30
0
0
SPLINE
5
2D7
100
AcDbEntity
8
1
62
256
6
ByLayer
370
13
48
1
60
0
100
AcDbSpline
70
4
71
3
72
8
73
4
40
0
40
0
40
0
40
0
40
1
40
1
40
1
40
1
41
1
10
40.7128218791706
20
8.17455762170923
30
0
41
1
10
40.7074812682998
20
8.17498568215035
30
0
41
1
10
40.7021278986483
20
8.1754777913103
30
0
41
1
10
40.6967680340497
20
8.17604010589073
30
0
0
SPLINE
5
2D8
100
AcDbEntity
8
1
62
256
6
ByLayer
370
13
48
1
60
0
100
AcDbSpline
70
4
71
3
72
8
73
4
40
0
40
0
40
0
40
0
40
1
40
1
40
1
40
1
41
1
10
40.0768203692056
20
7.75137515054516
30
0
41
1
10
40.0444938544172
20
7.75013490530057
30
0
41
1
10
40.0121596321301
20
7.74899021953345
30
0
41
1
10
39.9798199560948
20
7.74793746749884
30
0
0
SPLINE
5
2D9
100
AcDbEntity
8
1
62
256
6
ByLayer
370
13
48
1
60
0
100
AcDbSpline
70
4
71
3
72
8
73
4
40
0
40
0
40
0
40
0
40
1
40
1
40
1
40
1
41
1
10
40.2210385465932
20
12.2430548017193
30
0
41
1
10
40.2536819261954
20
12.2421307831586
30
0
41
1
10
40.2866098311353
20
12.2446007396259
30
0
41
1
10
40.3187655526461
20
12.2503849070869
30
0
0
SPLINE
5
2DA
100
AcDbEntity
8
1
62
256
6
ByLayer
370
13
48
1
60
0
100
AcDbSpline
70
4
71
3
72
8
73
4
40
0
40
0
40
0
40
0
40
1
40
1
40
1
40
1
41
1
10
37.9635023147842
20
11.5794845066912
30
0
41
1
10
37.710338217683
20
11.5245785436025
30
0
41
1
10
37.4623874231275
20
11.4605806264463
30
0
41
1
10
37.2206692005292
20
11.3857131582786
30
0
0
SPLINE
5
2DB
100
AcDbEntity
8
1
62
256
6
ByLayer
370
13
48
1
60
0
100
AcDbSpline
70
4
71
3
72
8
73
4
40
0
40
0
40
0
40
0
40
1
40
1
40
1
40
1
41
1
10
39.7399583357063
20
11.8318232335226
30
0
41
1
10
39.7136382818733
20
11.8316584957856
30
0
41
1
10
39.6873098870252
20
11.830925061067
30
0
41
1
10
39.6610393695503
20
11.8294113373157
30
0
0
SPLINE
5
2DC
100
AcDbEntity
8
1
62
256
6
ByLayer
370
13
48
1
60
0
100
AcDbSpline
70
4
71
3
72
20
73
16
40
0
40
0
40
0
40
0
40
0.0001419067073469
40
0.0001419067073469
40
0.148182794543683
40
0.148182794543683
40
0.186164347229433
40
0.186164347229433
40
0.265575571808653
40
0.265575571808653
40
0.418346769420177
40
0.418346769420177
40
0.710566337099013
40
0.710566337099013
40
1
40
1
40
1
40
1
41
1
10
39.2670151376414
20
12.2109795687619
30
0
41
1
10
39.267034647772
20
12.2109839331908
30
0
41
1
10
39.267054158121
20
12.2109882967633
30
0
41
1
10
39.2873685781032
20
12.2155339883561
30
0
41
1
10
39.3082897344781
20
12.2164197575339
30
0
41
1
10
39.3342443387808
20
12.2191528699655
30
0
41
1
10
39.3395767110538
20
12.2197207166219
30
0
41
1
10
39.3557032149485
20
12.223301544162
30
0
41
1
10
39.366642940599
20
12.2256846771903
30
0
41
1
10
39.3987444294999
20
12.2320220555919
30
0
41
1
10
39.4200520845594
20
12.235351215367
30
0
41
1
10
39.4822582214744
20
12.2430163436333
30
0
41
1
10
39.5233211970633
20
12.2459749063954
30
0
41
1
10
39.6050788847873
20
12.2508443892759
30
0
41
1
10
39.6458333233469
20
12.2526535244419
30
0
41
1
10
39.6865692412714
20
12.2547932419911
30
0
0
SPLINE
5
2DD
100
AcDbEntity
8
1
62
256
6
ByLayer
370
13
48
1
60
0
100
AcDbSpline
70
4
71
1
72
4
73
2
40
0
40
0
40
1
40
1
41
1
10
37.9988
20
12.1058766840601
30
0
41
1
10
37.9988
20
12.8579378416359
30
0
0
SPLINE
5
2DE
100
AcDbEntity
8
1
62
256
6
ByLayer
370
13
48
1
60
0
100
AcDbSpline
70
4
71
3
72
8
73
4
40
0
40
0
40
0
40
0
40
1
40
1
40
1
40
1
41
1
10
40.1560341336386
20
12.4744530074428
30
0
41
1
10
40.1338623971359
20
12.4759612229892
30
0
41
1
10
40.1116834357454
20
12.4773696188547
30
0
41
1
10
40.0894987914786
20
12.4786813152604
30
0
0
SPLINE
5
2DF
100
AcDbEntity
8
1
62
256
6
ByLayer
370
13
48
1
60
0
100
AcDbSpline
70
4
71
3
72
10
73
6
40
0
40
0
40
0
40
0
40
0.253003115224061
40
0.253003115224061
40
1
40
1
40
1
40
1
41
1
10
37.1651461399326
20
8.6317120589851
30
0
41
1
10
37.1601297940147
20
8.63330716320843
30
0
41
1
10
37.1550730926922
20
8.63482986489043
30
0
41
1
10
37.1349687178615
20
8.64053883449077
30
0
41
1
10
37.1196046412342
20
8.64415191497642
30
0
41
1
10
37.1040192301255
20
8.64695726076212
30
0
0
SPLINE
5
2E0
100
AcDbEntity
8
1
62
256
6
ByLayer
370
13
48
1
60
0
100
AcDbSpline
70
4
71
3
72
8
73
4
40
0
40
0
40
0
40
0
40
1
40
1
40
1
40
1
41
1
10
40.0706661171761
20
8.18566352660125
30
0
41
1
10
40.09117010743
20
8.18734489805775
30
0
41
1
10
40.1116580907964
20
8.18915664517488
30
0
41
1
10
40.1321151391335
20
8.19111969352292
30
0
0
SPLINE
5
2E1
100
AcDbEntity
8
1
62
256
6
ByLayer
370
18
48
1
60
0
100
AcDbSpline
70
4
71
3
72
8
73
4
40
0
40
0
40
0
40
0
40
1
40
1
40
1
40
1
41
1
10
41.5942643317179
20
11.1401421630482
30
0
41
1
10
41.5948721399629
20
11.1802140103053
30
0
41
1
10
41.59540225325
20
11.2212202270911
30
0
41
1
10
41.5958914593061
20
11.2627691319059
30
0
0
SPLINE
5
2E2
100
AcDbEntity
8
1
62
256
6
ByLayer
370
13
48
1
60
0
100
AcDbSpline
70
4
71
3
72
8
73
4
40
0
40
0
40
0
40
0
40
1
40
1
40
1
40
1
41
1
10
38.9988
20
7.09213238757428
30
0
41
1
10
38.9988
20
7.09362473439495
30
0
41
1
10
38.9988
20
7.09511708121562
30
0
41
1
10
38.9988
20
7.09660942803629
30
0
0
SPLINE
5
2E3
100
AcDbEntity
8
1
62
256
6
ByLayer
370
13
48
1
60
0
100
AcDbSpline
70
4
71
3
72
9
73
5
40
0
40
0
40
0
40
0
40
0.186136068626015
40
1
40
1
40
1
40
1
41
1
10
41.5245417215668
20
8.93090081376997
30
0
41
1
10
41.5290867577796
20
8.96198146833569
30
0
41
1
10
41.5524398825763
20
9.13058903825308
30
0
41
1
10
41.5699474610574
20
9.30720823873895
30
0
41
1
10
41.5801002257187
20
9.4539176054528
30
0
0
SPLINE
5
2E4
100
AcDbEntity
8
1
62
256
6
ByLayer
370
13
48
1
60
0
100
AcDbSpline
70
4
71
3
72
8
73
4
40
0
40
0
40
0
40
0
40
1
40
1
40
1
40
1
41
1
10
40.6572451186158
20
7.94005559381131
30
0
41
1
10
40.6649304290162
20
7.93795133574662
30
0
41
1
10
40.6726276358528
20
7.93590033933216
30
0
41
1
10
40.6803340464423
20
7.93390056205581
30
0
0
SPLINE
5
2E5
100
AcDbEntity
8
1
62
256
6
ByLayer
370
18
48
1
60
0
100
AcDbSpline
70
4
71
3
72
8
73
4
40
0
40
0
40
0
40
0
40
1
40
1
40
1
40
1
41
1
10
41.5958918941543
20
8.73722974105627
30
0
41
1
10
41.5954029021592
20
8.77877841048053
30
0
41
1
10
41.5948730752883
20
8.81978441278005
30
0
41
1
10
41.5942654841959
20
8.8598560634868
30
0
0
SPLINE
5
2E6
100
AcDbEntity
8
1
62
256
6
ByLayer
370
13
48
1
60
0
100
AcDbSpline
70
4
71
3
72
8
73
4
40
0
40
0
40
0
40
0
40
1
40
1
40
1
40
1
41
1
10
40.9293699234432
20
7.83461746202423
30
0
41
1
10
40.9724969440676
20
7.81410327782993
30
0
41
1
10
41.0154193694879
20
7.7930461284993
30
0
41
1
10
41.0580143058028
20
7.77130420056872
30
0
0
SPLINE
5
2E7
100
AcDbEntity
8
1
62
256
6
ByLayer
370
13
48
1
60
0
100
AcDbSpline
70
4
71
3
72
10
73
6
40
0
40
0
40
0
40
0
40
0.444735918194378
40
0.444735918194378
40
1
40
1
40
1
40
1
41
1
10
39.970427935454
20
11.9024516851543
30
0
41
1
10
39.9466061875936
20
11.9023931868278
30
0
41
1
10
39.9227850573845
20
11.9023379489446
30
0
41
1
10
39.8692242585479
20
11.902316473405
30
0
41
1
10
39.8394842618644
20
11.9023768671563
30
0
41
1
10
39.8097443135566
20
11.9025874534669
30
0
0
SPLINE
5
2E8
100
AcDbEntity
8
1
62
256
6
ByLayer
370
13
48
1
60
0
100
AcDbSpline
70
4
71
3
72
8
73
4
40
0
40
0
40
0
40
0
40
1
40
1
40
1
40
1
41
1
10
40.7503058310459
20
12.0834150101908
30
0
41
1
10
40.7500611140747
20
12.0833050067451
30
0
41
1
10
40.7498163989533
20
12.0831949968261
30
0
41
1
10
40.7495716856813
20
12.0830849804402
30
0
0
SPLINE
5
2E9
100
AcDbEntity
8
1
62
256
6
ByLayer
370
13
48
1
60
0
100
AcDbSpline
70
4
71
3
72
8
73
4
40
0
40
0
40
0
40
0
40
1
40
1
40
1
40
1
41
1
10
39.8132285509218
20
8.16998729190499
30
0
41
1
10
39.8676285804819
20
8.17237246839755
30
0
41
1
10
39.9220142213977
20
8.17524582887967
30
0
41
1
10
39.9763484919093
20
8.17877393381931
30
0
0
SPLINE
5
2EA
100
AcDbEntity
8
1
62
256
6
ByLayer
370
13
48
1
60
0
100
AcDbSpline
70
4
71
3
72
8
73
4
40
0
40
0
40
0
40
0
40
1
40
1
40
1
40
1
41
1
10
40.8351185748554
20
8.00695735562493
30
0
41
1
10
40.8229734988697
20
7.99262478500484
30
0
41
1
10
40.8108745424287
20
7.97879382202515
30
0
41
1
10
40.7991567929702
20
7.96582533288125
30
0
0
SPLINE
5
2EB
100
AcDbEntity
8
1
62
256
6
ByLayer
370
18
48
1
60
0
100
AcDbSpline
70
4
71
3
72
8
73
4
40
0
40
0
40
0
40
0
40
1
40
1
40
1
40
1
41
1
10
39.6444188726499
20
8.17166041686954
30
0
41
1
10
39.6413811022887
20
8.19111497451692
30
0
41
1
10
39.6383199887753
20
8.20985188853209
30
0
41
1
10
39.6352488698075
20
8.22778952203385
30
0
0
SPLINE
5
2EC
100
AcDbEntity
8
1
62
256
6
ByLayer
370
13
48
1
60
0
100
AcDbSpline
70
4
71
3
72
8
73
4
40
0
40
0
40
0
40
0
40
1
40
1
40
1
40
1
41
1
10
37.1949097614156
20
11.0833006494087
30
0
41
1
10
37.2359857631138
20
11.071413936148
30
0
41
1
10
37.2764576844643
20
11.063316267457
30
0
41
1
10
37.31413802761
20
11.059473518579
30
0
0
SPLINE
5
2ED
100
AcDbEntity
8
1
62
256
6
ByLayer
370
18
48
1
60
0
100
AcDbSpline
70
4
71
3
72
8
73
4
40
0
40
0
40
0
40
0
40
1
40
1
40
1
40
1
41
1
10
41.5983702589276
20
8.5
30
0
41
1
10
41.5986577899933
20
8.47084174257867
30
0
41
1
10
41.5988
20
8.44159166294841
30
0
41
1
10
41.5988
20
8.4123603045264
30
0
0
SPLINE
5
2EE
100
AcDbEntity
8
1
62
256
6
ByLayer
370
13
48
1
60
0
100
AcDbSpline
70
4
71
3
72
12
73
8
40
0
40
0
40
0
40
0
40
0.854530153690246
40
0.854530153690246
40
0.866002995156362
40
0.866002995156362
40
1
40
1
40
1
40
1
41
1
10
38.6117028909294
20
11.551860405386
30
0
41
1
10
38.7825735328535
20
11.6671351837774
30
0
41
1
10
38.9770809122478
20
11.7645310411098
30
0
41
1
10
39.1838336861356
20
11.8325183975809
30
0
41
1
10
39.1866175198312
20
11.8334276919713
30
0
41
1
10
39.2219278370484
20
11.8448834363336
30
0
41
1
10
39.2547606001494
20
11.8546987484381
30
0
41
1
10
39.2878217302607
20
11.8637238959145
30
0
0
SPLINE
5
2EF
100
AcDbEntity
8
1
62
256
6
ByLayer
370
18
48
1
60
0
100
AcDbSpline
70
4
71
3
72
10
73
6
40
0
40
0
40
0
40
0
40
0.536380919412186
40
0.536380919412186
40
1
40
1
40
1
40
1
41
1
10
36.5589677780023
20
7.74978471962044
30
0
41
1
10
36.6031988029483
20
7.74665864296745
30
0
41
1
10
36.6466650425995
20
7.74134155238323
30
0
41
1
10
36.7199045298042
20
7.73076988750734
30
0
41
1
10
36.7515402003991
20
7.72552606011075
30
0
41
1
10
36.7789073675193
20
7.72117109086992
30
0
0
SPLINE
5
2F0
100
AcDbEntity
8
1
62
256
6
ByLayer
370
13
48
1
60
0
100
AcDbSpline
70
4
71
3
72
8
73
4
40
0
40
0
40
0
40
0
40
1
40
1
40
1
40
1
41
1
10
39.6875627978462
20
7.76058796656929
30
0
41
1
10
39.6872322213589
20
7.75546706987853
30
0
41
1
10
39.6869016448715
20
7.75034617318778
30
0
41
1
10
39.6865710683842
20
7.74522527649702
30
0
0
SPLINE
5
2F1
100
AcDbEntity
8
1
62
256
6
ByLayer
370
13
48
1
60
0
100
AcDbSpline
70
4
71
3
72
8
73
4
40
0
40
0
40
0
40
0
40
1
40
1
40
1
40
1
41
1
10
40.4232955588816
20
7.48116058903852
30
0
41
1
10
40.430292496949
20
7.47841849876622
30
0
41
1
10
40.4372829856112
20
7.47566018368425
30
0
41
1
10
40.4442668759649
20
7.4728856063162
30
0
0
SPLINE
5
2F2
100
AcDbEntity
8
1
62
256
6
ByLayer
370
13
48
1
60
0
100
AcDbSpline
70
4
71
3
72
8
73
4
40
0
40
0
40
0
40
0
40
1
40
1
40
1
40
1
41
1
10
40.2126402654707
20
8.0861043649509
30
0
41
1
10
40.2648036127091
20
8.07163829872567
30
0
41
1
10
40.318842226577
20
8.05413448380523
30
0
41
1
10
40.3725330027423
20
8.03603130702913
30
0
0
SPLINE
5
2F3
100
AcDbEntity
8
1
62
256
6
ByLayer
370
13
48
1
60
0
100
AcDbSpline
70
4
71
3
72
8
73
4
40
0
40
0
40
0
40
0
40
1
40
1
40
1
40
1
41
1
10
39.7402351429145
20
7.50974932212037
30
0
41
1
10
39.7679726710115
20
7.50926888142806
30
0
41
1
10
39.7957267322443
20
7.50938423906985
30
0
41
1
10
39.8234581827813
20
7.5100953273853
30
0
0
SPLINE
5
2F4
100
AcDbEntity
8
1
62
256
6
ByLayer
370
13
48
1
60
0
100
AcDbSpline
70
4
71
3
72
8
73
4
40
0
40
0
40
0
40
0
40
1
40
1
40
1
40
1
41
1
10
40.8143438239195
20
7.5577823208296
30
0
41
1
10
40.7699387609177
20
7.57550944239344
30
0
41
1
10
40.7257429780689
20
7.59372459161179
30
0
41
1
10
40.6817919691138
20
7.61240886459836
30
0
0
SPLINE
5
2F5
100
AcDbEntity
8
1
62
256
6
ByLayer
370
13
48
1
60
0
100
AcDbSpline
70
4
71
3
72
8
73
4
40
0
40
0
40
0
40
0
40
1
40
1
40
1
40
1
41
1
10
41.1596347348723
20
7.43777316252556
30
0
41
1
10
41.0880860767647
20
7.45623724383466
30
0
41
1
10
41.0174870952115
20
7.47969019919785
30
0
41
1
10
40.94826913131
20
7.50596266584333
30
0
0
SPLINE
5
2F6
100
AcDbEntity
8
1
62
256
6
ByLayer
370
13
48
1
60
0
100
AcDbSpline
70
4
71
3
72
8
73
4
40
0
40
0
40
0
40
0
40
1
40
1
40
1
40
1
41
1
10
40.1338906272073
20
11.8086910031221
30
0
41
1
10
40.1332988369518
20
11.8087543423566
30
0
41
1
10
40.1327070074101
20
11.8088174434171
30
0
41
1
10
40.1321151391335
20
11.8088803064771
30
0
0
SPLINE
5
2F7
100
AcDbEntity
8
1
62
256
6
ByLayer
370
13
48
1
60
0
100
AcDbSpline
70
4
71
3
72
8
73
4
40
0
40
0
40
0
40
0
40
1
40
1
40
1
40
1
41
1
10
40.5219502777688
20
7.9835197529539
30
0
41
1
10
40.5293184819129
20
7.98077379658091
30
0
41
1
10
40.5367082971913
20
7.97808604078577
30
0
41
1
10
40.5441177155276
20
7.97545633861807
30
0
0
SPLINE
5
2F8
100
AcDbEntity
8
1
62
256
6
ByLayer
370
13
48
1
60
0
100
AcDbSpline
70
4
71
3
72
8
73
4
40
0
40
0
40
0
40
0
40
1
40
1
40
1
40
1
41
1
10
40.8351185748554
20
11.9930426443751
30
0
41
1
10
40.8229734988697
20
12.0073752149952
30
0
41
1
10
40.8108745424287
20
12.0212061779749
30
0
41
1
10
40.7991567929702
20
12.0341746671188
30
0
0
SPLINE
5
2F9
100
AcDbEntity
8
1
62
256
6
ByLayer
370
13
48
1
60
0
100
AcDbSpline
70
4
71
3
72
8
73
4
40
0
40
0
40
0
40
0
40
1
40
1
40
1
40
1
41
1
10
37.1651461399327
20
8.63171205898504
30
0
41
1
10
37.4243676226138
20
8.54928447353407
30
0
41
1
10
37.6909153870775
20
8.47963385946935
30
0
41
1
10
37.9635023147842
20
8.42051549330884
30
0
0
SPLINE
5
2FA
100
AcDbEntity
8
1
62
256
6
ByLayer
370
18
48
1
60
0
100
AcDbSpline
70
4
71
3
72
18
73
14
40
0
40
0
40
0
40
0
40
0.241127574926362
40
0.494085049950908
40
0.620563787463181
40
0.652183471841249
40
0.683803156219318
40
0.691708077313835
40
0.699612998408352
40
0.715422840597386
40
0.747042524975454
40
0.873521262487727
40
1
40
1
40
1
40
1
41
1
10
41.5762062521179
20
10.0000000661773
30
0
41
1
10
41.4229317760481
20
10.0000000608582
30
0
41
1
10
41.1088657019432
20
10.0000000499591
30
0
41
1
10
40.7144080438691
20
10.0000000362701
30
0
41
1
10
40.4531219603001
20
10.0000000272026
30
0
41
1
10
40.3325304361565
20
10.0000000230176
30
0
41
1
10
40.2873133742642
20
10.0000000214482
30
0
41
1
10
40.2571532660819
20
10.0000000204019
30
0
41
1
10
40.2370035159291
20
10.0000000197044
30
0
41
1
10
40.2015931172254
20
10.0000000184838
30
0
41
1
10
40.0895451805646
20
10.0000000146475
30
0
41
1
10
39.9023990461038
20
10.00000000837
30
0
41
1
10
39.7333331674349
20
10.00000000279
30
0
41
1
10
39.6488
20
10
30
0
0
SPLINE
5
2FB
100
AcDbEntity
8
1
62
256
6
ByLayer
370
13
48
1
60
0
100
AcDbSpline
70
4
71
3
72
26
73
22
40
0
40
0
40
0
40
0
40
0.0118737075175062
40
0.0118737075175062
40
0.0226461272404119
40
0.0226461272404119
40
0.0360264457090025
40
0.0360264457090025
40
0.0573861628740462
40
0.0573861628740462
40
0.0915323487363692
40
0.0915323487363692
40
0.146349722604984
40
0.146349722604984
40
0.235416431403929
40
0.235416431403929
40
0.385366672882145
40
0.385366672882145
40
0.502080648992031
40
0.502080648992031
40
1
40
1
40
1
40
1
41
1
10
36.8318892411893
20
8.85148473403612
30
0
41
1
10
36.8328704174732
20
8.85060433287981
30
0
41
1
10
36.8338531667764
20
8.84972362656316
30
0
41
1
10
36.8357454185622
20
8.84803229141193
30
0
41
1
10
36.8366544587718
20
8.84722138720227
30
0
41
1
10
36.8386961702836
20
8.84540370462699
30
0
41
1
10
36.8398297253701
20
8.84439701301039
30
0
41
1
10
36.8427790481934
20
8.8417841990223
30
0
41
1
10
36.8445986140225
20
8.84017853901437
30
0
41
1
10
36.8493422435473
20
8.83600887118044
30
0
41
1
10
36.8522758231572
20
8.83344622901683
30
0
41
1
10
36.8599555707713
20
8.82677895406221
30
0
41
1
10
36.864725534208
20
8.82267860820076
30
0
41
1
10
36.8773306771218
20
8.811949041905
30
0
41
1
10
36.8852259188356
20
8.80533450069655
30
0
41
1
10
36.9065959883218
20
8.78771139546353
30
0
41
1
10
36.9202304082037
20
8.7767613071349
30
0
41
1
10
36.9447101676066
20
8.75761407146982
30
0
41
1
10
36.9555241347781
20
8.74932885418042
30
0
41
1
10
37.0120344882074
20
8.70692546307498
30
0
41
1
10
37.0594686986384
20
8.67444349770793
30
0
41
1
10
37.1040192301255
20
8.64695726076212
30
0
0
SPLINE
5
2FC
100
AcDbEntity
8
1
62
256
6
ByLayer
370
13
48
1
60
0
100
AcDbSpline
70
4
71
3
72
8
73
4
40
0
40
0
40
0
40
0
40
1
40
1
40
1
40
1
41
1
10
40.5069234667115
20
7.44748196498534
30
0
41
1
10
40.5138637815396
20
7.44461097065994
30
0
41
1
10
40.5207972614916
20
7.44172369099275
30
0
41
1
10
40.5277237938153
20
7.43882018383735
30
0
0
SPLINE
5
2FD
100
AcDbEntity
8
1
62
256
6
ByLayer
370
13
48
1
60
0
100
AcDbSpline
70
4
71
3
72
8
73
4
40
0
40
0
40
0
40
0
40
1
40
1
40
1
40
1
41
1
10
40.6653132813234
20
11.819816673738
30
0
41
1
10
40.6705187270973
20
11.8206494541071
30
0
41
1
10
40.6757272366318
20
11.8214058508908
30
0
41
1
10
40.6809324141415
20
11.8220905710103
30
0
0
SPLINE
5
2FE
100
AcDbEntity
8
1
62
256
6
ByLayer
370
13
48
1
60
0
100
AcDbSpline
70
4
71
3
72
8
73
4
40
0
40
0
40
0
40
0
40
1
40
1
40
1
40
1
41
1
10
39.8234581827813
20
12.4899046726147
30
0
41
1
10
39.7957267322443
20
12.4906157609302
30
0
41
1
10
39.7679726710115
20
12.490731118572
30
0
41
1
10
39.7402351429145
20
12.4902506778796
30
0
0
SPLINE
5
2FF
100
AcDbEntity
8
1
62
256
6
ByLayer
370
13
48
1
60
0
100
AcDbSpline
70
4
71
3
72
8
73
4
40
0
40
0
40
0
40
0
40
1
40
1
40
1
40
1
41
1
10
40.5012204932652
20
7.687226941266
30
0
41
1
10
40.4939455074457
20
7.69017174430323
30
0
41
1
10
40.4866672731079
20
7.69310958499995
30
0
41
1
10
40.4793858669152
20
7.69604048117262
30
0
0
SPLINE
5
300
100
AcDbEntity
8
1
62
256
6
ByLayer
370
13
48
1
60
0
100
AcDbSpline
70
4
71
3
72
8
73
4
40
0
40
0
40
0
40
0
40
1
40
1
40
1
40
1
41
1
10
40.6499104023501
20
11.8171228543568
30
0
41
1
10
40.6550391514019
20
11.8180980997383
30
0
41
1
10
40.660175599779
20
11.8189947344615
30
0
41
1
10
40.6653132813234
20
11.819816673738
30
0
0
SPLINE
5
301
100
AcDbEntity
8
1
62
256
6
ByLayer
370
13
48
1
60
0
100
AcDbSpline
70
4
71
3
72
8
73
4
40
0
40
0
40
0
40
0
40
1
40
1
40
1
40
1
41
1
10
40.3725330027423
20
8.03603130702916
30
0
41
1
10
40.4223236041376
20
8.01921578865904
30
0
41
1
10
40.4723123832403
20
8.00159672310909
30
0
41
1
10
40.5219502777688
20
7.98351975295401
30
0
0
SPLINE
5
302
100
AcDbEntity
8
1
62
256
6
ByLayer
370
13
48
1
60
0
100
AcDbSpline
70
4
71
3
72
10
73
6
40
0
40
0
40
0
40
0
40
0.0762840566435218
40
0.0762840566435218
40
1
40
1
40
1
40
1
41
1
10
40.9053084491738
20
8.09481232557269
30
0
41
1
10
40.9042486723054
20
8.09532025571826
30
0
41
1
10
40.9031872680981
20
8.09582676733228
30
0
41
1
10
40.8892798567386
20
8.1025034440342
30
0
41
1
10
40.8763721362028
20
8.10889314801921
30
0
41
1
10
40.8636003373363
20
8.11541268882161
30
0
0
SPLINE
5
303
100
AcDbEntity
8
1
62
256
6
ByLayer
370
13
48
1
60
0
100
AcDbSpline
70
4
71
3
72
8
73
4
40
0
40
0
40
0
40
0
40
1
40
1
40
1
40
1
41
1
10
40.60498321608
20
8.1936034891711
30
0
41
1
10
40.600110757391
20
8.19501849229991
30
0
41
1
10
40.5952572596188
20
8.19651485335737
30
0
41
1
10
40.5904290701336
20
8.19809289344724
30
0
0
SPLINE
5
304
100
AcDbEntity
8
1
62
256
6
ByLayer
370
13
48
1
60
0
100
AcDbSpline
70
4
71
3
72
8
73
4
40
0
40
0
40
0
40
0
40
1
40
1
40
1
40
1
41
1
10
38.0443671218847
20
8.77045073847759
30
0
41
1
10
38.040085724127
20
8.77128187504866
30
0
41
1
10
38.0358056113086
20
8.77211178552463
30
0
41
1
10
38.0315268129396
20
8.77294045036149
30
0
0
SPLINE
5
305
100
AcDbEntity
8
1
62
256
6
ByLayer
370
18
48
1
60
0
100
AcDbSpline
70
4
71
3
72
18
73
14
40
0
40
0
40
0
40
0
40
0.0391410449334183
40
0.0391410449334183
40
0.0910325805031168
40
0.0910325805031168
40
0.152334292849964
40
0.152334292849964
40
0.29384263084656
40
0.29384263084656
40
0.436444480738438
40
0.436444480738438
40
1
40
1
40
1
40
1
41
1
10
40.1891913856098
20
8.0980354420393
30
0
41
1
10
40.1881348670588
20
8.09855913602235
30
0
41
1
10
40.1871795657871
20
8.09915987057607
30
0
41
1
10
40.1853597340578
20
8.10069870183287
30
0
41
1
10
40.1846080943318
20
8.10170347219596
30
0
41
1
10
40.1835861474796
20
8.10398532496225
30
0
41
1
10
40.1833930337916
20
8.10530222186205
30
0
41
1
10
40.1834227014504
20
8.10966836171528
30
0
41
1
10
40.184406990282
20
8.11282418268507
30
0
41
1
10
40.1867794952602
20
8.11924018474869
30
0
41
1
10
40.1882447510552
20
8.12253882048583
30
0
41
1
10
40.1958850046236
20
8.13911393750385
30
0
41
1
10
40.2032138361006
20
8.15369759776314
30
0
41
1
10
40.2101098780262
20
8.16946879868104
30
0
0
SPLINE
5
306
100
AcDbEntity
8
1
62
256
6
ByLayer
370
13
48
1
60
0
100
AcDbSpline
70
4
71
3
72
8
73
4
40
0
40
0
40
0
40
0
40
1
40
1
40
1
40
1
41
1
10
40.4793858669152
20
12.3039595188274
30
0
41
1
10
40.4866672731079
20
12.3068904150001
30
0
41
1
10
40.4939455074457
20
12.3098282556968
30
0
41
1
10
40.5012204932652
20
12.312773058734
30
0
0
SPLINE
5
307
100
AcDbEntity
8
1
62
256
6
ByLayer
370
13
48
1
60
0
100
AcDbSpline
70
4
71
3
72
8
73
4
40
0
40
0
40
0
40
0
40
1
40
1
40
1
40
1
41
1
10
38.0315268129396
20
8.77294045036149
30
0
41
1
10
37.768652727115
20
8.82385065753994
30
0
41
1
10
37.5113066778575
20
8.88400499564409
30
0
41
1
10
37.2606716521381
20
8.95559693959498
30
0
0
SPLINE
5
308
100
AcDbEntity
8
1
62
256
6
ByLayer
370
13
48
1
60
0
100
AcDbSpline
70
4
71
3
72
28
73
24
40
0
40
0
40
0
40
0
40
0.116082472703727
40
0.116082472703727
40
0.214332186871181
40
0.214332186871181
40
0.420442855905033
40
0.420442855905033
40
0.455141483268879
40
0.455141483268879
40
0.499181997485061
40
0.499181997485061
40
0.499614608087971
40
0.499614608087971
40
0.520836126473474
40
0.520836126473474
40
0.565426012991209
40
0.565426012991209
40
0.768179570531312
40
0.768179570531312
40
0.970681209383669
40
0.970681209383669
40
1
40
1
40
1
40
1
41
1
10
38.060783131599
20
11.2326941582966
30
0
41
1
10
38.0909107466435
20
11.1632201896977
30
0
41
1
10
38.1274966306219
20
11.0861824371601
30
0
41
1
10
38.2044916716427
20
10.9339086755553
30
0
41
1
10
38.2436779560936
20
10.8598167644172
30
0
41
1
10
38.373564391258
20
10.6217011623084
30
0
41
1
10
38.4827667373908
20
10.4487612198502
30
0
41
1
10
38.5893955092177
20
10.2174749183623
30
0
41
1
10
38.6040861613364
20
10.1825926592308
30
0
41
1
10
38.6310340040757
20
10.1005744181431
30
0
41
1
10
38.6415529473172
20
10.0509078197694
30
0
41
1
10
38.6417451876798
20
10.0009935437863
30
0
41
1
10
38.6417461443519
20
10.0004967711851
30
0
41
1
10
38.6417461443519
20
9.97578722705435
30
0
41
1
10
38.6393862956807
20
9.9514549323919
30
0
41
1
10
38.6262836547347
20
9.87853378498809
30
0
41
1
10
38.6095286924557
20
9.83145056976844
30
0
41
1
10
38.506689527918
20
9.58797307486276
30
0
41
1
10
38.395611408232
20
9.41711867779424
30
0
41
1
10
38.2191516214697
20
9.09646107416722
30
0
41
1
10
38.1425420941416
20
8.94814336537527
30
0
41
1
10
38.076464249671
20
8.80299718811347
30
0
41
1
10
38.0684190936744
20
8.78491429124915
30
0
41
1
10
38.060783131599
20
8.76730584170338
30
0
0
SPLINE
5
309
100
AcDbEntity
8
1
62
256
6
ByLayer
370
13
48
1
60
0
100
AcDbSpline
70
4
71
3
72
8
73
4
40
0
40
0
40
0
40
0
40
1
40
1
40
1
40
1
41
1
10
40.6809324141415
20
8.17790942898966
30
0
41
1
10
40.6757272366318
20
8.17859414910916
30
0
41
1
10
40.6705187270973
20
8.17935054589287
30
0
41
1
10
40.6653132813234
20
8.18018332626201
30
0
0
SPLINE
5
30A
100
AcDbEntity
8
1
62
256
6
ByLayer
370
18
48
1
60
0
100
AcDbSpline
70
4
71
3
72
10
73
6
40
0
40
0
40
0
40
0
40
0.0481640878867079
40
0.0481640878867079
40
1
40
1
40
1
40
1
41
1
10
40.1375687835787
20
11.8099738368489
30
0
41
1
10
40.1375096166091
20
11.8099533160591
30
0
41
1
10
40.1374504511153
20
11.8099327910435
30
0
41
1
10
40.1362237051075
20
11.8095070914992
30
0
41
1
10
40.1350575084263
20
11.8090984384992
30
0
41
1
10
40.1338906272085
20
11.8086910031256
30
0
0
SPLINE
5
30B
100
AcDbEntity
8
1
62
256
6
ByLayer
370
13
48
1
60
0
100
AcDbSpline
70
4
71
3
72
8
73
4
40
0
40
0
40
0
40
0
40
1
40
1
40
1
40
1
41
1
10
39.702037684077
20
12.0882925250176
30
0
41
1
10
39.695773049112
20
12.1411818590028
30
0
41
1
10
39.6905684825363
20
12.1955119101733
30
0
41
1
10
39.6875628171811
20
12.2394117518375
30
0
0
SPLINE
5
30C
100
AcDbEntity
8
1
62
256
6
ByLayer
370
13
48
1
60
0
100
AcDbSpline
70
4
71
3
72
8
73
4
40
0
40
0
40
0
40
0
40
1
40
1
40
1
40
1
41
1
10
40.7875266056559
20
7.8999108727854
30
0
41
1
10
40.7916627483197
20
7.89806439753323
30
0
41
1
10
40.795799435178
20
7.89621984964583
30
0
41
1
10
40.7999366675816
20
7.89437725625763
30
0
0
SPLINE
5
30D
100
AcDbEntity
8
1
62
256
6
ByLayer
370
13
48
1
60
0
100
AcDbSpline
70
4
71
3
72
8
73
4
40
0
40
0
40
0
40
0
40
1
40
1
40
1
40
1
41
1
10
39.0568099499638
20
7.59515577045124
30
0
41
1
10
39.1149694527838
20
7.58531604447586
30
0
41
1
10
39.1731875377864
20
7.57582037984039
30
0
41
1
10
39.231391327196
20
7.56624220940887
30
0
0
SPLINE
5
30E
100
AcDbEntity
8
1
62
256
6
ByLayer
370
18
48
1
60
0
100
AcDbSpline
70
4
71
3
72
8
73
4
40
0
40
0
40
0
40
0
40
1
40
1
40
1
40
1
41
1
10
40.1375687836019
20
8.19002616314123
30
0
41
1
10
40.161273952268
20
8.18180453566367
30
0
41
1
10
40.1857472527841
20
8.17561486017877
30
0
41
1
10
40.2101098780317
20
8.16946879868345
30
0
0
SPLINE
5
30F
100
AcDbEntity
8
1
62
256
6
ByLayer
370
13
48
1
60
0
100
AcDbSpline
70
4
71
3
72
28
73
24
40
0
40
0
40
0
40
0
40
0.028930721822612
40
0.028930721822612
40
0.150913367346496
40
0.150913367346496
40
0.272817464159667
40
0.272817464159667
40
0.387849894384058
40
0.387849894384058
40
0.500169480406494
40
0.500169480406494
40
0.618478793469636
40
0.618478793469636
40
0.655223308181295
40
0.655223308181295
40
0.759917593477548
40
0.759917593477548
40
0.866506061007457
40
0.866506061007457
40
0.976134549816999
40
0.976134549816999
40
1
40
1
40
1
40
1
41
1
10
40.9791315895941
20
8.74934255150504
30
0
41
1
10
40.9739762105656
20
8.76068012030046
30
0
41
1
10
40.9681883827677
20
8.77177880594266
30
0
41
1
10
40.9353384041104
20
8.82728519692381
30
0
41
1
10
40.8977333781026
20
8.86739689385547
30
0
41
1
10
40.8083168441141
20
8.92896144161665
30
0
41
1
10
40.7549790313211
20
8.95143576759028
30
0
41
1
10
40.6454940358799
20
8.97351023646493
30
0
41
1
10
40.5879795137496
20
8.97465971055524
30
0
41
1
10
40.4764904561292
20
8.95781762818234
30
0
41
1
10
40.4208031574376
20
8.94004545038825
30
0
41
1
10
40.3150140565334
20
8.8882402031455
30
0
41
1
10
40.2646179742539
20
8.85186685926411
30
0
41
1
10
40.204785681428
20
8.80044824865521
30
0
41
1
10
40.191168599704
20
8.7875202218128
30
0
41
1
10
40.1420739155113
20
8.73647500216723
30
0
41
1
10
40.1111764669924
20
8.69440679108439
30
0
41
1
10
40.0649765059664
20
8.60738526649376
30
0
41
1
10
40.0493097086246
20
8.56117663809829
30
0
41
1
10
40.0356721370462
20
8.47059542600229
30
0
41
1
10
40.0380054171296
20
8.42498500413572
30
0
41
1
10
40.0517276910134
20
8.37436919217666
30
0
41
1
10
40.0546413928676
20
8.36537483190145
30
0
41
1
10
40.0579730137723
20
8.35657724638415
30
0
0
SPLINE
5
310
100
AcDbEntity
8
1
62
256
6
ByLayer
370
18
48
1
60
0
100
AcDbSpline
70
4
71
3
72
8
73
4
40
0
40
0
40
0
40
0
40
1
40
1
40
1
40
1
41
1
10
41.5919426165519
20
11.0457456231929
30
0
41
1
10
41.5930038567045
20
11.0764962976391
30
0
41
1
10
41.5937794212117
20
11.1080438054816
30
0
41
1
10
41.5942661419978
20
11.1401439611452
30
0
0
SPLINE
5
311
100
AcDbEntity
8
1
62
256
6
ByLayer
370
13
48
1
60
0
100
AcDbSpline
70
4
71
3
72
10
73
6
40
0
40
0
40
0
40
0
40
0.499555057484583
40
0.499555057484583
40
1
40
1
40
1
40
1
41
1
10
40.131222271337
20
11.9024514238386
30
0
41
1
10
40.1205155042592
20
11.9025054810069
30
0
41
1
10
40.1098072515821
20
11.9025436305754
30
0
41
1
10
40.0883701406675
20
11.9025939228007
30
0
41
1
10
40.0776410897352
20
11.9026060206637
30
0
41
1
10
40.0669116696244
20
11.9026081775525
30
0
0
SPLINE
5
312
100
AcDbEntity
8
1
62
256
6
ByLayer
370
18
48
1
60
0
100
AcDbSpline
70
4
71
3
72
14
73
10
40
0
40
0
40
0
40
0
40
0.318886263131695
40
0.318886263131695
40
0.638383475874413
40
0.638383475874413
40
0.959645569304922
40
0.959645569304922
40
1
40
1
40
1
40
1
41
1
10
41.585780127946
20
12.7
30
0
41
1
10
41.5742539604246
20
12.7434399379987
30
0
41
1
10
41.555055025838
20
12.7854903900307
30
0
41
1
10
41.5045625909069
20
12.860019275069
30
0
41
1
10
41.472554857856
20
12.8935098738979
30
0
41
1
10
41.4001253375135
20
12.9475236022489
30
0
41
1
10
41.3586455791321
20
12.9687222436911
30
0
41
1
10
41.3099202534395
20
12.9839193492199
30
0
41
1
10
41.3043753626753
20
12.9855182429388
30
0
41
1
10
41.2988
20
12.9869960989333
30
0
0
SPLINE
5
313
100
AcDbEntity
8
1
62
256
6
ByLayer
370
13
48
1
60
0
100
AcDbSpline
70
4
71
3
72
8
73
4
40
0
40
0
40
0
40
0
40
1
40
1
40
1
40
1
41
1
10
40.1414803174655
20
12.2460146167598
30
0
41
1
10
40.1679911256233
20
12.2449328147712
30
0
41
1
10
40.194511580666
20
12.2439450415431
30
0
41
1
10
40.2210385465933
20
12.2430548017057
30
0
0
SPLINE
5
314
100
AcDbEntity
8
1
62
256
6
ByLayer
370
13
48
1
60
0
100
AcDbSpline
70
4
71
3
72
8
73
4
40
0
40
0
40
0
40
0
40
1
40
1
40
1
40
1
41
1
10
40.4137580164183
20
12.2777634810021
30
0
41
1
10
40.4210598617321
20
12.2806538424554
30
0
41
1
10
40.4283587236344
20
12.283551019988
30
0
41
1
10
40.435654516378
20
12.2864550581714
30
0
0
SPLINE
5
315
100
AcDbEntity
8
1
62
256
6
ByLayer
370
13
48
1
60
0
100
AcDbSpline
70
4
71
3
72
20
73
16
40
0
40
0
40
0
40
0
40
0.0757314374928557
40
0.0757314374928557
40
0.281367462382477
40
0.281367462382477
40
0.435296429454483
40
0.435296429454483
40
0.612829509115956
40
0.612829509115956
40
0.791646515465603
40
0.791646515465603
40
0.979316934342296
40
0.979316934342296
40
1
40
1
40
1
40
1
41
1
10
37.3141380276099
20
11.0594735185791
30
0
41
1
10
37.265938878762
20
11.0212625853242
30
0
41
1
10
37.2195152799762
20
10.9805306744872
30
0
41
1
10
37.0572415160449
20
10.8215022202709
30
0
41
1
10
36.954140420669
20
10.685097061372
30
0
41
1
10
36.8243041129299
20
10.4229771024563
30
0
41
1
10
36.7839142026622
20
10.3006667377088
30
0
41
1
10
36.740206527514
20
10.0334668246628
30
0
41
1
10
36.7430585837056
20
9.88379782088819
30
0
41
1
10
36.8006855964401
20
9.59947480394851
30
0
41
1
10
36.8564535315816
20
9.46070434582435
30
0
41
1
10
37.0093691898161
20
9.2065074899956
30
0
41
1
10
37.1100991986696
20
9.08898714509894
30
0
41
1
10
37.235138965623
20
8.97739129586932
30
0
41
1
10
37.2478303069421
20
8.9663987272416
30
0
41
1
10
37.2606716521381
20
8.95559693959498
30
0
0
SPLINE
5
316
100
AcDbEntity
8
1
62
256
6
ByLayer
370
13
48
1
60
0
100
AcDbSpline
70
4
71
3
72
8
73
4
40
0
40
0
40
0
40
0
40
1
40
1
40
1
40
1
41
1
10
39.9798199560948
20
12.2520625325012
30
0
41
1
10
40.0121596321301
20
12.2510097804665
30
0
41
1
10
40.0444938544172
20
12.2498650946994
30
0
41
1
10
40.0768203692056
20
12.2486248494548
30
0
0
SPLINE
5
317
100
AcDbEntity
8
1
62
256
6
ByLayer
370
13
48
1
60
0
100
AcDbSpline
70
4
71
3
72
8
73
4
40
0
40
0
40
0
40
0
40
1
40
1
40
1
40
1
41
1
10
40.5448260607215
20
12.3305235344625
30
0
41
1
10
40.5520862786722
20
12.3334956038846
30
0
41
1
10
40.5593431655647
20
12.3364746662834
30
0
41
1
10
40.5665966553318
20
12.3394607117258
30
0
0
SPLINE
5
318
100
AcDbEntity
8
1
62
256
6
ByLayer
370
13
48
1
60
0
100
AcDbSpline
70
4
71
3
72
8
73
4
40
0
40
0
40
0
40
0
40
1
40
1
40
1
40
1
41
1
10
39.8132285509218
20
11.8300127080947
30
0
41
1
10
39.7950239434943
20
11.8309309941571
30
0
41
1
10
39.7767978148841
20
11.8315016874868
30
0
41
1
10
39.7585714746036
20
11.8317196538348
30
0
0
SPLINE
5
319
100
AcDbEntity
8
1
62
256
6
ByLayer
370
13
48
1
60
0
100
AcDbSpline
70
4
71
3
72
12
73
8
40
0
40
0
40
0
40
0
40
0.242775972403974
40
0.242775972403974
40
0.616819959521345
40
0.616819959521345
40
1
40
1
40
1
40
1
41
1
10
35.4271576460834
20
7.96227082584491
30
0
41
1
10
35.4517464685306
20
7.9605710846742
30
0
41
1
10
35.4754389381339
20
7.95913338862962
30
0
41
1
10
35.5309861671557
20
7.95575020338916
30
0
41
1
10
35.5612114014208
20
7.95397144150644
30
0
41
1
10
35.6108001137121
20
7.94828277959658
30
0
41
1
10
35.6306163822645
20
7.944537202211
30
0
41
1
10
35.6435018349481
20
7.93517200969075
30
0
0
SPLINE
5
31A
100
AcDbEntity
8
1
62
256
6
ByLayer
370
18
48
1
60
0
100
AcDbSpline
70
4
71
3
72
8
73
4
40
0
40
0
40
0
40
0
40
1
40
1
40
1
40
1
41
1
10
41.1988253230699
20
6.99996709297778
30
0
41
1
10
41.1739436458835
20
6.9999507158833
30
0
41
1
10
41.1490607301229
20
7.00016676547847
30
0
41
1
10
41.1241830882904
20
7.00061519341236
30
0
0
SPLINE
5
31B
100
AcDbEntity
8
1
62
256
6
ByLayer
370
13
48
1
60
0
100
AcDbSpline
70
4
71
3
72
8
73
4
40
0
40
0
40
0
40
0
40
1
40
1
40
1
40
1
41
1
10
40.1321151391335
20
8.19111969352289
30
0
41
1
10
40.1327070074101
20
8.19118255658293
30
0
41
1
10
40.1332988369518
20
8.19124565764341
30
0
41
1
10
40.1338906272073
20
8.19130899687792
30
0
0
SPLINE
5
31C
100
AcDbEntity
8
1
62
256
6
ByLayer
370
13
48
1
60
0
100
AcDbSpline
70
4
71
3
72
8
73
4
40
0
40
0
40
0
40
0
40
1
40
1
40
1
40
1
41
1
10
40.5883465466143
20
12.348439646906
30
0
41
1
10
40.5955925750812
20
12.3514393905921
30
0
41
1
10
40.6028351840507
20
12.3544461146381
30
0
41
1
10
40.6100743152022
20
12.3574597905064
30
0
0
SPLINE
5
31D
100
AcDbEntity
8
1
62
256
6
ByLayer
370
13
48
1
60
0
100
AcDbSpline
70
4
71
3
72
8
73
4
40
0
40
0
40
0
40
0
40
1
40
1
40
1
40
1
41
1
10
39.7585714746036
20
11.8317196538342
30
0
41
1
10
39.7523683222094
20
11.8317938640789
30
0
41
1
10
39.7461645928929
20
11.8318272137798
30
0
41
1
10
39.7399611560269
20
11.8318195098703
30
0
0
SPLINE
5
31E
100
AcDbEntity
8
1
62
256
6
ByLayer
370
13
48
1
60
0
100
AcDbSpline
70
4
71
3
72
8
73
4
40
0
40
0
40
0
40
0
40
1
40
1
40
1
40
1
41
1
10
40.5664365699848
20
7.96772946283645
30
0
41
1
10
40.5739088642765
20
7.96520687346546
30
0
41
1
10
40.581399916396
20
7.96274186590324
30
0
41
1
10
40.5889075129053
20
7.96033367127251
30
0
0
SPLINE
5
31F
100
AcDbEntity
8
1
62
256
6
ByLayer
370
13
48
1
60
0
100
AcDbSpline
70
4
71
3
72
8
73
4
40
0
40
0
40
0
40
0
40
1
40
1
40
1
40
1
41
1
10
41.2988
20
12.7663379527219
30
0
41
1
10
41.2441684895892
20
12.7701028472087
30
0
41
1
10
41.1889317622663
20
12.7674269629261
30
0
41
1
10
41.1346136768824
20
12.7604850509444
30
0
0
SPLINE
5
320
100
AcDbEntity
8
1
62
256
6
ByLayer
370
13
48
1
60
0
100
AcDbSpline
70
4
71
3
72
8
73
4
40
0
40
0
40
0
40
0
40
1
40
1
40
1
40
1
41
1
10
40.611532349232
20
12.0467382427657
30
0
41
1
10
40.6039750867673
20
12.0444371125683
30
0
41
1
10
40.5964327023415
20
12.0420801685362
30
0
41
1
10
40.5889075129052
20
12.0396663287277
30
0
0
SPLINE
5
321
100
AcDbEntity
8
1
62
256
6
ByLayer
370
13
48
1
60
0
100
AcDbSpline
70
4
71
3
72
8
73
4
40
0
40
0
40
0
40
0
40
1
40
1
40
1
40
1
41
1
10
40.4860803977719
20
7.45604677383659
30
0
41
1
10
40.4930348799721
20
7.45320813093377
30
0
41
1
10
40.4999826105127
20
7.45035318325915
30
0
41
1
10
40.5069234667093
20
7.44748196498622
30
0
0
SPLINE
5
322
100
AcDbEntity
8
1
62
256
6
ByLayer
370
13
48
1
60
0
100
AcDbSpline
70
4
71
3
72
8
73
4
40
0
40
0
40
0
40
0
40
1
40
1
40
1
40
1
41
1
10
40.6442946127907
20
7.62823157091321
30
0
41
1
10
40.6401247168622
20
7.62998277459238
30
0
41
1
10
40.6359536472928
20
7.63173168056457
30
0
41
1
10
40.6317814138829
20
7.6334782801917
30
0
0
SPLINE
5
323
100
AcDbEntity
8
1
62
256
6
ByLayer
370
13
48
1
60
0
100
AcDbSpline
70
4
71
3
72
20
73
16
40
0
40
0
40
0
40
0
40
0.289433662900987
40
0.289433662900987
40
0.581653230579823
40
0.581653230579823
40
0.734424428191351
40
0.734424428191351
40
0.81383565277059
40
0.81383565277059
40
0.851817205456331
40
0.851817205456331
40
0.999858093292614
40
0.999858093292614
40
1
40
1
40
1
40
1
41
1
10
39.6865692412714
20
7.74520675800886
30
0
41
1
10
39.645833323347
20
7.74734647555897
30
0
41
1
10
39.6050788847873
20
7.74915561072413
30
0
41
1
10
39.5233211970633
20
7.75402509360458
30
0
41
1
10
39.4822582214744
20
7.75698365636674
30
0
41
1
10
39.4200520845594
20
7.76464878463298
30
0
41
1
10
39.3987444294999
20
7.76797794440813
30
0
41
1
10
39.366642940599
20
7.77431532280966
30
0
41
1
10
39.3557032149485
20
7.77669845583813
30
0
41
1
10
39.3395767110538
20
7.78027928337815
30
0
41
1
10
39.3342443387808
20
7.78084713003452
30
0
41
1
10
39.3082897344781
20
7.78358024246606
30
0
41
1
10
39.287368578103
20
7.78446601164305
30
0
41
1
10
39.267054158121
20
7.78901170323675
30
0
41
1
10
39.2670346478803
20
7.78901606715169
30
0
41
1
10
39.2670151376414
20
7.78902043123816
30
0
0
SPLINE
5
324
100
AcDbEntity
8
1
62
256
6
ByLayer
370
18
48
1
60
0
100
AcDbSpline
70
4
71
3
72
12
73
8
40
0
40
0
40
0
40
0
40
0.0217875129061251
40
0.0217875129061251
40
0.482729679984894
40
0.482729679984894
40
1
40
1
40
1
40
1
41
1
10
40.3384886118677
20
11.6903773265363
30
0
41
1
10
40.3377544411017
20
11.6914217330804
30
0
41
1
10
40.3370141724791
20
11.6924663282059
30
0
41
1
10
40.3204677482578
20
11.7157265756544
30
0
41
1
10
40.3022972884388
20
11.7387775647963
30
0
41
1
10
40.26051436764
20
11.7855633641962
30
0
41
1
10
40.235908132621
20
11.8097081132395
30
0
41
1
10
40.2101098780286
20
11.8305312013195
30
0
0
SPLINE
5
325
100
AcDbEntity
8
1
62
256
6
ByLayer
370
13
48
1
60
0
100
AcDbSpline
70
4
71
3
72
8
73
4
40
0
40
0
40
0
40
0
40
1
40
1
40
1
40
1
41
1
10
40.948316358124
20
7.50607260353428
30
0
41
1
10
40.903449409651
20
7.52278167304203
30
0
41
1
10
40.8587854482608
20
7.54004057568028
30
0
41
1
10
40.8143438239173
20
7.55778232082358
30
0
0
SPLINE
5
326
100
AcDbEntity
8
1
62
256
6
ByLayer
370
18
48
1
60
0
100
AcDbSpline
70
4
71
3
72
8
73
4
40
0
40
0
40
0
40
0
40
1
40
1
40
1
40
1
41
1
10
41.2988
20
7.01310495793243
30
0
41
1
10
41.2663420878946
20
7.00443432455918
30
0
41
1
10
41.2324432603182
20
6.99998922026967
30
0
41
1
10
41.1988253230699
20
6.99996709297778
30
0
0
SPLINE
5
327
100
AcDbEntity
8
1
62
256
6
ByLayer
370
13
48
1
60
0
100
AcDbSpline
70
4
71
3
72
8
73
4
40
0
40
0
40
0
40
0
40
1
40
1
40
1
40
1
41
1
10
40.2396138737781
20
11.5273699581619
30
0
41
1
10
40.2530647581336
20
11.5606658799479
30
0
41
1
10
40.2721962141756
20
11.595484749944
30
0
41
1
10
40.2952750271758
20
11.6304650608599
30
0
0
SPLINE
5
328
100
AcDbEntity
8
1
62
256
6
ByLayer
370
13
48
1
60
0
100
AcDbSpline
70
4
71
3
72
10
73
6
40
0
40
0
40
0
40
0
40
0.0226582612707228
40
0.0226582612707228
40
1
40
1
40
1
40
1
41
1
10
39.0948412522594
20
12.1729817435803
30
0
41
1
10
39.0893722459195
20
12.1713016648352
30
0
41
1
10
39.0839102388762
20
12.1696036565992
30
0
41
1
10
38.8468045111205
20
12.0950222719159
30
0
41
1
10
38.625605832268
20
11.9884735167332
30
0
41
1
10
38.4315828618976
20
11.8609850427165
30
0
0
SPLINE
5
329
100
AcDbEntity
8
1
62
256
6
ByLayer
370
13
48
1
60
0
100
AcDbSpline
70
4
71
3
72
8
73
4
40
0
40
0
40
0
40
0
40
1
40
1
40
1
40
1
41
1
10
40.756410115657
20
8.17337942636203
30
0
41
1
10
40.7528574672541
20
8.17283506681048
30
0
41
1
10
40.7492688123718
20
8.17263858549657
30
0
41
1
10
40.7457132650806
20
8.17268775306499
30
0
0
SPLINE
5
32A
100
AcDbEntity
8
1
62
256
6
ByLayer
370
18
48
1
60
0
100
AcDbSpline
70
4
71
3
72
10
73
6
40
0
40
0
40
0
40
0
40
0.775024099640478
40
0.775024099640478
40
1
40
1
40
1
40
1
41
1
10
40.1891913856543
20
8.09803544205602
30
0
41
1
10
40.1951447568496
20
8.09508448139968
30
0
41
1
10
40.2011841470655
20
8.09202070129277
30
0
41
1
10
40.2090719594457
20
8.08795537801848
30
0
41
1
10
40.2108593575571
20
8.08703802040617
30
0
41
1
10
40.2126402616837
20
8.08610436596177
30
0
0
SPLINE
5
32B
100
AcDbEntity
8
1
62
256
6
ByLayer
370
13
48
1
60
0
100
AcDbSpline
70
4
71
3
72
8
73
4
40
0
40
0
40
0
40
0
40
1
40
1
40
1
40
1
41
1
10
40.0894987914786
20
7.52131868473967
30
0
41
1
10
40.1116834357454
20
7.52263038114532
30
0
41
1
10
40.1338623971359
20
7.52403877701084
30
0
41
1
10
40.1560341336386
20
7.52554699255722
30
0
0
SPLINE
5
32C
100
AcDbEntity
8
1
62
256
6
ByLayer
370
13
48
1
60
0
100
AcDbSpline
70
4
71
3
72
8
73
4
40
0
40
0
40
0
40
0
40
1
40
1
40
1
40
1
41
1
10
41.524593411817
20
11.0691461566462
30
0
41
1
10
41.5461124450786
20
11.1307754178291
30
0
41
1
10
41.570048773889
20
11.1957748486751
30
0
41
1
10
41.5958926627987
20
11.2627603748415
30
0
0
SPLINE
5
32D
100
AcDbEntity
8
1
62
256
6
ByLayer
370
13
48
1
60
0
100
AcDbSpline
70
4
71
3
72
12
73
8
40
0
40
0
40
0
40
0
40
0.0014841804582503
40
0.0014841804582503
40
0.999195893462455
40
0.999195893462455
40
1
40
1
40
1
40
1
41
1
10
39.7222921769647
20
8.23945242289335
30
0
41
1
10
39.7222558907656
20
8.2394468231403
30
0
41
1
10
39.7222196041507
20
8.23944122547198
30
0
41
1
10
39.6977938355546
20
8.23567469424111
30
0
41
1
10
39.6733645774325
20
8.23224639498761
30
0
41
1
10
39.6488395064211
20
8.22942223333163
30
0
41
1
10
39.6488197531865
20
8.22941995927928
30
0
41
1
10
39.6488
20
8.2294176851687
30
0
0
SPLINE
5
32E
100
AcDbEntity
8
1
62
256
6
ByLayer
370
13
48
1
60
0
100
AcDbSpline
70
4
71
3
72
10
73
6
40
0
40
0
40
0
40
0
40
0.0001660019773297
40
0.0001660019773297
40
1
40
1
40
1
40
1
41
1
10
37.9988
20
7.89412331593996
30
0
41
1
10
37.9988199923828
20
7.89412276401129
30
0
41
1
10
37.998839984794
20
7.89412221310826
30
0
41
1
10
38.1192744205474
20
7.89079120277304
30
0
41
1
10
38.2371314152635
20
7.85044169845514
30
0
41
1
10
38.3482567864937
20
7.80577803918462
30
0
0
SPLINE
5
32F
100
AcDbEntity
8
1
62
256
6
ByLayer
370
13
48
1
60
0
100
AcDbSpline
70
4
71
3
72
8
73
4
40
0
40
0
40
0
40
0
40
1
40
1
40
1
40
1
41
1
10
40.7543363061484
20
7.92272758768209
30
0
41
1
10
40.7668894292275
20
7.93298775151385
30
0
41
1
10
40.7795768973381
20
7.94490260114623
30
0
41
1
10
40.7920468780271
20
7.95812252600066
30
0
0
SPLINE
5
330
100
AcDbEntity
8
1
62
256
6
ByLayer
370
18
48
1
60
0
100
AcDbSpline
70
4
71
3
72
10
73
6
40
0
40
0
40
0
40
0
40
0.852827298231867
40
0.852827298231867
40
1
40
1
40
1
40
1
41
1
10
39.7309403749873
20
8.09891301236223
30
0
41
1
10
39.7290766722728
20
8.09077454264931
30
0
41
1
10
39.7270848423622
20
8.08102139229848
30
0
41
1
10
39.7246710475861
20
8.06806398057446
30
0
41
1
10
39.7243106385014
20
8.06610093681829
30
0
41
1
10
39.7239482641528
20
8.06409894952054
30
0
0
SPLINE
5
331
100
AcDbEntity
8
1
62
256
6
ByLayer
370
13
48
1
60
0
100
AcDbSpline
70
4
71
3
72
8
73
4
40
0
40
0
40
0
40
0
40
1
40
1
40
1
40
1
41
1
10
40.7523224694942
20
7.92109471998049
30
0
41
1
10
40.7529935305911
20
7.92163445658318
30
0
41
1
10
40.7536648266207
20
7.92217876029645
30
0
41
1
10
40.7543363061338
20
7.92272758768127
30
0
0
SPLINE
5
332
100
AcDbEntity
8
1
62
256
6
ByLayer
370
13
48
1
60
0
100
AcDbSpline
70
4
71
3
72
8
73
4
40
0
40
0
40
0
40
0
40
1
40
1
40
1
40
1
41
1
10
40.5069234667093
20
12.5525180350138
30
0
41
1
10
40.4999826105127
20
12.5496468167409
30
0
41
1
10
40.4930348799721
20
12.5467918690663
30
0
41
1
10
40.4860803977719
20
12.5439532261634
30
0
0
SPLINE
5
333
100
AcDbEntity
8
1
62
256
6
ByLayer
370
13
48
1
60
0
100
AcDbSpline
70
4
71
3
72
8
73
4
40
0
40
0
40
0
40
0
40
1
40
1
40
1
40
1
41
1
10
40.6343109932399
20
7.94650572436839
30
0
41
1
10
40.6419427768363
20
7.94430151040794
30
0
41
1
10
40.6495883351677
20
7.94215203907467
30
0
41
1
10
40.6572451186158
20
7.94005559381139
30
0
0
SPLINE
5
334
100
AcDbEntity
8
1
62
256
6
ByLayer
370
18
48
1
60
0
100
AcDbSpline
70
4
71
3
72
8
73
4
40
0
40
0
40
0
40
0
40
1
40
1
40
1
40
1
41
1
10
40.2101098780317
20
11.8305312013166
30
0
41
1
10
40.1857472527841
20
11.8243851398213
30
0
41
1
10
40.161273952268
20
11.8181954643364
30
0
41
1
10
40.1375687836019
20
11.8099738368588
30
0
0
SPLINE
5
335
100
AcDbEntity
8
1
62
256
6
ByLayer
370
13
48
1
60
0
100
AcDbSpline
70
4
71
3
72
10
73
6
40
0
40
0
40
0
40
0
40
0.0945511425129539
40
0.0945511425129539
40
1
40
1
40
1
40
1
41
1
10
40.9359816925959
20
8.14273374488585
30
0
41
1
10
40.9572306129507
20
8.15031216530386
30
0
41
1
10
40.9784373246759
20
8.15801221033055
30
0
41
1
10
41.2021710982846
20
8.24059058833046
30
0
41
1
10
41.40088161774
20
8.32582195348942
30
0
41
1
10
41.5988
20
8.41236030453254
30
0
0
SPLINE
5
336
100
AcDbEntity
8
1
62
256
6
ByLayer
370
13
48
1
60
0
100
AcDbSpline
70
4
71
3
72
8
73
4
40
0
40
0
40
0
40
0
40
1
40
1
40
1
40
1
41
1
10
40.2952750271758
20
8.36953493914012
30
0
41
1
10
40.2721962141756
20
8.40451525005605
30
0
41
1
10
40.2530647581336
20
8.43933412005208
30
0
41
1
10
40.2396138737781
20
8.47263004183816
30
0
0
SPLINE
5
337
100
AcDbEntity
8
1
62
256
6
ByLayer
370
13
48
1
60
0
100
AcDbSpline
70
4
71
3
72
8
73
4
40
0
40
0
40
0
40
0
40
1
40
1
40
1
40
1
41
1
10
40.3812213915826
20
7.49742522150862
30
0
41
1
10
40.3882472657437
20
7.4947463435204
30
0
41
1
10
40.3952669282881
20
7.49205140227019
30
0
41
1
10
40.4022802160183
20
7.48934031300905
30
0
0
SPLINE
5
338
100
AcDbEntity
8
1
62
256
6
ByLayer
370
13
48
1
60
0
100
AcDbSpline
70
4
71
3
72
8
73
4
40
0
40
0
40
0
40
0
40
1
40
1
40
1
40
1
41
1
10
40.4651953792872
20
7.46451436968977
30
0
41
1
10
40.4721637546294
20
7.46170813340382
30
0
41
1
10
40.4791254714617
20
7.45888559801401
30
0
41
1
10
40.4860803977669
20
7.45604677383861
30
0
0
SPLINE
5
339
100
AcDbEntity
8
1
62
256
6
ByLayer
370
13
48
1
60
0
100
AcDbSpline
70
4
71
3
72
8
73
4
40
0
40
0
40
0
40
0
40
1
40
1
40
1
40
1
41
1
10
39.9786988508423
20
11.6866454370995
30
0
41
1
10
39.9914091789433
20
11.6804610842477
30
0
41
1
10
40.0039147023054
20
11.6739310603426
30
0
41
1
10
40.0161790825026
20
11.6670695446949
30
0
0
SPLINE
5
33A
100
AcDbEntity
8
1
62
256
6
ByLayer
370
13
48
1
60
0
100
AcDbSpline
70
4
71
3
72
8
73
4
40
0
40
0
40
0
40
0
40
1
40
1
40
1
40
1
41
1
10
36.8150067632696
20
11.8676938636794
30
0
41
1
10
36.813865183568
20
11.8627149769549
30
0
41
1
10
36.8127832356739
20
11.8577274119999
30
0
41
1
10
36.8117617005956
20
11.852733517503
30
0
0
SPLINE
5
33B
100
AcDbEntity
8
1
62
256
6
ByLayer
370
13
48
1
60
0
100
AcDbSpline
70
4
71
3
72
8
73
4
40
0
40
0
40
0
40
0
40
1
40
1
40
1
40
1
41
1
10
40.0894987911262
20
12.4786813153329
30
0
41
1
10
40.0562529942193
20
12.4806470169501
30
0
41
1
10
40.0229932586177
20
12.4823957656721
30
0
41
1
10
39.9897241915162
20
12.4839352133252
30
0
0
SPLINE
5
33C
100
AcDbEntity
8
1
62
256
6
ByLayer
370
13
48
1
60
0
100
AcDbSpline
70
4
71
3
72
8
73
4
40
0
40
0
40
0
40
0
40
1
40
1
40
1
40
1
41
1
10
40.7269803124967
20
12.0775775058425
30
0
41
1
10
40.7191743871262
20
12.0757567770947
30
0
41
1
10
40.7113730847457
20
12.0738893351656
30
0
41
1
10
40.7035794882309
20
12.0719724466207
30
0
0
SPLINE
5
33D
100
AcDbEntity
8
1
62
256
6
ByLayer
370
13
48
1
60
0
100
AcDbSpline
70
4
71
3
72
8
73
4
40
0
40
0
40
0
40
0
40
1
40
1
40
1
40
1
41
1
10
40.2852533085229
20
12.472714879668
30
0
41
1
10
40.2676019284835
20
12.4699802683955
30
0
41
1
10
40.2495718090995
20
12.4690501210116
30
0
41
1
10
40.2317322201164
20
12.4699548517988
30
0
0
SPLINE
5
33E
100
AcDbEntity
8
1
62
256
6
ByLayer
370
13
48
1
60
0
100
AcDbSpline
70
4
71
3
72
8
73
4
40
0
40
0
40
0
40
0
40
1
40
1
40
1
40
1
41
1
10
40.4442668759635
20
7.47288560631674
30
0
41
1
10
40.4512496489785
20
7.47011147284775
30
0
41
1
10
40.4582258636835
20
7.46732106517067
30
0
41
1
10
40.4651953792878
20
7.46451436968954
30
0
0
SPLINE
5
33F
100
AcDbEntity
8
1
62
256
6
ByLayer
370
13
48
1
60
0
100
AcDbSpline
70
4
71
3
72
8
73
4
40
0
40
0
40
0
40
0
40
1
40
1
40
1
40
1
41
1
10
40.0161790825029
20
11.6670695446952
30
0
41
1
10
40.0173473978274
20
11.6664159108588
30
0
41
1
10
40.0185143360831
20
11.6657601259292
30
0
41
1
10
40.0196798836219
20
11.6651021951377
30
0
0
SPLINE
5
340
100
AcDbEntity
8
1
62
256
6
ByLayer
370
13
48
1
60
0
100
AcDbSpline
70
4
71
3
72
8
73
4
40
0
40
0
40
0
40
0
40
1
40
1
40
1
40
1
41
1
10
38.9988
20
7.09660942803632
30
0
41
1
10
38.9988
20
7.2660630167901
30
0
41
1
10
38.9988
20
7.43551660554388
30
0
41
1
10
38.9988
20
7.60497019429766
30
0
0
SPLINE
5
341
100
AcDbEntity
8
1
62
256
6
ByLayer
370
13
48
1
60
0
100
AcDbSpline
70
4
71
3
72
8
73
4
40
0
40
0
40
0
40
0
40
1
40
1
40
1
40
1
41
1
10
40.4751488059907
20
11.7565236068311
30
0
41
1
10
40.5121802503087
20
11.7734212846825
30
0
41
1
10
40.5511163544692
20
11.7890581822192
30
0
41
1
10
40.5904290701336
20
11.8019071065528
30
0
0
SPLINE
5
342
100
AcDbEntity
8
1
62
256
6
ByLayer
370
13
48
1
60
0
100
AcDbSpline
70
4
71
3
72
8
73
4
40
0
40
0
40
0
40
0
40
1
40
1
40
1
40
1
41
1
10
40.5665966553318
20
7.66053928827421
30
0
41
1
10
40.5593431655647
20
7.66352533371659
30
0
41
1
10
40.5520862786722
20
7.66650439611541
30
0
41
1
10
40.5448260607215
20
7.66947646553749
30
0
0
SPLINE
5
343
100
AcDbEntity
8
1
62
256
6
ByLayer
370
13
48
1
60
0
100
AcDbSpline
70
4
71
3
72
10
73
6
40
0
40
0
40
0
40
0
40
0.0762840566435218
40
0.0762840566435218
40
1
40
1
40
1
40
1
41
1
10
40.9053084491738
20
11.9051876744273
30
0
41
1
10
40.9042486723054
20
11.9046797442818
30
0
41
1
10
40.9031872680981
20
11.9041732326677
30
0
41
1
10
40.8892798567386
20
11.8974965559658
30
0
41
1
10
40.8763721362028
20
11.8911068519808
30
0
41
1
10
40.8636003373363
20
11.8845873111784
30
0
0
SPLINE
5
344
100
AcDbEntity
8
1
62
256
6
ByLayer
370
13
48
1
60
0
100
AcDbSpline
70
4
71
3
72
8
73
4
40
0
40
0
40
0
40
0
40
1
40
1
40
1
40
1
41
1
10
40.3187655526461
20
7.74961509291307
30
0
41
1
10
40.2866098311353
20
7.75539926037413
30
0
41
1
10
40.2536819261954
20
7.75786921684144
30
0
41
1
10
40.2210385465932
20
7.75694519828073
30
0
0
SPLINE
5
345
100
AcDbEntity
8
1
62
256
6
ByLayer
370
18
48
1
60
0
100
AcDbSpline
70
4
71
3
72
18
73
14
40
0
40
0
40
0
40
0
40
0.563555519297566
40
0.563555519297566
40
0.706157369198555
40
0.706157369198555
40
0.847665707204191
40
0.847665707204191
40
0.908967419554955
40
0.908967419554955
40
0.960858955127969
40
0.960858955127969
40
1
40
1
40
1
40
1
41
1
10
40.2101098780262
20
11.830531201319
30
0
41
1
10
40.2032138361006
20
11.8463024022369
30
0
41
1
10
40.1958850046236
20
11.8608860624962
30
0
41
1
10
40.1882447510552
20
11.8774611795142
30
0
41
1
10
40.1867794952602
20
11.8807598152513
30
0
41
1
10
40.184406990282
20
11.8871758173149
30
0
41
1
10
40.1834227014504
20
11.8903316382847
30
0
41
1
10
40.1833930337916
20
11.894697778138
30
0
41
1
10
40.1835861474796
20
11.8960146750377
30
0
41
1
10
40.1846080943318
20
11.8982965278041
30
0
41
1
10
40.1853597340578
20
11.8993012981672
30
0
41
1
10
40.1871795657871
20
11.9008401294239
30
0
41
1
10
40.1881348670588
20
11.9014408639777
30
0
41
1
10
40.1891913856098
20
11.9019645579607
30
0
0
SPLINE
5
346
100
AcDbEntity
8
1
62
256
6
ByLayer
370
18
48
1
60
0
100
AcDbSpline
70
4
71
3
72
8
73
4
40
0
40
0
40
0
40
0
40
1
40
1
40
1
40
1
41
1
10
40.8813161901853
20
7.30048227376005
30
0
41
1
10
40.9057617660421
20
7.37188410905804
30
0
41
1
10
40.9302003232839
20
7.44709288408464
30
0
41
1
10
40.9482927365344
20
7.50601761744713
30
0
0
SPLINE
5
347
100
AcDbEntity
8
1
62
256
6
ByLayer
370
13
48
1
60
0
100
AcDbSpline
70
4
71
3
72
8
73
4
40
0
40
0
40
0
40
0
40
1
40
1
40
1
40
1
41
1
10
40.4022802160183
20
12.510659686991
30
0
41
1
10
40.3952669282881
20
12.5079485977298
30
0
41
1
10
40.3882472657437
20
12.5052536564796
30
0
41
1
10
40.3812213915826
20
12.5025747784914
30
0
0
SPLINE
5
348
100
AcDbEntity
8
1
62
256
6
ByLayer
370
18
48
1
60
0
100
AcDbSpline
70
4
71
3
72
8
73
4
40
0
40
0
40
0
40
0
40
1
40
1
40
1
40
1
41
1
10
39.6352488698075
20
11.7722104779662
30
0
41
1
10
39.6383199887753
20
11.7901481114679
30
0
41
1
10
39.6413811022887
20
11.8088850254831
30
0
41
1
10
39.6444188726499
20
11.8283395831305
30
0
0
SPLINE
5
349
100
AcDbEntity
8
1
62
256
6
ByLayer
370
13
48
1
60
0
100
AcDbSpline
70
4
71
3
72
8
73
4
40
0
40
0
40
0
40
0
40
1
40
1
40
1
40
1
41
1
10
40.435654516378
20
7.71354494182862
30
0
41
1
10
40.4283587236344
20
7.71644898001207
30
0
41
1
10
40.4210598617321
20
7.71934615754466
30
0
41
1
10
40.4137580164183
20
7.72223651899796
30
0
0
SPLINE
5
34A
100
AcDbEntity
8
1
62
256
6
ByLayer
370
13
48
1
60
0
100
AcDbSpline
70
4
71
3
72
14
73
10
40
0
40
0
40
0
40
0
40
0.0738386433543257
40
0.0738386433543257
40
0.343456716621554
40
0.343456716621554
40
0.672647811750661
40
0.672647811750661
40
1
40
1
40
1
40
1
41
1
10
35.8456286927605
20
12.5856276180903
30
0
41
1
10
35.8431359888424
20
12.5829352705695
30
0
41
1
10
35.8403585741698
20
12.5808060981811
30
0
41
1
10
35.8263921518825
20
12.5728665940024
30
0
41
1
10
35.8119623554373
20
12.5713554535071
30
0
41
1
10
35.774200863715
20
12.5698251111319
30
0
41
1
10
35.7490740351531
20
12.5705589062607
30
0
41
1
10
35.6931727162844
20
12.5719857675738
30
0
41
1
10
35.6618568484845
20
12.5727987369137
30
0
41
1
10
35.6289583517774
20
12.5732013638772
30
0
0
SPLINE
5
34B
100
AcDbEntity
8
1
62
256
6
ByLayer
370
13
48
1
60
0
100
AcDbSpline
70
4
71
3
72
8
73
4
40
0
40
0
40
0
40
0
40
1
40
1
40
1
40
1
41
1
10
38.9988
20
12.9033905719637
30
0
41
1
10
38.9988
20
12.9048714918431
30
0
41
1
10
38.9988
20
12.9063524117225
30
0
41
1
10
38.9988
20
12.9078333316019
30
0
0
SPLINE
5
34C
100
AcDbEntity
8
1
62
256
6
ByLayer
370
13
48
1
60
0
100
AcDbSpline
70
4
71
3
72
12
73
8
40
0
40
0
40
0
40
0
40
0.133997004843638
40
0.133997004843638
40
0.145469846309754
40
0.145469846309754
40
1
40
1
40
1
40
1
41
1
10
39.2878217302607
20
8.13627610408551
30
0
41
1
10
39.2547606001494
20
8.14530125156193
30
0
41
1
10
39.2219278370484
20
8.15511656366638
30
0
41
1
10
39.1866175198312
20
8.16657230802869
30
0
41
1
10
39.1838336861356
20
8.16748160241909
30
0
41
1
10
38.9770809122478
20
8.23546895889021
30
0
41
1
10
38.7825735328535
20
8.33286481622264
30
0
41
1
10
38.6117028909294
20
8.44813959461408
30
0
0
SPLINE
5
34D
100
AcDbEntity
8
1
62
256
6
ByLayer
370
18
48
1
60
0
100
AcDbSpline
70
4
71
3
72
8
73
4
40
0
40
0
40
0
40
0
40
1
40
1
40
1
40
1
41
1
10
41.5942661228629
20
8.85985615280788
30
0
41
1
10
41.5937794010984
20
8.89195626687433
30
0
41
1
10
41.5930038367841
20
8.92350373425995
30
0
41
1
10
41.5919425978868
20
8.95425437034217
30
0
0
SPLINE
5
34E
100
AcDbEntity
8
1
62
256
6
ByLayer
370
13
48
1
60
0
100
AcDbSpline
70
4
71
3
72
12
73
8
40
0
40
0
40
0
40
0
40
0.479946025428492
40
0.479946025428492
40
0.999912389962867
40
0.999912389962867
40
1
40
1
40
1
40
1
41
1
10
38.3482567864937
20
7.80577803918462
30
0
41
1
10
38.4493302440409
20
7.76515445863589
30
0
41
1
10
38.5506248750019
20
7.72471453714451
30
0
41
1
10
38.766271109021
20
7.6530269888778
30
0
41
1
10
38.8816707362143
20
7.62229742588914
30
0
41
1
10
38.9987604345995
20
7.60497604613673
30
0
41
1
10
38.9987802173162
20
7.60497312034582
30
0
41
1
10
38.9988
20
7.60497019429766
30
0
0
SPLINE
5
34F
100
AcDbEntity
8
1
62
256
6
ByLayer
370
13
48
1
60
0
100
AcDbSpline
70
4
71
3
72
8
73
4
40
0
40
0
40
0
40
0
40
1
40
1
40
1
40
1
41
1
10
40.5604408036725
20
12.5750369988033
30
0
41
1
10
40.5564572845809
20
12.5733323883187
30
0
41
1
10
40.552471423533
20
12.5716331437078
30
0
41
1
10
40.548483238534
20
12.5699392840798
30
0
0
SPLINE
5
350
100
AcDbEntity
8
1
62
256
6
ByLayer
370
13
48
1
60
0
100
AcDbSpline
70
4
71
3
72
8
73
4
40
0
40
0
40
0
40
0
40
1
40
1
40
1
40
1
41
1
10
39.7399611560269
20
8.16818049012974
30
0
41
1
10
39.7461645928929
20
8.16817278622025
30
0
41
1
10
39.7523683222094
20
8.16820613592111
30
0
41
1
10
39.7585714746036
20
8.16828034616583
30
0
0
SPLINE
5
351
100
AcDbEntity
8
1
62
256
6
ByLayer
370
13
48
1
60
0
100
AcDbSpline
70
4
71
3
72
8
73
4
40
0
40
0
40
0
40
0
40
1
40
1
40
1
40
1
41
1
10
40.5219502777688
20
12.016480247046
30
0
41
1
10
40.4723123832403
20
11.9984032768909
30
0
41
1
10
40.4223236041376
20
11.980784211341
30
0
41
1
10
40.3725330027423
20
11.9639686929709
30
0
0
SPLINE
5
352
100
AcDbEntity
8
1
62
256
6
ByLayer
370
13
48
1
60
0
100
AcDbSpline
70
4
71
3
72
8
73
4
40
0
40
0
40
0
40
0
40
1
40
1
40
1
40
1
41
1
10
40.7920468780101
20
12.0418774740018
30
0
41
1
10
40.7944228027206
20
12.0393586638605
30
0
41
1
10
40.7967936105663
20
12.0367900930123
30
0
41
1
10
40.7991567929701
20
12.0341746671187
30
0
0
SPLINE
5
353
100
AcDbEntity
8
1
62
256
6
ByLayer
370
13
48
1
60
0
100
AcDbSpline
70
4
71
3
72
8
73
4
40
0
40
0
40
0
40
0
40
1
40
1
40
1
40
1
41
1
10
40.7437712215366
20
11.8272609896357
30
0
41
1
10
40.7442153279883
20
11.8272782049022
30
0
41
1
10
40.7446597837757
20
11.8272917203006
30
0
41
1
10
40.7451045145135
20
11.8273014039795
30
0
0
SPLINE
5
354
100
AcDbEntity
8
1
62
256
6
ByLayer
370
13
48
1
60
0
100
AcDbSpline
70
4
71
3
72
8
73
4
40
0
40
0
40
0
40
0
40
1
40
1
40
1
40
1
41
1
10
39.9897241915162
20
7.51606478667483
30
0
41
1
10
40.0229932586177
20
7.51760423432793
30
0
41
1
10
40.0562529942193
20
7.51935298304991
30
0
41
1
10
40.0894987911262
20
7.52131868466714
30
0
0
SPLINE
5
355
100
AcDbEntity
8
1
62
256
6
ByLayer
370
13
48
1
60
0
100
AcDbSpline
70
4
71
3
72
10
73
6
40
0
40
0
40
0
40
0
40
0.562168143309882
40
0.562168143309882
40
1
40
1
40
1
40
1
41
1
10
37.9916470379229
20
8.41406711346315
30
0
41
1
10
38.0393061504995
20
8.40309122239188
30
0
41
1
10
38.0853084278264
20
8.38583954186001
30
0
41
1
10
38.1591923985102
20
8.34647926017908
30
0
41
1
10
38.1893450369771
20
8.32602951914876
30
0
41
1
10
38.216198644719
20
8.30336803126193
30
0
0
SPLINE
5
356
100
AcDbEntity
8
1
62
256
6
ByLayer
370
13
48
1
60
0
100
AcDbSpline
70
4
71
3
72
8
73
4
40
0
40
0
40
0
40
0
40
1
40
1
40
1
40
1
41
1
10
40.7437712215412
20
8.1727390103641
30
0
41
1
10
40.7388949698369
20
8.17292803255154
30
0
41
1
10
40.7340009985676
20
8.17316062459207
30
0
41
1
10
40.729093747724
20
8.17344205147123
30
0
0
SPLINE
5
357
100
AcDbEntity
8
1
62
256
6
ByLayer
370
13
48
1
60
0
100
AcDbSpline
70
4
71
3
72
8
73
4
40
0
40
0
40
0
40
0
40
1
40
1
40
1
40
1
41
1
10
35.6208305501845
20
10.2386118159886
30
0
41
1
10
35.6436336258623
20
10.2120323053459
30
0
41
1
10
35.6657217934163
20
10.1830130064387
30
0
41
1
10
35.6867774155726
20
10.151519615133
30
0
0
SPLINE
5
358
100
AcDbEntity
8
1
62
256
6
ByLayer
370
13
48
1
60
0
100
AcDbSpline
70
4
71
3
72
8
73
4
40
0
40
0
40
0
40
0
40
1
40
1
40
1
40
1
41
1
10
40.4651953792878
20
12.5354856303105
30
0
41
1
10
40.4582258636835
20
12.5326789348293
30
0
41
1
10
40.4512496489785
20
12.5298885271523
30
0
41
1
10
40.4442668759635
20
12.5271143936833
30
0
0
SPLINE
5
359
100
AcDbEntity
8
1
62
256
6
ByLayer
370
13
48
1
60
0
100
AcDbSpline
70
4
71
3
72
10
73
6
40
0
40
0
40
0
40
0
40
0.977341738729277
40
0.977341738729277
40
1
40
1
40
1
40
1
41
1
10
38.4315828618976
20
8.13901495728354
30
0
41
1
10
38.625605832268
20
8.01152648326683
30
0
41
1
10
38.8468045111205
20
7.90497772808408
30
0
41
1
10
39.0839102388762
20
7.83039634340082
30
0
41
1
10
39.0893722459195
20
7.82869833516477
30
0
41
1
10
39.0948412522594
20
7.82701825641965
30
0
0
SPLINE
5
35A
100
AcDbEntity
8
1
62
256
6
ByLayer
370
13
48
1
60
0
100
AcDbSpline
70
4
71
3
72
10
73
6
40
0
40
0
40
0
40
0
40
0.437831856690118
40
0.437831856690118
40
1
40
1
40
1
40
1
41
1
10
38.216198644719
20
11.6966319687381
30
0
41
1
10
38.1893450369771
20
11.6739704808513
30
0
41
1
10
38.1591923985102
20
11.6535207398209
30
0
41
1
10
38.0853084278264
20
11.61416045814
30
0
41
1
10
38.0393061504995
20
11.5969087776081
30
0
41
1
10
37.9916470379229
20
11.5859328865369
30
0
0
SPLINE
5
35B
100
AcDbEntity
8
1
62
256
6
ByLayer
370
13
48
1
60
0
100
AcDbSpline
70
4
71
3
72
8
73
4
40
0
40
0
40
0
40
0
40
1
40
1
40
1
40
1
41
1
10
41.1346136768824
20
7.23951494905558
30
0
41
1
10
41.1889317622663
20
7.23257303707396
30
0
41
1
10
41.2441684895892
20
7.2298971527913
30
0
41
1
10
41.2988
20
7.2336620472781
30
0
0
SPLINE
5
35C
100
AcDbEntity
8
1
62
256
6
ByLayer
370
13
48
1
60
0
100
AcDbSpline
70
4
71
3
72
9
73
5
40
0
40
0
40
0
40
0
40
0.502056005627226
40
1
40
1
40
1
40
1
41
1
10
39.7020376854617
20
7.91170748670675
30
0
41
1
10
39.6990005661405
20
7.88465046201
30
0
41
1
10
39.6929512025492
20
7.83075801894896
30
0
41
1
10
39.6893540021711
20
7.78391377601113
30
0
41
1
10
39.6875627978462
20
7.76058796656929
30
0
0
SPLINE
5
35D
100
AcDbEntity
8
1
62
256
6
ByLayer
370
13
48
1
60
0
100
AcDbSpline
70
4
71
3
72
10
73
6
40
0
40
0
40
0
40
0
40
0.671649637539645
40
0.671649637539645
40
1
40
1
40
1
40
1
41
1
10
41.3342471297939
20
7.41547325480644
30
0
41
1
10
41.3238719873787
20
7.41276428342582
30
0
41
1
10
41.3130838869193
20
7.41126814969604
30
0
41
1
10
41.2971205038718
20
7.41111536254977
30
0
41
1
10
41.2918492714347
20
7.41144853006801
30
0
41
1
10
41.2866589937234
20
7.41214672111153
30
0
0
SPLINE
5
35E
100
AcDbEntity
8
1
62
256
6
ByLayer
370
13
48
1
60
0
100
AcDbSpline
70
4
71
3
72
8
73
4
40
0
40
0
40
0
40
0
40
1
40
1
40
1
40
1
41
1
10
39.231391327196
20
12.4337577905912
30
0
41
1
10
39.1731875377864
20
12.4241796201596
30
0
41
1
10
39.1149694527838
20
12.4146839555242
30
0
41
1
10
39.0568099499638
20
12.4048442295488
30
0
0
SPLINE
5
35F
100
AcDbEntity
8
1
62
256
6
ByLayer
370
13
48
1
60
0
100
AcDbSpline
70
4
71
3
72
26
73
22
40
0
40
0
40
0
40
0
40
0.0119860129375702
40
0.0119860129375702
40
0.0222440990986934
40
0.0222440990986934
40
0.0354142985428183
40
0.0354142985428183
40
0.0564887825623046
40
0.0564887825623046
40
0.0903045534325072
40
0.0903045534325072
40
0.144905049250837
40
0.144905049250837
40
0.234410294862892
40
0.234410294862892
40
0.387183908707104
40
0.387183908707104
40
0.510065677889504
40
0.510065677889504
40
1
40
1
40
1
40
1
41
1
10
36.8318892411824
20
8.85148473404107
30
0
41
1
10
36.8331436114139
20
8.8518057540881
30
0
41
1
10
36.8343998967055
20
8.85212603725591
30
0
41
1
10
36.8367511454044
20
8.85272718624756
30
0
41
1
10
36.8378458955045
20
8.85300723522101
30
0
41
1
10
36.8403487970697
20
8.85364785157117
30
0
41
1
10
36.8417577179751
20
8.85400871428033
30
0
41
1
10
36.8454258828833
20
8.85494888093126
30
0
41
1
10
36.8476880838003
20
8.85552933274556
30
0
41
1
10
36.8535916324118
20
8.85704577139202
30
0
41
1
10
36.8572403757883
20
8.85798466236349
30
0
41
1
10
36.866807247148
20
8.8604506576541
30
0
41
1
10
36.8727437824075
20
8.86198512027221
30
0
41
1
10
36.8884696065239
20
8.8660607706573
30
0
41
1
10
36.8983047644045
20
8.86862080159966
30
0
41
1
10
36.9250266408995
20
8.87560369043544
30
0
41
1
10
36.9420307545764
20
8.88007674961835
30
0
41
1
10
36.9727621101286
20
8.88819902575085
30
0
41
1
10
36.9865084371201
20
8.89184573363897
30
0
41
1
10
37.054097421403
20
8.90981033901514
30
0
41
1
10
37.1086371794375
20
8.92444830777171
30
0
41
1
10
37.1585712449568
20
8.93730008767835
30
0
0
SPLINE
5
360
100
AcDbEntity
8
1
62
256
6
ByLayer
370
13
48
1
60
0
100
AcDbSpline
70
4
71
3
72
8
73
4
40
0
40
0
40
0
40
0
40
1
40
1
40
1
40
1
41
1
10
41.1748620928796
20
7.94640503582806
30
0
41
1
10
41.1318676502928
20
7.97333021907059
30
0
41
1
10
41.0880117851802
20
7.99888291472044
30
0
41
1
10
41.0435669894049
20
8.02328871002487
30
0
0
SPLINE
5
361
100
AcDbEntity
8
1
62
256
6
ByLayer
370
13
48
1
60
0
100
AcDbSpline
70
4
71
3
72
8
73
4
40
0
40
0
40
0
40
0
40
1
40
1
40
1
40
1
41
1
10
40.729093747724
20
8.1734420514712
30
0
41
1
10
40.7236854376137
20
8.17375221369531
30
0
41
1
10
40.7182593998073
20
8.17412179376021
30
0
41
1
10
40.7128218791706
20
8.17455762170925
30
0
0
SPLINE
5
362
100
AcDbEntity
8
1
62
256
6
ByLayer
370
13
48
1
60
0
100
AcDbSpline
70
4
71
3
72
12
73
8
40
0
40
0
40
0
40
0
40
0.0008041065375135
40
0.0008041065375135
40
0.99851581954175
40
0.99851581954175
40
1
40
1
40
1
40
1
41
1
10
39.6488
20
11.7705823148313
30
0
41
1
10
39.6488197531827
20
11.7705800406733
30
0
41
1
10
39.6488395064211
20
11.7705777666684
30
0
41
1
10
39.6733645774325
20
11.7677536050124
30
0
41
1
10
39.6977938355546
20
11.764325305759
30
0
41
1
10
39.7222196041507
20
11.760558774528
30
0
41
1
10
39.7222558907656
20
11.7605531768597
30
0
41
1
10
39.7222921769647
20
11.7605475771067
30
0
0
SPLINE
5
363
100
AcDbEntity
8
1
62
256
6
ByLayer
370
18
48
1
60
0
100
AcDbSpline
70
4
71
3
72
8
73
4
40
0
40
0
40
0
40
0
40
1
40
1
40
1
40
1
41
1
10
41.5988
20
7.40000000000001
30
0
41
1
10
41.5987999999999
20
7.36637864647008
30
0
41
1
10
41.5943956445159
20
7.33246911000762
30
0
41
1
10
41.5857540414901
20
7.30000000000001
30
0
0
SPLINE
5
364
100
AcDbEntity
8
1
62
256
6
ByLayer
370
13
48
1
60
0
100
AcDbSpline
70
4
71
3
72
8
73
4
40
0
40
0
40
0
40
0
40
1
40
1
40
1
40
1
41
1
10
40.5843156775903
20
12.5853297516726
30
0
41
1
10
40.5803411699149
20
12.583603578263
30
0
41
1
10
40.5763643019078
20
12.5818827331371
30
0
41
1
10
40.5723850890743
20
12.5801672404322
30
0
0
SPLINE
5
365
100
AcDbEntity
8
1
62
256
6
ByLayer
370
13
48
1
60
0
100
AcDbSpline
70
4
71
3
72
8
73
4
40
0
40
0
40
0
40
0
40
1
40
1
40
1
40
1
41
1
10
39.9798199560951
20
7.74793746754705
30
0
41
1
10
39.9259346700752
20
7.74618334235817
30
0
41
1
10
39.8720317120774
20
7.74468380849646
30
0
41
1
10
39.818120778088
20
7.7434312990344
30
0
0
SPLINE
5
366
100
AcDbEntity
8
1
62
256
6
ByLayer
370
13
48
1
60
0
100
AcDbSpline
70
4
71
3
72
8
73
4
40
0
40
0
40
0
40
0
40
1
40
1
40
1
40
1
41
1
10
40.7523224694942
20
12.0789052800195
30
0
41
1
10
40.7529935305911
20
12.0783655434168
30
0
41
1
10
40.7536648266207
20
12.0778212397035
30
0
41
1
10
40.7543363061338
20
12.0772724123187
30
0
0
SPLINE
5
367
100
AcDbEntity
8
1
62
256
6
ByLayer
370
13
48
1
60
0
100
AcDbSpline
70
4
71
3
72
12
73
8
40
0
40
0
40
0
40
0
40
0.0117976486322157
40
0.058854903459253
40
0.247083922767402
40
0.623541961383701
40
1
40
1
40
1
40
1
41
1
10
39.2878221669292
20
11.8637166080501
30
0
41
1
10
39.2878612860014
20
11.8630637226886
30
0
41
1
10
39.2880321474057
20
11.8602120980617
30
0
41
1
10
39.288545396837
20
11.8516461218892
30
0
41
1
10
39.2900219651965
20
11.8270026471711
30
0
41
1
10
39.2922250413864
20
11.7902339787674
30
0
41
1
10
39.2940585838946
20
11.7596327145887
30
0
41
1
10
39.2949878440812
20
11.7441236460323
30
0
0
SPLINE
5
368
100
AcDbEntity
8
1
62
256
6
ByLayer
370
13
48
1
60
0
100
AcDbSpline
70
4
71
3
72
16
73
12
40
0
40
0
40
0
40
0
40
0.156028807467025
40
0.156028807467025
40
0.367658685186323
40
0.367658685186323
40
0.579760283715667
40
0.579760283715667
40
0.762388058660349
40
0.762388058660349
40
1
40
1
40
1
40
1
41
1
10
36.8318892411895
20
8.85148473403603
30
0
41
1
10
36.7468987832717
20
8.95062245215289
30
0
41
1
10
36.6710024093894
20
9.05965913415136
30
0
41
1
10
36.5234265811639
20
9.33234232519675
30
0
41
1
10
36.4610775107062
20
9.50543282670145
30
0
41
1
10
36.3959160943003
20
9.86004512677741
30
0
41
1
10
36.3925323798962
20
10.0462557985776
30
0
41
1
10
36.4413853243162
20
10.3797885876756
30
0
41
1
10
36.486350898613
20
10.5323682985559
30
0
41
1
10
36.6309844654472
20
10.8578781733753
30
0
41
1
10
36.7449048481066
20
11.0279998734868
30
0
41
1
10
36.8778160745718
20
11.1745392077167
30
0
0
SPLINE
5
369
100
AcDbEntity
8
1
62
256
6
ByLayer
370
13
48
1
60
0
100
AcDbSpline
70
4
71
3
72
8
73
4
40
0
40
0
40
0
40
0
40
1
40
1
40
1
40
1
41
1
10
39.2670038738256
20
7.78885481113736
30
0
41
1
10
39.2093639578302
20
7.8004682928574
30
0
41
1
10
39.151932555155
20
7.81315862042865
30
0
41
1
10
39.0948412522587
20
7.82701825641672
30
0
0
SPLINE
5
36A
100
AcDbEntity
8
1
62
256
6
ByLayer
370
13
48
1
60
0
100
AcDbSpline
70
4
71
3
72
8
73
4
40
0
40
0
40
0
40
0
40
1
40
1
40
1
40
1
41
1
10
40.7751183605699
20
7.90545670174777
30
0
41
1
10
40.7792539020509
20
7.90360618170325
30
0
41
1
10
40.7833899831722
20
7.90175756280544
30
0
41
1
10
40.7875266056559
20
7.89991087278531
30
0
0
SPLINE
5
36B
100
AcDbEntity
8
1
62
256
6
ByLayer
370
13
48
1
60
0
100
AcDbSpline
70
4
71
3
72
8
73
4
40
0
40
0
40
0
40
0
40
1
40
1
40
1
40
1
41
1
10
40.4751488059907
20
8.24347639316889
30
0
41
1
10
40.4270116293392
20
8.26544168560383
30
0
41
1
10
40.380737874527
20
8.2898120695512
30
0
41
1
10
40.3384886118677
20
8.30962267346371
30
0
0
SPLINE
5
36C
100
AcDbEntity
8
1
62
256
6
ByLayer
370
13
48
1
60
0
100
AcDbSpline
70
4
71
3
72
26
73
22
40
0
40
0
40
0
40
0
40
0.0370947090477715
40
0.0370947090477715
40
0.0557329816629114
40
0.0557329816629114
40
0.100822491591669
40
0.100822491591669
40
0.127191804986473
40
0.127191804986473
40
0.163501813557846
40
0.163501813557846
40
0.184449012382361
40
0.184449012382361
40
0.233247336227712
40
0.233247336227712
40
0.352688065432836
40
0.352688065432836
40
0.489999198151041
40
0.489999198151041
40
1
40
1
40
1
40
1
41
1
10
41.3342471297939
20
12.5845267451936
30
0
41
1
10
41.3410061961719
20
12.582761938828
30
0
41
1
10
41.3476830129341
20
12.580574727938
30
0
41
1
10
41.3573322149378
20
12.5764271767112
30
0
41
1
10
41.3605051050649
20
12.5748888891876
30
0
41
1
10
41.3709308786112
20
12.5690940326581
30
0
41
1
10
41.3778726623238
20
12.5639071617931
30
0
41
1
10
41.386666037959
20
12.5538420116095
30
0
41
1
10
41.3894797404485
20
12.5496513042867
30
0
41
1
10
41.3945592520991
20
12.5390898033113
30
0
41
1
10
41.3962886033061
20
12.5323149189195
30
0
41
1
10
41.3971141379954
20
12.5216440793609
30
0
41
1
10
41.3970323812218
20
12.517668672838
30
0
41
1
10
41.3957197818947
20
12.5046793225045
30
0
41
1
10
41.3931315514621
20
12.4957455977207
30
0
41
1
10
41.3813095602198
20
12.4668691016748
30
0
41
1
10
41.3679478236312
20
12.4484792653825
30
0
41
1
10
41.3367189775827
20
12.4124531509217
30
0
41
1
10
41.3178328418847
20
12.394942367974
30
0
41
1
10
41.2256356630614
20
12.31826809137
30
0
41
1
10
41.1421451313259
20
12.2710415289337
30
0
41
1
10
41.0581115493021
20
12.2284508782955
30
0
0
SPLINE
5
36D
100
AcDbEntity
8
1
62
256
6
ByLayer
370
13
48
1
60
0
100
AcDbSpline
70
4
71
3
72
8
73
4
40
0
40
0
40
0
40
0
40
1
40
1
40
1
40
1
41
1
10
40.1338906272079
20
11.8086910031252
30
0
41
1
10
40.1250650834517
20
11.7963374684935
30
0
41
1
10
40.1168112341903
20
11.7838751160708
30
0
41
1
10
40.1092320378387
20
11.7713871839675
30
0
0
SPLINE
5
36E
100
AcDbEntity
8
1
62
256
6
ByLayer
370
13
48
1
60
0
100
AcDbSpline
70
4
71
3
72
8
73
4
40
0
40
0
40
0
40
0
40
1
40
1
40
1
40
1
41
1
10
39.7222909295233
20
11.7605426720624
30
0
41
1
10
39.7280691217604
20
11.7596564603488
30
0
41
1
10
39.7338441871398
20
11.7587462847243
30
0
41
1
10
39.7396158168118
20
11.7578122208841
30
0
0
SPLINE
5
36F
100
AcDbEntity
8
1
62
256
6
ByLayer
370
13
48
1
60
0
100
AcDbSpline
70
4
71
3
72
8
73
4
40
0
40
0
40
0
40
0
40
1
40
1
40
1
40
1
41
1
10
40.5962332539209
20
7.40947526529158
30
0
41
1
10
40.6430545553436
20
7.38899058782556
30
0
41
1
10
40.6903777637058
20
7.36959713956989
30
0
41
1
10
40.7381259367937
20
7.35133481390113
30
0
0
SPLINE
5
370
100
AcDbEntity
8
1
62
256
6
ByLayer
370
13
48
1
60
0
100
AcDbSpline
70
4
71
3
72
8
73
4
40
0
40
0
40
0
40
0
40
1
40
1
40
1
40
1
41
1
10
40.7128218791706
20
11.8254423782908
30
0
41
1
10
40.7182593998073
20
11.8258782062398
30
0
41
1
10
40.7236854376137
20
11.8262477863047
30
0
41
1
10
40.729093747724
20
11.8265579485288
30
0
0
SPLINE
5
371
100
AcDbEntity
8
1
62
256
6
ByLayer
370
13
48
1
60
0
100
AcDbSpline
70
4
71
3
72
9
73
5
40
0
40
0
40
0
40
0
40
0.813863931047216
40
1
40
1
40
1
40
1
41
1
10
41.580100225653
20
10.5460823954966
30
0
41
1
10
41.569947460996
20
10.6927917618812
30
0
41
1
10
41.5524398825353
20
10.8694109620429
30
0
41
1
10
41.5290867577796
20
11.0380185316643
30
0
41
1
10
41.5245417215668
20
11.0690991862301
30
0
0
SPLINE
5
372
100
AcDbEntity
8
1
62
256
6
ByLayer
370
13
48
1
60
0
100
AcDbSpline
70
4
71
3
72
8
73
4
40
0
40
0
40
0
40
0
40
1
40
1
40
1
40
1
41
1
10
39.9154804451044
20
8.28610770758232
30
0
41
1
10
39.8752505849298
20
8.2709166062117
30
0
41
1
10
39.8331792184332
20
8.25903029599422
30
0
41
1
10
39.79036238069
20
8.25103265809636
30
0
0
SPLINE
5
373
100
AcDbEntity
8
1
62
256
6
ByLayer
370
13
48
1
60
0
100
AcDbSpline
70
4
71
3
72
8
73
4
40
0
40
0
40
0
40
0
40
1
40
1
40
1
40
1
41
1
10
40.8056168102954
20
11.8536178908968
30
0
41
1
10
40.7892328415089
20
11.8444768355827
30
0
41
1
10
40.7733142858404
20
11.8352568825328
30
0
41
1
10
40.7582785615561
20
11.8263003316801
30
0
0
SPLINE
5
374
100
AcDbEntity
8
1
62
256
6
ByLayer
370
13
48
1
60
0
100
AcDbSpline
70
4
71
3
72
20
73
16
40
0
40
0
40
0
40
0
40
0.0442798809751458
40
0.0442798809751458
40
0.131124445033896
40
0.131124445033896
40
0.225919352725887
40
0.225919352725887
40
0.32005805266502
40
0.32005805266502
40
0.450639670792868
40
0.450639670792868
40
0.579694825157107
40
0.579694825157107
40
1
40
1
40
1
40
1
41
1
10
41.4078128030806
20
7.30000000000001
30
0
41
1
10
41.4183893043163
20
7.30645451877382
30
0
41
1
10
41.4285951537144
20
7.3135880279643
30
0
41
1
10
41.4569762197097
20
7.33657854725513
30
0
41
1
10
41.4738357574554
20
7.35465237462634
30
0
41
1
10
41.5016881180043
20
7.39675018301887
30
0
41
1
10
41.5123317961734
20
7.42178916052174
30
0
41
1
10
41.523841491203
20
7.4731068530277
30
0
41
1
10
41.5249959242199
20
7.50003111536736
30
0
41
1
10
41.5186065499011
20
7.56224332093151
30
0
41
1
10
41.5076355420622
20
7.59785946500543
30
0
41
1
10
41.4774925862559
20
7.66349416442122
30
0
41
1
10
41.4581532669864
20
7.69432253084844
30
0
41
1
10
41.3669803378038
20
7.8144917352777
30
0
41
1
10
41.2728549355636
20
7.88717006093276
30
0
41
1
10
41.1748620928875
20
7.9464050358342
30
0
0
SPLINE
5
375
100
AcDbEntity
8
1
62
256
6
ByLayer
370
13
48
1
60
0
100
AcDbSpline
70
4
71
3
72
8
73
4
40
0
40
0
40
0
40
0
40
1
40
1
40
1
40
1
41
1
10
37.9759717426968
20
8.41766528196732
30
0
41
1
10
37.9811958986584
20
8.41647008420912
30
0
41
1
10
37.9864210092493
20
8.4152706675865
30
0
41
1
10
37.9916470379229
20
8.41406711346315
30
0
0
SPLINE
5
376
100
AcDbEntity
8
1
62
256
6
ByLayer
370
18
48
1
60
0
100
AcDbSpline
70
4
71
3
72
10
73
6
40
0
40
0
40
0
40
0
40
0.224975900359522
40
0.224975900359522
40
1
40
1
40
1
40
1
41
1
10
40.2126402616837
20
11.9138956340382
30
0
41
1
10
40.2108593575571
20
11.9129619795938
30
0
41
1
10
40.2090719594457
20
11.9120446219816
30
0
41
1
10
40.2011841470655
20
11.9079792987072
30
0
41
1
10
40.1951447568496
20
11.9049155186003
30
0
41
1
10
40.1891913856543
20
11.901964557944
30
0
0
SPLINE
5
377
100
AcDbEntity
8
1
62
256
6
ByLayer
370
13
48
1
60
0
100
AcDbSpline
70
4
71
3
72
8
73
4
40
0
40
0
40
0
40
0
40
1
40
1
40
1
40
1
41
1
10
40.5889075129053
20
12.0396663287275
30
0
41
1
10
40.581399916396
20
12.0372581340968
30
0
41
1
10
40.5739088642765
20
12.0347931265346
30
0
41
1
10
40.5664365699848
20
12.0322705371636
30
0
0
SPLINE
5
378
100
AcDbEntity
8
1
62
256
6
ByLayer
370
13
48
1
60
0
100
AcDbSpline
70
4
71
3
72
8
73
4
40
0
40
0
40
0
40
0
40
1
40
1
40
1
40
1
41
1
10
40.5723850890822
20
12.5801672404356
30
0
41
1
10
40.568406006912
20
12.5784518040617
30
0
41
1
10
40.5644245728578
20
12.5767417163064
30
0
41
1
10
40.5604408036899
20
12.5750369988107
30
0
0
SPLINE
5
379
100
AcDbEntity
8
1
62
256
6
ByLayer
370
13
48
1
60
0
100
AcDbSpline
70
4
71
3
72
10
73
6
40
0
40
0
40
0
40
0
40
0.905448857482972
40
0.905448857482972
40
1
40
1
40
1
40
1
41
1
10
41.5987999999717
20
11.5876396954799
30
0
41
1
10
41.4008816177211
20
11.6741780465188
30
0
41
1
10
41.2021710982749
20
11.7594094116731
30
0
41
1
10
40.9784373246759
20
11.8419877896694
30
0
41
1
10
40.9572306129508
20
11.8496878346962
30
0
41
1
10
40.9359816925959
20
11.8572662551141
30
0
0
SPLINE
5
37A
100
AcDbEntity
8
1
62
256
6
ByLayer
370
13
48
1
60
0
100
AcDbSpline
70
4
71
3
72
8
73
4
40
0
40
0
40
0
40
0
40
1
40
1
40
1
40
1
41
1
10
40.435654516378
20
12.2864550581714
30
0
41
1
10
40.4429496661436
20
12.2893588407031
30
0
41
1
10
40.4502417666613
20
12.2922694908366
30
0
41
1
10
40.4575307350278
20
12.2951870443894
30
0
0
SPLINE
5
37B
100
AcDbEntity
8
1
62
256
6
ByLayer
370
18
48
1
60
0
100
AcDbSpline
70
4
71
3
72
12
73
8
40
0
40
0
40
0
40
0
40
0.517270320015108
40
0.517270320015108
40
0.978212487093875
40
0.978212487093875
40
1
40
1
40
1
40
1
41
1
10
40.2101098780286
20
8.1694687986805
30
0
41
1
10
40.235908132621
20
8.19029188676058
30
0
41
1
10
40.26051436764
20
8.21443663580379
30
0
41
1
10
40.3022972884388
20
8.26122243520373
30
0
41
1
10
40.3204677482579
20
8.28427342434543
30
0
41
1
10
40.3370141724791
20
8.30753367179409
30
0
41
1
10
40.3377544411017
20
8.30857826691968
30
0
41
1
10
40.3384886118677
20
8.30962267346371
30
0
0
SPLINE
5
37C
100
AcDbEntity
8
1
62
256
6
ByLayer
370
13
48
1
60
0
100
AcDbSpline
70
4
71
3
72
14
73
10
40
0
40
0
40
0
40
0
40
0.324195461079468
40
0.324195461079468
40
0.674182309330079
40
0.674182309330079
40
0.985474047183636
40
0.985474047183636
40
1
40
1
40
1
40
1
41
1
10
39.6298712343537
20
11.8899526319298
30
0
41
1
10
39.5893881272561
20
11.8831669277938
30
0
41
1
10
39.5493974537135
20
11.8741815944572
30
0
41
1
10
39.4689333313129
20
11.8497336169381
30
0
41
1
10
39.4283875729733
20
11.8333498476747
30
0
41
1
10
39.357636887333
20
11.7940563494544
30
0
41
1
10
39.3257577622837
20
11.7721903733294
30
0
41
1
10
39.2974737185566
20
11.7464392971976
30
0
41
1
10
39.2962369049596
20
11.7452778765061
30
0
41
1
10
39.2949878425085
20
11.7441236454282
30
0
0
SPLINE
5
37D
100
AcDbEntity
8
1
62
256
6
ByLayer
370
13
48
1
60
0
100
AcDbSpline
70
4
71
3
72
11
73
7
40
0
40
0
40
0
40
0
40
0.229785135224467
40
0.486390411751833
40
0.742823076866307
40
1
40
1
40
1
40
1
41
1
10
39.2670087528674
20
7.78893663035842
30
0
41
1
10
39.2685121489769
20
7.81401833803386
30
0
41
1
10
39.2716944151057
20
7.86710924886142
30
0
41
1
10
39.2774933225244
20
7.96390005654072
30
0
41
1
10
39.2833856795523
20
8.06223929145619
30
0
41
1
10
39.2863416189014
20
8.11157333699018
30
0
41
1
10
39.2878217302625
20
8.136276104085
30
0
0
SPLINE
5
37E
100
AcDbEntity
8
1
62
256
6
ByLayer
370
13
48
1
60
0
100
AcDbSpline
70
4
71
3
72
8
73
4
40
0
40
0
40
0
40
0
40
1
40
1
40
1
40
1
41
1
10
40.5604408036899
20
7.42496300118933
30
0
41
1
10
40.5644245728578
20
7.4232582836936
30
0
41
1
10
40.568406006912
20
7.42154819593833
30
0
41
1
10
40.5723850890822
20
7.41983275956437
30
0
0
SPLINE
5
37F
100
AcDbEntity
8
1
62
256
6
ByLayer
370
13
48
1
60
0
100
AcDbSpline
70
4
71
3
72
8
73
4
40
0
40
0
40
0
40
0
40
1
40
1
40
1
40
1
41
1
10
40.6317814138829
20
12.3665217198083
30
0
41
1
10
40.6359536472928
20
12.3682683194355
30
0
41
1
10
40.6401247168622
20
12.3700172254077
30
0
41
1
10
40.6442946127907
20
12.3717684290868
30
0
0
SPLINE
5
380
100
AcDbEntity
8
1
62
256
6
ByLayer
370
13
48
1
60
0
100
AcDbSpline
70
4
71
3
72
8
73
4
40
0
40
0
40
0
40
0
40
1
40
1
40
1
40
1
41
1
10
40.7495716856815
20
12.0830849804402
30
0
41
1
10
40.7490325780362
20
12.0828426124055
30
0
41
1
10
40.7484935155364
20
12.0826001477414
30
0
41
1
10
40.7479544982286
20
12.0823575865225
30
0
0
SPLINE
5
381
100
AcDbEntity
8
1
62
256
6
ByLayer
370
13
48
1
60
0
100
AcDbSpline
70
4
71
3
72
8
73
4
40
0
40
0
40
0
40
0
40
1
40
1
40
1
40
1
41
1
10
40.7035794882309
20
7.92802755337928
30
0
41
1
10
40.7113730847457
20
7.92611066483443
30
0
41
1
10
40.7191743871262
20
7.92424322290532
30
0
41
1
10
40.7269803124967
20
7.92242249415753
30
0
0
SPLINE
5
382
100
AcDbEntity
8
1
62
256
6
ByLayer
370
18
48
1
60
0
100
AcDbSpline
70
4
71
3
72
8
73
4
40
0
40
0
40
0
40
0
40
1
40
1
40
1
40
1
41
1
10
41.1748620927783
20
12.0535949641085
30
0
41
1
10
41.1360984054744
20
12.1178505018449
30
0
41
1
10
41.0934138634622
20
12.1816759394647
30
0
41
1
10
41.0580629624678
20
12.2285732351858
30
0
0
SPLINE
5
383
100
AcDbEntity
8
1
62
256
6
ByLayer
370
13
48
1
60
0
100
AcDbSpline
70
4
71
3
72
8
73
4
40
0
40
0
40
0
40
0
40
1
40
1
40
1
40
1
41
1
10
38.060783131599
20
8.76730584170338
30
0
41
1
10
38.0553099554025
20
8.76835825736845
30
0
41
1
10
38.0498379427018
20
8.76940657766815
30
0
41
1
10
38.0443671218847
20
8.77045073847759
30
0
0
SPLINE
5
384
100
AcDbEntity
8
1
62
256
6
ByLayer
370
13
48
1
60
0
100
AcDbSpline
70
4
71
3
72
14
73
10
40
0
40
0
40
0
40
0
40
0.0143305415674674
40
0.0143305415674674
40
0.107260966796896
40
0.107260966796896
40
0.598402967610868
40
0.598402967610868
40
1
40
1
40
1
40
1
41
1
10
35.6208305501845
20
10.2386118159885
30
0
41
1
10
35.6205132559279
20
10.2375320692269
30
0
41
1
10
35.6201897293464
20
10.2364527479591
30
0
41
1
10
35.6177233785393
20
10.228376967348
30
0
41
1
10
35.615328455898
20
10.2213873661437
30
0
41
1
10
35.5988893037918
20
10.178138561302
30
0
41
1
10
35.5778711282749
20
10.1420330711257
30
0
41
1
10
35.5294785155223
20
10.0823779975556
30
0
41
1
10
35.5034345592234
20
10.0571084330171
30
0
41
1
10
35.4745640921996
20
10.0349719324198
30
0
0
SPLINE
5
385
100
AcDbEntity
8
1
62
256
6
ByLayer
370
18
48
1
60
0
100
AcDbSpline
70
4
71
3
72
8
73
4
40
0
40
0
40
0
40
0
40
1
40
1
40
1
40
1
41
1
10
39.6443903209915
20
11.8286860349729
30
0
41
1
10
39.5170827945869
20
11.8200203884817
30
0
41
1
10
39.4171885486939
20
11.81127523848
30
0
41
1
10
39.2949878440829
20
11.7441236460322
30
0
0
SPLINE
5
386
100
AcDbEntity
8
1
62
256
6
ByLayer
370
13
48
1
60
0
100
AcDbSpline
70
4
71
3
72
8
73
4
40
0
40
0
40
0
40
0
40
1
40
1
40
1
40
1
41
1
10
40.3389710352686
20
7.51331476733182
30
0
41
1
10
40.3460260961064
20
7.51069785495707
30
0
41
1
10
40.3530752074691
20
7.50806512598604
30
0
41
1
10
40.3601181945758
20
7.50541644966916
30
0
0
SPLINE
5
387
100
AcDbEntity
8
1
62
256
6
ByLayer
370
13
48
1
60
0
100
AcDbSpline
70
4
71
3
72
10
73
6
40
0
40
0
40
0
40
0
40
0.0761117852939035
40
0.0761117852939035
40
1
40
1
40
1
40
1
41
1
10
40.9053084491241
20
8.09481232561851
30
0
41
1
10
40.9045979286698
20
8.09387025939944
30
0
41
1
10
40.9038866931816
20
8.0929279977594
30
0
41
1
10
40.8945243604834
20
8.08055376354787
30
0
41
1
10
40.8856872774647
20
8.06913009487877
30
0
41
1
10
40.8767887348242
20
8.05787806482476
30
0
0
SPLINE
5
388
100
AcDbEntity
8
1
62
256
6
ByLayer
370
13
48
1
60
0
100
AcDbSpline
70
4
71
3
72
8
73
4
40
0
40
0
40
0
40
0
40
1
40
1
40
1
40
1
41
1
10
40.729093747724
20
11.8265579485288
30
0
41
1
10
40.7340009985676
20
11.826839375408
30
0
41
1
10
40.7388949698369
20
11.8270719674485
30
0
41
1
10
40.7437712215412
20
11.8272609896359
30
0
0
SPLINE
5
389
100
AcDbEntity
8
1
62
256
6
ByLayer
370
13
48
1
60
0
100
AcDbSpline
70
4
71
3
72
8
73
4
40
0
40
0
40
0
40
0
40
1
40
1
40
1
40
1
41
1
10
40.6568009615612
20
7.62297099536312
30
0
41
1
10
40.6526333548367
20
7.62472681370926
30
0
41
1
10
40.6484645688002
20
7.62648034210719
30
0
41
1
10
40.6442946127906
20
7.62823157091313
30
0
0
SPLINE
5
38A
100
AcDbEntity
8
1
62
256
6
ByLayer
370
13
48
1
60
0
100
AcDbSpline
70
4
71
3
72
8
73
4
40
0
40
0
40
0
40
0
40
1
40
1
40
1
40
1
41
1
10
40.5904290701336
20
8.19809289344724
30
0
41
1
10
40.5511163544692
20
8.21094181778082
30
0
41
1
10
40.5121802503087
20
8.22657871531749
30
0
41
1
10
40.4751488059907
20
8.24347639316889
30
0
0
SPLINE
5
38B
100
AcDbEntity
8
1
62
256
6
ByLayer
370
13
48
1
60
0
100
AcDbSpline
70
4
71
3
72
8
73
4
40
0
40
0
40
0
40
0
40
1
40
1
40
1
40
1
41
1
10
39.9763484919093
20
11.8212260661807
30
0
41
1
10
39.9220142213977
20
11.8247541711203
30
0
41
1
10
39.8676285804819
20
11.8276275316025
30
0
41
1
10
39.8132285509218
20
11.830012708095
30
0
0
SPLINE
5
38C
100
AcDbEntity
8
1
62
256
6
ByLayer
370
13
48
1
60
0
100
AcDbSpline
70
4
71
3
72
8
73
4
40
0
40
0
40
0
40
0
40
1
40
1
40
1
40
1
41
1
10
40.3601181945792
20
7.50541644966788
30
0
41
1
10
40.3671587336016
20
7.50276869400921
30
0
41
1
10
40.3741931890502
20
7.50010498727576
30
0
41
1
10
40.3812213915817
20
7.49742522150896
30
0
0
SPLINE
5
38D
100
AcDbEntity
8
1
62
256
6
ByLayer
370
13
48
1
60
0
100
AcDbSpline
70
4
71
3
72
8
73
4
40
0
40
0
40
0
40
0
40
1
40
1
40
1
40
1
41
1
10
39.9154804450442
20
11.7138922923128
30
0
41
1
10
39.9370377969679
20
11.7057520720772
30
0
41
1
10
39.9581565245428
20
11.6966405365928
30
0
41
1
10
39.9786988508494
20
11.6866454371086
30
0
0
SPLINE
5
38E
100
AcDbEntity
8
1
62
256
6
ByLayer
370
13
48
1
60
0
100
AcDbSpline
70
4
71
3
72
8
73
4
40
0
40
0
40
0
40
0
40
1
40
1
40
1
40
1
41
1
10
40.6197469220189
20
11.8104233848142
30
0
41
1
10
40.6247240337254
20
11.8116947079771
30
0
41
1
10
40.6297178672315
20
11.8128847026101
30
0
41
1
10
40.6347219030158
20
11.8139955606136
30
0
0
SPLINE
5
38F
100
AcDbEntity
8
1
62
256
6
ByLayer
370
13
48
1
60
0
100
AcDbSpline
70
4
71
3
72
8
73
4
40
0
40
0
40
0
40
0
40
1
40
1
40
1
40
1
41
1
10
37.1476329740574
20
11.3686194084058
30
0
41
1
10
37.1725741561621
20
11.3725226078763
30
0
41
1
10
37.197068954169
20
11.3784034458617
30
0
41
1
10
37.2206692005292
20
11.3857131582786
30
0
0
SPLINE
5
390
100
AcDbEntity
8
1
62
256
6
ByLayer
370
13
48
1
60
0
100
AcDbSpline
70
4
71
3
72
8
73
4
40
0
40
0
40
0
40
0
40
1
40
1
40
1
40
1
41
1
10
39.7309352292739
20
11.9011128975109
30
0
41
1
10
39.7338099033475
20
11.8839441494066
30
0
41
1
10
39.7369088728107
20
11.8601531302342
30
0
41
1
10
39.7399606696334
20
11.8318240251058
30
0
0
SPLINE
5
391
100
AcDbEntity
8
1
62
256
6
ByLayer
370
13
48
1
60
0
100
AcDbSpline
70
4
71
3
72
14
73
10
40
0
40
0
40
0
40
0
40
0.0142595095454469
40
0.0142595095454469
40
0.503363468226032
40
0.503363468226032
40
0.594705536481238
40
0.594705536481238
40
1
40
1
40
1
40
1
41
1
10
35.6227821386885
20
10.2833105415298
30
0
41
1
10
35.6225601579634
20
10.284413833546
30
0
41
1
10
35.6223319315433
20
10.2855172448675
30
0
41
1
10
35.6141718656787
20
10.323964351746
30
0
41
1
10
35.5989632942615
20
10.3621640777334
30
0
41
1
10
35.5735701836939
20
10.4048033035322
30
0
41
1
10
35.5693002100713
20
10.4115299486092
30
0
41
1
10
35.5452142098699
20
10.4472020902669
30
0
41
1
10
35.5210745806484
20
10.475035215193
30
0
41
1
10
35.4937746554928
20
10.4998807796876
30
0
0
SPLINE
5
392
100
AcDbEntity
8
1
62
256
6
ByLayer
370
13
48
1
60
0
100
AcDbSpline
70
4
71
3
72
8
73
4
40
0
40
0
40
0
40
0
40
1
40
1
40
1
40
1
41
1
10
40.7381259367937
20
7.35133481390113
30
0
41
1
10
40.7854279183623
20
7.33324314386815
30
0
41
1
10
40.8331751227863
20
7.31624950728241
30
0
41
1
10
40.881316190279
20
7.30048227372936
30
0
0
SPLINE
5
393
100
AcDbEntity
8
1
62
256
6
ByLayer
370
13
48
1
60
0
100
AcDbSpline
70
4
71
3
72
8
73
4
40
0
40
0
40
0
40
0
40
1
40
1
40
1
40
1
41
1
10
39.8097443135566
20
11.902587453467
30
0
41
1
10
39.7901424452924
20
11.902766273945
30
0
41
1
10
39.7705331200064
20
11.9025393159747
30
0
41
1
10
39.7509435364736
20
11.9019040832851
30
0
0
SPLINE
5
394
100
AcDbEntity
8
1
62
256
6
ByLayer
370
13
48
1
60
0
100
AcDbSpline
70
4
71
3
72
8
73
4
40
0
40
0
40
0
40
0
40
1
40
1
40
1
40
1
41
1
10
40.7457132650767
20
8.17268775309148
30
0
41
1
10
40.7455102912712
20
8.17269055989661
30
0
41
1
10
40.7453073719164
20
8.17269417892615
30
0
41
1
10
40.7451045145122
20
8.17269859599429
30
0
0
SPLINE
5
395
100
AcDbEntity
8
1
62
256
6
ByLayer
370
13
48
1
60
0
100
AcDbSpline
70
4
71
3
72
26
73
22
40
0
40
0
40
0
40
0
40
0.0122865037332731
40
0.0122865037332731
40
0.020363324328732
40
0.020363324328732
40
0.0324483024076144
40
0.0324483024076144
40
0.0517995738135033
40
0.0517995738135033
40
0.0828572599965518
40
0.0828572599965518
40
0.132959910827484
40
0.132959910827484
40
0.21478442682823
40
0.21478442682823
40
0.352758585347197
40
0.352758585347197
40
0.512659311053143
40
0.512659311053143
40
1
40
1
40
1
40
1
41
1
10
36.8778160745721
20
11.1745392077171
30
0
41
1
10
36.8790631387214
20
11.1741954596112
30
0
41
1
10
36.8803121178777
20
11.1738522959702
30
0
41
1
10
36.8823965018358
20
11.1732779706566
30
0
41
1
10
36.8832312261931
20
11.1730478482351
30
0
41
1
10
36.8853165813827
20
11.1724726319066
30
0
41
1
10
36.8865680601335
20
11.1721271496001
30
0
41
1
10
36.8898272677862
20
11.1712266889737
30
0
41
1
10
36.8918373472372
20
11.1706706250792
30
0
41
1
10
36.8970827003007
20
11.1692177027394
30
0
41
1
10
36.900323874616
20
11.1683180865339
30
0
41
1
10
36.9088155123904
20
11.1659563866007
30
0
41
1
10
36.9140807131758
20
11.1644872831276
30
0
41
1
10
36.9279930246603
20
11.1605931673464
30
0
41
1
10
36.9366769144195
20
11.1581500928799
30
0
41
1
10
36.9600949416929
20
11.1515300434607
30
0
41
1
10
36.974922613555
20
11.1473047717959
30
0
41
1
10
37.0070176667697
20
11.138096974245
30
0
41
1
10
37.0243451730317
20
11.1330872645744
30
0
41
1
10
37.0936148203061
20
11.1129536059206
30
0
41
1
10
37.1462689063881
20
11.0973765056888
30
0
41
1
10
37.1949097614156
20
11.0833006494087
30
0
0
SPLINE
5
396
100
AcDbEntity
8
1
62
256
6
ByLayer
370
13
48
1
60
0
100
AcDbSpline
70
4
71
3
72
12
73
8
40
0
40
0
40
0
40
0
40
0.449307899302586
40
0.449307899302586
40
0.78892717082943
40
0.78892717082943
40
1
40
1
40
1
40
1
41
1
10
35.5002441311707
20
10.7085998348858
30
0
41
1
10
35.5101651374135
20
10.7114134202051
30
0
41
1
10
35.5199171210793
20
10.7147837914709
30
0
41
1
10
35.5364083150604
20
10.7222755339753
30
0
41
1
10
35.5433838564559
20
10.7260429778374
30
0
41
1
10
35.5533215284543
20
10.7341883242067
30
0
41
1
10
35.5569131958233
20
10.7378831456195
30
0
41
1
10
35.5593243087827
20
10.7424969624259
30
0
0
SPLINE
5
397
100
AcDbEntity
8
1
62
256
6
ByLayer
370
13
48
1
60
0
100
AcDbSpline
70
4
71
3
72
8
73
4
40
0
40
0
40
0
40
0
40
1
40
1
40
1
40
1
41
1
10
39.9786988508494
20
8.31335456289142
30
0
41
1
10
39.9581565245428
20
8.30335946340719
30
0
41
1
10
39.9370377969679
20
8.29424792792284
30
0
41
1
10
39.9154804450442
20
8.28610770768722
30
0
0
SPLINE
5
398
100
AcDbEntity
8
1
62
256
6
ByLayer
370
13
48
1
60
0
100
AcDbSpline
70
4
71
3
72
8
73
4
40
0
40
0
40
0
40
0
40
1
40
1
40
1
40
1
41
1
10
40.6692998734366
20
7.61769683370383
30
0
41
1
10
40.6651347508874
20
7.61945717202519
30
0
41
1
10
40.6609684439719
20
7.62121522945779
30
0
41
1
10
40.6568009615612
20
7.62297099536317
30
0
0
SPLINE
5
399
100
AcDbEntity
8
1
62
256
6
ByLayer
370
18
48
1
60
0
100
AcDbSpline
70
4
71
3
72
10
73
6
40
0
40
0
40
0
40
0
40
0.638354565756784
40
0.638354565756784
40
1
40
1
40
1
40
1
41
1
10
37.1721899251209
20
7.60089412532597
30
0
41
1
10
37.0907889429359
20
7.6418654821494
30
0
41
1
10
37.006785142935
20
7.67070055055825
30
0
41
1
10
36.8869861444792
20
7.70155529826479
30
0
41
1
10
36.8452796055662
20
7.7100423898211
30
0
41
1
10
36.8067633817629
20
7.71658804410998
30
0
0
SPLINE
5
39A
100
AcDbEntity
8
1
62
256
6
ByLayer
370
13
48
1
60
0
100
AcDbSpline
70
4
71
3
72
8
73
4
40
0
40
0
40
0
40
0
40
1
40
1
40
1
40
1
41
1
10
39.2314091072271
20
7.56623928347759
30
0
41
1
10
39.244439332193
20
7.644345652044
30
0
41
1
10
39.2575871946329
20
7.72660259419257
30
0
41
1
10
39.267014749946
20
7.78901835537494
30
0
0
SPLINE
5
39B
100
AcDbEntity
8
1
62
256
6
ByLayer
370
13
48
1
60
0
100
AcDbSpline
70
4
71
3
72
8
73
4
40
0
40
0
40
0
40
0
40
1
40
1
40
1
40
1
41
1
10
40.2317322201164
20
7.5300451482012
30
0
41
1
10
40.2495718090995
20
7.53094987898848
30
0
41
1
10
40.2676019284835
20
7.53001973160454
30
0
41
1
10
40.2852533085229
20
7.52728512033201
30
0
0
SPLINE
5
39C
100
AcDbEntity
8
1
62
256
6
ByLayer
370
13
48
1
60
0
100
AcDbSpline
70
4
71
3
72
8
73
4
40
0
40
0
40
0
40
0
40
1
40
1
40
1
40
1
41
1
10
40.7479544982286
20
7.91764241347758
30
0
41
1
10
40.7484935155364
20
7.91739985225863
30
0
41
1
10
40.7490325780362
20
7.91715738759453
30
0
41
1
10
40.7495716856815
20
7.91691501955984
30
0
0
SPLINE
5
39D
100
AcDbEntity
8
1
62
256
6
ByLayer
370
13
48
1
60
0
100
AcDbSpline
70
4
71
3
72
26
73
22
40
0
40
0
40
0
40
0
40
0.510000801848959
40
0.510000801848959
40
0.647311934567164
40
0.647311934567164
40
0.766752663772288
40
0.766752663772288
40
0.815550987617639
40
0.815550987617639
40
0.836498186442154
40
0.836498186442154
40
0.872808195013527
40
0.872808195013527
40
0.899177508408331
40
0.899177508408331
40
0.944267018337089
40
0.944267018337089
40
0.962905290952229
40
0.962905290952229
40
1
40
1
40
1
40
1
41
1
10
41.0581115493021
20
7.77154912170451
30
0
41
1
10
41.1421451313259
20
7.72895847106636
30
0
41
1
10
41.2256356630614
20
7.68173190863004
30
0
41
1
10
41.3178328418847
20
7.60505763202605
30
0
41
1
10
41.3367189775827
20
7.58754684907831
30
0
41
1
10
41.3679478236312
20
7.5515207346175
30
0
41
1
10
41.3813095602198
20
7.5331308983252
30
0
41
1
10
41.3931315514621
20
7.50425440227932
30
0
41
1
10
41.3957197818947
20
7.4953206774955
30
0
41
1
10
41.3970323812218
20
7.48233132716197
30
0
41
1
10
41.3971141379954
20
7.47835592063907
30
0
41
1
10
41.3962886033061
20
7.4676850810805
30
0
41
1
10
41.3945592520991
20
7.4609101966887
30
0
41
1
10
41.3894797404485
20
7.45034869571336
30
0
41
1
10
41.386666037959
20
7.44615798839055
30
0
41
1
10
41.3778726623238
20
7.43609283820689
30
0
41
1
10
41.3709308786112
20
7.43090596734197
30
0
41
1
10
41.3605051050649
20
7.42511111081242
30
0
41
1
10
41.3573322149378
20
7.42357282328885
30
0
41
1
10
41.3476830129341
20
7.41942527206197
30
0
41
1
10
41.3410061961719
20
7.41723806117199
30
0
41
1
10
41.3342471297939
20
7.41547325480644
30
0
0
SPLINE
5
39E
100
AcDbEntity
8
1
62
256
6
ByLayer
370
13
48
1
60
0
100
AcDbSpline
70
4
71
3
72
8
73
4
40
0
40
0
40
0
40
0
40
1
40
1
40
1
40
1
41
1
10
40.7875266056559
20
12.1000891272147
30
0
41
1
10
40.7833899831722
20
12.0982424371946
30
0
41
1
10
40.7792539020509
20
12.0963938182968
30
0
41
1
10
40.7751183605699
20
12.0945432982523
30
0
0
SPLINE
5
39F
100
AcDbEntity
8
1
62
256
6
ByLayer
370
18
48
1
60
0
100
AcDbSpline
70
4
71
3
72
10
73
6
40
0
40
0
40
0
40
0
40
0.204285832849742
40
0.204285832849742
40
1
40
1
40
1
40
1
41
1
10
41.1241830882904
20
7.00061519341233
30
0
41
1
10
41.1173866561746
20
7.00073770140693
30
0
41
1
10
41.1105905120458
20
7.00087800258785
30
0
41
1
10
41.0773258973899
20
7.0016518243971
30
0
41
1
10
41.0508617664265
20
7.00253743594561
30
0
41
1
10
41.0244107956511
20
7.00369231027051
30
0
0
SPLINE
5
3A0
100
AcDbEntity
8
1
62
256
6
ByLayer
370
13
48
1
60
0
100
AcDbSpline
70
4
71
3
72
8
73
4
40
0
40
0
40
0
40
0
40
1
40
1
40
1
40
1
41
1
10
40.762711260058
20
12.0889851238535
30
0
41
1
10
40.7585755858061
20
12.0871302858562
30
0
41
1
10
40.7544404436165
20
12.0852735716801
30
0
41
1
10
40.750305831046
20
12.0834150101905
30
0
0
SPLINE
5
3A1
100
AcDbEntity
8
1
62
256
6
ByLayer
370
13
48
1
60
0
100
AcDbSpline
70
4
71
3
72
10
73
6
40
0
40
0
40
0
40
0
40
0.503010077090099
40
0.503010077090099
40
1
40
1
40
1
40
1
41
1
10
39.0368313022955
20
7.83683268026576
30
0
41
1
10
38.9313205707173
20
7.85468353241976
30
0
41
1
10
38.8269442161719
20
7.88064168656308
30
0
41
1
10
38.6232506035878
20
7.94031413654744
30
0
41
1
10
38.5235554234596
20
7.97422577751396
30
0
41
1
10
38.4237063417947
20
8.00755824363031
30
0
0
SPLINE
5
3A2
100
AcDbEntity
8
1
62
256
6
ByLayer
370
13
48
1
60
0
100
AcDbSpline
70
4
71
3
72
8
73
4
40
0
40
0
40
0
40
0
40
1
40
1
40
1
40
1
41
1
10
40.6803340464424
20
7.93390056205641
30
0
41
1
10
40.6880735986024
20
7.93189217977158
30
0
41
1
10
40.6958230347327
20
7.92993530347752
30
0
41
1
10
40.7035794882308
20
7.928027553379
30
0
0
SPLINE
5
3A3
100
AcDbEntity
8
1
62
256
6
ByLayer
370
13
48
1
60
0
100
AcDbSpline
70
4
71
3
72
8
73
4
40
0
40
0
40
0
40
0
40
1
40
1
40
1
40
1
41
1
10
40.7451045145122
20
11.8273014040057
30
0
41
1
10
40.7453073719164
20
11.8273058210739
30
0
41
1
10
40.7455102912712
20
11.8273094401034
30
0
41
1
10
40.7457132650767
20
11.8273122469085
30
0
0
SPLINE
5
3A4
100
AcDbEntity
8
1
62
256
6
ByLayer
370
13
48
1
60
0
100
AcDbSpline
70
4
71
3
72
10
73
6
40
0
40
0
40
0
40
0
40
0.99983399802267
40
0.99983399802267
40
1
40
1
40
1
40
1
41
1
10
38.3482567864937
20
12.1942219608154
30
0
41
1
10
38.2371314152635
20
12.1495583015449
30
0
41
1
10
38.1192744205474
20
12.109208797227
30
0
41
1
10
37.998839984794
20
12.1058777868918
30
0
41
1
10
37.9988199923894
20
12.1058772357495
30
0
41
1
10
37.9988
20
12.1058766840601
30
0
0
SPLINE
5
3A5
100
AcDbEntity
8
1
62
256
6
ByLayer
370
13
48
1
60
0
100
AcDbSpline
70
4
71
3
72
8
73
4
40
0
40
0
40
0
40
0
40
1
40
1
40
1
40
1
41
1
10
39.818120778088
20
12.2565687009656
30
0
41
1
10
39.8720317120774
20
12.2553161915036
30
0
41
1
10
39.9259346700752
20
12.2538166576419
30
0
41
1
10
39.9798199560951
20
12.252062532453
30
0
0
SPLINE
5
3A6
100
AcDbEntity
8
1
62
256
6
ByLayer
370
13
48
1
60
0
100
AcDbSpline
70
4
71
3
72
8
73
4
40
0
40
0
40
0
40
0
40
1
40
1
40
1
40
1
41
1
10
40.2852533085229
20
7.52728512033201
30
0
41
1
10
40.3035424676917
20
7.52445170216774
30
0
41
1
10
40.321632963943
20
7.51974592568001
30
0
41
1
10
40.3389710352723
20
7.51331476733043
30
0
0
SPLINE
5
3A7
100
AcDbEntity
8
1
62
256
6
ByLayer
370
13
48
1
60
0
100
AcDbSpline
70
4
71
3
72
8
73
4
40
0
40
0
40
0
40
0
40
1
40
1
40
1
40
1
41
1
10
39.6444212956711
20
11.8283278978975
30
0
41
1
10
39.6393246353072
20
11.8532981098456
30
0
41
1
10
39.6343545292539
20
11.8743541314973
30
0
41
1
10
39.629875163795
20
11.8899532905678
30
0
0
SPLINE
5
3A8
100
AcDbEntity
8
1
62
256
6
ByLayer
370
13
48
1
60
0
100
AcDbSpline
70
4
71
3
72
14
73
10
40
0
40
0
40
0
40
0
40
0.316230754235733
40
0.316230754235733
40
0.632807878942947
40
0.632807878942947
40
0.943049244289809
40
0.943049244289809
40
1
40
1
40
1
40
1
41
1
10
40.7869525715208
20
8.68851987301937
30
0
41
1
10
40.8074482723202
20
8.64922810320596
30
0
41
1
10
40.8230076231655
20
8.60324654060409
30
0
41
1
10
40.8418946161005
20
8.5054404890389
30
0
41
1
10
40.8454715230384
20
8.45217348155768
30
0
41
1
10
40.8372095594332
20
8.34765816974473
30
0
41
1
10
40.8254652859382
20
8.29455755793109
30
0
41
1
10
40.8000241024376
20
8.23783163195426
30
0
41
1
10
40.7956616272907
20
8.22903778230378
30
0
41
1
10
40.7909436014448
20
8.22045859055251
30
0
0
SPLINE
5
3A9
100
AcDbEntity
8
1
62
256
6
ByLayer
370
13
48
1
60
0
100
AcDbSpline
70
4
71
3
72
8
73
4
40
0
40
0
40
0
40
0
40
1
40
1
40
1
40
1
41
1
10
39.702037684077
20
7.91170747498242
30
0
41
1
10
39.7088061958699
20
7.9690164594513
30
0
41
1
10
39.7167725866135
20
8.02435860072973
30
0
41
1
10
39.7239482641532
20
8.06409894952273
30
0
0
SPLINE
5
3AA
100
AcDbEntity
8
1
62
256
6
ByLayer
370
13
48
1
60
0
100
AcDbSpline
70
4
71
3
72
8
73
4
40
0
40
0
40
0
40
0
40
1
40
1
40
1
40
1
41
1
10
39.9897241904585
20
12.4839352136026
30
0
41
1
10
39.9343267103992
20
12.4864986011343
30
0
41
1
10
39.8788985030963
20
12.4884830749961
30
0
41
1
10
39.8234581827827
20
12.4899046726127
30
0
0
SPLINE
5
3AB
100
AcDbEntity
8
1
62
256
6
ByLayer
370
13
48
1
60
0
100
AcDbSpline
70
4
71
3
72
8
73
4
40
0
40
0
40
0
40
0
40
1
40
1
40
1
40
1
41
1
10
40.63431099324
20
12.0534942756315
30
0
41
1
10
40.6267041942021
20
12.0512972810358
30
0
41
1
10
40.6191105039504
20
12.049045735798
30
0
41
1
10
40.611532349232
20
12.0467382427657
30
0
0
SPLINE
5
3AC
100
AcDbEntity
8
1
62
256
6
ByLayer
370
13
48
1
60
0
100
AcDbSpline
70
4
71
3
72
8
73
4
40
0
40
0
40
0
40
0
40
1
40
1
40
1
40
1
41
1
10
40.7582785615588
20
8.17369966832445
30
0
41
1
10
40.7576569761846
20
8.17358151025448
30
0
41
1
10
40.7570339340971
20
8.17347501182056
30
0
41
1
10
40.7564101156604
20
8.17337942636257
30
0
0
SPLINE
5
3AD
100
AcDbEntity
8
1
62
256
6
ByLayer
370
18
48
1
60
0
100
AcDbSpline
70
4
71
3
72
8
73
4
40
0
40
0
40
0
40
0
40
1
40
1
40
1
40
1
41
1
10
41.5983702589143
20
8.5
30
0
41
1
10
41.5975813698449
20
8.58000081437342
30
0
41
1
10
41.596798753504
20
8.65986124075715
30
0
41
1
10
41.5958865249753
20
8.73725549776495
30
0
0
SPLINE
5
3AE
100
AcDbEntity
8
1
62
256
6
ByLayer
370
13
48
1
60
0
100
AcDbSpline
70
4
71
3
72
8
73
4
40
0
40
0
40
0
40
0
40
1
40
1
40
1
40
1
41
1
10
39.7239482641532
20
11.9359010504773
30
0
41
1
10
39.7167725866135
20
11.9756413992703
30
0
41
1
10
39.7088061958699
20
12.0309835405487
30
0
41
1
10
39.702037684077
20
12.0882925250176
30
0
0
SPLINE
5
3AF
100
AcDbEntity
8
1
62
256
6
ByLayer
370
13
48
1
60
0
100
AcDbSpline
70
4
71
3
72
8
73
4
40
0
40
0
40
0
40
0
40
1
40
1
40
1
40
1
41
1
10
40.5277237938153
20
12.5611798161627
30
0
41
1
10
40.5207972614916
20
12.5582763090073
30
0
41
1
10
40.5138637815396
20
12.5553890293401
30
0
41
1
10
40.5069234667115
20
12.5525180350147
30
0
0
SPLINE
5
3B0
100
AcDbEntity
8
1
62
256
6
ByLayer
370
13
48
1
60
0
100
AcDbSpline
70
4
71
3
72
8
73
4
40
0
40
0
40
0
40
0
40
1
40
1
40
1
40
1
41
1
10
40.7999366675816
20
12.1056227437424
30
0
41
1
10
40.795799435178
20
12.1037801503542
30
0
41
1
10
40.7916627483197
20
12.1019356024668
30
0
41
1
10
40.7875266056559
20
12.1000891272146
30
0
0
SPLINE
5
3B1
100
AcDbEntity
8
1
62
256
6
ByLayer
370
13
48
1
60
0
100
AcDbSpline
70
4
71
3
72
8
73
4
40
0
40
0
40
0
40
0
40
1
40
1
40
1
40
1
41
1
10
40.94826913131
20
12.4940373341567
30
0
41
1
10
41.0174870952115
20
12.5203098008021
30
0
41
1
10
41.0880860767647
20
12.5437627561654
30
0
41
1
10
41.1596347348723
20
12.5622268374744
30
0
0
SPLINE
5
3B2
100
AcDbEntity
8
1
62
256
6
ByLayer
370
13
48
1
60
0
100
AcDbSpline
70
4
71
3
72
8
73
4
40
0
40
0
40
0
40
0
40
1
40
1
40
1
40
1
41
1
10
40.60498321608
20
11.806396510829
30
0
41
1
10
40.6098855245221
20
11.8078201825781
30
0
41
1
10
40.6148089160268
20
11.8091620505774
30
0
41
1
10
40.6197469220189
20
11.8104233848142
30
0
0
SPLINE
5
3B3
100
AcDbEntity
8
1
62
256
6
ByLayer
370
13
48
1
60
0
100
AcDbSpline
70
4
71
3
72
8
73
4
40
0
40
0
40
0
40
0
40
1
40
1
40
1
40
1
41
1
10
40.7457132650806
20
11.827312246935
30
0
41
1
10
40.7492688123718
20
11.8273614145035
30
0
41
1
10
40.7528574672541
20
11.8271649331895
30
0
41
1
10
40.756410115657
20
11.826620573638
30
0
0
SPLINE
5
3B4
100
AcDbEntity
8
1
62
256
6
ByLayer
370
13
48
1
60
0
100
AcDbSpline
70
4
71
3
72
8
73
4
40
0
40
0
40
0
40
0
40
1
40
1
40
1
40
1
41
1
10
39.6747025432334
20
12.4880064998108
30
0
41
1
10
39.6789330572889
20
12.405600684958
30
0
41
1
10
39.6833527986922
20
12.3187482351245
30
0
41
1
10
39.6865720844473
20
12.2547578459318
30
0
0
SPLINE
5
3B5
100
AcDbEntity
8
1
62
256
6
ByLayer
370
13
48
1
60
0
100
AcDbSpline
70
4
71
3
72
28
73
24
40
0
40
0
40
0
40
0
40
0.0285048011796435
40
0.0285048011796435
40
0.151898778447318
40
0.151898778447318
40
0.279699530330904
40
0.279699530330904
40
0.401871057836531
40
0.401871057836531
40
0.519220341004489
40
0.519220341004489
40
0.637363844465015
40
0.637363844465015
40
0.671870169364816
40
0.671870169364816
40
0.770694734486084
40
0.770694734486084
40
0.871988274207655
40
0.871988274207655
40
0.977006585692242
40
0.977006585692242
40
1
40
1
40
1
40
1
41
1
10
40.7869525715215
20
11.3114801269799
30
0
41
1
10
40.7836940351992
20
11.3052332725613
30
0
41
1
10
40.7800573426557
20
11.2991487438987
30
0
41
1
10
40.7591548107668
20
11.2682464236045
30
0
41
1
10
40.7355300056092
20
11.2465032156751
30
0
41
1
10
40.6802237342445
20
11.2130013833637
30
0
41
1
10
40.6473897215335
20
11.2010165781895
30
0
41
1
10
40.5803865558035
20
11.1891309886067
30
0
41
1
10
40.5454205369647
20
11.1885477534746
30
0
41
1
10
40.4777842092365
20
11.1977665252051
30
0
41
1
10
40.4442183487516
20
11.2072878778814
30
0
41
1
10
40.3811466523738
20
11.2353299934791
30
0
41
1
10
40.3506885884217
20
11.2543302668536
30
0
41
1
10
40.3168282855937
20
11.2834556124812
30
0
41
1
10
40.3094168994868
20
11.2904595486284
30
0
41
1
10
40.2826531739458
20
11.3182497620098
30
0
41
1
10
40.2659272257887
20
11.341298386545
30
0
41
1
10
40.2410670568049
20
11.3890558826816
30
0
41
1
10
40.232784636385
20
11.4144946957325
30
0
41
1
10
40.2259881355798
20
11.4644418114295
30
0
41
1
10
40.2277358942438
20
11.4896389048332
30
0
41
1
10
40.2359189091745
20
11.5175305468423
30
0
41
1
10
40.2376493270533
20
11.5225069772326
30
0
41
1
10
40.2396138737783
20
11.5273699581616
30
0
0
SPLINE
5
3B6
100
AcDbEntity
8
1
62
256
6
ByLayer
370
13
48
1
60
0
100
AcDbSpline
70
4
71
3
72
12
73
8
40
0
40
0
40
0
40
0
40
8.76100371325E-05
40
8.76100371325E-05
40
0.520053974571508
40
0.520053974571508
40
1
40
1
40
1
40
1
41
1
10
38.9988
20
12.3950298057024
30
0
41
1
10
38.9987802173251
20
12.3950268796258
30
0
41
1
10
38.9987604345995
20
12.3950239538633
30
0
41
1
10
38.8816707362143
20
12.3777025741109
30
0
41
1
10
38.766271109021
20
12.3469730111222
30
0
41
1
10
38.5506248750019
20
12.2752854628555
30
0
41
1
10
38.4493302440409
20
12.2348455413641
30
0
41
1
10
38.3482567864937
20
12.1942219608154
30
0
0
SPLINE
5
3B7
100
AcDbEntity
8
1
62
256
6
ByLayer
370
13
48
1
60
0
100
AcDbSpline
70
4
71
3
72
8
73
4
40
0
40
0
40
0
40
0
40
1
40
1
40
1
40
1
41
1
10
39.7309353515756
20
8.09888709678123
30
0
41
1
10
39.7376024261769
20
8.09857594217351
30
0
41
1
10
39.7442721861246
20
8.09831224016054
30
0
41
1
10
39.7509435364736
20
8.09809591671498
30
0
0
SPLINE
5
3B8
100
AcDbEntity
8
1
62
256
6
ByLayer
370
13
48
1
60
0
100
AcDbSpline
70
4
71
3
72
8
73
4
40
0
40
0
40
0
40
0
40
1
40
1
40
1
40
1
41
1
10
40.750305831046
20
7.91658498980956
30
0
41
1
10
40.7544404436165
20
7.91472642831991
30
0
41
1
10
40.7585755858061
20
7.91286971414382
30
0
41
1
10
40.762711260058
20
7.91101487614651
30
0
0
SPLINE
5
3B9
100
AcDbEntity
8
1
62
256
6
ByLayer
370
18
48
1
60
0
100
AcDbSpline
70
4
71
3
72
12
73
8
40
0
40
0
40
0
40
0
40
0.473188120093464
40
0.473188120093464
40
0.762428297819206
40
0.762428297819206
40
1
40
1
40
1
40
1
41
1
10
38.9988
20
12.9078333316019
30
0
41
1
10
38.8488193483707
20
12.9012850349337
30
0
41
1
10
38.6988394035795
20
12.8947209044711
30
0
41
1
10
38.4571831346807
20
12.884142340404
30
0
41
1
10
38.3655067271491
20
12.8801287150861
30
0
41
1
10
38.1985303057052
20
12.872823269384
30
0
41
1
10
38.1232303315441
20
12.869530574082
30
0
41
1
10
38.0479302033296
20
12.8662413187843
30
0
0
SPLINE
5
3BA
100
AcDbEntity
8
1
62
256
6
ByLayer
370
13
48
1
60
0
100
AcDbSpline
70
4
71
3
72
8
73
4
40
0
40
0
40
0
40
0
40
1
40
1
40
1
40
1
41
1
10
40.6967680340497
20
8.17604010589071
30
0
41
1
10
40.6914953679315
20
8.17659327229651
30
0
41
1
10
40.6862147210658
20
8.17721456280663
30
0
41
1
10
40.6809324141415
20
8.17790942898969
30
0
0
SPLINE
5
3BB
100
AcDbEntity
8
1
62
256
6
ByLayer
370
13
48
1
60
0
100
AcDbSpline
70
4
71
3
72
12
73
8
40
0
40
0
40
0
40
0
40
0.45724605974522
40
0.45724605974522
40
0.798536601170008
40
0.798536601170008
40
1
40
1
40
1
40
1
41
1
10
35.6867774155718
20
10.1515196151296
30
0
41
1
10
35.7045661449508
20
10.1249125925009
30
0
41
1
10
35.7203043535411
20
10.0890036959004
30
0
41
1
10
35.7395592089788
20
10.0122638332767
30
0
41
1
10
35.7452803692961
20
9.97417337381816
30
0
41
1
10
35.7484166024348
20
9.90830060744463
30
0
41
1
10
35.74828076225
20
9.88234213977285
30
0
41
1
10
35.7467073705877
20
9.85573253932409
30
0
0
SPLINE
5
3BC
100
AcDbEntity
8
1
62
256
6
ByLayer
370
13
48
1
60
0
100
AcDbSpline
70
4
71
3
72
8
73
4
40
0
40
0
40
0
40
0
40
1
40
1
40
1
40
1
41
1
10
37.9759717426968
20
11.5823347180327
30
0
41
1
10
37.9718140683332
20
11.5813835130696
30
0
41
1
10
37.9676575812662
20
11.5804334346325
30
0
41
1
10
37.9635023147842
20
11.5794845066912
30
0
0
SPLINE
5
3BD
100
AcDbEntity
8
1
62
256
6
ByLayer
370
13
48
1
60
0
100
AcDbSpline
70
4
71
3
72
8
73
4
40
0
40
0
40
0
40
0
40
1
40
1
40
1
40
1
41
1
10
40.7751183605698
20
12.0945432982525
30
0
41
1
10
40.7709821241731
20
12.0926924669759
30
0
41
1
10
40.7668464246978
20
12.0908397327392
30
0
41
1
10
40.7627112600577
20
12.088985123854
30
0
0
SPLINE
5
3BE
100
AcDbEntity
8
1
62
256
6
ByLayer
370
13
48
1
60
0
100
AcDbSpline
70
4
71
3
72
8
73
4
40
0
40
0
40
0
40
0
40
1
40
1
40
1
40
1
41
1
10
39.7509435364736
20
8.09809591671495
30
0
41
1
10
39.7705331200064
20
8.09746068402538
30
0
41
1
10
39.7901424452924
20
8.09723372605498
30
0
41
1
10
39.8097443135566
20
8.09741254653301
30
0
0
SPLINE
5
3BF
100
AcDbEntity
8
1
62
256
6
ByLayer
370
13
48
1
60
0
100
AcDbSpline
70
4
71
3
72
8
73
4
40
0
40
0
40
0
40
0
40
1
40
1
40
1
40
1
41
1
10
40.5448260607215
20
7.66947646553749
30
0
41
1
10
40.5375652355361
20
7.67244878344965
30
0
41
1
10
40.5303010589712
20
7.67541411577474
30
0
41
1
10
40.5230336007821
20
7.6783724618839
30
0
0
SPLINE
5
3C0
100
AcDbEntity
8
1
62
256
6
ByLayer
370
13
48
1
60
0
100
AcDbSpline
70
4
71
3
72
8
73
4
40
0
40
0
40
0
40
0
40
1
40
1
40
1
40
1
41
1
10
40.6347219030158
20
8.18600443938641
30
0
41
1
10
40.6297178672315
20
8.18711529738997
30
0
41
1
10
40.6247240337254
20
8.18830529202296
30
0
41
1
10
40.6197469220189
20
8.18957661518576
30
0
0
SPLINE
5
3C1
100
AcDbEntity
8
1
62
256
6
ByLayer
370
13
48
1
60
0
100
AcDbSpline
70
4
71
3
72
8
73
4
40
0
40
0
40
0
40
0
40
1
40
1
40
1
40
1
41
1
10
40.8056168102954
20
8.14638210910323
30
0
41
1
10
40.7892328415089
20
8.1555231644173
30
0
41
1
10
40.7733142858404
20
8.16474311746725
30
0
41
1
10
40.7582785615561
20
8.1736996683199
30
0
0
SPLINE
5
3C2
100
AcDbEntity
8
1
62
256
6
ByLayer
370
13
48
1
60
0
100
AcDbSpline
70
4
71
3
72
8
73
4
40
0
40
0
40
0
40
0
40
1
40
1
40
1
40
1
41
1
10
40.3601181945758
20
12.4945835503309
30
0
41
1
10
40.3530752074691
20
12.491934874014
30
0
41
1
10
40.3460260961064
20
12.489302145043
30
0
41
1
10
40.3389710352686
20
12.4866852326682
30
0
0
SPLINE
5
3C3
100
AcDbEntity
8
1
62
256
6
ByLayer
370
13
48
1
60
0
100
AcDbSpline
70
4
71
3
72
8
73
4
40
0
40
0
40
0
40
0
40
1
40
1
40
1
40
1
41
1
10
40.6692998734366
20
12.3823031662962
30
0
41
1
10
40.6734650888763
20
12.3840635437105
30
0
41
1
10
40.6776291235697
20
12.3858262039533
30
0
41
1
10
40.6817919691149
20
12.3875911353989
30
0
0
SPLINE
5
3C4
100
AcDbEntity
8
1
62
256
6
ByLayer
370
13
48
1
60
0
100
AcDbSpline
70
4
71
3
72
8
73
4
40
0
40
0
40
0
40
0
40
1
40
1
40
1
40
1
41
1
10
40.4575307350278
20
7.70481295561063
30
0
41
1
10
40.4502417666613
20
7.70773050916341
30
0
41
1
10
40.4429496661436
20
7.7106411592969
30
0
41
1
10
40.435654516378
20
7.71354494182864
30
0
0
SPLINE
5
3C5
100
AcDbEntity
8
1
62
256
6
ByLayer
370
13
48
1
60
0
100
AcDbSpline
70
4
71
3
72
8
73
4
40
0
40
0
40
0
40
0
40
1
40
1
40
1
40
1
41
1
10
37.9916470379229
20
11.5859328865369
30
0
41
1
10
37.9864210092493
20
11.5847293324135
30
0
41
1
10
37.9811958986584
20
11.5835299157909
30
0
41
1
10
37.9759717426968
20
11.5823347180327
30
0
0
SPLINE
5
3C6
100
AcDbEntity
8
1
62
256
6
ByLayer
370
18
48
1
60
0
100
AcDbSpline
70
4
71
3
72
10
73
6
40
0
40
0
40
0
40
0
40
0.147172701767205
40
0.147172701767205
40
1
40
1
40
1
40
1
41
1
10
39.7239482641528
20
11.9359010504794
30
0
41
1
10
39.7243106385014
20
11.9338990631817
30
0
41
1
10
39.7246710475861
20
11.9319360194255
30
0
41
1
10
39.7270848423622
20
11.9189786077015
30
0
41
1
10
39.7290766722728
20
11.9092254573507
30
0
41
1
10
39.7309403749873
20
11.9010869876377
30
0
0
SPLINE
5
3C7
100
AcDbEntity
8
1
62
256
6
ByLayer
370
13
48
1
60
0
100
AcDbSpline
70
4
71
3
72
14
73
10
40
0
40
0
40
0
40
0
40
0.0145259528164165
40
0.0145259528164165
40
0.325817690670989
40
0.325817690670989
40
0.675804538922689
40
0.675804538922689
40
1
40
1
40
1
40
1
41
1
10
39.2949878425085
20
8.25587635457185
30
0
41
1
10
39.2962369049592
20
8.25472212349271
30
0
41
1
10
39.2974737185566
20
8.25356070280245
30
0
41
1
10
39.3257577622837
20
8.22780962667068
30
0
41
1
10
39.3576368873329
20
8.20594365054558
30
0
41
1
10
39.4283875729734
20
8.16665015232533
30
0
41
1
10
39.4689333313129
20
8.15026638306193
30
0
41
1
10
39.5493974537135
20
8.12581840554282
30
0
41
1
10
39.5893881272561
20
8.11683307220622
30
0
41
1
10
39.6298712343537
20
8.11004736807027
30
0
0
SPLINE
5
3C8
100
AcDbEntity
8
1
62
256
6
ByLayer
370
13
48
1
60
0
100
AcDbSpline
70
4
71
3
72
8
73
4
40
0
40
0
40
0
40
0
40
1
40
1
40
1
40
1
41
1
10
39.7445249471384
20
12.2567617560955
30
0
41
1
10
39.7690534660004
20
12.257207696405
30
0
41
1
10
39.7935963383194
20
12.2571433301456
30
0
41
1
10
39.818120778088
20
12.2565687009656
30
0
0
SPLINE
5
3C9
100
AcDbEntity
8
1
62
256
6
ByLayer
370
13
48
1
60
0
100
AcDbSpline
70
4
71
3
72
8
73
4
40
0
40
0
40
0
40
0
40
1
40
1
40
1
40
1
41
1
10
39.7509435364736
20
11.9019040832851
30
0
41
1
10
39.7442721861246
20
11.9016877598395
30
0
41
1
10
39.7376024261769
20
11.9014240578265
30
0
41
1
10
39.7309353515756
20
11.9011129032188
30
0
0
SPLINE
5
3CA
100
AcDbEntity
8
1
62
256
6
ByLayer
370
13
48
1
60
0
100
AcDbSpline
70
4
71
3
72
28
73
24
40
0
40
0
40
0
40
0
40
0.0229934143077599
40
0.0229934143077599
40
0.128011725792355
40
0.128011725792355
40
0.229305265513933
40
0.229305265513933
40
0.328129830635207
40
0.328129830635207
40
0.362636155535012
40
0.362636155535012
40
0.480779658995547
40
0.480779658995547
40
0.598128942163509
40
0.598128942163509
40
0.720300469669141
40
0.720300469669141
40
0.84810122155273
40
0.84810122155273
40
0.971495198820405
40
0.971495198820405
40
1
40
1
40
1
40
1
41
1
10
40.2396138737783
20
8.47263004183836
30
0
41
1
10
40.2376493270533
20
8.47749302276748
30
0
41
1
10
40.2359189091745
20
8.48246945315773
30
0
41
1
10
40.2277358942438
20
8.51036109516687
30
0
41
1
10
40.2259881355798
20
8.53555818857055
30
0
41
1
10
40.232784636385
20
8.58550530426754
30
0
41
1
10
40.2410670568049
20
8.61094411731835
30
0
41
1
10
40.2659272257887
20
8.65870161345501
30
0
41
1
10
40.2826531739458
20
8.68175023799017
30
0
41
1
10
40.3094168994868
20
8.70954045137159
30
0
41
1
10
40.3168282855937
20
8.71654438751875
30
0
41
1
10
40.3506885884217
20
8.74566973314646
30
0
41
1
10
40.3811466523738
20
8.76467000652093
30
0
41
1
10
40.4442183487516
20
8.79271212211864
30
0
41
1
10
40.4777842092365
20
8.80223347479497
30
0
41
1
10
40.5454205369647
20
8.81145224652539
30
0
41
1
10
40.5803865558035
20
8.81086901139329
30
0
41
1
10
40.6473897215335
20
8.7989834218105
30
0
41
1
10
40.6802237342445
20
8.78699861663628
30
0
41
1
10
40.7355300056092
20
8.75349678432488
30
0
41
1
10
40.7591548107668
20
8.73175357639551
30
0
41
1
10
40.7800573426557
20
8.70085125610129
30
0
41
1
10
40.7836940351992
20
8.69476672743875
30
0
41
1
10
40.7869525715215
20
8.68851987302008
30
0
0
SPLINE
5
3CB
100
AcDbEntity
8
1
62
256
6
ByLayer
370
13
48
1
60
0
100
AcDbSpline
70
4
71
3
72
8
73
4
40
0
40
0
40
0
40
0
40
1
40
1
40
1
40
1
41
1
10
36.404825607507
20
11.8466714627982
30
0
41
1
10
36.4046608834616
20
11.855283927057
30
0
41
1
10
36.4046205374692
20
11.863900592171
30
0
41
1
10
36.4047035976733
20
11.8725154644932
30
0
0
SPLINE
5
3CC
100
AcDbEntity
8
1
62
256
6
ByLayer
370
13
48
1
60
0
100
AcDbSpline
70
4
71
3
72
10
73
6
40
0
40
0
40
0
40
0
40
0.445562852046013
40
0.445562852046013
40
1
40
1
40
1
40
1
41
1
10
40.0669116696245
20
11.9026081775307
30
0
41
1
10
40.0525826107304
20
11.9026110580509
30
0
41
1
10
40.0382526045083
20
11.9025961858974
30
0
41
1
10
40.0060910939293
20
11.9025410618897
30
0
41
1
10
39.9882592215656
20
11.9024954730204
30
0
41
1
10
39.9704279354541
20
11.9024516852497
30
0
0
SPLINE
5
3CD
100
AcDbEntity
8
1
62
256
6
ByLayer
370
13
48
1
60
0
100
AcDbSpline
70
4
71
3
72
10
73
6
40
0
40
0
40
0
40
0
40
0.500444942515579
40
0.500444942515579
40
1
40
1
40
1
40
1
41
1
10
40.0669116696244
20
8.09739182244749
30
0
41
1
10
40.0776410897352
20
8.09739397933629
30
0
41
1
10
40.0883701406675
20
8.09740607719937
30
0
41
1
10
40.1098072515821
20
8.09745636942466
30
0
41
1
10
40.1205155042592
20
8.0974945189931
30
0
41
1
10
40.131222271337
20
8.09754857616139
30
0
0
SPLINE
5
3CE
100
AcDbEntity
8
1
62
256
6
ByLayer
370
13
48
1
60
0
100
AcDbSpline
70
4
71
3
72
12
73
8
40
0
40
0
40
0
40
0
40
0.363459108279227
40
0.363459108279227
40
0.708127036348682
40
0.708127036348682
40
1
40
1
40
1
40
1
41
1
10
35.7815500875272
20
10.653761959177
30
0
41
1
10
35.7802089921778
20
10.6062289644555
30
0
41
1
10
35.7743778485381
20
10.5610183432129
30
0
41
1
10
35.7568840972458
20
10.4843077657097
30
0
41
1
10
35.7453961203319
20
10.4512367423931
30
0
41
1
10
35.7212963448688
20
10.4002338402603
30
0
41
1
10
35.7089669172397
20
10.3803856356293
30
0
41
1
10
35.6960686417965
20
10.3643236822377
30
0
0
SPLINE
5
3CF
100
AcDbEntity
8
1
62
256
6
ByLayer
370
13
48
1
60
0
100
AcDbSpline
70
4
71
3
72
8
73
4
40
0
40
0
40
0
40
0
40
1
40
1
40
1
40
1
41
1
10
39.6747023479161
20
7.51198979149234
30
0
41
1
10
39.6789469676244
20
7.59439572348353
30
0
41
1
10
39.6833766370963
20
7.6812485850609
30
0
41
1
10
39.6865709780515
20
7.7452405237612
30
0
0
SPLINE
5
3D0
100
AcDbEntity
8
1
62
256
6
ByLayer
370
13
48
1
60
0
100
AcDbSpline
70
4
71
3
72
8
73
4
40
0
40
0
40
0
40
0
40
1
40
1
40
1
40
1
41
1
10
39.7585714746036
20
8.16828034616526
30
0
41
1
10
39.7767978148841
20
8.16849831251324
30
0
41
1
10
39.7950239434943
20
8.16906900584289
30
0
41
1
10
39.8132285509218
20
8.1699872919053
30
0
0
SPLINE
5
3D1
100
AcDbEntity
8
1
62
256
6
ByLayer
370
13
48
1
60
0
100
AcDbSpline
70
4
71
3
72
8
73
4
40
0
40
0
40
0
40
0
40
1
40
1
40
1
40
1
41
1
10
41.5958930975732
20
8.73723849825404
30
0
41
1
10
41.5700490424292
20
8.80422442222829
30
0
41
1
10
41.546112565751
20
8.86922423657239
30
0
41
1
10
41.5245934118171
20
8.93085384335382
30
0
0
SPLINE
5
3D2
100
AcDbEntity
8
1
62
256
6
ByLayer
370
13
48
1
60
0
100
AcDbSpline
70
4
71
3
72
8
73
4
40
0
40
0
40
0
40
0
40
1
40
1
40
1
40
1
41
1
10
40.5889075129052
20
7.96033367127228
30
0
41
1
10
40.5964327023415
20
7.95791983146381
30
0
41
1
10
40.6039750867673
20
7.95556288743174
30
0
41
1
10
40.611532349232
20
7.95326175723429
30
0
0
SPLINE
5
3D3
100
AcDbEntity
8
1
62
256
6
ByLayer
370
13
48
1
60
0
100
AcDbSpline
70
4
71
3
72
8
73
4
40
0
40
0
40
0
40
0
40
1
40
1
40
1
40
1
41
1
10
40.1371340901905
20
11.9024139835123
30
0
41
1
10
40.1351635087407
20
11.9024275981342
30
0
41
1
10
40.1331929015704
20
11.9024400755462
30
0
41
1
10
40.131222271337
20
11.9024514238386
30
0
0
SPLINE
5
3D4
100
AcDbEntity
8
1
62
256
6
ByLayer
370
13
48
1
60
0
100
AcDbSpline
70
4
71
3
72
26
73
22
40
0
40
0
40
0
40
0
40
0.0121737243132094
40
0.0121737243132094
40
0.0206756295318189
40
0.0206756295318189
40
0.0329249259548992
40
0.0329249259548992
40
0.0524979046361247
40
0.0524979046361247
40
0.0838075523989026
40
0.0838075523989026
40
0.134056899530864
40
0.134056899530864
40
0.215466821412678
40
0.215466821412678
40
0.351029108198932
40
0.351029108198932
40
0.507602589974009
40
0.507602589974009
40
1
40
1
40
1
40
1
41
1
10
36.8778160745717
20
11.1745392077167
30
0
41
1
10
36.8788176688895
20
11.1754035242508
30
0
41
1
10
36.8798208320786
20
11.1762680182359
30
0
41
1
10
36.8815380691821
20
11.1777438699736
30
0
41
1
10
36.8822510302484
20
11.1783556339561
30
0
41
1
10
36.8839934823566
20
11.179848378208
30
0
41
1
10
36.8850239929943
20
11.1807291817879
30
0
41
1
10
36.8877060695185
20
11.1830163677276
30
0
41
1
10
36.8893606478691
20
11.1844221841606
30
0
41
1
10
36.8936741183559
20
11.1880737832378
30
0
41
1
10
36.8963405801957
20
11.1903179907002
30
0
41
1
10
36.9033159554969
20
11.1961548028447
30
0
41
1
10
36.9076438312865
20
11.1997428189241
30
0
41
1
10
36.9190524343111
20
11.2091141770763
30
0
41
1
10
36.9261808963616
20
11.2148831575136
30
0
41
1
10
36.945331386281
20
11.2301534693353
30
0
41
1
10
36.9574779430269
20
11.2396036836826
30
0
41
1
10
36.9838941261854
20
11.2596569785976
30
0
41
1
10
36.9982365904184
20
11.2702387320609
30
0
41
1
10
37.0574081475737
20
11.3126541164652
30
0
41
1
10
37.1037876501874
20
11.342924625302
30
0
41
1
10
37.1476329740574
20
11.3686194084058
30
0
0
SPLINE
5
3D5
100
AcDbEntity
8
1
62
256
6
ByLayer
370
13
48
1
60
0
100
AcDbSpline
70
4
71
3
72
10
73
6
40
0
40
0
40
0
40
0
40
0.0761117852939035
40
0.0761117852939035
40
1
40
1
40
1
40
1
41
1
10
40.9053084491241
20
11.9051876743815
30
0
41
1
10
40.9045979286698
20
11.9061297406006
30
0
41
1
10
40.9038866931816
20
11.9070720022406
30
0
41
1
10
40.8945243604834
20
11.9194462364522
30
0
41
1
10
40.8856872774647
20
11.9308699051213
30
0
41
1
10
40.8767887348242
20
11.9421219351752
30
0
0
SPLINE
5
3D6
100
AcDbEntity
8
1
62
256
6
ByLayer
370
13
48
1
60
0
100
AcDbSpline
70
4
71
3
72
8
73
4
40
0
40
0
40
0
40
0
40
1
40
1
40
1
40
1
41
1
10
40.0706661171708
20
11.8143364733431
30
0
41
1
10
40.0392608506527
20
11.8169117730924
30
0
41
1
10
40.0078112369568
20
11.8191830857609
30
0
41
1
10
39.976348491921
20
11.8212260663499
30
0
0
SPLINE
5
3D7
100
AcDbEntity
8
1
62
256
6
ByLayer
370
13
48
1
60
0
100
AcDbSpline
70
4
71
3
72
10
73
6
40
0
40
0
40
0
40
0
40
0.554437147953987
40
0.554437147953987
40
1
40
1
40
1
40
1
41
1
10
39.9704279354541
20
8.09754831475033
30
0
41
1
10
39.9882592215656
20
8.09750452697961
30
0
41
1
10
40.0060910939293
20
8.09745893811038
30
0
41
1
10
40.0382526045083
20
8.09740381410262
30
0
41
1
10
40.0525826107304
20
8.09738894194913
30
0
41
1
10
40.0669116696245
20
8.09739182246935
30
0
0
SPLINE
5
3D8
100
AcDbEntity
8
1
62
256
6
ByLayer
370
13
48
1
60
0
100
AcDbSpline
70
4
71
3
72
8
73
4
40
0
40
0
40
0
40
0
40
1
40
1
40
1
40
1
41
1
10
35.696068641797
20
10.3643236822343
30
0
41
1
10
35.672348312729
20
10.3347852511787
30
0
41
1
10
35.6478149987708
20
10.3078014901141
30
0
41
1
10
35.6227821386885
20
10.2833105415316
30
0
0
SPLINE
5
3D9
100
AcDbEntity
8
1
62
256
6
ByLayer
370
13
48
1
60
0
100
AcDbSpline
70
4
71
3
72
8
73
4
40
0
40
0
40
0
40
0
40
1
40
1
40
1
40
1
41
1
10
38.6117028909294
20
8.44813959461408
30
0
41
1
10
38.5401599848384
20
8.49640471817332
30
0
41
1
10
38.47179712768
20
8.54688233324495
30
0
41
1
10
38.407629342978
20
8.59916224010854
30
0
0
SPLINE
5
3DA
100
AcDbEntity
8
1
62
256
6
ByLayer
370
13
48
1
60
0
100
AcDbSpline
70
4
71
3
72
8
73
4
40
0
40
0
40
0
40
0
40
1
40
1
40
1
40
1
41
1
10
40.1414803174655
20
7.75398538324026
30
0
41
1
10
40.11993064247
20
7.75307178305121
30
0
41
1
10
40.0983770884471
20
7.75220219977211
30
0
41
1
10
40.0768203692055
20
7.75137515053765
30
0
0
SPLINE
5
3DB
100
AcDbEntity
8
1
62
256
6
ByLayer
370
13
48
1
60
0
100
AcDbSpline
70
4
71
3
72
8
73
4
40
0
40
0
40
0
40
0
40
1
40
1
40
1
40
1
41
1
10
40.7479544982116
20
12.0823575865096
30
0
41
1
10
40.7494100918294
20
12.0812292340115
30
0
41
1
10
40.7508662573624
20
12.0800783171441
30
0
41
1
10
40.7523224694942
20
12.0789052800195
30
0
0
SPLINE
5
3DC
100
AcDbEntity
8
1
62
256
6
ByLayer
370
13
48
1
60
0
100
AcDbSpline
70
4
71
3
72
8
73
4
40
0
40
0
40
0
40
0
40
1
40
1
40
1
40
1
41
1
10
40.5230336007821
20
7.6783724618839
30
0
41
1
10
40.5157658419914
20
7.68133093012176
30
0
41
1
10
40.5084947817258
20
7.68428242037152
30
0
41
1
10
40.5012204932652
20
7.687226941266
30
0
0
SPLINE
5
3DD
100
AcDbEntity
8
1
62
256
6
ByLayer
370
13
48
1
60
0
100
AcDbSpline
70
4
71
3
72
8
73
4
40
0
40
0
40
0
40
0
40
1
40
1
40
1
40
1
41
1
10
39.818120778088
20
7.74343129903443
30
0
41
1
10
39.7935963383194
20
7.74285666985438
30
0
41
1
10
39.7690534660004
20
7.74279230359508
30
0
41
1
10
39.7445249471384
20
7.74323824390456
30
0
0
SPLINE
5
3DE
100
AcDbEntity
8
1
62
256
6
ByLayer
370
13
48
1
60
0
100
AcDbSpline
70
4
71
3
72
8
73
4
40
0
40
0
40
0
40
0
40
1
40
1
40
1
40
1
41
1
10
40.6100743152022
20
12.3574597905064
30
0
41
1
10
40.6173134912905
20
12.3604734849802
30
0
41
1
10
40.6245492089483
20
12.3634941406723
30
0
41
1
10
40.6317814138828
20
12.3665217198084
30
0
0
SPLINE
5
3DF
100
AcDbEntity
8
1
62
256
6
ByLayer
370
13
48
1
60
0
100
AcDbSpline
70
4
71
3
72
10
73
6
40
0
40
0
40
0
40
0
40
0.43489492397148
40
0.43489492397148
40
1
40
1
40
1
40
1
41
1
10
38.407629342978
20
8.59916224010854
30
0
41
1
10
38.3658340951309
20
8.63321169691343
30
0
41
1
10
38.3191955048542
20
8.66383579038143
30
0
41
1
10
38.2049345186554
20
8.72346380542359
30
0
41
1
10
38.1339844997325
20
8.74987288371798
30
0
41
1
10
38.060783131599
20
8.76730584170377
30
0
0
SPLINE
5
3E0
100
AcDbEntity
8
1
62
256
6
ByLayer
370
13
48
1
60
0
100
AcDbSpline
70
4
71
3
72
8
73
4
40
0
40
0
40
0
40
0
40
1
40
1
40
1
40
1
41
1
10
41.2866589937234
20
7.41214672111161
30
0
41
1
10
41.2439537056346
20
7.41789139438569
30
0
41
1
10
41.2015360254064
20
7.42695997810162
30
0
41
1
10
41.1596347348722
20
7.43777316252525
30
0
0
SPLINE
5
3E1
100
AcDbEntity
8
1
62
256
6
ByLayer
370
13
48
1
60
0
100
AcDbSpline
70
4
71
3
72
10
73
6
40
0
40
0
40
0
40
0
40
0.999897275492532
40
0.999897275492532
40
1
40
1
40
1
40
1
41
1
10
40.9791315895941
20
11.250657448495
30
0
41
1
10
41.1618572606719
20
11.1927946669066
30
0
41
1
10
41.3427707952222
20
11.1295689609832
30
0
41
1
10
41.5244944163086
20
11.0691797709701
30
0
41
1
10
41.5245130837922
20
11.0691735675774
30
0
41
1
10
41.5245317512729
20
11.0691673641624
30
0
0
SPLINE
5
3E2
100
AcDbEntity
8
1
62
256
6
ByLayer
370
13
48
1
60
0
100
AcDbSpline
70
4
71
3
72
8
73
4
40
0
40
0
40
0
40
0
40
1
40
1
40
1
40
1
41
1
10
40.6568009615612
20
12.3770290046368
30
0
41
1
10
40.6609684439719
20
12.3787847705422
30
0
41
1
10
40.6651347508874
20
12.3805428279748
30
0
41
1
10
40.6692998734366
20
12.3823031662962
30
0
0
SPLINE
5
3E3
100
AcDbEntity
8
1
62
256
6
ByLayer
370
13
48
1
60
0
100
AcDbSpline
70
4
71
3
72
8
73
4
40
0
40
0
40
0
40
0
40
1
40
1
40
1
40
1
41
1
10
40.6499104023501
20
8.18287714564318
30
0
41
1
10
40.6448396568156
20
8.1838413615003
30
0
41
1
10
40.6397746523795
20
8.18488276733765
30
0
41
1
10
40.6347219030158
20
8.18600443938641
30
0
0
SPLINE
5
3E4
100
AcDbEntity
8
1
62
256
6
ByLayer
370
18
48
1
60
0
100
AcDbSpline
70
4
71
3
72
8
73
4
40
0
40
0
40
0
40
0
40
1
40
1
40
1
40
1
41
1
10
41.580090626515
20
10.5458319906332
30
0
41
1
10
41.5826307160389
20
10.7184450094346
30
0
41
1
10
41.5864787570157
20
10.8874238920289
30
0
41
1
10
41.5919426148848
20
11.0457455748808
30
0
0
LINE
5
70
100
AcDbEntity
8
1
62
256
6
ByLayer
370
18
48
1
60
0
100
AcDbLine
10
22.424444
20
7.35
30
0
11
34.806896
21
7.35
31
0
39
0
210
0
220
0
230
1
0
LINE
5
72
100
AcDbEntity
8
1
62
256
6
ByLayer
370
18
48
1
60
0
100
AcDbLine
10
9.5988
20
7.35
30
0
11
22.010269
21
7.35
31
0
39
0
210
0
220
0
230
1
0
LINE
5
73
100
AcDbEntity
8
1
62
256
6
ByLayer
370
18
48
1
60
0
100
AcDbLine
10
22.54271
20
12.854957
30
0
11
2.690424
21
12.854957
31
0
39
0
210
0
220
0
230
1
0
LINE
5
74
100
AcDbEntity
8
1
62
256
6
ByLayer
370
18
48
1
60
0
100
AcDbLine
10
21.994834
20
7.35
30
0
11
21.994834
21
7.391355
31
0
39
0
210
0
220
0
230
1
0
LINE
5
75
100
AcDbEntity
8
80
62
256
6
ByLayer
370
18
48
1
60
0
100
AcDbLine
10
0
20
0
30
0
11
-5
21
0
31
0
39
0
210
0
220
0
230
1
0
LINE
5
76
100
AcDbEntity
8
81
62
256
6
ByLayer
370
18
48
1
60
0
100
AcDbLine
10
41.5988
20
13
30
0
11
46.5988
21
13
31
0
39
0
210
0
220
0
230
1
0
LINE
5
77
100
AcDbEntity
8
SK1
62
256
6
ByLayer
370
18
48
1
60
0
100
AcDbLine
10
-81
20
12.425
30
0
11
-1.227723
21
12.425
31
0
39
0
210
0
220
0
230
1
0
LINE
5
79
100
AcDbEntity
8
SK1
62
256
6
ByLayer
370
18
48
1
60
0
100
AcDbLine
10
-0.1
20
12.600391
30
0
11
-0.1
21
12.889993
31
0
39
0
210
0
220
0
230
1
0
LINE
5
7A
100
AcDbEntity
8
SK1
62
256
6
ByLayer
370
18
48
1
60
0
100
AcDbLine
10
-81
20
-12.5
30
0
11
-84
21
-9.5
31
0
39
0
210
0
220
0
230
1
0
LINE
5
7B
100
AcDbEntity
8
SK1
62
256
6
ByLayer
370
18
48
1
60
0
100
AcDbLine
10
-0.1
20
-11.5
30
0
11
-0.1
21
12.600391
31
0
39
0
210
0
220
0
230
1
0
LINE
5
7C
100
AcDbEntity
8
SK1
62
256
6
ByLayer
370
18
48
1
60
0
100
AcDbLine
10
-81
20
12.425
30
0
11
-84
21
9.425
31
0
39
0
210
0
220
0
230
1
0
LINE
5
7D
100
AcDbEntity
8
SK1
62
256
6
ByLayer
370
13
48
1
60
0
100
AcDbLine
10
-1.227723
20
12.425
30
0
11
-1.227723
21
-11.963802
31
0
39
0
210
0
220
0
230
1
0
LINE
5
7E
100
AcDbEntity
8
SK1
62
256
6
ByLayer
370
18
48
1
60
0
100
AcDbLine
10
-81
20
-12.5
30
0
11
-1.58444
21
-12.5
31
0
39
0
210
0
220
0
230
1
0
LINE
5
7F
100
AcDbEntity
8
SK1
62
256
6
ByLayer
370
18
48
1
60
0
100
AcDbLine
10
-0.1012
20
-11.5
30
0
11
-0.1
21
-11.5
31
0
39
0
210
0
220
0
230
1
0
LINE
5
80
100
AcDbEntity
8
SK1
62
256
6
ByLayer
370
18
48
1
60
0
100
AcDbLine
10
-84
20
9.425
30
0
11
-84
21
-9.5
31
0
39
0
210
0
220
0
230
1
0
LINE
5
81
100
AcDbEntity
8
1
62
256
6
ByLayer
370
18
48
1
60
0
100
AcDbLine
10
32.830409
20
12.669828
30
0
11
32.821647
21
12.748412
31
0
39
0
210
0
220
0
230
1
0
LINE
5
82
100
AcDbEntity
8
1
62
256
6
ByLayer
370
18
48
1
60
0
100
AcDbLine
10
2.824399
20
-8.5
30
0
11
2.020551
21
-11.5
31
0
39
0
210
0
220
0
230
1
0
LINE
5
83
100
AcDbEntity
8
1
62
256
6
ByLayer
370
18
48
1
60
0
100
AcDbLine
10
-0.1
20
12.600391
30
0
11
-0.1
21
12.889993
31
0
39
0
210
0
220
0
230
1
0
LINE
5
84
100
AcDbEntity
8
1
62
256
6
ByLayer
370
18
48
1
60
0
100
AcDbLine
10
-0.1
20
-11.5
30
0
11
0.317758
21
-11.5
31
0
39
0
210
0
220
0
230
1
0
LINE
5
85
100
AcDbEntity
8
1
62
256
6
ByLayer
370
18
48
1
60
0
100
AcDbLine
10
7.9988
20
-10.5
30
0
11
7.9988
21
-8.5
31
0
39
0
210
0
220
0
230
1
0
LINE
5
86
100
AcDbEntity
8
1
62
256
6
ByLayer
370
13
48
1
60
0
100
AcDbLine
10
30.426554
20
12.803815
30
0
11
30.419814
21
12.649431
31
0
39
0
210
0
220
0
230
1
0
LINE
5
87
100
AcDbEntity
8
1
62
256
6
ByLayer
370
13
48
1
60
0
100
AcDbLine
10
32.730275
20
12.758428
30
0
11
32.726377
21
12.669138
31
0
39
0
210
0
220
0
230
1
0
LINE
5
88
100
AcDbEntity
8
1
62
256
6
ByLayer
370
13
48
1
60
0
100
AcDbLine
10
25.856451
20
7.73637
30
0
11
25.856451
21
12.76992
31
0
39
0
210
0
220
0
230
1
0
LINE
5
89
100
AcDbEntity
8
1
62
256
6
ByLayer
370
18
48
1
60
0
100
AcDbLine
10
0.616346
20
14.725236
30
0
11
11.802593
21
14.725236
31
0
39
0
210
0
220
0
230
1
0
LINE
5
8A
100
AcDbEntity
8
1
62
256
6
ByLayer
370
18
48
1
60
0
100
AcDbLine
10
6.9988
20
-11.5
30
0
11
2.020551
21
-11.5
31
0
39
0
210
0
220
0
230
1
0
LINE
5
8B
100
AcDbEntity
8
1
62
256
6
ByLayer
370
18
48
1
60
0
100
AcDbLine
10
35.40429
20
8.426475
30
0
11
35.550453
21
11.921518
31
0
39
0
210
0
220
0
230
1
0
LINE
5
8C
100
AcDbEntity
8
1
62
256
6
ByLayer
370
18
48
1
60
0
100
AcDbLine
10
-0.1
20
-11.5
30
0
11
-0.1
21
12.600391
31
0
39
0
210
0
220
0
230
1
0
LINE
5
8D
100
AcDbEntity
8
1
62
256
6
ByLayer
370
13
48
1
60
0
100
AcDbLine
10
9.5988
20
7.35
30
0
11
9.5988
21
7.991827
31
0
39
0
210
0
220
0
230
1
0
LINE
5
8E
100
AcDbEntity
8
1
62
256
6
ByLayer
370
18
48
1
60
0
100
AcDbLine
10
6.9988
20
-11.5
30
0
11
7.9988
21
-10.5
31
0
39
0
210
0
220
0
230
1
0
LINE
5
8F
100
AcDbEntity
8
1
62
256
6
ByLayer
370
18
48
1
60
0
100
AcDbLine
10
29.036307
20
12.700434
30
0
11
29.043521
21
12.676465
31
0
39
0
210
0
220
0
230
1
0
LINE
5
90
100
AcDbEntity
8
1
62
256
6
ByLayer
370
13
48
1
60
0
100
AcDbLine
10
19.428575
20
12.354957
30
0
11
19.428575
21
7.991827
31
0
39
0
210
0
220
0
230
1
0
LINE
5
91
100
AcDbEntity
8
1
62
256
6
ByLayer
370
18
48
1
60
0
100
AcDbLine
10
2.824399
20
12.354957
30
0
11
2.824399
21
-8.5
31
0
39
0
210
0
220
0
230
1
0
LINE
5
92
100
AcDbEntity
8
1
62
256
6
ByLayer
370
18
48
1
60
0
100
AcDbLine
10
31.227316
20
12.803815
30
0
11
30.426554
21
12.803815
31
0
39
0
210
0
220
0
230
1
0
LINE
5
93
100
AcDbEntity
8
1
62
256
6
ByLayer
370
13
48
1
60
0
100
AcDbLine
10
0.317758
20
-11.5
30
0
11
0.317758
21
12.603174
31
0
39
0
210
0
220
0
230
1
0
LINE
5
94
100
AcDbEntity
8
1
62
256
6
ByLayer
370
18
48
1
60
0
100
AcDbLine
10
0.616346
20
14.725236
30
0
11
0.317758
21
13.61089
31
0
39
0
210
0
220
0
230
1
0
LINE
5
95
100
AcDbEntity
8
1
62
256
6
ByLayer
370
13
48
1
60
0
100
AcDbLine
10
31.227316
20
12.803815
30
0
11
31.220916
21
12.657228
31
0
39
0
210
0
220
0
230
1
0
LINE
5
96
100
AcDbEntity
8
1
62
256
6
ByLayer
370
18
48
1
60
0
100
AcDbLine
10
35.388857
20
12.600042
30
0
11
35.550453
21
11.921518
31
0
39
0
210
0
220
0
230
1
0
LINE
5
97
100
AcDbEntity
8
1
62
256
6
ByLayer
370
18
48
1
60
0
100
AcDbLine
10
7.9988
20
-8.5
30
0
11
7.9988
21
6.37997
31
0
39
0
210
0
220
0
230
1
0
LINE
5
98
100
AcDbEntity
8
1
62
256
6
ByLayer
370
18
48
1
60
0
100
AcDbLine
10
7.9988
20
-8.5
30
0
11
2.824399
21
-8.5
31
0
39
0
210
0
220
0
230
1
0
LINE
5
99
100
AcDbEntity
8
1
62
256
6
ByLayer
370
13
48
1
60
0
100
AcDbLine
10
2.824399
20
12.354957
30
0
11
19.428575
21
12.354957
31
0
39
0
210
0
220
0
230
1
0
LINE
5
9A
100
AcDbEntity
8
1
62
256
6
ByLayer
370
18
48
1
60
0
100
AcDbLine
10
19.428575
20
7.991827
30
0
11
9.5988
21
7.991827
31
0
39
0
210
0
220
0
230
1
0
LINE
5
9B
100
AcDbEntity
8
1
62
256
6
ByLayer
370
18
48
1
60
0
100
AcDbLine
10
0.317758
20
-11.5
30
0
11
2.020551
21
-11.5
31
0
39
0
210
0
220
0
230
1
0
LINE
5
9C
100
AcDbEntity
8
1
62
256
6
ByLayer
370
18
48
1
60
0
100
AcDbLine
10
35.40429
20
8.426475
30
0
11
35.082205
21
7.350865
31
0
39
0
210
0
220
0
230
1
0
LINE
5
9D
100
AcDbEntity
8
1
62
256
6
ByLayer
370
18
48
1
60
0
100
AcDbLine
10
35.234822
20
7.860634
30
0
11
35.423841
21
7.845418
31
0
39
0
210
0
220
0
230
1
0
LINE
5
9E
100
AcDbEntity
8
1
62
256
6
ByLayer
370
13
48
1
60
0
100
AcDbLine
10
36.083969
20
10.640558
30
0
11
35.853997
21
12.588179
31
0
39
0
210
0
220
0
230
1
0
LINE
5
9F
100
AcDbEntity
8
1
62
256
6
ByLayer
370
13
48
1
60
0
100
AcDbLine
10
35.560128
20
10.744147
30
0
11
35.623752
21
12.573103
31
0
39
0
210
0
220
0
230
1
0
LINE
5
A0
100
AcDbEntity
8
1
62
256
6
ByLayer
370
13
48
1
60
0
100
AcDbLine
10
35.844347
20
12.692357
30
0
11
35.844347
21
12.595631
31
0
39
0
210
0
220
0
230
1
0
LINE
5
A1
100
AcDbEntity
8
1
62
256
6
ByLayer
370
18
48
1
60
0
100
AcDbLine
10
37.51387
20
7.415879
30
0
11
37.957061
21
7.160002
31
0
39
0
210
0
220
0
230
1
0
LINE
5
A2
100
AcDbEntity
8
1
62
256
6
ByLayer
370
13
48
1
60
0
100
AcDbLine
10
41.134614
20
7.239515
30
0
11
41.124183
21
7.000615
31
0
39
0
210
0
220
0
230
1
0
LINE
5
A3
100
AcDbEntity
8
1
62
256
6
ByLayer
370
13
48
1
60
0
100
AcDbLine
10
35.623752
20
12.573103
30
0
11
35.39562
21
12.571581
31
0
39
0
210
0
220
0
230
1
0
LINE
5
A4
100
AcDbEntity
8
1
62
256
6
ByLayer
370
13
48
1
60
0
100
AcDbLine
10
36.783135
20
8.167263
30
0
11
36.806763
21
8.139104
31
0
39
0
210
0
220
0
230
1
0
LINE
5
A5
100
AcDbEntity
8
1
62
256
6
ByLayer
370
18
48
1
60
0
100
AcDbLine
10
36.412718
20
12.69892
30
0
11
36.098945
21
12.697026
31
0
39
0
210
0
220
0
230
1
0
LINE
5
A6
100
AcDbEntity
8
1
62
256
6
ByLayer
370
13
48
1
60
0
100
AcDbLine
10
41.124184
20
12.99936
30
0
11
41.134614
21
12.760485
31
0
39
0
210
0
220
0
230
1
0
LINE
5
A7
100
AcDbEntity
8
1
62
256
6
ByLayer
370
13
48
1
60
0
100
AcDbLine
10
41.585754
20
7.3
30
0
11
41.407813
21
7.3
31
0
39
0
210
0
220
0
230
1
0
LINE
5
A8
100
AcDbEntity
8
1
62
256
6
ByLayer
370
18
48
1
60
0
100
AcDbLine
10
35.853385
20
12.692794
30
0
11
35.844347
21
12.692357
31
0
39
0
210
0
220
0
230
1
0
LINE
5
A9
100
AcDbEntity
8
1
62
256
6
ByLayer
370
13
48
1
60
0
100
AcDbLine
10
36.866417
20
11.486343
30
0
11
37.018895
21
11.66806
31
0
39
0
210
0
220
0
230
1
0
LINE
5
AA
100
AcDbEntity
8
1
62
256
6
ByLayer
370
13
48
1
60
0
100
AcDbLine
10
37.943555
20
12.105236
30
0
11
37.51387
21
12.105236
31
0
39
0
210
0
220
0
230
1
0
LINE
5
AB
100
AcDbEntity
8
1
62
256
6
ByLayer
370
13
48
1
60
0
100
AcDbLine
10
35.641166
20
7.917295
30
0
11
35.641166
21
7.825379
31
0
39
0
210
0
220
0
230
1
0
LINE
5
AC
100
AcDbEntity
8
1
62
256
6
ByLayer
370
13
48
1
60
0
100
AcDbLine
10
36.806763
20
8.139104
30
0
11
36.806763
21
7.716588
31
0
39
0
210
0
220
0
230
1
0
LINE
5
AD
100
AcDbEntity
8
1
62
256
6
ByLayer
370
13
48
1
60
0
100
AcDbLine
10
35.005279
20
12.600519
30
0
11
35.621747
21
12.604632
31
0
39
0
210
0
220
0
230
1
0
LINE
5
AE
100
AcDbEntity
8
1
62
256
6
ByLayer
370
18
48
1
60
0
100
AcDbLine
10
30.351839
20
12.648768
30
0
11
31.761308
21
12.662606
31
0
39
0
210
0
220
0
230
1
0
LINE
5
AF
100
AcDbEntity
8
1
62
256
6
ByLayer
370
13
48
1
60
0
100
AcDbLine
10
36.877816
20
11.174539
30
0
11
36.735659
21
11.234049
31
0
39
0
210
0
220
0
230
1
0
LINE
5
B0
100
AcDbEntity
8
1
62
256
6
ByLayer
370
13
48
1
60
0
100
AcDbLine
10
36.783135
20
8.167263
30
0
11
36.778907
21
7.721171
31
0
39
0
210
0
220
0
230
1
0
LINE
5
B1
100
AcDbEntity
8
1
62
256
6
ByLayer
370
13
48
1
60
0
100
AcDbLine
10
35.746328
20
9.847827
30
0
11
35.645766
21
7.933901
31
0
39
0
210
0
220
0
230
1
0
LINE
5
B2
100
AcDbEntity
8
1
62
256
6
ByLayer
370
13
48
1
60
0
100
AcDbLine
10
39.05681
20
12.404844
30
0
11
38.9988
21
12.39503
31
0
39
0
210
0
220
0
230
1
0
LINE
5
B3
100
AcDbEntity
8
1
62
256
6
ByLayer
370
13
48
1
60
0
100
AcDbLine
10
35.853886
20
12.597452
30
0
11
35.853385
21
12.692794
31
0
39
0
210
0
220
0
230
1
0
LINE
5
B4
100
AcDbEntity
8
1
62
256
6
ByLayer
370
13
48
1
60
0
100
AcDbLine
10
37.51387
20
7.894764
30
0
11
37.943555
21
7.894764
31
0
39
0
210
0
220
0
230
1
0
LINE
5
B5
100
AcDbEntity
8
1
62
256
6
ByLayer
370
13
48
1
60
0
100
AcDbLine
10
31.840264
20
12.624801
30
0
11
31.761308
21
12.662606
31
0
39
0
210
0
220
0
230
1
0
LINE
5
B6
100
AcDbEntity
8
1
62
256
6
ByLayer
370
13
48
1
60
0
100
AcDbLine
10
38.431583
20
11.860985
30
0
11
38.423706
21
11.992442
31
0
39
0
210
0
220
0
230
1
0
LINE
5
B7
100
AcDbEntity
8
1
62
256
6
ByLayer
370
18
48
1
60
0
100
AcDbLine
10
35.646491
20
7.916238
30
0
11
35.646264
21
7.916267
31
0
39
0
210
0
220
0
230
1
0
LINE
5
B8
100
AcDbEntity
8
1
62
256
6
ByLayer
370
13
48
1
60
0
100
AcDbLine
10
39.094841
20
7.827018
30
0
11
39.036831
21
7.836833
31
0
39
0
210
0
220
0
230
1
0
LINE
5
B9
100
AcDbEntity
8
1
62
256
6
ByLayer
370
18
48
1
60
0
100
AcDbLine
10
41.5988
20
12.6
30
0
11
41.5988
21
11.58764
31
0
39
0
210
0
220
0
230
1
0
LINE
5
BA
100
AcDbEntity
8
1
62
256
6
ByLayer
370
13
48
1
60
0
100
AcDbLine
10
36.083969
20
10.640558
30
0
11
35.78155
21
10.653762
31
0
39
0
210
0
220
0
230
1
0
LINE
5
BB
100
AcDbEntity
8
1
62
256
6
ByLayer
370
13
48
1
60
0
100
AcDbLine
10
35.269085
20
7.975063
30
0
11
35.422504
21
7.962712
31
0
39
0
210
0
220
0
230
1
0
LINE
5
BC
100
AcDbEntity
8
1
62
256
6
ByLayer
370
13
48
1
60
0
100
AcDbLine
10
39.036831
20
12.163167
30
0
11
39.094841
21
12.172982
31
0
39
0
210
0
220
0
230
1
0
LINE
5
BD
100
AcDbEntity
8
1
62
256
6
ByLayer
370
18
48
1
60
0
100
AcDbLine
10
31.834807
20
12.663205
30
0
11
35.628352
21
12.688513
31
0
39
0
210
0
220
0
230
1
0
LINE
5
BE
100
AcDbEntity
8
1
62
256
6
ByLayer
370
18
48
1
60
0
100
AcDbLine
10
36.36567
20
7.76432
30
0
11
35.892922
21
7.802103
31
0
39
0
210
0
220
0
230
1
0
LINE
5
BF
100
AcDbEntity
8
1
62
256
6
ByLayer
370
13
48
1
60
0
100
AcDbLine
10
37.9988
20
7.894123
30
0
11
38.003272
21
8.086781
31
0
39
0
210
0
220
0
230
1
0
LINE
5
C0
100
AcDbEntity
8
1
62
256
6
ByLayer
370
13
48
1
60
0
100
AcDbLine
10
41.2988
20
12.986996
30
0
11
41.2988
21
12.766338
31
0
39
0
210
0
220
0
230
1
0
LINE
5
C1
100
AcDbEntity
8
1
62
256
6
ByLayer
370
13
48
1
60
0
100
AcDbLine
10
35.41792
20
7.928366
30
0
11
35.258933
21
7.941165
31
0
39
0
210
0
220
0
230
1
0
LINE
5
C2
100
AcDbEntity
8
1
62
256
6
ByLayer
370
13
48
1
60
0
100
AcDbLine
10
37.018895
20
8.33194
30
0
11
36.843377
21
8.541114
31
0
39
0
210
0
220
0
230
1
0
LINE
5
C3
100
AcDbEntity
8
1
62
256
6
ByLayer
370
13
48
1
60
0
100
AcDbLine
10
35.848869
20
12.587931
30
0
11
35.781861
21
10.66167
31
0
39
0
210
0
220
0
230
1
0
LINE
5
C4
100
AcDbEntity
8
1
62
256
6
ByLayer
370
18
48
1
60
0
100
AcDbLine
10
41.5988
20
8.41236
30
0
11
41.5988
21
7.4
31
0
39
0
210
0
220
0
230
1
0
LINE
5
C5
100
AcDbEntity
8
1
62
256
6
ByLayer
370
13
48
1
60
0
100
AcDbLine
10
37.9988
20
12.105877
30
0
11
38.003272
21
11.913219
31
0
39
0
210
0
220
0
230
1
0
LINE
5
C6
100
AcDbEntity
8
1
62
256
6
ByLayer
370
13
48
1
60
0
100
AcDbLine
10
38.423706
20
8.007558
30
0
11
38.431583
21
8.139015
31
0
39
0
210
0
220
0
230
1
0
LINE
5
C7
100
AcDbEntity
8
1
62
256
6
ByLayer
370
13
48
1
60
0
100
AcDbLine
10
37.963502
20
8.420515
30
0
11
37.943555
21
8.0876
31
0
39
0
210
0
220
0
230
1
0
LINE
5
C8
100
AcDbEntity
8
1
62
256
6
ByLayer
370
13
48
1
60
0
100
AcDbLine
10
36.866417
20
11.486343
30
0
11
37.147633
21
11.368619
31
0
39
0
210
0
220
0
230
1
0
LINE
5
C9
100
AcDbEntity
8
1
62
256
6
ByLayer
370
13
48
1
60
0
100
AcDbLine
10
37.943555
20
12.105236
30
0
11
37.943555
21
11.9124
31
0
39
0
210
0
220
0
230
1
0
LINE
5
CA
100
AcDbEntity
8
1
62
256
6
ByLayer
370
13
48
1
60
0
100
AcDbLine
10
36.36567
20
7.76432
30
0
11
36.369535
21
8.172084
31
0
39
0
210
0
220
0
230
1
0
LINE
5
CB
100
AcDbEntity
8
1
62
256
6
ByLayer
370
13
48
1
60
0
100
AcDbLine
10
35.422504
20
7.962712
30
0
11
35.51825
21
9.784989
31
0
39
0
210
0
220
0
230
1
0
LINE
5
CC
100
AcDbEntity
8
1
62
256
6
ByLayer
370
13
48
1
60
0
100
AcDbLine
10
35.647942
20
7.93363
30
0
11
36.048243
21
9.842567
31
0
39
0
210
0
220
0
230
1
0
LINE
5
CD
100
AcDbEntity
8
1
62
256
6
ByLayer
370
13
48
1
60
0
100
AcDbLine
10
31.834807
20
12.663205
30
0
11
31.917143
21
12.623781
31
0
39
0
210
0
220
0
230
1
0
LINE
5
CE
100
AcDbEntity
8
1
62
256
6
ByLayer
370
13
48
1
60
0
100
AcDbLine
10
37.943555
20
8.0876
30
0
11
37.51387
21
8.0876
31
0
39
0
210
0
220
0
230
1
0
LINE
5
CF
100
AcDbEntity
8
1
62
256
6
ByLayer
370
13
48
1
60
0
100
AcDbLine
10
37.943555
20
7.894764
30
0
11
37.943555
21
8.0876
31
0
39
0
210
0
220
0
230
1
0
LINE
5
D0
100
AcDbEntity
8
1
62
256
6
ByLayer
370
13
48
1
60
0
100
AcDbLine
10
37.51387
20
11.9124
30
0
11
37.943555
21
11.9124
31
0
39
0
210
0
220
0
230
1
0
LINE
5
D1
100
AcDbEntity
8
1
62
256
6
ByLayer
370
13
48
1
60
0
100
AcDbLine
10
35.746707
20
9.855733
30
0
11
36.048243
21
9.842567
31
0
39
0
210
0
220
0
230
1
0
LINE
5
D2
100
AcDbEntity
8
1
62
256
6
ByLayer
370
13
48
1
60
0
100
AcDbLine
10
38.9988
20
7.60497
30
0
11
39.05681
21
7.595156
31
0
39
0
210
0
220
0
230
1
0
LINE
5
D3
100
AcDbEntity
8
1
62
256
6
ByLayer
370
13
48
1
60
0
100
AcDbLine
10
35.461186
20
9.787481
30
0
11
35.51825
21
9.784989
31
0
39
0
210
0
220
0
230
1
0
LINE
5
D4
100
AcDbEntity
8
1
62
256
6
ByLayer
370
18
48
1
60
0
100
AcDbLine
10
38.9988
20
12.907833
30
0
11
41.02441
21
12.996273
31
0
39
0
210
0
220
0
230
1
0
LINE
5
D5
100
AcDbEntity
8
1
62
256
6
ByLayer
370
13
48
1
60
0
100
AcDbLine
10
37.51387
20
12.105236
30
0
11
37.51387
21
11.9124
31
0
39
0
210
0
220
0
230
1
0
LINE
5
D6
100
AcDbEntity
8
1
62
256
6
ByLayer
370
13
48
1
60
0
100
AcDbLine
10
35.628352
20
12.60451
30
0
11
35.628352
21
12.688513
31
0
39
0
210
0
220
0
230
1
0
LINE
5
D7
100
AcDbEntity
8
1
62
256
6
ByLayer
370
13
48
1
60
0
100
AcDbLine
10
35.423841
20
7.845418
30
0
11
35.423841
21
7.928012
31
0
39
0
210
0
220
0
230
1
0
LINE
5
D8
100
AcDbEntity
8
1
62
256
6
ByLayer
370
13
48
1
60
0
100
AcDbLine
10
35.848415
20
12.597169
30
0
11
35.853544
21
12.597417
31
0
39
0
210
0
220
0
230
1
0
LINE
5
D9
100
AcDbEntity
8
1
62
256
6
ByLayer
370
13
48
1
60
0
100
AcDbLine
10
36.287339
20
9.777937
30
0
11
35.892439
21
7.894752
31
0
39
0
210
0
220
0
230
1
0
LINE
5
DA
100
AcDbEntity
8
1
62
256
6
ByLayer
370
13
48
1
60
0
100
AcDbLine
10
36.09937
20
12.616142
30
0
11
36.327711
21
10.682332
31
0
39
0
210
0
220
0
230
1
0
LINE
5
DB
100
AcDbEntity
8
1
62
256
6
ByLayer
370
13
48
1
60
0
100
AcDbLine
10
37.104019
20
8.646957
30
0
11
36.843377
21
8.541114
31
0
39
0
210
0
220
0
230
1
0
LINE
5
DC
100
AcDbEntity
8
1
62
256
6
ByLayer
370
13
48
1
60
0
100
AcDbLine
10
36.712619
20
8.803051
30
0
11
36.831889
21
8.851485
31
0
39
0
210
0
220
0
230
1
0
LINE
5
DD
100
AcDbEntity
8
1
62
256
6
ByLayer
370
13
48
1
60
0
100
AcDbLine
10
37.51387
20
7.415879
30
0
11
37.51387
21
7.894764
31
0
39
0
210
0
220
0
230
1
0
LINE
5
DE
100
AcDbEntity
8
1
62
256
6
ByLayer
370
13
48
1
60
0
100
AcDbLine
10
35.646968
20
7.824655
30
0
11
35.646491
21
7.916238
31
0
39
0
210
0
220
0
230
1
0
LINE
5
DF
100
AcDbEntity
8
1
62
256
6
ByLayer
370
13
48
1
60
0
100
AcDbLine
10
35.853997
20
12.588179
30
0
11
35.848869
21
12.587931
31
0
39
0
210
0
220
0
230
1
0
LINE
5
E0
100
AcDbEntity
8
1
62
256
6
ByLayer
370
13
48
1
60
0
100
AcDbLine
10
35.645766
20
7.933901
30
0
11
35.647942
21
7.93363
31
0
39
0
210
0
220
0
230
1
0
LINE
5
E1
100
AcDbEntity
8
1
62
256
6
ByLayer
370
18
48
1
60
0
100
AcDbLine
10
37.956543
20
12.839699
30
0
11
37.951408
21
12.836734
31
0
39
0
210
0
220
0
230
1
0
LINE
5
E2
100
AcDbEntity
8
1
62
256
6
ByLayer
370
13
48
1
60
0
100
AcDbLine
10
36.098945
20
12.697026
30
0
11
36.09937
21
12.616142
31
0
39
0
210
0
220
0
230
1
0
LINE
5
E3
100
AcDbEntity
8
1
62
256
6
ByLayer
370
13
48
1
60
0
100
AcDbLine
10
41.407813
20
12.7
30
0
11
41.58578
21
12.7
31
0
39
0
210
0
220
0
230
1
0
LINE
5
E4
100
AcDbEntity
8
1
62
256
6
ByLayer
370
18
48
1
60
0
100
AcDbLine
10
35.646968
20
7.824655
30
0
11
35.641166
21
7.825379
31
0
39
0
210
0
220
0
230
1
0
LINE
5
E5
100
AcDbEntity
8
1
62
256
6
ByLayer
370
13
48
1
60
0
100
AcDbLine
10
37.943555
20
11.9124
30
0
11
37.963502
21
11.579485
31
0
39
0
210
0
220
0
230
1
0
LINE
5
E6
100
AcDbEntity
8
1
62
256
6
ByLayer
370
13
48
1
60
0
100
AcDbLine
10
35.501297
20
10.746716
30
0
11
35.560128
21
10.744147
31
0
39
0
210
0
220
0
230
1
0
LINE
5
E7
100
AcDbEntity
8
1
62
256
6
ByLayer
370
18
48
1
60
0
100
AcDbLine
10
41.024411
20
7.003692
30
0
11
38.9988
21
7.092132
31
0
39
0
210
0
220
0
230
1
0
LINE
5
E8
100
AcDbEntity
8
1
62
256
6
ByLayer
370
13
48
1
60
0
100
AcDbLine
10
35.892439
20
7.894752
30
0
11
35.892922
21
7.802103
31
0
39
0
210
0
220
0
230
1
0
LINE
5
E9
100
AcDbEntity
8
1
62
256
6
ByLayer
370
13
48
1
60
0
100
AcDbLine
10
41.2988
20
7.233662
30
0
11
41.2988
21
7.013105
31
0
39
0
210
0
220
0
230
1
0
LINE
5
EA
100
AcDbEntity
8
1
62
256
6
ByLayer
370
13
48
1
60
0
100
AcDbLine
10
37.51387
20
7.894764
30
0
11
37.51387
21
8.0876
31
0
39
0
210
0
220
0
230
1
0
LINE
5
EB
100
AcDbEntity
8
1
62
256
6
ByLayer
370
13
48
1
60
0
100
AcDbLine
10
35.646264
20
7.916267
30
0
11
35.644088
21
7.916538
31
0
39
0
210
0
220
0
230
1
0
LINE
5
EC
100
AcDbEntity
8
1
62
256
6
ByLayer
370
13
48
1
60
0
100
AcDbLine
10
37.51387
20
12.105236
30
0
11
37.51387
21
12.697512
31
0
39
0
210
0
220
0
230
1
0
LINE
5
ED
100
AcDbEntity
8
SK2
62
256
6
ByLayer
370
13
48
1
60
0
100
AcDbLine
10
-93.60005
20
12.5
30
0
11
-93.60005
21
-12.5
31
0
39
0
210
0
220
0
230
1
0
LINE
5
EF
100
AcDbEntity
8
SK2
62
256
6
ByLayer
370
13
48
1
60
0
100
AcDbLine
10
-2
20
-12.5
30
0
11
-95.60005
21
-12.5
31
0
39
0
210
0
220
0
230
1
0
LINE
5
F0
100
AcDbEntity
8
SK2
62
256
6
ByLayer
370
13
48
1
60
0
100
AcDbLine
10
-2
20
12.5
30
0
11
-95.60005
21
12.5
31
0
39
0
210
0
220
0
230
1
0
LINE
5
F1
100
AcDbEntity
8
SK2
62
256
6
ByLayer
370
18
48
1
60
0
100
AcDbLine
10
-93.60005
20
-12.5
30
0
11
-94.018047
21
-9.325002
31
0
39
0
210
0
220
0
230
1
0
LINE
5
F2
100
AcDbEntity
8
SK2
62
256
6
ByLayer
370
18
48
1
60
0
100
AcDbLine
10
-93.60005
20
-12.5
30
0
11
-93.182053
21
-9.324998
31
0
39
0
210
0
220
0
230
1
0
LINE
5
F3
100
AcDbEntity
8
SK2
62
256
6
ByLayer
370
18
48
1
60
0
100
AcDbLine
10
-94.018047
20
-9.325002
30
0
11
-93.182053
21
-9.324998
31
0
39
0
210
0
220
0
230
1
0
LINE
5
F4
100
AcDbEntity
8
SK2
62
256
6
ByLayer
370
18
48
1
60
0
100
AcDbLine
10
-93.60005
20
12.5
30
0
11
-93.182053
21
9.325002
31
0
39
0
210
0
220
0
230
1
0
LINE
5
F5
100
AcDbEntity
8
SK2
62
256
6
ByLayer
370
18
48
1
60
0
100
AcDbLine
10
-93.60005
20
12.5
30
0
11
-94.018047
21
9.324998
31
0
39
0
210
0
220
0
230
1
0
LINE
5
F6
100
AcDbEntity
8
SK2
62
256
6
ByLayer
370
18
48
1
60
0
100
AcDbLine
10
-93.182053
20
9.325002
30
0
11
-94.018047
21
9.324998
31
0
39
0
210
0
220
0
230
1
0
MTEXT
5
3E5
100
AcDbEntity
8
SK6
62
256
6
ByLayer
370
18
48
1
60
0
100
AcDbMText
10
-52.825625
20
-49.475507
30
0
210
0
220
0
230
1
1
\W0.7741;QFT-RFK32C2525-160B
40
3.5
41
0
44
1.084337
50
0
71
7
72
5
7
iso_b_vert
0
MTEXT
5
3E9
100
AcDbEntity
8
SK2
62
256
6
ByLayer
370
18
48
1
60
0
100
AcDbMText
10
-94.475184
20
-1.214932
30
0
210
0
220
0
230
1
1
\W0.6740;25
40
3.5
41
0
44
1.084337
50
89.9999999999999
71
7
72
5
7
iso_b_vert
0
DIMENSION
5
3F8
100
AcDbEntity
8
2
62
256
6
ByLayer
370
13
48
1
60
0
100
AcDbDimension
2
DimnDraft3D1
10
66.6988
20
13
30
0
11
66.6988
21
-3.857199
31
0
70
32
71
5
72
1
41
1
210
0
220
0
230
1
3
Standard
100
AcDbAlignedDimension
13
11.5988
23
-12.5
33
0
14
43.5988
24
13
34
0
50
90
100
AcDbRotatedDimension
1001
ACAD
1000
DSTYLE
1002
{
1070
    74
1070
     0
1070
   279
1070
     0
1070
   172
1070
     1
1070
   173
1070
     1
1070
   340
1005
3E6
1070
   271
1070
     1
1070
    77
1070
     1
1070
    73
1070
     0
1070
   171
1070
     3
1070
   274
1070
     4
1070
   177
1070
     2
1070
   176
1070
     2
1070
   178
1070
     7
1070
    78
1070
     8
1070
    41
1041
3.175
1070
   147
1041
1.75
1070
    42
1041
2.0
1070
    44
1041
2.0
1070
   140
1041
3.5
1070
   343
1005
3F9
1070
   344
1005
3F9
1002
}
0
DIMENSION
5
40D
100
AcDbEntity
8
SK2
62
256
6
ByLayer
370
13
48
1
60
0
100
AcDbDimension
2
DimnDraft3D2
10
-81
20
-25.60005
30
0
11
-83.282466
21
-25.60005
31
0
70
32
71
5
72
1
41
1
210
0
220
0
230
1
3
Standard
100
AcDbAlignedDimension
13
-84
23
-14.5
33
0
14
-81
24
-14.5
34
0
50
0
100
AcDbRotatedDimension
1001
ACAD
1000
DSTYLE
1002
{
1070
   279
1070
     0
1070
   172
1070
     1
1070
   173
1070
     1
1070
   340
1005
3E6
1070
    77
1070
     1
1070
    73
1070
     0
1070
   171
1070
     3
1070
   274
1070
     4
1070
   177
1070
     2
1070
   176
1070
     2
1070
   178
1070
     7
1070
    78
1070
     8
1070
    41
1041
3.175
1070
   147
1041
1.75
1070
    42
1041
2.0
1070
    44
1041
2.0
1070
   140
1041
3.5
1070
   343
1005
3F9
1070
   344
1005
3F9
1002
}
0
DIMENSION
5
41B
100
AcDbEntity
8
SK2
62
256
6
ByLayer
370
13
48
1
60
0
100
AcDbDimension
2
DimnDraft3D3
10
41.5988
20
37.89877
30
0
11
-26.178099
21
37.89877
31
0
70
32
71
5
72
1
41
1
210
0
220
0
230
1
3
Standard
100
AcDbAlignedDimension
13
-84
23
-10.5
33
0
14
41.5988
24
15
34
0
50
0
100
AcDbRotatedDimension
1001
ACAD
1000
DSTYLE
1002
{
1070
   279
1070
     0
1070
   172
1070
     1
1070
   173
1070
     1
1070
   340
1005
3E6
1070
   271
1070
     1
1070
    77
1070
     1
1070
    73
1070
     0
1070
   171
1070
     3
1070
   274
1070
     4
1070
   177
1070
     2
1070
   176
1070
     2
1070
   178
1070
     7
1070
    78
1070
     8
1070
    41
1041
3.175
1070
   147
1041
1.75
1070
    42
1041
2.0
1070
    44
1041
2.0
1070
   140
1041
3.5
1070
   343
1005
3F9
1070
   344
1005
3F9
1002
}
0
DIMENSION
5
429
100
AcDbEntity
8
2
62
256
6
ByLayer
370
13
48
1
60
0
100
AcDbDimension
2
DimnDraft3D4
10
41.5988
20
31.89877
30
0
11
16.945367
21
31.89877
31
0
70
32
71
5
72
1
41
1
210
0
220
0
230
1
3
Standard
100
AcDbAlignedDimension
13
0
23
14.5
33
0
14
41.5988
24
15
34
0
50
0
100
AcDbRotatedDimension
1001
ACAD
1000
DSTYLE
1002
{
1070
   279
1070
     0
1070
   172
1070
     1
1070
   173
1070
     1
1070
   340
1005
3E6
1070
   271
1070
     1
1070
    77
1070
     1
1070
    73
1070
     0
1070
   171
1070
     3
1070
   274
1070
     4
1070
   177
1070
     2
1070
   176
1070
     2
1070
   178
1070
     7
1070
    78
1070
     8
1070
    41
1041
3.175
1070
   147
1041
1.75
1070
    42
1041
2.0
1070
    44
1041
2.0
1070
   140
1041
3.5
1070
   343
1005
3F9
1070
   344
1005
3F9
1002
}
0
DIMENSION
5
437
100
AcDbEntity
8
2
62
256
6
ByLayer
370
13
48
1
60
0
100
AcDbDimension
2
DimnDraft3D5
10
9.5988
20
-25.60005
30
0
11
23.508334
21
-25.60005
31
0
70
32
71
5
72
1
41
1
210
0
220
0
230
1
3
Standard
100
AcDbAlignedDimension
13
41.5988
23
11
33
0
14
9.5988
24
-14.5
34
0
50
0
100
AcDbRotatedDimension
1001
ACAD
1000
DSTYLE
1002
{
1070
   279
1070
     0
1070
   172
1070
     1
1070
   173
1070
     1
1070
   340
1005
3E6
1070
   271
1070
     1
1070
    77
1070
     1
1070
    73
1070
     0
1070
   171
1070
     3
1070
   274
1070
     4
1070
   177
1070
     2
1070
   176
1070
     2
1070
   178
1070
     7
1070
    78
1070
     8
1070
    41
1041
3.175
1070
   147
1041
1.75
1070
    42
1041
2.0
1070
    44
1041
2.0
1070
   140
1041
3.5
1070
   343
1005
3F9
1070
   344
1005
3F9
1002
}
0
DIMENSION
5
445
100
AcDbEntity
8
2
62
256
6
ByLayer
370
13
48
1
60
0
100
AcDbDimension
2
DimnDraft3D6
10
59.6988
20
7
30
0
11
59.6988
21
9.217267
31
0
70
32
71
5
72
1
41
1
210
0
220
0
230
1
3
Standard
100
AcDbAlignedDimension
13
43.5988
23
13
33
0
14
43.5988
24
7
34
0
50
90
100
AcDbRotatedDimension
1001
ACAD
1000
DSTYLE
1002
{
1070
    74
1070
     0
1070
   279
1070
     0
1070
   172
1070
     1
1070
   173
1070
     1
1070
   340
1005
3E6
1070
   271
1070
     1
1070
    77
1070
     1
1070
    73
1070
     0
1070
   171
1070
     3
1070
   274
1070
     4
1070
   177
1070
     2
1070
   176
1070
     2
1070
   178
1070
     7
1070
    78
1070
     8
1070
    41
1041
3.175
1070
   147
1041
1.75
1070
    42
1041
2.0
1070
    44
1041
2.0
1070
   140
1041
3.5
1070
   343
1005
3F9
1070
   344
1005
3F9
1002
}
0
ENDSEC
0
SECTION
2
OBJECTS
0
DICTIONARY
5
4af
330
0
100
AcDbDictionary
280
0
281
1
3
ACAD_GROUP
350
4b0
3
ACAD_MLINESTYLE
350
4b1
0
DICTIONARY
5
4b0
330
0
100
AcDbDictionary
280
0
281
1
0
DICTIONARY
5
4b1
330
0
100
AcDbDictionary
280
0
281
1
3
Standard
350
18
0
MLINESTYLE
5
18
330
4b1
100
AcDbMlineStyle
2
Standard
70
0
3

62
256
51
90
52
90
71
2
49
-0.5
62
256
6
ByLayer
49
0.5
62
256
6
ByLayer
0
RASTERVARIABLES
5
49e
330

100
AcDbRasterVariables
90
0
70
1
71
1
72
1
0
ENDSEC
0
EOF
