0
SECTION
2
HEADER
9
$ACADVER
1
AC1015
9
$DWGCODEPAGE
3
ANSI_1252
9
$HANDSEED
5
298
9
$ANGBASE
50
0
9
$ANGDIR
70
0
9
$ATTMODE
70
1
9
$AUNITS
70
0
9
$AUPREC
70
0
9
$CECOLOR
62
256
9
$CELTSCALE
40
1
9
$CELTYPE
6
ByLayer
9
$CELWEIGHT
370
18
9
$CLAYER
8
0
9
$CMLJUST
70
0
9
$CMLSCALE
40
1
9
$CMLSTYLE
2
Standard
9
$DIMSTYLE
2
Standard
9
$TEXTSIZE
40
0.2
9
$TEXTSTYLE
7
Standard
9
$LUNITS
70
2
9
$LUPREC
70
4
9
$EXTNAMES
290
1
9
$INSUNITS
70
4
9
$LTSCALE
40
1
9
$LWDISPLAY
290
1
9
$PDMODE
70
0
9
$PDSIZE
40
0
9
$PLINEGEN
70
0
0
ENDSEC
0
SECTION
2
CLASSES
0
CLASS
1
RASTERVARIABLES
2
AcDbRasterVariables
3
ISM
90
0
280
0
281
0
0
ENDSEC
0
SECTION
2
TABLES
0
TABLE
2
VPORT
5
28e
100
AcDbSymbolTable
0
VPORT
5
1
100
AcDbSymbolTableRecord
100
AcDbViewportTableRecord
2
*Active
70
0
10
0
20
0
11
1
21
1
12
-1
22
1
13
0
23
0
14
0.5
24
0.5
15
10
25
10
16
0
26
0
36
1
17
0
27
0
37
0
0
ENDTAB
0
TABLE
2
LTYPE
5
28f
100
AcDbSymbolTable
0
LTYPE
5
14
100
AcDbSymbolTableRecord
100
AcDbLinetypeTableRecord
70
0
2
ByBlock
3

72
65
73
0
40
0
0
LTYPE
5
15
100
AcDbSymbolTableRecord
100
AcDbLinetypeTableRecord
70
0
2
ByLayer
3

72
65
73
0
40
0
0
LTYPE
5
16
100
AcDbSymbolTableRecord
100
AcDbLinetypeTableRecord
70
0
2
CONTINUOUS
3
Solid line
72
65
73
0
40
0
0
LTYPE
5
6A
100
AcDbSymbolTableRecord
100
AcDbLinetypeTableRecord
70
0
2
CENTER
3
____ _ ____ _ ____ _ ____
72
65
73
4
40
47.5
49
22
74
0
49
-8.5
74
0
49
8.5
74
0
49
-8.5
74
0
0
LTYPE
5
6B
100
AcDbSymbolTableRecord
100
AcDbLinetypeTableRecord
70
0
2
DASHED
3
__ __ __ __ __ __ __ __ __
72
65
73
2
40
25.72
49
12.86
74
0
49
-12.86
74
0
0
ENDTAB
0
TABLE
2
LAYER
5
290
100
AcDbSymbolTable
0
LAYER
5
10
100
AcDbSymbolTableRecord
100
AcDbLayerTableRecord
2
0
70
0
62
7
6
CONTINUOUS
290
1
370
-3
390
0
0
LAYER
5
6D
100
AcDbSymbolTableRecord
100
AcDbLayerTableRecord
2
80
70
0
62
-6
6
CONTINUOUS
290
1
370
-3
390
0
0
LAYER
5
6F
100
AcDbSymbolTableRecord
100
AcDbLayerTableRecord
2
81
70
0
62
-3
6
CONTINUOUS
290
1
370
-3
390
0
0
LAYER
5
71
100
AcDbSymbolTableRecord
100
AcDbLayerTableRecord
2
1
70
0
62
4
6
CONTINUOUS
290
1
370
-3
390
0
0
LAYER
5
1F9
100
AcDbSymbolTableRecord
100
AcDbLayerTableRecord
2
2
70
0
62
7
6
CONTINUOUS
290
1
370
-3
390
0
0
LAYER
5
27b
100
AcDbSymbolTableRecord
100
AcDbLayerTableRecord
2
SK1
70
0
62
4
6
CONTINUOUS
290
1
370
-3
390
0
0
LAYER
5
27c
100
AcDbSymbolTableRecord
100
AcDbLayerTableRecord
2
SK6
70
0
62
5
6
CONTINUOUS
290
1
370
-3
390
0
0
LAYER
5
27d
100
AcDbSymbolTableRecord
100
AcDbLayerTableRecord
2
SK2
70
0
62
7
6
CONTINUOUS
290
1
370
-3
390
0
0
ENDTAB
0
TABLE
2
STYLE
5
291
100
AcDbSymbolTable
0
STYLE
5
11
100
AcDbSymbolTableRecord
100
AcDbTextStyleTableRecord
2
Standard
3
txt
70
0
71
0
40
0
41
1
42
0
50
0
0
STYLE
5
1DE
100
AcDbSymbolTableRecord
100
AcDbTextStyleTableRecord
2
iso_b_vert
3
simplex.shx
70
0
71
0
40
0
41
1
42
0
50
0
0
STYLE
5
1DF
100
AcDbSymbolTableRecord
100
AcDbTextStyleTableRecord
2
DWGDirectTextStyle
3
simplex
70
0
71
0
40
0
41
1
42
0
50
0
0
ENDTAB
0
TABLE
2
DIMSTYLE
5
292
100
AcDbSymbolTable
100
AcDbDimStyleTable
0
DIMSTYLE
105
27
100
AcDbSymbolTableRecord
100
AcDbDimStyleTableRecord
2
Standard
70
0
3
<>
41
0.18
42
0.0625
44
0.18
140
0.18
147
0.09
73
0
74
0
77
1
271
2
275
0
278
52
280
0
340
11
0
ENDTAB
0
TABLE
2
VIEW
5
293
100
AcDbSymbolTable
0
ENDTAB
0
TABLE
2
UCS
5
294
100
AcDbSymbolTable
0
ENDTAB
0
TABLE
2
APPID
5
295
100
AcDbSymbolTable
0
APPID
5
12
100
AcDbSymbolTableRecord
100
AcDbRegAppTableRecord
2
ACAD
70
0
0
ENDTAB
0
TABLE
2
BLOCK_RECORD
5
296
100
AcDbSymbolTable
0
BLOCK_RECORD
5
1F
100
AcDbSymbolTableRecord
100
AcDbBlockTableRecord
2
*Model_Space
340
0
70
0
0
BLOCK_RECORD
5
1B
100
AcDbSymbolTableRecord
100
AcDbBlockTableRecord
2
*Paper_Space
340
0
70
0
0
BLOCK_RECORD
5
23
100
AcDbSymbolTableRecord
100
AcDbBlockTableRecord
2
*Paper_Space0
340
0
70
0
0
BLOCK_RECORD
5
1E1
100
AcDbSymbolTableRecord
100
AcDbBlockTableRecord
2
DimnDraft3D1
340
0
70
0
0
BLOCK_RECORD
5
1F0
100
AcDbSymbolTableRecord
100
AcDbBlockTableRecord
2
_CLOSED
340
0
70
0
0
BLOCK_RECORD
5
1F7
100
AcDbSymbolTableRecord
100
AcDbBlockTableRecord
2
DimnDraft3D2
340
0
70
0
0
BLOCK_RECORD
5
206
100
AcDbSymbolTableRecord
100
AcDbBlockTableRecord
2
DimnDraft3D3
340
0
70
0
0
BLOCK_RECORD
5
214
100
AcDbSymbolTableRecord
100
AcDbBlockTableRecord
2
DimnDraft3D4
340
0
70
0
0
ENDTAB
0
ENDSEC
0
SECTION
2
BLOCKS
0
BLOCK
5
20
100
AcDbEntity
8
0
100
AcDbBlockBegin
2
*Model_Space
70
0
10
0
20
0
30
0
3
*Model_Space
0
ENDBLK
5
21
100
AcDbEntity
8
0
100
AcDbBlockEnd
0
BLOCK
5
1C
100
AcDbEntity
8
0
100
AcDbBlockBegin
2
*Paper_Space
70
0
10
0
20
0
30
0
3
*Paper_Space
0
ENDBLK
5
1D
100
AcDbEntity
8
0
100
AcDbBlockEnd
0
BLOCK
5
24
100
AcDbEntity
8
0
100
AcDbBlockBegin
2
*Paper_Space0
70
0
10
0
20
0
30
0
3
*Paper_Space0
0
ENDBLK
5
25
100
AcDbEntity
8
0
100
AcDbBlockEnd
0
BLOCK
5
1ED
100
AcDbEntity
8
0
100
AcDbBlockBegin
2
DimnDraft3D1
70
0
10
0
20
0
30
0
3
DimnDraft3D1
0
MTEXT
5
1E2
100
AcDbEntity
8
SK2
62
256
6
ByLayer
370
18
48
1
60
0
100
AcDbMText
10
22.600267
20
43.775134
30
0
210
0
220
0
230
1
1
\W0.7361;48
40
3.5
41
0
44
1.084337
50
0
71
7
72
5
7
iso_b_vert
0
LINE
5
1E4
100
AcDbEntity
8
SK2
62
256
6
ByLayer
370
13
48
1
60
0
100
AcDbLine
10
0
20
2
30
0
11
0
21
44.9
31
0
39
0
210
0
220
0
230
1
0
LINE
5
1E5
100
AcDbEntity
8
SK2
62
256
6
ByLayer
370
13
48
1
60
0
100
AcDbLine
10
48
20
-22.5
30
0
11
48
21
44.9
31
0
39
0
210
0
220
0
230
1
0
LINE
5
1E6
100
AcDbEntity
8
SK2
62
256
6
ByLayer
370
13
48
1
60
0
100
AcDbLine
10
0
20
42.9
30
0
11
48
21
42.9
31
0
39
0
210
0
220
0
230
1
0
LINE
5
1E7
100
AcDbEntity
8
SK2
62
256
6
ByLayer
370
13
48
1
60
0
100
AcDbLine
10
0
20
42.9
30
0
11
3.174998
21
43.317997
31
0
39
0
210
0
220
0
230
1
0
LINE
5
1E8
100
AcDbEntity
8
SK2
62
256
6
ByLayer
370
13
48
1
60
0
100
AcDbLine
10
0
20
42.9
30
0
11
3.175002
21
42.482003
31
0
39
0
210
0
220
0
230
1
0
LINE
5
1E9
100
AcDbEntity
8
SK2
62
256
6
ByLayer
370
13
48
1
60
0
100
AcDbLine
10
3.174998
20
43.317997
30
0
11
3.175002
21
42.482003
31
0
39
0
210
0
220
0
230
1
0
LINE
5
1EA
100
AcDbEntity
8
SK2
62
256
6
ByLayer
370
13
48
1
60
0
100
AcDbLine
10
48
20
42.9
30
0
11
44.825002
21
42.482003
31
0
39
0
210
0
220
0
230
1
0
LINE
5
1EB
100
AcDbEntity
8
SK2
62
256
6
ByLayer
370
13
48
1
60
0
100
AcDbLine
10
48
20
42.9
30
0
11
44.824998
21
43.317997
31
0
39
0
210
0
220
0
230
1
0
LINE
5
1EC
100
AcDbEntity
8
SK2
62
256
6
ByLayer
370
13
48
1
60
0
100
AcDbLine
10
44.825002
20
42.482003
30
0
11
44.824998
21
43.317997
31
0
39
0
210
0
220
0
230
1
0
ENDBLK
5
1EE
100
AcDbEntity
8
0
100
AcDbBlockEnd
0
BLOCK
5
1F1
100
AcDbEntity
8
0
100
AcDbBlockBegin
2
_CLOSED
70
0
10
0
20
0
30
0
3
_CLOSED
0
LINE
5
1F3
100
AcDbEntity
8
0
62
256
6
ByLayer
370
-2
48
1
60
0
100
AcDbLine
10
-1
20
0.166667
30
0
11
0
21
0
31
0
39
0
210
0
220
0
230
1
0
LINE
5
1F4
100
AcDbEntity
8
0
62
256
6
ByLayer
370
-2
48
1
60
0
100
AcDbLine
10
0
20
0
30
0
11
-1
21
-0.166667
31
0
39
0
210
0
220
0
230
1
0
LINE
5
1F5
100
AcDbEntity
8
0
62
256
6
ByLayer
370
-2
48
1
60
0
100
AcDbLine
10
-1
20
0.166667
30
0
11
-1
21
-0.166667
31
0
39
0
210
0
220
0
230
1
0
LINE
5
1F6
100
AcDbEntity
8
0
62
256
6
ByLayer
370
-2
48
1
60
0
100
AcDbLine
10
0
20
0
30
0
11
-1
21
0
31
0
39
0
210
0
220
0
230
1
0
ENDBLK
5
1F2
100
AcDbEntity
8
0
100
AcDbBlockEnd
0
BLOCK
5
203
100
AcDbEntity
8
0
100
AcDbBlockBegin
2
DimnDraft3D2
70
0
10
0
20
0
30
0
3
DimnDraft3D2
0
MTEXT
5
1F8
100
AcDbEntity
8
2
62
256
6
ByLayer
370
18
48
1
60
0
100
AcDbMText
10
30.784534
20
-38.638014
30
0
210
0
220
0
230
1
1
\W0.6740;32
40
3.5
41
0
44
1.084337
50
0
71
7
72
5
7
iso_b_vert
0
LINE
5
1FA
100
AcDbEntity
8
2
62
256
6
ByLayer
370
13
48
1
60
0
100
AcDbLine
10
48
20
-26.5
30
0
11
48
21
-41.513147
31
0
39
0
210
0
220
0
230
1
0
LINE
5
1FB
100
AcDbEntity
8
2
62
256
6
ByLayer
370
13
48
1
60
0
100
AcDbLine
10
16
20
-2
30
0
11
16
21
-41.513147
31
0
39
0
210
0
220
0
230
1
0
LINE
5
1FC
100
AcDbEntity
8
2
62
256
6
ByLayer
370
13
48
1
60
0
100
AcDbLine
10
48
20
-39.513147
30
0
11
16
21
-39.513147
31
0
39
0
210
0
220
0
230
1
0
LINE
5
1FD
100
AcDbEntity
8
2
62
256
6
ByLayer
370
13
48
1
60
0
100
AcDbLine
10
48
20
-39.513147
30
0
11
44.825002
21
-39.931144
31
0
39
0
210
0
220
0
230
1
0
LINE
5
1FE
100
AcDbEntity
8
2
62
256
6
ByLayer
370
13
48
1
60
0
100
AcDbLine
10
48
20
-39.513147
30
0
11
44.824998
21
-39.095151
31
0
39
0
210
0
220
0
230
1
0
LINE
5
1FF
100
AcDbEntity
8
2
62
256
6
ByLayer
370
13
48
1
60
0
100
AcDbLine
10
44.825002
20
-39.931144
30
0
11
44.824998
21
-39.095151
31
0
39
0
210
0
220
0
230
1
0
LINE
5
200
100
AcDbEntity
8
2
62
256
6
ByLayer
370
13
48
1
60
0
100
AcDbLine
10
16
20
-39.513147
30
0
11
19.174998
21
-39.095151
31
0
39
0
210
0
220
0
230
1
0
LINE
5
201
100
AcDbEntity
8
2
62
256
6
ByLayer
370
13
48
1
60
0
100
AcDbLine
10
16
20
-39.513147
30
0
11
19.175002
21
-39.931144
31
0
39
0
210
0
220
0
230
1
0
LINE
5
202
100
AcDbEntity
8
2
62
256
6
ByLayer
370
13
48
1
60
0
100
AcDbLine
10
19.174998
20
-39.095151
30
0
11
19.175002
21
-39.931144
31
0
39
0
210
0
220
0
230
1
0
ENDBLK
5
204
100
AcDbEntity
8
0
100
AcDbBlockEnd
0
BLOCK
5
211
100
AcDbEntity
8
0
100
AcDbBlockBegin
2
DimnDraft3D3
70
0
10
0
20
0
30
0
3
DimnDraft3D3
0
MTEXT
5
207
100
AcDbEntity
8
2
62
256
6
ByLayer
370
18
48
1
60
0
100
AcDbMText
10
72.224866
20
-15.666466
30
0
210
0
220
0
230
1
1
\W0.7640;24.5
40
3.5
41
0
44
1.084337
50
90
71
7
72
5
7
iso_b_vert
0
LINE
5
208
100
AcDbEntity
8
2
62
256
6
ByLayer
370
13
48
1
60
0
100
AcDbLine
10
41
20
0
30
0
11
75.1
21
0
31
0
39
0
210
0
220
0
230
1
0
LINE
5
209
100
AcDbEntity
8
2
62
256
6
ByLayer
370
13
48
1
60
0
100
AcDbLine
10
50
20
-24.5
30
0
11
75.1
21
-24.5
31
0
39
0
210
0
220
0
230
1
0
LINE
5
20A
100
AcDbEntity
8
2
62
256
6
ByLayer
370
13
48
1
60
0
100
AcDbLine
10
73.1
20
0
30
0
11
73.1
21
-24.5
31
0
39
0
210
0
220
0
230
1
0
LINE
5
20B
100
AcDbEntity
8
2
62
256
6
ByLayer
370
13
48
1
60
0
100
AcDbLine
10
73.1
20
0
30
0
11
73.517997
21
-3.174998
31
0
39
0
210
0
220
0
230
1
0
LINE
5
20C
100
AcDbEntity
8
2
62
256
6
ByLayer
370
13
48
1
60
0
100
AcDbLine
10
73.1
20
0
30
0
11
72.682003
21
-3.175002
31
0
39
0
210
0
220
0
230
1
0
LINE
5
20D
100
AcDbEntity
8
2
62
256
6
ByLayer
370
13
48
1
60
0
100
AcDbLine
10
73.517997
20
-3.174998
30
0
11
72.682003
21
-3.175002
31
0
39
0
210
0
220
0
230
1
0
LINE
5
20E
100
AcDbEntity
8
2
62
256
6
ByLayer
370
13
48
1
60
0
100
AcDbLine
10
73.1
20
-24.5
30
0
11
72.682003
21
-21.325002
31
0
39
0
210
0
220
0
230
1
0
LINE
5
20F
100
AcDbEntity
8
2
62
256
6
ByLayer
370
13
48
1
60
0
100
AcDbLine
10
73.1
20
-24.5
30
0
11
73.517997
21
-21.324998
31
0
39
0
210
0
220
0
230
1
0
LINE
5
210
100
AcDbEntity
8
2
62
256
6
ByLayer
370
13
48
1
60
0
100
AcDbLine
10
72.682003
20
-21.325002
30
0
11
73.517997
21
-21.324998
31
0
39
0
210
0
220
0
230
1
0
ENDBLK
5
212
100
AcDbEntity
8
0
100
AcDbBlockEnd
0
BLOCK
5
21F
100
AcDbEntity
8
0
100
AcDbBlockBegin
2
DimnDraft3D4
70
0
10
0
20
0
30
0
3
DimnDraft3D4
0
MTEXT
5
215
100
AcDbEntity
8
2
62
256
6
ByLayer
370
18
48
1
60
0
100
AcDbMText
10
65.224866
20
-21.407733
30
0
210
0
220
0
230
1
1
\W0.5404;6
40
3.5
41
0
44
1.084337
50
90
71
7
72
5
7
iso_b_vert
0
LINE
5
216
100
AcDbEntity
8
2
62
256
6
ByLayer
370
13
48
1
60
0
100
AcDbLine
10
50
20
-24.5
30
0
11
68.1
21
-24.5
31
0
39
0
210
0
220
0
230
1
0
LINE
5
217
100
AcDbEntity
8
2
62
256
6
ByLayer
370
13
48
1
60
0
100
AcDbLine
10
50
20
-18.5
30
0
11
68.1
21
-18.5
31
0
39
0
210
0
220
0
230
1
0
LINE
5
218
100
AcDbEntity
8
2
62
256
6
ByLayer
370
13
48
1
60
0
100
AcDbLine
10
66.1
20
-33.25
30
0
11
66.1
21
-9.75
31
0
39
0
210
0
220
0
230
1
0
LINE
5
219
100
AcDbEntity
8
2
62
256
6
ByLayer
370
13
48
1
60
0
100
AcDbLine
10
66.1
20
-24.5
30
0
11
66.517997
21
-27.674998
31
0
39
0
210
0
220
0
230
1
0
LINE
5
21A
100
AcDbEntity
8
2
62
256
6
ByLayer
370
13
48
1
60
0
100
AcDbLine
10
66.1
20
-24.5
30
0
11
65.682003
21
-27.675002
31
0
39
0
210
0
220
0
230
1
0
LINE
5
21B
100
AcDbEntity
8
2
62
256
6
ByLayer
370
13
48
1
60
0
100
AcDbLine
10
66.517997
20
-27.674998
30
0
11
65.682003
21
-27.675002
31
0
39
0
210
0
220
0
230
1
0
LINE
5
21C
100
AcDbEntity
8
2
62
256
6
ByLayer
370
13
48
1
60
0
100
AcDbLine
10
66.1
20
-18.5
30
0
11
65.682003
21
-15.325002
31
0
39
0
210
0
220
0
230
1
0
LINE
5
21D
100
AcDbEntity
8
2
62
256
6
ByLayer
370
13
48
1
60
0
100
AcDbLine
10
66.1
20
-18.5
30
0
11
66.517997
21
-15.324998
31
0
39
0
210
0
220
0
230
1
0
LINE
5
21E
100
AcDbEntity
8
2
62
256
6
ByLayer
370
13
48
1
60
0
100
AcDbLine
10
65.682003
20
-15.325002
30
0
11
66.517997
21
-15.324998
31
0
39
0
210
0
220
0
230
1
0
ENDBLK
5
220
100
AcDbEntity
8
0
100
AcDbBlockEnd
0
ENDSEC
0
SECTION
2
ENTITIES
0
ARC
5
133
100
AcDbEntity
8
1
62
256
6
ByLayer
370
18
48
1
60
0
100
AcDbCircle
39
0
10
-16
20
-17.25
30
0
40
1.6
210
0
220
0
230
-1
100
AcDbArc
50
270
51
0
0
ARC
5
134
100
AcDbEntity
8
1
62
256
6
ByLayer
370
18
48
1
60
0
100
AcDbCircle
39
0
10
-3.475
20
21
30
0
40
1
210
0
220
0
230
-1
100
AcDbArc
50
224.427004
51
270
0
ARC
5
135
100
AcDbEntity
8
1
62
256
6
ByLayer
370
18
48
1
60
0
100
AcDbCircle
39
0
10
-3.475
20
-21
30
0
40
1
210
0
220
0
230
-1
100
AcDbArc
50
90
51
180
0
ARC
5
136
100
AcDbEntity
8
1
62
256
6
ByLayer
370
18
48
1
60
0
100
AcDbCircle
39
0
10
-21.9658
20
0
30
0
40
20.2999999999348
210
0
220
0
230
-1
100
AcDbArc
50
53.251232
51
68.1178
0
ARC
5
137
100
AcDbEntity
8
1
62
256
6
ByLayer
370
18
48
1
60
0
100
AcDbCircle
39
0
10
-12.066305
20
9.899495
30
0
40
5.24999999999994
210
0
220
0
230
-1
100
AcDbArc
50
243.607795
51
295.330374
0
ARC
5
138
100
AcDbEntity
8
1
62
256
6
ByLayer
370
18
48
1
60
0
100
AcDbCircle
39
0
10
-12.066305
20
-9.899495
30
0
40
5.24999999999994
210
0
220
0
230
-1
100
AcDbArc
50
64.669626
51
116.392205
0
ARC
5
139
100
AcDbEntity
8
1
62
256
6
ByLayer
370
18
48
1
60
0
100
AcDbCircle
39
0
10
-12.066305
20
9.899495
30
0
40
5.25000000000048
210
0
220
0
230
-1
100
AcDbArc
50
64.669626
51
116.392205
0
ELLIPSE
5
13A
100
AcDbEntity
8
1
62
256
6
ByLayer
370
18
48
1
60
0
100
AcDbEllipse
10
-20.494622
20
-104.500003
30
0
11
239.070991229697
21
32.2645689044053
31
0
210
0
220
0
230
-1
40
0.33187
41
-1.26371920546841
42
-1.23837768093462
0
ELLIPSE
5
13B
100
AcDbEntity
8
1
62
256
6
ByLayer
370
18
48
1
60
0
100
AcDbEllipse
10
82.224685
20
-104.499617
30
0
11
60.7846759059773
21
-79.5356147177173
31
0
210
0
220
0
230
-1
40
0.522823
41
-2.76146202173486
42
-2.756967768494
0
ELLIPSE
5
13C
100
AcDbEntity
8
1
62
256
6
ByLayer
370
18
48
1
60
0
100
AcDbEllipse
10
-31.318052
20
-218.478504
30
0
11
112.36598073132
21
183.924568158406
31
0
210
0
220
0
230
-1
40
0.559661
41
-0.333487383900298
42
-0.331907398008616
0
ELLIPSE
5
13D
100
AcDbEntity
8
1
62
256
6
ByLayer
370
18
48
1
60
0
100
AcDbEllipse
10
-152.657806
20
-218.516436
30
0
11
588.119467080148
21
71.5731791346858
31
0
210
0
220
0
230
-1
40
0.307357
41
-1.19829239736115
42
-1.19781619639732
0
ELLIPSE
5
13E
100
AcDbEntity
8
1
62
256
6
ByLayer
370
18
48
1
60
0
100
AcDbEllipse
10
122.755737
20
-218.499958
30
0
11
818.270037781733
21
8.2697565778594E-13
31
0
210
0
220
0
230
-1
40
0.237574
41
-1.69320497063513
42
-1.67245903508863
0
ELLIPSE
5
13F
100
AcDbEntity
8
1
62
256
6
ByLayer
370
18
48
1
60
0
100
AcDbEllipse
10
15.5
20
-2.20642
30
0
11
-1.35781320693541E-15
21
22.1755048501463
31
0
210
0
220
0
230
-1
40
0.496043
41
-2.81461727326902
42
-1.88314444944017
0
ELLIPSE
5
140
100
AcDbEntity
8
1
62
256
6
ByLayer
370
18
48
1
60
0
100
AcDbEllipse
10
41.942132
20
-104.5
30
0
11
102.073695148116
21
1.03159662813257E-13
31
0
210
0
220
0
230
-1
40
0.8391
41
-1.66581659265194
42
-1.57529041699476
0
ELLIPSE
5
141
100
AcDbEntity
8
1
62
256
6
ByLayer
370
18
48
1
60
0
100
AcDbEllipse
10
41.942132
20
-218.499998
30
0
11
231.676897219744
21
2.34141720490576E-13
31
0
210
0
220
0
230
-1
40
0.8391
41
-1.61261017937197
42
-1.57145273549972
0
ELLIPSE
5
142
100
AcDbEntity
8
1
62
256
6
ByLayer
370
18
48
1
60
0
100
AcDbEllipse
10
50.382825
20
-216.98535
30
0
11
9.69176243830898
21
-192.852918839735
31
0
210
0
220
0
230
-1
40
0.364943
41
3.11939746233625
42
3.12069988400855
0
ELLIPSE
5
143
100
AcDbEntity
8
1
62
256
6
ByLayer
370
18
48
1
60
0
100
AcDbEllipse
10
277.553372
20
-218.500026
30
0
11
599.596455526438
21
-77.0647819256058
31
0
210
0
220
0
230
-1
40
0.297654
41
-2.01749213673582
42
-2.00268962818983
0
ELLIPSE
5
144
100
AcDbEntity
8
1
62
256
6
ByLayer
370
18
48
1
60
0
100
AcDbEllipse
10
37.304214
20
-21.548463
30
0
11
0.22083621006469
21
-0.97556165004796
31
0
210
0
220
0
230
-1
40
0.995086
41
0
42
6.28318530717959
0
POINT
5
6C
100
AcDbEntity
8
80
62
256
6
ByLayer
370
18
48
1
60
0
100
AcDbPoint
10
0
20
0
30
0
39
0
210
0
220
0
230
1
50
360
0
POINT
5
6E
100
AcDbEntity
8
81
62
256
6
ByLayer
370
18
48
1
60
0
100
AcDbPoint
10
48
20
-24.5
30
0
39
0
210
0
220
0
230
1
50
360
0
POINT
5
70
100
AcDbEntity
8
1
62
256
6
ByLayer
370
18
48
1
60
0
100
AcDbPoint
10
48
20
-21.5
30
0
39
0
210
0
220
0
230
1
50
360
0
SPLINE
5
145
100
AcDbEntity
8
1
62
256
6
ByLayer
370
18
48
1
60
0
100
AcDbSpline
70
4
71
3
72
22
73
18
40
0
40
0
40
0
40
0
40
0.126676814353418
40
0.126676814353418
40
0.267217135113559
40
0.267217135113559
40
0.40740773651857
40
0.40740773651857
40
0.547835259175532
40
0.547835259175532
40
0.688583289848816
40
0.688583289848816
40
0.828914466721439
40
0.828914466721439
40
0.968599089661456
40
0.968599089661456
40
1
40
1
40
1
40
1
41
1
10
12.729216889584
20
20.2999930128611
30
0
41
1
10
12.637265277521
20
20.2998708595883
30
0
41
1
10
12.5082183740913
20
20.2955791068294
30
0
41
1
10
12.1757314055013
20
20.2820117498894
30
0
41
1
10
11.960869576359
20
20.272176697674
30
0
41
1
10
11.4871701564455
20
20.2543637441415
30
0
41
1
10
11.2219284690611
20
20.2462573426777
30
0
41
1
10
10.6772305903871
20
20.2369222594093
30
0
41
1
10
10.3902393496031
20
20.2356378340213
30
0
41
1
10
9.83445179216673
20
20.2406691878566
30
0
41
1
10
9.55800248236162
20
20.2470394783798
30
0
41
1
10
9.05523342397737
20
20.2633191601699
30
0
41
1
10
8.82184035622686
20
20.2733334013831
30
0
41
1
10
8.42951772965898
20
20.2901158736338
30
0
41
1
10
8.26489727999359
20
20.2969968542878
30
0
41
1
10
8.11792452275736
20
20.2997070767869
30
0
41
1
10
8.09304232921417
20
20.29996630596
30
0
41
1
10
8.0703228291658
20
20.2999730933745
30
0
0
SPLINE
5
146
100
AcDbEntity
8
1
62
256
6
ByLayer
370
18
48
1
60
0
100
AcDbSpline
70
4
71
3
72
8
73
4
40
0
40
0
40
0
40
0
40
1
40
1
40
1
40
1
41
1
10
-0.324980947161663
20
-11.9882514452461
30
0
41
1
10
-0.324980947161947
20
-11.9527340883361
30
0
41
1
10
-0.321516007130072
20
-11.9152456423387
30
0
41
1
10
-0.316306526165334
20
-11.8771415232337
30
0
0
SPLINE
5
147
100
AcDbEntity
8
1
62
256
6
ByLayer
370
18
48
1
60
0
100
AcDbSpline
70
4
71
3
72
8
73
4
40
0
40
0
40
0
40
0
40
1
40
1
40
1
40
1
41
1
10
-0.324980947161663
20
11.9882514452454
30
0
41
1
10
-0.324980947161919
20
11.9457898736838
30
0
41
1
10
-0.320028651424906
20
11.9005111058661
30
0
41
1
10
-0.313063708964933
20
11.8547311434987
30
0
0
SPLINE
5
148
100
AcDbEntity
8
1
62
256
6
ByLayer
370
18
48
1
60
0
100
AcDbSpline
70
4
71
3
72
10
73
6
40
0
40
0
40
0
40
0
40
0.579671760115224
40
0.579671760115224
40
1
40
1
40
1
40
1
41
1
10
28.4367611934588
20
-18.8505283384512
30
0
41
1
10
28.4699125154348
20
-18.8511892128966
30
0
41
1
10
28.5193867314783
20
-18.8524739636603
30
0
41
1
10
28.6316267349308
20
-18.8556429029468
30
0
41
1
10
28.687479204674
20
-18.8572735938809
30
0
41
1
10
28.7512119153846
20
-18.8591255453757
30
0
0
SPLINE
5
149
100
AcDbEntity
8
1
62
256
6
ByLayer
370
18
48
1
60
0
100
AcDbSpline
70
4
71
3
72
10
73
6
40
0
40
0
40
0
40
0
40
0.487931206354685
40
0.487931206354685
40
1
40
1
40
1
40
1
41
1
10
28.8157806099278
20
-18.8525810073744
30
0
41
1
10
28.8151082671833
20
-18.865149936951
30
0
41
1
10
28.071318940245
20
-18.9251994176152
30
0
41
1
10
25.5679654001778
20
-19.0288777528019
30
0
41
1
10
23.8220086489751
20
-19.0535699862305
30
0
41
1
10
22.2768666302453
20
-19.0218533396548
30
0
0
SPLINE
5
14A
100
AcDbEntity
8
1
62
256
6
ByLayer
370
18
48
1
60
0
100
AcDbSpline
70
4
71
3
72
8
73
4
40
0
40
0
40
0
40
0
40
1
40
1
40
1
40
1
41
1
10
28.8207062833228
20
-18.8500196033788
30
0
41
1
10
28.8071975953314
20
-18.8500203490196
30
0
41
1
10
28.8036734040655
20
-18.8503643279875
30
0
41
1
10
28.8103925750221
20
-18.8510711586513
30
0
0
SPLINE
5
14B
100
AcDbEntity
8
1
62
256
6
ByLayer
370
18
48
1
60
0
100
AcDbSpline
70
4
71
3
72
12
73
8
40
0
40
0
40
0
40
0
40
0.15411324038888
40
0.15411324038888
40
0.779628188766789
40
0.779628188766789
40
1
40
1
40
1
40
1
41
1
10
35.4493422020177
20
-24.2079600246358
30
0
41
1
10
35.426524380961
20
-24.2092331159901
30
0
41
1
10
35.4052861851401
20
-24.2105504419828
30
0
41
1
10
35.3070406862468
20
-24.2173669922044
30
0
41
1
10
35.2551073420716
20
-24.2235765961499
30
0
41
1
10
35.2268629278224
20
-24.2323777990116
30
0
41
1
10
35.2232860989607
20
-24.2347302311375
30
0
41
1
10
35.2234531146957
20
-24.2371163812211
30
0
0
SPLINE
5
14C
100
AcDbEntity
8
1
62
256
6
ByLayer
370
18
48
1
60
0
100
AcDbSpline
70
4
71
3
72
14
73
10
40
0
40
0
40
0
40
0
40
0.249945937635216
40
0.249945937635216
40
0.500148884547631
40
0.500148884547631
40
0.750064080635161
40
0.750064080635161
40
1
40
1
40
1
40
1
41
1
10
35.2625023506517
20
-24.2505279834656
30
0
41
1
10
35.3019691633424
20
-24.2574176936121
30
0
41
1
10
35.372231297798
20
-24.2643815989983
30
0
41
1
10
35.5627213500316
20
-24.2771417919833
30
0
41
1
10
35.6856298738664
20
-24.2831079891002
30
0
41
1
10
35.9661457800364
20
-24.2929714364533
30
0
41
1
10
36.1275755293683
20
-24.2970011492953
30
0
41
1
10
36.4662968130116
20
-24.302387971818
30
0
41
1
10
36.6482618445902
20
-24.3038152876854
30
0
41
1
10
36.827754300477
20
-24.3038152876854
30
0
0
SPLINE
5
14D
100
AcDbEntity
8
1
62
256
6
ByLayer
370
18
48
1
60
0
100
AcDbSpline
70
4
71
3
72
12
73
8
40
0
40
0
40
0
40
0
40
0.233668866209298
40
0.233668866209298
40
0.628240023470938
40
0.628240023470938
40
1
40
1
40
1
40
1
41
1
10
4.47499999999999
20
-13.837577595543
30
0
41
1
10
4.47499999999999
20
-13.4618383901413
30
0
41
1
10
4.45802237003977
20
-13.0860614498848
30
0
41
1
10
4.39112147075133
20
-12.0774186940755
30
0
41
1
10
4.32588055684238
20
-11.4452600987674
30
0
41
1
10
4.22454855851512
20
-10.21623119942
30
0
41
1
10
4.18914284284992
20
-9.61851377649137
30
0
41
1
10
4.18914284285427
20
-9.02081953171154
30
0
0
SPLINE
5
14E
100
AcDbEntity
8
1
62
256
6
ByLayer
370
18
48
1
60
0
100
AcDbSpline
70
4
71
3
72
14
73
10
40
0
40
0
40
0
40
0
40
0.25
40
0.25
40
0.5
40
0.5
40
0.75
40
0.75
40
1
40
1
40
1
40
1
41
1
10
9.82016042092627
20
16.2657136091608
30
0
41
1
10
7.84823084116545
20
15.3779109518554
30
0
41
1
10
6.51682114587086
20
13.8531335261406
30
0
41
1
10
5.04377072793793
20
10.0321739490856
30
0
41
1
10
4.80281058205779
20
7.75872469045751
30
0
41
1
10
4.56236463910113
20
3.03177914294875
30
0
41
1
10
4.55491321041674
20
0.515235775616503
30
0
41
1
10
4.61353506261435
20
-4.39323151993136
30
0
41
1
10
4.67797510870471
20
-6.80917742653898
30
0
41
1
10
5.03223906976299
20
-9.02081953171148
30
0
0
SPLINE
5
14F
100
AcDbEntity
8
1
62
256
6
ByLayer
370
18
48
1
60
0
100
AcDbSpline
70
4
71
3
72
10
73
6
40
0
40
0
40
0
40
0
40
0.5
40
0.5
40
1
40
1
40
1
40
1
41
1
10
11.9670185453172
20
-23.2070251279466
30
0
41
1
10
12.4675141023596
20
-23.5492183793374
30
0
41
1
10
13.0708883820542
20
-23.6885958107781
30
0
41
1
10
14.2674042730272
20
-23.8764995753838
30
0
41
1
10
14.8784531368097
20
-23.9115752179241
30
0
41
1
10
15.5
20
-23.9115752179241
30
0
0
SPLINE
5
150
100
AcDbEntity
8
1
62
256
6
ByLayer
370
18
48
1
60
0
100
AcDbSpline
70
4
71
3
72
8
73
4
40
0
40
0
40
0
40
0
40
1
40
1
40
1
40
1
41
1
10
32.2576512255871
20
-19.2363697028765
30
0
41
1
10
30.4584426971212
20
-19.3802565488471
30
0
41
1
10
28.1831609459447
20
-19.4918266849593
30
0
41
1
10
25.8297751287217
20
-19.4918266849593
30
0
0
SPLINE
5
151
100
AcDbEntity
8
1
62
256
6
ByLayer
370
18
48
1
60
0
100
AcDbSpline
70
4
71
3
72
14
73
10
40
0
40
0
40
0
40
0
40
0.19352304887932
40
0.19352304887932
40
0.462236033947333
40
0.462236033947333
40
0.731174662553577
40
0.731174662553577
40
1
40
1
40
1
40
1
41
1
10
14.3999999999999
20
-17.8866502231685
30
0
41
1
10
14.3999999999999
20
-18.0158648403246
30
0
41
1
10
14.4156522346434
20
-18.1460129813873
30
0
41
1
10
14.4890614400301
20
-18.4454773282733
30
0
41
1
10
14.5621956713393
20
-18.614489542851
30
0
41
1
10
14.7577336653222
20
-18.914643190434
30
0
41
1
10
14.8828703313463
20
-19.049895177562
30
0
41
1
10
15.1669711105132
20
-19.2683923703928
30
0
41
1
10
15.3298324677253
20
-19.3546877887374
30
0
41
1
10
15.5
20
-19.4110906646454
30
0
0
SPLINE
5
152
100
AcDbEntity
8
1
62
256
6
ByLayer
370
18
48
1
60
0
100
AcDbSpline
70
4
71
3
72
20
73
16
40
0
40
0
40
0
40
0
40
0.125
40
0.125
40
0.25
40
0.25
40
0.375
40
0.375
40
0.5
40
0.5
40
0.625
40
0.625
40
0.75
40
0.75
40
1
40
1
40
1
40
1
41
1
10
9.82016042091209
20
-5.15425160827741
30
0
41
1
10
9.16199282458939
20
-5.34209395279663
30
0
41
1
10
8.56434114686115
20
-5.61818845653781
30
0
41
1
10
7.56695555403246
20
-6.46149942719552
30
0
41
1
10
7.17875352794886
20
-7.03150074830572
30
0
41
1
10
6.6764403477589
20
-8.39559019834505
30
0
41
1
10
6.55583842111236
20
-9.19564538962271
30
0
41
1
10
6.57565436287922
20
-10.7855220851804
30
0
41
1
10
6.71510576517719
20
-11.5688856747838
30
0
41
1
10
7.25463362891412
20
-12.8981342980868
30
0
41
1
10
7.66166092812512
20
-13.446325788236
30
0
41
1
10
8.6865845554035
20
-14.2484536690247
30
0
41
1
10
9.29710689381727
20
-14.5086174951958
30
0
41
1
10
11.2939579770144
20
-15.034233480295
30
0
41
1
10
12.8365145745576
20
-15.0778890095681
30
0
41
1
10
14.4
20
-15.0996891281303
30
0
0
SPLINE
5
153
100
AcDbEntity
8
1
62
256
6
ByLayer
370
18
48
1
60
0
100
AcDbSpline
70
4
71
3
72
8
73
4
40
0
40
0
40
0
40
0
40
1
40
1
40
1
40
1
41
1
10
0.394519052838291
20
5.63509935370516
30
0
41
1
10
-0.29214584879557
20
1.90270132202366
30
0
41
1
10
-0.291747527511433
20
-1.90486641532195
30
0
41
1
10
0.394519052838319
20
-5.63509935370516
30
0
0
SPLINE
5
154
100
AcDbEntity
8
1
62
256
6
ByLayer
370
18
48
1
60
0
100
AcDbSpline
70
4
71
3
72
24
73
20
40
0
40
0
40
0
40
0
40
0.401610878702432
40
0.401610878702432
40
0.788391611786297
40
0.788391611786297
40
0.883562979140953
40
0.883562979140953
40
0.914230648136372
40
0.914230648136372
40
0.931557018434224
40
0.931557018434224
40
0.944951729710374
40
0.944951729710374
40
0.960068363599783
40
0.960068363599783
40
0.974948516203435
40
0.974948516203435
40
1
40
1
40
1
40
1
41
1
10
0.394519052838348
20
-5.63509935370516
30
0
41
1
10
0.420126279459737
20
-5.77428858852863
30
0
41
1
10
0.44161365268883
20
-5.91390379303888
30
0
41
1
10
0.472635526638328
20
-6.18570768161408
30
0
41
1
10
0.485646700794575
20
-6.32092127490407
30
0
41
1
10
0.475426693338761
20
-6.47827709215906
30
0
41
1
10
0.472135837180929
20
-6.5096791272575
30
0
41
1
10
0.460461741921705
20
-6.54518969171301
30
0
41
1
10
0.456901603491133
20
-6.55349972481349
30
0
41
1
10
0.449367219420566
20
-6.56378163323333
30
0
41
1
10
0.44616354164242
20
-6.56697426039008
30
0
41
1
10
0.439651362043577
20
-6.57058216196066
30
0
41
1
10
0.436457418640145
20
-6.57146670306835
30
0
41
1
10
0.42942448104867
20
-6.57144872098837
30
0
41
1
10
0.425453130793329
20
-6.57029988738523
30
0
41
1
10
0.417892164740181
20
-6.56638243117391
30
0
41
1
10
0.41419682284905
20
-6.56362652995725
30
0
41
1
10
0.404897278369276
20
-6.55519497124749
30
0
41
1
10
0.399506307901788
20
-6.54872343436315
30
0
41
1
10
0.394519052853411
20
-6.54187806555967
30
0
0
SPLINE
5
155
100
AcDbEntity
8
1
62
256
6
ByLayer
370
18
48
1
60
0
100
AcDbSpline
70
4
71
3
72
26
73
22
40
0
40
0
40
0
40
0
40
0.0268390717987144
40
0.0268390717987144
40
0.0435643916323399
40
0.0435643916323399
40
0.0569040907462379
40
0.0569040907462379
40
0.0701967036007156
40
0.0701967036007156
40
0.0862190557947375
40
0.0862190557947375
40
0.114325283027641
40
0.114325283027641
40
0.195387994302384
40
0.195387994302384
40
0.356753591763094
40
0.356753591763094
40
0.724774941759095
40
0.724774941759095
40
1
40
1
40
1
40
1
41
1
10
0.394519052838291
20
6.54187806553904
30
0
41
1
10
0.399849900181039
20
6.54919503965658
30
0
41
1
10
0.405651931464803
20
6.55610434693239
30
0
41
1
10
0.415849799432152
20
6.56494525107919
30
0
41
1
10
0.420043702596018
20
6.567805082836
30
0
41
1
10
0.427626813186123
20
6.57093615795915
30
0
41
1
10
0.431081319642743
20
6.57161578155294
30
0
41
1
10
0.437543463185875
20
6.57123577624947
30
0
41
1
10
0.440628082066894
20
6.57018311286541
30
0
41
1
10
0.446676568877166
20
6.56645926830771
30
0
41
1
10
0.449582893147834
20
6.5634870564902
30
0
41
1
10
0.456478322884664
20
6.55407780574063
30
0
41
1
10
0.459821159413593
20
6.54662375530265
30
0
41
1
10
0.470353004856577
20
6.51632461626107
30
0
41
1
10
0.473849128623982
20
6.49012613969913
30
0
41
1
10
0.480790536034334
20
6.41165645130394
30
0
41
1
10
0.480134077700484
20
6.35680390662995
30
0
41
1
10
0.472809692991689
20
6.17683343665649
30
0
41
1
10
0.458513504531481
20
6.04910688744886
30
0
41
1
10
0.427617902573814
20
5.82628570940065
30
0
41
1
10
0.412092277390372
20
5.73061940806102
30
0
41
1
10
0.394519052838319
20
5.63509935370516
30
0
0
SPLINE
5
156
100
AcDbEntity
8
1
62
256
6
ByLayer
370
18
48
1
60
0
100
AcDbSpline
70
4
71
3
72
8
73
4
40
0
40
0
40
0
40
0
40
1
40
1
40
1
40
1
41
1
10
-0.249980947161703
20
5.61238790983072
30
0
41
1
10
-0.0423423290800997
20
5.92869063653163
30
0
41
1
10
0.173240128673825
20
6.23815671379637
30
0
41
1
10
0.394519052838348
20
6.54187806553898
30
0
0
SPLINE
5
157
100
AcDbEntity
8
1
62
256
6
ByLayer
370
18
48
1
60
0
100
AcDbSpline
70
4
71
3
72
8
73
4
40
0
40
0
40
0
40
0
40
1
40
1
40
1
40
1
41
1
10
0.394519052853411
20
-6.54187806555967
30
0
41
1
10
0.173240128683687
20
-6.23815671381055
30
0
41
1
10
-0.0423423290752396
20
-5.92869063653905
30
0
41
1
10
-0.249980947161475
20
-5.61238790983106
30
0
0
SPLINE
5
158
100
AcDbEntity
8
1
62
256
6
ByLayer
370
18
48
1
60
0
100
AcDbSpline
70
4
71
3
72
22
73
18
40
0
40
0
40
0
40
0
40
0.417481098497792
40
0.417481098497792
40
0.657277996391651
40
0.657277996391651
40
0.73725857443001
40
0.73725857443001
40
0.784530406375693
40
0.784530406375693
40
0.827306499076033
40
0.827306499076033
40
0.874614794311432
40
0.874614794311432
40
0.921131796985175
40
0.921131796985175
40
1
40
1
40
1
40
1
41
1
10
-0.324980947161691
20
5.77605947760023
30
0
41
1
10
-0.324980947161691
20
5.7384069925331
30
0
41
1
10
-0.323791643110951
20
5.70085095486729
30
0
41
1
10
-0.316636779769283
20
5.64438526068878
30
0
41
1
10
-0.313083254394599
20
5.6237378746203
30
0
41
1
10
-0.303481449873203
20
5.60065604671902
30
0
41
1
10
-0.300565438673317
20
5.59517929313077
30
0
41
1
10
-0.294646726753285
20
5.58849155053773
30
0
41
1
10
-0.292103201615078
20
5.5864325010628
30
0
41
1
10
-0.286731240365867
20
5.58414644153728
30
0
41
1
10
-0.283877115295297
20
5.58376815391787
30
0
41
1
10
-0.277834605532462
20
5.58468883424388
30
0
41
1
10
-0.274553504985761
20
5.58616244683444
30
0
41
1
10
-0.268438452013442
20
5.59026223940609
30
0
41
1
10
-0.26551297758013
20
5.59289366789912
30
0
41
1
10
-0.258139974864093
20
5.60068246041999
30
0
41
1
10
-0.253907122300603
20
5.6064070382885
30
0
41
1
10
-0.249980947161674
20
5.61238790983066
30
0
0
SPLINE
5
159
100
AcDbEntity
8
1
62
256
6
ByLayer
370
18
48
1
60
0
100
AcDbSpline
70
4
71
3
72
24
73
20
40
0
40
0
40
0
40
0
40
0.0036091861682815
40
0.0036091861682815
40
0.0951165154599509
40
0.0951165154599509
40
0.14616280901664
40
0.14616280901664
40
0.185996599521447
40
0.185996599521447
40
0.23224970109703
40
0.23224970109703
40
0.277697095553579
40
0.277697095553579
40
0.377362853243104
40
0.377362853243104
40
0.576016053008337
40
0.576016053008337
40
1
40
1
40
1
40
1
41
1
10
-0.249980947161447
20
-5.61238790983103
30
0
41
1
10
-0.250161866061859
20
-5.61211231012783
30
0
41
1
10
-0.250343382971295
20
-5.61183742178795
30
0
41
1
10
-0.255108305126185
20
-5.60466493900842
30
0
41
1
10
-0.260131694329715
20
-5.59807588150426
30
0
41
1
10
-0.268803269241886
20
-5.58997588063099
30
0
41
1
10
-0.272152310668275
20
-5.58748100946823
30
0
41
1
10
-0.278234692635237
20
-5.58466438248411
30
0
41
1
10
-0.28100229353177
20
-5.58398439028542
30
0
41
1
10
-0.286651277435681
20
-5.58406621814496
30
0
41
1
10
-0.289565619543339
20
-5.58507950132048
30
0
41
1
10
-0.294610517188971
20
-5.58842518512361
30
0
41
1
10
-0.29683704409581
20
-5.59074538499482
30
0
41
1
10
-0.303038768809785
20
-5.5991279038974
30
0
41
1
10
-0.306174520164774
20
-5.60643808254883
30
0
41
1
10
-0.313804798756706
20
-5.62921997135012
30
0
41
1
10
-0.316792567857306
20
-5.6461401790269
30
0
41
1
10
-0.323767147163522
20
-5.69961871744925
30
0
41
1
10
-0.324980947161691
20
-5.73779746968944
30
0
41
1
10
-0.324980947161691
20
-5.77605947760023
30
0
0
SPLINE
5
15A
100
AcDbEntity
8
1
62
256
6
ByLayer
370
18
48
1
60
0
100
AcDbSpline
70
4
71
3
72
10
73
6
40
0
40
0
40
0
40
0
40
0.541764130359815
40
0.541764130359815
40
1
40
1
40
1
40
1
41
1
10
-0.324980947161691
20
-6.37324688789292
30
0
41
1
10
-0.324980947162146
20
-6.47244978824423
30
0
41
1
10
-0.314383725675612
20
-6.57494561621041
30
0
41
1
10
-0.28677376098571
20
-6.76313934416442
30
0
41
1
10
-0.270346092702994
20
-6.84981863770352
30
0
41
1
10
-0.249980947161873
20
-6.93594876110097
30
0
0
SPLINE
5
15B
100
AcDbEntity
8
1
62
256
6
ByLayer
370
18
48
1
60
0
100
AcDbSpline
70
4
71
3
72
10
73
6
40
0
40
0
40
0
40
0
40
0.546288078425728
40
0.546288078425728
40
1
40
1
40
1
40
1
41
1
10
-0.249980947162044
20
6.93594876110097
30
0
41
1
10
-0.274238508775852
20
6.83335647808005
30
0
41
1
10
-0.293012640935643
20
6.72994439185723
30
0
41
1
10
-0.317301823059751
20
6.54193845517369
30
0
41
1
10
-0.324980947162089
20
6.45638947852447
30
0
41
1
10
-0.324980947161691
20
6.37324688789292
30
0
0
SPLINE
5
15C
100
AcDbEntity
8
1
62
256
6
ByLayer
370
18
48
1
60
0
100
AcDbSpline
70
4
71
3
72
8
73
4
40
0
40
0
40
0
40
0
40
1
40
1
40
1
40
1
41
1
10
-0.249980947161703
20
-6.93594876110097
30
0
41
1
10
-0.0626871252384831
20
-7.72806880567606
30
0
41
1
10
0.153545136850994
20
-8.51165171787554
30
0
41
1
10
0.394519052838319
20
-9.28418104530812
30
0
0
SPLINE
5
15D
100
AcDbEntity
8
1
62
256
6
ByLayer
370
18
48
1
60
0
100
AcDbSpline
70
4
71
3
72
8
73
4
40
0
40
0
40
0
40
0
40
1
40
1
40
1
40
1
41
1
10
0.394519052838319
20
9.28418104530812
30
0
41
1
10
0.153545136850994
20
8.51165171787554
30
0
41
1
10
-0.0626871252384831
20
7.72806880567606
30
0
41
1
10
-0.249980947161703
20
6.93594876110097
30
0
0
SPLINE
5
15E
100
AcDbEntity
8
1
62
256
6
ByLayer
370
18
48
1
60
0
100
AcDbSpline
70
4
71
3
72
24
73
20
40
0
40
0
40
0
40
0
40
0.0811869449274341
40
0.0811869449274341
40
0.59891825021916
40
0.59891825021916
40
0.777945092563733
40
0.777945092563733
40
0.843499031830132
40
0.843499031830132
40
0.881967554742453
40
0.881967554742453
40
0.910666281812339
40
0.910666281812339
40
0.93935320050481
40
0.93935320050481
40
0.97931514110992
40
0.97931514110992
40
1
40
1
40
1
40
1
41
1
10
0.394519052838319
20
-9.28418104530812
30
0
41
1
10
0.40019189226598
20
-9.30236739053856
30
0
41
1
10
0.405632347866259
20
-9.32057564412335
30
0
41
1
10
0.443766878178764
20
-9.45386467300781
30
0
41
1
10
0.469937489977724
20
-9.57144039272157
30
0
41
1
10
0.480409679049018
20
-9.71968745344626
30
0
41
1
10
0.481028383485437
20
-9.75803216908739
30
0
41
1
10
0.472189805788503
20
-9.80315016099803
30
0
41
1
10
0.468717974947282
20
-9.81472982228311
30
0
41
1
10
0.460084318761034
20
-9.82935528217581
30
0
41
1
10
0.456104953267953
20
-9.83401130677208
30
0
41
1
10
0.44766659148678
20
-9.8392799776588
30
0
41
1
10
0.443493024226655
20
-9.84063096940727
30
0
41
1
10
0.434535828185574
20
-9.84098333890589
30
0
41
1
10
0.429650020447383
20
-9.83998598513708
30
0
41
1
10
0.418016583813028
20
-9.83530976380467
30
0
41
1
10
0.41109147296217
20
-9.83072034130186
30
0
41
1
10
0.401139924328277
20
-9.82242019899931
30
0
41
1
10
0.397789280829073
20
-9.81931253702786
30
0
41
1
10
0.394519052837552
20
-9.81603258289664
30
0
0
SPLINE
5
15F
100
AcDbEntity
8
1
62
256
6
ByLayer
370
18
48
1
60
0
100
AcDbSpline
70
4
71
3
72
24
73
20
40
0
40
0
40
0
40
0
40
0.0429948059521603
40
0.0429948059521603
40
0.0712551801673037
40
0.0712551801673037
40
0.102270780797799
40
0.102270780797799
40
0.133011125518527
40
0.133011125518527
40
0.181906426138348
40
0.181906426138348
40
0.230184910565461
40
0.230184910565461
40
0.367650273261925
40
0.367650273261925
40
0.558914635906181
40
0.558914635906181
40
1
40
1
40
1
40
1
41
1
10
0.394519052838319
20
9.81603258289471
30
0
41
1
10
0.401224377749003
20
9.8227578504291
30
0
41
1
10
0.408342177572194
20
9.82883165461971
30
0
41
1
10
0.420327216262308
20
9.83624231582124
30
0
41
1
10
0.425216115211185
20
9.83851127653023
30
0
41
1
10
0.43505374664565
20
9.84108063858938
30
0
41
1
10
0.44008623330609
20
9.84116944658126
30
0
41
1
10
0.448932681092146
20
9.83879960142727
30
0
41
1
10
0.452876879253893
20
9.83636377353508
30
0
41
1
10
0.46149986833197
20
9.82800901879023
30
0
41
1
10
0.465476192632252
20
9.82082659342112
30
0
41
1
10
0.471512273660352
20
9.80507510835685
30
0
41
1
10
0.473663831624634
20
9.79635945319598
30
0
41
1
10
0.479771064349393
20
9.76164276994709
30
0
41
1
10
0.480174337999642
20
9.73290379120709
30
0
41
1
10
0.477297611577683
20
9.66336231315202
30
0
41
1
10
0.472231488335666
20
9.62130810046412
30
0
41
1
10
0.449882675710285
20
9.48211334891894
30
0
41
1
10
0.425188873199517
20
9.38250428331912
30
0
41
1
10
0.394519052838376
20
9.28418104530812
30
0
0
SPLINE
5
160
100
AcDbEntity
8
1
62
256
6
ByLayer
370
18
48
1
60
0
100
AcDbSpline
70
4
71
3
72
8
73
4
40
0
40
0
40
0
40
0
40
1
40
1
40
1
40
1
41
1
10
-0.249980947148117
20
9.16192765466209
30
0
41
1
10
-0.0363243711368284
20
9.38149895433838
30
0
41
1
10
0.178583254368562
20
9.59945455956128
30
0
41
1
10
0.394519052838319
20
9.81603258289468
30
0
0
SPLINE
5
161
100
AcDbEntity
8
1
62
256
6
ByLayer
370
18
48
1
60
0
100
AcDbSpline
70
4
71
3
72
8
73
4
40
0
40
0
40
0
40
0
40
1
40
1
40
1
40
1
41
1
10
0.394519052838319
20
-9.81603258289468
30
0
41
1
10
0.178583254364014
20
-9.5994545595567
30
0
41
1
10
-0.0363243711459234
20
-9.38149895432917
30
0
41
1
10
-0.249980947161674
20
-9.16192765464814
30
0
0
SPLINE
5
162
100
AcDbEntity
8
1
62
256
6
ByLayer
370
18
48
1
60
0
100
AcDbSpline
70
4
71
3
72
20
73
16
40
0
40
0
40
0
40
0
40
0.22857485025424
40
0.22857485025424
40
0.480376092908978
40
0.480376092908978
40
0.61359052145893
40
0.61359052145893
40
0.69589188929868
40
0.69589188929868
40
0.786064138208887
40
0.786064138208887
40
0.875364886412022
40
0.875364886412022
40
1
40
1
40
1
40
1
41
1
10
-0.324980947184315
20
9.24203289084423
30
0
41
1
10
-0.32498094718531
20
9.2280940750714
30
0
41
1
10
-0.324399434787921
20
9.21438286220197
30
0
41
1
10
-0.321209534757372
20
9.18689946127444
30
0
41
1
10
-0.318438680009194
20
9.17293690699947
30
0
41
1
10
-0.3106449222295
20
9.15525486005407
30
0
41
1
10
-0.307198765132625
20
9.14972756786011
30
0
41
1
10
-0.300039188227629
20
9.14336975121401
30
0
41
1
10
-0.296865034394557
20
9.1415356727631
30
0
41
1
10
-0.28954787928609
20
9.13959758727182
30
0
41
1
10
-0.28523568981646
20
9.13967639886783
30
0
41
1
10
-0.276492861412862
20
9.14197062882337
30
0
41
1
10
-0.271961898158537
20
9.14416541443688
30
0
41
1
10
-0.261516395555873
20
9.1509471929221
30
0
41
1
10
-0.255577825480003
20
9.15617583610779
30
0
41
1
10
-0.249980947138738
20
9.16192765463444
30
0
0
SPLINE
5
163
100
AcDbEntity
8
1
62
256
6
ByLayer
370
18
48
1
60
0
100
AcDbSpline
70
4
71
3
72
20
73
16
40
0
40
0
40
0
40
0
40
0.1227706318618
40
0.1227706318618
40
0.205021615430233
40
0.205021615430233
40
0.29344137099176
40
0.29344137099176
40
0.381206315825714
40
0.381206315825714
40
0.559178304026144
40
0.559178304026144
40
0.73370421227728
40
0.73370421227728
40
1
40
1
40
1
40
1
41
1
10
-0.249980947161589
20
-9.16192765464785
30
0
41
1
10
-0.255533332946328
20
-9.15622156038282
30
0
41
1
10
-0.261420768871858
20
-9.15103150324327
30
0
41
1
10
-0.271480286515725
20
-9.144463580197
30
0
41
1
10
-0.275648798264427
20
-9.14237253428334
30
0
41
1
10
-0.284022232046112
20
-9.13984876503184
30
0
41
1
10
-0.288307504983095
20
-9.13954818908798
30
0
41
1
10
-0.295950283178399
20
-9.14109295365401
30
0
41
1
10
-0.299412364375428
20
-9.14292077708893
30
0
41
1
10
-0.308305334340844
20
-9.15051548325278
30
0
41
1
10
-0.3125225263868
20
-9.15842040039084
30
0
41
1
10
-0.318620244774081
20
-9.1755866741139
30
0
41
1
10
-0.320642407864199
20
-9.18509450746686
30
0
41
1
10
-0.324207952504963
20
-9.20990564353875
30
0
41
1
10
-0.324980947161663
20
-9.22582961878859
30
0
41
1
10
-0.324980947161663
20
-9.24203289085602
30
0
0
SPLINE
5
164
100
AcDbEntity
8
1
62
256
6
ByLayer
370
18
48
1
60
0
100
AcDbSpline
70
4
71
3
72
10
73
6
40
0
40
0
40
0
40
0
40
0.289655851305036
40
0.289655851305036
40
1
40
1
40
1
40
1
41
1
10
-0.324980947161663
20
-9.59510119943195
30
0
41
1
10
-0.32498094716118
20
-9.6281517249445
30
0
41
1
10
-0.32148053892422
20
-9.66295508608408
30
0
41
1
10
-0.303478624157634
20
-9.78322412421903
30
0
41
1
10
-0.280258805463575
20
-9.87162346008668
30
0
41
1
10
-0.249980947161987
20
-9.95818080364208
30
0
0
SPLINE
5
165
100
AcDbEntity
8
1
62
256
6
ByLayer
370
18
48
1
60
0
100
AcDbSpline
70
4
71
3
72
10
73
6
40
0
40
0
40
0
40
0
40
0.586927622239529
40
0.586927622239529
40
1
40
1
40
1
40
1
41
1
10
-0.249980947161788
20
9.95818080364211
30
0
41
1
10
-0.275059623636508
20
9.88648670976283
30
0
41
1
10
-0.295048746910595
20
9.81372420210246
30
0
41
1
10
-0.31820456846529
20
9.69231251695285
30
0
41
1
10
-0.324980947160981
20
9.64203355967936
30
0
41
1
10
-0.324980947161663
20
9.59510119943192
30
0
0
SPLINE
5
166
100
AcDbEntity
8
1
62
256
6
ByLayer
370
18
48
1
60
0
100
AcDbSpline
70
4
71
3
72
8
73
4
40
0
40
0
40
0
40
0
40
1
40
1
40
1
40
1
41
1
10
-0.249980947161674
20
-9.95818080364211
30
0
41
1
10
-0.0483934946950342
20
-10.5344723697693
30
0
41
1
10
0.167075266492162
20
-11.1044931479051
30
0
41
1
10
0.394519052838319
20
-11.6678057336411
30
0
0
SPLINE
5
167
100
AcDbEntity
8
1
62
256
6
ByLayer
370
18
48
1
60
0
100
AcDbSpline
70
4
71
3
72
8
73
4
40
0
40
0
40
0
40
0
40
1
40
1
40
1
40
1
41
1
10
0.394519052838319
20
11.6678057336411
30
0
41
1
10
0.167075266492191
20
11.1044931479051
30
0
41
1
10
-0.0483934946950342
20
10.5344723697693
30
0
41
1
10
-0.249980947161674
20
9.95818080364211
30
0
0
SPLINE
5
168
100
AcDbEntity
8
1
62
256
6
ByLayer
370
18
48
1
60
0
100
AcDbSpline
70
4
71
3
72
22
73
18
40
0
40
0
40
0
40
0
40
0.443121491067171
40
0.443121491067171
40
0.661740759476763
40
0.661740759476763
40
0.766098094792102
40
0.766098094792102
40
0.826904587841819
40
0.826904587841819
40
0.868607189643466
40
0.868607189643466
40
0.91043532091973
40
0.91043532091973
40
0.9662808221544
40
0.9662808221544
40
1
40
1
40
1
40
1
41
1
10
0.394519052838348
20
-11.6678057336411
30
0
41
1
10
0.426399694425072
20
-11.7467648775053
30
0
41
1
10
0.452287582667793
20
-11.8274416641465
30
0
41
1
10
0.475156462670156
20
-11.942130930484
30
0
41
1
10
0.480331468618118
20
-11.980012341644
30
0
41
1
10
0.478986900720884
20
-12.0300954666452
30
0
41
1
10
0.477095090395949
20
-12.0456723621449
30
0
41
1
10
0.469661657482618
20
-12.0658628688763
30
0
41
1
10
0.465860773716429
20
-12.07244086151
30
0
41
1
10
0.457183199664257
20
-12.0801365022145
30
0
41
1
10
0.452926515549393
20
-12.0823456616943
30
0
41
1
10
0.443304657509117
20
-12.0841484785969
30
0
41
1
10
0.437820583441891
20
-12.0837380616332
30
0
41
1
10
0.424593252610578
20
-12.0799308589228
30
0
41
1
10
0.416488812941964
20
-12.0755695029156
30
0
41
1
10
0.403897061978853
20
-12.0666751985533
30
0
41
1
10
0.399159486907337
20
-12.0628458260448
30
0
41
1
10
0.394519052838063
20
-12.0587239255465
30
0
0
SPLINE
5
169
100
AcDbEntity
8
1
62
256
6
ByLayer
370
18
48
1
60
0
100
AcDbSpline
70
4
71
3
72
22
73
18
40
0
40
0
40
0
40
0
40
0.0503457642195914
40
0.0503457642195914
40
0.0917914216157044
40
0.0917914216157044
40
0.137650391024242
40
0.137650391024242
40
0.183120421342895
40
0.183120421342895
40
0.248361784057941
40
0.248361784057941
40
0.331628925259179
40
0.331628925259179
40
0.498795398253557
40
0.498795398253557
40
1
40
1
40
1
40
1
41
1
10
0.394519052837495
20
12.0587239255499
30
0
41
1
10
0.401407235506724
20
12.0648424056649
30
0
41
1
10
0.408544697677399
20
12.070343651735
30
0
41
1
10
0.421514755084559
20
12.0781439299216
30
0
41
1
10
0.427458052513941
20
12.0808667522932
30
0
41
1
10
0.439248001676845
20
12.0840053804978
30
0
41
1
10
0.445168200056514
20
12.0841510432408
30
0
41
1
10
0.455278961679198
20
12.0813734192935
30
0
41
1
10
0.459626867429449
20
12.0784732242377
30
0
41
1
10
0.468187595030344
20
12.0690435467857
30
0
41
1
10
0.471734054092423
20
12.0614113266723
30
0
41
1
10
0.477335309886371
20
12.0421441243299
30
0
41
1
10
0.478823564742811
20
12.0297560866315
30
0
41
1
10
0.48032821113037
20
11.9910078737772
30
0
41
1
10
0.477511563270326
20
11.9625698658215
30
0
41
1
10
0.459335522461714
20
11.8486538266279
30
0
41
1
10
0.430483129886539
20
11.7568783680756
30
0
41
1
10
0.394519052838405
20
11.6678057336411
30
0
0
SPLINE
5
16A
100
AcDbEntity
8
1
62
256
6
ByLayer
370
18
48
1
60
0
100
AcDbSpline
70
4
71
3
72
8
73
4
40
0
40
0
40
0
40
0
40
1
40
1
40
1
40
1
41
1
10
-0.249980947156928
20
11.484029721648
30
0
41
1
10
-0.0354719232411469
20
11.6760784149013
30
0
41
1
10
0.179376718804036
20
11.8676221276023
30
0
41
1
10
0.394519052838319
20
12.0587239255453
30
0
0
SPLINE
5
16B
100
AcDbEntity
8
1
62
256
6
ByLayer
370
18
48
1
60
0
100
AcDbSpline
70
4
71
3
72
8
73
4
40
0
40
0
40
0
40
0
40
1
40
1
40
1
40
1
41
1
10
0.394519052838319
20
-12.0587239255453
30
0
41
1
10
0.179376718802445
20
-11.8676221276009
30
0
41
1
10
-0.0354719232443017
20
-11.6760784148985
30
0
41
1
10
-0.249980947161674
20
-11.4840297216438
30
0
0
SPLINE
5
16C
100
AcDbEntity
8
1
62
256
6
ByLayer
370
18
48
1
60
0
100
AcDbSpline
70
4
71
3
72
20
73
16
40
0
40
0
40
0
40
0
40
0.0552860600056068
40
0.0552860600056068
40
0.348773465083586
40
0.348773465083586
40
0.518900377773551
40
0.518900377773551
40
0.63507609958682
40
0.63507609958682
40
0.75160659051264
40
0.75160659051264
40
0.907188354431967
40
0.907188354431967
40
1
40
1
40
1
40
1
41
1
10
-0.324980947161748
20
11.5311526233309
30
0
41
1
10
-0.324980947161748
20
11.5283967548234
30
0
41
1
10
-0.324936716878227
20
11.5256666156451
30
0
41
1
10
-0.324352679274114
20
11.5087533439068
30
0
41
1
10
-0.322555386335125
20
11.4951060717701
30
0
41
1
10
-0.315792857243622
20
11.4774722089602
30
0
41
1
10
-0.312376862099882
20
11.4717480606215
30
0
41
1
10
-0.304653008195629
20
11.4650920419126
30
0
41
1
10
-0.300889389363732
20
11.4631954574238
30
0
41
1
10
-0.29241469879662
20
11.4616884824179
30
0
41
1
10
-0.287599381147743
20
11.4620830475688
30
0
41
1
10
-0.276018382009085
20
11.4654915057364
30
0
41
1
10
-0.268948085438382
20
11.4693477502519
30
0
41
1
10
-0.258035856448686
20
11.4771421000847
30
0
41
1
10
-0.25396600949486
20
11.4804619182948
30
0
41
1
10
-0.2499809471567
20
11.4840297216472
30
0
0
SPLINE
5
16D
100
AcDbEntity
8
1
62
256
6
ByLayer
370
18
48
1
60
0
100
AcDbSpline
70
4
71
3
72
20
73
16
40
0
40
0
40
0
40
0
40
0.0063867444033552
40
0.0063867444033552
40
0.173667346529276
40
0.173667346529276
40
0.289935115032413
40
0.289935115032413
40
0.406491380114551
40
0.406491380114551
40
0.561074474282097
40
0.561074474282097
40
0.713392189266378
40
0.713392189266378
40
1
40
1
40
1
40
1
41
1
10
-0.249980947161674
20
-11.4840297216438
30
0
41
1
10
-0.250256991586895
20
-11.4837825806603
30
0
41
1
10
-0.250533373803762
20
-11.4835366918245
30
0
41
1
10
-0.257981340052709
20
-11.4769530343168
30
0
41
1
10
-0.265506204224351
20
-11.471377328742
30
0
41
1
10
-0.2780183803726
20
-11.4648890390718
30
0
41
1
10
-0.283178299023206
20
-11.463052694229
30
0
41
1
10
-0.29273241860659
20
-11.46168920021
30
0
41
1
10
-0.297228048412649
20
-11.4621654537654
30
0
41
1
10
-0.306192211150687
20
-11.4657232178889
30
0
41
1
10
-0.31035458295878
20
-11.4696128561097
30
0
41
1
10
-0.316698776429661
20
-11.4793120003969
30
0
41
1
10
-0.319015300149232
20
-11.4851777100478
30
0
41
1
10
-0.3238633943661
20
-11.5033410300966
30
0
41
1
10
-0.324980947161691
20
-11.5170039624523
30
0
41
1
10
-0.324980947161691
20
-11.531152623331
30
0
0
SPLINE
5
16E
100
AcDbEntity
8
1
62
256
6
ByLayer
370
18
48
1
60
0
100
AcDbSpline
70
4
71
3
72
10
73
6
40
0
40
0
40
0
40
0
40
0.285679097820292
40
0.285679097820292
40
1
40
1
40
1
40
1
41
1
10
-0.324980947161691
20
-11.7904053433558
30
0
41
1
10
-0.324980947160384
20
-11.8145602682299
30
0
41
1
10
-0.321515027831708
20
-11.8408730355727
30
0
41
1
10
-0.303449618178149
20
-11.9334098764061
30
0
41
1
10
-0.279771282393796
20
-12.0034758815138
30
0
41
1
10
-0.249980947161816
20
-12.0715924641049
30
0
0
SPLINE
5
16F
100
AcDbEntity
8
1
62
256
6
ByLayer
370
18
48
1
60
0
100
AcDbSpline
70
4
71
3
72
12
73
8
40
0
40
0
40
0
40
0
40
0.088942727594187
40
0.088942727594187
40
0.735806907534196
40
0.735806907534196
40
1
40
1
40
1
40
1
41
1
10
-0.249980947161674
20
12.0715924641049
30
0
41
1
10
-0.253732321678058
20
12.0630148227294
30
0
41
1
10
-0.257370294636416
20
12.0544237103285
30
0
41
1
10
-0.286254819875012
20
11.9839538680773
30
0
41
1
10
-0.306512406767837
20
11.9207983977665
30
0
41
1
10
-0.322013991291442
20
11.8368161077743
30
0
41
1
10
-0.324980947160498
20
11.8126853032388
30
0
41
1
10
-0.324980947161691
20
11.7904053433559
30
0
0
SPLINE
5
170
100
AcDbEntity
8
1
62
256
6
ByLayer
370
18
48
1
60
0
100
AcDbSpline
70
4
71
3
72
8
73
4
40
0
40
0
40
0
40
0
40
1
40
1
40
1
40
1
41
1
10
-0.249980947161674
20
-12.0715924641049
30
0
41
1
10
-0.0432521656405527
20
-12.5442846312381
30
0
41
1
10
0.171949580535255
20
-13.0121368755999
30
0
41
1
10
0.394519052838319
20
-13.4751387226224
30
0
0
SPLINE
5
171
100
AcDbEntity
8
1
62
256
6
ByLayer
370
18
48
1
60
0
100
AcDbSpline
70
4
71
3
72
8
73
4
40
0
40
0
40
0
40
0
40
1
40
1
40
1
40
1
41
1
10
0.394519052838348
20
13.4751387226224
30
0
41
1
10
0.171949580535255
20
13.0121368755999
30
0
41
1
10
-0.0432521656405527
20
12.5442846312381
30
0
41
1
10
-0.249980947161674
20
12.0715924641049
30
0
0
SPLINE
5
172
100
AcDbEntity
8
1
62
256
6
ByLayer
370
18
48
1
60
0
100
AcDbSpline
70
4
71
3
72
22
73
18
40
0
40
0
40
0
40
0
40
0.251270548957428
40
0.251270548957428
40
0.534593015835276
40
0.534593015835276
40
0.679926851597499
40
0.679926851597499
40
0.764459918400844
40
0.764459918400844
40
0.817650799464652
40
0.817650799464652
40
0.88130517599167
40
0.88130517599167
40
0.95287370405781
40
0.95287370405781
40
1
40
1
40
1
40
1
41
1
10
0.394519052838319
20
-13.4751387226224
30
0
41
1
10
0.41319148554939
20
-13.5139821935808
30
0
41
1
10
0.429712010281719
20
-13.5531632086497
30
0
41
1
10
0.458832898641703
20
-13.6348383150857
30
0
41
1
10
0.471189325371597
20
-13.6781158445143
30
0
41
1
10
0.479580583515599
20
-13.7378308605805
30
0
41
1
10
0.48064238353237
20
-13.757495486281
30
0
41
1
10
0.476619192818191
20
-13.7836945326192
30
0
41
1
10
0.473826613574488
20
-13.7924347121206
30
0
41
1
10
0.466205691132899
20
-13.8029125601754
30
0
41
1
10
0.462433556843877
20
-13.8060851787374
30
0
41
1
10
0.452482540149731
20
-13.8100792275569
30
0
41
1
10
0.445779837153935
20
-13.8103295555129
30
0
41
1
10
0.430373128901039
20
-13.8066613599842
30
0
41
1
10
0.421281087343544
20
-13.8022248830213
30
0
41
1
10
0.406392393543172
20
-13.7924921524683
30
0
41
1
10
0.400407440124866
20
-13.7879482596185
30
0
41
1
10
0.394519052838263
20
-13.7830022040413
30
0
0
SPLINE
5
173
100
AcDbEntity
8
1
62
256
6
ByLayer
370
18
48
1
60
0
100
AcDbSpline
70
4
71
3
72
22
73
18
40
0
40
0
40
0
40
0
40
0.0466908386639445
40
0.0466908386639445
40
0.100238713725582
40
0.100238713725582
40
0.155521856731983
40
0.155521856731983
40
0.210612461913126
40
0.210612461913126
40
0.297901923826577
40
0.297901923826577
40
0.383763695369449
40
0.383763695369449
40
0.591315675635359
40
0.591315675635359
40
1
40
1
40
1
40
1
41
1
10
0.394519052838263
20
13.7830022040413
30
0
41
1
10
0.400377184476099
20
13.7879228458484
30
0
41
1
10
0.406330653686638
20
13.7924452721931
30
0
41
1
10
0.419014903663992
20
13.8007508484983
30
0
41
1
10
0.425834787815063
20
13.8043777070099
30
0
41
1
10
0.438887830944566
20
13.8091114815384
30
0
41
1
10
0.445237655013415
20
13.8101551818682
30
0
41
1
10
0.456191273611552
20
13.809094012914
30
0
41
1
10
0.460937156483766
20
13.8069973096748
30
0
41
1
10
0.470674894339083
20
13.7985758785161
30
0
41
1
10
0.474504984859635
20
13.7904363713798
30
0
41
1
10
0.478936632261423
20
13.7718681323131
30
0
41
1
10
0.479685312974482
20
13.7612545395208
30
0
41
1
10
0.479020166223251
20
13.7233281344957
30
0
41
1
10
0.473334413977796
20
13.6928941937859
30
0
41
1
10
0.449719995926529
20
13.6019684752477
30
0
41
1
10
0.424646137110159
20
13.537810820098
30
0
41
1
10
0.394519052838348
20
13.4751387226224
30
0
0
SPLINE
5
174
100
AcDbEntity
8
1
62
256
6
ByLayer
370
18
48
1
60
0
100
AcDbSpline
70
4
71
3
72
22
73
18
40
0
40
0
40
0
40
0
40
0.127559405336712
40
0.127559405336712
40
0.327986230851634
40
0.327986230851634
40
0.467707413044739
40
0.467707413044739
40
0.562713981674372
40
0.562713981674372
40
0.660861201573962
40
0.660861201573962
40
0.758749604467219
40
0.758749604467219
40
0.874084022311248
40
0.874084022311248
40
1
40
1
40
1
40
1
41
1
10
0.394519052838319
20
-18.9665337194095
30
0
41
1
10
0.405069342058368
20
-18.9792362127656
30
0
41
1
10
0.415161619635597
20
-18.991810209205
30
0
41
1
10
0.439150605509923
20
-19.0229735339849
30
0
41
1
10
0.452312179135305
20
-19.0413831406079
30
0
41
1
10
0.469080689864342
20
-19.0683569742697
30
0
41
1
10
0.474491450762656
20
-19.0784411230919
30
0
41
1
10
0.479243670162276
20
-19.0914514336448
30
0
41
1
10
0.47998134759851
20
-19.0957125871646
30
0
41
1
10
0.478435552420308
20
-19.1012474269685
30
0
41
1
10
0.476006752088352
20
-19.1024598477094
30
0
41
1
10
0.468095734107891
20
-19.101283259894
30
0
41
1
10
0.462528071759067
20
-19.0988968618313
30
0
41
1
10
0.448209776137389
20
-19.0906298674871
30
0
41
1
10
0.438890545081364
20
-19.0841235895218
30
0
41
1
10
0.418176857745408
20
-19.0681748502726
30
0
41
1
10
0.406440638881719
20
-19.058361787202
30
0
41
1
10
0.394519052838348
20
-19.0478637127897
30
0
0
SPLINE
5
175
100
AcDbEntity
8
1
62
256
6
ByLayer
370
18
48
1
60
0
100
AcDbSpline
70
4
71
3
72
22
73
18
40
0
40
0
40
0
40
0
40
0.0622412102062521
40
0.0622412102062521
40
0.195659607509336
40
0.195659607509336
40
0.290009856559985
40
0.290009856559985
40
0.390220094917112
40
0.390220094917112
40
0.48998742750967
40
0.48998742750967
40
0.612429147093309
40
0.612429147093309
40
0.768739873212956
40
0.768739873212956
40
1
40
1
40
1
40
1
41
1
10
0.394519052838348
20
19.0478637127897
30
0
41
1
10
0.400467282736884
20
19.0531016869878
30
0
41
1
10
0.406349975501371
20
19.0581528057297
30
0
41
1
10
0.424289354222509
20
19.0730851976249
30
0
41
1
10
0.436077878689758
20
19.0821858184231
30
0
41
1
10
0.453418354473371
20
19.093819438838
30
0
41
1
10
0.459912467712911
20
19.0975657756679
30
0
41
1
10
0.470579582894913
20
19.1020486388594
30
0
41
1
10
0.47470272290883
20
19.1026167949237
30
0
41
1
10
0.479371180450983
20
19.1000659104202
30
0
41
1
10
0.480008141173357
20
19.0969460698151
30
0
41
1
10
0.478078074440106
20
19.0869824154913
30
0
41
1
10
0.474773250038254
20
19.0793494160292
30
0
41
1
10
0.463946549333485
20
19.0594843603781
30
0
41
1
10
0.455401046253286
20
19.0463016403559
30
0
41
1
10
0.431101708324377
20
19.0119418081171
30
0
41
1
10
0.413465933239877
20
18.9893456648831
30
0
41
1
10
0.394519052838319
20
18.9665337194095
30
0
0
SPLINE
5
176
100
AcDbEntity
8
1
62
256
6
ByLayer
370
18
48
1
60
0
100
AcDbSpline
70
4
71
3
72
8
73
4
40
0
40
0
40
0
40
0
40
1
40
1
40
1
40
1
41
1
10
0.394519052838319
20
-19.0478637127897
30
0
41
1
10
0.179515431750104
20
-18.8585328632802
30
0
41
1
10
-0.0353231021630336
20
-18.6689517405164
30
0
41
1
10
-0.249980947161618
20
-18.4790984828195
30
0
0
SPLINE
5
177
100
AcDbEntity
8
1
62
256
6
ByLayer
370
18
48
1
60
0
100
AcDbSpline
70
4
71
3
72
16
73
12
40
0
40
0
40
0
40
0
40
0.157598113550064
40
0.157598113550064
40
0.444401955838457
40
0.444401955838457
40
0.65095871124921
40
0.65095871124921
40
0.86651383643262
40
0.86651383643262
40
1
40
1
40
1
40
1
41
1
10
-0.249980947161618
20
-18.4790984828195
30
0
41
1
10
-0.256106086114272
20
-18.4736811285923
30
0
41
1
10
-0.262152749599949
20
-18.468480928254
30
0
41
1
10
-0.2785889831448
20
-18.4548372634454
30
0
41
1
10
-0.288756525284896
20
-18.4470005601332
30
0
41
1
10
-0.303688565114982
20
-18.4369569413666
30
0
41
1
10
-0.309279846461863
20
-18.4337254422995
30
0
41
1
10
-0.318216582379961
20
-18.4299862515422
30
0
41
1
10
-0.321550596668487
20
-18.4295752046318
30
0
41
1
10
-0.324439682614724
20
-18.4314442096527
30
0
41
1
10
-0.324980947161663
20
-18.4327557184459
30
0
41
1
10
-0.324980947161663
20
-18.4345773721769
30
0
0
SPLINE
5
178
100
AcDbEntity
8
1
62
256
6
ByLayer
370
18
48
1
60
0
100
AcDbSpline
70
4
71
3
72
8
73
4
40
0
40
0
40
0
40
0
40
1
40
1
40
1
40
1
41
1
10
-0.249980947161618
20
18.4790984828195
30
0
41
1
10
-0.0353231021630336
20
18.6689517405164
30
0
41
1
10
0.179515431750133
20
18.8585328632802
30
0
41
1
10
0.394519052838319
20
19.0478637127897
30
0
0
SPLINE
5
179
100
AcDbEntity
8
1
62
256
6
ByLayer
370
18
48
1
60
0
100
AcDbSpline
70
4
71
3
72
16
73
12
40
0
40
0
40
0
40
0
40
0.0418527781591019
40
0.0418527781591019
40
0.256863904099711
40
0.256863904099711
40
0.471283227894262
40
0.471283227894262
40
0.72364817618617
40
0.72364817618617
40
1
40
1
40
1
40
1
41
1
10
-0.324980947161663
20
18.4345773721769
30
0
41
1
10
-0.324980947161663
20
18.4340003777338
30
0
41
1
10
-0.324927422014866
20
18.4334745735416
30
0
41
1
10
-0.324268066293257
20
18.4306115705361
30
0
41
1
10
-0.322226378270784
20
18.4296419897003
30
0
41
1
10
-0.315369217788998
20
18.4308858315127
30
0
41
1
10
-0.310480736674833
20
18.4330991910473
30
0
41
1
10
-0.297839929178764
20
18.4406231881072
30
0
41
1
10
-0.289577112777067
20
18.4464866100013
30
0
41
1
10
-0.271137086120035
20
18.4608380910637
30
0
41
1
10
-0.260647131689012
20
18.4696648193085
30
0
41
1
10
-0.249980947161618
20
18.4790984828195
30
0
0
SPLINE
5
17A
100
AcDbEntity
8
1
62
256
6
ByLayer
370
18
48
1
60
0
100
AcDbSpline
70
4
71
3
72
14
73
10
40
0
40
0
40
0
40
0
40
0.10873675919575
40
0.10873675919575
40
0.350319805173773
40
0.350319805173773
40
0.669890038091977
40
0.669890038091977
40
1
40
1
40
1
40
1
41
1
10
-0.324980947161691
20
-18.4837089376594
30
0
41
1
10
-0.324980947161691
20
-18.4853296001057
30
0
41
1
10
-0.324513048260883
20
-18.4874072150517
30
0
41
1
10
-0.321700075490497
20
-18.4952410127669
30
0
41
1
10
-0.317719790178245
20
-18.5025161150046
30
0
41
1
10
-0.305552123339368
20
-18.5215548747788
30
0
41
1
10
-0.2962752852942
20
-18.5342817516763
30
0
41
1
10
-0.275087583143147
20
-18.5614192068616
30
0
41
1
10
-0.26288600857157
20
-18.5761534827952
30
0
41
1
10
-0.249980947161674
20
-18.591105468188
30
0
0
SPLINE
5
17B
100
AcDbEntity
8
1
62
256
6
ByLayer
370
18
48
1
60
0
100
AcDbSpline
70
4
71
3
72
8
73
4
40
0
40
0
40
0
40
0
40
1
40
1
40
1
40
1
41
1
10
-0.249980947161674
20
-18.591105468188
30
0
41
1
10
-0.0361927547921823
20
-18.8388034703858
30
0
41
1
10
0.178675800779445
20
-19.0852634005435
30
0
41
1
10
0.394519052838319
20
-19.3305735632813
30
0
0
SPLINE
5
17C
100
AcDbEntity
8
1
62
256
6
ByLayer
370
18
48
1
60
0
100
AcDbSpline
70
4
71
3
72
22
73
18
40
0
40
0
40
0
40
0
40
0.10514489570861
40
0.10514489570861
40
0.298307607607473
40
0.298307607607473
40
0.435744200455791
40
0.435744200455791
40
0.533157893058118
40
0.533157893058118
40
0.63614046992342
40
0.63614046992342
40
0.73871082647614
40
0.73871082647614
40
0.860726116280243
40
0.860726116280243
40
1
40
1
40
1
40
1
41
1
10
0.394519052838319
20
-19.3305735632813
30
0
41
1
10
0.403369760680221
20
-19.3406325693439
30
0
41
1
10
0.411919389072295
20
-19.3505600857198
30
0
41
1
10
0.434731664003578
20
-19.3777342144498
30
0
41
1
10
0.448202557756929
20
-19.3946397406734
30
0
41
1
10
0.466128095342782
20
-19.4193805689441
30
0
41
1
10
0.472196796096199
20
-19.4286342035027
30
0
41
1
10
0.478361186172009
20
-19.4405579019228
30
0
41
1
10
0.479704863514286
20
-19.444434568753
30
0
41
1
10
0.479279537266876
20
-19.4491748507183
30
0
41
1
10
0.4772976056787
20
-19.449890463539
30
0
41
1
10
0.470057704623116
20
-19.4476437428617
30
0
41
1
10
0.464731732953453
20
-19.444681386161
30
0
41
1
10
0.450697879782325
20
-19.4351924715455
30
0
41
1
10
0.441368022924166
20
-19.4279999529528
30
0
41
1
10
0.41992982412907
20
-19.4103090855874
30
0
41
1
10
0.407363102370624
20
-19.3992963714466
30
0
41
1
10
0.394519052838348
20
-19.3876104526855
30
0
0
SPLINE
5
17D
100
AcDbEntity
8
1
62
256
6
ByLayer
370
18
48
1
60
0
100
AcDbSpline
70
4
71
3
72
14
73
10
40
0
40
0
40
0
40
0
40
0.258190055419753
40
0.258190055419753
40
0.616497064434434
40
0.616497064434434
40
0.841579771705199
40
0.841579771705199
40
1
40
1
40
1
40
1
41
1
10
-0.249980947161674
20
18.591105468188
30
0
41
1
10
-0.26010894588569
20
18.5793710266251
30
0
41
1
10
-0.269784604658469
20
18.5677927070637
30
0
41
1
10
-0.290950658335362
20
18.5413857722147
30
0
41
1
10
-0.301990526231776
20
18.5266661591476
30
0
41
1
10
-0.315479701706124
20
18.5062205486188
30
0
41
1
10
-0.319670166986043
20
18.4990526114348
30
0
41
1
10
-0.323992548254864
20
18.4893700128427
30
0
41
1
10
-0.324980947161777
20
18.4860553308189
30
0
41
1
10
-0.324980947161777
20
18.4837089376593
30
0
0
SPLINE
5
17E
100
AcDbEntity
8
1
62
256
6
ByLayer
370
18
48
1
60
0
100
AcDbSpline
70
4
71
3
72
8
73
4
40
0
40
0
40
0
40
0
40
1
40
1
40
1
40
1
41
1
10
0.394519052838319
20
19.3305735632813
30
0
41
1
10
0.178675800779445
20
19.0852634005435
30
0
41
1
10
-0.0361927547921823
20
18.8388034703858
30
0
41
1
10
-0.249980947161674
20
18.591105468188
30
0
0
SPLINE
5
17F
100
AcDbEntity
8
1
62
256
6
ByLayer
370
18
48
1
60
0
100
AcDbSpline
70
4
71
3
72
22
73
18
40
0
40
0
40
0
40
0
40
0.0953402962722936
40
0.0953402962722936
40
0.231514277628934
40
0.231514277628934
40
0.328884977266644
40
0.328884977266644
40
0.432272080755363
40
0.432272080755363
40
0.535211010952955
40
0.535211010952955
40
0.660214959475276
40
0.660214959475276
40
0.822952922777393
40
0.822952922777393
40
1
40
1
40
1
40
1
41
1
10
0.394519052838319
20
19.3876104526855
30
0
41
1
10
0.403367268603091
20
19.3956608366666
30
0
41
1
10
0.412055391539724
20
19.4033666625409
30
0
41
1
10
0.432077623030921
20
19.4205240032207
30
0
41
1
10
0.44322350167937
20
19.4295379618711
30
0
41
1
10
0.459205803319236
20
19.4411209722358
30
0
41
1
10
0.465050569748286
20
19.4448670138593
30
0
41
1
10
0.474169203566362
20
19.4493361027783
30
0
41
1
10
0.477360526903539
20
19.4498921369933
30
0
41
1
10
0.480069149940675
20
19.4473170429572
30
0
41
1
10
0.479653035455527
20
19.4441839844956
30
0
41
1
10
0.475421843041488
20
19.4342379979462
30
0
41
1
10
0.470882718266608
20
19.426675279175
30
0
41
1
10
0.457281753137437
20
19.4067710602393
30
0
41
1
10
0.447107157831027
20
19.3934031678982
30
0
41
1
10
0.423368445185702
20
19.3639518224561
30
0
41
1
10
0.409331277986524
20
19.3474079527141
30
0
41
1
10
0.394519052838319
20
19.3305735632813
30
0
0
SPLINE
5
180
100
AcDbEntity
8
1
62
256
6
ByLayer
370
18
48
1
60
0
100
AcDbSpline
70
4
71
3
72
8
73
4
40
0
40
0
40
0
40
0
40
1
40
1
40
1
40
1
41
1
10
0.394519052838319
20
-19.3876104526855
30
0
41
1
10
0.179435695072158
20
-19.1919208736785
30
0
41
1
10
-0.0354053390300066
20
-18.9958755564109
30
0
41
1
10
-0.249980947161646
20
-18.7994441682815
30
0
0
SPLINE
5
181
100
AcDbEntity
8
1
62
256
6
ByLayer
370
18
48
1
60
0
100
AcDbSpline
70
4
71
3
72
16
73
12
40
0
40
0
40
0
40
0
40
0.127394081509941
40
0.127394081509941
40
0.43925303425772
40
0.43925303425772
40
0.650047445737467
40
0.650047445737467
40
0.864460922969191
40
0.864460922969191
40
1
40
1
40
1
40
1
41
1
10
-0.249980947161646
20
-18.7994441682815
30
0
41
1
10
-0.254931686345799
20
-18.7949120568329
30
0
41
1
10
-0.259817105513093
20
-18.7905043015337
30
0
41
1
10
-0.276151502418344
20
-18.7760176514694
30
0
41
1
10
-0.287247409224562
20
-18.7666264327003
30
0
41
1
10
-0.303064858151373
20
-18.7543120858566
30
0
41
1
10
-0.308794670342337
20
-18.7502031890134
30
0
41
1
10
-0.317905446317781
20
-18.7446259593932
30
0
41
1
10
-0.32133350260375
20
-18.7431592438304
30
0
41
1
10
-0.324389759541361
20
-18.7433410170541
30
0
41
1
10
-0.324980947161691
20
-18.7440308292307
30
0
41
1
10
-0.324980947161691
20
-18.7452914556606
30
0
0
SPLINE
5
182
100
AcDbEntity
8
1
62
256
6
ByLayer
370
18
48
1
60
0
100
AcDbSpline
70
4
71
3
72
8
73
4
40
0
40
0
40
0
40
0
40
1
40
1
40
1
40
1
41
1
10
-0.249980947161646
20
18.7994441682815
30
0
41
1
10
-0.0354053390300066
20
18.9958755564109
30
0
41
1
10
0.179435695072158
20
19.1919208736785
30
0
41
1
10
0.394519052838319
20
19.3876104526855
30
0
0
SPLINE
5
183
100
AcDbEntity
8
1
62
256
6
ByLayer
370
18
48
1
60
0
100
AcDbSpline
70
4
71
3
72
16
73
12
40
0
40
0
40
0
40
0
40
0.0009714906707063
40
0.0009714906707063
40
0.221168369327508
40
0.221168369327508
40
0.440436645732835
40
0.440436645732835
40
0.70124806461653
40
0.70124806461653
40
1
40
1
40
1
40
1
41
1
10
-0.324980947161691
20
18.745292756394
30
0
41
1
10
-0.324980947189914
20
18.7452827553927
30
0
41
1
10
-0.324980913780934
20
18.7452727544558
30
0
41
1
10
-0.32496715634818
20
18.7432328414874
30
0
41
1
10
-0.323350193953189
20
18.7427387467689
30
0
41
1
10
-0.317132842041701
20
18.7450024743643
30
0
41
1
10
-0.312476341900009
20
18.7477630003535
30
0
41
1
10
-0.300112173260857
20
18.7564474029675
30
0
41
1
10
-0.291842372129139
20
18.7629627881616
30
0
41
1
10
-0.27274511689015
20
18.7789567898548
30
0
41
1
10
-0.261494955800998
20
18.7889037684679
30
0
41
1
10
-0.249980947161646
20
18.7994441682815
30
0
0
SPLINE
5
184
100
AcDbEntity
8
1
62
256
6
ByLayer
370
18
48
1
60
0
100
AcDbSpline
70
4
71
3
72
14
73
10
40
0
40
0
40
0
40
0
40
0.120002432612604
40
0.120002432612604
40
0.355586369781076
40
0.355586369781076
40
0.656282867703152
40
0.656282867703152
40
1
40
1
40
1
40
1
41
1
10
-0.324980947161691
20
-18.7775181327357
30
0
41
1
10
-0.324980947161691
20
-18.7786584117216
30
0
41
1
10
-0.324428650116829
20
-18.7803450580268
30
0
41
1
10
-0.321352421029132
20
-18.7866649098365
30
0
41
1
10
-0.317392142331499
20
-18.7926710282901
30
0
41
1
10
-0.305613274085545
20
-18.8086141717859
30
0
41
1
10
-0.296892621046084
20
-18.8193910513108
30
0
41
1
10
-0.276030574832305
20
-18.8439756527439
30
0
41
1
10
-0.263338820378635
20
-18.8582893690387
30
0
41
1
10
-0.249980947161703
20
-18.8729219314524
30
0
0
SPLINE
5
185
100
AcDbEntity
8
1
62
256
6
ByLayer
370
18
48
1
60
0
100
AcDbSpline
70
4
71
3
72
8
73
4
40
0
40
0
40
0
40
0
40
1
40
1
40
1
40
1
41
1
10
-0.249980947161674
20
-18.8729219314524
30
0
41
1
10
-0.0359614008632434
20
-19.107364519588
30
0
41
1
10
0.178898499370177
20
-19.3407877832485
30
0
41
1
10
0.394519052838319
20
-19.5732661362727
30
0
0
SPLINE
5
186
100
AcDbEntity
8
1
62
256
6
ByLayer
370
18
48
1
60
0
100
AcDbSpline
70
4
71
3
72
22
73
18
40
0
40
0
40
0
40
0
40
0.0172355665981015
40
0.0172355665981015
40
0.222679234227531
40
0.222679234227531
40
0.369301798942522
40
0.369301798942522
40
0.469383244032438
40
0.469383244032438
40
0.5737195695443
40
0.5737195695443
40
0.695596486029299
40
0.695596486029299
40
0.815989750291893
40
0.815989750291893
40
1
40
1
40
1
40
1
41
1
10
0.394519052838319
20
-19.5732661362727
30
0
41
1
10
0.396002601605744
20
-19.5748656729056
30
0
41
1
10
0.397477790285393
20
-19.5764597740584
30
0
41
1
10
0.416220755024483
20
-19.5967603254278
30
0
41
1
10
0.432532260264679
20
-19.6149413522761
30
0
41
1
10
0.455704724347839
20
-19.6420198321359
30
0
41
1
10
0.464129371680912
20
-19.6523239720989
30
0
41
1
10
0.474149065920415
20
-19.6657888256828
30
0
41
1
10
0.477116672473556
20
-19.670261905694
30
0
41
1
10
0.480012512677206
20
-19.6762697358643
30
0
41
1
10
0.479815740541426
20
-19.6777206789852
30
0
41
1
10
0.475553595880399
20
-19.6768417740547
30
0
41
1
10
0.470772988438711
20
-19.6738246235832
30
0
41
1
10
0.457909406447215
20
-19.6640228598805
30
0
41
1
10
0.449722798093148
20
-19.6571907214259
30
0
41
1
10
0.427013834417494
20
-19.6373494781872
30
0
41
1
10
0.411004210521298
20
-19.6226435459929
30
0
41
1
10
0.394519052838348
20
-19.6070845897382
30
0
0
SPLINE
5
187
100
AcDbEntity
8
1
62
256
6
ByLayer
370
18
48
1
60
0
100
AcDbSpline
70
4
71
3
72
14
73
10
40
0
40
0
40
0
40
0
40
0.297265725626991
40
0.297265725626991
40
0.62688260509844
40
0.62688260509844
40
0.847763334255443
40
0.847763334255443
40
1
40
1
40
1
40
1
41
1
10
-0.249980947161674
20
18.8729219314524
30
0
41
1
10
-0.261563366904625
20
18.8602342470406
30
0
41
1
10
-0.27262569282604
20
18.8478075590943
30
0
41
1
10
-0.29363493836189
20
18.8233577437334
30
0
41
1
10
-0.303571400409197
20
18.8112400727183
30
0
41
1
10
-0.316086301444784
20
18.7945143648086
30
0
41
1
10
-0.320085170366042
20
18.7886343239383
30
0
41
1
10
-0.324094494362413
20
18.7812765650133
30
0
41
1
10
-0.32498094716172
20
18.7789582062073
30
0
41
1
10
-0.32498094716172
20
18.7775181327357
30
0
0
SPLINE
5
188
100
AcDbEntity
8
1
62
256
6
ByLayer
370
18
48
1
60
0
100
AcDbSpline
70
4
71
3
72
8
73
4
40
0
40
0
40
0
40
0
40
1
40
1
40
1
40
1
41
1
10
0.394519052838319
20
19.5732661362727
30
0
41
1
10
0.178898499370177
20
19.3407877832485
30
0
41
1
10
-0.035961400863215
20
19.107364519588
30
0
41
1
10
-0.249980947161674
20
18.8729219314524
30
0
0
SPLINE
5
189
100
AcDbEntity
8
1
62
256
6
ByLayer
370
18
48
1
60
0
100
AcDbSpline
70
4
71
3
72
22
73
18
40
0
40
0
40
0
40
0
40
0.07142431374457
40
0.07142431374457
40
0.225215266483105
40
0.225215266483105
40
0.326891473714789
40
0.326891473714789
40
0.429041369165652
40
0.429041369165652
40
0.54993100323304
40
0.54993100323304
40
0.669417159897671
40
0.669417159897671
40
0.820049628415304
40
0.820049628415304
40
1
40
1
40
1
40
1
41
1
10
0.394519052838319
20
19.6070845897382
30
0
41
1
10
0.40101751619369
20
19.6132179436929
30
0
41
1
10
0.407406617666112
20
19.6191858263395
30
0
41
1
10
0.426817933884166
20
19.6370893239844
30
0
41
1
10
0.439394170264905
20
19.6483415240208
30
0
41
1
10
0.456925623916646
20
19.6631634576382
30
0
41
1
10
0.463133821277154
20
19.668134458301
30
0
41
1
10
0.472790710641732
20
19.6750887404331
30
0
41
1
10
0.476315299614953
20
19.6771134940703
30
0
41
1
10
0.480188554744359
20
19.677644640058
30
0
41
1
10
0.479894856114441
20
19.6754367573932
30
0
41
1
10
0.475072563088048
20
19.6670161325704
30
0
41
1
10
0.47057350034612
20
19.6607747415594
30
0
41
1
10
0.457404667806912
20
19.6440343108134
30
0
41
1
10
0.447800441616408
20
19.6326356334644
30
0
41
1
10
0.424374574627223
20
19.6058371726624
30
0
41
1
10
0.409811528179091
20
19.5897542188033
30
0
41
1
10
0.394519052838319
20
19.5732661362727
30
0
0
SPLINE
5
18A
100
AcDbEntity
8
1
62
256
6
ByLayer
370
18
48
1
60
0
100
AcDbSpline
70
4
71
3
72
8
73
4
40
0
40
0
40
0
40
0
40
1
40
1
40
1
40
1
41
1
10
0.394519052838319
20
-19.6070845897382
30
0
41
1
10
0.179338716638313
20
-19.4039939367894
30
0
41
1
10
-0.0355054703228177
20
-19.2004273056163
30
0
41
1
10
-0.249980947161646
20
-18.996344946724
30
0
0
SPLINE
5
18B
100
AcDbEntity
8
1
62
256
6
ByLayer
370
18
48
1
60
0
100
AcDbSpline
70
4
71
3
72
16
73
12
40
0
40
0
40
0
40
0
40
0.091037725534552
40
0.091037725534552
40
0.42980903267859
40
0.42980903267859
40
0.646848138943224
40
0.646848138943224
40
0.86141021543739
40
0.86141021543739
40
1
40
1
40
1
40
1
41
1
10
-0.249980947161646
20
-18.996344946724
30
0
41
1
10
-0.253523035672572
20
-18.9929745018164
30
0
41
1
10
-0.257025127288273
20
-18.9896594829082
30
0
41
1
10
-0.273158673168609
20
-18.9744756675422
30
0
41
1
10
-0.285308014301279
20
-18.9633045368532
30
0
41
1
10
-0.302205353360648
20
-18.948377336511
30
0
41
1
10
-0.308151744827654
20
-18.9433083907631
30
0
41
1
10
-0.317530949447644
20
-18.9358131165477
30
0
41
1
10
-0.321075737587165
20
-18.9332952075859
30
0
41
1
10
-0.324330331133837
20
-18.9317536112394
30
0
41
1
10
-0.324980947161663
20
-18.9317902788802
30
0
41
1
10
-0.324980947161663
20
-18.9324657830023
30
0
0
SPLINE
5
18C
100
AcDbEntity
8
1
62
256
6
ByLayer
370
18
48
1
60
0
100
AcDbSpline
70
4
71
3
72
8
73
4
40
0
40
0
40
0
40
0
40
1
40
1
40
1
40
1
41
1
10
-0.249980947161646
20
18.996344946724
30
0
41
1
10
-0.0355054703228177
20
19.2004273056163
30
0
41
1
10
0.179338716638313
20
19.4039939367894
30
0
41
1
10
0.394519052838319
20
19.6070845897382
30
0
0
SPLINE
5
18D
100
AcDbEntity
8
1
62
256
6
ByLayer
370
18
48
1
60
0
100
AcDbSpline
70
4
71
3
72
14
73
10
40
0
40
0
40
0
40
0
40
0.112675162322477
40
0.112675162322477
40
0.36947985224109
40
0.36947985224109
40
0.623065117775557
40
0.623065117775557
40
1
40
1
40
1
40
1
41
1
10
-0.324980947161663
20
18.9324657830023
30
0
41
1
10
-0.324980947161663
20
18.9319121472382
30
0
41
1
10
-0.324546635773032
20
18.9317854442314
30
0
41
1
10
-0.321745200387369
20
18.9327841693733
30
0
41
1
10
-0.317503050570963
20
18.9357832641577
30
0
41
1
10
-0.305986966146861
20
18.9451018737954
30
0
41
1
10
-0.29862157432396
20
18.9514738133814
30
0
41
1
10
-0.278478660367142
20
18.9695223198434
30
0
41
1
10
-0.264453207042152
20
18.9825739880183
30
0
41
1
10
-0.249980947161646
20
18.996344946724
30
0
0
SPLINE
5
18E
100
AcDbEntity
8
1
62
256
6
ByLayer
370
18
48
1
60
0
100
AcDbSpline
70
4
71
3
72
14
73
10
40
0
40
0
40
0
40
0
40
0.130790378576523
40
0.130790378576523
40
0.360317818571484
40
0.360317818571484
40
0.644003006276981
40
0.644003006276981
40
1
40
1
40
1
40
1
41
1
10
-0.324980947161663
20
-18.948426804311
30
0
41
1
10
-0.324980947161663
20
-18.949009886987
30
0
41
1
10
-0.324347328130074
20
-18.9502229466297
30
0
41
1
10
-0.321032947917615
20
-18.9550686613547
30
0
41
1
10
-0.317110238947407
20
-18.9599158421158
30
0
41
1
10
-0.305713688034956
20
-18.9731467356602
30
0
41
1
10
-0.297488943040861
20
-18.982258222303
30
0
41
1
10
-0.276901151739736
20
-19.0045216483307
30
0
41
1
10
-0.263746924048291
20
-19.0184126035241
30
0
41
1
10
-0.249980947161674
20
-19.0327392125282
30
0
0
SPLINE
5
18F
100
AcDbEntity
8
1
62
256
6
ByLayer
370
18
48
1
60
0
100
AcDbSpline
70
4
71
3
72
8
73
4
40
0
40
0
40
0
40
0
40
1
40
1
40
1
40
1
41
1
10
-0.249980947161674
20
-19.0327392125282
30
0
41
1
10
-0.0357767269013607
20
-19.2556670974128
30
0
41
1
10
0.179076567029881
20
-19.4777657699182
30
0
41
1
10
0.394519052838319
20
-19.6990969386236
30
0
0
SPLINE
5
190
100
AcDbEntity
8
1
62
256
6
ByLayer
370
18
48
1
60
0
100
AcDbSpline
70
4
71
3
72
22
73
18
40
0
40
0
40
0
40
0
40
0.0521615637676517
40
0.0521615637676517
40
0.234898420897985
40
0.234898420897985
40
0.36813886745566
40
0.36813886745566
40
0.468276625237954
40
0.468276625237954
40
0.57794385461768
40
0.57794385461768
40
0.686937299351873
40
0.686937299351873
40
0.816615051290926
40
0.816615051290926
40
1
40
1
40
1
40
1
41
1
10
0.394519052838319
20
-19.6990969386236
30
0
41
1
10
0.399081981489076
20
-19.7037845856641
30
0
41
1
10
0.403574803366069
20
-19.7084124807493
30
0
41
1
10
0.423223948449618
20
-19.7287107854745
30
0
41
1
10
0.437615291364438
20
-19.7437403716601
30
0
41
1
10
0.458186022617696
20
-19.7656089110072
30
0
41
1
10
0.465703377530048
20
-19.7737474657015
30
0
41
1
10
0.474960976757046
20
-19.7841536673263
30
0
41
1
10
0.477730464276306
20
-19.7874463129549
30
0
41
1
10
0.48014385392284
20
-19.7909381648345
30
0
41
1
10
0.479477082331755
20
-19.7908403362891
30
0
41
1
10
0.474449755408813
20
-19.7868524943349
30
0
41
1
10
0.470067696986746
20
-19.7829563615644
30
0
41
1
10
0.457726137803974
20
-19.7715463102806
30
0
41
1
10
0.449105460958037
20
-19.7633618003152
30
0
41
1
10
0.42618434721453
20
-19.7413114388715
30
0
41
1
10
0.410642472983938
20
-19.7261505147154
30
0
41
1
10
0.394519052838319
20
-19.710304237967
30
0
0
SPLINE
5
191
100
AcDbEntity
8
1
62
256
6
ByLayer
370
18
48
1
60
0
100
AcDbSpline
70
4
71
3
72
14
73
10
40
0
40
0
40
0
40
0
40
0.331145191006894
40
0.331145191006894
40
0.63556978084691
40
0.63556978084691
40
0.853184633220534
40
0.853184633220534
40
1
40
1
40
1
40
1
41
1
10
-0.249980947161674
20
19.0327392125282
30
0
41
1
10
-0.262806262223847
20
19.0193915746697
30
0
41
1
10
-0.275085496381905
20
19.0064378800684
30
0
41
1
10
-0.295938913574304
20
18.9839687335512
30
0
41
1
10
-0.3049389320297
20
18.974032798766
30
0
41
1
10
-0.316623400770908
20
18.9604902016497
30
0
41
1
10
-0.320453260649515
20
18.9557916746307
30
0
41
1
10
-0.324183520280769
20
18.9505258281276
30
0
41
1
10
-0.324980947161663
20
18.9490797269465
30
0
41
1
10
-0.324980947161663
20
18.948426804311
30
0
0
SPLINE
5
192
100
AcDbEntity
8
1
62
256
6
ByLayer
370
18
48
1
60
0
100
AcDbSpline
70
4
71
3
72
8
73
4
40
0
40
0
40
0
40
0
40
1
40
1
40
1
40
1
41
1
10
0.394519052838319
20
19.6990969386236
30
0
41
1
10
0.179076567029881
20
19.4777657699182
30
0
41
1
10
-0.0357767269013607
20
19.2556670974128
30
0
41
1
10
-0.249980947161674
20
19.0327392125282
30
0
0
SPLINE
5
193
100
AcDbEntity
8
1
62
256
6
ByLayer
370
18
48
1
60
0
100
AcDbSpline
70
4
71
3
72
22
73
18
40
0
40
0
40
0
40
0
40
0.0796154506893558
40
0.0796154506893558
40
0.242774094032917
40
0.242774094032917
40
0.347687864404265
40
0.347687864404265
40
0.448813058912045
40
0.448813058912045
40
0.564000179738307
40
0.564000179738307
40
0.678172050644262
40
0.678172050644262
40
0.817904201748936
40
0.817904201748936
40
1
40
1
40
1
40
1
41
1
10
0.394519052838319
20
19.710304237967
30
0
41
1
10
0.401609156757644
20
19.717272471001
30
0
41
1
10
0.408552992926957
20
19.7240749469017
30
0
41
1
10
0.42884146234158
20
19.743869578646
30
0
41
1
10
0.441658364353969
20
19.7562591613048
30
0
41
1
10
0.459041380578185
20
19.7727587078626
30
0
41
1
10
0.465027356868461
20
19.7783452551176
30
0
41
1
10
0.473964393527495
20
19.7864130836086
30
0
41
1
10
0.477089684223898
20
19.7890616725117
30
0
41
1
10
0.480187441895225
20
19.7910978442709
30
0
41
1
10
0.479692190723824
20
19.7899945114866
30
0
41
1
10
0.47474949855166
20
19.7838800082448
30
0
41
1
10
0.470304206294372
20
19.7788539584737
30
0
41
1
10
0.457555752082527
20
19.7649189897359
30
0
41
1
10
0.448465713246748
20
19.7552276840418
30
0
41
1
10
0.425308683615754
20
19.7308752188008
30
0
41
1
10
0.410246552866397
20
19.7152543179305
30
0
41
1
10
0.394519052838319
20
19.6990969386236
30
0
0
SPLINE
5
194
100
AcDbEntity
8
1
62
256
6
ByLayer
370
18
48
1
60
0
100
AcDbSpline
70
4
71
3
72
8
73
4
40
0
40
0
40
0
40
0
40
1
40
1
40
1
40
1
41
1
10
0.394519052838319
20
-19.710304237967
30
0
41
1
10
0.179220787457297
20
-19.4987067068065
30
0
41
1
10
-0.0356273962293869
20
-19.2864967669467
30
0
41
1
10
-0.249980947161674
20
-19.0736242396016
30
0
0
SPLINE
5
195
100
AcDbEntity
8
1
62
256
6
ByLayer
370
18
48
1
60
0
100
AcDbSpline
70
4
71
3
72
14
73
10
40
0
40
0
40
0
40
0
40
0.360604057660306
40
0.360604057660306
40
0.642709697354763
40
0.642709697354763
40
0.857921951027921
40
0.857921951027921
40
1
40
1
40
1
40
1
41
1
10
-0.249980947161674
20
-19.0736242396016
30
0
41
1
10
-0.26387378128851
20
-19.0598273946242
30
0
41
1
10
-0.277240182772005
20
-19.04658533761
30
0
41
1
10
-0.297935561852427
20
-19.0261403161264
30
0
41
1
10
-0.306131562013661
20
-19.0180667537484
30
0
41
1
10
-0.31710313629273
20
-19.007306639191
30
0
41
1
10
-0.320782229379489
20
-19.0037194094063
30
0
41
1
10
-0.32426173211843
20
-19.0003759585332
30
0
41
1
10
-0.324980947161691
20
-18.9997072925504
30
0
41
1
10
-0.324980947161691
20
-18.9997518271013
30
0
0
SPLINE
5
196
100
AcDbEntity
8
1
62
256
6
ByLayer
370
18
48
1
60
0
100
AcDbSpline
70
4
71
3
72
8
73
4
40
0
40
0
40
0
40
0
40
1
40
1
40
1
40
1
41
1
10
-0.249980947161646
20
19.0736242396016
30
0
41
1
10
-0.0356273962293869
20
19.2864967669467
30
0
41
1
10
0.179220787457325
20
19.4987067068065
30
0
41
1
10
0.394519052838319
20
19.710304237967
30
0
0
SPLINE
5
197
100
AcDbEntity
8
1
62
256
6
ByLayer
370
18
48
1
60
0
100
AcDbSpline
70
4
71
3
72
14
73
10
40
0
40
0
40
0
40
0
40
0.141240364919155
40
0.141240364919155
40
0.364815626920372
40
0.364815626920372
40
0.63293100366821
40
0.63293100366821
40
1
40
1
40
1
40
1
41
1
10
-0.324980947161691
20
18.9997518271013
30
0
41
1
10
-0.324980947161691
20
18.9997075483724
30
0
41
1
10
-0.324270124434833
20
19.0003681497553
30
0
41
1
10
-0.320738864304843
20
19.0037606806076
30
0
41
1
10
-0.316865710439174
20
19.0075381064276
30
0
41
1
10
-0.30584114618128
20
19.0183533892788
30
0
41
1
10
-0.298064705436474
20
19.0260137389467
30
0
41
1
10
-0.277713110049291
20
19.046116847108
30
0
41
1
10
-0.264116695428015
20
19.0595861588407
30
0
41
1
10
-0.249980947161646
20
19.0736242396016
30
0
0
SPLINE
5
198
100
AcDbEntity
8
1
62
256
6
ByLayer
370
18
48
1
60
0
100
AcDbSpline
70
4
71
3
72
16
73
12
40
0
40
0
40
0
40
0
40
0.0508154046975832
40
0.0508154046975832
40
0.258923711591509
40
0.258923711591509
40
0.504265039005607
40
0.504265039005607
40
0.746724487238743
40
0.746724487238743
40
1
40
1
40
1
40
1
41
1
10
-0.324980947161691
20
17.9939249199247
30
0
41
1
10
-0.324980947161691
20
17.9930033696459
30
0
41
1
10
-0.324906942168155
20
17.9921506207279
30
0
41
1
10
-0.324141887657902
20
17.9882255184319
30
0
41
1
10
-0.322194130304268
20
17.9863187804695
30
0
41
1
10
-0.31509106766535
20
17.9855489176432
30
0
41
1
10
-0.309291111767834
20
17.9872907726214
30
0
41
1
10
-0.295423697794945
20
17.9942991812083
30
0
41
1
10
-0.287211654583302
20
17.999581232446
30
0
41
1
10
-0.269511663051731
20
18.0124779452731
30
0
41
1
10
-0.259797687981006
20
18.0203010401962
30
0
41
1
10
-0.249980947161589
20
18.02872875272
30
0
0
SPLINE
5
199
100
AcDbEntity
8
1
62
256
6
ByLayer
370
18
48
1
60
0
100
AcDbSpline
70
4
71
3
72
14
73
10
40
0
40
0
40
0
40
0
40
0.13151509998491
40
0.13151509998491
40
0.546631173257148
40
0.546631173257148
40
0.834737904974227
40
0.834737904974227
40
1
40
1
40
1
40
1
41
1
10
-0.249980947161674
20
18.1816177175708
30
0
41
1
10
-0.25519202383299
20
18.1751958974765
30
0
41
1
10
-0.260265405512286
20
18.1688092455181
30
0
41
1
10
-0.280476233510711
20
18.1427611361318
30
0
41
1
10
-0.294385884529191
20
18.1233510279863
30
0
41
1
10
-0.312505598098454
20
18.094163119481
30
0
41
1
10
-0.318523193744852
20
18.0829900256093
30
0
41
1
10
-0.323874328702317
20
18.068890758976
30
0
41
1
10
-0.324980947162146
20
18.0644149088857
30
0
41
1
10
-0.324980947162231
20
18.0610023243171
30
0
0
SPLINE
5
19A
100
AcDbEntity
8
1
62
256
6
ByLayer
370
18
48
1
60
0
100
AcDbSpline
70
4
71
3
72
8
73
4
40
0
40
0
40
0
40
0
40
1
40
1
40
1
40
1
41
1
10
0.394519052838319
20
18.9665337194095
30
0
41
1
10
0.178392735131837
20
18.7063187568174
30
0
41
1
10
-0.0364873455682186
20
18.4447144991339
30
0
41
1
10
-0.249980947161674
20
18.1816177175708
30
0
0
SPLINE
5
19B
100
AcDbEntity
8
1
62
256
6
ByLayer
370
18
48
1
60
0
100
AcDbSpline
70
4
71
3
72
14
73
10
40
0
40
0
40
0
40
0
40
0.0401551462625152
40
0.0401551462625152
40
0.264416098012664
40
0.264416098012664
40
0.560309219161388
40
0.560309219161388
40
1
40
1
40
1
40
1
41
1
10
-0.324980947161691
20
-18.0610023243174
30
0
41
1
10
-0.324980947161691
20
-18.0618428030285
30
0
41
1
10
-0.32491465154871
20
-18.0627462002314
30
0
41
1
10
-0.324072100072215
20
-18.0690101776654
30
0
41
1
10
-0.321405521836908
20
-18.0761331967054
30
0
41
1
10
-0.312262689620894
20
-18.0947319637468
30
0
41
1
10
-0.304751684093048
20
-18.1071227465221
30
0
41
1
10
-0.283112559692967
20
-18.139324634163
30
0
41
1
10
-0.267192544285052
20
-18.1604071717983
30
0
41
1
10
-0.249980947161703
20
-18.1816177175708
30
0
0
SPLINE
5
19C
100
AcDbEntity
8
1
62
256
6
ByLayer
370
18
48
1
60
0
100
AcDbSpline
70
4
71
3
72
8
73
4
40
0
40
0
40
0
40
0
40
1
40
1
40
1
40
1
41
1
10
-0.249980947161674
20
-18.1816177175708
30
0
41
1
10
-0.0364873455682471
20
-18.4447144991339
30
0
41
1
10
0.178392735131837
20
-18.7063187568174
30
0
41
1
10
0.394519052838319
20
-18.9665337194095
30
0
0
SPLINE
5
19D
100
AcDbEntity
8
1
62
256
6
ByLayer
370
18
48
1
60
0
100
AcDbSpline
70
4
71
3
72
8
73
4
40
0
40
0
40
0
40
0
40
1
40
1
40
1
40
1
41
1
10
-0.249980947159742
20
13.2410331525237
30
0
41
1
10
-0.0352348131660847
20
13.4218276833375
30
0
41
1
10
0.179601945162602
20
13.6024787589423
30
0
41
1
10
0.394519052838348
20
13.7830022040407
30
0
0
SPLINE
5
19E
100
AcDbEntity
8
1
62
256
6
ByLayer
370
18
48
1
60
0
100
AcDbSpline
70
4
71
3
72
8
73
4
40
0
40
0
40
0
40
0
40
1
40
1
40
1
40
1
41
1
10
0.394519052838319
20
-13.7830022040407
30
0
41
1
10
0.179601945162574
20
-13.6024787589423
30
0
41
1
10
-0.0352348131660847
20
-13.4218276833375
30
0
41
1
10
-0.24998094715977
20
-13.2410331525237
30
0
0
SPLINE
5
19F
100
AcDbEntity
8
1
62
256
6
ByLayer
370
18
48
1
60
0
100
AcDbSpline
70
4
71
3
72
18
73
14
40
0
40
0
40
0
40
0
40
0.15168922179661
40
0.15168922179661
40
0.377341330796447
40
0.377341330796447
40
0.518471592805413
40
0.518471592805413
40
0.686901906618405
40
0.686901906618405
40
0.876062168519442
40
0.876062168519442
40
1
40
1
40
1
40
1
41
1
10
-0.324980947164107
20
13.267244992439
30
0
41
1
10
-0.324980947164164
20
13.2608142700644
30
0
41
1
10
-0.324589889544484
20
13.2546312854228
30
0
41
1
10
-0.322339239659669
20
13.2403866350276
30
0
41
1
10
-0.319822507478307
20
13.2326869110105
30
0
41
1
10
-0.313004447296862
20
13.223492074514
30
0
41
1
10
-0.309651675120648
20
13.2207187916851
30
0
41
1
10
-0.300839956904923
20
13.2172441345201
30
0
41
1
10
-0.294926621248862
20
13.2170367117722
30
0
41
1
10
-0.281363091099848
20
13.2202833455423
30
0
41
1
10
-0.273376364216034
20
13.2241890042849
30
0
41
1
10
-0.260337990090903
20
13.2327355743826
30
0
41
1
10
-0.255116585692804
20
13.2367094641673
30
0
41
1
10
-0.249980947159685
20
13.2410331525233
30
0
0
SPLINE
5
1A0
100
AcDbEntity
8
1
62
256
6
ByLayer
370
18
48
1
60
0
100
AcDbSpline
70
4
71
3
72
18
73
14
40
0
40
0
40
0
40
0
40
0.146716821958616
40
0.146716821958616
40
0.287857428997319
40
0.287857428997319
40
0.442878920492713
40
0.442878920492713
40
0.596821481441176
40
0.596821481441176
40
0.783640148031921
40
0.783640148031921
40
1
40
1
40
1
40
1
41
1
10
-0.249980947159656
20
-13.241033152523
30
0
41
1
10
-0.25604867837265
20
-13.2359247363788
30
0
41
1
10
-0.262247191573891
20
-13.2312967930468
30
0
41
1
10
-0.274254856529836
20
-13.2239035805403
30
0
41
1
10
-0.280165420428744
20
-13.2210378447893
30
0
41
1
10
-0.291724026717901
20
-13.2174954056764
30
0
41
1
10
-0.297434239926218
20
-13.2170478231028
30
0
41
1
10
-0.307017153148138
20
-13.2191501561731
30
0
41
1
10
-0.31103734398846
20
-13.2216818248394
30
0
41
1
10
-0.317953792557944
20
-13.2295101004107
30
0
41
1
10
-0.320563452409544
20
-13.2353395273908
30
0
41
1
10
-0.324198214848991
20
-13.249462399411
30
0
41
1
10
-0.324980947171071
20
-13.2581224284342
30
0
41
1
10
-0.324980947170701
20
-13.2672449924339
30
0
0
SPLINE
5
1A1
100
AcDbEntity
8
1
62
256
6
ByLayer
370
18
48
1
60
0
100
AcDbSpline
70
4
71
3
72
12
73
8
40
0
40
0
40
0
40
0
40
0.0382932016717372
40
0.0382932016717372
40
0.384698297901305
40
0.384698297901305
40
1
40
1
40
1
40
1
41
1
10
-0.32498094716172
20
-13.4707590466701
30
0
41
1
10
-0.32498094716172
20
-13.4733236754212
30
0
41
1
10
-0.324914533088474
20
-13.4759353293386
30
0
41
1
10
-0.323660488241728
20
-13.5022660870475
30
0
41
1
10
-0.317976480917281
20
-13.5289763418102
30
0
41
1
10
-0.29632149397753
20
-13.6036020518143
30
0
41
1
10
-0.275247881244127
20
-13.6540352131323
30
0
41
1
10
-0.249980947161703
20
-13.7033325990739
30
0
0
SPLINE
5
1A2
100
AcDbEntity
8
1
62
256
6
ByLayer
370
18
48
1
60
0
100
AcDbSpline
70
4
71
3
72
12
73
8
40
0
40
0
40
0
40
0
40
0.291766844837991
40
0.291766844837991
40
0.792929809007734
40
0.792929809007734
40
1
40
1
40
1
40
1
41
1
10
-0.249980947161674
20
13.7033325990739
30
0
41
1
10
-0.262059461628979
20
13.6797666536627
30
0
41
1
10
-0.273081794683691
20
13.656055544321
30
0
41
1
10
-0.299521508835284
20
13.5924397503834
30
0
41
1
10
-0.313046098828693
20
13.5520592894348
30
0
41
1
10
-0.323129365633236
20
13.4994708163577
30
0
41
1
10
-0.324980947160441
20
13.4844495675558
30
0
41
1
10
-0.324980947161663
20
13.4707590466832
30
0
0
SPLINE
5
1A3
100
AcDbEntity
8
1
62
256
6
ByLayer
370
18
48
1
60
0
100
AcDbSpline
70
4
71
3
72
8
73
4
40
0
40
0
40
0
40
0
40
1
40
1
40
1
40
1
41
1
10
-0.249980947161674
20
-13.7033325990739
30
0
41
1
10
-0.0406455446070595
20
-14.1117592050607
30
0
41
1
10
0.174425330040947
20
-14.516324377639
30
0
41
1
10
0.394519052838319
20
-14.9171390202628
30
0
0
SPLINE
5
1A4
100
AcDbEntity
8
1
62
256
6
ByLayer
370
18
48
1
60
0
100
AcDbSpline
70
4
71
3
72
8
73
4
40
0
40
0
40
0
40
0
40
1
40
1
40
1
40
1
41
1
10
0.394519052838348
20
14.9171390202628
30
0
41
1
10
0.174425330040947
20
14.516324377639
30
0
41
1
10
-0.0406455446070595
20
14.1117592050607
30
0
41
1
10
-0.249980947161674
20
13.7033325990739
30
0
0
SPLINE
5
1A5
100
AcDbEntity
8
1
62
256
6
ByLayer
370
18
48
1
60
0
100
AcDbSpline
70
4
71
3
72
22
73
18
40
0
40
0
40
0
40
0
40
0.165026221612059
40
0.165026221612059
40
0.454888812544956
40
0.454888812544956
40
0.616938144332745
40
0.616938144332745
40
0.715342887853494
40
0.715342887853494
40
0.778547736611835
40
0.778547736611835
40
0.852815616713979
40
0.852815616713979
40
0.939597453784172
40
0.939597453784172
40
1
40
1
40
1
40
1
41
1
10
0.394519052838319
20
-14.9171390202628
30
0
41
1
10
0.407077678829808
20
-14.9400096461246
30
0
41
1
10
0.418700289927216
20
-14.9629721962769
30
0
41
1
10
0.447445713169003
20
-15.0253267629505
30
0
41
1
10
0.462725220823472
20
-15.065074688198
30
0
41
1
10
0.476831674567649
20
-15.1217726497934
30
0
41
1
10
0.48000791264846
20
-15.1414893474387
30
0
41
1
10
0.479124696152013
20
-15.1682851060533
30
0
41
1
10
0.477348176262637
20
-15.1774581090455
30
0
41
1
10
0.470961777603236
20
-15.1886184560727
30
0
41
1
10
0.467515728943567
20
-15.1920505872095
30
0
41
1
10
0.458012524801461
20
-15.1963973904129
30
0
41
1
10
0.451418654021182
20
-15.1967878114455
30
0
41
1
10
0.435455897941495
20
-15.1932159619238
30
0
41
1
10
0.425540849239837
20
-15.1885069696644
30
0
41
1
10
0.408653238363001
20
-15.1777590578898
30
0
41
1
10
0.401545871754166
20
-15.1724877232411
30
0
41
1
10
0.394519052838319
20
-15.166722678307
30
0
0
SPLINE
5
1A6
100
AcDbEntity
8
1
62
256
6
ByLayer
370
18
48
1
60
0
100
AcDbSpline
70
4
71
3
72
22
73
18
40
0
40
0
40
0
40
0
40
0.0356604719928324
40
0.0356604719928324
40
0.114790254781547
40
0.114790254781547
40
0.181627545591656
40
0.181627545591656
40
0.257822201854789
40
0.257822201854789
40
0.332962977630064
40
0.332962977630064
40
0.510811804309237
40
0.510811804309237
40
0.685452375305511
40
0.685452375305511
40
1
40
1
40
1
40
1
41
1
10
0.394519052838319
20
15.1667226783067
30
0
41
1
10
0.398703383680527
20
15.17015564785
30
0
41
1
10
0.402907924232011
20
15.1734074191566
30
0
41
1
10
0.416302421604286
20
15.1830215404524
30
0
41
1
10
0.425599323042917
20
15.1885282570572
30
0
41
1
10
0.441382973977852
20
15.1949059312805
30
0
41
1
10
0.448237679219602
20
15.1963915399305
30
0
41
1
10
0.460630160135679
20
15.1958528695878
30
0
41
1
10
0.466047174658286
20
15.1933015194689
30
0
41
1
10
0.473814074127688
20
15.1849082348473
30
0
41
1
10
0.476358308188395
20
15.1790562776074
30
0
41
1
10
0.481247111523743
20
15.1565997747607
30
0
41
1
10
0.479208225768389
20
15.1357287826682
30
0
41
1
10
0.470164967175464
20
15.0925501744984
30
0
41
1
10
0.463039580775018
20
15.0695055028691
30
0
41
1
10
0.438918046351972
20
15.0042762027091
30
0
41
1
10
0.418272361414779
20
14.9603963824774
30
0
41
1
10
0.394519052838348
20
14.9171390202628
30
0
0
SPLINE
5
1A7
100
AcDbEntity
8
1
62
256
6
ByLayer
370
18
48
1
60
0
100
AcDbSpline
70
4
71
3
72
8
73
4
40
0
40
0
40
0
40
0
40
1
40
1
40
1
40
1
41
1
10
-0.249980947160765
20
14.6378611567675
30
0
41
1
10
-0.035160531136512
20
14.8141693177327
30
0
41
1
10
0.179673252606676
20
14.9904557633514
30
0
41
1
10
0.394519052838319
20
15.1667226783066
30
0
0
SPLINE
5
1A8
100
AcDbEntity
8
1
62
256
6
ByLayer
370
18
48
1
60
0
100
AcDbSpline
70
4
71
3
72
8
73
4
40
0
40
0
40
0
40
0
40
1
40
1
40
1
40
1
41
1
10
0.394519052838319
20
-15.1667226783066
30
0
41
1
10
0.179673252606676
20
-14.9904557633514
30
0
41
1
10
-0.035160531136512
20
-14.8141693177327
30
0
41
1
10
-0.249980947160765
20
-14.6378611567675
30
0
0
SPLINE
5
1A9
100
AcDbEntity
8
1
62
256
6
ByLayer
370
18
48
1
60
0
100
AcDbSpline
70
4
71
3
72
18
73
14
40
0
40
0
40
0
40
0
40
0.0266914892419243
40
0.0266914892419243
40
0.278125318809188
40
0.278125318809188
40
0.439092586095399
40
0.439092586095399
40
0.627343885655858
40
0.627343885655858
40
0.847227365601071
40
0.847227365601071
40
1
40
1
40
1
40
1
41
1
10
-0.324980947161691
20
14.6482797132063
30
0
41
1
10
-0.324980947161691
20
14.6472983237552
30
0
41
1
10
-0.324966835007814
20
14.6463275807696
30
0
41
1
10
-0.324668751520278
20
14.6364254441561
30
0
41
1
10
-0.323098291485138
20
14.6283387801472
30
0
41
1
10
-0.317419998019574
20
14.6185224173724
30
0
41
1
10
-0.314360382541878
20
14.6155103653912
30
0
41
1
10
-0.305943852928095
20
14.6117158340747
30
0
41
1
10
-0.300123292160237
20
14.6113803442181
30
0
41
1
10
-0.28603824767751
20
14.6145346924841
30
0
41
1
10
-0.277294099717778
20
14.6186816036047
30
0
41
1
10
-0.262415921837828
20
14.6281492818557
30
0
41
1
10
-0.256162478716959
20
14.6327878286321
30
0
41
1
10
-0.249980947160765
20
14.6378611567673
30
0
0
SPLINE
5
1AA
100
AcDbEntity
8
1
62
256
6
ByLayer
370
18
48
1
60
0
100
AcDbSpline
70
4
71
3
72
18
73
14
40
0
40
0
40
0
40
0
40
0.0912505451515144
40
0.0912505451515144
40
0.292448424843184
40
0.292448424843184
40
0.459062484295475
40
0.459062484295475
40
0.625337228106276
40
0.625337228106276
40
0.827306615495433
40
0.827306615495433
40
1
40
1
40
1
40
1
41
1
10
-0.249980947160765
20
-14.6378611567675
30
0
41
1
10
-0.253689271776352
20
-14.6348176476572
30
0
41
1
10
-0.257416084496612
20
-14.6319359920037
30
0
41
1
10
-0.269237461406505
20
-14.6234603308767
30
0
41
1
10
-0.277427723684014
20
-14.6186211310805
30
0
41
1
10
-0.291210931737538
20
-14.6130740659361
30
0
41
1
10
-0.297138770455916
20
-14.6117749820166
30
0
41
1
10
-0.307224062394568
20
-14.6120981946817
30
0
41
1
10
-0.31150813356652
20
-14.6137148518036
30
0
41
1
10
-0.318800509149071
20
-14.6198418750797
30
0
41
1
10
-0.321481528253599
20
-14.6249402069886
30
0
41
1
10
-0.32440144962959
20
-14.6361022616813
30
0
41
1
10
-0.324980947163937
20
-14.6419894989028
30
0
41
1
10
-0.324980947163851
20
-14.6482797132045
30
0
0
SPLINE
5
1AB
100
AcDbEntity
8
1
62
256
6
ByLayer
370
18
48
1
60
0
100
AcDbSpline
70
4
71
3
72
12
73
8
40
0
40
0
40
0
40
0
40
0.130630021320438
40
0.130630021320438
40
0.459481646444063
40
0.459481646444063
40
1
40
1
40
1
40
1
41
1
10
-0.324980947165955
20
-14.8124623350326
30
0
41
1
10
-0.324980947165045
20
-14.8194287506433
30
0
41
1
10
-0.32423303565048
20
-14.8269866907195
30
0
41
1
10
-0.319699525179459
20
-14.8545668106014
30
0
41
1
10
-0.313065159020596
20
-14.8764659336491
30
0
41
1
10
-0.290869165118437
20
-14.9350764040869
30
0
41
1
10
-0.271910386071767
20
-14.973513323455
30
0
41
1
10
-0.249980947161703
20
-15.011305873316
30
0
0
SPLINE
5
1AC
100
AcDbEntity
8
1
62
256
6
ByLayer
370
18
48
1
60
0
100
AcDbSpline
70
4
71
3
72
12
73
8
40
0
40
0
40
0
40
0
40
0.306500811162929
40
0.306500811162929
40
0.761715889684208
40
0.761715889684208
40
1
40
1
40
1
40
1
41
1
10
-0.249980947161674
20
15.011305873316
30
0
41
1
10
-0.262512944022546
20
14.989708598613
30
0
41
1
10
-0.273999713189198
20
14.9679953734617
30
0
41
1
10
-0.299099798672415
20
14.9150040044866
30
0
41
1
10
-0.311510242767753
20
14.8834060296336
30
0
41
1
10
-0.322563957303316
20
14.8395827836259
30
0
41
1
10
-0.324980947160412
20
14.8250665622847
30
0
41
1
10
-0.324980947161691
20
14.8124623350354
30
0
0
SPLINE
5
1AD
100
AcDbEntity
8
1
62
256
6
ByLayer
370
18
48
1
60
0
100
AcDbSpline
70
4
71
3
72
8
73
4
40
0
40
0
40
0
40
0
40
1
40
1
40
1
40
1
41
1
10
-0.249980947161674
20
-15.011305873316
30
0
41
1
10
-0.0390955465932166
20
-15.3747395684788
30
0
41
1
10
0.175900366251454
20
-15.7350293608484
30
0
41
1
10
0.394519052838319
20
-16.0923183384427
30
0
0
SPLINE
5
1AE
100
AcDbEntity
8
1
62
256
6
ByLayer
370
18
48
1
60
0
100
AcDbSpline
70
4
71
3
72
8
73
4
40
0
40
0
40
0
40
0
40
1
40
1
40
1
40
1
41
1
10
0.394519052838319
20
16.0923183384427
30
0
41
1
10
0.175900366251454
20
15.7350293608484
30
0
41
1
10
-0.0390955465932166
20
15.3747395684788
30
0
41
1
10
-0.249980947161674
20
15.011305873316
30
0
0
SPLINE
5
1AF
100
AcDbEntity
8
1
62
256
6
ByLayer
370
18
48
1
60
0
100
AcDbSpline
70
4
71
3
72
22
73
18
40
0
40
0
40
0
40
0
40
0.170988702315837
40
0.170988702315837
40
0.43105795073853
40
0.43105795073853
40
0.586229935461476
40
0.586229935461476
40
0.687035298708567
40
0.687035298708567
40
0.759195850643413
40
0.759195850643413
40
0.843290080874989
40
0.843290080874989
40
0.926491304969792
40
0.926491304969792
40
1
40
1
40
1
40
1
41
1
10
0.394519052838319
20
-16.0923183384427
30
0
41
1
10
0.407760990258737
20
-16.1139596645167
30
0
41
1
10
0.420037007475884
20
-16.1356652228069
30
0
41
1
10
0.447641810888115
20
-16.1892697067983
30
0
41
1
10
0.461736002340217
20
-16.221409495349
30
0
41
1
10
0.475882935738071
20
-16.2677842140924
30
0
41
1
10
0.479375412191047
20
-16.2843831431511
30
0
41
1
10
0.479605597672389
20
-16.3070952746492
30
0
41
1
10
0.478225096261923
20
-16.3149947254796
30
0
41
1
10
0.472363983680793
20
-16.3246388662849
30
0
41
1
10
0.468794986962962
20
-16.3275424378988
30
0
41
1
10
0.458796216414981
20
-16.3304169692215
30
0
41
1
10
0.451806797757911
20
-16.3298354226417
30
0
41
1
10
0.436255233375533
20
-16.3247358671331
30
0
41
1
10
0.427514619923556
20
-16.3202371938526
30
0
41
1
10
0.410743385060698
20
-16.309506365058
30
0
41
1
10
0.402605555724818
20
-16.303468934732
30
0
41
1
10
0.394519052838348
20
-16.2968648471028
30
0
0
SPLINE
5
1B0
100
AcDbEntity
8
1
62
256
6
ByLayer
370
18
48
1
60
0
100
AcDbSpline
70
4
71
3
72
22
73
18
40
0
40
0
40
0
40
0
40
0.035654535242771
40
0.035654535242771
40
0.128101411618624
40
0.128101411618624
40
0.20226229648323
40
0.20226229648323
40
0.289882316490257
40
0.289882316490257
40
0.376304208158899
40
0.376304208158899
40
0.51092896593301
40
0.51092896593301
40
0.670404978801651
40
0.670404978801651
40
1
40
1
40
1
40
1
41
1
10
0.394519052838319
20
16.2968648471027
30
0
41
1
10
0.398472598913258
20
16.3000936303098
30
0
41
1
10
0.402429365030258
20
16.3031803090136
30
0
41
1
10
0.416457509060422
20
16.313530506219
30
0
41
1
10
0.426574512986747
20
16.3198605292104
30
0
41
1
10
0.443177491108116
20
16.327395870123
30
0
41
1
10
0.450136688280111
20
16.3294051471908
30
0
41
1
10
0.462873638298646
20
16.3300521396582
30
0
41
1
10
0.468414125842031
20
16.3280074439739
30
0
41
1
10
0.475922004905527
20
16.3201498016436
30
0
41
1
10
0.478099010783041
20
16.3143381712665
30
0
41
1
10
0.480401196412089
20
16.296854225777
30
0
41
1
10
0.478867898182983
20
16.2834843725116
30
0
41
1
10
0.471783394713725
20
16.2522836809832
30
0
41
1
10
0.465468257674246
20
16.233672835813
30
0
41
1
10
0.441913681432311
20
16.1756351594972
30
0
41
1
10
0.419801188035876
20
16.1336369849735
30
0
41
1
10
0.394519052838348
20
16.0923183384427
30
0
0
SPLINE
5
1B1
100
AcDbEntity
8
1
62
256
6
ByLayer
370
18
48
1
60
0
100
AcDbSpline
70
4
71
3
72
8
73
4
40
0
40
0
40
0
40
0
40
1
40
1
40
1
40
1
41
1
10
-0.249980947161191
20
15.770510440166
30
0
41
1
10
-0.0351481695532812
20
15.945962816426
30
0
41
1
10
0.179685181728644
20
16.1214142561083
30
0
41
1
10
0.394519052838319
20
16.2968648471026
30
0
0
SPLINE
5
1B2
100
AcDbEntity
8
1
62
256
6
ByLayer
370
18
48
1
60
0
100
AcDbSpline
70
4
71
3
72
8
73
4
40
0
40
0
40
0
40
0
40
1
40
1
40
1
40
1
41
1
10
0.394519052838319
20
-16.2968648471026
30
0
41
1
10
0.179685181728473
20
-16.1214142561081
30
0
41
1
10
-0.0351481695535938
20
-15.9459628164257
30
0
41
1
10
-0.249980947161674
20
-15.7705104401656
30
0
0
SPLINE
5
1B3
100
AcDbEntity
8
1
62
256
6
ByLayer
370
18
48
1
60
0
100
AcDbSpline
70
4
71
3
72
16
73
12
40
0
40
0
40
0
40
0
40
0.233882898205419
40
0.233882898205419
40
0.41107481547171
40
0.41107481547171
40
0.616733596156972
40
0.616733596156972
40
0.820265704622542
40
0.820265704622542
40
1
40
1
40
1
40
1
41
1
10
-0.324980947161663
20
15.7678282405416
30
0
41
1
10
-0.324980947161663
20
15.7605037080438
30
0
41
1
10
-0.323771710814128
20
15.7540555129293
30
0
41
1
10
-0.318791008349706
20
15.7458657822589
30
0
41
1
10
-0.315640504608439
20
15.7433213860411
30
0
41
1
10
-0.306808277672815
20
15.7408261943328
30
0
41
1
10
-0.300639900226571
20
15.7413488729786
30
0
41
1
10
-0.286897820481499
20
15.7458626334012
30
0
41
1
10
-0.279167049677596
20
15.7498391375718
30
0
41
1
10
-0.264332053878405
20
15.7593292671481
30
0
41
1
10
-0.257133799152257
20
15.764668757659
30
0
41
1
10
-0.249980947161219
20
15.7705104401659
30
0
0
SPLINE
5
1B4
100
AcDbEntity
8
1
62
256
6
ByLayer
370
18
48
1
60
0
100
AcDbSpline
70
4
71
3
72
18
73
14
40
0
40
0
40
0
40
0
40
0.0137841237915155
40
0.0137841237915155
40
0.260612031722702
40
0.260612031722702
40
0.438046892909796
40
0.438046892909796
40
0.644909823572546
40
0.644909823572546
40
0.849564586540853
40
0.849564586540853
40
1
40
1
40
1
40
1
41
1
10
-0.249980947161674
20
-15.7705104401656
30
0
41
1
10
-0.250534089826971
20
-15.7700586925501
30
0
41
1
10
-0.251087196815177
20
-15.7696101793364
30
0
41
1
10
-0.261431596246382
20
-15.7612832042177
30
0
41
1
10
-0.271359399745677
20
-15.7543401173141
30
0
41
1
10
-0.287190897498419
20
-15.7458606684657
30
0
41
1
10
-0.293565917025177
20
-15.7433107612256
30
0
41
1
10
-0.305586944128237
20
-15.7408167126847
30
0
41
1
10
-0.311112490389462
20
-15.7413647335261
30
0
41
1
10
-0.319163331965342
20
-15.7459428960202
30
0
41
1
10
-0.32186780661084
20
-15.7499564226083
30
0
41
1
10
-0.324484365155087
20
-15.7587571668661
30
0
41
1
10
-0.324980947162345
20
-15.763101472641
30
0
41
1
10
-0.324980947162317
20
-15.767828240541
30
0
0
SPLINE
5
1B5
100
AcDbEntity
8
1
62
256
6
ByLayer
370
18
48
1
60
0
100
AcDbSpline
70
4
71
3
72
12
73
8
40
0
40
0
40
0
40
0
40
0.162050940068138
40
0.162050940068138
40
0.464994586882649
40
0.464994586882649
40
1
40
1
40
1
40
1
41
1
10
-0.324980947167688
20
-15.9014694779983
30
0
41
1
10
-0.32498094716675
20
-15.9084323242163
30
0
41
1
10
-0.323850221825467
20
-15.9163565802759
30
0
41
1
10
-0.31834786032141
20
-15.9404195022313
30
0
41
1
10
-0.311991203969427
20
-15.9579823894175
30
0
41
1
10
-0.290304587522939
20
-16.0075035038982
30
0
41
1
10
-0.271436485838422
20
-16.0413667809981
30
0
41
1
10
-0.249980947161674
20
-16.0747405491864
30
0
0
SPLINE
5
1B6
100
AcDbEntity
8
1
62
256
6
ByLayer
370
18
48
1
60
0
100
AcDbSpline
70
4
71
3
72
12
73
8
40
0
40
0
40
0
40
0
40
0.419752243738243
40
0.419752243738243
40
0.804535157058287
40
0.804535157058287
40
1
40
1
40
1
40
1
41
1
10
-0.249980947161674
20
16.0747405491864
30
0
41
1
10
-0.266894165469012
20
16.0484322921153
30
0
41
1
10
-0.28211454650426
20
16.021929547067
30
0
41
1
10
-0.30600265592625
20
15.9731746147681
30
0
41
1
10
-0.315393057316697
20
15.9502027056823
30
0
41
1
10
-0.323351048349764
20
15.9195916432662
30
0
41
1
10
-0.324980947174708
20
15.909837292279
30
0
41
1
10
-0.3249809471763
20
15.9014694779916
30
0
0
SPLINE
5
1B7
100
AcDbEntity
8
1
62
256
6
ByLayer
370
18
48
1
60
0
100
AcDbSpline
70
4
71
3
72
8
73
4
40
0
40
0
40
0
40
0
40
1
40
1
40
1
40
1
41
1
10
-0.249980947161674
20
-16.0747405491864
30
0
41
1
10
-0.0380834512813806
20
-16.4043439217116
30
0
41
1
10
0.176865425835672
20
-16.7313555006636
30
0
41
1
10
0.394519052838319
20
-17.0559192792915
30
0
0
SPLINE
5
1B8
100
AcDbEntity
8
1
62
256
6
ByLayer
370
18
48
1
60
0
100
AcDbSpline
70
4
71
3
72
8
73
4
40
0
40
0
40
0
40
0
40
1
40
1
40
1
40
1
41
1
10
0.394519052838319
20
17.0559192792915
30
0
41
1
10
0.176865425835672
20
16.7313555006636
30
0
41
1
10
-0.0380834512813806
20
16.4043439217116
30
0
41
1
10
-0.249980947161674
20
16.0747405491864
30
0
0
SPLINE
5
1B9
100
AcDbEntity
8
1
62
256
6
ByLayer
370
18
48
1
60
0
100
AcDbSpline
70
4
71
3
72
22
73
18
40
0
40
0
40
0
40
0
40
0.131042025794635
40
0.131042025794635
40
0.383073453581624
40
0.383073453581624
40
0.541367220042303
40
0.541367220042303
40
0.648224611150245
40
0.648224611150245
40
0.728073891523138
40
0.728073891523138
40
0.821252455111972
40
0.821252455111972
40
0.913423995875175
40
0.913423995875175
40
1
40
1
40
1
40
1
41
1
10
0.394519052838319
20
-17.0559192792915
30
0
41
1
10
0.404856086709799
20
-17.0713338019868
30
0
41
1
10
0.414636719070813
20
-17.0867436085574
30
0
41
1
10
0.440970408785972
20
-17.1309368327234
30
0
41
1
10
0.456000818241051
20
-17.1597644317135
30
0
41
1
10
0.472816231978697
20
-17.2020532232456
30
0
41
1
10
0.47755069896624
20
-17.2175958445497
30
0
41
1
10
0.480038448355401
20
-17.2390790098101
30
0
41
1
10
0.47952737640793
20
-17.2466475385485
30
0
41
1
10
0.474965858302028
20
-17.2559408108655
30
0
41
1
10
0.471769914679072
20
-17.2587097950697
30
0
41
1
10
0.462269640735769
20
-17.2611518291119
30
0
41
1
10
0.455358894415212
20
-17.2602420820977
30
0
41
1
10
0.439641974252623
20
-17.2544403670075
30
0
41
1
10
0.430660026879565
20
-17.2495589658621
30
0
41
1
10
0.412709940945518
20
-17.2377597598622
30
0
41
1
10
0.403609451266078
20
-17.2308997470834
30
0
41
1
10
0.394519052838348
20
-17.2234180953957
30
0
0
SPLINE
5
1BA
100
AcDbEntity
8
1
62
256
6
ByLayer
370
18
48
1
60
0
100
AcDbSpline
70
4
71
3
72
22
73
18
40
0
40
0
40
0
40
0
40
0.0384921088132372
40
0.0384921088132372
40
0.142798899734864
40
0.142798899734864
40
0.223016998384412
40
0.223016998384412
40
0.31592848388474
40
0.31592848388474
40
0.407799894142344
40
0.407799894142344
40
0.53726856973382
40
0.53726856973382
40
0.701411190138787
40
0.701411190138787
40
1
40
1
40
1
40
1
41
1
10
0.394519052838319
20
17.2234180953956
30
0
41
1
10
0.398595167850885
20
17.2267728518461
30
0
41
1
10
0.402663159305263
20
17.2299950066617
30
0
41
1
10
0.417512005770021
20
17.2412280359862
30
0
41
1
10
0.428262599959282
20
17.2482913046945
30
0
41
1
10
0.44537439240554
20
17.2568742677526
30
0
41
1
10
0.452320905579114
20
17.2593444428697
30
0
41
1
10
0.464797218159873
20
17.261068231578
30
0
41
1
10
0.470114453109261
20
17.2597551858967
30
0
41
1
10
0.477087707393224
20
17.2532675786086
30
0
41
1
10
0.478926880891862
20
17.2480957763304
30
0
41
1
10
0.480049244674717
20
17.2328948453491
30
0
41
1
10
0.478087556028214
20
17.2215574006706
30
0
41
1
10
0.470002320026282
20
17.1937000427357
30
0
41
1
10
0.462832964494112
20
17.1762266313491
30
0
41
1
10
0.438602827032781
20
17.1257850172184
30
0
41
1
10
0.417818970582204
20
17.0906639763996
30
0
41
1
10
0.394519052838348
20
17.0559192792915
30
0
0
SPLINE
5
1BB
100
AcDbEntity
8
1
62
256
6
ByLayer
370
18
48
1
60
0
100
AcDbSpline
70
4
71
3
72
8
73
4
40
0
40
0
40
0
40
0
40
1
40
1
40
1
40
1
41
1
10
-0.249980947161418
20
16.6928433719955
30
0
41
1
10
-0.0351663712000629
20
16.8697319891465
30
0
41
1
10
0.179667539911037
20
17.0465893021274
30
0
41
1
10
0.394519052838319
20
17.2234180953956
30
0
0
SPLINE
5
1BC
100
AcDbEntity
8
1
62
256
6
ByLayer
370
18
48
1
60
0
100
AcDbSpline
70
4
71
3
72
8
73
4
40
0
40
0
40
0
40
0
40
1
40
1
40
1
40
1
41
1
10
0.394519052838319
20
-17.2234180953956
30
0
41
1
10
0.179667539911009
20
-17.0465893021274
30
0
41
1
10
-0.0351663712000914
20
-16.8697319891465
30
0
41
1
10
-0.249980947161418
20
-16.6928433719955
30
0
0
SPLINE
5
1BD
100
AcDbEntity
8
1
62
256
6
ByLayer
370
18
48
1
60
0
100
AcDbSpline
70
4
71
3
72
16
73
12
40
0
40
0
40
0
40
0
40
0.165944412562498
40
0.165944412562498
40
0.355744140445825
40
0.355744140445825
40
0.576412811911732
40
0.576412811911732
40
0.794754312892073
40
0.794754312892073
40
1
40
1
40
1
40
1
41
1
10
-0.324980947162004
20
16.6786305280169
30
0
41
1
10
-0.324980947162004
20
16.6741989633861
30
0
41
1
10
-0.324313016982615
20
16.6703136930314
30
0
41
1
10
-0.321158558554828
20
16.6637899404546
30
0
41
1
10
-0.318359036730527
20
16.6613767500816
30
0
41
1
10
-0.309994853634834
20
16.6592919077345
30
0
41
1
10
-0.303900135764508
20
16.660121893933
30
0
41
1
10
-0.29000507100929
20
16.6652914215173
30
0
41
1
10
-0.282049955933388
20
16.6696246650582
30
0
41
1
10
-0.266132415192516
20
16.680102122491
30
0
41
1
10
-0.258052993990617
20
16.6861964617715
30
0
41
1
10
-0.249980947161418
20
16.6928433719954
30
0
0
SPLINE
5
1BE
100
AcDbEntity
8
1
62
256
6
ByLayer
370
18
48
1
60
0
100
AcDbSpline
70
4
71
3
72
16
73
12
40
0
40
0
40
0
40
0
40
0.232615505639717
40
0.232615505639717
40
0.421779942386582
40
0.421779942386582
40
0.626834333390738
40
0.626834333390738
40
0.860705581244278
40
0.860705581244278
40
1
40
1
40
1
40
1
41
1
10
-0.249980947161418
20
-16.6928433719954
30
0
41
1
10
-0.259109420845249
20
-16.6853265492685
30
0
41
1
10
-0.268265264489543
20
-16.6785042140017
30
0
41
1
10
-0.2839327559266
20
-16.6686182084702
30
0
41
1
10
-0.290736621045141
20
-16.6650372093721
30
0
41
1
10
-0.303280494303237
20
-16.6603335449382
30
0
41
1
10
-0.309034415686142
20
-16.6594100484281
30
0
41
1
10
-0.318404104340004
20
-16.6610655199581
30
0
41
1
10
-0.321776149719597
20
-16.6641644827684
30
0
41
1
10
-0.324509925620276
20
-16.6715608890287
30
0
41
1
10
-0.324980947161919
20
-16.6749006414288
30
0
41
1
10
-0.32498094716189
20
-16.678630528017
30
0
0
SPLINE
5
1BF
100
AcDbEntity
8
1
62
256
6
ByLayer
370
18
48
1
60
0
100
AcDbSpline
70
4
71
3
72
12
73
8
40
0
40
0
40
0
40
0
40
0.212169538162125
40
0.212169538162125
40
0.501672965295392
40
0.501672965295392
40
1
40
1
40
1
40
1
41
1
10
-0.324980947173543
20
-16.7870313841534
30
0
41
1
10
-0.324980947172378
20
-16.7943104762386
30
0
41
1
10
-0.32308979428376
20
-16.8032870810781
30
0
41
1
10
-0.315715255916956
20
-16.8262966636271
30
0
41
1
10
-0.309094068569465
20
-16.8412601743114
30
0
41
1
10
-0.287583008921388
20
-16.8830332398094
30
0
41
1
10
-0.269800820179171
20
-16.911511971339
30
0
41
1
10
-0.249980947161703
20
-16.939753936379
30
0
0
SPLINE
5
1C0
100
AcDbEntity
8
1
62
256
6
ByLayer
370
18
48
1
60
0
100
AcDbSpline
70
4
71
3
72
12
73
8
40
0
40
0
40
0
40
0
40
0.47326490505548
40
0.47326490505548
40
0.81697481540114
40
0.81697481540114
40
1
40
1
40
1
40
1
41
1
10
-0.249980947161674
20
16.939753936379
30
0
41
1
10
-0.268821131413944
20
16.9129079609012
30
0
41
1
10
-0.285793966152596
20
16.885881903662
30
0
41
1
10
-0.308761278058853
20
16.8422833192478
30
0
41
1
10
-0.316700819517479
20
16.8244275612491
30
0
41
1
10
-0.323564867151873
20
16.8008983003295
30
0
41
1
10
-0.324980947166523
20
16.793329465927
30
0
41
1
10
-0.324980947167205
20
16.7870313841585
30
0
0
SPLINE
5
1C1
100
AcDbEntity
8
1
62
256
6
ByLayer
370
18
48
1
60
0
100
AcDbSpline
70
4
71
3
72
8
73
4
40
0
40
0
40
0
40
0
40
1
40
1
40
1
40
1
41
1
10
-0.249980947161674
20
-16.939753936379
30
0
41
1
10
-0.0373804354690037
20
-17.2426951415731
30
0
41
1
10
0.177537098598009
20
-17.5434843169751
30
0
41
1
10
0.394519052838319
20
-17.8422547739247
30
0
0
SPLINE
5
1C2
100
AcDbEntity
8
1
62
256
6
ByLayer
370
18
48
1
60
0
100
AcDbSpline
70
4
71
3
72
8
73
4
40
0
40
0
40
0
40
0
40
1
40
1
40
1
40
1
41
1
10
0.394519052838319
20
17.8422547739247
30
0
41
1
10
0.177537098598009
20
17.5434843169751
30
0
41
1
10
-0.0373804354690037
20
17.2426951415731
30
0
41
1
10
-0.249980947161674
20
16.939753936379
30
0
0
SPLINE
5
1C3
100
AcDbEntity
8
1
62
256
6
ByLayer
370
18
48
1
60
0
100
AcDbSpline
70
4
71
3
72
22
73
18
40
0
40
0
40
0
40
0
40
0.0996009383894909
40
0.0996009383894909
40
0.342283511585808
40
0.342283511585808
40
0.500930550393347
40
0.500930550393347
40
0.611741140765428
40
0.611741140765428
40
0.698354218185848
40
0.698354218185848
40
0.799946951367918
40
0.799946951367918
40
0.90039410404025
40
0.90039410404025
40
1
40
1
40
1
40
1
41
1
10
0.394519052838319
20
-17.8422547739247
30
0
41
1
10
0.402514156738278
20
-17.8532635274126
30
0
41
1
10
0.410195410625647
20
-17.8642416153249
30
0
41
1
10
0.435056494855388
20
-17.9012826679856
30
0
41
1
10
0.450672548658815
20
-17.9272440214238
30
0
41
1
10
0.469507950899299
20
-17.9657553997812
30
0
41
1
10
0.475277139513196
20
-17.9801687429301
30
0
41
1
10
0.479790919031018
20
-18.000219343869
30
0
41
1
10
0.480118978036785
20
-18.0073366577445
30
0
41
1
10
0.476914865968894
20
-18.0160872377471
30
0
41
1
10
0.474147438762969
20
-18.0186306360141
30
0
41
1
10
0.465263962606372
20
-18.0204602901618
30
0
41
1
10
0.458484729048393
20
-18.0191155281399
30
0
41
1
10
0.442724613280035
20
-18.0124220375215
30
0
41
1
10
0.433572505425246
20
-18.0070735891332
30
0
41
1
10
0.414587426887323
20
-17.9940548718637
30
0
41
1
10
0.404574643246065
20
-17.9863011376089
30
0
41
1
10
0.394519052838348
20
-17.9778880275986
30
0
0
SPLINE
5
1C4
100
AcDbEntity
8
1
62
256
6
ByLayer
370
18
48
1
60
0
100
AcDbSpline
70
4
71
3
72
22
73
18
40
0
40
0
40
0
40
0
40
0.0443544830707036
40
0.0443544830707036
40
0.159231975096872
40
0.159231975096872
40
0.244809661143529
40
0.244809661143529
40
0.341142586698703
40
0.341142586698703
40
0.436639026665966
40
0.436639026665966
40
0.563389943072091
40
0.563389943072091
40
0.727084273793224
40
0.727084273793224
40
1
40
1
40
1
40
1
41
1
10
0.394519052838319
20
17.9778880275985
30
0
41
1
10
0.399036008183401
20
17.9816671833407
30
0
41
1
10
0.403531993006226
20
17.9853037513096
30
0
41
1
10
0.419355141826031
20
17.997592826459
30
0
41
1
10
0.430569122266689
20
18.0053266043315
30
0
41
1
10
0.447941029922419
20
18.014897702119
30
0
41
1
10
0.454798452217489
20
18.01779090349
30
0
41
1
10
0.46678701114422
20
18.0204638772606
30
0
41
1
10
0.471754989419225
20
18.0198206699188
30
0
41
1
10
0.478032212565267
20
18.0146963943843
30
0
41
1
10
0.479492688712298
20
18.0102162856553
30
0
41
1
10
0.479553127236159
20
17.9969443103709
30
0
41
1
10
0.477135407653805
20
17.9870683640632
30
0
41
1
10
0.468055311623289
20
17.9621642454125
30
0
41
1
10
0.460279573202712
20
17.9461328495388
30
0
41
1
10
0.435797416086814
20
17.902007127528
30
0
41
1
10
0.416166898633293
20
17.872062491358
30
0
41
1
10
0.394519052838319
20
17.8422547739247
30
0
0
SPLINE
5
1C5
100
AcDbEntity
8
1
62
256
6
ByLayer
370
18
48
1
60
0
100
AcDbSpline
70
4
71
3
72
8
73
4
40
0
40
0
40
0
40
0
40
1
40
1
40
1
40
1
41
1
10
-0.249980947161504
20
17.438263679064
30
0
41
1
10
-0.0352037617522569
20
17.6182278416682
30
0
41
1
10
0.179631255542319
20
17.7981000086727
30
0
41
1
10
0.394519052838319
20
17.9778880275985
30
0
0
SPLINE
5
1C6
100
AcDbEntity
8
1
62
256
6
ByLayer
370
18
48
1
60
0
100
AcDbSpline
70
4
71
3
72
8
73
4
40
0
40
0
40
0
40
0
40
1
40
1
40
1
40
1
41
1
10
0.394519052838319
20
-17.9778880275985
30
0
41
1
10
0.17963125554229
20
-17.7981000086727
30
0
41
1
10
-0.0352037617522569
20
-17.6182278416682
30
0
41
1
10
-0.249980947161532
20
-17.438263679064
30
0
0
SPLINE
5
1C7
100
AcDbEntity
8
1
62
256
6
ByLayer
370
18
48
1
60
0
100
AcDbSpline
70
4
71
3
72
16
73
12
40
0
40
0
40
0
40
0
40
0.105005434329982
40
0.105005434329982
40
0.305020467446766
40
0.305020467446766
40
0.538919929864878
40
0.538919929864878
40
0.770234326559233
40
0.770234326559233
40
1
40
1
40
1
40
1
41
1
10
-0.324980947161691
20
17.4134725186275
30
0
41
1
10
-0.324980947161691
20
17.411119962308
30
0
41
1
10
-0.324688648690483
20
17.409025579498
30
0
41
1
10
-0.322904003239103
20
17.4039115445794
30
0
41
1
10
-0.320509550441642
20
17.4017164035059
30
0
41
1
10
-0.312728591230268
20
17.4002140532379
30
0
41
1
10
-0.306758661380002
20
17.4014538069154
30
0
41
1
10
-0.292827308714209
20
17.407461082519
30
0
41
1
10
-0.284715249652521
20
17.4122320588242
30
0
41
1
10
-0.267850422109802
20
17.4238421122452
30
0
41
1
10
-0.258936628568165
20
17.4307596152509
30
0
41
1
10
-0.249980947161532
20
17.4382636790639
30
0
0
SPLINE
5
1C8
100
AcDbEntity
8
1
62
256
6
ByLayer
370
18
48
1
60
0
100
AcDbSpline
70
4
71
3
72
16
73
12
40
0
40
0
40
0
40
0
40
0.236200395450643
40
0.236200395450643
40
0.437664912560569
40
0.437664912560569
40
0.641601987592455
40
0.641601987592455
40
0.865665641957819
40
0.865665641957819
40
1
40
1
40
1
40
1
41
1
10
-0.249980947161532
20
-17.4382636790639
30
0
41
1
10
-0.259183921816629
20
-17.4305524055219
30
0
41
1
10
-0.26834632408287
20
-17.4234578890948
30
0
41
1
10
-0.284325701687465
20
-17.4125402693704
30
0
41
1
10
-0.291405739683626
20
-17.4083255800805
30
0
41
1
10
-0.303959691525705
20
-17.4024812235317
30
0
41
1
10
-0.309542189271809
20
-17.4008411993784
30
0
41
1
10
-0.318533694836958
20
-17.4006997517748
30
0
41
1
10
-0.32180532139003
20
-17.4025246765792
30
0
41
1
10
-0.32450411397852
20
-17.4078942988141
30
0
41
1
10
-0.32498094716172
20
-17.410474826505
30
0
41
1
10
-0.32498094716172
20
-17.4134725186275
30
0
0
SPLINE
5
1C9
100
AcDbEntity
8
1
62
256
6
ByLayer
370
18
48
1
60
0
100
AcDbSpline
70
4
71
3
72
14
73
10
40
0
40
0
40
0
40
0
40
0.0066693109856912
40
0.0066693109856912
40
0.23468681251538
40
0.23468681251538
40
0.532407178518156
40
0.532407178518156
40
1
40
1
40
1
40
1
41
1
10
-0.324980947161663
20
-17.5000603949211
30
0
41
1
10
-0.324980947161663
20
-17.5002439900365
30
0
41
1
10
-0.324979061598498
20
-17.5004293085476
30
0
41
1
10
-0.324848799825389
20
-17.5069217872542
30
0
41
1
10
-0.322575271080751
20
-17.5152199018868
30
0
41
1
10
-0.314163599411501
20
-17.536392122987
30
0
41
1
10
-0.306978426105786
20
-17.5501847687632
30
0
41
1
10
-0.285223515491907
20
-17.5868892355834
30
0
41
1
10
-0.268411910255111
20
-17.6112459850686
30
0
41
1
10
-0.249980947161674
20
-17.6355675589553
30
0
0
SPLINE
5
1CA
100
AcDbEntity
8
1
62
256
6
ByLayer
370
18
48
1
60
0
100
AcDbSpline
70
4
71
3
72
14
73
10
40
0
40
0
40
0
40
0
40
0.0529859011686592
40
0.0529859011686592
40
0.513762945136161
40
0.513762945136161
40
0.826593430374573
40
0.826593430374573
40
1
40
1
40
1
40
1
41
1
10
-0.249980947161674
20
17.6355675589552
30
0
41
1
10
-0.252098223320388
20
17.6327735927218
30
0
41
1
10
-0.254190442382821
20
17.629983835738
30
0
41
1
10
-0.27401088966684
20
17.6032703638716
30
0
41
1
10
-0.290089958966007
20
17.5793909261422
30
0
41
1
10
-0.31085421003371
20
17.5429413036
30
0
41
1
10
-0.317711363292403
20
17.5288576775035
30
0
41
1
10
-0.323734576929695
20
17.5106212635558
30
0
41
1
10
-0.324980947163254
20
17.5047589732248
30
0
41
1
10
-0.32498094716351
20
17.5000603949206
30
0
0
SPLINE
5
1CB
100
AcDbEntity
8
1
62
256
6
ByLayer
370
18
48
1
60
0
100
AcDbSpline
70
4
71
3
72
8
73
4
40
0
40
0
40
0
40
0
40
1
40
1
40
1
40
1
41
1
10
-0.249980947161674
20
-17.6355675589553
30
0
41
1
10
-0.0368701453001563
20
-17.9167894401584
30
0
41
1
10
0.178025589846356
20
-18.1962188143275
30
0
41
1
10
0.394519052838319
20
-18.4739743524118
30
0
0
SPLINE
5
1CC
100
AcDbEntity
8
1
62
256
6
ByLayer
370
18
48
1
60
0
100
AcDbSpline
70
4
71
3
72
8
73
4
40
0
40
0
40
0
40
0
40
1
40
1
40
1
40
1
41
1
10
0.394519052838319
20
18.4739743524118
30
0
41
1
10
0.178025589846356
20
18.1962188143275
30
0
41
1
10
-0.0368701453001563
20
17.9167894401584
30
0
41
1
10
-0.249980947161674
20
17.6355675589552
30
0
0
SPLINE
5
1CD
100
AcDbEntity
8
1
62
256
6
ByLayer
370
18
48
1
60
0
100
AcDbSpline
70
4
71
3
72
22
73
18
40
0
40
0
40
0
40
0
40
0.114772355383792
40
0.114772355383792
40
0.334702371511462
40
0.334702371511462
40
0.483500756158271
40
0.483500756158271
40
0.576894421909459
40
0.576894421909459
40
0.669567522062991
40
0.669567522062991
40
0.779064164937133
40
0.779064164937133
40
0.887255425747213
40
0.887255425747213
40
1
40
1
40
1
40
1
41
1
10
0.394519052838319
20
-18.4739743524118
30
0
41
1
10
0.403874244675819
20
-18.4859768226333
30
0
41
1
10
0.412834536197835
20
-18.4979089444933
30
0
41
1
10
0.43721214638768
20
-18.531813020687
30
0
41
1
10
0.451507721099574
20
-18.5536051836108
30
0
41
1
10
0.469265973227067
20
-18.5858012962845
30
0
41
1
10
0.474860078033686
20
-18.5978845359754
30
0
41
1
10
0.479360105263339
20
-18.6135397770739
30
0
41
1
10
0.479981776712378
20
-18.6186915120958
30
0
41
1
10
0.478329528776044
20
-18.6260096094435
30
0
41
1
10
0.476033300873553
20
-18.6282532709774
30
0
41
1
10
0.467863799058961
20
-18.6293136503589
30
0
41
1
10
0.461262790967254
20
-18.6274379539824
30
0
41
1
10
0.445564647329064
20
-18.6196832248233
30
0
41
1
10
0.436302784384424
20
-18.6137918562315
30
0
41
1
10
0.416402452201055
20
-18.5993943551555
30
0
41
1
10
0.405514587422914
20
-18.5906614843193
30
0
41
1
10
0.394519052838348
20
-18.5812482082594
30
0
0
SPLINE
5
1CE
100
AcDbEntity
8
1
62
256
6
ByLayer
370
18
48
1
60
0
100
AcDbSpline
70
4
71
3
72
22
73
18
40
0
40
0
40
0
40
0
40
0.052402704037037
40
0.052402704037037
40
0.176911195342276
40
0.176911195342276
40
0.267182162122504
40
0.267182162122504
40
0.365848626664089
40
0.365848626664089
40
0.463881461402673
40
0.463881461402673
40
0.588497547024034
40
0.588497547024034
40
0.749171358829694
40
0.749171358829694
40
1
40
1
40
1
40
1
41
1
10
0.394519052838319
20
18.5812482082593
30
0
41
1
10
0.399678241747836
20
18.5856649893696
30
0
41
1
10
0.40479827299589
20
18.589919542682
30
0
41
1
10
0.421664916028163
20
18.6034373760455
30
0
41
1
10
0.433216805629144
20
18.6118395848942
30
0
41
1
10
0.450654695434935
20
18.6224154468732
30
0
41
1
10
0.457358651402529
20
18.6257293577357
30
0
41
1
10
0.46873152298042
20
18.6293104081995
30
0
41
1
10
0.47329303858595
20
18.6292892926581
30
0
41
1
10
0.478790786431148
20
18.6254762527657
30
0
41
1
10
0.479847343810348
20
18.6216837936205
30
0
41
1
10
0.478895027362512
20
18.6101348784836
30
0
41
1
10
0.476024660894098
20
18.6014561077749
30
0
41
1
10
0.466024409520742
20
18.5792014142595
30
0
41
1
10
0.457806838810228
20
18.5646342653364
30
0
41
1
10
0.433331336721494
20
18.5257981377012
30
0
41
1
10
0.414738013536436
20
18.499914758328
30
0
41
1
10
0.394519052838319
20
18.4739743524118
30
0
0
SPLINE
5
1CF
100
AcDbEntity
8
1
62
256
6
ByLayer
370
18
48
1
60
0
100
AcDbSpline
70
4
71
3
72
8
73
4
40
0
40
0
40
0
40
0
40
1
40
1
40
1
40
1
41
1
10
-0.249980947161561
20
18.02872875272
30
0
41
1
10
-0.0352562688701994
20
18.2130707755636
30
0
41
1
10
0.179580285593943
20
18.3972391510824
30
0
41
1
10
0.394519052838319
20
18.5812482082593
30
0
0
SPLINE
5
1D0
100
AcDbEntity
8
1
62
256
6
ByLayer
370
18
48
1
60
0
100
AcDbSpline
70
4
71
3
72
8
73
4
40
0
40
0
40
0
40
0
40
1
40
1
40
1
40
1
41
1
10
0.394519052838319
20
-18.5812482082593
30
0
41
1
10
0.179580285593943
20
-18.3972391510824
30
0
41
1
10
-0.0352562688701994
20
-18.2130707755636
30
0
41
1
10
-0.249980947161589
20
-18.02872875272
30
0
0
SPLINE
5
1D1
100
AcDbEntity
8
1
62
256
6
ByLayer
370
18
48
1
60
0
100
AcDbSpline
70
4
71
3
72
16
73
12
40
0
40
0
40
0
40
0
40
0.180935476453112
40
0.180935476453112
40
0.444410227486278
40
0.444410227486278
40
0.648700289754784
40
0.648700289754784
40
0.867168016113928
40
0.867168016113928
40
1
40
1
40
1
40
1
41
1
10
-0.249980947161589
20
-18.02872875272
30
0
41
1
10
-0.25702518471428
20
-18.0226812456975
30
0
41
1
10
-0.263997318186853
20
-18.0169601388965
30
0
41
1
10
-0.280421553849294
20
-18.0042837566079
30
0
41
1
10
-0.289778809121629
20
-17.9977929041239
30
0
41
1
10
-0.304023568660682
20
-17.9897141195596
30
0
41
1
10
-0.309560757536758
20
-17.9873012900097
30
0
41
1
10
-0.31844124311209
20
-17.9853634959566
30
0
41
1
10
-0.321715444542036
20
-17.9860379718581
30
0
41
1
10
-0.324478768103745
20
-17.9896102366798
30
0
41
1
10
-0.32498094716172
20
-17.9915384581584
30
0
41
1
10
-0.32498094716172
20
-17.9939249199246
30
0
0
SPLINE
5
1D2
100
AcDbEntity
8
1
62
256
6
ByLayer
370
18
48
1
60
0
100
AcDbSpline
70
4
71
3
72
14
73
10
40
0
40
0
40
0
40
0
40
0.25
40
0.25
40
0.5
40
0.5
40
0.75
40
0.75
40
1
40
1
40
1
40
1
41
1
10
9.82016042092627
20
5.15425160827334
30
0
41
1
10
8.84471813029114
20
5.43264478326157
30
0
41
1
10
7.99578251077938
20
5.92416692038029
30
0
41
1
10
6.85414594058776
20
7.56624674024312
30
0
41
1
10
6.56430965223521
20
8.72344806063364
30
0
41
1
10
6.56605198349422
20
11.0863233223228
30
0
41
1
10
6.85626287704207
20
12.2365955070278
30
0
41
1
10
7.99567562547486
20
13.8738603218205
30
0
41
1
10
8.8440194012941
20
14.3661456713126
30
0
41
1
10
9.82016042092627
20
14.64473826495
30
0
0
SPLINE
5
1D3
100
AcDbEntity
8
1
62
256
6
ByLayer
370
18
48
1
60
0
100
AcDbSpline
70
4
71
3
72
10
73
6
40
0
40
0
40
0
40
0
40
0.5
40
0.5
40
1
40
1
40
1
40
1
41
1
10
22.8794752990154
20
-19.0049118555051
30
0
41
1
10
24.255069757647
20
-19.0222187311694
30
0
41
1
10
25.7359292992903
20
-18.994212023994
30
0
41
1
10
27.8464634625072
20
-18.906779452762
30
0
41
1
10
28.4576060414506
20
-18.8585208940102
30
0
41
1
10
28.3908664339032
20
-18.8511732336098
30
0
0
SPLINE
5
1D4
100
AcDbEntity
8
1
62
256
6
ByLayer
370
18
48
1
60
0
100
AcDbSpline
70
4
71
3
72
14
73
10
40
0
40
0
40
0
40
0
40
0.269150422219365
40
0.269150422219365
40
0.512947828365426
40
0.512947828365426
40
0.75646462765584
40
0.75646462765584
40
1
40
1
40
1
40
1
41
1
10
22.7999393388309
20
-18.9989699002163
30
0
41
1
10
22.7997250764677
20
-18.9996963804037
30
0
41
1
10
22.8018549971066
20
-19.0004401183785
30
0
41
1
10
22.8099926025667
20
-19.0017506075093
30
0
41
1
10
22.815729059583
20
-19.002345445436
30
0
41
1
10
22.8299768564456
20
-19.0033763069484
30
0
41
1
10
22.8386809265989
20
-19.0038266129748
30
0
41
1
10
22.8578240677748
20
-19.004520771136
30
0
41
1
10
22.8685271393698
20
-19.0047741125559
30
0
41
1
10
22.8794752990154
20
-19.0049118555051
30
0
0
SPLINE
5
1D5
100
AcDbEntity
8
1
62
256
6
ByLayer
370
18
48
1
60
0
100
AcDbSpline
70
4
71
3
72
32
73
28
40
0
40
0
40
0
40
0
40
0.0832028700705529
40
0.0832028700705529
40
0.159735569054616
40
0.159735569054616
40
0.236302134909571
40
0.236302134909571
40
0.31281452906394
40
0.31281452906394
40
0.38921755950706
40
0.38921755950706
40
0.465504634174002
40
0.465504634174002
40
0.541712173730482
40
0.541712173730482
40
0.617902556611803
40
0.617902556611803
40
0.694143529288625
40
0.694143529288625
40
0.770487081012156
40
0.770487081012156
40
0.846949579294283
40
0.846949579294283
40
0.923476873350895
40
0.923476873350895
40
1
40
1
40
1
40
1
41
1
10
22.2768666302453
20
-19.0218533396548
30
0
41
1
10
22.2305501014717
20
-19.0209026147661
30
0
41
1
10
22.1863198551305
20
-19.019385590221
30
0
41
1
10
22.1135995579585
20
-19.015702924087
30
0
41
1
10
22.0831216149962
20
-19.0135487996986
30
0
41
1
10
22.0360202110906
20
-19.0088581866292
30
0
41
1
10
22.0187506287211
20
-19.0062574281716
30
0
41
1
10
21.9996392702302
20
-19.0010033672614
30
0
41
1
10
21.9975228707704
20
-18.9982780094261
30
0
41
1
10
22.008506126196
20
-18.9930864357583
30
0
41
1
10
22.0217355486019
20
-18.9905482753728
30
0
41
1
10
22.0614785130522
20
-18.985987558049
30
0
41
1
10
22.088518455029
20
-18.9839009647808
30
0
41
1
10
22.1524852966441
20
-18.9804263944852
30
0
41
1
10
22.190281361636
20
-18.9789891686635
30
0
41
1
10
22.2712872254606
20
-18.9769196649516
30
0
41
1
10
22.3156110684502
20
-18.9762581170865
30
0
41
1
10
22.4046043211387
20
-18.9757735465273
30
0
41
1
10
22.4505019251679
20
-18.975944235774
30
0
41
1
10
22.5375170655709
20
-18.9770887216471
30
0
41
1
10
22.5798315915478
20
-18.9780797866119
30
0
41
1
10
22.6550542857578
20
-18.9807605448193
30
0
41
1
10
22.6889898050669
20
-18.9824891723521
30
0
41
1
10
22.743851940086
20
-18.986468878593
30
0
41
1
10
22.7655273464641
20
-18.9887762347749
30
0
41
1
10
22.7937656667788
20
-18.9936694447476
30
0
41
1
10
22.8007199053196
20
-18.9963233033963
30
0
41
1
10
22.7999393388309
20
-18.9989699002163
30
0
0
SPLINE
5
1D6
100
AcDbEntity
8
1
62
256
6
ByLayer
370
18
48
1
60
0
100
AcDbSpline
70
4
71
3
72
10
73
6
40
0
40
0
40
0
40
0
40
0.505531559795228
40
0.505531559795228
40
1
40
1
40
1
40
1
41
1
10
15.5
20
-19.4110906646454
30
0
41
1
10
15.5810591156806
20
-19.4379581121651
30
0
41
1
10
15.6645569827412
20
-19.4583457041804
30
0
41
1
10
15.8317941146981
20
-19.4851236698191
30
0
41
1
10
15.9160283796467
20
-19.4918266849593
30
0
41
1
10
16
20
-19.4918266849593
30
0
0
SPLINE
5
1D7
100
AcDbEntity
8
1
62
256
6
ByLayer
370
18
48
1
60
0
100
AcDbSpline
70
4
71
3
72
8
73
4
40
0
40
0
40
0
40
0
40
1
40
1
40
1
40
1
41
1
10
35.4375074326729
20
-24.2004339884499
30
0
41
1
10
35.4367650940097
20
-24.2029005097847
30
0
41
1
10
35.4407258062162
20
-24.2054188320357
30
0
41
1
10
35.4493422020178
20
-24.2079600246358
30
0
0
SPLINE
5
1D8
100
AcDbEntity
8
1
62
256
6
ByLayer
370
18
48
1
60
0
100
AcDbSpline
70
4
71
3
72
8
73
4
40
0
40
0
40
0
40
0
40
1
40
1
40
1
40
1
41
1
10
32.2576512255871
20
-24.2699195504348
30
0
41
1
10
31.7880614024864
20
-24.2864051823151
30
0
41
1
10
31.2903484858998
20
-24.3020048398389
30
0
41
1
10
30.765840650129
20
-24.3160516812329
30
0
0
SPLINE
5
1D9
100
AcDbEntity
8
1
62
256
6
ByLayer
370
18
48
1
60
0
100
AcDbSpline
70
4
71
3
72
14
73
10
40
0
40
0
40
0
40
0
40
0.172121988938701
40
0.172121988938701
40
0.4480149167775
40
0.4480149167775
40
0.724011626775742
40
0.724011626775742
40
1
40
1
40
1
40
1
41
1
10
37.6285164486077
20
-24.3038152876855
30
0
41
1
10
37.7410279126748
20
-24.3038152876855
30
0
41
1
10
37.8541604649424
20
-24.3032653291838
30
0
41
1
10
38.138978686265
20
-24.3004796445372
30
0
41
1
10
38.3097326382468
20
-24.2973782273403
30
0
41
1
10
38.6149125102323
20
-24.2890668061399
30
0
41
1
10
38.7535306636647
20
-24.2837465824098
30
0
41
1
10
38.9797938883243
20
-24.2718997907262
30
0
41
1
10
39.0705610411126
20
-24.2652156932423
30
0
41
1
10
39.1314753774301
20
-24.2584283983585
30
0
0
SPLINE
5
1DA
100
AcDbEntity
8
1
62
256
6
ByLayer
370
18
48
1
60
0
100
AcDbSpline
70
4
71
3
72
8
73
4
40
0
40
0
40
0
40
0
40
1
40
1
40
1
40
1
41
1
10
25.8297751287217
20
-23.9115752179241
30
0
41
1
10
27.5704422410242
20
-23.9115752179241
30
0
41
1
10
29.2482691847771
20
-24.3566937540948
30
0
41
1
10
30.765840650129
20
-24.3160516812331
30
0
0
SPLINE
5
1DB
100
AcDbEntity
8
1
62
256
6
ByLayer
370
18
48
1
60
0
100
AcDbSpline
70
4
71
3
72
8
73
4
40
0
40
0
40
0
40
0
40
1
40
1
40
1
40
1
41
1
10
22.8423626976071
20
-25.5546147721142
30
0
41
1
10
21.6267966325363
20
-25.590142458473
30
0
41
1
10
20.5035281938109
20
-25.6513828878455
30
0
41
1
10
19.4721380766906
20
-25.7429684728655
30
0
0
SPLINE
5
1DC
100
AcDbEntity
8
1
62
256
6
ByLayer
370
18
48
1
60
0
100
AcDbSpline
70
4
71
3
72
10
73
6
40
0
40
0
40
0
40
0
40
0.5
40
0.5
40
1
40
1
40
1
40
1
41
1
10
47.4
20
-24.3573720173721
30
0
41
1
10
47.4000000000114
20
-24.4733138901562
30
0
41
1
10
46.6396540482707
20
-24.628677946761
30
0
41
1
10
43.8532424028426
20
-24.9235829351065
30
0
41
1
10
41.903792389213
20
-25.0505920170452
30
0
41
1
10
39.7114091199408
20
-25.103726624989
30
0
0
LINE
5
72
100
AcDbEntity
8
81
62
256
6
ByLayer
370
18
48
1
60
0
100
AcDbLine
10
48
20
-24.5
30
0
11
53
21
-24.5
31
0
39
0
210
0
220
0
230
1
0
LINE
5
73
100
AcDbEntity
8
80
62
256
6
ByLayer
370
18
48
1
60
0
100
AcDbLine
10
0
20
0
30
0
11
-5
21
0
31
0
39
0
210
0
220
0
230
1
0
LINE
5
74
100
AcDbEntity
8
1
62
256
6
ByLayer
370
18
48
1
60
0
100
AcDbLine
10
41.208096
20
-18.85
30
0
11
28.82668
21
-18.85
31
0
39
0
210
0
220
0
230
1
0
LINE
5
75
100
AcDbEntity
8
1
62
256
6
ByLayer
370
18
48
1
60
0
100
AcDbLine
10
28.410807
20
-18.85
30
0
11
16
21
-18.85
31
0
39
0
210
0
220
0
230
1
0
LINE
5
76
100
AcDbEntity
8
1
62
256
6
ByLayer
370
18
48
1
60
0
100
AcDbLine
10
4.475
20
-24.318274
30
0
11
30.571701
21
-24.318274
31
0
39
0
210
0
220
0
230
1
0
LINE
5
77
100
AcDbEntity
8
1
62
256
6
ByLayer
370
18
48
1
60
0
100
AcDbLine
10
14.4
20
20.3
30
0
11
12.719197
21
20.3
31
0
39
0
210
0
220
0
230
1
0
LINE
5
78
100
AcDbEntity
8
1
62
256
6
ByLayer
370
18
48
1
60
0
100
AcDbLine
10
-0.324981
20
-19.000019
30
0
11
0.675
21
-20
31
0
39
0
210
0
220
0
230
1
0
LINE
5
79
100
AcDbEntity
8
1
62
256
6
ByLayer
370
18
48
1
60
0
100
AcDbLine
10
0.675
20
20
30
0
11
-0.324981
21
19.000019
31
0
39
0
210
0
220
0
230
1
0
LINE
5
7A
100
AcDbEntity
8
1
62
256
6
ByLayer
370
18
48
1
60
0
100
AcDbLine
10
3.475
20
20
30
0
11
0.675
21
20
31
0
39
0
210
0
220
0
230
1
0
LINE
5
7B
100
AcDbEntity
8
1
62
256
6
ByLayer
370
18
48
1
60
0
100
AcDbLine
10
0.675
20
-20
30
0
11
3.475
21
-20
31
0
39
0
210
0
220
0
230
1
0
LINE
5
7C
100
AcDbEntity
8
1
62
256
6
ByLayer
370
18
48
1
60
0
100
AcDbLine
10
8.093721
20
20.3
30
0
11
4.189143
21
20.3
31
0
39
0
210
0
220
0
230
1
0
LINE
5
7D
100
AcDbEntity
8
1
62
256
6
ByLayer
370
18
48
1
60
0
100
AcDbLine
10
28.396034
20
-18.891355
30
0
11
28.396034
21
-18.85
31
0
39
0
210
0
220
0
230
1
0
LINE
5
7E
100
AcDbEntity
8
1
62
256
6
ByLayer
370
18
48
1
60
0
100
AcDbLine
10
-0.324981
20
19.000019
30
0
11
-0.324981
21
18.999752
31
0
39
0
210
0
220
0
230
1
0
LINE
5
7F
100
AcDbEntity
8
1
62
256
6
ByLayer
370
18
48
1
60
0
100
AcDbLine
10
-0.324981
20
-18.999752
30
0
11
-0.324981
21
-19.000019
31
0
39
0
210
0
220
0
230
1
0
LINE
5
80
100
AcDbEntity
8
1
62
256
6
ByLayer
370
18
48
1
60
0
100
AcDbLine
10
0.675
20
-20
30
0
11
0.675
21
20
31
0
39
0
210
0
220
0
230
1
0
LINE
5
81
100
AcDbEntity
8
1
62
256
6
ByLayer
370
13
48
1
60
0
100
AcDbLine
10
47.4
20
-21.142805
30
0
11
41.866512
21
-21.384402
31
0
39
0
210
0
220
0
230
1
0
LINE
5
82
100
AcDbEntity
8
1
62
256
6
ByLayer
370
13
48
1
60
0
100
AcDbLine
10
41.898512
20
-22.149788
30
0
11
47.4
21
-21.909588
31
0
39
0
210
0
220
0
230
1
0
LINE
5
83
100
AcDbEntity
8
1
62
256
6
ByLayer
370
18
48
1
60
0
100
AcDbLine
10
4.189143
20
20.3
30
0
11
4.189143
21
-9.02082
31
0
39
0
210
0
220
0
230
1
0
LINE
5
84
100
AcDbEntity
8
1
62
256
6
ByLayer
370
18
48
1
60
0
100
AcDbLine
10
14.4
20
20.3
30
0
11
14.4
21
18.837427
31
0
39
0
210
0
220
0
230
1
0
LINE
5
85
100
AcDbEntity
8
1
62
256
6
ByLayer
370
13
48
1
60
0
100
AcDbLine
10
41.864073
20
-21.324702
30
0
11
47.4
21
-21.082999
31
0
39
0
210
0
220
0
230
1
0
LINE
5
86
100
AcDbEntity
8
1
62
256
6
ByLayer
370
13
48
1
60
0
100
AcDbLine
10
47.4
20
-21.969395
30
0
11
41.901002
21
-22.209486
31
0
39
0
210
0
220
0
230
1
0
LINE
5
87
100
AcDbEntity
8
1
62
256
6
ByLayer
370
13
48
1
60
0
100
AcDbLine
10
47.4
20
-21.839396
30
0
11
41.895603
21
-22.079723
31
0
39
0
210
0
220
0
230
1
0
LINE
5
88
100
AcDbEntity
8
1
62
256
6
ByLayer
370
13
48
1
60
0
100
AcDbLine
10
36.820929
20
-24.147482
30
0
11
36.827754
21
-24.303815
31
0
39
0
210
0
220
0
230
1
0
LINE
5
89
100
AcDbEntity
8
1
62
256
6
ByLayer
370
13
48
1
60
0
100
AcDbLine
10
39.125183
20
-24.114317
30
0
11
39.131475
21
-24.258428
31
0
39
0
210
0
220
0
230
1
0
LINE
5
8A
100
AcDbEntity
8
1
62
256
6
ByLayer
370
13
48
1
60
0
100
AcDbLine
10
15.5
20
-23.911575
30
0
11
15.5
21
-19.411091
31
0
39
0
210
0
220
0
230
1
0
LINE
5
8B
100
AcDbEntity
8
1
62
256
6
ByLayer
370
13
48
1
60
0
100
AcDbLine
10
11.967019
20
-23.207025
30
0
11
4.475
21
-23.207025
31
0
39
0
210
0
220
0
230
1
0
LINE
5
8C
100
AcDbEntity
8
1
62
256
6
ByLayer
370
13
48
1
60
0
100
AcDbLine
10
5.032239
20
-9.02082
30
0
11
4.189143
21
-9.02082
31
0
39
0
210
0
220
0
230
1
0
LINE
5
8D
100
AcDbEntity
8
1
62
256
6
ByLayer
370
13
48
1
60
0
100
AcDbLine
10
0.394519
20
9.816033
30
0
11
0.394519
21
9.284126
31
0
39
0
210
0
220
0
230
1
0
LINE
5
8E
100
AcDbEntity
8
1
62
256
6
ByLayer
370
13
48
1
60
0
100
AcDbLine
10
0.394519
20
-9.284126
30
0
11
0.394519
21
-9.816033
31
0
39
0
210
0
220
0
230
1
0
LINE
5
8F
100
AcDbEntity
8
1
62
256
6
ByLayer
370
18
48
1
60
0
100
AcDbLine
10
-0.324981
20
9.242033
30
0
11
-0.324981
21
6.372959
31
0
39
0
210
0
220
0
230
1
0
LINE
5
90
100
AcDbEntity
8
1
62
256
6
ByLayer
370
18
48
1
60
0
100
AcDbLine
10
-0.324981
20
-6.372959
30
0
11
-0.324981
21
-9.242033
31
0
39
0
210
0
220
0
230
1
0
LINE
5
91
100
AcDbEntity
8
1
62
256
6
ByLayer
370
13
48
1
60
0
100
AcDbLine
10
3.475
20
20
30
0
11
3.475
21
-20
31
0
39
0
210
0
220
0
230
1
0
LINE
5
92
100
AcDbEntity
8
1
62
256
6
ByLayer
370
13
48
1
60
0
100
AcDbLine
10
-0.249981
20
9.161928
30
0
11
-0.249981
21
6.935866
31
0
39
0
210
0
220
0
230
1
0
LINE
5
93
100
AcDbEntity
8
1
62
256
6
ByLayer
370
13
48
1
60
0
100
AcDbLine
10
-0.249981
20
-6.935866
30
0
11
-0.249981
21
-9.161928
31
0
39
0
210
0
220
0
230
1
0
LINE
5
94
100
AcDbEntity
8
1
62
256
6
ByLayer
370
13
48
1
60
0
100
AcDbLine
10
0.394519
20
6.541878
30
0
11
0.394519
21
5.63501
31
0
39
0
210
0
220
0
230
1
0
LINE
5
95
100
AcDbEntity
8
1
62
256
6
ByLayer
370
13
48
1
60
0
100
AcDbLine
10
0.394519
20
-5.63501
30
0
11
0.394519
21
-6.541878
31
0
39
0
210
0
220
0
230
1
0
LINE
5
96
100
AcDbEntity
8
1
62
256
6
ByLayer
370
13
48
1
60
0
100
AcDbLine
10
0.394519
20
12.058724
30
0
11
0.394519
21
11.667569
31
0
39
0
210
0
220
0
230
1
0
LINE
5
97
100
AcDbEntity
8
1
62
256
6
ByLayer
370
13
48
1
60
0
100
AcDbLine
10
0.394519
20
-11.667569
30
0
11
0.394519
21
-12.058724
31
0
39
0
210
0
220
0
230
1
0
LINE
5
98
100
AcDbEntity
8
1
62
256
6
ByLayer
370
18
48
1
60
0
100
AcDbLine
10
-0.324981
20
11.531153
30
0
11
-0.324981
21
9.595
31
0
39
0
210
0
220
0
230
1
0
LINE
5
99
100
AcDbEntity
8
1
62
256
6
ByLayer
370
18
48
1
60
0
100
AcDbLine
10
-0.324981
20
-9.595
30
0
11
-0.324981
21
-11.531153
31
0
39
0
210
0
220
0
230
1
0
LINE
5
9A
100
AcDbEntity
8
1
62
256
6
ByLayer
370
18
48
1
60
0
100
AcDbLine
10
14.4
20
-5.196691
30
0
11
14.4
21
-15.099684
31
0
39
0
210
0
220
0
230
1
0
LINE
5
9B
100
AcDbEntity
8
1
62
256
6
ByLayer
370
13
48
1
60
0
100
AcDbLine
10
-0.249981
20
5.612388
30
0
11
-0.249981
21
-5.612388
31
0
39
0
210
0
220
0
230
1
0
LINE
5
9C
100
AcDbEntity
8
1
62
256
6
ByLayer
370
13
48
1
60
0
100
AcDbLine
10
-0.249981
20
11.48403
30
0
11
-0.249981
21
9.958089
31
0
39
0
210
0
220
0
230
1
0
LINE
5
9D
100
AcDbEntity
8
1
62
256
6
ByLayer
370
13
48
1
60
0
100
AcDbLine
10
-0.249981
20
-9.958089
30
0
11
-0.249981
21
-11.48403
31
0
39
0
210
0
220
0
230
1
0
LINE
5
9E
100
AcDbEntity
8
1
62
256
6
ByLayer
370
13
48
1
60
0
100
AcDbLine
10
0.394519
20
13.783002
30
0
11
0.394519
21
13.475038
31
0
39
0
210
0
220
0
230
1
0
LINE
5
9F
100
AcDbEntity
8
1
62
256
6
ByLayer
370
13
48
1
60
0
100
AcDbLine
10
0.394519
20
-13.475038
30
0
11
0.394519
21
-13.783002
31
0
39
0
210
0
220
0
230
1
0
LINE
5
A0
100
AcDbEntity
8
1
62
256
6
ByLayer
370
13
48
1
60
0
100
AcDbLine
10
-0.249981
20
-12.071618
30
0
11
-0.249981
21
-13.241033
31
0
39
0
210
0
220
0
230
1
0
LINE
5
A1
100
AcDbEntity
8
1
62
256
6
ByLayer
370
13
48
1
60
0
100
AcDbLine
10
-0.249981
20
13.241033
30
0
11
-0.249981
21
12.071618
31
0
39
0
210
0
220
0
230
1
0
LINE
5
A2
100
AcDbEntity
8
1
62
256
6
ByLayer
370
18
48
1
60
0
100
AcDbLine
10
4.475
20
-24.318274
30
0
11
4.475
21
-23.207025
31
0
39
0
210
0
220
0
230
1
0
LINE
5
A3
100
AcDbEntity
8
1
62
256
6
ByLayer
370
13
48
1
60
0
100
AcDbLine
10
0.394519
20
-14.91713
30
0
11
0.394519
21
-15.166723
31
0
39
0
210
0
220
0
230
1
0
LINE
5
A4
100
AcDbEntity
8
1
62
256
6
ByLayer
370
13
48
1
60
0
100
AcDbLine
10
0.394519
20
15.166723
30
0
11
0.394519
21
14.91713
31
0
39
0
210
0
220
0
230
1
0
LINE
5
A5
100
AcDbEntity
8
1
62
256
6
ByLayer
370
18
48
1
60
0
100
AcDbLine
10
-0.324981
20
-14.812475
30
0
11
-0.324981
21
-15.767828
31
0
39
0
210
0
220
0
230
1
0
LINE
5
A6
100
AcDbEntity
8
1
62
256
6
ByLayer
370
18
48
1
60
0
100
AcDbLine
10
-0.324981
20
15.767828
30
0
11
-0.324981
21
14.812475
31
0
39
0
210
0
220
0
230
1
0
LINE
5
A7
100
AcDbEntity
8
1
62
256
6
ByLayer
370
13
48
1
60
0
100
AcDbLine
10
-0.249981
20
14.637861
30
0
11
-0.249981
21
13.70335
31
0
39
0
210
0
220
0
230
1
0
LINE
5
A8
100
AcDbEntity
8
1
62
256
6
ByLayer
370
13
48
1
60
0
100
AcDbLine
10
-0.249981
20
-13.70335
30
0
11
-0.249981
21
-14.637861
31
0
39
0
210
0
220
0
230
1
0
LINE
5
A9
100
AcDbEntity
8
1
62
256
6
ByLayer
370
13
48
1
60
0
100
AcDbLine
10
0.394519
20
16.296865
30
0
11
0.394519
21
16.092304
31
0
39
0
210
0
220
0
230
1
0
LINE
5
AA
100
AcDbEntity
8
1
62
256
6
ByLayer
370
18
48
1
60
0
100
AcDbLine
10
28.390866
20
-18.851173
30
0
11
28.387008
21
-18.850472
31
0
39
0
210
0
220
0
230
1
0
LINE
5
AB
100
AcDbEntity
8
1
62
256
6
ByLayer
370
13
48
1
60
0
100
AcDbLine
10
0.394519
20
-16.092304
30
0
11
0.394519
21
-16.296865
31
0
39
0
210
0
220
0
230
1
0
LINE
5
AC
100
AcDbEntity
8
1
62
256
6
ByLayer
370
13
48
1
60
0
100
AcDbLine
10
-0.249981
20
-15.011285
30
0
11
-0.249981
21
-15.77051
31
0
39
0
210
0
220
0
230
1
0
LINE
5
AD
100
AcDbEntity
8
1
62
256
6
ByLayer
370
13
48
1
60
0
100
AcDbLine
10
-0.249981
20
15.77051
30
0
11
-0.249981
21
15.011285
31
0
39
0
210
0
220
0
230
1
0
LINE
5
AE
100
AcDbEntity
8
1
62
256
6
ByLayer
370
13
48
1
60
0
100
AcDbLine
10
16
20
-19.491827
30
0
11
16
21
-18.85
31
0
39
0
210
0
220
0
230
1
0
LINE
5
AF
100
AcDbEntity
8
1
62
256
6
ByLayer
370
18
48
1
60
0
100
AcDbLine
10
35.444721
20
-24.176465
30
0
11
35.437507
21
-24.200434
31
0
39
0
210
0
220
0
230
1
0
LINE
5
B0
100
AcDbEntity
8
1
62
256
6
ByLayer
370
18
48
1
60
0
100
AcDbLine
10
4.475
20
-24.318272
30
0
11
4.475
21
-25.742968
31
0
39
0
210
0
220
0
230
1
0
LINE
5
B1
100
AcDbEntity
8
1
62
256
6
ByLayer
370
18
48
1
60
0
100
AcDbLine
10
-0.324981
20
-15.901439
30
0
11
-0.324981
21
-16.678631
31
0
39
0
210
0
220
0
230
1
0
LINE
5
B2
100
AcDbEntity
8
1
62
256
6
ByLayer
370
18
48
1
60
0
100
AcDbLine
10
-0.324981
20
16.678631
30
0
11
-0.324981
21
15.901439
31
0
39
0
210
0
220
0
230
1
0
LINE
5
B3
100
AcDbEntity
8
1
62
256
6
ByLayer
370
13
48
1
60
0
100
AcDbLine
10
25.829775
20
-19.491827
30
0
11
25.829775
21
-23.911575
31
0
39
0
210
0
220
0
230
1
0
LINE
5
B4
100
AcDbEntity
8
1
62
256
6
ByLayer
370
13
48
1
60
0
100
AcDbLine
10
32.257651
20
-24.26992
30
0
11
32.257651
21
-19.23637
31
0
39
0
210
0
220
0
230
1
0
LINE
5
B5
100
AcDbEntity
8
1
62
256
6
ByLayer
370
13
48
1
60
0
100
AcDbLine
10
0.394519
20
17.223418
30
0
11
0.394519
21
17.055898
31
0
39
0
210
0
220
0
230
1
0
LINE
5
B6
100
AcDbEntity
8
1
62
256
6
ByLayer
370
13
48
1
60
0
100
AcDbLine
10
0.394519
20
-17.055898
30
0
11
0.394519
21
-17.223418
31
0
39
0
210
0
220
0
230
1
0
LINE
5
B7
100
AcDbEntity
8
1
62
256
6
ByLayer
370
18
48
1
60
0
100
AcDbLine
10
-0.324981
20
17.413473
30
0
11
-0.324981
21
16.786998
31
0
39
0
210
0
220
0
230
1
0
LINE
5
B8
100
AcDbEntity
8
1
62
256
6
ByLayer
370
18
48
1
60
0
100
AcDbLine
10
-0.324981
20
-16.786998
30
0
11
-0.324981
21
-17.413473
31
0
39
0
210
0
220
0
230
1
0
LINE
5
B9
100
AcDbEntity
8
1
62
256
6
ByLayer
370
13
48
1
60
0
100
AcDbLine
10
-0.249981
20
16.692843
30
0
11
-0.249981
21
16.07471
31
0
39
0
210
0
220
0
230
1
0
LINE
5
BA
100
AcDbEntity
8
1
62
256
6
ByLayer
370
13
48
1
60
0
100
AcDbLine
10
-0.249981
20
-16.07471
30
0
11
-0.249981
21
-16.692843
31
0
39
0
210
0
220
0
230
1
0
LINE
5
BB
100
AcDbEntity
8
1
62
256
6
ByLayer
370
13
48
1
60
0
100
AcDbLine
10
0.394519
20
17.977888
30
0
11
0.394519
21
17.842221
31
0
39
0
210
0
220
0
230
1
0
LINE
5
BC
100
AcDbEntity
8
1
62
256
6
ByLayer
370
13
48
1
60
0
100
AcDbLine
10
0.394519
20
-17.842221
30
0
11
0.394519
21
-17.977888
31
0
39
0
210
0
220
0
230
1
0
LINE
5
BD
100
AcDbEntity
8
1
62
256
6
ByLayer
370
18
48
1
60
0
100
AcDbLine
10
-0.324981
20
17.993925
30
0
11
-0.324981
21
17.499994
31
0
39
0
210
0
220
0
230
1
0
LINE
5
BE
100
AcDbEntity
8
1
62
256
6
ByLayer
370
18
48
1
60
0
100
AcDbLine
10
-0.324981
20
-17.499994
30
0
11
-0.324981
21
-17.993925
31
0
39
0
210
0
220
0
230
1
0
LINE
5
BF
100
AcDbEntity
8
1
62
256
6
ByLayer
370
13
48
1
60
0
100
AcDbLine
10
-0.249981
20
17.438264
30
0
11
-0.249981
21
16.939739
31
0
39
0
210
0
220
0
230
1
0
LINE
5
C0
100
AcDbEntity
8
1
62
256
6
ByLayer
370
13
48
1
60
0
100
AcDbLine
10
-0.249981
20
-16.939739
30
0
11
-0.249981
21
-17.438264
31
0
39
0
210
0
220
0
230
1
0
LINE
5
C1
100
AcDbEntity
8
1
62
256
6
ByLayer
370
13
48
1
60
0
100
AcDbLine
10
0.394519
20
-18.473913
30
0
11
0.394519
21
-18.581248
31
0
39
0
210
0
220
0
230
1
0
LINE
5
C2
100
AcDbEntity
8
1
62
256
6
ByLayer
370
13
48
1
60
0
100
AcDbLine
10
0.394519
20
18.581248
30
0
11
0.394519
21
18.473913
31
0
39
0
210
0
220
0
230
1
0
LINE
5
C3
100
AcDbEntity
8
1
62
256
6
ByLayer
370
18
48
1
60
0
100
AcDbLine
10
-0.324981
20
18.434577
30
0
11
-0.324981
21
18.060977
31
0
39
0
210
0
220
0
230
1
0
LINE
5
C4
100
AcDbEntity
8
1
62
256
6
ByLayer
370
18
48
1
60
0
100
AcDbLine
10
-0.324981
20
-18.060977
30
0
11
-0.324981
21
-18.434577
31
0
39
0
210
0
220
0
230
1
0
LINE
5
C5
100
AcDbEntity
8
1
62
256
6
ByLayer
370
13
48
1
60
0
100
AcDbLine
10
-0.249981
20
18.028729
30
0
11
-0.249981
21
17.635501
31
0
39
0
210
0
220
0
230
1
0
LINE
5
C6
100
AcDbEntity
8
1
62
256
6
ByLayer
370
13
48
1
60
0
100
AcDbLine
10
-0.249981
20
-17.635501
30
0
11
-0.249981
21
-18.028729
31
0
39
0
210
0
220
0
230
1
0
LINE
5
C7
100
AcDbEntity
8
1
62
256
6
ByLayer
370
13
48
1
60
0
100
AcDbLine
10
0.394519
20
19.047864
30
0
11
0.394519
21
18.966461
31
0
39
0
210
0
220
0
230
1
0
LINE
5
C8
100
AcDbEntity
8
1
62
256
6
ByLayer
370
13
48
1
60
0
100
AcDbLine
10
0.394519
20
-18.966461
30
0
11
0.394519
21
-19.047864
31
0
39
0
210
0
220
0
230
1
0
LINE
5
C9
100
AcDbEntity
8
1
62
256
6
ByLayer
370
18
48
1
60
0
100
AcDbLine
10
-0.324981
20
-18.483688
30
0
11
-0.324981
21
-18.745291
31
0
39
0
210
0
220
0
230
1
0
LINE
5
CA
100
AcDbEntity
8
1
62
256
6
ByLayer
370
18
48
1
60
0
100
AcDbLine
10
-0.324981
20
18.745291
30
0
11
-0.324981
21
18.483688
31
0
39
0
210
0
220
0
230
1
0
LINE
5
CB
100
AcDbEntity
8
1
62
256
6
ByLayer
370
13
48
1
60
0
100
AcDbLine
10
-0.249981
20
18.479098
30
0
11
-0.249981
21
18.181589
31
0
39
0
210
0
220
0
230
1
0
LINE
5
CC
100
AcDbEntity
8
1
62
256
6
ByLayer
370
13
48
1
60
0
100
AcDbLine
10
-0.249981
20
-18.181589
30
0
11
-0.249981
21
-18.479098
31
0
39
0
210
0
220
0
230
1
0
LINE
5
CD
100
AcDbEntity
8
1
62
256
6
ByLayer
370
13
48
1
60
0
100
AcDbLine
10
0.394519
20
-19.330508
30
0
11
0.394519
21
-19.38761
31
0
39
0
210
0
220
0
230
1
0
LINE
5
CE
100
AcDbEntity
8
1
62
256
6
ByLayer
370
13
48
1
60
0
100
AcDbLine
10
0.394519
20
19.38761
30
0
11
0.394519
21
19.330508
31
0
39
0
210
0
220
0
230
1
0
LINE
5
CF
100
AcDbEntity
8
1
62
256
6
ByLayer
370
18
48
1
60
0
100
AcDbLine
10
-0.324981
20
-18.777454
30
0
11
-0.324981
21
-18.932466
31
0
39
0
210
0
220
0
230
1
0
LINE
5
D0
100
AcDbEntity
8
1
62
256
6
ByLayer
370
18
48
1
60
0
100
AcDbLine
10
-0.324981
20
18.932466
30
0
11
-0.324981
21
18.777454
31
0
39
0
210
0
220
0
230
1
0
LINE
5
D1
100
AcDbEntity
8
1
62
256
6
ByLayer
370
13
48
1
60
0
100
AcDbLine
10
-0.249981
20
18.799444
30
0
11
-0.249981
21
18.591032
31
0
39
0
210
0
220
0
230
1
0
LINE
5
D2
100
AcDbEntity
8
1
62
256
6
ByLayer
370
13
48
1
60
0
100
AcDbLine
10
-0.249981
20
-18.591032
30
0
11
-0.249981
21
-18.799444
31
0
39
0
210
0
220
0
230
1
0
LINE
5
D3
100
AcDbEntity
8
1
62
256
6
ByLayer
370
13
48
1
60
0
100
AcDbLine
10
0.394519
20
-19.573114
30
0
11
0.394519
21
-19.607085
31
0
39
0
210
0
220
0
230
1
0
LINE
5
D4
100
AcDbEntity
8
1
62
256
6
ByLayer
370
13
48
1
60
0
100
AcDbLine
10
0.394519
20
19.607085
30
0
11
0.394519
21
19.573114
31
0
39
0
210
0
220
0
230
1
0
LINE
5
D5
100
AcDbEntity
8
1
62
256
6
ByLayer
370
18
48
1
60
0
100
AcDbLine
10
-0.324981
20
-18.94836
30
0
11
-0.324981
21
-18.999752
31
0
39
0
210
0
220
0
230
1
0
LINE
5
D6
100
AcDbEntity
8
1
62
256
6
ByLayer
370
18
48
1
60
0
100
AcDbLine
10
-0.324981
20
18.999752
30
0
11
-0.324981
21
18.94836
31
0
39
0
210
0
220
0
230
1
0
LINE
5
D7
100
AcDbEntity
8
1
62
256
6
ByLayer
370
13
48
1
60
0
100
AcDbLine
10
-0.249981
20
18.996345
30
0
11
-0.249981
21
18.872848
31
0
39
0
210
0
220
0
230
1
0
LINE
5
D8
100
AcDbEntity
8
1
62
256
6
ByLayer
370
13
48
1
60
0
100
AcDbLine
10
-0.249981
20
-18.872848
30
0
11
-0.249981
21
-18.996345
31
0
39
0
210
0
220
0
230
1
0
LINE
5
D9
100
AcDbEntity
8
1
62
256
6
ByLayer
370
13
48
1
60
0
100
AcDbLine
10
0.394519
20
-19.699024
30
0
11
0.394519
21
-19.710304
31
0
39
0
210
0
220
0
230
1
0
LINE
5
DA
100
AcDbEntity
8
1
62
256
6
ByLayer
370
13
48
1
60
0
100
AcDbLine
10
0.394519
20
19.710304
30
0
11
0.394519
21
19.699024
31
0
39
0
210
0
220
0
230
1
0
LINE
5
DB
100
AcDbEntity
8
1
62
256
6
ByLayer
370
13
48
1
60
0
100
AcDbLine
10
-0.249981
20
19.073624
30
0
11
-0.249981
21
19.03268
31
0
39
0
210
0
220
0
230
1
0
LINE
5
DC
100
AcDbEntity
8
1
62
256
6
ByLayer
370
13
48
1
60
0
100
AcDbLine
10
-0.249981
20
-19.03268
30
0
11
-0.249981
21
-19.073624
31
0
39
0
210
0
220
0
230
1
0
LINE
5
DD
100
AcDbEntity
8
1
62
256
6
ByLayer
370
13
48
1
60
0
100
AcDbLine
10
41.869469
20
-21.454465
30
0
11
47.4
21
-21.212997
31
0
39
0
210
0
220
0
230
1
0
LINE
5
DE
100
AcDbEntity
8
1
62
256
6
ByLayer
370
13
48
1
60
0
100
AcDbLine
10
47.4
20
-21.352207
30
0
11
41.875222
21
-21.593424
31
0
39
0
210
0
220
0
230
1
0
LINE
5
DF
100
AcDbEntity
8
1
62
256
6
ByLayer
370
18
48
1
60
0
100
AcDbLine
10
39.222847
20
-24.248412
30
0
11
39.237921
21
-24.113214
31
0
39
0
210
0
220
0
230
1
0
LINE
5
E0
100
AcDbEntity
8
1
62
256
6
ByLayer
370
13
48
1
60
0
100
AcDbLine
10
41.889817
20
-21.940766
30
0
11
47.4
21
-21.700186
31
0
39
0
210
0
220
0
230
1
0
LINE
5
E1
100
AcDbEntity
8
1
62
256
6
ByLayer
370
13
48
1
60
0
100
AcDbLine
10
37.621092
20
-24.133759
30
0
11
37.628516
21
-24.303815
31
0
39
0
210
0
220
0
230
1
0
LINE
5
E2
100
AcDbEntity
8
SK1
62
256
6
ByLayer
370
18
48
1
60
0
100
AcDbLine
10
37.344494
20
-21.965229
30
0
11
37.497162
21
-25.461898
31
0
39
0
210
0
220
0
230
1
0
LINE
5
E4
100
AcDbEntity
8
SK1
62
256
6
ByLayer
370
18
48
1
60
0
100
AcDbLine
10
37.497162
20
-25.461898
30
0
11
36.887802
21
-25.488503
31
0
39
0
210
0
220
0
230
1
0
LINE
5
E5
100
AcDbEntity
8
SK1
62
256
6
ByLayer
370
18
48
1
60
0
100
AcDbLine
10
37.060864
20
-21.577232
30
0
11
36.582467
21
-18.495166
31
0
39
0
210
0
220
0
230
1
0
LINE
5
E6
100
AcDbEntity
8
SK1
62
256
6
ByLayer
370
18
48
1
60
0
100
AcDbLine
10
37.164392
20
-21.697831
30
0
11
37.060864
21
-21.577232
31
0
39
0
210
0
220
0
230
1
0
LINE
5
E7
100
AcDbEntity
8
SK1
62
256
6
ByLayer
370
18
48
1
60
0
100
AcDbLine
10
37.095759
20
-22.376471
30
0
11
37.188383
21
-22.247307
31
0
39
0
210
0
220
0
230
1
0
LINE
5
E8
100
AcDbEntity
8
SK1
62
256
6
ByLayer
370
18
48
1
60
0
100
AcDbLine
10
37.164392
20
-21.697831
30
0
11
37.188383
21
-22.247307
31
0
39
0
210
0
220
0
230
1
0
LINE
5
E9
100
AcDbEntity
8
SK1
62
256
6
ByLayer
370
18
48
1
60
0
100
AcDbLine
10
36.887802
20
-25.488503
30
0
11
37.095759
21
-22.376471
31
0
39
0
210
0
220
0
230
1
0
LINE
5
EA
100
AcDbEntity
8
SK1
62
256
6
ByLayer
370
18
48
1
60
0
100
AcDbLine
10
37.191827
20
-18.468561
30
0
11
37.344494
21
-21.965229
31
0
39
0
210
0
220
0
230
1
0
LINE
5
EB
100
AcDbEntity
8
SK1
62
256
6
ByLayer
370
18
48
1
60
0
100
AcDbLine
10
36.582467
20
-18.495166
30
0
11
37.191827
21
-18.468561
31
0
39
0
210
0
220
0
230
1
0
LINE
5
EC
100
AcDbEntity
8
SK1
62
256
6
ByLayer
370
18
48
1
60
0
100
AcDbLine
10
41.567596
20
-21.780845
30
0
11
41.720264
21
-25.277514
31
0
39
0
210
0
220
0
230
1
0
LINE
5
ED
100
AcDbEntity
8
SK1
62
256
6
ByLayer
370
18
48
1
60
0
100
AcDbLine
10
41.720264
20
-25.277514
30
0
11
40.147144
21
-25.346198
31
0
39
0
210
0
220
0
230
1
0
LINE
5
EE
100
AcDbEntity
8
SK1
62
256
6
ByLayer
370
18
48
1
60
0
100
AcDbLine
10
40.862972
20
-21.411228
30
0
11
39.841808
21
-18.35286
31
0
39
0
210
0
220
0
230
1
0
LINE
5
EF
100
AcDbEntity
8
SK1
62
256
6
ByLayer
370
18
48
1
60
0
100
AcDbLine
10
41.121617
20
-21.525055
30
0
11
40.862972
21
-21.411228
31
0
39
0
210
0
220
0
230
1
0
LINE
5
F0
100
AcDbEntity
8
SK1
62
256
6
ByLayer
370
18
48
1
60
0
100
AcDbLine
10
40.897868
20
-22.210467
30
0
11
41.145608
21
-22.074531
31
0
39
0
210
0
220
0
230
1
0
LINE
5
F1
100
AcDbEntity
8
SK1
62
256
6
ByLayer
370
18
48
1
60
0
100
AcDbLine
10
41.121617
20
-21.525055
30
0
11
41.145608
21
-22.074531
31
0
39
0
210
0
220
0
230
1
0
LINE
5
F2
100
AcDbEntity
8
SK1
62
256
6
ByLayer
370
18
48
1
60
0
100
AcDbLine
10
40.147144
20
-25.346198
30
0
11
40.897868
21
-22.210467
31
0
39
0
210
0
220
0
230
1
0
LINE
5
F3
100
AcDbEntity
8
SK1
62
256
6
ByLayer
370
18
48
1
60
0
100
AcDbLine
10
41.414928
20
-18.284176
30
0
11
41.567596
21
-21.780845
31
0
39
0
210
0
220
0
230
1
0
LINE
5
F4
100
AcDbEntity
8
SK1
62
256
6
ByLayer
370
18
48
1
60
0
100
AcDbLine
10
39.841808
20
-18.35286
30
0
11
41.414928
21
-18.284176
31
0
39
0
210
0
220
0
230
1
0
LINE
5
F5
100
AcDbEntity
8
SK1
62
256
6
ByLayer
370
18
48
1
60
0
100
AcDbLine
10
42.906692
20
-21.722379
30
0
11
43.05936
21
-25.219047
31
0
39
0
210
0
220
0
230
1
0
LINE
5
F6
100
AcDbEntity
8
SK1
62
256
6
ByLayer
370
18
48
1
60
0
100
AcDbLine
10
43.05936
20
-25.219047
30
0
11
41.204372
21
-25.300038
31
0
39
0
210
0
220
0
230
1
0
LINE
5
F7
100
AcDbEntity
8
SK1
62
256
6
ByLayer
370
18
48
1
60
0
100
AcDbLine
10
42.078942
20
-21.358138
30
0
11
40.899036
21
-18.3067
31
0
39
0
210
0
220
0
230
1
0
LINE
5
F8
100
AcDbEntity
8
SK1
62
256
6
ByLayer
370
18
48
1
60
0
100
AcDbLine
10
42.382954
20
-21.469984
30
0
11
42.078942
21
-21.358138
31
0
39
0
210
0
220
0
230
1
0
LINE
5
F9
100
AcDbEntity
8
SK1
62
256
6
ByLayer
370
18
48
1
60
0
100
AcDbLine
10
42.113837
20
-22.157376
30
0
11
42.406944
21
-22.01946
31
0
39
0
210
0
220
0
230
1
0
LINE
5
FA
100
AcDbEntity
8
SK1
62
256
6
ByLayer
370
18
48
1
60
0
100
AcDbLine
10
42.382954
20
-21.469984
30
0
11
42.406944
21
-22.01946
31
0
39
0
210
0
220
0
230
1
0
LINE
5
FB
100
AcDbEntity
8
SK1
62
256
6
ByLayer
370
18
48
1
60
0
100
AcDbLine
10
41.204372
20
-25.300038
30
0
11
42.113837
21
-22.157376
31
0
39
0
210
0
220
0
230
1
0
LINE
5
FC
100
AcDbEntity
8
SK1
62
256
6
ByLayer
370
18
48
1
60
0
100
AcDbLine
10
42.754025
20
-18.22571
30
0
11
42.906692
21
-21.722379
31
0
39
0
210
0
220
0
230
1
0
LINE
5
FD
100
AcDbEntity
8
SK1
62
256
6
ByLayer
370
18
48
1
60
0
100
AcDbLine
10
40.899036
20
-18.3067
30
0
11
42.754025
21
-18.22571
31
0
39
0
210
0
220
0
230
1
0
LINE
5
FE
100
AcDbEntity
8
1
62
256
6
ByLayer
370
18
48
1
60
0
100
AcDbLine
10
19.472138
20
-25.742968
30
0
11
4.475
21
-25.742968
31
0
39
0
210
0
220
0
230
1
0
LINE
5
FF
100
AcDbEntity
8
1
62
256
6
ByLayer
370
18
48
1
60
0
100
AcDbLine
10
14.4
20
-15.099689
30
0
11
14.4
21
-17.88665
31
0
39
0
210
0
220
0
230
1
0
LINE
5
100
100
AcDbEntity
8
1
62
256
6
ByLayer
370
18
48
1
60
0
100
AcDbLine
10
47.4
20
-18.973995
30
0
11
47.4
21
-21.082999
31
0
39
0
210
0
220
0
230
1
0
LINE
5
101
100
AcDbEntity
8
1
62
256
6
ByLayer
370
18
48
1
60
0
100
AcDbLine
10
47.4
20
-21.142805
30
0
11
47.4
21
-21.082999
31
0
39
0
210
0
220
0
230
1
0
LINE
5
102
100
AcDbEntity
8
1
62
256
6
ByLayer
370
18
48
1
60
0
100
AcDbLine
10
47.4
20
-21.969395
30
0
11
47.4
21
-24.157276
31
0
39
0
210
0
220
0
230
1
0
LINE
5
103
100
AcDbEntity
8
1
62
256
6
ByLayer
370
18
48
1
60
0
100
AcDbLine
10
47.4
20
-21.142805
30
0
11
47.4
21
-21.212997
31
0
39
0
210
0
220
0
230
1
0
LINE
5
104
100
AcDbEntity
8
1
62
256
6
ByLayer
370
18
48
1
60
0
100
AcDbLine
10
47.4
20
-21.969395
30
0
11
47.4
21
-21.909588
31
0
39
0
210
0
220
0
230
1
0
LINE
5
105
100
AcDbEntity
8
1
62
256
6
ByLayer
370
18
48
1
60
0
100
AcDbLine
10
47.4
20
-21.212997
30
0
11
47.4
21
-21.352207
31
0
39
0
210
0
220
0
230
1
0
LINE
5
106
100
AcDbEntity
8
1
62
256
6
ByLayer
370
18
48
1
60
0
100
AcDbLine
10
47.4
20
-21.839396
30
0
11
47.4
21
-21.909588
31
0
39
0
210
0
220
0
230
1
0
LINE
5
107
100
AcDbEntity
8
1
62
256
6
ByLayer
370
18
48
1
60
0
100
AcDbLine
10
47.4
20
-21.352207
30
0
11
47.4
21
-21.700186
31
0
39
0
210
0
220
0
230
1
0
LINE
5
108
100
AcDbEntity
8
1
62
256
6
ByLayer
370
18
48
1
60
0
100
AcDbLine
10
47.4
20
-21.700186
30
0
11
47.4
21
-21.839396
31
0
39
0
210
0
220
0
230
1
0
LINE
5
109
100
AcDbEntity
8
1
62
256
6
ByLayer
370
18
48
1
60
0
100
AcDbLine
10
-0.324981
20
6.373247
30
0
11
-0.324981
21
5.776059
31
0
39
0
210
0
220
0
230
1
0
LINE
5
10A
100
AcDbEntity
8
1
62
256
6
ByLayer
370
18
48
1
60
0
100
AcDbLine
10
-0.324981
20
-5.776059
30
0
11
-0.324981
21
-6.373247
31
0
39
0
210
0
220
0
230
1
0
LINE
5
10B
100
AcDbEntity
8
1
62
256
6
ByLayer
370
18
48
1
60
0
100
AcDbLine
10
-0.324981
20
9.595101
30
0
11
-0.324981
21
9.242033
31
0
39
0
210
0
220
0
230
1
0
LINE
5
10C
100
AcDbEntity
8
1
62
256
6
ByLayer
370
18
48
1
60
0
100
AcDbLine
10
-0.324981
20
-9.242033
30
0
11
-0.324981
21
-9.595101
31
0
39
0
210
0
220
0
230
1
0
LINE
5
10D
100
AcDbEntity
8
1
62
256
6
ByLayer
370
18
48
1
60
0
100
AcDbLine
10
-0.324981
20
11.790405
30
0
11
-0.324981
21
11.531153
31
0
39
0
210
0
220
0
230
1
0
LINE
5
10E
100
AcDbEntity
8
1
62
256
6
ByLayer
370
18
48
1
60
0
100
AcDbLine
10
-0.324981
20
-11.531153
30
0
11
-0.324981
21
-11.790405
31
0
39
0
210
0
220
0
230
1
0
LINE
5
10F
100
AcDbEntity
8
1
62
256
6
ByLayer
370
18
48
1
60
0
100
AcDbLine
10
-0.324981
20
-18.434577
30
0
11
-0.324981
21
-18.483709
31
0
39
0
210
0
220
0
230
1
0
LINE
5
110
100
AcDbEntity
8
1
62
256
6
ByLayer
370
18
48
1
60
0
100
AcDbLine
10
-0.324981
20
18.483709
30
0
11
-0.324981
21
18.434577
31
0
39
0
210
0
220
0
230
1
0
LINE
5
111
100
AcDbEntity
8
1
62
256
6
ByLayer
370
18
48
1
60
0
100
AcDbLine
10
-0.324981
20
-18.745291
30
0
11
-0.324981
21
-18.777518
31
0
39
0
210
0
220
0
230
1
0
LINE
5
112
100
AcDbEntity
8
1
62
256
6
ByLayer
370
18
48
1
60
0
100
AcDbLine
10
-0.324981
20
18.777518
30
0
11
-0.324981
21
18.745291
31
0
39
0
210
0
220
0
230
1
0
LINE
5
113
100
AcDbEntity
8
1
62
256
6
ByLayer
370
18
48
1
60
0
100
AcDbLine
10
-0.324981
20
-18.932466
30
0
11
-0.324981
21
-18.948427
31
0
39
0
210
0
220
0
230
1
0
LINE
5
114
100
AcDbEntity
8
1
62
256
6
ByLayer
370
18
48
1
60
0
100
AcDbLine
10
-0.324981
20
18.948427
30
0
11
-0.324981
21
18.932466
31
0
39
0
210
0
220
0
230
1
0
LINE
5
115
100
AcDbEntity
8
1
62
256
6
ByLayer
370
18
48
1
60
0
100
AcDbLine
10
-0.324981
20
18.061002
30
0
11
-0.324981
21
17.993925
31
0
39
0
210
0
220
0
230
1
0
LINE
5
116
100
AcDbEntity
8
1
62
256
6
ByLayer
370
18
48
1
60
0
100
AcDbLine
10
-0.324981
20
13.470759
30
0
11
-0.324981
21
13.267245
31
0
39
0
210
0
220
0
230
1
0
LINE
5
117
100
AcDbEntity
8
1
62
256
6
ByLayer
370
18
48
1
60
0
100
AcDbLine
10
-0.324981
20
-13.267245
30
0
11
-0.324981
21
-13.470759
31
0
39
0
210
0
220
0
230
1
0
LINE
5
118
100
AcDbEntity
8
1
62
256
6
ByLayer
370
18
48
1
60
0
100
AcDbLine
10
-0.324981
20
14.812462
30
0
11
-0.324981
21
14.64828
31
0
39
0
210
0
220
0
230
1
0
LINE
5
119
100
AcDbEntity
8
1
62
256
6
ByLayer
370
18
48
1
60
0
100
AcDbLine
10
-0.324981
20
-14.64828
30
0
11
-0.324981
21
-14.812462
31
0
39
0
210
0
220
0
230
1
0
LINE
5
11A
100
AcDbEntity
8
1
62
256
6
ByLayer
370
18
48
1
60
0
100
AcDbLine
10
-0.324981
20
15.901469
30
0
11
-0.324981
21
15.767828
31
0
39
0
210
0
220
0
230
1
0
LINE
5
11B
100
AcDbEntity
8
1
62
256
6
ByLayer
370
18
48
1
60
0
100
AcDbLine
10
-0.324981
20
-15.767828
30
0
11
-0.324981
21
-15.901469
31
0
39
0
210
0
220
0
230
1
0
LINE
5
11C
100
AcDbEntity
8
1
62
256
6
ByLayer
370
18
48
1
60
0
100
AcDbLine
10
-0.324981
20
16.787031
30
0
11
-0.324981
21
16.678631
31
0
39
0
210
0
220
0
230
1
0
LINE
5
11D
100
AcDbEntity
8
1
62
256
6
ByLayer
370
18
48
1
60
0
100
AcDbLine
10
-0.324981
20
-16.678631
30
0
11
-0.324981
21
-16.787031
31
0
39
0
210
0
220
0
230
1
0
LINE
5
11E
100
AcDbEntity
8
1
62
256
6
ByLayer
370
18
48
1
60
0
100
AcDbLine
10
-0.324981
20
17.50006
30
0
11
-0.324981
21
17.413473
31
0
39
0
210
0
220
0
230
1
0
LINE
5
11F
100
AcDbEntity
8
1
62
256
6
ByLayer
370
18
48
1
60
0
100
AcDbLine
10
-0.324981
20
-17.413473
30
0
11
-0.324981
21
-17.50006
31
0
39
0
210
0
220
0
230
1
0
LINE
5
120
100
AcDbEntity
8
1
62
256
6
ByLayer
370
18
48
1
60
0
100
AcDbLine
10
-0.324981
20
-17.993925
30
0
11
-0.324981
21
-18.061002
31
0
39
0
210
0
220
0
230
1
0
LINE
5
121
100
AcDbEntity
8
1
62
256
6
ByLayer
370
18
48
1
60
0
100
AcDbLine
10
-0.324981
20
-13.534977
30
0
11
-0.324981
21
-14.64828
31
0
39
0
210
0
220
0
230
1
0
LINE
5
122
100
AcDbEntity
8
1
62
256
6
ByLayer
370
18
48
1
60
0
100
AcDbLine
10
-0.324981
20
14.64828
30
0
11
-0.324981
21
13.534977
31
0
39
0
210
0
220
0
230
1
0
LINE
5
123
100
AcDbEntity
8
1
62
256
6
ByLayer
370
18
48
1
60
0
100
AcDbLine
10
-0.324981
20
-11.988251
30
0
11
-0.324981
21
-13.267245
31
0
39
0
210
0
220
0
230
1
0
LINE
5
124
100
AcDbEntity
8
1
62
256
6
ByLayer
370
18
48
1
60
0
100
AcDbLine
10
-0.324981
20
13.267245
30
0
11
-0.324981
21
11.988251
31
0
39
0
210
0
220
0
230
1
0
LINE
5
125
100
AcDbEntity
8
1
62
256
6
ByLayer
370
18
48
1
60
0
100
AcDbLine
10
-0.324981
20
5.776059
30
0
11
-0.324981
21
-5.776059
31
0
39
0
210
0
220
0
230
1
0
LINE
5
126
100
AcDbEntity
8
1
62
256
6
ByLayer
370
18
48
1
60
0
100
AcDbLine
10
41.951653
20
-23.421518
30
0
11
41.790057
21
-24.100042
31
0
39
0
210
0
220
0
230
1
0
LINE
5
127
100
AcDbEntity
8
1
62
256
6
ByLayer
370
18
48
1
60
0
100
AcDbLine
10
41.951653
20
-23.421518
30
0
11
41.80549
21
-19.926475
31
0
39
0
210
0
220
0
230
1
0
LINE
5
128
100
AcDbEntity
8
1
62
256
6
ByLayer
370
18
48
1
60
0
100
AcDbLine
10
41.483405
20
-18.850865
30
0
11
41.80549
21
-19.926475
31
0
39
0
210
0
220
0
230
1
0
LINE
5
129
100
AcDbEntity
8
1
62
256
6
ByLayer
370
18
48
1
60
0
100
AcDbLine
10
25.829775
20
-19.491827
30
0
11
16
21
-19.491827
31
0
39
0
210
0
220
0
230
1
0
LINE
5
12A
100
AcDbEntity
8
1
62
256
6
ByLayer
370
18
48
1
60
0
100
AcDbLine
10
14.4
20
5.196691
30
0
11
14.4
21
14.602299
31
0
39
0
210
0
220
0
230
1
0
LINE
5
12B
100
AcDbEntity
8
1
62
256
6
ByLayer
370
18
48
1
60
0
100
AcDbLine
10
36.827754
20
-24.303815
30
0
11
37.628516
21
-24.303815
31
0
39
0
210
0
220
0
230
1
0
LINE
5
12C
100
AcDbEntity
8
1
62
256
6
ByLayer
370
18
48
1
60
0
100
AcDbLine
10
47.4
20
-24.357372
30
0
11
47.4
21
-24.157276
31
0
39
0
210
0
220
0
230
1
0
LINE
5
12D
100
AcDbEntity
8
1
62
256
6
ByLayer
370
18
48
1
60
0
100
AcDbLine
10
15.5
20
-23.911575
30
0
11
25.829775
21
-23.911575
31
0
39
0
210
0
220
0
230
1
0
LINE
5
12E
100
AcDbEntity
8
1
62
256
6
ByLayer
370
18
48
1
60
0
100
AcDbLine
10
4.475
20
-23.207025
30
0
11
4.475
21
-13.837578
31
0
39
0
210
0
220
0
230
1
0
LINE
5
12F
100
AcDbEntity
8
1
62
256
6
ByLayer
370
18
48
1
60
0
100
AcDbLine
10
14.4
20
5.196691
30
0
11
14.4
21
-5.196691
31
0
39
0
210
0
220
0
230
1
0
LINE
5
130
100
AcDbEntity
8
1
62
256
6
ByLayer
370
18
48
1
60
0
100
AcDbLine
10
9.82016
20
5.154252
30
0
11
9.82016
21
-5.154252
31
0
39
0
210
0
220
0
230
1
0
LINE
5
131
100
AcDbEntity
8
1
62
256
6
ByLayer
370
18
48
1
60
0
100
AcDbLine
10
14.4
20
18.837427
30
0
11
14.4
21
14.602299
31
0
39
0
210
0
220
0
230
1
0
LINE
5
132
100
AcDbEntity
8
1
62
256
6
ByLayer
370
18
48
1
60
0
100
AcDbLine
10
9.82016
20
16.265714
30
0
11
9.82016
21
14.644738
31
0
39
0
210
0
220
0
230
1
0
MTEXT
5
1DD
100
AcDbEntity
8
SK6
62
256
6
ByLayer
370
18
48
1
60
0
100
AcDbMText
10
-10.125
20
-53.93144
30
0
210
0
220
0
230
1
1
\W0.7662;SL-QFU-LK32C40-160B
40
3.5
41
0
44
1.084337
50
0
71
7
72
5
7
iso_b_vert
0
DIMENSION
5
1EF
100
AcDbEntity
8
SK2
62
256
6
ByLayer
370
13
48
1
60
0
100
AcDbDimension
2
DimnDraft3D1
10
48
20
42.9
30
0
11
21.725267
21
42.9
31
0
70
32
71
5
72
1
41
1
210
0
220
0
230
1
3
Standard
100
AcDbAlignedDimension
13
0
23
2
33
0
14
48
24
-22.5
34
0
50
0
100
AcDbRotatedDimension
1001
ACAD
1000
DSTYLE
1002
{
1070
   279
1070
     0
1070
   172
1070
     1
1070
   173
1070
     1
1070
   340
1005
1DE
1070
   271
1070
     1
1070
    77
1070
     1
1070
    73
1070
     0
1070
   171
1070
     3
1070
   274
1070
     4
1070
   177
1070
     2
1070
   176
1070
     2
1070
   178
1070
     7
1070
    78
1070
     8
1070
    41
1041
3.175
1070
   147
1041
1.75
1070
    42
1041
2.0
1070
    44
1041
2.0
1070
   140
1041
3.5
1070
   343
1005
1F0
1070
   344
1005
1F0
1002
}
0
DIMENSION
5
205
100
AcDbEntity
8
2
62
256
6
ByLayer
370
13
48
1
60
0
100
AcDbDimension
2
DimnDraft3D2
10
16
20
-39.513147
30
0
11
29.909534
21
-39.513147
31
0
70
32
71
5
72
1
41
1
210
0
220
0
230
1
3
Standard
100
AcDbAlignedDimension
13
48
23
-26.5
33
0
14
16
24
-2
34
0
50
0
100
AcDbRotatedDimension
1001
ACAD
1000
DSTYLE
1002
{
1070
   279
1070
     0
1070
   172
1070
     1
1070
   173
1070
     1
1070
   340
1005
1DE
1070
   271
1070
     1
1070
    77
1070
     1
1070
    73
1070
     0
1070
   171
1070
     3
1070
   274
1070
     4
1070
   177
1070
     2
1070
   176
1070
     2
1070
   178
1070
     7
1070
    78
1070
     8
1070
    41
1041
3.175
1070
   147
1041
1.75
1070
    42
1041
2.0
1070
    44
1041
2.0
1070
   140
1041
3.5
1070
   343
1005
1F0
1070
   344
1005
1F0
1002
}
0
DIMENSION
5
213
100
AcDbEntity
8
2
62
256
6
ByLayer
370
13
48
1
60
0
100
AcDbDimension
2
DimnDraft3D3
10
73.1
20
-24.5
30
0
11
73.1
21
-16.541466
31
0
70
32
71
5
72
1
41
1
210
0
220
0
230
1
3
Standard
100
AcDbAlignedDimension
13
41
23
0
33
0
14
50
24
-24.5
34
0
50
90
100
AcDbRotatedDimension
1001
ACAD
1000
DSTYLE
1002
{
1070
    74
1070
     0
1070
   279
1070
     0
1070
   172
1070
     1
1070
   173
1070
     1
1070
   340
1005
1DE
1070
   271
1070
     1
1070
    77
1070
     1
1070
    73
1070
     0
1070
   171
1070
     3
1070
   274
1070
     4
1070
   177
1070
     2
1070
   176
1070
     2
1070
   178
1070
     7
1070
    78
1070
     8
1070
    41
1041
3.175
1070
   147
1041
1.75
1070
    42
1041
2.0
1070
    44
1041
2.0
1070
   140
1041
3.5
1070
   343
1005
1F0
1070
   344
1005
1F0
1002
}
0
DIMENSION
5
221
100
AcDbEntity
8
2
62
256
6
ByLayer
370
13
48
1
60
0
100
AcDbDimension
2
DimnDraft3D4
10
66.1
20
-18.5
30
0
11
66.1
21
-22.282733
31
0
70
32
71
5
72
1
41
1
210
0
220
0
230
1
3
Standard
100
AcDbAlignedDimension
13
50
23
-24.5
33
0
14
50
24
-18.5
34
0
50
90
100
AcDbRotatedDimension
1001
ACAD
1000
DSTYLE
1002
{
1070
    74
1070
     0
1070
   279
1070
     0
1070
   172
1070
     1
1070
   173
1070
     1
1070
   340
1005
1DE
1070
   271
1070
     1
1070
    77
1070
     1
1070
    73
1070
     0
1070
   171
1070
     3
1070
   274
1070
     4
1070
   177
1070
     2
1070
   176
1070
     2
1070
   178
1070
     7
1070
    78
1070
     8
1070
    41
1041
3.175
1070
   147
1041
1.75
1070
    42
1041
2.0
1070
    44
1041
2.0
1070
   140
1041
3.5
1070
   343
1005
1F0
1070
   344
1005
1F0
1002
}
0
ENDSEC
0
SECTION
2
OBJECTS
0
DICTIONARY
5
28b
330
0
100
AcDbDictionary
280
0
281
1
3
ACAD_GROUP
350
28c
3
ACAD_MLINESTYLE
350
28d
0
DICTIONARY
5
28c
330
0
100
AcDbDictionary
280
0
281
1
0
DICTIONARY
5
28d
330
0
100
AcDbDictionary
280
0
281
1
3
Standard
350
18
0
MLINESTYLE
5
18
330
28d
100
AcDbMlineStyle
2
Standard
70
0
3

62
256
51
90
52
90
71
2
49
-0.5
62
256
6
ByLayer
49
0.5
62
256
6
ByLayer
0
RASTERVARIABLES
5
27a
330

100
AcDbRasterVariables
90
0
70
1
71
1
72
1
0
ENDSEC
0
EOF
