0
SECTION
2
HEADER
9
$ACADVER
1
AC1015
9
$DWGCODEPAGE
3
ANSI_1252
9
$HANDSEED
5
1c4
9
$ANGBASE
50
0
9
$ANGDIR
70
0
9
$ATTMODE
70
1
9
$AUNITS
70
0
9
$AUPREC
70
0
9
$CECOLOR
62
256
9
$CELTSCALE
40
1
9
$CELTYPE
6
ByLayer
9
$CELWEIGHT
370
18
9
$CLAYER
8
0
9
$CMLJUST
70
0
9
$CMLSCALE
40
1
9
$CMLSTYLE
2
Standard
9
$DIMSTYLE
2
Standard
9
$TEXTSIZE
40
0.2
9
$TEXTSTYLE
7
Standard
9
$LUNITS
70
2
9
$LUPREC
70
4
9
$EXTNAMES
290
1
9
$INSUNITS
70
4
9
$LTSCALE
40
1
9
$LWDISPLAY
290
1
9
$PDMODE
70
0
9
$PDSIZE
40
0
9
$PLINEGEN
70
0
0
ENDSEC
0
SECTION
2
CLASSES
0
CLASS
1
RASTERVARIABLES
2
AcDbRasterVariables
3
ISM
90
0
280
0
281
0
0
ENDSEC
0
SECTION
2
TABLES
0
TABLE
2
VPORT
5
1ba
100
AcDbSymbolTable
0
VPORT
5
1
100
AcDbSymbolTableRecord
100
AcDbViewportTableRecord
2
*Active
70
0
10
0
20
0
11
1
21
1
12
-1
22
1
13
0
23
0
14
0.5
24
0.5
15
10
25
10
16
0
26
0
36
1
17
0
27
0
37
0
0
ENDTAB
0
TABLE
2
LTYPE
5
1bb
100
AcDbSymbolTable
0
LTYPE
5
14
100
AcDbSymbolTableRecord
100
AcDbLinetypeTableRecord
70
0
2
ByBlock
3

72
65
73
0
40
0
0
LTYPE
5
15
100
AcDbSymbolTableRecord
100
AcDbLinetypeTableRecord
70
0
2
ByLayer
3

72
65
73
0
40
0
0
LTYPE
5
16
100
AcDbSymbolTableRecord
100
AcDbLinetypeTableRecord
70
0
2
CONTINUOUS
3
Solid line
72
65
73
0
40
0
0
LTYPE
5
6A
100
AcDbSymbolTableRecord
100
AcDbLinetypeTableRecord
70
0
2
CENTER
3
____ _ ____ _ ____ _ ____
72
65
73
4
40
47.5
49
22
74
0
49
-8.5
74
0
49
8.5
74
0
49
-8.5
74
0
0
LTYPE
5
6B
100
AcDbSymbolTableRecord
100
AcDbLinetypeTableRecord
70
0
2
DASHED
3
__ __ __ __ __ __ __ __ __
72
65
73
2
40
25.72
49
12.86
74
0
49
-12.86
74
0
0
ENDTAB
0
TABLE
2
LAYER
5
1bc
100
AcDbSymbolTable
0
LAYER
5
10
100
AcDbSymbolTableRecord
100
AcDbLayerTableRecord
2
0
70
0
62
7
6
CONTINUOUS
290
1
370
-3
390
0
0
LAYER
5
6D
100
AcDbSymbolTableRecord
100
AcDbLayerTableRecord
2
81
70
0
62
-3
6
CONTINUOUS
290
1
370
-3
390
0
0
LAYER
5
6F
100
AcDbSymbolTableRecord
100
AcDbLayerTableRecord
2
80
70
0
62
-6
6
CONTINUOUS
290
1
370
-3
390
0
0
LAYER
5
73
100
AcDbSymbolTableRecord
100
AcDbLayerTableRecord
2
4
70
0
62
-2
6
CENTER
290
1
370
-3
390
0
0
LAYER
5
77
100
AcDbSymbolTableRecord
100
AcDbLayerTableRecord
2
3
70
0
62
1
6
DASHED
290
1
370
-3
390
0
0
LAYER
5
80
100
AcDbSymbolTableRecord
100
AcDbLayerTableRecord
2
1
70
0
62
4
6
CONTINUOUS
290
1
370
-3
390
0
0
LAYER
5
FB
100
AcDbSymbolTableRecord
100
AcDbLayerTableRecord
2
2
70
0
62
7
6
CONTINUOUS
290
1
370
-3
390
0
0
LAYER
5
1a4
100
AcDbSymbolTableRecord
100
AcDbLayerTableRecord
2
SK4
70
0
62
2
6
CENTER
290
1
370
-3
390
0
0
LAYER
5
1a5
100
AcDbSymbolTableRecord
100
AcDbLayerTableRecord
2
SK1
70
0
62
4
6
CONTINUOUS
290
1
370
-3
390
0
0
LAYER
5
1a6
100
AcDbSymbolTableRecord
100
AcDbLayerTableRecord
2
SK6
70
0
62
5
6
CONTINUOUS
290
1
370
-3
390
0
0
LAYER
5
1a7
100
AcDbSymbolTableRecord
100
AcDbLayerTableRecord
2
SK2
70
0
62
7
6
CONTINUOUS
290
1
370
-3
390
0
0
ENDTAB
0
TABLE
2
STYLE
5
1bd
100
AcDbSymbolTable
0
STYLE
5
11
100
AcDbSymbolTableRecord
100
AcDbTextStyleTableRecord
2
Standard
3
txt
70
0
71
0
40
0
41
1
42
0
50
0
0
STYLE
5
F6
100
AcDbSymbolTableRecord
100
AcDbTextStyleTableRecord
2
iso_b_vert
3
simplex.shx
70
0
71
0
40
0
41
1
42
0
50
0
0
STYLE
5
F7
100
AcDbSymbolTableRecord
100
AcDbTextStyleTableRecord
2
DWGDirectTextStyle
3
simplex
70
0
71
0
40
0
41
1
42
0
50
0
0
ENDTAB
0
TABLE
2
DIMSTYLE
5
1be
100
AcDbSymbolTable
100
AcDbDimStyleTable
0
DIMSTYLE
105
27
100
AcDbSymbolTableRecord
100
AcDbDimStyleTableRecord
2
Standard
70
0
3
<>
41
0.18
42
0.0625
44
0.18
140
0.18
147
0.09
73
0
74
0
77
1
271
2
275
0
278
52
280
0
340
11
0
ENDTAB
0
TABLE
2
VIEW
5
1bf
100
AcDbSymbolTable
0
ENDTAB
0
TABLE
2
UCS
5
1c0
100
AcDbSymbolTable
0
ENDTAB
0
TABLE
2
APPID
5
1c1
100
AcDbSymbolTable
0
APPID
5
12
100
AcDbSymbolTableRecord
100
AcDbRegAppTableRecord
2
ACAD
70
0
0
ENDTAB
0
TABLE
2
BLOCK_RECORD
5
1c2
100
AcDbSymbolTable
0
BLOCK_RECORD
5
1F
100
AcDbSymbolTableRecord
100
AcDbBlockTableRecord
2
*Model_Space
340
0
70
0
0
BLOCK_RECORD
5
1B
100
AcDbSymbolTableRecord
100
AcDbBlockTableRecord
2
*Paper_Space
340
0
70
0
0
BLOCK_RECORD
5
23
100
AcDbSymbolTableRecord
100
AcDbBlockTableRecord
2
*Paper_Space0
340
0
70
0
0
BLOCK_RECORD
5
F9
100
AcDbSymbolTableRecord
100
AcDbBlockTableRecord
2
DimnDraft3D1
340
0
70
0
0
BLOCK_RECORD
5
108
100
AcDbSymbolTableRecord
100
AcDbBlockTableRecord
2
_CLOSED
340
0
70
0
0
BLOCK_RECORD
5
10F
100
AcDbSymbolTableRecord
100
AcDbBlockTableRecord
2
DimnDraft3D2
340
0
70
0
0
BLOCK_RECORD
5
11E
100
AcDbSymbolTableRecord
100
AcDbBlockTableRecord
2
DimnDraft3D3
340
0
70
0
0
BLOCK_RECORD
5
12C
100
AcDbSymbolTableRecord
100
AcDbBlockTableRecord
2
DimnDraft3D4
340
0
70
0
0
BLOCK_RECORD
5
13B
100
AcDbSymbolTableRecord
100
AcDbBlockTableRecord
2
DimnDraft3D5
340
0
70
0
0
ENDTAB
0
ENDSEC
0
SECTION
2
BLOCKS
0
BLOCK
5
20
100
AcDbEntity
8
0
100
AcDbBlockBegin
2
*Model_Space
70
0
10
0
20
0
30
0
3
*Model_Space
0
ENDBLK
5
21
100
AcDbEntity
8
0
100
AcDbBlockEnd
0
BLOCK
5
1C
100
AcDbEntity
8
0
100
AcDbBlockBegin
2
*Paper_Space
70
0
10
0
20
0
30
0
3
*Paper_Space
0
ENDBLK
5
1D
100
AcDbEntity
8
0
100
AcDbBlockEnd
0
BLOCK
5
24
100
AcDbEntity
8
0
100
AcDbBlockBegin
2
*Paper_Space0
70
0
10
0
20
0
30
0
3
*Paper_Space0
0
ENDBLK
5
25
100
AcDbEntity
8
0
100
AcDbBlockEnd
0
BLOCK
5
105
100
AcDbEntity
8
0
100
AcDbBlockBegin
2
DimnDraft3D1
70
0
10
0
20
0
30
0
3
DimnDraft3D1
0
MTEXT
5
FA
100
AcDbEntity
8
2
62
256
6
ByLayer
370
18
48
1
60
0
100
AcDbMText
10
13.957895
20
-42.320459
30
0
210
0
220
0
230
1
1
\W0.6337;30
40
3
41
0
44
1.084337
50
0
71
7
72
5
7
iso_b_vert
0
LINE
5
FC
100
AcDbEntity
8
2
62
256
6
ByLayer
370
13
48
1
60
0
100
AcDbLine
10
0
20
-32.7
30
0
11
0
21
-46.070459
31
0
39
0
210
0
220
0
230
1
0
LINE
5
FD
100
AcDbEntity
8
2
62
256
6
ByLayer
370
13
48
1
60
0
100
AcDbLine
10
30
20
-25.75
30
0
11
30
21
-46.070459
31
0
39
0
210
0
220
0
230
1
0
LINE
5
FE
100
AcDbEntity
8
2
62
256
6
ByLayer
370
13
48
1
60
0
100
AcDbLine
10
0
20
-43.070459
30
0
11
30
21
-43.070459
31
0
39
0
210
0
220
0
230
1
0
LINE
5
FF
100
AcDbEntity
8
2
62
256
6
ByLayer
370
13
48
1
60
0
100
AcDbLine
10
0
20
-43.070459
30
0
11
2.999998
21
-42.541478
31
0
39
0
210
0
220
0
230
1
0
LINE
5
100
100
AcDbEntity
8
2
62
256
6
ByLayer
370
13
48
1
60
0
100
AcDbLine
10
0
20
-43.070459
30
0
11
3.000002
21
-43.59944
31
0
39
0
210
0
220
0
230
1
0
LINE
5
101
100
AcDbEntity
8
2
62
256
6
ByLayer
370
13
48
1
60
0
100
AcDbLine
10
2.999998
20
-42.541478
30
0
11
3.000002
21
-43.59944
31
0
39
0
210
0
220
0
230
1
0
LINE
5
102
100
AcDbEntity
8
2
62
256
6
ByLayer
370
13
48
1
60
0
100
AcDbLine
10
30
20
-43.070459
30
0
11
27.000002
21
-43.59944
31
0
39
0
210
0
220
0
230
1
0
LINE
5
103
100
AcDbEntity
8
2
62
256
6
ByLayer
370
13
48
1
60
0
100
AcDbLine
10
30
20
-43.070459
30
0
11
26.999998
21
-42.541478
31
0
39
0
210
0
220
0
230
1
0
LINE
5
104
100
AcDbEntity
8
2
62
256
6
ByLayer
370
13
48
1
60
0
100
AcDbLine
10
27.000002
20
-43.59944
30
0
11
26.999998
21
-42.541478
31
0
39
0
210
0
220
0
230
1
0
ENDBLK
5
106
100
AcDbEntity
8
0
100
AcDbBlockEnd
0
BLOCK
5
109
100
AcDbEntity
8
0
100
AcDbBlockBegin
2
_CLOSED
70
0
10
0
20
0
30
0
3
_CLOSED
0
LINE
5
10B
100
AcDbEntity
8
0
62
256
6
ByLayer
370
-2
48
1
60
0
100
AcDbLine
10
-1
20
0.166667
30
0
11
0
21
0
31
0
39
0
210
0
220
0
230
1
0
LINE
5
10C
100
AcDbEntity
8
0
62
256
6
ByLayer
370
-2
48
1
60
0
100
AcDbLine
10
0
20
0
30
0
11
-1
21
-0.166667
31
0
39
0
210
0
220
0
230
1
0
LINE
5
10D
100
AcDbEntity
8
0
62
256
6
ByLayer
370
-2
48
1
60
0
100
AcDbLine
10
-1
20
0.166667
30
0
11
-1
21
-0.166667
31
0
39
0
210
0
220
0
230
1
0
LINE
5
10E
100
AcDbEntity
8
0
62
256
6
ByLayer
370
-2
48
1
60
0
100
AcDbLine
10
0
20
0
30
0
11
-1
21
0
31
0
39
0
210
0
220
0
230
1
0
ENDBLK
5
10A
100
AcDbEntity
8
0
100
AcDbBlockEnd
0
BLOCK
5
11B
100
AcDbEntity
8
0
100
AcDbBlockBegin
2
DimnDraft3D2
70
0
10
0
20
0
30
0
3
DimnDraft3D2
0
MTEXT
5
110
100
AcDbEntity
8
SK2
62
256
6
ByLayer
370
18
48
1
60
0
100
AcDbMText
10
18.8
20
54.715035
30
0
210
0
220
0
230
1
1
\W0.6920;40
40
3
41
0
44
1.084337
50
0
71
7
72
5
7
iso_b_vert
0
LINE
5
112
100
AcDbEntity
8
SK2
62
256
6
ByLayer
370
13
48
1
60
0
100
AcDbLine
10
0
20
32.7875
30
0
11
0
21
55.965035
31
0
39
0
210
0
220
0
230
1
0
LINE
5
113
100
AcDbEntity
8
SK2
62
256
6
ByLayer
370
13
48
1
60
0
100
AcDbLine
10
40
20
26.5875
30
0
11
40
21
55.965035
31
0
39
0
210
0
220
0
230
1
0
LINE
5
114
100
AcDbEntity
8
SK2
62
256
6
ByLayer
370
13
48
1
60
0
100
AcDbLine
10
0
20
53.965035
30
0
11
40
21
53.965035
31
0
39
0
210
0
220
0
230
1
0
LINE
5
115
100
AcDbEntity
8
SK2
62
256
6
ByLayer
370
13
48
1
60
0
100
AcDbLine
10
0
20
53.965035
30
0
11
3.174998
21
54.383032
31
0
39
0
210
0
220
0
230
1
0
LINE
5
116
100
AcDbEntity
8
SK2
62
256
6
ByLayer
370
13
48
1
60
0
100
AcDbLine
10
0
20
53.965035
30
0
11
3.175002
21
53.547038
31
0
39
0
210
0
220
0
230
1
0
LINE
5
117
100
AcDbEntity
8
SK2
62
256
6
ByLayer
370
13
48
1
60
0
100
AcDbLine
10
3.174998
20
54.383032
30
0
11
3.175002
21
53.547038
31
0
39
0
210
0
220
0
230
1
0
LINE
5
118
100
AcDbEntity
8
SK2
62
256
6
ByLayer
370
13
48
1
60
0
100
AcDbLine
10
40
20
53.965035
30
0
11
36.825002
21
53.547038
31
0
39
0
210
0
220
0
230
1
0
LINE
5
119
100
AcDbEntity
8
SK2
62
256
6
ByLayer
370
13
48
1
60
0
100
AcDbLine
10
40
20
53.965035
30
0
11
36.824998
21
54.383032
31
0
39
0
210
0
220
0
230
1
0
LINE
5
11A
100
AcDbEntity
8
SK2
62
256
6
ByLayer
370
13
48
1
60
0
100
AcDbLine
10
36.825002
20
53.547038
30
0
11
36.824998
21
54.383032
31
0
39
0
210
0
220
0
230
1
0
ENDBLK
5
11C
100
AcDbEntity
8
0
100
AcDbBlockEnd
0
BLOCK
5
129
100
AcDbEntity
8
0
100
AcDbBlockBegin
2
DimnDraft3D3
70
0
10
0
20
0
30
0
3
DimnDraft3D3
0
MTEXT
5
11F
100
AcDbEntity
8
SK2
62
256
6
ByLayer
370
18
48
1
60
0
100
AcDbMText
10
30.832895
20
45.662386
30
0
210
0
220
0
230
1
1
\W0.5560;17
40
3
41
0
44
1.084337
50
0
71
7
72
5
7
iso_b_vert
0
LINE
5
120
100
AcDbEntity
8
SK2
62
256
6
ByLayer
370
13
48
1
60
0
100
AcDbLine
10
23
20
31.9375
30
0
11
23
21
46.912386
31
0
39
0
210
0
220
0
230
1
0
LINE
5
121
100
AcDbEntity
8
SK2
62
256
6
ByLayer
370
13
48
1
60
0
100
AcDbLine
10
40
20
26.5875
30
0
11
40
21
46.912386
31
0
39
0
210
0
220
0
230
1
0
LINE
5
122
100
AcDbEntity
8
SK2
62
256
6
ByLayer
370
13
48
1
60
0
100
AcDbLine
10
23
20
44.912386
30
0
11
40
21
44.912386
31
0
39
0
210
0
220
0
230
1
0
LINE
5
123
100
AcDbEntity
8
SK2
62
256
6
ByLayer
370
13
48
1
60
0
100
AcDbLine
10
23
20
44.912386
30
0
11
26.174998
21
45.330383
31
0
39
0
210
0
220
0
230
1
0
LINE
5
124
100
AcDbEntity
8
SK2
62
256
6
ByLayer
370
13
48
1
60
0
100
AcDbLine
10
23
20
44.912386
30
0
11
26.175002
21
44.494389
31
0
39
0
210
0
220
0
230
1
0
LINE
5
125
100
AcDbEntity
8
SK2
62
256
6
ByLayer
370
13
48
1
60
0
100
AcDbLine
10
26.174998
20
45.330383
30
0
11
26.175002
21
44.494389
31
0
39
0
210
0
220
0
230
1
0
LINE
5
126
100
AcDbEntity
8
SK2
62
256
6
ByLayer
370
13
48
1
60
0
100
AcDbLine
10
40
20
44.912386
30
0
11
36.825002
21
44.494389
31
0
39
0
210
0
220
0
230
1
0
LINE
5
127
100
AcDbEntity
8
SK2
62
256
6
ByLayer
370
13
48
1
60
0
100
AcDbLine
10
40
20
44.912386
30
0
11
36.824998
21
45.330383
31
0
39
0
210
0
220
0
230
1
0
LINE
5
128
100
AcDbEntity
8
SK2
62
256
6
ByLayer
370
13
48
1
60
0
100
AcDbLine
10
36.825002
20
44.494389
30
0
11
36.824998
21
45.330383
31
0
39
0
210
0
220
0
230
1
0
ENDBLK
5
12A
100
AcDbEntity
8
0
100
AcDbBlockEnd
0
BLOCK
5
138
100
AcDbEntity
8
0
100
AcDbBlockBegin
2
DimnDraft3D4
70
0
10
0
20
0
30
0
3
DimnDraft3D4
0
MTEXT
5
12D
100
AcDbEntity
8
SK2
62
256
6
ByLayer
370
18
48
1
60
0
100
AcDbMText
10
57.222424
20
0.978947
30
0
210
0
220
0
230
1
1
\W0.7152;62.7
40
3
41
0
44
1.084337
50
90
71
7
72
5
7
iso_b_vert
0
MTEXT
5
12E
100
AcDbEntity
8
SK2
62
256
6
ByLayer
370
18
48
1
60
0
100
AcDbMText
10
57.222424
20
-4.997615
30
0
210
0
220
0
230
1
1
%%c
40
3
41
0
44
1.084337
50
90
71
7
72
5
7
iso_b_vert
0
LINE
5
12F
100
AcDbEntity
8
SK2
62
256
6
ByLayer
370
13
48
1
60
0
100
AcDbLine
10
27.388538
20
31.35
30
0
11
60.722424
21
31.35
31
0
39
0
210
0
220
0
230
1
0
LINE
5
130
100
AcDbEntity
8
SK2
62
256
6
ByLayer
370
13
48
1
60
0
100
AcDbLine
10
27.388538
20
-31.35
30
0
11
60.722424
21
-31.35
31
0
39
0
210
0
220
0
230
1
0
LINE
5
131
100
AcDbEntity
8
SK2
62
256
6
ByLayer
370
13
48
1
60
0
100
AcDbLine
10
58.722424
20
31.35
30
0
11
58.722424
21
-31.35
31
0
39
0
210
0
220
0
230
1
0
LINE
5
132
100
AcDbEntity
8
SK2
62
256
6
ByLayer
370
13
48
1
60
0
100
AcDbLine
10
58.722424
20
31.35
30
0
11
59.140421
21
28.175002
31
0
39
0
210
0
220
0
230
1
0
LINE
5
133
100
AcDbEntity
8
SK2
62
256
6
ByLayer
370
13
48
1
60
0
100
AcDbLine
10
58.722424
20
31.35
30
0
11
58.304427
21
28.174998
31
0
39
0
210
0
220
0
230
1
0
LINE
5
134
100
AcDbEntity
8
SK2
62
256
6
ByLayer
370
13
48
1
60
0
100
AcDbLine
10
59.140421
20
28.175002
30
0
11
58.304427
21
28.174998
31
0
39
0
210
0
220
0
230
1
0
LINE
5
135
100
AcDbEntity
8
SK2
62
256
6
ByLayer
370
13
48
1
60
0
100
AcDbLine
10
58.722424
20
-31.35
30
0
11
58.304427
21
-28.175002
31
0
39
0
210
0
220
0
230
1
0
LINE
5
136
100
AcDbEntity
8
SK2
62
256
6
ByLayer
370
13
48
1
60
0
100
AcDbLine
10
58.722424
20
-31.35
30
0
11
59.140421
21
-28.174998
31
0
39
0
210
0
220
0
230
1
0
LINE
5
137
100
AcDbEntity
8
SK2
62
256
6
ByLayer
370
13
48
1
60
0
100
AcDbLine
10
58.304427
20
-28.175002
30
0
11
59.140421
21
-28.174998
31
0
39
0
210
0
220
0
230
1
0
ENDBLK
5
139
100
AcDbEntity
8
0
100
AcDbBlockEnd
0
BLOCK
5
147
100
AcDbEntity
8
0
100
AcDbBlockBegin
2
DimnDraft3D5
70
0
10
0
20
0
30
0
3
DimnDraft3D5
0
MTEXT
5
13C
100
AcDbEntity
8
SK2
62
256
6
ByLayer
370
18
48
1
60
0
100
AcDbMText
10
-49.905176
20
2.707895
30
0
210
0
220
0
230
1
1
\W0.6337;63
40
3
41
0
44
1.084337
50
90
71
7
72
5
7
iso_b_vert
0
MTEXT
5
13D
100
AcDbEntity
8
SK2
62
256
6
ByLayer
370
18
48
1
60
0
100
AcDbMText
10
-49.905176
20
-3.268668
30
0
210
0
220
0
230
1
1
%%c
40
3
41
0
44
1.084337
50
90
71
7
72
5
7
iso_b_vert
0
LINE
5
13E
100
AcDbEntity
8
SK2
62
256
6
ByLayer
370
13
48
1
60
0
100
AcDbLine
10
-1.2875
20
31.5
30
0
11
-50.405176
21
31.5
31
0
39
0
210
0
220
0
230
1
0
LINE
5
13F
100
AcDbEntity
8
SK2
62
256
6
ByLayer
370
13
48
1
60
0
100
AcDbLine
10
-1.2875
20
-31.5
30
0
11
-50.405176
21
-31.5
31
0
39
0
210
0
220
0
230
1
0
LINE
5
140
100
AcDbEntity
8
SK2
62
256
6
ByLayer
370
13
48
1
60
0
100
AcDbLine
10
-48.405176
20
31.5
30
0
11
-48.405176
21
-31.5
31
0
39
0
210
0
220
0
230
1
0
LINE
5
141
100
AcDbEntity
8
SK2
62
256
6
ByLayer
370
13
48
1
60
0
100
AcDbLine
10
-48.405176
20
31.5
30
0
11
-47.987179
21
28.325002
31
0
39
0
210
0
220
0
230
1
0
LINE
5
142
100
AcDbEntity
8
SK2
62
256
6
ByLayer
370
13
48
1
60
0
100
AcDbLine
10
-48.405176
20
31.5
30
0
11
-48.823173
21
28.324998
31
0
39
0
210
0
220
0
230
1
0
LINE
5
143
100
AcDbEntity
8
SK2
62
256
6
ByLayer
370
13
48
1
60
0
100
AcDbLine
10
-47.987179
20
28.325002
30
0
11
-48.823173
21
28.324998
31
0
39
0
210
0
220
0
230
1
0
LINE
5
144
100
AcDbEntity
8
SK2
62
256
6
ByLayer
370
13
48
1
60
0
100
AcDbLine
10
-48.405176
20
-31.5
30
0
11
-48.823173
21
-28.325002
31
0
39
0
210
0
220
0
230
1
0
LINE
5
145
100
AcDbEntity
8
SK2
62
256
6
ByLayer
370
13
48
1
60
0
100
AcDbLine
10
-48.405176
20
-31.5
30
0
11
-47.987179
21
-28.324998
31
0
39
0
210
0
220
0
230
1
0
LINE
5
146
100
AcDbEntity
8
SK2
62
256
6
ByLayer
370
13
48
1
60
0
100
AcDbLine
10
-48.823173
20
-28.325002
30
0
11
-47.987179
21
-28.324998
31
0
39
0
210
0
220
0
230
1
0
ENDBLK
5
148
100
AcDbEntity
8
0
100
AcDbBlockEnd
0
ENDSEC
0
SECTION
2
ENTITIES
0
ARC
5
C7
100
AcDbEntity
8
3
62
256
6
ByLayer
370
13
48
0.05
60
0
100
AcDbCircle
39
0
10
-23.60718
20
24.6
30
0
40
0.6
210
0
220
0
230
-1
100
AcDbArc
50
240
51
270
0
ARC
5
C8
100
AcDbEntity
8
3
62
256
6
ByLayer
370
13
48
0.05
60
0
100
AcDbCircle
39
0
10
-23.60718
20
-24.6
30
0
40
0.6
210
0
220
0
230
-1
100
AcDbArc
50
90
51
120
0
ELLIPSE
5
C9
100
AcDbEntity
8
1
62
256
6
ByLayer
370
18
48
1
60
0
100
AcDbEllipse
10
29.5
20
14.25
30
0
11
1.89999999999999
21
0
31
0
210
0
220
0
230
1
40
0.866025
41
1.5707963267949
42
-1.5707963267949
0
ELLIPSE
5
CA
100
AcDbEntity
8
1
62
256
6
ByLayer
370
18
48
1
60
0
100
AcDbEllipse
10
29.5
20
-14.25
30
0
11
1.89999999999999
21
0
31
0
210
0
220
0
230
1
40
0.866025
41
1.5707963267949
42
-1.5707963267949
0
POINT
5
6C
100
AcDbEntity
8
81
62
256
6
ByLayer
370
18
48
1
60
0
100
AcDbPoint
10
30
20
0
30
0
39
0
210
0
220
0
230
1
50
360
0
POINT
5
6E
100
AcDbEntity
8
80
62
256
6
ByLayer
370
18
48
1
60
0
100
AcDbPoint
10
0
20
0
30
0
39
0
210
0
220
0
230
1
50
360
0
SPLINE
5
CB
100
AcDbEntity
8
1
62
256
6
ByLayer
370
18
48
1
60
0
100
AcDbSpline
70
2053
71
3
72
65
73
61
40
0
40
0
40
0
40
0
40
0.0625000000000094
40
0.0625000000000094
40
0.0781250000000113
40
0.0781250000000113
40
0.0937500000000132
40
0.0937500000000132
40
0.125000000000015
40
0.125000000000015
40
0.187500000000018
40
0.187500000000018
40
0.25000000000002
40
0.25000000000002
40
0.28125000000002
40
0.28125000000002
40
0.29687500000002
40
0.29687500000002
40
0.312500000000019
40
0.312500000000019
40
0.375000000000018
40
0.375000000000018
40
0.406250000000017
40
0.406250000000017
40
0.421875000000017
40
0.421875000000017
40
0.437500000000017
40
0.437500000000017
40
0.500000000000016
40
0.500000000000016
40
0.531250000000016
40
0.531250000000016
40
0.562500000000016
40
0.593750000000016
40
0.593750000000016
40
0.625000000000016
40
0.625000000000016
40
0.687500000000015
40
0.687500000000015
40
0.703125000000015
40
0.703125000000015
40
0.718750000000014
40
0.718750000000014
40
0.750000000000014
40
0.750000000000014
40
0.781250000000014
40
0.781250000000014
40
0.796875000000013
40
0.796875000000013
40
0.812500000000013
40
0.812500000000013
40
0.875000000000008
40
0.875000000000008
40
0.906250000000005
40
0.906250000000005
40
0.921875000000004
40
0.921875000000004
40
0.937500000000003
40
0.937500000000003
40
1
40
1
40
1
40
1
41
1
10
29.5
20
-31.16177993955
30
0
41
1
10
29.2677557187089
20
-31.16177993955
30
0
41
1
10
29.036094572581
20
-31.1640243073635
30
0
41
1
10
28.7472746147993
20
-31.1695873260238
30
0
41
1
10
28.6894640102576
20
-31.1708404382089
30
0
41
1
10
28.5750669910132
20
-31.1735907844117
30
0
41
1
10
28.5183486763192
20
-31.1750901263911
30
0
41
1
10
28.3496153915209
20
-31.1799405095508
30
0
41
1
10
28.2390189399226
20
-31.1836438972456
30
0
41
1
10
27.9128718471467
20
-31.1960049485059
30
0
41
1
10
27.7029056147057
20
-31.2059170724811
30
0
41
1
10
27.2989964988584
20
-31.2282042844175
30
0
41
1
10
27.1113940135907
20
-31.2402215926825
30
0
41
1
10
26.852068988497
20
-31.2585025755306
30
0
41
1
10
26.7692885061265
20
-31.2646416586258
30
0
41
1
10
26.6508248847226
20
-31.2737878465407
30
0
41
1
10
26.6122900023909
20
-31.2768260957777
30
0
41
1
10
26.5371862839902
20
-31.2828585389187
30
0
41
1
10
26.5005386085167
20
-31.2858595367116
30
0
41
1
10
26.3244283370244
20
-31.300523144858
30
0
41
1
10
26.2046743925474
20
-31.3112758793831
30
0
41
1
10
26.0570895627278
20
-31.3249820494831
30
0
41
1
10
26.0132740982425
20
-31.3291470263118
30
0
41
1
10
25.9560511234866
20
-31.3346610039728
30
0
41
1
10
25.9383609843169
20
-31.3363801566902
30
0
41
1
10
25.9063050435184
20
-31.3395139797615
30
0
41
1
10
25.8918856766263
20
-31.3409337448364
30
0
41
1
10
25.8277217481596
20
-31.3472801189114
30
0
41
1
10
25.8015325366997
20
-31.3499500420228
30
0
41
1
10
25.8008007070914
20
-31.3500239379613
30
0
41
1
10
25.8071573744176
20
-31.3493804194394
30
0
41
1
10
25.8326706882322
20
-31.3468169695353
30
0
41
1
10
25.8708651044969
20
-31.3429894201601
30
0
41
1
10
25.9337410882011
20
-31.3368147276973
30
0
41
1
10
26.0090019132991
20
-31.3295551265875
30
0
41
1
10
26.0531166632514
20
-31.3253562182398
30
0
41
1
10
26.2011854560287
20
-31.31159006389
30
0
41
1
10
26.3210611362891
20
-31.3008195775412
30
0
41
1
10
26.4961200600321
20
-31.2862237223747
30
0
41
1
10
26.5324050853118
20
-31.2832476968496
30
0
41
1
10
26.6075399508761
20
-31.2772031134891
30
0
41
1
10
26.6462979566375
20
-31.2741423048784
30
0
41
1
10
26.7651839400563
20
-31.2649494391762
30
0
41
1
10
26.8482521876994
20
-31.2587801198253
30
0
41
1
10
27.0216972290532
20
-31.2465365788665
30
0
41
1
10
27.112075040439
20
-31.2404620584185
30
0
41
1
10
27.2530596736311
20
-31.2315481966789
30
0
41
1
10
27.3009592036851
20
-31.2286098675608
30
0
41
1
10
27.3985765734901
20
-31.2228203033601
30
0
41
1
10
27.4484210077605
20
-31.2199622216327
30
0
41
1
10
27.7004159965179
20
-31.2060427602337
30
0
41
1
10
27.9105151871525
20
-31.1961042296148
30
0
41
1
10
28.2377198210257
20
-31.1836882089491
30
0
41
1
10
28.348812347598
20
-31.1799640561997
30
0
41
1
10
28.5185284181236
20
-31.1750847287806
30
0
41
1
10
28.5757554094804
20
-31.173572959378
30
0
41
1
10
28.6903942339521
20
-31.170819365779
30
0
41
1
10
28.7478111039657
20
-31.1695765401217
30
0
41
1
10
29.0353730734096
20
-31.1640400198292
30
0
41
1
10
29.266938648261
20
-31.16177993955
30
0
41
1
10
29.5
20
-31.16177993955
30
0
0
SPLINE
5
CC
100
AcDbEntity
8
1
62
256
6
ByLayer
370
18
48
1
60
0
100
AcDbSpline
70
4
71
3
72
65
73
61
40
0
40
0
40
0
40
0
40
0.062500000000001
40
0.062500000000001
40
0.0781250000000012
40
0.0781250000000012
40
0.0937500000000014
40
0.0937500000000014
40
0.125000000000004
40
0.125000000000004
40
0.18750000000001
40
0.18750000000001
40
0.250000000000017
40
0.250000000000017
40
0.281250000000019
40
0.281250000000019
40
0.296875000000019
40
0.296875000000019
40
0.31250000000002
40
0.31250000000002
40
0.375000000000022
40
0.375000000000022
40
0.406250000000023
40
0.406250000000023
40
0.421875000000023
40
0.421875000000023
40
0.437500000000023
40
0.437500000000023
40
0.500000000000023
40
0.500000000000023
40
0.531250000000023
40
0.531250000000023
40
0.562500000000023
40
0.593750000000023
40
0.593750000000023
40
0.625000000000023
40
0.625000000000023
40
0.687500000000022
40
0.687500000000022
40
0.703125000000022
40
0.703125000000022
40
0.718750000000023
40
0.718750000000023
40
0.75000000000002
40
0.75000000000002
40
0.781250000000018
40
0.781250000000018
40
0.796875000000017
40
0.796875000000017
40
0.812500000000015
40
0.812500000000015
40
0.875000000000009
40
0.875000000000009
40
0.906250000000006
40
0.906250000000006
40
0.921875000000005
40
0.921875000000005
40
0.937500000000004
40
0.937500000000004
40
1
40
1
40
1
40
1
41
1
10
29.5
20
-12.6102876319827
30
0
41
1
10
29.2677557187089
20
-12.6102876319827
30
0
41
1
10
29.036094572581
20
-12.6289030844985
30
0
41
1
10
28.7472746147993
20
-12.6762588347909
30
0
41
1
10
28.6894640102576
20
-12.6869671507979
30
0
41
1
10
28.5750669910132
20
-12.7106123987372
30
0
41
1
10
28.5183486763191
20
-12.723567141468
30
0
41
1
10
28.3496153915209
20
-12.7657767989277
30
0
41
1
10
28.2390189399225
20
-12.7983700695249
30
0
41
1
10
27.9128718471466
20
-12.9093661705454
30
0
41
1
10
27.7029056147057
20
-13.0008565564251
30
0
41
1
10
27.2989964988584
20
-13.2209195661601
30
0
41
1
10
27.1113940135906
20
-13.3460809600878
30
0
41
1
10
26.852068988497
20
-13.5553979435802
30
0
41
1
10
26.7692885061264
20
-13.628815659097
30
0
41
1
10
26.6508248847226
20
-13.7445671354588
30
0
41
1
10
26.6122900023909
20
-13.7840902030989
30
0
41
1
10
26.5371862839902
20
-13.8650643274066
30
0
41
1
10
26.5005386085167
20
-13.9066194911719
30
0
41
1
10
26.3244283370243
20
-14.1168762287357
30
0
41
1
10
26.2046743925474
20
-14.2943633013168
30
0
41
1
10
26.0570895627278
20
-14.5742366500788
30
0
41
1
10
26.0132740982424
20
-14.6698193003159
30
0
41
1
10
25.9560511234866
20
-14.8167703498688
30
0
41
1
10
25.9383609843169
20
-14.8664861155634
30
0
41
1
10
25.9063050435184
20
-14.9658977201055
30
0
41
1
10
25.8918856766263
20
-15.015708558308
30
0
41
1
10
25.8277217481596
20
-15.2652676352112
30
0
41
1
10
25.8015325366997
20
-15.4665040787664
30
0
41
1
10
25.8008007070913
20
-15.7706782241463
30
0
41
1
10
25.8071573744176
20
-15.8729167417114
30
0
41
1
10
25.8326706882322
20
-16.0731992786481
30
0
41
1
10
25.8708657859969
20
-16.2703789268267
30
0
41
1
10
25.933741088201
20
-16.4615789237519
30
0
41
1
10
26.009001913299
20
-16.6498261710003
30
0
41
1
10
26.0531166632513
20
-16.7429051191232
30
0
41
1
10
26.2011854560287
20
-17.0118956641207
30
0
41
1
10
26.321061136289
20
-17.1792197037412
30
0
41
1
10
26.4961200600321
20
-17.3744918517526
30
0
41
1
10
26.5324050853118
20
-17.412845429048
30
0
41
1
10
26.6075399508761
20
-17.4881527949262
30
0
41
1
10
26.6462979566374
20
-17.5250046262167
30
0
41
1
10
26.7651839400563
20
-17.6323945548091
30
0
41
1
10
26.8482521876994
20
-17.7001163101659
30
0
41
1
10
27.0216972290532
20
-17.8282335969491
30
0
41
1
10
27.1120750404389
20
-17.8886279307
30
0
41
1
10
27.253059673631
20
-17.9738608988979
30
0
41
1
10
27.300959203685
20
-18.001377100756
30
0
41
1
10
27.3985765734901
20
-18.0546228836474
30
0
41
1
10
27.4484210077605
20
-18.0804125681667
30
0
41
1
10
27.7004159965178
20
-18.2039914384582
30
0
41
1
10
27.9105151871525
20
-18.2858328537881
30
0
41
1
10
28.2377198210256
20
-18.3849270199431
30
0
41
1
10
28.348812347598
20
-18.4139820162857
30
0
41
1
10
28.5185284181236
20
-18.4515647238855
30
0
41
1
10
28.5757554094804
20
-18.4631144164423
30
0
41
1
10
28.690394233952
20
-18.4840327593649
30
0
41
1
10
28.7478111039657
20
-18.493409656304
30
0
41
1
10
29.0353730734096
20
-18.5350026400883
30
0
41
1
10
29.266938648261
20
-18.5514923075673
30
0
41
1
10
29.5
20
-18.5514923075673
30
0
0
SPLINE
5
CD
100
AcDbEntity
8
1
62
256
6
ByLayer
370
18
48
1
60
0
100
AcDbSpline
70
4
71
3
72
65
73
61
40
0
40
0
40
0
40
0
40
0.0624999999999967
40
0.0624999999999967
40
0.0781249999999963
40
0.0781249999999963
40
0.093749999999996
40
0.093749999999996
40
0.124999999999995
40
0.124999999999995
40
0.187499999999992
40
0.187499999999992
40
0.249999999999989
40
0.249999999999989
40
0.281249999999987
40
0.281249999999987
40
0.296874999999987
40
0.296874999999987
40
0.312499999999987
40
0.312499999999987
40
0.374999999999988
40
0.374999999999988
40
0.406249999999988
40
0.406249999999988
40
0.421874999999989
40
0.421874999999989
40
0.437499999999989
40
0.437499999999989
40
0.499999999999993
40
0.499999999999993
40
0.531249999999994
40
0.531249999999994
40
0.562499999999996
40
0.593749999999998
40
0.593749999999998
40
0.625
40
0.625
40
0.687500000000003
40
0.687500000000003
40
0.703125000000003
40
0.703125000000003
40
0.718750000000003
40
0.718750000000003
40
0.750000000000003
40
0.750000000000003
40
0.781250000000002
40
0.781250000000002
40
0.796875000000002
40
0.796875000000002
40
0.812500000000002
40
0.812500000000002
40
0.875000000000001
40
0.875000000000001
40
0.906250000000001
40
0.906250000000001
40
0.921875000000001
40
0.921875000000001
40
0.9375
40
0.9375
40
1
40
1
40
1
40
1
41
1
10
29.5
20
18.5514923075671
30
0
41
1
10
29.2677557187089
20
18.5514923075671
30
0
41
1
10
29.036094572581
20
18.5351212228648
30
0
41
1
10
28.7472746147993
20
18.4933284912329
30
0
41
1
10
28.6894640102577
20
18.4838732874109
30
0
41
1
10
28.5750669910132
20
18.4629783856744
30
0
41
1
10
28.5183486763192
20
18.451522984923
30
0
41
1
10
28.349615391521
20
18.414163710623
30
0
41
1
10
28.2390189399226
20
18.3852738277206
30
0
41
1
10
27.9128718471467
20
18.2866387779604
30
0
41
1
10
27.7029056147058
20
18.2050605160559
30
0
41
1
10
27.2989964988585
20
18.0072847182572
30
0
41
1
10
27.1113940135907
20
17.8941406325946
30
0
41
1
10
26.8520689884971
20
17.7031046319503
30
0
41
1
10
26.7692885061265
20
17.6358259995287
30
0
41
1
10
26.6508248847227
20
17.5292207110818
30
0
41
1
10
26.612290002391
20
17.4927358926787
30
0
41
1
10
26.5371862839903
20
17.417794211512
30
0
41
1
10
26.5005386085168
20
17.3792400455396
30
0
41
1
10
26.3244283370245
20
17.1836469161223
30
0
41
1
10
26.2046743925475
20
17.0169125780663
30
0
41
1
10
26.0570895627279
20
16.7507453994043
30
0
41
1
10
26.0132740982425
20
16.6593277259959
30
0
41
1
10
25.9560511234867
20
16.5178906541039
30
0
41
1
10
25.938360984317
20
16.4698940411268
30
0
41
1
10
25.9063050435185
20
16.373616259656
30
0
41
1
10
25.8918856766264
20
16.3252251865283
30
0
41
1
10
25.8277217481597
20
16.0820124837002
30
0
41
1
10
25.8015325366998
20
15.8834459632564
30
0
41
1
10
25.8008007070915
20
15.579345713815
30
0
41
1
10
25.8071573744177
20
15.476463677728
30
0
41
1
10
25.8326706882323
20
15.2736176908872
30
0
41
1
10
25.870865785997
20
15.0726103345892
30
0
41
1
10
25.9337410882011
20
14.8752358039455
30
0
41
1
10
26.0090019132991
20
14.6797289555872
30
0
41
1
10
26.0531166632514
20
14.5824510991166
30
0
41
1
10
26.2011854560288
20
14.2996943997694
30
0
41
1
10
26.3210611362891
20
14.1215998738
30
0
41
1
10
26.4961200600322
20
13.9117318706221
30
0
41
1
10
26.5324050853119
20
13.8704022678016
30
0
41
1
10
26.6075399508762
20
13.7890503185629
30
0
41
1
10
26.6462979566375
20
13.7491376786618
30
0
41
1
10
26.7651839400564
20
13.6325548843672
30
0
41
1
10
26.8482521876994
20
13.5586638096596
30
0
41
1
10
27.0216972290533
20
13.4183029819174
30
0
41
1
10
27.112075040439
20
13.3518341277186
30
0
41
1
10
27.2530596736311
20
13.2576872977811
30
0
41
1
10
27.3009592036851
20
13.2272327668049
30
0
41
1
10
27.3985765734902
20
13.1681974197129
30
0
41
1
10
27.4484210077605
20
13.1395496534661
30
0
41
1
10
27.7004159965179
20
13.0020513217756
30
0
41
1
10
27.9105151871526
20
12.9102713758267
30
0
41
1
10
28.2377198210257
20
12.7987611890061
30
0
41
1
10
28.348812347598
20
12.7659820399141
30
0
41
1
10
28.5185284181237
20
12.7235200048952
30
0
41
1
10
28.5757554094804
20
12.7104585429357
30
0
41
1
10
28.690394233952
20
12.6867866064142
30
0
41
1
10
28.7478111039657
20
12.6761668838178
30
0
41
1
10
29.0353730734095
20
12.629037379741
30
0
41
1
10
29.266938648261
20
12.6102876319828
30
0
41
1
10
29.5
20
12.6102876319828
30
0
0
SPLINE
5
CE
100
AcDbEntity
8
1
62
256
6
ByLayer
370
18
48
1
60
0
100
AcDbSpline
70
2053
71
3
72
65
73
61
40
0
40
0
40
0
40
0
40
0.0625000000000069
40
0.0625000000000069
40
0.0781250000000081
40
0.0781250000000081
40
0.0937500000000093
40
0.0937500000000093
40
0.12500000000001
40
0.12500000000001
40
0.187500000000011
40
0.187500000000011
40
0.250000000000013
40
0.250000000000013
40
0.281250000000013
40
0.281250000000013
40
0.296875000000012
40
0.296875000000012
40
0.312500000000012
40
0.312500000000012
40
0.37500000000001
40
0.37500000000001
40
0.406250000000009
40
0.406250000000009
40
0.421875000000009
40
0.421875000000009
40
0.437500000000009
40
0.437500000000009
40
0.500000000000009
40
0.500000000000009
40
0.531250000000009
40
0.531250000000009
40
0.562500000000009
40
0.59375000000001
40
0.59375000000001
40
0.62500000000001
40
0.62500000000001
40
0.68750000000001
40
0.68750000000001
40
0.70312500000001
40
0.70312500000001
40
0.718750000000011
40
0.718750000000011
40
0.750000000000011
40
0.750000000000011
40
0.78125000000001
40
0.78125000000001
40
0.79687500000001
40
0.79687500000001
40
0.812500000000009
40
0.812500000000009
40
0.875000000000004
40
0.875000000000004
40
0.906250000000003
40
0.906250000000003
40
0.921875000000002
40
0.921875000000002
40
0.937500000000001
40
0.937500000000001
40
1
40
1
40
1
40
1
41
1
10
29.5
20
31.16177993955
30
0
41
1
10
29.2677557187089
20
31.16177993955
30
0
41
1
10
29.036094572581
20
31.1640243073634
30
0
41
1
10
28.7472746147993
20
31.1695873260238
30
0
41
1
10
28.6894640102576
20
31.1708404382089
30
0
41
1
10
28.5750669910132
20
31.1735907844117
30
0
41
1
10
28.5183486763192
20
31.1750901263911
30
0
41
1
10
28.3496153915209
20
31.1799405095507
30
0
41
1
10
28.2390189399225
20
31.1836438972456
30
0
41
1
10
27.9128718471466
20
31.1960049485058
30
0
41
1
10
27.7029056147057
20
31.2059170724811
30
0
41
1
10
27.2989964988584
20
31.2282042844174
30
0
41
1
10
27.1113940135907
20
31.2402215926825
30
0
41
1
10
26.852068988497
20
31.2585025755306
30
0
41
1
10
26.7692885061265
20
31.2646416586258
30
0
41
1
10
26.6508248847226
20
31.2737878465407
30
0
41
1
10
26.6122900023909
20
31.2768260957777
30
0
41
1
10
26.5371862839902
20
31.2828585389187
30
0
41
1
10
26.5005386085167
20
31.2858595367116
30
0
41
1
10
26.3244283370244
20
31.3005231448581
30
0
41
1
10
26.2046743925474
20
31.3112758793831
30
0
41
1
10
26.0570895627278
20
31.3249820494831
30
0
41
1
10
26.0132740982424
20
31.3291470263118
30
0
41
1
10
25.9560511234866
20
31.3346610039728
30
0
41
1
10
25.9383609843169
20
31.3363801566902
30
0
41
1
10
25.9063050435184
20
31.3395139797614
30
0
41
1
10
25.8918856766263
20
31.3409337448364
30
0
41
1
10
25.8277217481596
20
31.3472801189114
30
0
41
1
10
25.8015325366997
20
31.3499500420228
30
0
41
1
10
25.8008007070914
20
31.3500239379613
30
0
41
1
10
25.8071573744176
20
31.3493804194394
30
0
41
1
10
25.8326706882322
20
31.3468169695353
30
0
41
1
10
25.8708651044969
20
31.3429894201601
30
0
41
1
10
25.933741088201
20
31.3368147276973
30
0
41
1
10
26.0090019132991
20
31.3295551265875
30
0
41
1
10
26.0531166632514
20
31.3253562182398
30
0
41
1
10
26.2011854560287
20
31.31159006389
30
0
41
1
10
26.3210611362891
20
31.3008195775412
30
0
41
1
10
26.4961200600322
20
31.2862237223747
30
0
41
1
10
26.5324050853118
20
31.2832476968496
30
0
41
1
10
26.6075399508761
20
31.2772031134891
30
0
41
1
10
26.6462979566375
20
31.2741423048784
30
0
41
1
10
26.7651839400563
20
31.2649494391762
30
0
41
1
10
26.8482521876994
20
31.2587801198253
30
0
41
1
10
27.0216972290532
20
31.2465365788665
30
0
41
1
10
27.112075040439
20
31.2404620584185
30
0
41
1
10
27.2530596736311
20
31.2315481966789
30
0
41
1
10
27.3009592036851
20
31.2286098675608
30
0
41
1
10
27.3985765734901
20
31.2228203033602
30
0
41
1
10
27.4484210077606
20
31.2199622216327
30
0
41
1
10
27.7004159965179
20
31.2060427602337
30
0
41
1
10
27.9105151871525
20
31.1961042296148
30
0
41
1
10
28.2377198210257
20
31.1836882089491
30
0
41
1
10
28.348812347598
20
31.1799640561997
30
0
41
1
10
28.5185284181236
20
31.1750847287806
30
0
41
1
10
28.5757554094804
20
31.173572959378
30
0
41
1
10
28.690394233952
20
31.170819365779
30
0
41
1
10
28.7478111039657
20
31.1695765401217
30
0
41
1
10
29.0353730734096
20
31.1640400198292
30
0
41
1
10
29.266938648261
20
31.16177993955
30
0
41
1
10
29.5
20
31.16177993955
30
0
0
SPLINE
5
CF
100
AcDbEntity
8
1
62
256
6
ByLayer
370
18
48
1
60
0
100
AcDbSpline
70
4
71
3
72
65
73
61
40
0
40
0
40
0
40
0
40
0.0625000000000069
40
0.0625000000000069
40
0.0781250000000084
40
0.0781250000000084
40
0.09375000000001
40
0.09375000000001
40
0.125000000000011
40
0.125000000000011
40
0.187500000000014
40
0.187500000000014
40
0.250000000000017
40
0.250000000000017
40
0.281250000000018
40
0.281250000000018
40
0.296875000000018
40
0.296875000000018
40
0.312500000000017
40
0.312500000000017
40
0.375000000000015
40
0.375000000000015
40
0.406250000000014
40
0.406250000000014
40
0.421875000000014
40
0.421875000000014
40
0.437500000000013
40
0.437500000000013
40
0.500000000000011
40
0.500000000000011
40
0.53125000000001
40
0.53125000000001
40
0.562500000000008
40
0.593750000000007
40
0.593750000000007
40
0.625000000000005
40
0.625000000000005
40
0.687500000000002
40
0.687500000000002
40
0.703125000000001
40
0.703125000000001
40
0.718750000000001
40
0.718750000000001
40
0.75
40
0.75
40
0.781249999999999
40
0.781249999999999
40
0.796874999999999
40
0.796874999999999
40
0.812499999999999
40
0.812499999999999
40
0.874999999999998
40
0.874999999999998
40
0.906249999999998
40
0.906249999999998
40
0.921874999999998
40
0.921874999999998
40
0.937499999999998
40
0.937499999999998
40
1
40
1
40
1
40
1
41
1
10
29.5
20
12.6102876319828
30
0
41
1
10
29.2677557187089
20
12.6102876319828
30
0
41
1
10
29.036094572581
20
12.6289030844986
30
0
41
1
10
28.7472746147993
20
12.6762588347909
30
0
41
1
10
28.6894640102577
20
12.6869671507979
30
0
41
1
10
28.5750669910132
20
12.7106123987372
30
0
41
1
10
28.5183486763192
20
12.7235671414681
30
0
41
1
10
28.3496153915209
20
12.7657767989277
30
0
41
1
10
28.2390189399226
20
12.7983700695249
30
0
41
1
10
27.9128718471466
20
12.9093661705454
30
0
41
1
10
27.7029056147058
20
13.0008565564251
30
0
41
1
10
27.2989964988584
20
13.2209195661602
30
0
41
1
10
27.1113940135907
20
13.3460809600878
30
0
41
1
10
26.852068988497
20
13.5553979435802
30
0
41
1
10
26.7692885061265
20
13.628815659097
30
0
41
1
10
26.6508248847226
20
13.7445671354588
30
0
41
1
10
26.6122900023909
20
13.7840902030989
30
0
41
1
10
26.5371862839902
20
13.8650643274066
30
0
41
1
10
26.5005386085167
20
13.9066194911719
30
0
41
1
10
26.3244283370244
20
14.1168762287357
30
0
41
1
10
26.2046743925474
20
14.2943633013168
30
0
41
1
10
26.0570895627278
20
14.5742366500788
30
0
41
1
10
26.0132740982425
20
14.6698193003159
30
0
41
1
10
25.9560511234866
20
14.8167703498689
30
0
41
1
10
25.9383609843169
20
14.8664861155634
30
0
41
1
10
25.9063050435185
20
14.9658977201054
30
0
41
1
10
25.8918856766263
20
15.015708558308
30
0
41
1
10
25.8277217481596
20
15.2652676352112
30
0
41
1
10
25.8015325366997
20
15.4665040787664
30
0
41
1
10
25.8008007070914
20
15.7706782241463
30
0
41
1
10
25.8071573744176
20
15.8729167417114
30
0
41
1
10
25.8326706882322
20
16.0731992786481
30
0
41
1
10
25.8708651044969
20
16.2703791406871
30
0
41
1
10
25.9337410882011
20
16.4615789237518
30
0
41
1
10
26.0090019132991
20
16.6498261710003
30
0
41
1
10
26.0531166632514
20
16.7429051191232
30
0
41
1
10
26.2011854560287
20
17.0118956641206
30
0
41
1
10
26.3210611362891
20
17.1792197037412
30
0
41
1
10
26.4961200600321
20
17.3744918517526
30
0
41
1
10
26.5324050853119
20
17.412845429048
30
0
41
1
10
26.6075399508761
20
17.4881527949262
30
0
41
1
10
26.6462979566375
20
17.5250046262166
30
0
41
1
10
26.7651839400563
20
17.6323945548091
30
0
41
1
10
26.8482521876994
20
17.7001163101658
30
0
41
1
10
27.0216972290532
20
17.8282335969491
30
0
41
1
10
27.112075040439
20
17.8886279307
30
0
41
1
10
27.2530596736311
20
17.9738608988978
30
0
41
1
10
27.3009592036851
20
18.001377100756
30
0
41
1
10
27.3985765734901
20
18.0546228836473
30
0
41
1
10
27.4484210077605
20
18.0804125681667
30
0
41
1
10
27.7004159965178
20
18.2039914384582
30
0
41
1
10
27.9105151871525
20
18.2858328537881
30
0
41
1
10
28.2377198210257
20
18.384927019943
30
0
41
1
10
28.348812347598
20
18.4139820162856
30
0
41
1
10
28.5185284181236
20
18.4515647238855
30
0
41
1
10
28.5757554094804
20
18.4631144164423
30
0
41
1
10
28.690394233952
20
18.4840327593649
30
0
41
1
10
28.7478111039657
20
18.4934096563039
30
0
41
1
10
29.0353730734095
20
18.5350026400882
30
0
41
1
10
29.266938648261
20
18.5514923075672
30
0
41
1
10
29.5
20
18.5514923075672
30
0
0
SPLINE
5
D0
100
AcDbEntity
8
1
62
256
6
ByLayer
370
18
48
1
60
0
100
AcDbSpline
70
4
71
3
72
65
73
61
40
0
40
0
40
0
40
0
40
0.0625000000000028
40
0.0625000000000028
40
0.0781250000000034
40
0.0781250000000034
40
0.0937500000000042
40
0.0937500000000042
40
0.125000000000004
40
0.125000000000004
40
0.187500000000003
40
0.187500000000003
40
0.250000000000002
40
0.250000000000002
40
0.281250000000002
40
0.281250000000002
40
0.296875000000002
40
0.296875000000002
40
0.312500000000003
40
0.312500000000003
40
0.375000000000005
40
0.375000000000005
40
0.406250000000006
40
0.406250000000006
40
0.421875000000007
40
0.421875000000007
40
0.437500000000007
40
0.437500000000007
40
0.500000000000008
40
0.500000000000008
40
0.531250000000008
40
0.531250000000008
40
0.562500000000008
40
0.593750000000008
40
0.593750000000008
40
0.625000000000009
40
0.625000000000009
40
0.687500000000009
40
0.687500000000009
40
0.703125000000009
40
0.703125000000009
40
0.718750000000008
40
0.718750000000008
40
0.750000000000009
40
0.750000000000009
40
0.78125000000001
40
0.78125000000001
40
0.79687500000001
40
0.79687500000001
40
0.812500000000009
40
0.812500000000009
40
0.875000000000006
40
0.875000000000006
40
0.906250000000004
40
0.906250000000004
40
0.921875000000003
40
0.921875000000003
40
0.937500000000002
40
0.937500000000002
40
1
40
1
40
1
40
1
41
1
10
29.5
20
-18.5514923075671
30
0
41
1
10
29.2677557187089
20
-18.5514923075671
30
0
41
1
10
29.036094572581
20
-18.5351212228648
30
0
41
1
10
28.7472746147993
20
-18.4933284912329
30
0
41
1
10
28.6894640102577
20
-18.4838732874109
30
0
41
1
10
28.5750669910132
20
-18.4629783856744
30
0
41
1
10
28.5183486763192
20
-18.451522984923
30
0
41
1
10
28.3496153915209
20
-18.414163710623
30
0
41
1
10
28.2390189399226
20
-18.3852738277206
30
0
41
1
10
27.9128718471467
20
-18.2866387779604
30
0
41
1
10
27.7029056147058
20
-18.2050605160559
30
0
41
1
10
27.2989964988585
20
-18.0072847182572
30
0
41
1
10
27.1113940135907
20
-17.8941406325946
30
0
41
1
10
26.8520689884971
20
-17.7031046319503
30
0
41
1
10
26.7692885061265
20
-17.6358259995287
30
0
41
1
10
26.6508248847227
20
-17.5292207110818
30
0
41
1
10
26.612290002391
20
-17.4927358926787
30
0
41
1
10
26.5371862839902
20
-17.417794211512
30
0
41
1
10
26.5005386085167
20
-17.3792400455396
30
0
41
1
10
26.3244283370244
20
-17.1836469161223
30
0
41
1
10
26.2046743925475
20
-17.0169125780662
30
0
41
1
10
26.0570895627279
20
-16.7507453994042
30
0
41
1
10
26.0132740982425
20
-16.6593277259959
30
0
41
1
10
25.9560511234867
20
-16.5178906541039
30
0
41
1
10
25.938360984317
20
-16.4698940411268
30
0
41
1
10
25.9063050435185
20
-16.373616259656
30
0
41
1
10
25.8918856766264
20
-16.3252251865283
30
0
41
1
10
25.8277217481597
20
-16.0820124837002
30
0
41
1
10
25.8015325366998
20
-15.8834459632563
30
0
41
1
10
25.8008007070915
20
-15.579345713815
30
0
41
1
10
25.8071573744177
20
-15.476463677728
30
0
41
1
10
25.8326706882323
20
-15.2736176908872
30
0
41
1
10
25.870865104497
20
-15.072610279473
30
0
41
1
10
25.9337410882011
20
-14.8752358039455
30
0
41
1
10
26.0090019132991
20
-14.6797289555872
30
0
41
1
10
26.0531166632514
20
-14.5824510991166
30
0
41
1
10
26.2011854560288
20
-14.2996943997694
30
0
41
1
10
26.3210611362891
20
-14.1215998738
30
0
41
1
10
26.4961200600322
20
-13.9117318706221
30
0
41
1
10
26.5324050853119
20
-13.8704022678016
30
0
41
1
10
26.6075399508762
20
-13.7890503185629
30
0
41
1
10
26.6462979566375
20
-13.7491376786618
30
0
41
1
10
26.7651839400564
20
-13.6325548843671
30
0
41
1
10
26.8482521876995
20
-13.5586638096595
30
0
41
1
10
27.0216972290533
20
-13.4183029819174
30
0
41
1
10
27.112075040439
20
-13.3518341277186
30
0
41
1
10
27.2530596736311
20
-13.2576872977811
30
0
41
1
10
27.3009592036851
20
-13.2272327668049
30
0
41
1
10
27.3985765734901
20
-13.1681974197129
30
0
41
1
10
27.4484210077606
20
-13.1395496534661
30
0
41
1
10
27.7004159965179
20
-13.0020513217756
30
0
41
1
10
27.9105151871526
20
-12.9102713758268
30
0
41
1
10
28.2377198210257
20
-12.7987611890061
30
0
41
1
10
28.348812347598
20
-12.7659820399141
30
0
41
1
10
28.5185284181237
20
-12.7235200048952
30
0
41
1
10
28.5757554094804
20
-12.7104585429357
30
0
41
1
10
28.690394233952
20
-12.6867866064142
30
0
41
1
10
28.7478111039657
20
-12.6761668838178
30
0
41
1
10
29.0353730734096
20
-12.629037379741
30
0
41
1
10
29.266938648261
20
-12.6102876319828
30
0
41
1
10
29.5
20
-12.6102876319828
30
0
0
SPLINE
5
D1
100
AcDbEntity
8
1
62
256
6
ByLayer
370
18
48
1
60
0
100
AcDbSpline
70
4
71
3
72
8
73
4
40
0
40
0
40
0
40
0
40
1
40
1
40
1
40
1
41
1
10
36.3338257906459
20
-18.5514923075673
30
0
41
1
10
36.4138240670034
20
-18.3422741497202
30
0
41
1
10
36.4932209122081
20
-18.1328297612683
30
0
41
1
10
36.5719877758743
20
-17.9231484028762
30
0
0
SPLINE
5
D2
100
AcDbEntity
8
1
62
256
6
ByLayer
370
18
48
1
60
0
100
AcDbSpline
70
4
71
3
72
8
73
4
40
0
40
0
40
0
40
0
40
1
40
1
40
1
40
1
41
1
10
36.5719877758743
20
-17.9231484028762
30
0
41
1
10
36.9483652188229
20
-17.4556401680519
30
0
41
1
10
37.3244869575257
20
-16.9880291024532
30
0
41
1
10
37.7002970671961
20
-16.5202927160774
30
0
0
SPLINE
5
D3
100
AcDbEntity
8
1
62
256
6
ByLayer
370
18
48
1
60
0
100
AcDbSpline
70
4
71
3
72
8
73
4
40
0
40
0
40
0
40
0
40
1
40
1
40
1
40
1
41
1
10
37.7002970671961
20
-16.5202927160774
30
0
41
1
10
37.7817523584249
20
-16.312254554514
30
0
41
1
10
37.8625806021587
20
-16.1039772313631
30
0
41
1
10
37.9427490791047
20
-15.8954482671905
30
0
0
SPLINE
5
D4
100
AcDbEntity
8
1
62
256
6
ByLayer
370
18
48
1
60
0
100
AcDbSpline
70
4
71
3
72
8
73
4
40
0
40
0
40
0
40
0
40
1
40
1
40
1
40
1
41
1
10
37.9427490791047
20
-15.8954482671905
30
0
41
1
10
37.9913951193721
20
-14.7984827557302
30
0
41
1
10
37.9913951193721
20
-13.7015172442699
30
0
41
1
10
37.9427490791047
20
-12.6045517328096
30
0
0
SPLINE
5
D5
100
AcDbEntity
8
1
62
256
6
ByLayer
370
18
48
1
60
0
100
AcDbSpline
70
4
71
3
72
8
73
4
40
0
40
0
40
0
40
0
40
1
40
1
40
1
40
1
41
1
10
37.9427490791047
20
12.6045517328095
30
0
41
1
10
37.9913951193721
20
13.7015172442698
30
0
41
1
10
37.9913951193721
20
14.7984827557301
30
0
41
1
10
37.9427490791047
20
15.8954482671903
30
0
0
SPLINE
5
D6
100
AcDbEntity
8
1
62
256
6
ByLayer
370
18
48
1
60
0
100
AcDbSpline
70
4
71
3
72
8
73
4
40
0
40
0
40
0
40
0
40
1
40
1
40
1
40
1
41
1
10
37.9427490791047
20
15.8954482671903
30
0
41
1
10
37.8625806021587
20
16.103977231363
30
0
41
1
10
37.7817523584249
20
16.3122545545139
30
0
41
1
10
37.7002970671961
20
16.5202927160773
30
0
0
SPLINE
5
D7
100
AcDbEntity
8
1
62
256
6
ByLayer
370
18
48
1
60
0
100
AcDbSpline
70
4
71
3
72
8
73
4
40
0
40
0
40
0
40
0
40
1
40
1
40
1
40
1
41
1
10
37.7002970671961
20
16.5202927160773
30
0
41
1
10
37.3244869575257
20
16.9880291024531
30
0
41
1
10
36.9483652188228
20
17.4556401680518
30
0
41
1
10
36.5719877758742
20
17.923148402876
30
0
0
SPLINE
5
D8
100
AcDbEntity
8
1
62
256
6
ByLayer
370
18
48
1
60
0
100
AcDbSpline
70
4
71
3
72
8
73
4
40
0
40
0
40
0
40
0
40
1
40
1
40
1
40
1
41
1
10
36.5719877758742
20
17.9231484028761
30
0
41
1
10
36.4932209122081
20
18.1328297612682
30
0
41
1
10
36.4138240670034
20
18.34227414972
30
0
41
1
10
36.3338257906459
20
18.5514923075671
30
0
0
SPLINE
5
D9
100
AcDbEntity
8
1
62
256
6
ByLayer
370
18
48
1
60
0
100
AcDbSpline
70
4
71
3
72
8
73
4
40
0
40
0
40
0
40
0
40
1
40
1
40
1
40
1
41
1
10
36.3338257906459
20
31.16177993955
30
0
41
1
10
36.4138240670505
20
31.0413189436237
30
0
41
1
10
36.4932209122552
20
30.9207276915589
30
0
41
1
10
36.5719877758743
20
30.8
30
0
0
SPLINE
5
DA
100
AcDbEntity
8
1
62
256
6
ByLayer
370
18
48
1
60
0
100
AcDbSpline
70
4
71
3
72
8
73
4
40
0
40
0
40
0
40
0
40
1
40
1
40
1
40
1
41
1
10
36.5719877758743
20
30.8
30
0
41
1
10
36.9483652188227
20
30.161371874752
30
0
41
1
10
37.3244869575255
20
29.5226032800534
30
0
41
1
10
37.700297067196
20
28.8836634939895
30
0
0
SPLINE
5
DB
100
AcDbEntity
8
1
62
256
6
ByLayer
370
18
48
1
60
0
100
AcDbSpline
70
4
71
3
72
8
73
4
40
0
40
0
40
0
40
0
40
1
40
1
40
1
40
1
41
1
10
37.700297067196
20
28.8836634939895
30
0
41
1
10
37.7817523584257
20
28.7559250655028
30
0
41
1
10
37.8625806021596
20
28.6280397883571
30
0
41
1
10
37.9427490791047
20
28.5
30
0
0
SPLINE
5
DC
100
AcDbEntity
8
1
62
256
6
ByLayer
370
18
48
1
60
0
100
AcDbSpline
70
4
71
3
72
8
73
4
40
0
40
0
40
0
40
0
40
1
40
1
40
1
40
1
41
1
10
37.9427490791047
20
28.5
30
0
41
1
10
37.8625806021596
20
28.6280397883571
30
0
41
1
10
37.7817523584257
20
28.7559250655028
30
0
41
1
10
37.700297067196
20
28.8836634939895
30
0
0
SPLINE
5
DD
100
AcDbEntity
8
1
62
256
6
ByLayer
370
18
48
1
60
0
100
AcDbSpline
70
4
71
3
72
8
73
4
40
0
40
0
40
0
40
0
40
1
40
1
40
1
40
1
41
1
10
37.700297067196
20
28.8836634939895
30
0
41
1
10
37.3244869575255
20
29.5226032800534
30
0
41
1
10
36.9483652188227
20
30.161371874752
30
0
41
1
10
36.5719877758743
20
30.8
30
0
0
SPLINE
5
DE
100
AcDbEntity
8
1
62
256
6
ByLayer
370
18
48
1
60
0
100
AcDbSpline
70
4
71
3
72
8
73
4
40
0
40
0
40
0
40
0
40
1
40
1
40
1
40
1
41
1
10
36.5719877758742
20
30.8
30
0
41
1
10
36.4932209122552
20
30.9207276915589
30
0
41
1
10
36.4138240670505
20
31.0413189436237
30
0
41
1
10
36.3338257906459
20
31.16177993955
30
0
0
SPLINE
5
DF
100
AcDbEntity
8
1
62
256
6
ByLayer
370
18
48
1
60
0
100
AcDbSpline
70
4
71
3
72
8
73
4
40
0
40
0
40
0
40
0
40
1
40
1
40
1
40
1
41
1
10
36.3338257906459
20
18.5514923075672
30
0
41
1
10
36.4138240670034
20
18.3422741497201
30
0
41
1
10
36.4932209122081
20
18.1328297612683
30
0
41
1
10
36.5719877758743
20
17.9231484028761
30
0
0
SPLINE
5
E0
100
AcDbEntity
8
1
62
256
6
ByLayer
370
18
48
1
60
0
100
AcDbSpline
70
4
71
3
72
8
73
4
40
0
40
0
40
0
40
0
40
1
40
1
40
1
40
1
41
1
10
36.5719877758743
20
17.9231484028761
30
0
41
1
10
36.9483652188228
20
17.4556401680519
30
0
41
1
10
37.3244869575257
20
16.9880291024532
30
0
41
1
10
37.700297067196
20
16.5202927160774
30
0
0
SPLINE
5
E1
100
AcDbEntity
8
1
62
256
6
ByLayer
370
18
48
1
60
0
100
AcDbSpline
70
4
71
3
72
8
73
4
40
0
40
0
40
0
40
0
40
1
40
1
40
1
40
1
41
1
10
37.700297067196
20
16.5202927160774
30
0
41
1
10
37.7817523584249
20
16.312254554514
30
0
41
1
10
37.8625806021587
20
16.1039772313631
30
0
41
1
10
37.9427490791047
20
15.8954482671904
30
0
0
SPLINE
5
E2
100
AcDbEntity
8
1
62
256
6
ByLayer
370
18
48
1
60
0
100
AcDbSpline
70
4
71
3
72
8
73
4
40
0
40
0
40
0
40
0
40
1
40
1
40
1
40
1
41
1
10
37.9427490791047
20
15.8954482671905
30
0
41
1
10
37.9913951193721
20
14.7984827557302
30
0
41
1
10
37.9913951193721
20
13.7015172442699
30
0
41
1
10
37.9427490791047
20
12.6045517328096
30
0
0
SPLINE
5
E3
100
AcDbEntity
8
1
62
256
6
ByLayer
370
18
48
1
60
0
100
AcDbSpline
70
4
71
3
72
8
73
4
40
0
40
0
40
0
40
0
40
1
40
1
40
1
40
1
41
1
10
37.9427490791047
20
-12.6045517328096
30
0
41
1
10
37.9913951193721
20
-13.7015172442699
30
0
41
1
10
37.9913951193721
20
-14.7984827557302
30
0
41
1
10
37.9427490791047
20
-15.8954482671905
30
0
0
SPLINE
5
E4
100
AcDbEntity
8
1
62
256
6
ByLayer
370
18
48
1
60
0
100
AcDbSpline
70
4
71
3
72
8
73
4
40
0
40
0
40
0
40
0
40
1
40
1
40
1
40
1
41
1
10
37.9427490791047
20
-15.8954482671904
30
0
41
1
10
37.8625806021587
20
-16.1039772313631
30
0
41
1
10
37.7817523584248
20
-16.3122545545139
30
0
41
1
10
37.700297067196
20
-16.5202927160774
30
0
0
SPLINE
5
E5
100
AcDbEntity
8
1
62
256
6
ByLayer
370
18
48
1
60
0
100
AcDbSpline
70
4
71
3
72
8
73
4
40
0
40
0
40
0
40
0
40
1
40
1
40
1
40
1
41
1
10
37.700297067196
20
-16.5202927160774
30
0
41
1
10
37.3244869575257
20
-16.9880291024532
30
0
41
1
10
36.9483652188228
20
-17.4556401680519
30
0
41
1
10
36.5719877758742
20
-17.9231484028761
30
0
0
SPLINE
5
E6
100
AcDbEntity
8
1
62
256
6
ByLayer
370
18
48
1
60
0
100
AcDbSpline
70
4
71
3
72
8
73
4
40
0
40
0
40
0
40
0
40
1
40
1
40
1
40
1
41
1
10
36.5719877758743
20
-17.9231484028761
30
0
41
1
10
36.4932209122081
20
-18.1328297612683
30
0
41
1
10
36.4138240670034
20
-18.3422741497201
30
0
41
1
10
36.3338257906459
20
-18.5514923075672
30
0
0
SPLINE
5
E7
100
AcDbEntity
8
1
62
256
6
ByLayer
370
18
48
1
60
0
100
AcDbSpline
70
4
71
3
72
8
73
4
40
0
40
0
40
0
40
0
40
1
40
1
40
1
40
1
41
1
10
36.3338257906459
20
-31.16177993955
30
0
41
1
10
36.4138240670505
20
-31.0413189436237
30
0
41
1
10
36.4932209122552
20
-30.9207276915589
30
0
41
1
10
36.5719877758742
20
-30.8
30
0
0
SPLINE
5
E8
100
AcDbEntity
8
1
62
256
6
ByLayer
370
18
48
1
60
0
100
AcDbSpline
70
4
71
3
72
8
73
4
40
0
40
0
40
0
40
0
40
1
40
1
40
1
40
1
41
1
10
36.5719877758743
20
-30.8
30
0
41
1
10
36.9483652188227
20
-30.161371874752
30
0
41
1
10
37.3244869575255
20
-29.5226032800534
30
0
41
1
10
37.700297067196
20
-28.8836634939895
30
0
0
SPLINE
5
E9
100
AcDbEntity
8
1
62
256
6
ByLayer
370
18
48
1
60
0
100
AcDbSpline
70
4
71
3
72
8
73
4
40
0
40
0
40
0
40
0
40
1
40
1
40
1
40
1
41
1
10
37.700297067196
20
-28.8836634939895
30
0
41
1
10
37.7817523584257
20
-28.7559250655028
30
0
41
1
10
37.8625806021595
20
-28.6280397883571
30
0
41
1
10
37.9427490791047
20
-28.5
30
0
0
SPLINE
5
EA
100
AcDbEntity
8
1
62
256
6
ByLayer
370
18
48
1
60
0
100
AcDbSpline
70
4
71
3
72
8
73
4
40
0
40
0
40
0
40
0
40
1
40
1
40
1
40
1
41
1
10
37.9427490791047
20
-28.5
30
0
41
1
10
37.8625806021596
20
-28.6280397883571
30
0
41
1
10
37.7817523584257
20
-28.7559250655028
30
0
41
1
10
37.700297067196
20
-28.8836634939895
30
0
0
SPLINE
5
EB
100
AcDbEntity
8
1
62
256
6
ByLayer
370
18
48
1
60
0
100
AcDbSpline
70
4
71
3
72
8
73
4
40
0
40
0
40
0
40
0
40
1
40
1
40
1
40
1
41
1
10
37.700297067196
20
-28.8836634939895
30
0
41
1
10
37.3244869575255
20
-29.5226032800534
30
0
41
1
10
36.9483652188227
20
-30.161371874752
30
0
41
1
10
36.5719877758743
20
-30.8
30
0
0
SPLINE
5
EC
100
AcDbEntity
8
1
62
256
6
ByLayer
370
18
48
1
60
0
100
AcDbSpline
70
4
71
3
72
8
73
4
40
0
40
0
40
0
40
0
40
1
40
1
40
1
40
1
41
1
10
36.5719877758743
20
-30.8
30
0
41
1
10
36.4932209122552
20
-30.9207276915589
30
0
41
1
10
36.4138240670505
20
-31.0413189436237
30
0
41
1
10
36.3338257906459
20
-31.16177993955
30
0
0
SPLINE
5
ED
100
AcDbEntity
8
1
62
256
6
ByLayer
370
18
48
1
60
0
100
AcDbSpline
70
4
71
3
72
8
73
4
40
0
40
0
40
0
40
0
40
1
40
1
40
1
40
1
41
1
10
37.9427490791047
20
12.6045517328096
30
0
41
1
10
37.9913951193721
20
13.7015172442699
30
0
41
1
10
37.9913951193721
20
14.7984827557302
30
0
41
1
10
37.9427490791047
20
15.8954482671905
30
0
0
SPLINE
5
EE
100
AcDbEntity
8
1
62
256
6
ByLayer
370
18
48
1
60
0
100
AcDbSpline
70
4
71
3
72
8
73
4
40
0
40
0
40
0
40
0
40
1
40
1
40
1
40
1
41
1
10
37.9427490791047
20
-15.8954482671905
30
0
41
1
10
37.9913951193721
20
-14.7984827557302
30
0
41
1
10
37.9913951193721
20
-13.7015172442699
30
0
41
1
10
37.9427490791047
20
-12.6045517328096
30
0
0
SPLINE
5
EF
100
AcDbEntity
8
SK1
62
256
6
ByLayer
370
18
48
1
60
0
100
AcDbSpline
70
4
71
3
72
21
73
17
40
0
40
0
40
0
40
0
40
0.0516512852812926
40
0.0935350199252282
40
0.130231157575614
40
0.191789079216958
40
0.275258802016462
40
0.349809170369445
40
0.462727739307038
40
0.593133413578286
40
0.710538474857416
40
0.823987933643521
40
0.875952285318454
40
0.914499432865537
40
0.956509970244687
40
1
40
1
40
1
40
1
41
1
10
-2.09186392960638
20
22.0183271962844
30
0
41
1
10
-2.07954853506493
20
21.9776191706807
30
0
41
1
10
-2.04474289382461
20
21.920906530306
30
0
41
1
10
-1.9543727429629
20
21.8693482121739
30
0
41
1
10
-1.84958947683287
20
21.8838651990787
30
0
41
1
10
-1.71620595499288
20
21.8816457007454
30
0
41
1
10
-1.55389065250599
20
21.8815187360382
30
0
41
1
10
-1.35439023756634
20
21.8934132880981
30
0
41
1
10
-1.11993134115308
20
21.8997558613863
30
0
41
1
10
-0.853715996233151
20
21.9004232530316
30
0
41
1
10
-0.58774573048104
20
21.9170978309203
30
0
41
1
10
-0.378403980349103
20
21.9119701866265
30
0
41
1
10
-0.229135530022753
20
21.9249399429851
30
0
41
1
10
-0.129426210953036
20
21.9227191289627
30
0
41
1
10
-0.0474859940065474
20
21.9755395609382
30
0
41
1
10
-0.0130249002769405
20
22.0264281695365
30
0
41
1
10
-2.62105502697E-05
20
22.058248563293
30
0
0
SPLINE
5
F0
100
AcDbEntity
8
SK1
62
256
6
ByLayer
370
18
48
1
60
0
100
AcDbSpline
70
4
71
3
72
21
73
17
40
0
40
0
40
0
40
0
40
0.0516512852812926
40
0.0935350199252282
40
0.130231157575614
40
0.191789079216958
40
0.275258802016462
40
0.349809170369445
40
0.462727739307038
40
0.593133413578286
40
0.710538474857416
40
0.823987933643521
40
0.875952285318454
40
0.914499432865537
40
0.956509970244687
40
1
40
1
40
1
40
1
41
1
10
-2.09186392960638
20
-22.0183271962844
30
0
41
1
10
-2.07954853506493
20
-21.9776191706807
30
0
41
1
10
-2.04474289382461
20
-21.920906530306
30
0
41
1
10
-1.9543727429629
20
-21.8693482121739
30
0
41
1
10
-1.84958947683287
20
-21.8838651990787
30
0
41
1
10
-1.71620595499288
20
-21.8816457007455
30
0
41
1
10
-1.55389065250599
20
-21.8815187360382
30
0
41
1
10
-1.35439023756634
20
-21.8934132880981
30
0
41
1
10
-1.11993134115308
20
-21.8997558613863
30
0
41
1
10
-0.853715996233151
20
-21.9004232530315
30
0
41
1
10
-0.58774573048104
20
-21.9170978309203
30
0
41
1
10
-0.378403980349103
20
-21.9119701866265
30
0
41
1
10
-0.229135530022753
20
-21.9249399429851
30
0
41
1
10
-0.129426210953036
20
-21.9227191289627
30
0
41
1
10
-0.0474859940065474
20
-21.9755395609382
30
0
41
1
10
-0.0130249002769405
20
-22.0264281695365
30
0
41
1
10
-2.62105502697E-05
20
-22.058248563293
30
0
0
SPLINE
5
F1
100
AcDbEntity
8
1
62
256
6
ByLayer
370
18
48
1
60
0
100
AcDbSpline
70
4
71
3
72
12
73
8
40
0
40
0
40
0
40
0
40
0.572625769168314
40
0.572625769168314
40
0.961304022014957
40
0.961304022014957
40
1
40
1
40
1
40
1
41
1
10
10.25
20
-30.0805856895312
30
0
41
1
10
8.74004435261178
20
-28.4126131172084
30
0
41
1
10
7.96314503905199
20
-24.9790137307284
30
0
41
1
10
8.37720331697552
20
-17.5890512557807
30
0
41
1
10
8.99589154344229
20
-14.0490050657315
30
0
41
1
10
10.0491801140302
20
-10.0734255326476
30
0
41
1
10
10.1479626596711
20
-9.71189903534956
30
0
41
1
10
10.25
20
-9.34924406434925
30
0
0
SPLINE
5
F2
100
AcDbEntity
8
1
62
256
6
ByLayer
370
18
48
1
60
0
100
AcDbSpline
70
4
71
3
72
12
73
8
40
0
40
0
40
0
40
0
40
0.572625769168314
40
0.572625769168314
40
0.961304022014957
40
0.961304022014957
40
1
40
1
40
1
40
1
41
1
10
10.25
20
9.34924406434931
30
0
41
1
10
8.74004435261178
20
14.7158375070071
30
0
41
1
10
7.96314503905199
20
20.052443793227
30
0
41
1
10
8.37720331697552
20
26.4281747634865
30
0
41
1
10
8.99589154344229
20
28.4527504887667
30
0
41
1
10
10.0491801140302
20
29.8483104720046
30
0
41
1
10
10.1479626596711
20
29.9678701370474
30
0
41
1
10
10.25
20
30.0805856895312
30
0
0
SPLINE
5
F3
100
AcDbEntity
8
1
62
256
6
ByLayer
370
18
48
1
60
0
100
AcDbSpline
70
4
71
3
72
12
73
8
40
0
40
0
40
0
40
0
40
0.0238069036086083
40
0.0238069036086083
40
0.412781952217015
40
0.412781952217015
40
1
40
1
40
1
40
1
41
1
10
13.75
20
-9.34924406434723
30
0
41
1
10
13.8127287161885
20
-9.57219069032656
30
0
41
1
10
13.8742247248165
20
-9.7947005087937
30
0
41
1
10
14.9184698304633
20
-13.6434259207234
30
0
41
1
10
15.5689245664743
20
-17.2069737328843
30
0
41
1
10
16.0711357802983
20
-24.7953579571968
30
0
41
1
10
15.2972585123096
20
-28.3714065058317
30
0
41
1
10
13.75
20
-30.0805856895312
30
0
0
SPLINE
5
F4
100
AcDbEntity
8
1
62
256
6
ByLayer
370
18
48
1
60
0
100
AcDbSpline
70
4
71
3
72
12
73
8
40
0
40
0
40
0
40
0
40
0.0238069036086083
40
0.0238069036086083
40
0.412781952217015
40
0.412781952217015
40
1
40
1
40
1
40
1
41
1
10
13.75
20
30.0805856895325
30
0
41
1
10
13.8127287161885
20
30.0112924104349
30
0
41
1
10
13.8742247248165
20
29.9394164342885
30
0
41
1
10
14.9184698304633
20
28.648558697592
30
0
41
1
10
15.5689245664743
20
26.6782930894712
30
0
41
1
10
16.0711357802983
20
20.3200700821315
30
0
41
1
10
15.2972585123096
20
14.8484171033851
30
0
41
1
10
13.75
20
9.34924406434931
30
0
0
LINE
5
70
100
AcDbEntity
8
81
62
256
6
ByLayer
370
13
48
1
60
0
100
AcDbLine
10
30
20
0
30
0
11
35
21
0
31
0
39
0
210
0
220
0
230
1
0
LINE
5
71
100
AcDbEntity
8
80
62
256
6
ByLayer
370
13
48
1
60
0
100
AcDbLine
10
0
20
0
30
0
11
-8
21
0
31
0
39
0
210
0
220
0
230
1
0
LINE
5
72
100
AcDbEntity
8
4
62
256
6
ByLayer
370
13
48
0.05
60
0
100
AcDbLine
10
0
20
0
30
0
11
30
21
0
31
0
39
0
210
0
220
0
230
1
0
LINE
5
74
100
AcDbEntity
8
SK4
62
256
6
ByLayer
370
13
48
0.05
60
0
100
AcDbLine
10
-42
20
0
30
0
11
43
21
0
31
0
39
0
210
0
220
0
230
1
0
LINE
5
76
100
AcDbEntity
8
3
62
256
6
ByLayer
370
13
48
0.05
60
0
100
AcDbLine
10
30
20
-22.291675
30
0
11
30
21
-24.25
31
0
39
0
210
0
220
0
230
1
0
LINE
5
78
100
AcDbEntity
8
3
62
256
6
ByLayer
370
13
48
0.05
60
0
100
AcDbLine
10
30
20
24.25
30
0
11
30
21
22.291675
31
0
39
0
210
0
220
0
230
1
0
LINE
5
79
100
AcDbEntity
8
3
62
256
6
ByLayer
370
13
48
0.05
60
0
100
AcDbLine
10
30
20
-24.25
30
0
11
29.25
21
-25
31
0
39
0
210
0
220
0
230
1
0
LINE
5
7A
100
AcDbEntity
8
3
62
256
6
ByLayer
370
13
48
0.05
60
0
100
AcDbLine
10
29.25
20
25
30
0
11
30
21
24.25
31
0
39
0
210
0
220
0
230
1
0
LINE
5
7B
100
AcDbEntity
8
3
62
256
6
ByLayer
370
13
48
0.05
60
0
100
AcDbLine
10
25.5
20
-25
30
0
11
29.25
21
-25
31
0
39
0
210
0
220
0
230
1
0
LINE
5
7C
100
AcDbEntity
8
3
62
256
6
ByLayer
370
13
48
0.05
60
0
100
AcDbLine
10
29.25
20
25
30
0
11
25.5
21
25
31
0
39
0
210
0
220
0
230
1
0
LINE
5
7D
100
AcDbEntity
8
3
62
256
6
ByLayer
370
13
48
0.05
60
0
100
AcDbLine
10
25.5
20
25
30
0
11
23.90718
21
24.080385
31
0
39
0
210
0
220
0
230
1
0
LINE
5
7E
100
AcDbEntity
8
3
62
256
6
ByLayer
370
13
48
0.05
60
0
100
AcDbLine
10
23.90718
20
-24.080385
30
0
11
25.5
21
-25
31
0
39
0
210
0
220
0
230
1
0
LINE
5
7F
100
AcDbEntity
8
1
62
256
6
ByLayer
370
18
48
1
60
0
100
AcDbLine
10
40
20
25
30
0
11
40
21
-13
31
0
39
0
210
0
220
0
230
1
0
LINE
5
81
100
AcDbEntity
8
1
62
256
6
ByLayer
370
18
48
1
60
0
100
AcDbLine
10
23
20
30.35
30
0
11
23
21
-30.35
31
0
39
0
210
0
220
0
230
1
0
LINE
5
82
100
AcDbEntity
8
1
62
256
6
ByLayer
370
18
48
1
60
0
100
AcDbLine
10
24
20
-31.35
30
0
11
23
21
-30.35
31
0
39
0
210
0
220
0
230
1
0
LINE
5
83
100
AcDbEntity
8
1
62
256
6
ByLayer
370
18
48
1
60
0
100
AcDbLine
10
23
20
30.35
30
0
11
24
21
31.35
31
0
39
0
210
0
220
0
230
1
0
LINE
5
84
100
AcDbEntity
8
1
62
256
6
ByLayer
370
18
48
1
60
0
100
AcDbLine
10
25.801038
20
-31.35
30
0
11
24
21
-31.35
31
0
39
0
210
0
220
0
230
1
0
LINE
5
85
100
AcDbEntity
8
1
62
256
6
ByLayer
370
18
48
1
60
0
100
AcDbLine
10
24
20
31.35
30
0
11
25.801038
21
31.35
31
0
39
0
210
0
220
0
230
1
0
LINE
5
86
100
AcDbEntity
8
1
62
256
6
ByLayer
370
18
48
1
60
0
100
AcDbLine
10
23
20
24
30
0
11
22
21
24
31
0
39
0
210
0
220
0
230
1
0
LINE
5
87
100
AcDbEntity
8
1
62
256
6
ByLayer
370
18
48
1
60
0
100
AcDbLine
10
21.95
20
-24
30
0
11
23
21
-24
31
0
39
0
210
0
220
0
230
1
0
LINE
5
88
100
AcDbEntity
8
3
62
256
6
ByLayer
370
13
48
0.05
60
0
100
AcDbLine
10
23
20
24
30
0
11
23.60718
21
24
31
0
39
0
210
0
220
0
230
1
0
LINE
5
89
100
AcDbEntity
8
3
62
256
6
ByLayer
370
13
48
0.05
60
0
100
AcDbLine
10
23
20
-24
30
0
11
23.60718
21
-24
31
0
39
0
210
0
220
0
230
1
0
LINE
5
8A
100
AcDbEntity
8
1
62
256
6
ByLayer
370
18
48
1
60
0
100
AcDbLine
10
36.333826
20
-18.551492
30
0
11
36.333826
21
-31.161492
31
0
39
0
210
0
220
0
230
1
0
LINE
5
8B
100
AcDbEntity
8
1
62
256
6
ByLayer
370
18
48
1
60
0
100
AcDbLine
10
36.333826
20
31.16178
30
0
11
36.333826
21
18.551492
31
0
39
0
210
0
220
0
230
1
0
LINE
5
8C
100
AcDbEntity
8
1
62
256
6
ByLayer
370
18
48
1
60
0
100
AcDbLine
10
36.333826
20
12.610288
30
0
11
36.333826
21
-12.610288
31
0
39
0
210
0
220
0
230
1
0
LINE
5
8D
100
AcDbEntity
8
1
62
256
6
ByLayer
370
18
48
1
60
0
100
AcDbLine
10
24
20
31.35
30
0
11
24
21
-18.35
31
0
39
0
210
0
220
0
230
1
0
LINE
5
8E
100
AcDbEntity
8
1
62
256
6
ByLayer
370
18
48
1
60
0
100
AcDbLine
10
25.801038
20
-31.35
30
0
11
24
21
-31.35
31
0
39
0
210
0
220
0
230
1
0
LINE
5
8F
100
AcDbEntity
8
1
62
256
6
ByLayer
370
18
48
1
60
0
100
AcDbLine
10
24
20
31.35
30
0
11
25.801038
21
31.35
31
0
39
0
210
0
220
0
230
1
0
LINE
5
90
100
AcDbEntity
8
1
62
256
6
ByLayer
370
18
48
1
60
0
100
AcDbLine
10
40
20
-25
30
0
11
37.979274
21
-28.5
31
0
39
0
210
0
220
0
230
1
0
LINE
5
91
100
AcDbEntity
8
1
62
256
6
ByLayer
370
18
48
1
60
0
100
AcDbLine
10
37.979274
20
28.5
30
0
11
40
21
25
31
0
39
0
210
0
220
0
230
1
0
LINE
5
92
100
AcDbEntity
8
1
62
256
6
ByLayer
370
18
48
1
60
0
100
AcDbLine
10
37.979274
20
28.5
30
0
11
40
21
25
31
0
39
0
210
0
220
0
230
1
0
LINE
5
93
100
AcDbEntity
8
1
62
256
6
ByLayer
370
18
48
1
60
0
100
AcDbLine
10
40
20
-25
30
0
11
37.979274
21
-28.5
31
0
39
0
210
0
220
0
230
1
0
LINE
5
94
100
AcDbEntity
8
1
62
256
6
ByLayer
370
18
48
1
60
0
100
AcDbLine
10
24
20
31.35
30
0
11
25.801038
21
31.35
31
0
39
0
210
0
220
0
230
1
0
LINE
5
95
100
AcDbEntity
8
1
62
256
6
ByLayer
370
18
48
1
60
0
100
AcDbLine
10
25.801038
20
-31.35
30
0
11
24
21
-31.35
31
0
39
0
210
0
220
0
230
1
0
LINE
5
96
100
AcDbEntity
8
1
62
256
6
ByLayer
370
18
48
1
60
0
100
AcDbLine
10
37.979274
20
28.5
30
0
11
40
21
25
31
0
39
0
210
0
220
0
230
1
0
LINE
5
97
100
AcDbEntity
8
1
62
256
6
ByLayer
370
18
48
1
60
0
100
AcDbLine
10
40
20
-25
30
0
11
37.979274
21
-28.5
31
0
39
0
210
0
220
0
230
1
0
LINE
5
98
100
AcDbEntity
8
1
62
256
6
ByLayer
370
18
48
1
60
0
100
AcDbLine
10
24
20
31.35
30
0
11
25.801038
21
31.35
31
0
39
0
210
0
220
0
230
1
0
LINE
5
99
100
AcDbEntity
8
1
62
256
6
ByLayer
370
18
48
1
60
0
100
AcDbLine
10
25.801038
20
-31.35
30
0
11
24
21
-31.35
31
0
39
0
210
0
220
0
230
1
0
LINE
5
9A
100
AcDbEntity
8
1
62
256
6
ByLayer
370
18
48
1
60
0
100
AcDbLine
10
24
20
-31.35
30
0
11
24
21
31.35
31
0
39
0
210
0
220
0
230
1
0
LINE
5
9B
100
AcDbEntity
8
1
62
256
6
ByLayer
370
18
48
1
60
0
100
AcDbLine
10
36.333826
20
-31.16178
30
0
11
29.5
21
-31.16178
31
0
39
0
210
0
220
0
230
1
0
LINE
5
9C
100
AcDbEntity
8
1
62
256
6
ByLayer
370
18
48
1
60
0
100
AcDbLine
10
29.5
20
-18.551492
30
0
11
36.333826
21
-18.551492
31
0
39
0
210
0
220
0
230
1
0
LINE
5
9D
100
AcDbEntity
8
1
62
256
6
ByLayer
370
18
48
1
60
0
100
AcDbLine
10
36.333826
20
-12.610288
30
0
11
29.5
21
-12.610288
31
0
39
0
210
0
220
0
230
1
0
LINE
5
9E
100
AcDbEntity
8
1
62
256
6
ByLayer
370
18
48
1
60
0
100
AcDbLine
10
29.5
20
12.610288
30
0
11
36.333826
21
12.610288
31
0
39
0
210
0
220
0
230
1
0
LINE
5
9F
100
AcDbEntity
8
1
62
256
6
ByLayer
370
18
48
1
60
0
100
AcDbLine
10
36.333826
20
18.551492
30
0
11
29.5
21
18.551492
31
0
39
0
210
0
220
0
230
1
0
LINE
5
A0
100
AcDbEntity
8
1
62
256
6
ByLayer
370
18
48
1
60
0
100
AcDbLine
10
29.5
20
31.16178
30
0
11
36.333826
21
31.16178
31
0
39
0
210
0
220
0
230
1
0
LINE
5
A1
100
AcDbEntity
8
1
62
256
6
ByLayer
370
18
48
1
60
0
100
AcDbLine
10
36.333826
20
31.16178
30
0
11
29.5
21
31.16178
31
0
39
0
210
0
220
0
230
1
0
LINE
5
A2
100
AcDbEntity
8
1
62
256
6
ByLayer
370
18
48
1
60
0
100
AcDbLine
10
29.5
20
18.551492
30
0
11
36.333826
21
18.551492
31
0
39
0
210
0
220
0
230
1
0
LINE
5
A3
100
AcDbEntity
8
1
62
256
6
ByLayer
370
18
48
1
60
0
100
AcDbLine
10
36.333826
20
12.610288
30
0
11
29.5
21
12.610288
31
0
39
0
210
0
220
0
230
1
0
LINE
5
A4
100
AcDbEntity
8
1
62
256
6
ByLayer
370
18
48
1
60
0
100
AcDbLine
10
29.5
20
-12.610288
30
0
11
36.333826
21
-12.610288
31
0
39
0
210
0
220
0
230
1
0
LINE
5
A5
100
AcDbEntity
8
1
62
256
6
ByLayer
370
18
48
1
60
0
100
AcDbLine
10
36.333826
20
-18.551492
30
0
11
29.5
21
-18.551492
31
0
39
0
210
0
220
0
230
1
0
LINE
5
A6
100
AcDbEntity
8
1
62
256
6
ByLayer
370
18
48
1
60
0
100
AcDbLine
10
29.5
20
-31.16178
30
0
11
36.333826
21
-31.16178
31
0
39
0
210
0
220
0
230
1
0
LINE
5
A7
100
AcDbEntity
8
1
62
256
6
ByLayer
370
18
48
1
60
0
100
AcDbLine
10
40
20
25
30
0
11
40
21
-25
31
0
39
0
210
0
220
0
230
1
0
LINE
5
A8
100
AcDbEntity
8
1
62
256
6
ByLayer
370
18
48
1
60
0
100
AcDbLine
10
37.979274
20
28.5
30
0
11
37.942749
21
28.5
31
0
39
0
210
0
220
0
230
1
0
LINE
5
A9
100
AcDbEntity
8
1
62
256
6
ByLayer
370
18
48
1
60
0
100
AcDbLine
10
37.979274
20
-28.5
30
0
11
37.942749
21
-28.5
31
0
39
0
210
0
220
0
230
1
0
LINE
5
AA
100
AcDbEntity
8
1
62
256
6
ByLayer
370
18
48
1
60
0
100
AcDbLine
10
37.942749
20
15.895448
30
0
11
29.5
21
15.895448
31
0
39
0
210
0
220
0
230
1
0
LINE
5
AB
100
AcDbEntity
8
1
62
256
6
ByLayer
370
18
48
1
60
0
100
AcDbLine
10
29.5
20
12.604552
30
0
11
37.942749
21
12.604552
31
0
39
0
210
0
220
0
230
1
0
LINE
5
AC
100
AcDbEntity
8
1
62
256
6
ByLayer
370
18
48
1
60
0
100
AcDbLine
10
37.942749
20
-12.604552
30
0
11
29.5
21
-12.604552
31
0
39
0
210
0
220
0
230
1
0
LINE
5
AD
100
AcDbEntity
8
1
62
256
6
ByLayer
370
18
48
1
60
0
100
AcDbLine
10
29.5
20
-15.895448
30
0
11
37.942749
21
-15.895448
31
0
39
0
210
0
220
0
230
1
0
LINE
5
AE
100
AcDbEntity
8
1
62
256
6
ByLayer
370
18
48
1
60
0
100
AcDbLine
10
22
20
31
30
0
11
21.5
21
31.5
31
0
39
0
210
0
220
0
230
1
0
LINE
5
AF
100
AcDbEntity
8
1
62
256
6
ByLayer
370
18
48
1
60
0
100
AcDbLine
10
22
20
-31
30
0
11
21.5
21
-31.5
31
0
39
0
210
0
220
0
230
1
0
LINE
5
B0
100
AcDbEntity
8
1
62
256
6
ByLayer
370
18
48
1
60
0
100
AcDbLine
10
0
20
-31.2
30
0
11
0
21
31.2
31
0
39
0
210
0
220
0
230
1
0
LINE
5
B1
100
AcDbEntity
8
SK1
62
256
6
ByLayer
370
18
48
1
60
0
100
AcDbLine
10
-38
20
-20.279849
30
0
11
-38
21
20.279849
31
0
39
0
210
0
220
0
230
1
0
LINE
5
B3
100
AcDbEntity
8
SK1
62
256
6
ByLayer
370
18
48
1
60
0
100
AcDbLine
10
-2.1
20
-22.022494
30
0
11
-2.1
21
22.022494
31
0
39
0
210
0
220
0
230
1
0
LINE
5
B4
100
AcDbEntity
8
1
62
256
6
ByLayer
370
18
48
1
60
0
100
AcDbLine
10
0
20
31.2
30
0
11
0.3
21
31.5
31
0
39
0
210
0
220
0
230
1
0
LINE
5
B5
100
AcDbEntity
8
1
62
256
6
ByLayer
370
18
48
1
60
0
100
AcDbLine
10
0
20
-31.2
30
0
11
0.3
21
-31.5
31
0
39
0
210
0
220
0
230
1
0
LINE
5
B6
100
AcDbEntity
8
SK1
62
256
6
ByLayer
370
18
48
1
60
0
100
AcDbLine
10
-2.1
20
22.022939
30
0
11
-36.5
21
21.145874
31
0
39
0
210
0
220
0
230
1
0
LINE
5
B7
100
AcDbEntity
8
SK1
62
256
6
ByLayer
370
18
48
1
60
0
100
AcDbLine
10
-2.1
20
-22.022939
30
0
11
-36.5
21
-21.145874
31
0
39
0
210
0
220
0
230
1
0
LINE
5
B8
100
AcDbEntity
8
SK1
62
256
6
ByLayer
370
18
48
1
60
0
100
AcDbLine
10
-36.5
20
-21.145874
30
0
11
-36.5
21
21.145874
31
0
39
0
210
0
220
0
230
1
0
LINE
5
B9
100
AcDbEntity
8
SK1
62
256
6
ByLayer
370
18
48
1
60
0
100
AcDbLine
10
-38
20
20.279849
30
0
11
-36.5
21
21.145874
31
0
39
0
210
0
220
0
230
1
0
LINE
5
BA
100
AcDbEntity
8
SK1
62
256
6
ByLayer
370
18
48
1
60
0
100
AcDbLine
10
-38
20
-20.279849
30
0
11
-36.5
21
-21.145874
31
0
39
0
210
0
220
0
230
1
0
LINE
5
BB
100
AcDbEntity
8
1
62
256
6
ByLayer
370
18
48
1
60
0
100
AcDbLine
10
10.25
20
-9.349244
30
0
11
10.25
21
-30.080586
31
0
39
0
210
0
220
0
230
1
0
LINE
5
BC
100
AcDbEntity
8
1
62
256
6
ByLayer
370
18
48
1
60
0
100
AcDbLine
10
13.75
20
-30.080586
30
0
11
10.25
21
-30.080586
31
0
39
0
210
0
220
0
230
1
0
LINE
5
BD
100
AcDbEntity
8
1
62
256
6
ByLayer
370
18
48
1
60
0
100
AcDbLine
10
10.25
20
30.080586
30
0
11
10.25
21
9.349244
31
0
39
0
210
0
220
0
230
1
0
LINE
5
BE
100
AcDbEntity
8
1
62
256
6
ByLayer
370
18
48
1
60
0
100
AcDbLine
10
13.75
20
9.349244
30
0
11
10.25
21
9.349244
31
0
39
0
210
0
220
0
230
1
0
LINE
5
BF
100
AcDbEntity
8
1
62
256
6
ByLayer
370
18
48
1
60
0
100
AcDbLine
10
13.75
20
-9.349244
30
0
11
10.25
21
-9.349244
31
0
39
0
210
0
220
0
230
1
0
LINE
5
C0
100
AcDbEntity
8
1
62
256
6
ByLayer
370
18
48
1
60
0
100
AcDbLine
10
13.75
20
-9.349244
30
0
11
13.75
21
-30.080586
31
0
39
0
210
0
220
0
230
1
0
LINE
5
C1
100
AcDbEntity
8
1
62
256
6
ByLayer
370
18
48
1
60
0
100
AcDbLine
10
13.75
20
30.080586
30
0
11
13.75
21
9.349244
31
0
39
0
210
0
220
0
230
1
0
LINE
5
C2
100
AcDbEntity
8
1
62
256
6
ByLayer
370
18
48
1
60
0
100
AcDbLine
10
13.75
20
30.080586
30
0
11
10.25
21
30.080586
31
0
39
0
210
0
220
0
230
1
0
LINE
5
C3
100
AcDbEntity
8
1
62
256
6
ByLayer
370
18
48
1
60
0
100
AcDbLine
10
21.5
20
31.5
30
0
11
0.3
21
31.5
31
0
39
0
210
0
220
0
230
1
0
LINE
5
C4
100
AcDbEntity
8
1
62
256
6
ByLayer
370
18
48
1
60
0
100
AcDbLine
10
21.5
20
-31.5
30
0
11
0.3
21
-31.5
31
0
39
0
210
0
220
0
230
1
0
LINE
5
C5
100
AcDbEntity
8
1
62
256
6
ByLayer
370
18
48
1
60
0
100
AcDbLine
10
21.5
20
-31.5
30
0
11
21.5
21
31.5
31
0
39
0
210
0
220
0
230
1
0
LINE
5
C6
100
AcDbEntity
8
1
62
256
6
ByLayer
370
18
48
1
60
0
100
AcDbLine
10
22
20
31
30
0
11
22
21
-31
31
0
39
0
210
0
220
0
230
1
0
MTEXT
5
F5
100
AcDbEntity
8
SK6
62
256
6
ByLayer
370
18
48
1
60
0
100
AcDbMText
10
1.969611
20
-54.686366
30
0
210
0
220
0
230
1
1
\W0.7243;C6-DM25-N-030
40
3.5
41
0
44
1.084337
50
0
71
7
72
5
7
iso_b_vert
0
DIMENSION
5
107
100
AcDbEntity
8
2
62
256
6
ByLayer
370
13
48
1
60
0
100
AcDbDimension
2
DimnDraft3D1
10
30
20
-43.070459
30
0
11
13.207895
21
-43.070459
31
0
70
32
71
5
72
1
41
1
210
0
220
0
230
1
3
Standard
100
AcDbAlignedDimension
13
0
23
-32.7
33
0
14
30
24
-25.75
34
0
50
0
100
AcDbRotatedDimension
1001
ACAD
1000
DSTYLE
1002
{
1070
   279
1070
     0
1070
   173
1070
     1
1070
   340
1005
F6
1070
   271
1070
     0
1070
   272
1070
     2
1070
    77
1070
     1
1070
    73
1070
     0
1070
   171
1070
     4
1070
   274
1070
     4
1070
   177
1070
     7
1070
   176
1070
     7
1070
   178
1070
     7
1070
    41
1041
3.0
1070
   147
1041
1.5
1070
    42
1041
1.5
1070
    44
1041
3.0
1070
   140
1041
3.0
1070
   343
1005
108
1070
   344
1005
108
1002
}
0
DIMENSION
5
11D
100
AcDbEntity
8
SK2
62
256
6
ByLayer
370
13
48
1
60
0
100
AcDbDimension
2
DimnDraft3D2
10
40
20
53.965035
30
0
11
18.05
21
53.965035
31
0
70
32
71
5
72
1
41
1
210
0
220
0
230
1
3
Standard
100
AcDbAlignedDimension
13
0
23
32.7875
33
0
14
40
24
26.5875
34
0
50
0
100
AcDbRotatedDimension
1001
ACAD
1000
DSTYLE
1002
{
1070
   279
1070
     0
1070
   172
1070
     1
1070
   173
1070
     1
1070
   340
1005
F6
1070
   271
1070
     2
1070
   272
1070
     2
1070
    77
1070
     1
1070
    73
1070
     0
1070
   171
1070
     3
1070
   274
1070
     4
1070
   177
1070
     7
1070
   176
1070
     7
1070
   178
1070
     7
1070
    78
1070
     8
1070
    48
1040
-0.005
1070
    41
1041
3.175
1070
   147
1041
1.5
1070
    42
1041
1.5875
1070
    44
1041
2.0
1070
   140
1041
3.0
1070
   343
1005
0
1070
   344
1005
0
1002
}
0
DIMENSION
5
12B
100
AcDbEntity
8
SK2
62
256
6
ByLayer
370
13
48
1
60
0
100
AcDbDimension
2
DimnDraft3D3
10
40
20
44.912386
30
0
11
30.082895
21
44.912386
31
0
70
32
71
5
72
1
41
1
210
0
220
0
230
1
3
Standard
100
AcDbAlignedDimension
13
23
23
31.9375
33
0
14
40
24
26.5875
34
0
50
0
100
AcDbRotatedDimension
1001
ACAD
1000
DSTYLE
1002
{
1070
   279
1070
     0
1070
   172
1070
     1
1070
   173
1070
     1
1070
   340
1005
F6
1070
   271
1070
     2
1070
   272
1070
     2
1070
    77
1070
     1
1070
    73
1070
     0
1070
   171
1070
     3
1070
   274
1070
     4
1070
   177
1070
     7
1070
   176
1070
     7
1070
   178
1070
     7
1070
    78
1070
     8
1070
    48
1040
-0.005
1070
    41
1041
3.175
1070
   147
1041
1.5
1070
    42
1041
1.5875
1070
    44
1041
2.0
1070
   140
1041
3.0
1070
   343
1005
0
1070
   344
1005
0
1002
}
0
DIMENSION
5
13A
100
AcDbEntity
8
SK2
62
256
6
ByLayer
370
13
48
1
60
0
100
AcDbDimension
2
DimnDraft3D4
10
60.722424
20
-31.35
30
0
11
56.472424
21
0.228947
31
0
70
33
71
5
72
1
41
1
210
0
220
0
230
1
3
Standard
100
AcDbAlignedDimension
13
27.388538
23
31.35
33
0
14
27.388538
24
-31.35
34
0
1001
ACAD
1000
DSTYLE
1002
{
1070
   279
1070
     0
1070
    74
1070
     0
1070
   173
1070
     1
1070
   340
1005
F6
1070
   271
1070
     2
1070
   272
1070
     2
1070
    77
1070
     1
1070
    73
1070
     0
1070
   171
1070
     3
1070
   274
1070
     4
1070
   177
1070
     7
1070
   176
1070
     7
1070
   178
1070
     7
1070
    78
1070
     8
1070
    48
1040
-0.005
1070
    41
1041
3.175
1070
   147
1041
1.5
1070
    42
1041
1.5875
1070
    44
1041
2.0
1070
   140
1041
3.0
1070
   343
1005
0
1070
   344
1005
0
1002
}
0
DIMENSION
5
149
100
AcDbEntity
8
SK2
62
256
6
ByLayer
370
13
48
1
60
0
100
AcDbDimension
2
DimnDraft3D5
10
-50.405176
20
-31.5
30
0
11
-50.655176
21
1.957895
31
0
70
33
71
5
72
1
41
1
210
0
220
0
230
1
3
Standard
100
AcDbAlignedDimension
13
-1.2875
23
31.5
33
0
14
-1.2875
24
-31.5
34
0
1001
ACAD
1000
DSTYLE
1002
{
1070
   279
1070
     0
1070
    74
1070
     0
1070
   173
1070
     1
1070
   340
1005
F6
1070
   271
1070
     1
1070
   272
1070
     2
1070
    77
1070
     1
1070
    73
1070
     0
1070
   171
1070
     3
1070
   274
1070
     4
1070
   177
1070
     7
1070
   176
1070
     7
1070
   178
1070
     7
1070
    78
1070
     8
1070
    48
1040
-0.005
1070
    41
1041
3.175
1070
   147
1041
1.5
1070
    42
1041
1.5875
1070
    44
1041
2.0
1070
   140
1041
3.0
1070
   343
1005
108
1070
   344
1005
108
1002
}
0
ENDSEC
0
SECTION
2
OBJECTS
0
DICTIONARY
5
1b6
330
0
100
AcDbDictionary
280
0
281
1
3
ACAD_GROUP
350
1b7
3
ACAD_GROUP
350
1b8
3
ACAD_MLINESTYLE
350
1b9
0
DICTIONARY
5
1b7
330
0
100
AcDbDictionary
280
0
281
1
0
DICTIONARY
5
1b8
330
0
100
AcDbDictionary
280
0
281
1
3
<201798511MOD000_00>
350
152
0
DICTIONARY
5
1b9
330
0
100
AcDbDictionary
280
0
281
1
3
Standard
350
18
0
GROUP
5
152
330
1b8
100
AcDbGroup
300

70
0
71
1
340
6C
340
6E
340
70
340
71
340
72
340
74
340
76
340
78
340
79
340
7A
340
7B
340
7C
340
7D
340
7E
340
7F
340
81
340
82
340
83
340
84
340
85
340
86
340
87
340
88
340
89
340
8A
340
8B
340
8C
340
8D
340
8E
340
8F
340
90
340
91
340
92
340
93
340
94
340
95
340
96
340
97
340
98
340
99
340
9A
340
9B
340
9C
340
9D
340
9E
340
9F
340
A0
340
A1
340
A2
340
A3
340
A4
340
A5
340
A6
340
A7
340
A8
340
A9
340
AA
340
AB
340
AC
340
AD
340
AE
340
AF
340
B0
340
B1
340
B3
340
B4
340
B5
340
B6
340
B7
340
B8
340
B9
340
BA
340
BB
340
BC
340
BD
340
BE
340
BF
340
C0
340
C1
340
C2
340
C3
340
C4
340
C5
340
C6
340
C7
340
C8
340
C9
340
CA
340
CB
340
CC
340
CD
340
CE
340
CF
340
D0
340
D1
340
D2
340
D3
340
D4
340
D5
340
D6
340
D7
340
D8
340
D9
340
DA
340
DB
340
DC
340
DD
340
DE
340
DF
340
E0
340
E1
340
E2
340
E3
340
E4
340
E5
340
E6
340
E7
340
E8
340
E9
340
EA
340
EB
340
EC
340
ED
340
EE
340
EF
340
F0
340
F1
340
F2
340
F3
340
F4
340
F5
340
107
340
11D
340
12B
340
13A
340
149
0
MLINESTYLE
5
18
330
1b9
100
AcDbMlineStyle
2
Standard
70
0
3

62
256
51
90
52
90
71
2
49
-0.5
62
256
6
ByLayer
49
0.5
62
256
6
ByLayer
0
RASTERVARIABLES
5
1a3
330

100
AcDbRasterVariables
90
0
70
1
71
1
72
1
0
ENDSEC
0
EOF
