0
SECTION
2
HEADER
9
$ACADVER
1
AC1015
9
$DWGCODEPAGE
3
ANSI_1252
9
$HANDSEED
5
2ca
9
$ANGBASE
50
0
9
$ANGDIR
70
0
9
$ATTMODE
70
1
9
$AUNITS
70
0
9
$AUPREC
70
0
9
$CECOLOR
62
256
9
$CELTSCALE
40
1
9
$CELTYPE
6
ByLayer
9
$CELWEIGHT
370
18
9
$CLAYER
8
0
9
$CMLJUST
70
0
9
$CMLSCALE
40
1
9
$CMLSTYLE
2
Standard
9
$DIMSTYLE
2
Standard
9
$TEXTSIZE
40
0.2
9
$TEXTSTYLE
7
Standard
9
$LUNITS
70
2
9
$LUPREC
70
4
9
$EXTNAMES
290
1
9
$INSUNITS
70
4
9
$LTSCALE
40
1
9
$LWDISPLAY
290
1
9
$PDMODE
70
0
9
$PDSIZE
40
0
9
$PLINEGEN
70
0
0
ENDSEC
0
SECTION
2
CLASSES
0
CLASS
1
RASTERVARIABLES
2
AcDbRasterVariables
3
ISM
90
0
280
0
281
0
0
ENDSEC
0
SECTION
2
TABLES
0
TABLE
2
VPORT
5
2c0
100
AcDbSymbolTable
0
VPORT
5
1
100
AcDbSymbolTableRecord
100
AcDbViewportTableRecord
2
*Active
70
0
10
0
20
0
11
1
21
1
12
-1
22
1
13
0
23
0
14
0.5
24
0.5
15
10
25
10
16
0
26
0
36
1
17
0
27
0
37
0
0
ENDTAB
0
TABLE
2
LTYPE
5
2c1
100
AcDbSymbolTable
0
LTYPE
5
14
100
AcDbSymbolTableRecord
100
AcDbLinetypeTableRecord
70
0
2
ByBlock
3

72
65
73
0
40
0
0
LTYPE
5
15
100
AcDbSymbolTableRecord
100
AcDbLinetypeTableRecord
70
0
2
ByLayer
3

72
65
73
0
40
0
0
LTYPE
5
16
100
AcDbSymbolTableRecord
100
AcDbLinetypeTableRecord
70
0
2
CONTINUOUS
3
Solid line
72
65
73
0
40
0
0
LTYPE
5
6A
100
AcDbSymbolTableRecord
100
AcDbLinetypeTableRecord
70
0
2
CENTER
3
____ _ ____ _ ____ _ ____
72
65
73
4
40
47.5
49
22
74
0
49
-8.5
74
0
49
8.5
74
0
49
-8.5
74
0
0
LTYPE
5
6B
100
AcDbSymbolTableRecord
100
AcDbLinetypeTableRecord
70
0
2
DASHED
3
__ __ __ __ __ __ __ __ __
72
65
73
2
40
25.72
49
12.86
74
0
49
-12.86
74
0
0
ENDTAB
0
TABLE
2
LAYER
5
2c2
100
AcDbSymbolTable
0
LAYER
5
10
100
AcDbSymbolTableRecord
100
AcDbLayerTableRecord
2
0
70
0
62
7
6
CONTINUOUS
290
1
370
-3
390
0
0
LAYER
5
6D
100
AcDbSymbolTableRecord
100
AcDbLayerTableRecord
2
80
70
0
62
-6
6
CONTINUOUS
290
1
370
-3
390
0
0
LAYER
5
6F
100
AcDbSymbolTableRecord
100
AcDbLayerTableRecord
2
81
70
0
62
-3
6
CONTINUOUS
290
1
370
-3
390
0
0
LAYER
5
71
100
AcDbSymbolTableRecord
100
AcDbLayerTableRecord
2
4
70
0
62
-2
6
CENTER
290
1
370
-3
390
0
0
LAYER
5
77
100
AcDbSymbolTableRecord
100
AcDbLayerTableRecord
2
1
70
0
62
4
6
CONTINUOUS
290
1
370
-3
390
0
0
LAYER
5
224
100
AcDbSymbolTableRecord
100
AcDbLayerTableRecord
2
2
70
0
62
7
6
CONTINUOUS
290
1
370
-3
390
0
0
LAYER
5
2aa
100
AcDbSymbolTableRecord
100
AcDbLayerTableRecord
2
SK4
70
0
62
2
6
CENTER
290
1
370
-3
390
0
0
LAYER
5
2ab
100
AcDbSymbolTableRecord
100
AcDbLayerTableRecord
2
SK1
70
0
62
4
6
CONTINUOUS
290
1
370
-3
390
0
0
LAYER
5
2ac
100
AcDbSymbolTableRecord
100
AcDbLayerTableRecord
2
SK6
70
0
62
5
6
CONTINUOUS
290
1
370
-3
390
0
0
LAYER
5
2ad
100
AcDbSymbolTableRecord
100
AcDbLayerTableRecord
2
SK2
70
0
62
7
6
CONTINUOUS
290
1
370
-3
390
0
0
ENDTAB
0
TABLE
2
STYLE
5
2c3
100
AcDbSymbolTable
0
STYLE
5
11
100
AcDbSymbolTableRecord
100
AcDbTextStyleTableRecord
2
Standard
3
txt
70
0
71
0
40
0
41
1
42
0
50
0
0
STYLE
5
21F
100
AcDbSymbolTableRecord
100
AcDbTextStyleTableRecord
2
iso_b_vert
3
simplex.shx
70
0
71
0
40
0
41
1
42
0
50
0
0
STYLE
5
220
100
AcDbSymbolTableRecord
100
AcDbTextStyleTableRecord
2
DWGDirectTextStyle
3
simplex
70
0
71
0
40
0
41
1
42
0
50
0
0
ENDTAB
0
TABLE
2
DIMSTYLE
5
2c4
100
AcDbSymbolTable
100
AcDbDimStyleTable
0
DIMSTYLE
105
27
100
AcDbSymbolTableRecord
100
AcDbDimStyleTableRecord
2
Standard
70
0
3
<>
41
0.18
42
0.0625
44
0.18
140
0.18
147
0.09
73
0
74
0
77
1
271
2
275
0
278
52
280
0
340
11
0
ENDTAB
0
TABLE
2
VIEW
5
2c5
100
AcDbSymbolTable
0
ENDTAB
0
TABLE
2
UCS
5
2c6
100
AcDbSymbolTable
0
ENDTAB
0
TABLE
2
APPID
5
2c7
100
AcDbSymbolTable
0
APPID
5
12
100
AcDbSymbolTableRecord
100
AcDbRegAppTableRecord
2
ACAD
70
0
0
ENDTAB
0
TABLE
2
BLOCK_RECORD
5
2c8
100
AcDbSymbolTable
0
BLOCK_RECORD
5
1F
100
AcDbSymbolTableRecord
100
AcDbBlockTableRecord
2
*Model_Space
340
0
70
0
0
BLOCK_RECORD
5
1B
100
AcDbSymbolTableRecord
100
AcDbBlockTableRecord
2
*Paper_Space
340
0
70
0
0
BLOCK_RECORD
5
23
100
AcDbSymbolTableRecord
100
AcDbBlockTableRecord
2
*Paper_Space0
340
0
70
0
0
BLOCK_RECORD
5
222
100
AcDbSymbolTableRecord
100
AcDbBlockTableRecord
2
DimnDraft3D1
340
0
70
0
0
BLOCK_RECORD
5
22D
100
AcDbSymbolTableRecord
100
AcDbBlockTableRecord
2
DimnDraft3D2
340
0
70
0
0
BLOCK_RECORD
5
237
100
AcDbSymbolTableRecord
100
AcDbBlockTableRecord
2
DimnDraft3D3
340
0
70
0
0
BLOCK_RECORD
5
241
100
AcDbSymbolTableRecord
100
AcDbBlockTableRecord
2
DimnDraft3D4
340
0
70
0
0
ENDTAB
0
ENDSEC
0
SECTION
2
BLOCKS
0
BLOCK
5
20
100
AcDbEntity
8
0
100
AcDbBlockBegin
2
*Model_Space
70
0
10
0
20
0
30
0
3
*Model_Space
0
ENDBLK
5
21
100
AcDbEntity
8
0
100
AcDbBlockEnd
0
BLOCK
5
1C
100
AcDbEntity
8
0
100
AcDbBlockBegin
2
*Paper_Space
70
0
10
0
20
0
30
0
3
*Paper_Space
0
ENDBLK
5
1D
100
AcDbEntity
8
0
100
AcDbBlockEnd
0
BLOCK
5
24
100
AcDbEntity
8
0
100
AcDbBlockBegin
2
*Paper_Space0
70
0
10
0
20
0
30
0
3
*Paper_Space0
0
ENDBLK
5
25
100
AcDbEntity
8
0
100
AcDbBlockEnd
0
BLOCK
5
22A
100
AcDbEntity
8
0
100
AcDbBlockBegin
2
DimnDraft3D1
70
0
10
0
20
0
30
0
3
DimnDraft3D1
0
MTEXT
5
223
100
AcDbEntity
8
2
62
256
6
ByLayer
370
18
48
1
60
0
100
AcDbMText
10
146.207047
20
39.756041
30
0
210
0
220
0
230
1
1
\W0.7156;300.0
40
3
41
0
44
1.084337
50
0
71
7
72
5
7
iso_b_vert
0
LINE
5
225
100
AcDbEntity
8
2
62
256
6
ByLayer
370
13
48
1
60
0
100
AcDbLine
10
300.000937
20
29.482719
30
0
11
300.000937
21
41.006041
31
0
39
0
210
0
220
0
230
1
0
LINE
5
226
100
AcDbEntity
8
2
62
256
6
ByLayer
370
13
48
1
60
0
100
AcDbLine
10
0
20
26.7
30
0
11
0
21
41.006041
31
0
39
0
210
0
220
0
230
1
0
LINE
5
227
100
AcDbEntity
8
2
62
256
6
ByLayer
370
13
48
1
60
0
100
AcDbLine
10
300.000937
20
39.006041
30
0
11
0
21
39.006041
31
0
39
0
210
0
220
0
230
1
0
SOLID
5
228
100
AcDbEntity
8
2
62
256
6
ByLayer
370
13
48
1
60
0
100
AcDbTrace
10
300.000937
20
39.006041
30
0
11
296.825939
21
38.588045
31
0
12
296.825935
22
39.424038
32
0
13
300.000937
23
39.006041
33
0
39
0
210
0
220
0
230
1
0
SOLID
5
229
100
AcDbEntity
8
2
62
256
6
ByLayer
370
13
48
1
60
0
100
AcDbTrace
10
0
20
39.006041
30
0
11
3.174998
21
39.424038
31
0
12
3.175002
22
38.588045
32
0
13
0
23
39.006041
33
0
39
0
210
0
220
0
230
1
0
ENDBLK
5
22B
100
AcDbEntity
8
0
100
AcDbBlockEnd
0
BLOCK
5
234
100
AcDbEntity
8
0
100
AcDbBlockBegin
2
DimnDraft3D2
70
0
10
0
20
0
30
0
3
DimnDraft3D2
0
MTEXT
5
22E
100
AcDbEntity
8
2
62
256
6
ByLayer
370
18
48
1
60
0
100
AcDbMText
10
326.434322
20
-10.59437
30
0
210
0
220
0
230
1
1
\W0.7114;Dc=55.0-71.0
40
3
41
0
44
1.084337
50
90
71
7
72
5
7
iso_b_vert
0
LINE
5
22F
100
AcDbEntity
8
2
62
256
6
ByLayer
370
13
48
1
60
0
100
AcDbLine
10
302.000937
20
27.482719
30
0
11
329.184322
21
27.482719
31
0
39
0
210
0
220
0
230
1
0
LINE
5
230
100
AcDbEntity
8
2
62
256
6
ByLayer
370
13
48
1
60
0
100
AcDbLine
10
301.207836
20
-27.481984
30
0
11
329.184322
21
-27.481984
31
0
39
0
210
0
220
0
230
1
0
LINE
5
231
100
AcDbEntity
8
2
62
256
6
ByLayer
370
13
48
1
60
0
100
AcDbLine
10
327.184322
20
27.482719
30
0
11
327.184322
21
-27.481984
31
0
39
0
210
0
220
0
230
1
0
SOLID
5
232
100
AcDbEntity
8
2
62
256
6
ByLayer
370
13
48
1
60
0
100
AcDbTrace
10
327.184322
20
27.482719
30
0
11
327.602318
21
24.30772
31
0
12
326.766325
22
24.307717
32
0
13
327.184322
23
27.482719
33
0
39
0
210
0
220
0
230
1
0
SOLID
5
233
100
AcDbEntity
8
2
62
256
6
ByLayer
370
13
48
1
60
0
100
AcDbTrace
10
327.184322
20
-27.481984
30
0
11
326.766325
21
-24.306986
31
0
12
327.602318
22
-24.306982
32
0
13
327.184322
23
-27.481984
33
0
39
0
210
0
220
0
230
1
0
ENDBLK
5
235
100
AcDbEntity
8
0
100
AcDbBlockEnd
0
BLOCK
5
23E
100
AcDbEntity
8
0
100
AcDbBlockBegin
2
DimnDraft3D3
70
0
10
0
20
0
30
0
3
DimnDraft3D3
0
MTEXT
5
238
100
AcDbEntity
8
2
62
256
6
ByLayer
370
18
48
1
60
0
100
AcDbMText
10
310.580693
20
14.137522
30
0
210
0
220
0
230
1
1
\W0.5899;90%%d
40
3
41
0
44
1.084337
50
45
71
7
72
5
7
iso_b_vert
0
LINE
5
239
100
AcDbEntity
8
2
62
256
6
ByLayer
370
13
48
1
60
0
100
AcDbLine
10
300.001586
20
10.940574
30
0
11
300.001586
21
7.815681
31
0
39
0
210
0
220
0
230
1
0
LINE
5
23A
100
AcDbEntity
8
2
62
256
6
ByLayer
370
13
48
1
60
0
100
AcDbLine
10
304.000937
20
27.482719
30
0
11
319.668624
21
27.482719
31
0
39
0
210
0
220
0
230
1
0
ARC
5
23B
100
AcDbEntity
8
2
62
256
6
ByLayer
370
13
48
1
60
0
100
AcDbCircle
39
0
10
300.001586
20
27.482719
30
0
40
17.6670372602278
210
0
220
0
230
1
100
AcDbArc
50
270
51
0
0
SOLID
5
23C
100
AcDbEntity
8
2
62
256
6
ByLayer
370
13
48
1
60
0
100
AcDbTrace
10
300.001586
20
9.815681
30
0
11
303.154675
21
10.375476
31
0
12
303.192124
22
9.540322
32
0
13
300.001586
23
9.815681
33
0
39
0
210
0
220
0
230
1
0
SOLID
5
23D
100
AcDbEntity
8
2
62
256
6
ByLayer
370
13
48
1
60
0
100
AcDbTrace
10
317.668624
20
27.482719
30
0
11
317.943983
21
24.292184
31
0
12
317.108829
22
24.329627
32
0
13
317.668624
23
27.482719
33
0
39
0
210
0
220
0
230
1
0
ENDBLK
5
23F
100
AcDbEntity
8
0
100
AcDbBlockEnd
0
BLOCK
5
24A
100
AcDbEntity
8
0
100
AcDbBlockBegin
2
DimnDraft3D4
70
0
10
0
20
0
30
0
3
DimnDraft3D4
0
MTEXT
5
242
100
AcDbEntity
8
SK2
62
256
6
ByLayer
370
18
48
1
60
0
100
AcDbMText
10
-42.787888
20
1.164474
30
0
210
0
220
0
230
1
1
\W0.6337;50
40
3
41
0
44
1.084337
50
90
71
7
72
5
7
iso_b_vert
0
MTEXT
5
244
100
AcDbEntity
8
SK2
62
256
6
ByLayer
370
18
48
1
60
0
100
AcDbMText
10
-42.787888
20
-3.248684
30
0
210
0
220
0
230
1
1
\W1.1719;%%c
40
3
41
0
44
1.084337
50
90
71
7
72
5
7
iso_b_vert
0
LINE
5
245
100
AcDbEntity
8
SK2
62
256
6
ByLayer
370
13
48
1
60
0
100
AcDbLine
10
-1.7
20
25
30
0
11
-44.037888
21
25
31
0
39
0
210
0
220
0
230
1
0
LINE
5
246
100
AcDbEntity
8
SK2
62
256
6
ByLayer
370
13
48
1
60
0
100
AcDbLine
10
-1.7
20
-25
30
0
11
-44.037888
21
-25
31
0
39
0
210
0
220
0
230
1
0
LINE
5
247
100
AcDbEntity
8
SK2
62
256
6
ByLayer
370
13
48
1
60
0
100
AcDbLine
10
-42.037888
20
25
30
0
11
-42.037888
21
-25
31
0
39
0
210
0
220
0
230
1
0
SOLID
5
248
100
AcDbEntity
8
SK2
62
256
6
ByLayer
370
13
48
1
60
0
100
AcDbTrace
10
-42.037888
20
25
30
0
11
-41.619891
21
21.825002
31
0
12
-42.455885
22
21.824998
32
0
13
-42.037888
23
25
33
0
39
0
210
0
220
0
230
1
0
SOLID
5
249
100
AcDbEntity
8
SK2
62
256
6
ByLayer
370
13
48
1
60
0
100
AcDbTrace
10
-42.037888
20
-25
30
0
11
-42.455885
21
-21.825002
31
0
12
-41.619891
22
-21.824998
32
0
13
-42.037888
23
-25
33
0
39
0
210
0
220
0
230
1
0
ENDBLK
5
24B
100
AcDbEntity
8
0
100
AcDbBlockEnd
0
ENDSEC
0
SECTION
2
ENTITIES
0
ARC
5
134
100
AcDbEntity
8
SK1
62
256
6
ByLayer
370
18
48
1
60
0
100
AcDbCircle
39
0
10
0.6
20
-18.75
30
0
40
1.00000000000001
210
0
220
0
230
-1
100
AcDbArc
50
113.578178
51
126.870857
0
ARC
5
135
100
AcDbEntity
8
SK1
62
256
6
ByLayer
370
18
48
1
60
0
100
AcDbCircle
39
0
10
0.6
20
18.75
30
0
40
1.00000000000001
210
0
220
0
230
-1
100
AcDbArc
50
233.129143
51
246.421822
0
ARC
5
136
100
AcDbEntity
8
1
62
256
6
ByLayer
370
18
48
1
60
0
100
AcDbCircle
39
0
10
-296.2994
20
2.800242
30
0
40
6.29781322727635
210
0
220
0
230
-1
100
AcDbArc
50
12.483213
51
35.522076
0
ARC
5
138
100
AcDbEntity
8
1
62
256
6
ByLayer
370
18
48
1
60
0
100
AcDbCircle
39
0
10
267.8
20
-20.4
30
0
40
0.836792319645751
210
0
220
0
230
1
100
AcDbArc
50
121.960057
51
103.08529
0
ARC
5
139
100
AcDbEntity
8
1
62
256
6
ByLayer
370
18
48
1
60
0
100
AcDbCircle
39
0
10
267.8
20
-20.4
30
0
40
0.599999999999999
210
0
220
0
230
1
100
AcDbArc
50
119.753141
51
105.292206
0
ARC
5
13A
100
AcDbEntity
8
1
62
256
6
ByLayer
370
18
48
1
60
0
100
AcDbCircle
39
0
10
268.8
20
25.3
30
0
40
2.3
210
0
220
0
230
1
100
AcDbArc
50
203.993922
51
270
0
ARC
5
13C
100
AcDbEntity
8
1
62
256
6
ByLayer
370
18
48
1
60
0
100
AcDbCircle
39
0
10
-267.8
20
20.4
30
0
40
0.600000000000001
210
0
220
0
230
-1
100
AcDbArc
50
97.230467
51
82.769533
0
ARC
5
13D
100
AcDbEntity
8
1
62
256
6
ByLayer
370
18
48
1
60
0
100
AcDbCircle
39
0
10
-267.8
20
20.4
30
0
40
0.836792319645751
210
0
220
0
230
-1
100
AcDbArc
50
99.437384
51
80.562616
0
ARC
5
13E
100
AcDbEntity
8
1
62
256
6
ByLayer
370
18
48
1
60
0
100
AcDbCircle
39
0
10
264.7
20
-24.7
30
0
40
0.3
210
0
220
0
230
1
100
AcDbArc
50
270
51
0
0
ARC
5
13F
100
AcDbEntity
8
1
62
256
6
ByLayer
370
18
48
1
60
0
100
AcDbCircle
39
0
10
264.7
20
24.7
30
0
40
0.3
210
0
220
0
230
1
100
AcDbArc
50
0
51
90
0
ARC
5
140
100
AcDbEntity
8
1
62
256
6
ByLayer
370
18
48
1
60
0
100
AcDbCircle
39
0
10
-296.2994
20
2.800242
30
0
40
6.29781322728929
210
0
220
0
230
-1
100
AcDbArc
50
47.732975
51
76
0
ARC
5
141
100
AcDbEntity
8
1
62
256
6
ByLayer
370
18
48
1
60
0
100
AcDbCircle
39
0
10
-274.5
20
18
30
0
40
8.00000000000815
210
0
220
0
230
-1
100
AcDbArc
50
270
51
321.998815
0
CIRCLE
5
137
100
AcDbEntity
8
1
62
256
6
ByLayer
370
18
48
1
60
0
100
AcDbCircle
10
-267.8
20
-20.4
30
0
40
1
39
0
210
0
220
0
230
-1
0
CIRCLE
5
13B
100
AcDbEntity
8
1
62
256
6
ByLayer
370
18
48
1
60
0
100
AcDbCircle
10
-267.8
20
20.4
30
0
40
1
39
0
210
0
220
0
230
-1
0
ELLIPSE
5
142
100
AcDbEntity
8
1
62
256
6
ByLayer
370
18
48
1
60
0
100
AcDbEllipse
10
299.207836
20
12.940574
30
0
11
0.793749999999982
21
0
31
0
210
0
220
0
230
1
40
0.999999
41
-2.09439510239291
42
-7.16138276589411E-14
0
ELLIPSE
5
143
100
AcDbEntity
8
1
62
256
6
ByLayer
370
18
48
1
60
0
100
AcDbEllipse
10
287.301586
20
19.814647
30
0
11
0.793749999999982
21
0
31
0
210
0
220
0
230
1
40
0.999999
41
2.09439510239308
42
-2.09439510239291
0
ELLIPSE
5
144
100
AcDbEntity
8
1
62
256
6
ByLayer
370
18
48
1
60
0
100
AcDbEllipse
10
295.239086
20
-19.234276
30
0
11
-1.35
21
1.65321857766021E-16
31
0
210
0
220
0
230
1
40
0.99749
41
-1.59196964056044
42
0
0
ELLIPSE
5
145
100
AcDbEntity
8
1
62
256
6
ByLayer
370
18
48
1
60
0
100
AcDbEllipse
10
295.239086
20
-19.234276
30
0
11
-1.35
21
1.65321857766021E-16
31
0
210
0
220
0
230
1
40
0.99749
41
0
42
1.07111935597869
0
ELLIPSE
5
146
100
AcDbEntity
8
1
62
256
6
ByLayer
370
18
48
1
60
0
100
AcDbEllipse
10
299.207836
20
26.68872
30
0
11
0.793749999999982
21
0
31
0
210
0
220
0
230
1
40
0.999999
41
0
42
2.09439510239316
0
ELLIPSE
5
147
100
AcDbEntity
8
1
62
256
6
ByLayer
370
18
48
1
60
0
100
AcDbEllipse
10
295.239086
20
19.814647
30
0
11
3.07132534818244
21
0
31
0
210
0
220
0
230
1
40
0.999999
41
0
42
6.28318530717959
0
ELLIPSE
5
148
100
AcDbEntity
8
1
62
256
6
ByLayer
370
18
48
1
60
0
100
AcDbEllipse
10
294.888868
20
-19.532106
30
0
11
-1.45
21
1.77567921304245E-16
31
0
210
0
220
0
230
1
40
0.99749
41
-0.275478218053973
42
-0.18496097341728
0
ELLIPSE
5
149
100
AcDbEntity
8
1
62
256
6
ByLayer
370
18
48
1
60
0
100
AcDbEllipse
10
287.801586
20
14.415089
30
0
11
12
21
0
31
0
210
0
220
0
230
1
40
0.999999
41
1.5707963267949
42
1.6208259043831
0
ELLIPSE
5
14A
100
AcDbEntity
8
1
62
256
6
ByLayer
370
18
48
1
60
0
100
AcDbEllipse
10
287.010402
20
20.369308
30
0
11
-1.625
21
1.98998532496136E-16
31
0
210
0
220
0
230
1
40
0.999999
41
3.07628667036339E-05
42
1.85030381280628
0
ELLIPSE
5
14B
100
AcDbEntity
8
1
62
256
6
ByLayer
370
18
48
1
60
0
100
AcDbEllipse
10
287.010402
20
20.365695
30
0
11
1.625
21
0
31
0
210
0
220
0
230
1
40
0.999999
41
-1.45293624636719
42
-1.28860639646962
0
ELLIPSE
5
14C
100
AcDbEntity
8
1
62
256
6
ByLayer
370
18
48
1
60
0
100
AcDbEllipse
10
287.6399
20
20.725483
30
0
11
-1.69991820480221
21
2.08173063457912E-16
31
0
210
0
220
0
230
1
40
0.999999
41
-2.09439510239319
42
-1.30994251606257
0
ELLIPSE
5
14D
100
AcDbEntity
8
1
62
256
6
ByLayer
370
18
48
1
60
0
100
AcDbEllipse
10
287.6399
20
20.7292
30
0
11
1.5999182048022
21
0
31
0
210
0
220
0
230
1
40
0.999999
41
1.04719755119661
42
2.4236891336032
0
ELLIPSE
5
14E
100
AcDbEntity
8
1
62
256
6
ByLayer
370
18
48
1
60
0
100
AcDbEllipse
10
287.010402
20
20.369413
30
0
11
1.52500000000001
21
0
31
0
210
0
220
0
230
1
40
0.999999
41
1.9577860966663
42
-1.3568121282251
0
ELLIPSE
5
14F
100
AcDbEntity
8
1
62
256
6
ByLayer
370
18
48
1
60
0
100
AcDbEllipse
10
295.239086
20
19.814765
30
0
11
-1.6764
21
2.05293009154783E-16
31
0
210
0
220
0
230
1
40
0.999999
41
-1.57079632679493
42
-0.523598775598307
0
ELLIPSE
5
150
100
AcDbEntity
8
1
62
256
6
ByLayer
370
18
48
1
60
0
100
AcDbEllipse
10
295.239086
20
19.814765
30
0
11
-1.6764
21
2.05293009154783E-16
31
0
210
0
220
0
230
1
40
0.999999
41
-2.6179938779915
42
-1.57079632679493
0
ELLIPSE
5
151
100
AcDbEntity
8
1
62
256
6
ByLayer
370
18
48
1
60
0
100
AcDbEllipse
10
295.239086
20
19.814765
30
0
11
-1.6764
21
2.05293009154783E-16
31
0
210
0
220
0
230
1
40
0.999999
41
2.6179938779915
42
-2.6179938779915
0
ELLIPSE
5
152
100
AcDbEntity
8
1
62
256
6
ByLayer
370
18
48
1
60
0
100
AcDbEllipse
10
295.239086
20
19.814765
30
0
11
-1.6764
21
2.05293009154783E-16
31
0
210
0
220
0
230
1
40
0.999999
41
0.5235987755983
42
1.5707963267949
0
ELLIPSE
5
153
100
AcDbEntity
8
1
62
256
6
ByLayer
370
18
48
1
60
0
100
AcDbEllipse
10
295.239086
20
19.814765
30
0
11
-1.6764
21
2.05293009154783E-16
31
0
210
0
220
0
230
1
40
0.999999
41
1.5707963267949
42
2.6179938779915
0
ELLIPSE
5
154
100
AcDbEntity
8
1
62
256
6
ByLayer
370
18
48
1
60
0
100
AcDbEllipse
10
295.239086
20
19.814765
30
0
11
-1.6764
21
2.05293009154783E-16
31
0
210
0
220
0
230
1
40
0.999999
41
-0.523598775598307
42
0.523598775598298
0
ELLIPSE
5
155
100
AcDbEntity
8
1
62
256
6
ByLayer
370
18
48
1
60
0
100
AcDbEllipse
10
295.239086
20
19.814765
30
0
11
1.8
21
0
31
0
210
0
220
0
230
1
40
0.999999
41
0
42
6.28318530717959
0
ELLIPSE
5
156
100
AcDbEntity
8
1
62
256
6
ByLayer
370
18
48
1
60
0
100
AcDbEllipse
10
295.239086
20
19.815053
30
0
11
2.625
21
0
31
0
210
0
220
0
230
1
40
0.999999
41
0
42
6.28318530717959
0
ELLIPSE
5
157
100
AcDbEntity
8
1
62
256
6
ByLayer
370
18
48
1
60
0
100
AcDbEllipse
10
295.239086
20
19.816414
30
0
11
1.2903
21
0
31
0
210
0
220
0
230
1
40
0.999999
41
1.0471975511966
42
2.0943951023932
0
ELLIPSE
5
158
100
AcDbEntity
8
1
62
256
6
ByLayer
370
18
48
1
60
0
100
AcDbEllipse
10
295.239086
20
19.816414
30
0
11
-1.2903
21
1.58010957833701E-16
31
0
210
0
220
0
230
1
40
0.999999
41
3.14159265358979
42
-2.0943951023932
0
ELLIPSE
5
159
100
AcDbEntity
8
1
62
256
6
ByLayer
370
18
48
1
60
0
100
AcDbEllipse
10
295.239086
20
19.816414
30
0
11
-1.2903
21
1.58010957833701E-16
31
0
210
0
220
0
230
1
40
0.999999
41
2.0943951023932
42
3.14159265358979
0
ELLIPSE
5
15A
100
AcDbEntity
8
1
62
256
6
ByLayer
370
18
48
1
60
0
100
AcDbEllipse
10
295.239086
20
19.816414
30
0
11
-1.2903
21
1.58010957833701E-16
31
0
210
0
220
0
230
1
40
0.999999
41
1.0471975511966
42
2.0943951023932
0
ELLIPSE
5
15B
100
AcDbEntity
8
1
62
256
6
ByLayer
370
18
48
1
60
0
100
AcDbEllipse
10
295.239086
20
19.816414
30
0
11
-1.2903
21
1.58010957833701E-16
31
0
210
0
220
0
230
1
40
0.999999
41
0
42
1.0471975511966
0
ELLIPSE
5
15C
100
AcDbEntity
8
1
62
256
6
ByLayer
370
18
48
1
60
0
100
AcDbEllipse
10
295.239086
20
19.816414
30
0
11
-1.2903
21
1.58010957833701E-16
31
0
210
0
220
0
230
1
40
0.999999
41
-1.0471975511966
42
2.20272323119754E-14
0
ELLIPSE
5
15D
100
AcDbEntity
8
1
62
256
6
ByLayer
370
18
48
1
60
0
100
AcDbEllipse
10
295.239086
20
19.815566
30
0
11
-3.00996076008356
21
3.68601707155436E-16
31
0
210
0
220
0
230
1
40
0.999999
41
0
42
6.28318530717959
0
ELLIPSE
5
15E
100
AcDbEntity
8
1
62
256
6
ByLayer
370
18
48
1
60
0
100
AcDbEllipse
10
294.888868
20
-19.000473
30
0
11
2.5
21
0
31
0
210
0
220
0
230
1
40
0.99749
41
1.57079632679487
42
3.14159265358978
0
ELLIPSE
5
15F
100
AcDbEntity
8
1
62
256
6
ByLayer
370
18
48
1
60
0
100
AcDbEllipse
10
287.501586
20
-14.417304
30
0
11
12
21
0
31
0
210
0
220
0
230
1
40
0.99749
41
-1.62082590438308
42
-1.57079632679491
0
ELLIPSE
5
160
100
AcDbEntity
8
1
62
256
6
ByLayer
370
18
48
1
60
0
100
AcDbEllipse
10
298.701586
20
-25.6371
30
0
11
0.5
21
0
31
0
210
0
220
0
230
1
40
0.99749
41
-1.57079632679501
42
1.70959364587539E-13
0
ELLIPSE
5
161
100
AcDbEntity
8
1
62
256
6
ByLayer
370
18
48
1
60
0
100
AcDbEllipse
10
294.888868
20
-19.28415
30
0
11
-1.45000000000001
21
1.77567921304246E-16
31
0
210
0
220
0
230
1
40
0.99749
41
-3.04335581907012
42
-1.83496016435572
0
ELLIPSE
5
162
100
AcDbEntity
8
1
62
256
6
ByLayer
370
18
48
1
60
0
100
AcDbEllipse
10
298.089061
20
6.252469
30
0
11
-6.44808448923975E-16
21
-3.51028963667292
31
0
210
0
220
0
230
1
40
0.104528
41
-2.99172860029049
42
-2.61799387799153
0
ELLIPSE
5
163
100
AcDbEntity
8
1
62
256
6
ByLayer
370
18
48
1
60
0
100
AcDbEllipse
10
298.089061
20
6.252469
30
0
11
-6.44808448923975E-16
21
-3.51028963667292
31
0
210
0
220
0
230
1
40
0.104528
41
2.61799387799153
42
3.0438429151478
0
ELLIPSE
5
164
100
AcDbEntity
8
1
62
256
6
ByLayer
370
18
48
1
60
0
100
AcDbEllipse
10
289.832886
20
-6.252045
30
0
11
-1.2865142978713E-15
21
8
31
0
210
0
220
0
230
1
40
0.104528
41
-2.75203531736033
42
-0.389655663458664
0
ELLIPSE
5
165
100
AcDbEntity
8
1
62
256
6
ByLayer
370
13
48
1
60
0
100
AcDbEllipse
10
297.293443
20
6.252469
30
0
11
-1.18159205564437E-15
21
-6.4325
31
0
210
0
220
0
230
1
40
0.104528
41
-2.0808142299703
42
-0.285393805000155
0
ELLIPSE
5
166
100
AcDbEntity
8
1
62
256
6
ByLayer
370
18
48
1
60
0
100
AcDbEllipse
10
298.089061
20
6.252469
30
0
11
-6.44808448923975E-16
21
-3.51028963667292
31
0
210
0
220
0
230
1
40
0.104528
41
-1.5707963267949
42
-0.523598775598256
0
ELLIPSE
5
167
100
AcDbEntity
8
1
62
256
6
ByLayer
370
18
48
1
60
0
100
AcDbEllipse
10
298.089061
20
6.252469
30
0
11
-6.44808448923975E-16
21
-3.51028963667292
31
0
210
0
220
0
230
1
40
0.104528
41
-0.523598775598256
42
0.523598775598263
0
ELLIPSE
5
168
100
AcDbEntity
8
1
62
256
6
ByLayer
370
18
48
1
60
0
100
AcDbEllipse
10
298.089061
20
6.252469
30
0
11
-6.44808448923975E-16
21
-3.51028963667292
31
0
210
0
220
0
230
1
40
0.104528
41
0.523598775598263
42
1.5707963267949
0
ELLIPSE
5
169
100
AcDbEntity
8
1
62
256
6
ByLayer
370
18
48
1
60
0
100
AcDbEllipse
10
298.089061
20
6.252469
30
0
11
-6.44808448923975E-16
21
-3.51028963667292
31
0
210
0
220
0
230
1
40
0.104528
41
1.5707963267949
42
2.61799387799153
0
ELLIPSE
5
16A
100
AcDbEntity
8
1
62
256
6
ByLayer
370
18
48
1
60
0
100
AcDbEllipse
10
298.089061
20
6.252469
30
0
11
-6.44808448923975E-16
21
-3.51028963667292
31
0
210
0
220
0
230
1
40
0.104528
41
-2.61799387799153
42
-1.5707963267949
0
ELLIPSE
5
16B
100
AcDbEntity
8
1
62
256
6
ByLayer
370
18
48
1
60
0
100
AcDbEllipse
10
299.207836
20
-26.690226
30
0
11
0.793749999999982
21
0
31
0
210
0
220
0
230
1
40
0.99749
41
-2.09439510239283
42
3.94866773850489E-13
0
ELLIPSE
5
16C
100
AcDbEntity
8
1
62
256
6
ByLayer
370
18
48
1
60
0
100
AcDbEllipse
10
299.207836
20
-26.409234
30
0
11
-0.306448773916579
21
3.7527911565932E-17
31
0
210
0
220
0
230
1
40
0.99749
41
1.04719755119699
42
-3.14159265358942
0
ELLIPSE
5
16D
100
AcDbEntity
8
1
62
256
6
ByLayer
370
18
48
1
60
0
100
AcDbEllipse
10
299.207836
20
-12.695583
30
0
11
-0.306448773916579
21
3.7527911565932E-17
31
0
210
0
220
0
230
1
40
0.99749
41
-3.14159265358933
42
-1.55040723476139
0
ELLIPSE
5
16E
100
AcDbEntity
8
1
62
256
6
ByLayer
370
13
48
1
60
0
100
AcDbEllipse
10
296.993443
20
-6.252045
30
0
11
-1.18159205564437E-15
21
-6.4325
31
0
210
0
220
0
230
1
40
0.104528
41
2.6043657925428
42
3.14157771329968
0
ELLIPSE
5
16F
100
AcDbEntity
8
1
62
256
6
ByLayer
370
13
48
1
60
0
100
AcDbEllipse
10
296.993443
20
-6.252045
30
0
11
-1.18159205564437E-15
21
-6.4325
31
0
210
0
220
0
230
1
40
0.104528
41
0
42
2.60436581979612
0
ELLIPSE
5
170
100
AcDbEntity
8
1
62
256
6
ByLayer
370
13
48
1
60
0
100
AcDbEllipse
10
257.5
20
-23.179596
30
0
11
1.5
21
0
31
0
210
0
220
0
230
1
40
0.374607
41
0
42
6.28318530717959
0
ELLIPSE
5
171
100
AcDbEntity
8
1
62
256
6
ByLayer
370
18
48
1
60
0
100
AcDbEllipse
10
295.239086
20
-19.262596
30
0
11
1.75
21
0
31
0
210
0
220
0
230
1
40
0.99749
41
2.7810293884287
42
-3.06488576775993
0
ELLIPSE
5
172
100
AcDbEntity
8
1
62
256
6
ByLayer
370
18
48
1
60
0
100
AcDbEllipse
10
297.789061
20
-6.252045
30
0
11
-9.05786472845012E-16
21
5.6325
31
0
210
0
220
0
230
1
40
0.104528
41
-2.65848898279102
42
-0.537226881418074
0
ELLIPSE
5
173
100
AcDbEntity
8
1
62
256
6
ByLayer
370
18
48
1
60
0
100
AcDbEllipse
10
298.089061
20
6.252469
30
0
11
-9.05786472845012E-16
21
5.6325
31
0
210
0
220
0
230
1
40
0.104528
41
0.930107815842225
42
2.74830463734163
0
ELLIPSE
5
174
100
AcDbEntity
8
1
62
256
6
ByLayer
370
13
48
1
60
0
100
AcDbEllipse
10
298.089061
20
6.252469
30
0
11
-9.05786472845012E-16
21
5.6325
31
0
210
0
220
0
230
1
40
0.104528
41
2.74830463734161
42
-2.46644479316995
0
ELLIPSE
5
175
100
AcDbEntity
8
1
62
256
6
ByLayer
370
18
48
1
60
0
100
AcDbEllipse
10
298.089061
20
6.252469
30
0
11
-9.05786472845012E-16
21
5.6325
31
0
210
0
220
0
230
1
40
0.104528
41
-2.46644479316997
42
-0.877976976374946
0
ELLIPSE
5
176
100
AcDbEntity
8
1
62
256
6
ByLayer
370
13
48
1
60
0
100
AcDbEllipse
10
295.239086
20
19.815829
30
0
11
2.92104776440369
21
0
31
0
210
0
220
0
230
1
40
0.999999
41
0
42
6.28318530717959
0
ELLIPSE
5
177
100
AcDbEntity
8
1
62
256
6
ByLayer
370
13
48
1
60
0
100
AcDbEllipse
10
257.5
20
9.365165
30
0
11
-1.5
21
1.83690953073357E-16
31
0
210
0
220
0
230
1
40
0.927184
41
0
42
6.28318530717959
0
ELLIPSE
5
178
100
AcDbEntity
8
1
62
256
6
ByLayer
370
18
48
1
60
0
100
AcDbEllipse
10
295.239086
20
19.816335
30
0
11
2.625
21
0
31
0
210
0
220
0
230
1
40
0.999999
41
1.04719770470265
42
3.141560064924
0
ELLIPSE
5
179
100
AcDbEntity
8
1
62
256
6
ByLayer
370
18
48
1
60
0
100
AcDbEllipse
10
295.239086
20
19.816335
30
0
11
2.625
21
0
31
0
210
0
220
0
230
1
40
0.999999
41
0
42
1.04719773914134
0
ELLIPSE
5
17A
100
AcDbEntity
8
1
62
256
6
ByLayer
370
18
48
1
60
0
100
AcDbEllipse
10
294.888868
20
-19.000473
30
0
11
-1.45000000000001
21
1.77567921304246E-16
31
0
210
0
220
0
230
1
40
0.99749
41
0
42
6.28318530717959
0
ELLIPSE
5
17B
100
AcDbEntity
8
1
62
256
6
ByLayer
370
18
48
1
60
0
100
AcDbEllipse
10
299.207836
20
-12.976574
30
0
11
0.793749999999982
21
0
31
0
210
0
220
0
230
1
40
0.99749
41
0
42
1.57865068873701
0
ELLIPSE
5
17C
100
AcDbEntity
8
1
62
256
6
ByLayer
370
18
48
1
60
0
100
AcDbEllipse
10
265.771297
20
22.000242
30
0
11
23.523150356612
21
4.99999745494018
31
0
210
0
220
0
230
-1
40
0.000213
41
0.597935471921703
42
1.22245887306937
0
ELLIPSE
5
17D
100
AcDbEntity
8
1
62
256
6
ByLayer
370
18
48
1
60
0
100
AcDbEllipse
10
286.586494
20
22.000242
30
0
11
0.003350877053632
21
4.99999973291137
31
0
210
0
220
0
230
-1
40
0.487732
41
-1.57112319289509
42
-0.599264267129868
0
ELLIPSE
5
17E
100
AcDbEntity
8
1
62
256
6
ByLayer
370
18
48
1
60
0
100
AcDbEllipse
10
276.677913
20
12.500242
30
0
11
-7.34763812295031E-17
21
1.20000000000262
31
0
210
0
220
0
230
-1
40
0.176327
41
-1.5707963267949
42
0
0
ELLIPSE
5
17F
100
AcDbEntity
8
1
62
256
6
ByLayer
370
18
48
1
60
0
100
AcDbEllipse
10
277.171629
20
12.799635
30
0
11
-1.22460635379498E-16
21
1.99999999995526
31
0
210
0
220
0
230
-1
40
0.176327
41
1.5707963267949
42
2.44346095281066
0
ELLIPSE
5
180
100
AcDbEntity
8
1
62
256
6
ByLayer
370
18
48
1
60
0
100
AcDbEllipse
10
285.118598
20
12.799635
30
0
11
0.00134035083777682
21
1.99999989318735
31
0
210
0
220
0
230
-1
40
0.487732
41
-2.44378781889882
42
-1.5711231929126
0
ELLIPSE
5
181
100
AcDbEntity
8
1
62
256
6
ByLayer
370
18
48
1
60
0
100
AcDbEllipse
10
287.801586
20
14.41745
30
0
11
8.49091292523163
21
8.49787209866719
31
0
210
0
220
0
230
-1
40
0.997855
41
-0.995501576419692
42
-0.896212991981157
0
ELLIPSE
5
182
100
AcDbEntity
8
1
62
256
6
ByLayer
370
18
48
1
60
0
100
AcDbEllipse
10
287.6399
20
20.727497
30
0
11
1.20282217523242
21
1.20380653217546
31
0
210
0
220
0
230
-1
40
0.997855
41
-1.62503156332924
42
-1.53503687077871
0
ELLIPSE
5
183
100
AcDbEntity
8
1
62
256
6
ByLayer
370
18
48
1
60
0
100
AcDbEllipse
10
287.010402
20
20.366358
30
0
11
1.1498117526815
21
1.15075287892717
31
0
210
0
220
0
230
-1
40
0.997855
41
-1.67224497233668
42
-1.1876392950217
0
ELLIPSE
5
184
100
AcDbEntity
8
1
62
256
6
ByLayer
370
18
48
1
60
0
100
AcDbEllipse
10
285.474156
20
19.604379
30
0
11
0.264096235237513
21
1.78910529005885
31
0
210
0
220
0
230
-1
40
0.446917
41
1.86221967441171
42
0.0167083569123287
0
ELLIPSE
5
185
100
AcDbEntity
8
1
62
256
6
ByLayer
370
18
48
1
60
0
100
AcDbEllipse
10
287.010402
20
20.366358
30
0
11
1.14981150659441
21
1.15075313103006
31
0
210
0
220
0
230
-1
40
0.997855
41
2.68643182405997
42
2.90328760722807
0
ELLIPSE
5
186
100
AcDbEntity
8
1
62
256
6
ByLayer
370
18
48
1
60
0
100
AcDbEllipse
10
285.529004
20
15.704394
30
0
11
0.304301519996842
21
1.86434664467747
31
0
210
0
220
0
230
-1
40
0.42564
41
0
42
6.28318530717959
0
ELLIPSE
5
187
100
AcDbEntity
8
1
62
256
6
ByLayer
370
18
48
1
60
0
100
AcDbEllipse
10
281.195619
20
25.286638
30
0
11
0.999999977244949
21
0.212556896399427
31
0
210
0
220
0
230
-1
40
0.001002
41
0.234296701224702
42
2.15569459354431
0
ELLIPSE
5
188
100
AcDbEntity
8
1
62
256
6
ByLayer
370
18
48
1
60
0
100
AcDbEllipse
10
150.229168
20
-2.562271
30
0
11
140.740027423732
21
29.9152013141533
31
0
210
0
220
0
230
-1
40
0.000213
41
-0.355469806538422
42
-0.28458374627427
0
ELLIPSE
5
189
100
AcDbEntity
8
1
62
256
6
ByLayer
370
18
48
1
60
0
100
AcDbEllipse
10
296.2994
20
2.800242
30
0
11
4.45322639928923
21
4.45322639928923
31
0
210
0
220
0
230
-1
40
1
41
-1.61071275656372
42
-1.52309690888177
0
ELLIPSE
5
18A
100
AcDbEntity
8
1
62
256
6
ByLayer
370
18
48
1
60
0
100
AcDbEllipse
10
296.523749
20
20.558113
30
0
11
0.197050051131128
21
-0.341300394971897
31
0
210
0
220
0
230
-1
40
0.489724
41
-0.579683664175923
42
0.195895847445606
0
ELLIPSE
5
18B
100
AcDbEntity
8
1
62
256
6
ByLayer
370
18
48
1
60
0
100
AcDbEllipse
10
293.954424
20
20.558113
30
0
11
0.197050051131152
21
0.341300394971893
31
0
210
0
220
0
230
-1
40
0.489724
41
2.94569680614406
42
-2.45276232932025
0
ELLIPSE
5
18C
100
AcDbEntity
8
1
62
256
6
ByLayer
370
18
48
1
60
0
100
AcDbEllipse
10
296.523749
20
19.074714
30
0
11
0.197050051131137
21
0.34130039497189
31
0
210
0
220
0
230
-1
40
0.489724
41
0.688831929566744
42
-2.94569741796938
0
ELLIPSE
5
18D
100
AcDbEntity
8
1
62
256
6
ByLayer
370
18
48
1
60
0
100
AcDbEllipse
10
293.954424
20
19.074714
30
0
11
0.197050051131134
21
-0.341300394971904
31
0
210
0
220
0
230
-1
40
0.489724
41
-0.195895235620381
42
2.56191096327502
0
ELLIPSE
5
18E
100
AcDbEntity
8
1
62
256
6
ByLayer
370
18
48
1
60
0
100
AcDbEllipse
10
295.239086
20
18.333015
30
0
11
0.394099999999977
21
3.98292851607936E-16
31
0
210
0
220
0
230
-1
40
0.489723
41
-0.195895541533044
42
-2.94569711205675
0
ELLIPSE
5
18F
100
AcDbEntity
8
1
62
256
6
ByLayer
370
18
48
1
60
0
100
AcDbEllipse
10
293.755786
20
19.816414
30
0
11
-2.41308549710329E-17
21
0.394099783913631
31
0
210
0
220
0
230
-1
40
0.489724
41
0.288932900941478
42
1.5707963267949
0
ELLIPSE
5
190
100
AcDbEntity
8
1
62
256
6
ByLayer
370
18
48
1
60
0
100
AcDbEllipse
10
296.722386
20
19.816414
30
0
11
-2.4130854970933E-17
21
0.394099783911999
31
0
210
0
220
0
230
-1
40
0.489724
41
-1.5707963267949
42
-0.288932900937501
0
ELLIPSE
5
191
100
AcDbEntity
8
1
62
256
6
ByLayer
370
18
48
1
60
0
100
AcDbEllipse
10
295.980736
20
18.531839
30
0
11
0.341300641153665
21
0.197049840826858
31
0
210
0
220
0
230
-1
40
0.489723
41
-1.57079663269893
42
-0.2889332068457
0
ELLIPSE
5
192
100
AcDbEntity
8
1
62
256
6
ByLayer
370
18
48
1
60
0
100
AcDbEllipse
10
294.497436
20
18.531839
30
0
11
0.341300641154345
21
-0.197049840827911
31
0
210
0
220
0
230
-1
40
0.489723
41
-2.85265944674412
42
-1.57079602089404
0
ELLIPSE
5
193
100
AcDbEntity
8
1
62
256
6
ByLayer
370
18
48
1
60
0
100
AcDbEllipse
10
294.497436
20
18.531839
30
0
11
0.341300641159134
21
-0.197049840824283
31
0
210
0
220
0
230
-1
40
0.489723
41
-1.57079602086317
42
-0.288932595019116
0
ELLIPSE
5
194
100
AcDbEntity
8
1
62
256
6
ByLayer
370
18
48
1
60
0
100
AcDbEllipse
10
300.005393
20
3.008928
30
0
11
0.232225961782175
21
-30.8639102305088
31
0
210
0
220
0
230
-1
40
0.104835
41
0.360429893903739
42
0.536852237560847
0
ELLIPSE
5
195
100
AcDbEntity
8
1
62
256
6
ByLayer
370
18
48
1
60
0
100
AcDbEllipse
10
146.226186
20
3.008928
30
0
11
145.202648804449
21
-30.7929956252191
31
0
210
0
220
0
230
-1
40
0.014402
41
-0.377714730293642
42
-0.30159595257951
0
ELLIPSE
5
196
100
AcDbEntity
8
1
62
256
6
ByLayer
370
18
48
1
60
0
100
AcDbEllipse
10
311.347829
20
3.008928
30
0
11
0.716369085922603
21
-30.8582715863512
31
0
210
0
220
0
230
-1
40
0.824217
41
0.856958941383513
42
0.966912690477818
0
ELLIPSE
5
197
100
AcDbEntity
8
1
62
256
6
ByLayer
370
18
48
1
60
0
100
AcDbEllipse
10
311.347829
20
3.008929
30
0
11
0.716368886622169
21
-30.8582717537207
31
0
210
0
220
0
230
-1
40
0.824217
41
0.555195142303872
42
0.640582490286915
0
ELLIPSE
5
198
100
AcDbEntity
8
1
62
256
6
ByLayer
370
18
48
1
60
0
100
AcDbEllipse
10
283.23808
20
3.008928
30
0
11
-1.88980761338866E-15
21
30.8639197810787
31
0
210
0
220
0
230
-1
40
0.141431
41
-2.69607169868101
42
-2.14798770238089
0
ELLIPSE
5
199
100
AcDbEntity
8
1
62
256
6
ByLayer
370
18
48
1
60
0
100
AcDbEllipse
10
287.43206
20
3.008935
30
0
11
5.71610487305705E-07
21
-30.8639273913418
31
0
210
0
220
0
230
-1
40
0.105104
41
-0.993604858460933
42
-0.947780900169415
0
ELLIPSE
5
19A
100
AcDbEntity
8
1
62
256
6
ByLayer
370
18
48
1
60
0
100
AcDbEllipse
10
294.888868
20
-18.829246
30
0
11
1.78639020034629
21
-1.90593659106519
31
0
210
0
220
0
230
-1
40
0.91763
41
2.77321154575917
42
-2.34560330651614
0
ELLIPSE
5
19B
100
AcDbEntity
8
1
62
256
6
ByLayer
370
18
48
1
60
0
100
AcDbEllipse
10
298.261408
20
-6.999769
30
0
11
0.368559127794669
21
-7.99299692153067
31
0
210
0
220
0
230
-1
40
0.907192
41
0.0197499937875847
42
0.0418064723543561
0
ELLIPSE
5
19C
100
AcDbEntity
8
1
62
256
6
ByLayer
370
18
48
1
60
0
100
AcDbEllipse
10
298.407706
20
-6.999756
30
0
11
0.0608869872031919
21
-7.99999736766357
31
0
210
0
220
0
230
-1
40
0.106586
41
-1.11951283458179
42
-0.0212452448291061
0
ELLIPSE
5
19D
100
AcDbEntity
8
1
62
256
6
ByLayer
370
18
48
1
60
0
100
AcDbEllipse
10
298.701586
20
-25.300286
30
0
11
0.406675944305683
21
-0.56410404496363
31
0
210
0
220
0
230
-1
40
0.51566
41
-0.620905684075293
42
0.0866121087968599
0
ELLIPSE
5
19E
100
AcDbEntity
8
1
62
256
6
ByLayer
370
18
48
1
60
0
100
AcDbEllipse
10
280.895619
20
-24.867161
30
0
11
0.999894382479473
21
-0.214100397270908
31
0
210
0
220
0
230
-1
40
0.067882
41
-0.738845694803789
42
2.14094757098472
0
ELLIPSE
5
19F
100
AcDbEntity
8
1
62
256
6
ByLayer
370
18
48
1
60
0
100
AcDbEllipse
10
264.941196
20
-21.999756
30
0
11
23.5230408444133
21
-4.98851019428208
31
0
210
0
220
0
230
-1
40
0.014402
41
0.615797537275459
42
1.19527618495481
0
ELLIPSE
5
1A0
100
AcDbEntity
8
1
62
256
6
ByLayer
370
18
48
1
60
0
100
AcDbEllipse
10
287.501586
20
-14.257624
30
0
11
8.85771825230238
21
9.36123168772711
31
0
210
0
220
0
230
-1
40
0.864814
41
2.42142966089703
42
2.52071824591107
0
ELLIPSE
5
1A1
100
AcDbEntity
8
1
62
256
6
ByLayer
370
18
48
1
60
0
100
AcDbEllipse
10
348.629706
20
0
30
0
11
82.1297063633262
21
8.30034888332239E-14
31
0
210
0
220
0
230
-1
40
0.304397
41
2.56857735761423
42
-2.9660706459295
0
ELLIPSE
5
1A2
100
AcDbEntity
8
1
62
256
6
ByLayer
370
18
48
1
60
0
100
AcDbEllipse
10
350.507876
20
0
30
0
11
83.9688138516858
21
-9.26284787252652
31
0
210
0
220
0
230
-1
40
0.276539
41
2.93755240698608
42
-2.97080780472028
0
ELLIPSE
5
1A3
100
AcDbEntity
8
1
62
256
6
ByLayer
370
18
48
1
60
0
100
AcDbEllipse
10
-1.056258
20
0
30
0
11
11.7092723497276
21
24.677186440938
31
0
210
0
220
0
230
-1
40
0.341999
41
0.167213071908997
42
1.08183270048923
0
ELLIPSE
5
1A4
100
AcDbEntity
8
1
62
256
6
ByLayer
370
18
48
1
60
0
100
AcDbEllipse
10
21.056258
20
0
30
0
11
11.7092723497308
21
-24.6771864409418
31
0
210
0
220
0
230
-1
40
0.341999
41
2.05975995310068
42
2.97437958168081
0
ELLIPSE
5
1A5
100
AcDbEntity
8
1
62
256
6
ByLayer
370
18
48
1
60
0
100
AcDbEllipse
10
-1.056258
20
0
30
0
11
11.7092723497304
21
-24.6771864409412
31
0
210
0
220
0
230
-1
40
0.341999
41
-1.08183270048913
42
-0.167213071908985
0
ELLIPSE
5
1A6
100
AcDbEntity
8
1
62
256
6
ByLayer
370
18
48
1
60
0
100
AcDbEllipse
10
21.056258
20
0
30
0
11
11.7092723497263
21
24.6771864409362
31
0
210
0
220
0
230
-1
40
0.341999
41
-2.97437958168078
42
-2.0597599531005
0
POINT
5
6C
100
AcDbEntity
8
80
62
256
6
ByLayer
370
13
48
1
60
0
100
AcDbPoint
10
0
20
0
30
0
39
0
210
0
220
0
230
1
50
360
0
POINT
5
6E
100
AcDbEntity
8
81
62
256
6
ByLayer
370
18
48
1
60
0
100
AcDbPoint
10
300.000937
20
27.482719
30
0
39
0
210
0
220
0
230
1
50
360
0
SPLINE
5
1A7
100
AcDbEntity
8
SK1
62
256
6
ByLayer
370
18
48
1
60
0
100
AcDbSpline
70
4
71
3
72
13
73
9
40
0
40
0
40
0
40
0
40
0.239456135732699
40
0.368359721896259
40
0.499998983985049
40
0.631638415255947
40
0.760542467762324
40
1
40
1
40
1
40
1
41
1
10
-2.19999999999999
20
-17.520098551796
30
0
41
1
10
-2.19909198642199
20
-17.4940410756899
30
0
41
1
10
-2.19103284106866
20
-17.4566684913668
30
0
41
1
10
-2.16563592203269
20
-17.4104493175481
30
0
41
1
10
-2.13886378679187
20
-17.3791677636996
30
0
41
1
10
-2.10627712749813
20
-17.3540003935064
30
0
41
1
10
-2.05884064234175
20
-17.3309565910454
30
0
41
1
10
-2.02111030873064
20
-17.3247843360228
30
0
41
1
10
-1.99503997793928
20
-17.3251859759625
30
0
0
SPLINE
5
1A8
100
AcDbEntity
8
SK1
62
256
6
ByLayer
370
18
48
1
60
0
100
AcDbSpline
70
4
71
3
72
13
73
9
40
0
40
0
40
0
40
0
40
0.23945753228309
40
0.368361584805051
40
0.500001016081932
40
0.631640278165591
40
0.76054386431401
40
1
40
1
40
1
40
1
41
1
10
-1.9950399779393
20
17.3251861589553
30
0
41
1
10
-2.02111030872967
20
17.3247845190151
30
0
41
1
10
-2.0588406423399
20
17.3309567740351
30
0
41
1
10
-2.10627712749677
20
17.3540005764862
30
0
41
1
10
-2.13886378679061
20
17.3791679466685
30
0
41
1
10
-2.16563592203174
20
17.4104495005039
30
0
41
1
10
-2.19103284106794
20
17.4566686743028
30
0
41
1
10
-2.19909198642127
20
17.4940412586115
30
0
41
1
10
-2.2
20
17.5200987347078
30
0
0
SPLINE
5
1A9
100
AcDbEntity
8
SK1
62
256
6
ByLayer
370
18
48
1
60
0
100
AcDbSpline
70
4
71
2
72
6
73
3
40
0
40
0
40
0
40
1
40
1
40
1
41
1
10
-28.5
20
-16.8542724489282
30
0
41
1
10
-15.3499999999286
20
-17.1845422635703
30
0
41
1
10
-2.19999999999999
20
-17.5148116792767
30
0
0
SPLINE
5
1AA
100
AcDbEntity
8
SK1
62
256
6
ByLayer
370
18
48
1
60
0
100
AcDbSpline
70
4
71
2
72
6
73
3
40
0
40
0
40
0
40
1
40
1
40
1
41
1
10
-2.2
20
17.5148117187522
30
0
41
1
10
-15.3499999999294
20
17.1845422725478
30
0
41
1
10
-28.5
20
16.854272429841
30
0
0
SPLINE
5
1AB
100
AcDbEntity
8
SK1
62
256
6
ByLayer
370
18
48
1
60
0
100
AcDbSpline
70
4
71
2
72
6
73
3
40
0
40
0
40
0
40
1
40
1
40
1
41
1
10
-1.99503997793928
20
-17.3199593099743
30
0
41
1
10
-1.19500843340704
20
-17.340052552406
30
0
41
1
10
-0.394976888875291
20
-17.3601457933935
30
0
0
SPLINE
5
1AC
100
AcDbEntity
8
SK1
62
256
6
ByLayer
370
18
48
1
60
0
100
AcDbSpline
70
4
71
2
72
6
73
3
40
0
40
0
40
0
40
1
40
1
40
1
41
1
10
-0.394976888875291
20
17.3601458189993
30
0
41
1
10
-1.19500843340704
20
17.3400525762132
30
0
41
1
10
-1.9950399779393
20
17.3199593319919
30
0
0
SPLINE
5
1AD
100
AcDbEntity
8
SK1
62
256
6
ByLayer
370
18
48
1
60
0
100
AcDbSpline
70
4
71
2
72
6
73
3
40
0
40
0
40
0
40
1
40
1
40
1
41
1
10
-30
20
-15.9924794145163
30
0
41
1
10
-29.2499999991495
20
-16.4254650261934
30
0
41
1
10
-28.5
20
-16.8584504491482
30
0
0
SPLINE
5
1AE
100
AcDbEntity
8
SK1
62
256
6
ByLayer
370
18
48
1
60
0
100
AcDbSpline
70
4
71
2
72
6
73
3
40
0
40
0
40
0
40
1
40
1
40
1
41
1
10
-28.5
20
16.8584505716142
30
0
41
1
10
-29.2499999991496
20
16.4254651505507
30
0
41
1
10
-30
20
15.99247954079
30
0
0
SPLINE
5
1AF
100
AcDbEntity
8
SK1
62
256
6
ByLayer
370
18
48
1
60
0
100
AcDbSpline
70
4
71
2
72
6
73
3
40
0
40
0
40
0
40
1
40
1
40
1
41
1
10
-0.394976888875291
20
-17.3596967958969
30
0
41
1
10
-0.305277226309712
20
-17.3671842624703
30
0
41
1
10
-0.258658740615658
20
-17.4310145299902
30
0
0
SPLINE
5
1B0
100
AcDbEntity
8
SK1
62
256
6
ByLayer
370
18
48
1
60
0
100
AcDbSpline
70
4
71
2
72
6
73
3
40
0
40
0
40
0
40
1
40
1
40
1
41
1
10
-0.258442643302431
20
17.4312381196178
30
0
41
1
10
-0.305123774552598
20
17.3672404580573
30
0
41
1
10
-0.394976888875291
20
17.3596982935393
30
0
0
SPLINE
5
1B1
100
AcDbEntity
8
1
62
256
6
ByLayer
370
18
48
1
60
0
100
AcDbSpline
70
4
71
3
72
16
73
12
40
0
40
0
40
0
40
0
40
0.0007520868410095
40
0.0007520868410095
40
0.27283947473015
40
0.27283947473015
40
0.541661429660377
40
0.541661429660377
40
0.747061689166783
40
0.747061689166783
40
1
40
1
40
1
40
1
41
1
10
271.40166351296
20
-1.90025274741782
30
0
41
1
10
271.401188337329
20
-1.90025329414027
30
0
41
1
10
271.400713010122
20
-1.90025356750152
30
0
41
1
10
271.228220488542
20
-1.90025356750152
30
0
41
1
10
271.085199300898
20
-1.86628243926606
30
0
41
1
10
270.857818826843
20
-1.73038915205001
30
0
41
1
10
270.776535296626
20
-1.62793545572424
30
0
41
1
10
270.689568580511
20
-1.39168360075809
30
0
41
1
10
270.66947899886
20
-1.22386574452889
30
0
41
1
10
270.66947899886
20
-0.700969863229318
30
0
41
1
10
270.66947899886
20
-0.412405012883994
30
0
41
1
10
270.66947899886
20
-0.123840162538613
30
0
0
SPLINE
5
1B2
100
AcDbEntity
8
1
62
256
6
ByLayer
370
18
48
1
60
0
100
AcDbSpline
70
4
71
3
72
18
73
14
40
0
40
0
40
0
40
0
40
0.191325435437366
40
0.191325435437366
40
0.382650870874736
40
0.382650870874736
40
0.536214707212624
40
0.536214707212624
40
0.690626528447002
40
0.690626528447002
40
0.845885455798056
40
0.845885455798056
40
1
40
1
40
1
40
1
41
1
10
270.474099411236
20
-1.86239222188885
30
0
41
1
10
270.38620749151
20
-2.10388621012112
30
0
41
1
10
270.23804682683
20
-2.29012309935109
30
0
41
1
10
269.818676809855
20
-2.55003612058414
30
0
41
1
10
269.57132383577
20
-2.61552601569798
30
0
41
1
10
269.055272707097
20
-2.61552601569798
30
0
41
1
10
268.841820902049
20
-2.57561811086299
30
0
41
1
10
268.446474308768
20
-2.41759795562763
30
0
41
1
10
268.294379802045
20
-2.31979820807453
30
0
41
1
10
268.080342496716
20
-2.08585049140487
30
0
41
1
10
267.999314071538
20
-1.94118475194767
30
0
41
1
10
267.889228582479
20
-1.59047385741422
30
0
41
1
10
267.862453796538
20
-1.37428784736852
30
0
41
1
10
267.862453796538
20
-1.12051450380238
30
0
0
SPLINE
5
1B3
100
AcDbEntity
8
1
62
256
6
ByLayer
370
18
48
1
60
0
100
AcDbSpline
70
4
71
3
72
8
73
4
40
0
40
0
40
0
40
0
40
1
40
1
40
1
40
1
41
1
10
270.1288097266
20
-0.123840162538613
30
0
41
1
10
269.566301440358
20
-0.123840162538613
30
0
41
1
10
269.003793154115
20
-0.123840162538613
30
0
41
1
10
268.441284867872
20
-0.123840162538613
30
0
0
SPLINE
5
1B4
100
AcDbEntity
8
1
62
256
6
ByLayer
370
18
48
1
60
0
100
AcDbSpline
70
4
71
3
72
8
73
4
40
0
40
0
40
0
40
0
40
1
40
1
40
1
40
1
41
1
10
272.191758642441
20
-0.123840162538613
30
0
41
1
10
271.697052694272
20
-0.123840162538613
30
0
41
1
10
271.202346746104
20
-0.123840162538613
30
0
41
1
10
270.707640797935
20
-0.123840162538613
30
0
0
SPLINE
5
1B5
100
AcDbEntity
8
1
62
256
6
ByLayer
370
18
48
1
60
0
100
AcDbSpline
70
4
71
3
72
18
73
14
40
0
40
0
40
0
40
0
40
0.144086644560488
40
0.144086644560488
40
0.28773106250512
40
0.28773106250512
40
0.456860780407677
40
0.456860780407677
40
0.627194363444235
40
0.627194363444235
40
0.795871414023978
40
0.795871414023978
40
1
40
1
40
1
40
1
41
1
10
268.599490323378
20
-1.7856462510523
30
0
41
1
10
268.661014667186
20
-1.8675086199446
30
0
41
1
10
268.752673383471
20
-1.93504507428077
30
0
41
1
10
268.990871069008
20
-2.04130284157117
30
0
41
1
10
269.129353039437
20
-2.06704814411955
30
0
41
1
10
269.468364729806
20
-2.06704814411955
30
0
41
1
10
269.627825784165
20
-2.02918679850689
30
0
41
1
10
269.897480235329
20
-1.87514857910327
30
0
41
1
10
269.991949451599
20
-1.770297056885
30
0
41
1
10
270.101904867491
20
-1.49942824640016
30
0
41
1
10
270.1288097266
20
-1.30368155419887
30
0
41
1
10
270.1288097266
20
-0.740536674860607
30
0
41
1
10
270.1288097266
20
-0.432188418699638
30
0
41
1
10
270.1288097266
20
-0.123840162538613
30
0
0
SPLINE
5
1B6
100
AcDbEntity
8
1
62
256
6
ByLayer
370
18
48
1
60
0
100
AcDbSpline
70
4
71
3
72
18
73
14
40
0
40
0
40
0
40
0
40
0.252026352812658
40
0.252026352812658
40
0.40561296454716
40
0.40561296454716
40
0.559855857535999
40
0.559855857535999
40
0.714098750524839
40
0.714098750524839
40
0.85720187902004
40
0.85720187902004
40
1
40
1
40
1
40
1
41
1
10
272.770589713776
20
0.405195396427871
30
0
41
1
10
272.770589713776
20
-0.0951883334263357
30
0
41
1
10
272.770589713776
20
-0.595572063280486
30
0
41
1
10
272.770589713776
20
-1.40089311725848
30
0
41
1
10
272.720365759647
20
-1.64648022393538
30
0
41
1
10
272.521557288443
20
-2.01564793602154
30
0
41
1
10
272.368798080745
20
-2.16016658873457
30
0
41
1
10
271.956961656889
20
-2.36891562940991
30
0
41
1
10
271.740998654135
20
-2.42110288957878
30
0
41
1
10
271.305305852068
20
-2.42110288957878
30
0
41
1
10
271.108176832112
20
-2.37505530707688
30
0
41
1
10
270.736915643464
20
-2.18901688887763
30
0
41
1
10
270.587103308026
20
-2.04965239072999
30
0
41
1
10
270.474099411236
20
-1.86239222188885
30
0
0
SPLINE
5
1B7
100
AcDbEntity
8
1
62
256
6
ByLayer
370
18
48
1
60
0
100
AcDbSpline
70
4
71
3
72
10
73
6
40
0
40
0
40
0
40
0
40
0.660338983050846
40
0.660338983050846
40
1
40
1
40
1
40
1
41
1
10
268.441284867872
20
-0.123840162538613
30
0
41
1
10
268.441284867872
20
-0.45606494295987
30
0
41
1
10
268.441284867872
20
-0.788289723381126
30
0
41
1
10
268.441284867872
20
-1.29140219886506
30
0
41
1
10
268.448818460991
20
-1.41112591337003
30
0
41
1
10
268.465141246083
20
-1.48070892692846
30
0
0
SPLINE
5
1B8
100
AcDbEntity
8
1
62
256
6
ByLayer
370
18
48
1
60
0
100
AcDbSpline
70
4
71
3
72
12
73
8
40
0
40
0
40
0
40
0
40
0.0182538727267861
40
0.0182538727267861
40
0.509126936363398
40
0.509126936363398
40
1
40
1
40
1
40
1
41
1
10
269.215053705536
20
-2.61526912562562
30
0
41
1
10
269.225629265554
20
-2.61544035175183
30
0
41
1
10
269.236239863095
20
-2.61552601569798
30
0
41
1
10
269.533162036695
20
-2.61552601569798
30
0
41
1
10
269.780515010779
20
-2.55003612058414
30
0
41
1
10
270.199885027755
20
-2.29012309935109
30
0
41
1
10
270.348045692435
20
-2.10388621012112
30
0
41
1
10
270.435937612161
20
-1.86239222188885
30
0
0
SPLINE
5
1B9
100
AcDbEntity
8
1
62
256
6
ByLayer
370
18
48
1
60
0
100
AcDbSpline
70
4
71
3
72
22
73
18
40
0
40
0
40
0
40
0
40
0.125919801008139
40
0.125919801008139
40
0.22817382381262
40
0.22817382381262
40
0.362000949327635
40
0.362000949327635
40
0.497453699158071
40
0.497453699158071
40
0.624996799363375
40
0.624996799363375
40
0.75357703132643
40
0.75357703132643
40
0.88119435172458
40
0.88119435172458
40
1
40
1
40
1
40
1
41
1
10
270.707640797935
20
-0.123840162538613
30
0
41
1
10
270.707640797935
20
-0.412405012883994
30
0
41
1
10
270.707640797935
20
-0.700969863229318
30
0
41
1
10
270.707640797935
20
-1.22386574452889
30
0
41
1
10
270.727730379586
20
-1.39168360075809
30
0
41
1
10
270.814697095702
20
-1.62793545572424
30
0
41
1
10
270.895980625918
20
-1.73038915205001
30
0
41
1
10
271.123361099974
20
-1.86628243926606
30
0
41
1
10
271.266382287618
20
-1.90025356750152
30
0
41
1
10
271.600371582575
20
-1.90025356750152
30
0
41
1
10
271.744765450695
20
-1.86853189955576
30
0
41
1
10
271.991863410838
20
-1.74112933080636
30
0
41
1
10
272.077499146798
20
-1.65057334238003
30
0
41
1
10
272.167563758824
20
-1.41406139633881
30
0
41
1
10
272.191758642441
20
-1.21056310958392
30
0
41
1
10
272.191758642441
20
-0.657309933153442
30
0
41
1
10
272.191758642441
20
-0.390575047846028
30
0
41
1
10
272.191758642441
20
-0.123840162538613
30
0
0
SPLINE
5
1BA
100
AcDbEntity
8
1
62
256
6
ByLayer
370
18
48
1
60
0
100
AcDbSpline
70
4
71
3
72
8
73
4
40
0
40
0
40
0
40
0
40
1
40
1
40
1
40
1
41
1
10
267.862453796538
20
-1.12051450380238
30
0
41
1
10
267.862453796538
20
-0.611944537058946
30
0
41
1
10
267.862453796538
20
-0.103374570315566
30
0
41
1
10
267.862453796538
20
0.405195396427871
30
0
0
SPLINE
5
1BB
100
AcDbEntity
8
1
62
256
6
ByLayer
370
18
48
1
60
0
100
AcDbSpline
70
4
71
3
72
16
73
12
40
0
40
0
40
0
40
0
40
0.0375825643398235
40
0.0375825643398235
40
0.245461445839088
40
0.245461445839088
40
0.453340327338352
40
0.453340327338352
40
0.660334714191174
40
0.660334714191174
40
1
40
1
40
1
40
1
41
1
10
271.355669792965
20
-2.41584975340208
30
0
41
1
10
271.39558563285
20
-2.41935436806995
30
0
41
1
10
271.435968958798
20
-2.42110288957878
30
0
41
1
10
271.70283685506
20
-2.42110288957878
30
0
41
1
10
271.918799857814
20
-2.36891562940991
30
0
41
1
10
272.33063628167
20
-2.16016658873457
30
0
41
1
10
272.483395489368
20
-2.01564793602154
30
0
41
1
10
272.682203960572
20
-1.64648022393538
30
0
41
1
10
272.732427914701
20
-1.40089311725848
30
0
41
1
10
272.732427914701
20
-0.595572063280486
30
0
41
1
10
272.732427914701
20
-0.0951883334263357
30
0
41
1
10
272.732427914701
20
0.405195396427871
30
0
0
SPLINE
5
1BC
100
AcDbEntity
8
1
62
256
6
ByLayer
370
18
48
1
60
0
100
AcDbSpline
70
4
71
3
72
8
73
4
40
0
40
0
40
0
40
0
40
1
40
1
40
1
40
1
41
1
10
267.862453796538
20
0.405195396427871
30
0
41
1
10
269.498499102284
20
0.405195396427871
30
0
41
1
10
271.13454440803
20
0.405195396427871
30
0
41
1
10
272.770589713776
20
0.405195396427871
30
0
0
SPLINE
5
1BD
100
AcDbEntity
8
1
62
256
6
ByLayer
370
18
48
1
60
0
100
AcDbSpline
70
4
71
3
72
8
73
4
40
0
40
0
40
0
40
0
40
1
40
1
40
1
40
1
41
1
10
268.465141246083
20
-1.48070892692846
30
0
41
1
10
268.491508822001
20
-1.60247920065581
30
0
41
1
10
268.536710380717
20
-1.70378388216
30
0
41
1
10
268.599490323378
20
-1.7856462510523
30
0
0
SPLINE
5
1BE
100
AcDbEntity
8
1
62
256
6
ByLayer
370
18
48
1
60
0
100
AcDbSpline
70
4
71
3
72
8
73
4
40
0
40
0
40
0
40
0
40
1
40
1
40
1
40
1
41
1
10
268.561328524303
20
-1.7856462510523
30
0
41
1
10
268.498548581642
20
-1.70378388216
30
0
41
1
10
268.453347022926
20
-1.60247920065581
30
0
41
1
10
268.426979447008
20
-1.48070892692846
30
0
0
SPLINE
5
1BF
100
AcDbEntity
8
1
62
256
6
ByLayer
370
18
48
1
60
0
100
AcDbSpline
70
4
71
3
72
10
73
6
40
0
40
0
40
0
40
0
40
0.398150157182247
40
0.398150157182247
40
1
40
1
40
1
40
1
41
1
10
269.095683596066
20
-2.05824747141242
30
0
41
1
10
269.000229671842
20
-2.04663573157956
30
0
41
1
10
268.912703695732
20
-2.02345672781024
30
0
41
1
10
268.714511584396
20
-1.93504507428077
30
0
41
1
10
268.62285286811
20
-1.8675086199446
30
0
41
1
10
268.561328524303
20
-1.7856462510523
30
0
0
SPLINE
5
1C0
100
AcDbEntity
8
1
62
256
6
ByLayer
370
18
48
1
60
0
100
AcDbSpline
70
4
71
3
72
10
73
6
40
0
40
0
40
0
40
0
40
0.339661016949154
40
0.339661016949154
40
1
40
1
40
1
40
1
41
1
10
268.426979447008
20
-1.48070892692846
30
0
41
1
10
268.410656661916
20
-1.41112591337003
30
0
41
1
10
268.403123068797
20
-1.29140219886506
30
0
41
1
10
268.403123068797
20
-0.788289723381126
30
0
41
1
10
268.403123068797
20
-0.45606494295987
30
0
41
1
10
268.403123068797
20
-0.123840162538613
30
0
0
SPLINE
5
1C1
100
AcDbEntity
8
SK1
62
256
6
ByLayer
370
18
48
1
60
0
100
AcDbSpline
70
4
71
3
72
103
73
99
40
0
40
0
40
0
40
0
40
0.0079700778397191
40
0.0168024510092201
40
0.0256348241787211
40
0.0344671973482222
40
0.0432995705177232
40
0.0521319436872242
40
0.0609643168567253
40
0.0697966900262263
40
0.0786290631957273
40
0.0874614363652284
40
0.105126182704231
40
0.113958555873732
40
0.122790929043232
40
0.131623302212734
40
0.140455675382235
40
0.158120421721237
40
0.166952794890738
40
0.175785168060239
40
0.193449914399241
40
0.202282287568742
40
0.211114660738243
40
0.228779407077245
40
0.237611780246746
40
0.246444153416247
40
0.255276526585748
40
0.264108899755249
40
0.27294127292475
40
0.281773646094251
40
0.290606019263752
40
0.299438392433253
40
0.317103138772255
40
0.325935511941756
40
0.334767885111257
40
0.343600258280758
40
0.352432631450259
40
0.370097377789261
40
0.378929750958763
40
0.383345937543513
40
0.387762124128264
40
0.396594497297765
40
0.405426870467266
40
0.423091616806268
40
0.431923989975769
40
0.44075636314527
40
0.449588736314771
40
0.458421109484272
40
0.476085855823274
40
0.484918228992775
40
0.493750602162276
40
0.502582975331777
40
0.511415348501278
40
0.52908009484028
40
0.537912468009781
40
0.546744841179282
40
0.555577214348783
40
0.564409587518284
40
0.582074333857286
40
0.590906707026787
40
0.599739080196288
40
0.608571453365789
40
0.617403826535291
40
0.635068572874293
40
0.643900946043794
40
0.652733319213295
40
0.670398065552297
40
0.688062811891299
40
0.6968951850608
40
0.705727558230301
40
0.723392304569303
40
0.732224677738804
40
0.741057050908305
40
0.749889424077806
40
0.758721797247307
40
0.767554170416808
40
0.776386543586309
40
0.794051289925311
40
0.811716036264313
40
0.820548409433814
40
0.829380782603315
40
0.838213155772816
40
0.847045528942317
40
0.855877902111818
40
0.864710275281319
40
0.882375021620322
40
0.900039767959324
40
0.917704514298326
40
0.926536887467827
40
0.935369260637328
40
0.944201633806829
40
0.95303400697633
40
0.961866380145831
40
0.970698753315332
40
0.979531126484833
40
0.988363499654334
40
0.997195872823835
40
1
40
1
40
1
40
1
41
1
10
-0.394976888875306
20
-17.3601928955998
30
0
41
1
10
-0.394976888875291
20
-17.3586442947252
30
0
41
1
10
-0.394976888875306
20
-17.3546578463237
30
0
41
1
10
-0.394976888875291
20
-17.3462909802274
30
0
41
1
10
-0.394976888875291
20
-17.3352007360526
30
0
41
1
10
-0.394976888875291
20
-17.3217086355548
30
0
41
1
10
-0.394976888875291
20
-17.3058521626298
30
0
41
1
10
-0.394976888875291
20
-17.2876678382251
30
0
41
1
10
-0.394976888875291
20
-17.2671905287463
30
0
41
1
10
-0.394976888875291
20
-17.2444531170066
30
0
41
1
10
-0.394976888875291
20
-17.2194882612007
30
0
41
1
10
-0.394976888875291
20
-17.1832568369982
30
0
41
1
10
-0.394976888875291
20
-17.1427382787905
30
0
41
1
10
-0.394976888875291
20
-17.0979462837243
30
0
41
1
10
-0.394976888875291
20
-17.0622798511847
30
0
41
1
10
-0.394976888875291
20
-17.024552403858
30
0
41
1
10
-0.394976888875291
20
-16.9715145305624
30
0
41
1
10
-0.394976888875291
20
-16.9145141001581
30
0
41
1
10
-0.394976888875291
20
-16.8535135500206
30
0
41
1
10
-0.394976888875291
20
-16.7899145981056
30
0
41
1
10
-0.394976888875291
20
-16.7225357579898
30
0
41
1
10
-0.394976888875291
20
-16.6513062771914
30
0
41
1
10
-0.394976888875291
20
-16.5775834628441
30
0
41
1
10
-0.394976888875291
20
-16.5002370830775
30
0
41
1
10
-0.394976888875291
20
-16.4191737297992
30
0
41
1
10
-0.394976888875291
20
-16.3565947902754
30
0
41
1
10
-0.394976888875291
20
-16.2922298358683
30
0
41
1
10
-0.394976888875291
20
-16.2260943811825
30
0
41
1
10
-0.394976888875291
20
-16.1582019472912
30
0
41
1
10
-0.394976888875291
20
-16.0885678110445
30
0
41
1
10
-0.394976888875291
20
-16.0172057969154
30
0
41
1
10
-0.394976888875291
20
-15.9197362187748
30
0
41
1
10
-0.394976888875291
20
-15.8189643831875
30
0
41
1
10
-0.394976888875291
20
-15.7147364921469
30
0
41
1
10
-0.394976888875291
20
-15.6349267624759
30
0
41
1
10
-0.394976888875291
20
-15.5534637367265
30
0
41
1
10
-0.394976888875291
20
-15.4426196109061
30
0
41
1
10
-0.394976888875291
20
-15.3286250474484
30
0
41
1
10
-0.394976888875291
20
-15.2259771214207
30
0
41
1
10
-0.394976888875291
20
-15.1665127141503
30
0
41
1
10
-0.394976888875291
20
-15.1065165223896
30
0
41
1
10
-0.394976888875291
20
-15.0305708978545
30
0
41
1
10
-0.394976888875291
20
-14.9068780878822
30
0
41
1
10
-0.394976888875291
20
-14.7801642532389
30
0
41
1
10
-0.394976888875291
20
-14.6502180419884
30
0
41
1
10
-0.394976888875291
20
-14.5512443837086
30
0
41
1
10
-0.394976888875291
20
-14.4507333681675
30
0
41
1
10
-0.394976888875291
20
-14.3146351237356
30
0
41
1
10
-0.394976888875291
20
-14.1756274475866
30
0
41
1
10
-0.394976888875291
20
-14.0334711580348
30
0
41
1
10
-0.394976888875291
20
-13.9253889718329
30
0
41
1
10
-0.394976888875291
20
-13.8158144768541
30
0
41
1
10
-0.394976888875291
20
-13.6676860552913
30
0
41
1
10
-0.394976888875291
20
-13.5167448476072
30
0
41
1
10
-0.394976888875291
20
-13.3627236547322
30
0
41
1
10
-0.394976888875291
20
-13.2457849051211
30
0
41
1
10
-0.394976888875291
20
-13.1273919665529
30
0
41
1
10
-0.394976888875291
20
-12.9675509360494
30
0
41
1
10
-0.394976888875291
20
-12.8049814458532
30
0
41
1
10
-0.394976888875291
20
-12.6393872302303
30
0
41
1
10
-0.394976888875291
20
-12.5138050519686
30
0
41
1
10
-0.394976888875291
20
-12.3868007979199
30
0
41
1
10
-0.394976888875291
20
-12.2155153161813
30
0
41
1
10
-0.394976888875291
20
-12.0415756040849
30
0
41
1
10
-0.394976888875291
20
-11.8646543496781
30
0
41
1
10
-0.394976888875291
20
-11.685867652055
30
0
41
1
10
-0.394976888875291
20
-11.4590305143918
30
0
41
1
10
-0.394976888875291
20
-11.2275701299333
30
0
41
1
10
-0.394976888875291
20
-11.0395280782787
30
0
41
1
10
-0.394976888875291
20
-10.8496518506122
30
0
41
1
10
-0.394976888875291
20
-10.6572263081633
30
0
41
1
10
-0.394976888875291
20
-10.4618684189216
30
0
41
1
10
-0.394976888875291
20
-10.3140380843155
30
0
41
1
10
-0.394976888875291
20
-10.1648480067744
30
0
41
1
10
-0.394976888875291
20
-10.0143015815252
30
0
41
1
10
-0.394976888875291
20
-9.86240080704215
30
0
41
1
10
-0.394976888875291
20
-9.65799296546987
30
0
41
1
10
-0.394976888875291
20
-9.39928045092245
30
0
41
1
10
-0.394976888875291
20
-9.1360908691222
30
0
41
1
10
-0.394976888875291
20
-8.922721214403
30
0
41
1
10
-0.394976888875291
20
-8.76141979186252
30
0
41
1
10
-0.394976888875291
20
-8.59878513137221
30
0
41
1
10
-0.394976888875291
20
-8.43482035476103
30
0
41
1
10
-0.394976888875291
20
-8.2695273659856
30
0
41
1
10
-0.394976888875291
20
-8.04728288344245
30
0
41
1
10
-0.394976888875291
20
-7.76637138106327
30
0
41
1
10
-0.394976888875291
20
-7.42389186204957
30
0
41
1
10
-0.394976888875291
20
-7.13420903787926
30
0
41
1
10
-0.394976888875291
20
-6.89966740060396
30
0
41
1
10
-0.394976888875291
20
-6.7225343094135
30
0
41
1
10
-0.394976888875291
20
-6.54409937286442
30
0
41
1
10
-0.394976888875291
20
-6.3643662218949
30
0
41
1
10
-0.394976888875291
20
-6.18333830919045
30
0
41
1
10
-0.394976888875291
20
-6.00101977124672
30
0
41
1
10
-0.394976888875291
20
-5.81741451623537
30
0
41
1
10
-0.394976888875291
20
-5.63252719489225
30
0
41
1
10
-0.394976888875291
20
-5.48871660168982
30
0
41
1
10
-0.394976888875291
20
-5.40659307656728
30
0
41
1
10
-0.394976888875291
20
-5.38678189578286
30
0
0
SPLINE
5
1C2
100
AcDbEntity
8
SK1
62
256
6
ByLayer
370
18
48
1
60
0
100
AcDbSpline
70
4
71
3
72
24
73
20
40
0
40
0
40
0
40
0
40
0.469770575826713
40
0.469770575826713
40
0.663612078687298
40
0.663612078687298
40
0.860454184613418
40
0.860454184613418
40
0.903064590395678
40
0.903064590395678
40
0.923089343972162
40
0.923089343972162
40
0.943389594779289
40
0.943389594779289
40
0.961332284531899
40
0.961332284531899
40
0.988068136377815
40
0.988068136377815
40
1
40
1
40
1
40
1
41
1
10
-0.199999999999989
20
-6.10344849123027
30
0
41
1
10
-0.199999999999989
20
-5.97798788494981
30
0
41
1
10
-0.204016575726513
20
-5.85096356701223
30
0
41
1
10
-0.223752631922082
20
-5.67079358995505
30
0
41
1
10
-0.231244965282229
20
-5.61789623093802
30
0
41
1
10
-0.253819137983143
20
-5.51250015101135
30
0
41
1
10
-0.267096215270371
20
-5.45724004647025
30
0
41
1
10
-0.303692478692526
20
-5.40035311573848
30
0
41
1
10
-0.311479622041318
20
-5.39039941672757
30
0
41
1
10
-0.325477757614365
20
-5.37891036834912
30
0
41
1
10
-0.330455622185014
20
-5.3756771312581
30
0
41
1
10
-0.341078704143143
20
-5.37102422840917
30
0
41
1
10
-0.346883276538151
20
-5.36960762575524
30
0
41
1
10
-0.357630415747778
20
-5.36914354197148
30
0
41
1
10
-0.362713068049587
20
-5.36981917830479
30
0
41
1
10
-0.374583401808834
20
-5.37316903610406
30
0
41
1
10
-0.3812109954861
20
-5.37664910167558
30
0
41
1
10
-0.38989246528871
20
-5.38265091141972
30
0
41
1
10
-0.392483363308571
20
-5.38466360919148
30
0
41
1
10
-0.394976888875334
20
-5.38678189578178
30
0
0
SPLINE
5
1C3
100
AcDbEntity
8
SK1
62
256
6
ByLayer
370
18
48
1
60
0
100
AcDbSpline
70
4
71
3
72
22
73
18
40
0
40
0
40
0
40
0
40
0.359503326352592
40
0.359503326352592
40
0.722215553677066
40
0.722215553677066
40
0.826527133697721
40
0.826527133697721
40
0.863141914878009
40
0.863141914878009
40
0.900378805007222
40
0.900378805007222
40
0.933500873078508
40
0.933500873078508
40
0.972947835056124
40
0.972947835056124
40
1
40
1
40
1
40
1
41
1
10
-1.30710678118655
20
3.91806548153784
30
0
41
1
10
-1.26486058419175
20
4.15139729989579
30
0
41
1
10
-1.21446435132795
20
4.3814323255595
30
0
41
1
10
-1.08204001032738
20
4.82987250608483
30
0
41
1
10
-1.00537527699572
20
5.05527264511534
30
0
41
1
10
-0.832356114396674
20
5.30654108347397
30
0
41
1
10
-0.78723829488635
20
5.36152992388782
30
0
41
1
10
-0.709490490588578
20
5.41877880440927
30
0
41
1
10
-0.687203973712826
20
5.43218986569764
30
0
41
1
10
-0.639076749164033
20
5.45244590583036
30
0
41
1
10
-0.612446414061694
20
5.45928056674791
30
0
41
1
10
-0.562058433231044
20
5.46233960302249
30
0
41
1
10
-0.537713914852588
20
5.45964677314572
30
0
41
1
10
-0.48805385269695
20
5.4462870125007
30
0
41
1
10
-0.462609559288765
20
5.43420976008088
30
0
41
1
10
-0.423860760477325
20
5.40985221311718
30
0
41
1
10
-0.408979654247759
20
5.39867780521598
30
0
41
1
10
-0.394976888875405
20
5.3867822332395
30
0
0
SPLINE
5
1C4
100
AcDbEntity
8
SK1
62
256
6
ByLayer
370
18
48
1
60
0
100
AcDbSpline
70
4
71
3
72
22
73
18
40
0
40
0
40
0
40
0
40
0.0394331151890913
40
0.0394331151890913
40
0.0795339708694829
40
0.0795339708694829
40
0.109637917244288
40
0.109637917244288
40
0.13957706301322
40
0.13957706301322
40
0.189266399657458
40
0.189266399657458
40
0.289571152403382
40
0.289571152403382
40
0.658284396834382
40
0.658284396834382
40
1
40
1
40
1
40
1
41
1
10
-0.394976888875291
20
-5.38678189578292
30
0
41
1
10
-0.415237014773382
20
-5.40399317028476
30
0
41
1
10
-0.437419275645468
20
-5.41977813092007
30
0
41
1
10
-0.486103141154984
20
-5.44521655864725
30
0
41
1
10
-0.51341298093098
20
-5.45496005292574
30
0
41
1
10
-0.562874322366525
20
-5.46212264681105
30
0
41
1
10
-0.585106616517606
20
-5.46199323188387
30
0
41
1
10
-0.627692822126718
20
-5.45533455005085
30
0
41
1
10
-0.648523068172722
20
-5.44883772858987
30
0
41
1
10
-0.699826196362139
20
-5.42613682765011
30
0
41
1
10
-0.728695564403452
20
-5.40623396070794
30
0
41
1
10
-0.806075449923839
20
-5.34007786619355
30
0
41
1
10
-0.847522380016557
20
-5.28655870152033
30
0
41
1
10
-1.01570466784385
20
-5.03084699030376
30
0
41
1
10
-1.09210771407481
20
-4.80149729085088
30
0
41
1
10
-1.21929875138234
20
-4.35887826398971
30
0
41
1
10
-1.26692602208389
20
-4.13998960128646
30
0
41
1
10
-1.30710678118655
20
-3.91806548057696
30
0
0
SPLINE
5
1C5
100
AcDbEntity
8
SK1
62
256
6
ByLayer
370
18
48
1
60
0
100
AcDbSpline
70
4
71
3
72
22
73
18
40
0
40
0
40
0
40
0
40
0.0260455644157255
40
0.0260455644157255
40
0.0526262165848573
40
0.0526262165848573
40
0.0706056579866949
40
0.0706056579866949
40
0.0884949509195831
40
0.0884949509195831
40
0.117489218732023
40
0.117489218732023
40
0.174590867319722
40
0.174590867319722
40
0.376524252937452
40
0.376524252937452
40
1
40
1
40
1
40
1
41
1
10
-0.394976888872947
20
5.38678223324206
30
0
41
1
10
-0.389612432086423
20
5.38222504185001
30
0
41
1
10
-0.383763200778972
20
5.3781170044989
30
0
41
1
10
-0.370972888875414
20
5.37184824531647
30
0
41
1
10
-0.363785592650899
20
5.36968256852498
30
0
41
1
10
-0.351475656346565
20
5.3691458249703
30
0
41
1
10
-0.346317238365032
20
5.36979468027801
30
0
41
1
10
-0.336550133197363
20
5.3727304206256
30
0
41
1
10
-0.33182986596411
20
5.37502411826847
30
0
41
1
10
-0.320511111438336
20
5.38234306083376
30
0
41
1
10
-0.31432144813617
20
5.38824406879633
30
0
41
1
10
-0.298260159254525
20
5.40702817233921
30
0
41
1
10
-0.290032841564667
20
5.42147709180324
30
0
41
1
10
-0.258449669573651
20
5.48745345024412
30
0
41
1
10
-0.24608390551893
20
5.5434138926733
30
0
41
1
10
-0.204764795451908
20
5.7670899064446
30
0
41
1
10
-0.200000000000358
20
5.93709576978205
30
0
41
1
10
-0.200000000000358
20
6.10344667966001
30
0
0
SPLINE
5
1C6
100
AcDbEntity
8
SK1
62
256
6
ByLayer
370
18
48
1
60
0
100
AcDbSpline
70
4
71
3
72
10
73
6
40
0
40
0
40
0
40
0
40
0.5
40
0.5
40
1
40
1
40
1
40
1
41
1
10
-1.30710678118655
20
3.91806548153784
30
0
41
1
10
-1.53227959010833
20
2.67440369212437
30
0
41
1
10
-1.71681589069691
20
1.34075776539186
30
0
41
1
10
-1.71598271729604
20
-1.35050010337164
30
0
41
1
10
-1.53230696904969
20
-2.6742524020969
30
0
41
1
10
-1.30710678118655
20
-3.91806548057696
30
0
0
SPLINE
5
1C7
100
AcDbEntity
8
SK1
62
256
6
ByLayer
370
18
48
1
60
0
100
AcDbSpline
70
4
71
3
72
284
73
280
40
0
40
0
40
0
40
0
40
0.0001143368034694
40
0.0036847465516763
40
0.0072551562998832
40
0.0108255660480901
40
0.014395975796297
40
0.0179663855445039
40
0.0215367952927108
40
0.0251072050409177
40
0.0286776147891246
40
0.0322480245373315
40
0.0358184342855384
40
0.0429592537819522
40
0.0465296635301591
40
0.050100073278366
40
0.0536704830265729
40
0.0572408927747798
40
0.0643817122711936
40
0.0679521220194005
40
0.0715225317676074
40
0.0786633512640212
40
0.0822337610122281
40
0.085804170760435
40
0.0929449902568488
40
0.0965154000050557
40
0.100085809753263
40
0.103656219501469
40
0.107226629249676
40
0.110797038997883
40
0.11436744874609
40
0.117937858494297
40
0.121508268242504
40
0.128649087738918
40
0.132219497487125
40
0.135789907235331
40
0.139360316983539
40
0.142930726731745
40
0.150071546228159
40
0.153641955976366
40
0.15542716085047
40
0.157212365724573
40
0.16078277547278
40
0.164353185220987
40
0.171494004717401
40
0.175064414465607
40
0.178634824213814
40
0.182205233962021
40
0.185775643710228
40
0.192916463206642
40
0.196486872954849
40
0.200057282703056
40
0.203627692451263
40
0.207198102199469
40
0.214338921695883
40
0.21790933144409
40
0.221479741192297
40
0.225050150940504
40
0.228620560688711
40
0.235761380185125
40
0.239331789933332
40
0.242902199681539
40
0.246472609429745
40
0.250043019177952
40
0.257183838674366
40
0.260754248422573
40
0.26432465817078
40
0.271465477667194
40
0.278606297163608
40
0.282176706911814
40
0.285747116660021
40
0.292887936156435
40
0.296458345904642
40
0.300028755652849
40
0.303599165401056
40
0.307169575149263
40
0.31073998489747
40
0.314310394645676
40
0.32145121414209
40
0.328592033638504
40
0.332162443386711
40
0.335732853134918
40
0.339303262883125
40
0.342873672631332
40
0.346444082379539
40
0.350014492127745
40
0.357155311624159
40
0.364296131120573
40
0.371436950616987
40
0.375007360365194
40
0.378577770113401
40
0.382148179861607
40
0.385718589609814
40
0.389288999358021
40
0.392859409106228
40
0.396429818854435
40
0.400000228602642
40
0.403570638350849
40
0.407141048099056
40
0.410711457847263
40
0.41428186759547
40
0.417852277343677
40
0.421422687091883
40
0.42499309684009
40
0.428563506588297
40
0.432133916336504
40
0.433919121210607
40
0.435704326084711
40
0.437489530958814
40
0.439274735832918
40
0.442845145581125
40
0.446415555329332
40
0.448200760203435
40
0.449985965077539
40
0.453556374825746
40
0.455341579699849
40
0.457126784573952
40
0.458911989448056
40
0.460697194322159
40
0.462482399196263
40
0.464267604070366
40
0.46605280894447
40
0.467838013818573
40
0.469623218692676
40
0.47140842356678
40
0.473193628440883
40
0.474978833314987
40
0.47676403818909
40
0.478549243063194
40
0.480334447937297
40
0.482119652811401
40
0.483904857685504
40
0.485690062559608
40
0.487475267433711
40
0.489260472307814
40
0.491045677181918
40
0.492830882056021
40
0.494616086930125
40
0.496401291804228
40
0.498186496678332
40
0.499971701552435
40
0.501756906426539
40
0.503542111300642
40
0.505327316174746
40
0.507112521048849
40
0.508897725922952
40
0.510682930797056
40
0.512468135671159
40
0.514253340545263
40
0.516038545419366
40
0.51782375029347
40
0.519608955167573
40
0.521394160041677
40
0.52317936491578
40
0.524964569789883
40
0.526749774663987
40
0.52853497953809
40
0.530320184412194
40
0.532105389286297
40
0.533890594160401
40
0.535675799034504
40
0.537461003908608
40
0.539246208782711
40
0.542816618530918
40
0.544601823405021
40
0.546387028279125
40
0.548172233153228
40
0.549957438027332
40
0.551742642901435
40
0.553527847775539
40
0.557098257523746
40
0.560668667271952
40
0.562453872146056
40
0.564239077020159
40
0.566024281894263
40
0.567809486768366
40
0.571379896516573
40
0.57495030626478
40
0.578520716012987
40
0.582091125761194
40
0.585661535509401
40
0.589231945257608
40
0.592802355005815
40
0.596372764754021
40
0.599943174502228
40
0.603513584250435
40
0.607083993998642
40
0.610654403746849
40
0.614224813495056
40
0.617795223243263
40
0.62136563299147
40
0.624936042739677
40
0.628506452487884
40
0.635647271984297
40
0.642788091480711
40
0.649928910977125
40
0.653499320725332
40
0.657069730473539
40
0.660640140221746
40
0.664210549969952
40
0.667780959718159
40
0.671351369466366
40
0.67849218896278
40
0.685633008459194
40
0.689203418207401
40
0.692773827955608
40
0.696344237703814
40
0.699914647452021
40
0.703485057200228
40
0.707055466948435
40
0.714196286444849
40
0.717766696193056
40
0.721337105941263
40
0.728477925437677
40
0.735618744934091
40
0.739189154682297
40
0.742759564430504
40
0.749900383926918
40
0.753470793675125
40
0.757041203423332
40
0.760611613171539
40
0.764182022919746
40
0.771322842416159
40
0.774893252164366
40
0.778463661912573
40
0.78203407166078
40
0.785604481408987
40
0.792745300905401
40
0.796315710653608
40
0.799886120401815
40
0.803456530150022
40
0.807026939898228
40
0.814167759394642
40
0.817738169142849
40
0.821308578891056
40
0.824878988639263
40
0.82844939838747
40
0.835590217883884
40
0.83916062763209
40
0.842731037380297
40
0.846301447128504
40
0.849871856876711
40
0.857012676373125
40
0.860583086121332
40
0.864153495869539
40
0.867723905617746
40
0.871294315365952
40
0.878435134862366
40
0.882005544610573
40
0.88557595435878
40
0.889146364106987
40
0.892716773855194
40
0.896287183603401
40
0.899857593351608
40
0.903428003099815
40
0.906998412848022
40
0.914139232344435
40
0.917709642092642
40
0.921280051840849
40
0.928420871337263
40
0.93199128108547
40
0.935561690833677
40
0.942702510330091
40
0.946272920078297
40
0.949843329826504
40
0.953413739574711
40
0.956984149322918
40
0.964124968819332
40
0.967695378567539
40
0.971265788315746
40
0.974836198063953
40
0.978406607812159
40
0.981977017560366
40
0.985547427308573
40
0.98911783705678
40
0.992688246804987
40
0.996258656553194
40
0.999829066301401
40
1
40
1
40
1
40
1
41
1
10
-1.99503997793928
20
-17.3206505183984
30
0
41
1
10
-1.99503997793928
20
-17.3205991713197
30
0
41
1
10
-1.9950399779393
20
-17.3189305069685
30
0
41
1
10
-1.99503997793928
20
-17.3147637210185
30
0
41
1
10
-1.99503997793928
20
-17.3061342543252
30
0
41
1
10
-1.99503997793928
20
-17.2950677779805
30
0
41
1
10
-1.99503997793928
20
-17.2816041393821
30
0
41
1
10
-1.99503997793928
20
-17.2657806121613
30
0
41
1
10
-1.99503997793928
20
-17.2476335178127
30
0
41
1
10
-1.99503997793928
20
-17.2271975480507
30
0
41
1
10
-1.99503997793928
20
-17.204505416066
30
0
41
1
10
-1.99503997793928
20
-17.1795896288676
30
0
41
1
10
-1.99503997793928
20
-17.1434240170937
30
0
41
1
10
-1.99503997793928
20
-17.1029924178939
30
0
41
1
10
-1.99503997793928
20
-17.0582791544303
30
0
41
1
10
-1.99503997793928
20
-17.0226788299273
30
0
41
1
10
-1.99503997793928
20
-16.9850205784632
30
0
41
1
10
-1.99503997793928
20
-16.9320728583858
30
0
41
1
10
-1.99503997793928
20
-16.8751872797735
30
0
41
1
10
-1.99503997793928
20
-16.8142877377231
30
0
41
1
10
-1.99503997793928
20
-16.7507930080793
30
0
41
1
10
-1.99503997793928
20
-16.6835453043615
30
0
41
1
10
-1.99503997793928
20
-16.6124299668847
30
0
41
1
10
-1.99503997793928
20
-16.538824252381
30
0
41
1
10
-1.99503997793928
20
-16.4616240235723
30
0
41
1
10
-1.99503997793928
20
-16.3806869997558
30
0
41
1
10
-1.99503997793928
20
-16.3182114280861
30
0
41
1
10
-1.99503997793928
20
-16.2539521307207
30
0
41
1
10
-1.99503997793928
20
-16.1879246525291
30
0
41
1
10
-1.99503997793928
20
-16.1201424632648
30
0
41
1
10
-1.99503997793928
20
-16.0506207879892
30
0
41
1
10
-1.99503997793928
20
-15.9793734967038
30
0
41
1
10
-1.99503997793928
20
-15.8820499896636
30
0
41
1
10
-1.99503997793928
20
-15.781458474053
30
0
41
1
10
-1.99503997793928
20
-15.677384979663
30
0
41
1
10
-1.99503997793928
20
-15.5977008570348
30
0
41
1
10
-1.99503997793928
20
-15.5163656330196
30
0
41
1
10
-1.99503997793928
20
-15.4056838559475
30
0
41
1
10
-1.99503997793928
20
-15.2918890331241
30
0
41
1
10
-1.99503997793928
20
-15.1893946011098
30
0
41
1
10
-1.99503997793928
20
-15.130016414734
30
0
41
1
10
-1.99503997793928
20
-15.070107125687
30
0
41
1
10
-1.99503997793928
20
-14.9942845913974
30
0
41
1
10
-1.99503997793928
20
-14.8707702595594
30
0
41
1
10
-1.99503997793928
20
-14.7442755571137
30
0
41
1
10
-1.99503997793928
20
-14.614516060936
30
0
41
1
10
-1.99503997793928
20
-14.5156939237825
30
0
41
1
10
-1.99503997793928
20
-14.4153366880848
30
0
41
1
10
-1.99503997793928
20
-14.2794333813788
30
0
41
1
10
-1.99503997793928
20
-14.1406647319193
30
0
41
1
10
-1.99503997793928
20
-13.99871189727
30
0
41
1
10
-1.99503997793928
20
-13.8907947392413
30
0
41
1
10
-1.99503997793928
20
-13.7813876543746
30
0
41
1
10
-1.99503997793928
20
-13.6334713858817
30
0
41
1
10
-1.99503997793928
20
-13.4827901435456
30
0
41
1
10
-1.99503997793928
20
-13.3289901210133
30
0
41
1
10
-1.99503997793928
20
-13.2122307543484
30
0
41
1
10
-1.99503997793928
20
-13.0940197637218
30
0
41
1
10
-1.99503997793928
20
-12.9344093235711
30
0
41
1
10
-1.99503997793928
20
-12.7721223466594
30
0
41
1
10
-1.99503997793928
20
-12.6067684751262
30
0
41
1
10
-1.99503997793928
20
-12.4813812819682
30
0
41
1
10
-1.99503997793928
20
-12.3545748313202
30
0
41
1
10
-1.99503997793928
20
-12.1835401209566
30
0
41
1
10
-1.99503997793928
20
-12.0099077334538
30
0
41
1
10
-1.99503997793928
20
-11.8332480225582
30
0
41
1
10
-1.99503997793928
20
-11.6547268446385
30
0
41
1
10
-1.99503997793928
20
-11.4282697094187
30
0
41
1
10
-1.99503997793928
20
-11.1972001338813
30
0
41
1
10
-1.99503997793928
20
-11.0094435667743
30
0
41
1
10
-1.99503997793928
20
-10.8198574709635
30
0
41
1
10
-1.99503997793928
20
-10.6277879483349
30
0
41
1
10
-1.99503997793928
20
-10.432733482583
30
0
41
1
10
-1.99503997793928
20
-10.2851499142427
30
0
41
1
10
-1.99503997793928
20
-10.136210478965
30
0
41
1
10
-1.99503997793928
20
-9.98591881051334
30
0
41
1
10
-1.99503997793928
20
-9.83427694277646
30
0
41
1
10
-1.99503997793928
20
-9.63019832461663
30
0
41
1
10
-1.99503997793928
20
-9.37195865915049
30
0
41
1
10
-1.99503997793928
20
-9.10925720032844
30
0
41
1
10
-1.99503997793928
20
-8.89624560664998
30
0
41
1
10
-1.99503997793928
20
-8.73523610803539
30
0
41
1
10
-1.99503997793928
20
-8.57289871422529
30
0
41
1
10
-1.99503997793928
20
-8.40923674956804
30
0
41
1
10
-1.99503997793928
20
-8.24425235284599
30
0
41
1
10
-1.99503997793928
20
-8.02240145976873
30
0
41
1
10
-1.99503997793928
20
-7.742057818099
30
0
41
1
10
-1.99503997793928
20
-7.40025292645402
30
0
41
1
10
-1.99503997793928
20
-7.11118459991684
30
0
41
1
10
-1.99503997793928
20
-6.87709665926303
30
0
41
1
10
-1.99503997793928
20
-6.70033533418757
30
0
41
1
10
-1.99503997793928
20
-6.52228076981254
30
0
41
1
10
-1.99503997793928
20
-6.34293700639154
30
0
41
1
10
-1.99503997793928
20
-6.16230794338162
30
0
41
1
10
-1.99503997793928
20
-5.98039819956614
30
0
41
1
10
-1.99503997793928
20
-5.79721217482029
30
0
41
1
10
-1.99503997793928
20
-5.61275497462714
30
0
41
1
10
-1.99503997793928
20
-5.42703263168386
30
0
41
1
10
-1.99503997793928
20
-5.24005183821339
30
0
41
1
10
-1.99503997793928
20
-5.05181944357969
30
0
41
1
10
-1.99503997793928
20
-4.86234315765489
30
0
41
1
10
-1.99503997793928
20
-4.67163198724228
30
0
41
1
10
-1.99503997793928
20
-4.47969611179559
30
0
41
1
10
-1.99503997793928
20
-4.28654650347454
30
0
41
1
10
-1.99503997793928
20
-4.09219631216945
30
0
41
1
10
-1.99503997793928
20
-3.92934662557201
30
0
41
1
10
-1.99503997793928
20
-3.79829732832764
30
0
41
1
10
-1.99503997793928
20
-3.6997999651449
30
0
41
1
10
-1.99503997793928
20
-3.60101470543907
30
0
41
1
10
-1.99503997793928
20
-3.46881383607314
30
0
41
1
10
-1.99503997793928
20
-3.30310842941958
30
0
41
1
10
-1.99503997793928
20
-3.13647582573117
30
0
41
1
10
-1.99503997793928
20
-3.00241855173454
30
0
41
1
10
-1.99503997793928
20
-2.86801083241158
30
0
41
1
10
-1.99503997793928
20
-2.73345090264121
30
0
41
1
10
-1.99503997793928
20
-2.59800197223717
30
0
41
1
10
-1.99503997793928
20
-2.4962670319988
30
0
41
1
10
-1.99503997793928
20
-2.3942897393672
30
0
41
1
10
-1.99503997793928
20
-2.292076372064
30
0
41
1
10
-1.99503997793928
20
-2.18963189754737
30
0
41
1
10
-1.99503997793928
20
-2.08696370566378
30
0
41
1
10
-1.99503997793928
20
-1.98407766278626
30
0
41
1
10
-1.99503997793928
20
-1.88098142742643
30
0
41
1
10
-1.9950399779393
20
-1.77768276258212
30
0
41
1
10
-1.9950399779393
20
-1.67418896894679
30
0
41
1
10
-1.9950399779393
20
-1.57050948928742
30
0
41
1
10
-1.9950399779393
20
-1.46665210416359
30
0
41
1
10
-1.9950399779393
20
-1.36262723194545
30
0
41
1
10
-1.9950399779393
20
-1.25844373877697
30
0
41
1
10
-1.9950399779393
20
-1.15411258033265
30
0
41
1
10
-1.9950399779393
20
-1.04964379294302
30
0
41
1
10
-1.9950399779393
20
-0.945048896197648
30
0
41
1
10
-1.9950399779393
20
-0.840338966235606
30
0
41
1
10
-1.9950399779393
20
-0.735526093018507
30
0
41
1
10
-1.9950399779393
20
-0.630622120770227
30
0
41
1
10
-1.9950399779393
20
-0.525639723935797
30
0
41
1
10
-1.9950399779393
20
-0.420591355720489
30
0
41
1
10
-1.9950399779393
20
-0.315490140896543
30
0
41
1
10
-1.9950399779393
20
-0.210348954454048
30
0
41
1
10
-1.9950399779393
20
-0.105181173899382
30
0
41
1
10
-1.9950399779393
20
-2.6093403E-09
30
0
41
1
10
-1.9950399779393
20
0.105181165306249
30
0
41
1
10
-1.9950399779393
20
0.210348939519463
30
0
41
1
10
-1.9950399779393
20
0.315490126623786
30
0
41
1
10
-1.9950399779393
20
0.420591350928703
30
0
41
1
10
-1.9950399779393
20
0.52563972115729
30
0
41
1
10
-1.9950399779393
20
0.630622105582688
30
0
41
1
10
-1.9950399779393
20
0.735526073032361
30
0
41
1
10
-1.9950399779393
20
0.840338961204225
30
0
41
1
10
-1.9950399779393
20
0.945048899580627
30
0
41
1
10
-1.9950399779393
20
1.04964378000579
30
0
41
1
10
-1.9950399779393
20
1.15411255471389
30
0
41
1
10
-1.9950399779393
20
1.25844372920938
30
0
41
1
10
-1.9950399779393
20
1.36262724011794
30
0
41
1
10
-1.9950399779393
20
1.4666520999574
30
0
41
1
10
-1.9950399779393
20
1.57050946303122
30
0
41
1
10
-1.9950399779393
20
1.67418894734925
30
0
41
1
10
-1.9950399779393
20
1.77768276547397
30
0
41
1
10
-1.9950399779393
20
1.88098143773601
30
0
41
1
10
-1.9950399779393
20
1.98407765086858
30
0
41
1
10
-1.9950399779393
20
2.08696367451518
30
0
41
1
10
-1.9950399779393
20
2.18963187963749
30
0
41
1
10
-1.9950399779393
20
2.32636708010438
30
0
41
1
10
-1.9950399779393
20
2.46222694501739
30
0
41
1
10
-1.9950399779393
20
2.5980019734576
30
0
41
1
10
-1.9950399779393
20
2.69948931487846
30
0
41
1
10
-1.9950399779393
20
2.80072442890969
30
0
41
1
10
-1.9950399779393
20
2.90170218623103
30
0
41
1
10
-1.9950399779393
20
3.00241852965871
30
0
41
1
10
-1.9950399779393
20
3.1364757982418
30
0
41
1
10
-1.9950399779393
20
3.30310841087515
30
0
41
1
10
-1.9950399779393
20
3.46881385164499
30
0
41
1
10
-1.9950399779393
20
3.60101470619622
30
0
41
1
10
-1.9950399779393
20
3.69979994526256
30
0
41
1
10
-1.9950399779393
20
3.79829729672917
30
0
41
1
10
-1.9950399779393
20
3.92934661081904
30
0
41
1
10
-1.9950399779393
20
4.09219634432208
30
0
41
1
10
-1.9950399779393
20
4.28654656517494
30
0
41
1
10
-1.9950399779393
20
4.47969614999016
30
0
41
1
10
-1.9950399779393
20
4.67163207713236
30
0
41
1
10
-1.9950399779393
20
4.86234332329406
30
0
41
1
10
-1.9950399779393
20
5.05181945337137
30
0
41
1
10
-1.9950399779393
20
5.24005175731475
30
0
41
1
10
-1.9950399779393
20
5.42703270327695
30
0
41
1
10
-1.9950399779393
20
5.61275496243292
30
0
41
1
10
-1.9950399779393
20
5.79721186805693
30
0
41
1
10
-1.9950399779393
20
5.98039789106798
30
0
41
1
10
-1.9950399779393
20
6.16230788845581
30
0
41
1
10
-1.9950399779393
20
6.34293707417913
30
0
41
1
10
-1.9950399779393
20
6.52228078287743
30
0
41
1
10
-1.9950399779393
20
6.70033531356592
30
0
41
1
10
-1.9950399779393
20
6.87709665618263
30
0
41
1
10
-1.9950399779393
20
7.11118461088938
30
0
41
1
10
-1.9950399779393
20
7.40025290593451
30
0
41
1
10
-1.9950399779393
20
7.7420578132905
30
0
41
1
10
-1.9950399779393
20
8.02240146480563
30
0
41
1
10
-1.9950399779393
20
8.24425232954013
30
0
41
1
10
-1.9950399779393
20
8.40923673354894
30
0
41
1
10
-1.9950399779393
20
8.57289871794615
30
0
41
1
10
-1.9950399779393
20
8.73523611643316
30
0
41
1
10
-1.9950399779393
20
8.89624559944804
30
0
41
1
10
-1.9950399779393
20
9.1092571782612
30
0
41
1
10
-1.9950399779393
20
9.37195865327328
30
0
41
1
10
-1.9950399779393
20
9.63019833168175
30
0
41
1
10
-1.9950399779393
20
9.83427692622888
30
0
41
1
10
-1.9950399779393
20
9.98591879047711
30
0
41
1
10
-1.9950399779393
20
10.13621047024
30
0
41
1
10
-1.9950399779393
20
10.2851499168301
30
0
41
1
10
-1.9950399779393
20
10.4327334855783
30
0
41
1
10
-1.9950399779393
20
10.627787937013
30
0
41
1
10
-1.9950399779393
20
10.8198574498995
30
0
41
1
10
-1.9950399779393
20
11.00944356136
30
0
41
1
10
-1.9950399779393
20
11.1972001365959
30
0
41
1
10
-1.9950399779393
20
11.4282697000141
30
0
41
1
10
-1.9950399779393
20
11.6547268261542
30
0
41
1
10
-1.9950399779393
20
11.8332480165124
30
0
41
1
10
-1.9950399779393
20
12.0099077332894
30
0
41
1
10
-1.9950399779393
20
12.1835401119864
30
0
41
1
10
-1.9950399779393
20
12.3545748152048
30
0
41
1
10
-1.9950399779393
20
12.4813812679684
30
0
41
1
10
-1.9950399779393
20
12.606768466692
30
0
41
1
10
-1.9950399779393
20
12.7721223429485
30
0
41
1
10
-1.9950399779393
20
12.9344093145834
30
0
41
1
10
-1.9950399779393
20
13.09401974916
30
0
41
1
10
-1.9950399779393
20
13.2122307400426
30
0
41
1
10
-1.9950399779393
20
13.328990109671
30
0
41
1
10
-1.9950399779393
20
13.482790135872
30
0
41
1
10
-1.9950399779393
20
13.6334713769854
30
0
41
1
10
-1.9950399779393
20
13.7813876415877
30
0
41
1
10
-1.9950399779393
20
13.8907947247769
30
0
41
1
10
-1.9950399779393
20
13.9987118830366
30
0
41
1
10
-1.9950399779393
20
14.1406647198644
30
0
41
1
10
-1.9950399779393
20
14.2794333721973
30
0
41
1
10
-1.9950399779393
20
14.4153366771621
30
0
41
1
10
-1.9950399779393
20
14.5156939096276
30
0
41
1
10
-1.9950399779393
20
14.6145160455858
30
0
41
1
10
-1.9950399779393
20
14.7442755428493
30
0
41
1
10
-1.9950399779393
20
14.8707702235387
30
0
41
1
10
-1.9950399779393
20
14.9942846604514
30
0
41
1
10
-1.9950399779393
20
15.0853020659338
30
0
41
1
10
-1.9950399779393
20
15.1747311694574
30
0
41
1
10
-1.9950399779393
20
15.2918890118944
30
0
41
1
10
-1.9950399779393
20
15.4056838451686
30
0
41
1
10
-1.9950399779393
20
15.5163656256123
30
0
41
1
10
-1.9950399779393
20
15.5977008436634
30
0
41
1
10
-1.9950399779393
20
15.677384958149
30
0
41
1
10
-1.9950399779393
20
15.7814584486047
30
0
41
1
10
-1.9950399779393
20
15.8820499794418
30
0
41
1
10
-1.9950399779393
20
15.979373490825
30
0
41
1
10
-1.9950399779393
20
16.0506207732709
30
0
41
1
10
-1.9950399779393
20
16.1201424382026
30
0
41
1
10
-1.9950399779393
20
16.1879246249362
30
0
41
1
10
-1.9950399779393
20
16.2539521138774
30
0
41
1
10
-1.9950399779393
20
16.3182114219941
30
0
41
1
10
-1.9950399779393
20
16.3806869939664
30
0
41
1
10
-1.9950399779393
20
16.4616240004255
30
0
41
1
10
-1.9950399779393
20
16.5388242186582
30
0
41
1
10
-1.9950399779393
20
16.6124299551482
30
0
41
1
10
-1.9950399779393
20
16.6835453056651
30
0
41
1
10
-1.9950399779393
20
16.7507929832779
30
0
41
1
10
-1.9950399779393
20
16.8142877036055
30
0
41
1
10
-1.9950399779393
20
16.8751872660894
30
0
41
1
10
-1.9950399779393
20
16.9320728615657
30
0
41
1
10
-1.9950399779393
20
16.9850205529168
30
0
41
1
10
-1.9950399779393
20
17.0226787925821
30
0
41
1
10
-1.9950399779393
20
17.0582791326422
30
0
41
1
10
-1.9950399779393
20
17.1029924242496
30
0
41
1
10
-1.9950399779393
20
17.143423992764
30
0
41
1
10
-1.9950399779393
20
17.1795895960111
30
0
41
1
10
-1.9950399779393
20
17.2045053960087
30
0
41
1
10
-1.9950399779393
20
17.2271975457697
30
0
41
1
10
-1.9950399779393
20
17.2476335117891
30
0
41
1
10
-1.9950399779393
20
17.2657805776118
30
0
41
1
10
-1.9950399779393
20
17.2816041041457
30
0
41
1
10
-1.9950399779393
20
17.295067771448
30
0
41
1
10
-1.9950399779393
20
17.3061342577567
30
0
41
1
10
-1.9950399779393
20
17.3147637003649
30
0
41
1
10
-1.9950399779393
20
17.3189630099068
30
0
41
1
10
-1.9950399779393
20
17.3206503540488
30
0
41
1
10
-1.9950399779393
20
17.3207264811427
30
0
0
SPLINE
5
1C8
100
AcDbEntity
8
SK1
62
256
6
ByLayer
370
18
48
1
60
0
100
AcDbSpline
70
4
71
3
72
286
73
282
40
0
40
0
40
0
40
0
40
0.0005145134027122
40
0.0040569568014169
40
0.0075994002001217
40
0.0111418435988265
40
0.0146842869975312
40
0.018226730396236
40
0.0217691737949407
40
0.0253116171936455
40
0.0288540605923502
40
0.032396503991055
40
0.0359389473897598
40
0.0394813907884646
40
0.046566277585874
40
0.0501087209845788
40
0.0536511643832836
40
0.0571936077819884
40
0.0607360511806931
40
0.0678209379781026
40
0.0713633813768074
40
0.0749058247755122
40
0.0819907115729217
40
0.0855331549716264
40
0.0890755983703312
40
0.0961604851677406
40
0.0997029285664455
40
0.10324537196515
40
0.106787815363855
40
0.11033025876256
40
0.113872702161265
40
0.117415145559969
40
0.120957588958674
40
0.124500032357379
40
0.131584919154788
40
0.135127362553493
40
0.138669805952198
40
0.142212249350903
40
0.145754692749607
40
0.152839579547017
40
0.156382022945722
40
0.159924466344426
40
0.163466909743131
40
0.167009353141836
40
0.174094239939245
40
0.17763668333795
40
0.181179126736655
40
0.18472157013536
40
0.188264013534065
40
0.195348900331474
40
0.198891343730179
40
0.202433787128884
40
0.205976230527588
40
0.209518673926293
40
0.216603560723703
40
0.220146004122407
40
0.223688447521112
40
0.227230890919817
40
0.230773334318522
40
0.237858221115931
40
0.241400664514636
40
0.244943107913341
40
0.248485551312045
40
0.25202799471075
40
0.25911288150816
40
0.262655324906865
40
0.266197768305569
40
0.273282655102979
40
0.280367541900388
40
0.283909985299093
40
0.287452428697798
40
0.294537315495207
40
0.298079758893912
40
0.301622202292617
40
0.305164645691322
40
0.308707089090026
40
0.312249532488731
40
0.315791975887436
40
0.322876862684846
40
0.329961749482255
40
0.33350419288096
40
0.337046636279665
40
0.340589079678369
40
0.344131523077074
40
0.347673966475779
40
0.351216409874484
40
0.358301296671893
40
0.365386183469303
40
0.372471070266712
40
0.376013513665417
40
0.379555957064122
40
0.383098400462826
40
0.386640843861531
40
0.390183287260236
40
0.393725730658941
40
0.397268174057645
40
0.40081061745635
40
0.404353060855055
40
0.40789550425376
40
0.411437947652465
40
0.414980391051169
40
0.418522834449874
40
0.422065277848579
40
0.425607721247284
40
0.429150164645988
40
0.432692608044693
40
0.434463829744046
40
0.436235051443398
40
0.43800627314275
40
0.439777494842103
40
0.443319938240807
40
0.446862381639512
40
0.448633603338864
40
0.450404825038217
40
0.452176046737569
40
0.453947268436922
40
0.455718490136274
40
0.457489711835626
40
0.461032155234331
40
0.462803376933684
40
0.464574598633036
40
0.466345820332388
40
0.468117042031741
40
0.469888263731093
40
0.471659485430445
40
0.473430707129798
40
0.47520192882915
40
0.476973150528503
40
0.478744372227855
40
0.480515593927207
40
0.48228681562656
40
0.484058037325912
40
0.485829259025264
40
0.487600480724617
40
0.489371702423969
40
0.491142924123322
40
0.492914145822674
40
0.494685367522026
40
0.496456589221379
40
0.498227810920731
40
0.499999032620083
40
0.501770254319436
40
0.503541476018788
40
0.505312697718141
40
0.507083919417493
40
0.508855141116845
40
0.510626362816198
40
0.51239758451555
40
0.514168806214903
40
0.515940027914255
40
0.517711249613607
40
0.51948247131296
40
0.521253693012312
40
0.523024914711665
40
0.524796136411017
40
0.526567358110369
40
0.528338579809722
40
0.530109801509074
40
0.531881023208426
40
0.533652244907779
40
0.535423466607131
40
0.537194688306483
40
0.538965910005836
40
0.540737131705188
40
0.542508353404541
40
0.544279575103893
40
0.546050796803245
40
0.54959324020195
40
0.551364461901303
40
0.553135683600655
40
0.55667812699936
40
0.560220570398065
40
0.561991792097417
40
0.563763013796769
40
0.565534235496122
40
0.567305457195474
40
0.570847900594179
40
0.574390343992883
40
0.577932787391588
40
0.581475230790293
40
0.585017674188998
40
0.588560117587703
40
0.592102560986407
40
0.595645004385112
40
0.599187447783817
40
0.602729891182521
40
0.606272334581226
40
0.609814777979931
40
0.613357221378636
40
0.616899664777341
40
0.620442108176045
40
0.62398455157475
40
0.627526994973455
40
0.634611881770864
40
0.641696768568274
40
0.648781655365684
40
0.652324098764388
40
0.655866542163093
40
0.659408985561798
40
0.662951428960503
40
0.666493872359207
40
0.670036315757912
40
0.677121202555322
40
0.684206089352731
40
0.687748532751436
40
0.691290976150141
40
0.694833419548845
40
0.69837586294755
40
0.701918306346255
40
0.70546074974496
40
0.712545636542369
40
0.716088079941074
40
0.719630523339779
40
0.726715410137188
40
0.733800296934598
40
0.737342740333302
40
0.740885183732007
40
0.747970070529417
40
0.751512513928122
40
0.755054957326826
40
0.758597400725531
40
0.762139844124236
40
0.769224730921645
40
0.77276717432035
40
0.776309617719055
40
0.77985206111776
40
0.783394504516464
40
0.790479391313874
40
0.794021834712579
40
0.797564278111284
40
0.801106721509988
40
0.804649164908693
40
0.811734051706103
40
0.815276495104807
40
0.818818938503512
40
0.822361381902217
40
0.825903825300921
40
0.832988712098331
40
0.836531155497036
40
0.840073598895741
40
0.841844820595093
40
0.843616042294445
40
0.84715848569315
40
0.85424337249056
40
0.857785815889264
40
0.861328259287969
40
0.864870702686674
40
0.868413146085379
40
0.875498032882788
40
0.879040476281493
40
0.882582919680198
40
0.886125363078903
40
0.889667806477607
40
0.893210249876312
40
0.896752693275017
40
0.900295136673722
40
0.903837580072426
40
0.910922466869836
40
0.91446491026854
40
0.918007353667246
40
0.925092240464655
40
0.92863468386336
40
0.932177127262064
40
0.939262014059474
40
0.942804457458179
40
0.946346900856883
40
0.949889344255588
40
0.953431787654293
40
0.960516674451703
40
0.964059117850407
40
0.967601561249112
40
0.971144004647817
40
0.974686448046521
40
0.978228891445226
40
0.981771334843931
40
0.985313778242636
40
0.988856221641341
40
0.992398665040045
40
0.99594110843875
40
0.999483551837455
40
1
40
1
40
1
40
1
41
1
10
-30
20
15.9926380776278
30
0
41
1
10
-30
20
15.9925496912422
30
0
41
1
10
-30
20
15.9917867656383
30
0
41
1
10
-30
20
15.9893850921089
30
0
41
1
10
-30
20
15.9836860314146
30
0
41
1
10
-30
20
15.9756808210229
30
0
41
1
10
-30
20
15.9654018084482
30
0
41
1
10
-30
20
15.9528811264941
30
0
41
1
10
-30
20
15.9381491278438
30
0
41
1
10
-30
20
15.9212355486336
30
0
41
1
10
-30
20
15.9021692443495
30
0
41
1
10
-30
20
15.8809772874923
30
0
41
1
10
-30
20
15.85768719628
30
0
41
1
10
-30
20
15.8237020449635
30
0
41
1
10
-30
20
15.786151572388
30
0
41
1
10
-30
20
15.7440467976174
30
0
41
1
10
-30
20
15.7106366986067
30
0
41
1
10
-30
20
15.6752710038507
30
0
41
1
10
-30
20
15.6253102414823
30
0
41
1
10
-30
20
15.5722298833996
30
0
41
1
10
-30
20
15.5146768571487
30
0
41
1
10
-30
20
15.454635155867
30
0
41
1
10
-30
20
15.3917322415494
30
0
41
1
10
-30
20
15.3243986601424
30
0
41
1
10
-30
20
15.2546726017927
30
0
41
1
10
-30
20
15.1823145630236
30
0
41
1
10
-30
20
15.1055630554725
30
0
41
1
10
-30
20
15.0465122402176
30
0
41
1
10
-30
20
14.9857535165871
30
0
41
1
10
-30
20
14.9233034368069
30
0
41
1
10
-30
20
14.8591738020485
30
0
41
1
10
-30
20
14.7933781380804
30
0
41
1
10
-30
20
14.7259318150055
30
0
41
1
10
-30
20
14.6334478809413
30
0
41
1
10
-30
20
14.5388306139923
30
0
41
1
10
-30
20
14.4398724968665
30
0
41
1
10
-30
20
14.3643499358607
30
0
41
1
10
-30
20
14.2872489988171
30
0
41
1
10
-30
20
14.1819460940194
30
0
41
1
10
-30
20
14.0747689624993
30
0
41
1
10
-30
20
13.9632604256822
30
0
41
1
10
-30
20
13.8784200007502
30
0
41
1
10
-30
20
13.7920640526128
30
0
41
1
10
-30
20
13.674463030797
30
0
41
1
10
-30
20
13.5552283874056
30
0
41
1
10
-30
20
13.4316550911984
30
0
41
1
10
-30
20
13.337853067095
30
0
41
1
10
-30
20
13.2425907988595
30
0
41
1
10
-30
20
13.1131460860381
30
0
41
1
10
-30
20
12.9822967545724
30
0
41
1
10
-30
20
12.847084683004
30
0
41
1
10
-30
20
12.7446351532221
30
0
41
1
10
-30
20
12.6407746180399
30
0
41
1
10
-30
20
12.499887311655
30
0
41
1
10
-30
20
12.3578191289812
30
0
41
1
10
-30
20
12.2113468162577
30
0
41
1
10
-30
20
12.100530667573
30
0
41
1
10
-30
20
11.9883478761207
30
0
41
1
10
-30
20
11.8363772491739
30
0
41
1
10
-30
20
11.6834503922585
30
0
41
1
10
-30
20
11.5260594948948
30
0
41
1
10
-30
20
11.4071324366749
30
0
41
1
10
-30
20
11.286879488698
30
0
41
1
10
-30
20
11.1241532157817
30
0
41
1
10
-30
20
10.9607029988619
30
0
41
1
10
-30
20
10.7927086404325
30
0
41
1
10
-30
20
10.6229844866849
30
0
41
1
10
-30
20
10.4091173939315
30
0
41
1
10
-30
20
10.1909959678346
30
0
41
1
10
-30
20
10.0126979588286
30
0
41
1
10
-30
20
9.83272430289384
30
0
41
1
10
-30
20
9.65245023276196
30
0
41
1
10
-30
20
9.46744871362006
30
0
41
1
10
-30
20
9.32804093460692
30
0
41
1
10
-30
20
9.18740563851225
30
0
41
1
10
-30
20
9.0455543785921
30
0
41
1
10
-30
20
8.90249044231979
30
0
41
1
10
-30
20
8.70931958714522
30
0
41
1
10
-30
20
8.46674616603485
30
0
41
1
10
-30
20
8.22021686294164
30
0
41
1
10
-30
20
8.01906836645577
30
0
41
1
10
-30
20
7.86773085832669
30
0
41
1
10
-30
20
7.71524241280139
30
0
41
1
10
-30
20
7.56161298420648
30
0
41
1
10
-30
20
7.40685260452795
30
0
41
1
10
-30
20
7.19804202206524
30
0
41
1
10
-30
20
6.93651252502832
30
0
41
1
10
-30
20
6.61705894701072
30
0
41
1
10
-30
20
6.34834996432818
30
0
41
1
10
-30
20
6.12929373929512
30
0
41
1
10
-30
20
5.96484945115367
30
0
41
1
10
-30
20
5.79939743818983
30
0
41
1
10
-30
20
5.6329554281462
30
0
41
1
10
-30
20
5.4655408318975
30
0
41
1
10
-30
20
5.29717335727497
30
0
41
1
10
-30
20
5.1278759130733
30
0
41
1
10
-30
20
4.9576706384986
30
0
41
1
10
-30
20
4.78658071628462
30
0
41
1
10
-30
20
4.61463355062483
30
0
41
1
10
-30
20
4.44186113006066
30
0
41
1
10
-30
20
4.26829321973946
30
0
41
1
10
-30
20
4.09396155182321
30
0
41
1
10
-30
20
3.91890592173866
30
0
41
1
10
-30
20
3.74316620306934
30
0
41
1
10
-30
20
3.56678705857649
30
0
41
1
10
-30
20
3.42015123791833
30
0
41
1
10
-30
20
3.3009810984795
30
0
41
1
10
-30
20
3.21216327477833
30
0
41
1
10
-30
20
3.12322377081893
30
0
41
1
10
-30
20
3.00356413190349
30
0
41
1
10
-30
20
2.85589664232998
30
0
41
1
10
-30
20
2.70788037697059
30
0
41
1
10
-30
20
2.58749550859631
30
0
41
1
10
-30
20
2.49793822974368
30
0
41
1
10
-30
20
2.40833000131903
30
0
41
1
10
-30
20
2.31867596083526
30
0
41
1
10
-30
20
2.22899146909504
30
0
41
1
10
-30
20
2.10827328924756
30
0
41
1
10
-30
20
1.99097459417123
30
0
41
1
10
-30
20
1.87012467714987
30
0
41
1
10
-30
20
1.78043031683035
30
0
41
1
10
-30
20
1.69076251244053
30
0
41
1
10
-30
20
1.60113247848602
30
0
41
1
10
-30
20
1.5115531360978
30
0
41
1
10
-30
20
1.422025757727
30
0
41
1
10
-30
20
1.33256776537956
30
0
41
1
10
-30
20
1.24317741509077
30
0
41
1
10
-30
20
1.15386860885189
30
0
41
1
10
-30
20
1.0646401367365
30
0
41
1
10
-30
20
0.975500136218272
30
0
41
1
10
-30
20
0.886447988926818
30
0
41
1
10
-30
20
0.797485776681128
30
0
41
1
10
-30
20
0.708610852102652
30
0
41
1
10
-30
20
0.619820737442751
30
0
41
1
10
-30
20
0.531109764951225
30
0
41
1
10
-30
20
0.442471434007643
30
0
41
1
10
-30
20
0.353896007963442
30
0
41
1
10
-30
20
0.265373879214224
30
0
41
1
10
-30
20
0.176892371692134
30
0
41
1
10
-30
20
0.0884392148653887
30
0
41
1
10
-30
20
2.04973958E-08
30
0
41
1
10
-30
20
-0.0884392031952643
30
0
41
1
10
-30
20
-0.17689241471993
30
0
41
1
10
-30
20
-0.265373915570137
30
0
41
1
10
-30
20
-0.353895962579486
30
0
41
1
10
-30
20
-0.442471374506852
30
0
41
1
10
-30
20
-0.531109813902617
30
0
41
1
10
-30
20
-0.619820822982149
30
0
41
1
10
-30
20
-0.708610806550098
30
0
41
1
10
-30
20
-0.797485667180183
30
0
41
1
10
-30
20
-0.88644802600686
30
0
41
1
10
-30
20
-0.97550027278379
30
0
41
1
10
-30
20
-1.06464012636252
30
0
41
1
10
-30
20
-1.15386845800867
30
0
41
1
10
-30
20
-1.24317738635409
30
0
41
1
10
-30
20
-1.33256791795026
30
0
41
1
10
-30
20
-1.42202585063245
30
0
41
1
10
-30
20
-1.5115530207047
30
0
41
1
10
-30
20
-1.60113232466114
30
0
41
1
10
-30
20
-1.69076256252157
30
0
41
1
10
-30
20
-1.78043050963589
30
0
41
1
10
-30
20
-1.8701247319346
30
0
41
1
10
-30
20
-1.95984062320622
30
0
41
1
10
-30
20
-2.04956121840735
30
0
41
1
10
-30
20
-2.13928298465072
30
0
41
1
10
-30
20
-2.22899154181988
30
0
41
1
10
-30
20
-2.34971237639814
30
0
41
1
10
-30
20
-2.46705810448162
30
0
41
1
10
-30
20
-2.5874956726754
30
0
41
1
10
-30
20
-2.70788056755163
30
0
41
1
10
-30
20
-2.85589666602101
30
0
41
1
10
-30
20
-3.00356394920902
30
0
41
1
10
-30
20
-3.12322374659237
30
0
41
1
10
-30
20
-3.21216341650842
30
0
41
1
10
-30
20
-3.3009812939207
30
0
41
1
10
-30
20
-3.42015124315617
30
0
41
1
10
-30
20
-3.56678672363677
30
0
41
1
10
-30
20
-3.74316585626099
30
0
41
1
10
-30
20
-3.91890584757374
30
0
41
1
10
-30
20
-4.09396100129447
30
0
41
1
10
-30
20
-4.26829259541552
30
0
41
1
10
-30
20
-4.4418618308207
30
0
41
1
10
-30
20
-4.61463414914385
30
0
41
1
10
-30
20
-4.78658021025495
30
0
41
1
10
-30
20
-4.95767123056282
30
0
41
1
10
-30
20
-5.1278778625566
30
0
41
1
10
-30
20
-5.29717415068041
30
0
41
1
10
-30
20
-5.46553992297879
30
0
41
1
10
-30
20
-5.63295448869491
30
0
41
1
10
-30
20
-5.79939725011724
30
0
41
1
10
-30
20
-5.96484950556561
30
0
41
1
10
-30
20
-6.1292936535483
30
0
41
1
10
-30
20
-6.34834993475852
30
0
41
1
10
-30
20
-6.6170590196507
30
0
41
1
10
-30
20
-6.93651248001379
30
0
41
1
10
-30
20
-7.19804203228608
30
0
41
1
10
-30
20
-7.40685270744598
30
0
41
1
10
-30
20
-7.56161297986853
30
0
41
1
10
-30
20
-7.71524232371235
30
0
41
1
10
-30
20
-7.86773082006812
30
0
41
1
10
-30
20
-8.01906843480589
30
0
41
1
10
-30
20
-8.22021692135615
30
0
41
1
10
-30
20
-8.4667461231511
30
0
41
1
10
-30
20
-8.70931957903713
30
0
41
1
10
-30
20
-8.90249052457438
30
0
41
1
10
-30
20
-9.04555441784282
30
0
41
1
10
-30
20
-9.18740560593943
30
0
41
1
10
-30
20
-9.32804088163152
30
0
41
1
10
-30
20
-9.46744870809562
30
0
41
1
10
-30
20
-9.65245029192153
30
0
41
1
10
-30
20
-9.83272433616031
30
0
41
1
10
-30
20
-10.0126979221092
30
0
41
1
10
-30
20
-10.1909959517429
30
0
41
1
10
-30
20
-10.4091174330404
30
0
41
1
10
-30
20
-10.6229845090751
30
0
41
1
10
-30
20
-10.7927086151922
30
0
41
1
10
-30
20
-10.9607029915804
30
0
41
1
10
-30
20
-11.1241532476502
30
0
41
1
10
-30
20
-11.286879520772
30
0
41
1
10
-30
20
-11.4071324437642
30
0
41
1
10
-30
20
-11.526059483736
30
0
41
1
10
-30
20
-11.6834503898541
30
0
41
1
10
-30
20
-11.8363772717575
30
0
41
1
10
-30
20
-11.9883479026383
30
0
41
1
10
-30
20
-12.100530681097
30
0
41
1
10
-30
20
-12.211346817793
30
0
41
1
10
-30
20
-12.3578191303265
30
0
41
1
10
-30
20
-12.4998873251014
30
0
41
1
10
-30
20
-12.640774639564
30
0
41
1
10
-30
20
-12.7446351726738
30
0
41
1
10
-30
20
-12.8470846962099
30
0
41
1
10
-30
20
-12.9822967603461
30
0
41
1
10
-30
20
-13.1131460918651
30
0
41
1
10
-30
20
-13.2425908150843
30
0
41
1
10
-30
20
-13.3378530905647
30
0
41
1
10
-30
20
-13.4316551022429
30
0
41
1
10
-30
20
-13.5552284439381
30
0
41
1
10
-30
20
-13.6744629632361
30
0
41
1
10
-30
20
-13.7920640428987
30
0
41
1
10
-30
20
-13.8638084100541
30
0
41
1
10
-30
20
-13.9208384799596
30
0
41
1
10
-30
20
-13.9773600368973
30
0
41
1
10
-30
20
-14.0747689786766
30
0
41
1
10
-30
20
-14.1819460903518
30
0
41
1
10
-30
20
-14.2872490063531
30
0
41
1
10
-30
20
-14.3643499644422
30
0
41
1
10
-30
20
-14.4398725346097
30
0
41
1
10
-30
20
-14.5388306330265
30
0
41
1
10
-30
20
-14.6334478734244
30
0
41
1
10
-30
20
-14.7259318226356
30
0
41
1
10
-30
20
-14.793378171537
30
0
41
1
10
-30
20
-14.8591738437125
30
0
41
1
10
-30
20
-14.9233034607296
30
0
41
1
10
-30
20
-14.9857535133679
30
0
41
1
10
-30
20
-15.0465122321639
30
0
41
1
10
-30
20
-15.1055630695376
30
0
41
1
10
-30
20
-15.1823146060513
30
0
41
1
10
-30
20
-15.2546726312332
30
0
41
1
10
-30
20
-15.3243986497297
30
0
41
1
10
-30
20
-15.3917322452796
30
0
41
1
10
-30
20
-15.4546352005829
30
0
41
1
10
-30
20
-15.5146768877911
30
0
41
1
10
-30
20
-15.5722298782127
30
0
41
1
10
-30
20
-15.6253102421943
30
0
41
1
10
-30
20
-15.6752710489662
30
0
41
1
10
-30
20
-15.7106367362118
30
0
41
1
10
-30
20
-15.7440468008705
30
0
41
1
10
-30
20
-15.7861515665346
30
0
41
1
10
-30
20
-15.8237020814765
30
0
41
1
10
-30
20
-15.8576872273509
30
0
41
1
10
-30
20
-15.8809772969169
30
0
41
1
10
-30
20
-15.9021692417173
30
0
41
1
10
-30
20
-15.921235563756
30
0
41
1
10
-30
20
-15.9381491696965
30
0
41
1
10
-30
20
-15.9528811556008
30
0
41
1
10
-30
20
-15.9654018081648
30
0
41
1
10
-30
20
-15.9756808201301
30
0
41
1
10
-30
20
-15.9836860510364
30
0
41
1
10
-30
20
-15.989385071505
30
0
41
1
10
-30
20
-15.9917872644376
30
0
41
1
10
-30
20
-15.9925502710052
30
0
41
1
10
-30
20
-15.9926389223957
30
0
0
SPLINE
5
1C9
100
AcDbEntity
8
SK1
62
256
6
ByLayer
370
18
48
1
60
0
100
AcDbSpline
70
4
71
3
72
102
73
98
40
0
40
0
40
0
40
0
40
0.0028041102745436
40
0.0116364787240647
40
0.0204688471735859
40
0.029301215623107
40
0.0381335840726281
40
0.0469659525221492
40
0.0557983209716704
40
0.0646306894211915
40
0.0734630578707126
40
0.0822954263202337
40
0.0999601632192759
40
0.117624900118318
40
0.13528963701736
40
0.144122005466882
40
0.152954373916403
40
0.161786742365924
40
0.170619110815445
40
0.179451479264966
40
0.188283847714487
40
0.205948584613529
40
0.223613321512572
40
0.232445689962093
40
0.241278058411614
40
0.250110426861135
40
0.258942795310656
40
0.267775163760177
40
0.276607532209698
40
0.294272269108741
40
0.303104637558262
40
0.311937006007783
40
0.329601742906825
40
0.347266479805867
40
0.356098848255389
40
0.36493121670491
40
0.382595953603952
40
0.391428322053473
40
0.400260690502994
40
0.409093058952515
40
0.417925427402036
40
0.435590164301079
40
0.4444225327506
40
0.453254901200121
40
0.462087269649642
40
0.470919638099163
40
0.488584374998205
40
0.497416743447727
40
0.506249111897248
40
0.515081480346769
40
0.52391384879629
40
0.541578585695332
40
0.550410954144853
40
0.559243322594374
40
0.568075691043895
40
0.576908059493417
40
0.594572796392459
40
0.60340516484198
40
0.612237533291501
40
0.621069901741022
40
0.629902270190543
40
0.647567007089586
40
0.656399375539107
40
0.665231743988628
40
0.674064112438149
40
0.68289648088767
40
0.700561217786712
40
0.709393586236233
40
0.718225954685755
40
0.727058323135276
40
0.735890691584797
40
0.744723060034318
40
0.753555428483839
40
0.76238779693336
40
0.771220165382881
40
0.788884902281924
40
0.797717270731444
40
0.806549639180966
40
0.824214376080008
40
0.833046744529529
40
0.84187911297905
40
0.859543849878093
40
0.868376218327613
40
0.877208586777135
40
0.886040955226656
40
0.894873323676177
40
0.912538060575219
40
0.92137042902474
40
0.930202797474261
40
0.939035165923782
40
0.947867534373304
40
0.956699902822825
40
0.965532271272346
40
0.974364639721867
40
0.983197008171388
40
0.992029376620909
40
1
40
1
40
1
40
1
41
1
10
-0.394976888875291
20
5.38678223324206
30
0
41
1
10
-0.394976888875291
20
5.40659331253005
30
0
41
1
10
-0.394976888875291
20
5.48871675629277
30
0
41
1
10
-0.394976888875291
20
5.63252720020006
30
0
41
1
10
-0.394976888875291
20
5.81741425905381
30
0
41
1
10
-0.394976888875291
20
6.00101947738438
30
0
41
1
10
-0.394976888875291
20
6.18333822517315
30
0
41
1
10
-0.394976888875291
20
6.36436626337326
30
0
41
1
10
-0.394976888875291
20
6.54409938064708
30
0
41
1
10
-0.394976888875291
20
6.72253428981168
30
0
41
1
10
-0.394976888875291
20
6.89966739484254
30
0
41
1
10
-0.394976888875291
20
7.13420904829047
30
0
41
1
10
-0.394976888875291
20
7.42389184310315
30
0
41
1
10
-0.394976888875291
20
7.76637137475097
30
0
41
1
10
-0.394976888875291
20
8.04728288893983
30
0
41
1
10
-0.394976888875291
20
8.26952734508268
30
0
41
1
10
-0.394976888875291
20
8.43482033812745
30
0
41
1
10
-0.394976888875291
20
8.59878513251641
30
0
41
1
10
-0.394976888875291
20
8.76141979935898
30
0
41
1
10
-0.394976888875291
20
8.9227212090467
30
0
41
1
10
-0.394976888875291
20
9.13609084815204
30
0
41
1
10
-0.394976888875291
20
9.3992804435735
30
0
41
1
10
-0.394976888875291
20
9.65799297250351
30
0
41
1
10
-0.394976888875291
20
9.86240079247779
30
0
41
1
10
-0.394976888875291
20
10.014301562069
30
0
41
1
10
-0.394976888875291
20
10.1648479968029
30
0
41
1
10
-0.394976888875291
20
10.3140380853821
30
0
41
1
10
-0.394976888875291
20
10.4618684218406
30
0
41
1
10
-0.394976888875291
20
10.6572262982852
30
0
41
1
10
-0.394976888875291
20
10.8496518299165
30
0
41
1
10
-0.394976888875291
20
11.0395280715927
30
0
41
1
10
-0.394976888875291
20
11.2275701322441
30
0
41
1
10
-0.394976888875291
20
11.4590305058839
30
0
41
1
10
-0.394976888875291
20
11.6858676336886
30
0
41
1
10
-0.394976888875291
20
11.8646543426879
30
0
41
1
10
-0.394976888875291
20
12.0415756036957
30
0
41
1
10
-0.394976888875291
20
12.2155153079022
30
0
41
1
10
-0.394976888875291
20
12.3868007822861
30
0
41
1
10
-0.394976888875291
20
12.5138050377602
30
0
41
1
10
-0.394976888875291
20
12.6393872212047
30
0
41
1
10
-0.394976888875291
20
12.8049814419576
30
0
41
1
10
-0.394976888875291
20
12.967550927472
30
0
41
1
10
-0.394976888875291
20
13.127391952352
30
0
41
1
10
-0.394976888875291
20
13.2457848907918
30
0
41
1
10
-0.394976888875291
20
13.3627236430939
30
0
41
1
10
-0.394976888875291
20
13.5167448397426
30
0
41
1
10
-0.394976888875291
20
13.6676860465324
30
0
41
1
10
-0.394976888875291
20
13.8158144643309
30
0
41
1
10
-0.394976888875291
20
13.9253889575191
30
0
41
1
10
-0.394976888875291
20
14.0334711437703
30
0
41
1
10
-0.394976888875291
20
14.1756274353422
30
0
41
1
10
-0.394976888875291
20
14.3146351144528
30
0
41
1
10
-0.394976888875291
20
14.4507333574048
30
0
41
1
10
-0.394976888875291
20
14.5512443698349
30
0
41
1
10
-0.394976888875291
20
14.6502180265082
30
0
41
1
10
-0.394976888875291
20
14.7801642402503
30
0
41
1
10
-0.394976888875291
20
14.906878048735
30
0
41
1
10
-0.394976888875291
20
15.0305709686995
30
0
41
1
10
-0.394976888875291
20
15.1217290697223
30
0
41
1
10
-0.394976888875291
20
15.2112966721244
30
0
41
1
10
-0.394976888875291
20
15.3286250260664
30
0
41
1
10
-0.394976888875291
20
15.4426195996911
30
0
41
1
10
-0.394976888875291
20
15.553463729323
30
0
41
1
10
-0.394976888875291
20
15.6349267495635
30
0
41
1
10
-0.394976888875291
20
15.7147364711228
30
0
41
1
10
-0.394976888875291
20
15.8189643575456
30
0
41
1
10
-0.394976888875291
20
15.9197362080175
30
0
41
1
10
-0.394976888875291
20
16.0172057910894
30
0
41
1
10
-0.394976888875291
20
16.0885677968918
30
0
41
1
10
-0.394976888875291
20
16.1582019227301
30
0
41
1
10
-0.394976888875291
20
16.2260943534788
30
0
41
1
10
-0.394976888875291
20
16.2922298184193
30
0
41
1
10
-0.394976888875291
20
16.3565947837565
30
0
41
1
10
-0.394976888875291
20
16.4191737242596
30
0
41
1
10
-0.394976888875291
20
16.5002370605308
30
0
41
1
10
-0.394976888875291
20
16.5775834289921
30
0
41
1
10
-0.394976888875291
20
16.6513062647865
30
0
41
1
10
-0.394976888875291
20
16.7225357594453
30
0
41
1
10
-0.394976888875291
20
16.7899145739052
30
0
41
1
10
-0.394976888875291
20
16.8535135157982
30
0
41
1
10
-0.394976888875291
20
16.9145140859044
30
0
41
1
10
-0.394976888875291
20
16.9715145338598
30
0
41
1
10
-0.394976888875291
20
17.0245523789023
30
0
41
1
10
-0.394976888875291
20
17.0622798138473
30
0
41
1
10
-0.394976888875291
20
17.0979462613767
30
0
41
1
10
-0.394976888875291
20
17.1427382851614
30
0
41
1
10
-0.394976888875291
20
17.1832568130363
30
0
41
1
10
-0.394976888875291
20
17.2194882282903
30
0
41
1
10
-0.394976888875291
20
17.2444530966284
30
0
41
1
10
-0.394976888875291
20
17.2671905263171
30
0
41
1
10
-0.394976888875291
20
17.2876678324761
30
0
41
1
10
-0.394976888875291
20
17.3058521283006
30
0
41
1
10
-0.394976888875291
20
17.3217086001334
30
0
41
1
10
-0.394976888875291
20
17.3352007293143
30
0
41
1
10
-0.394976888875291
20
17.3462909837355
30
0
41
1
10
-0.394976888875291
20
17.3546580058729
30
0
41
1
10
-0.394976888875291
20
17.358644551368
30
0
41
1
10
-0.394976888875291
20
17.3601932333234
30
0
0
SPLINE
5
1CA
100
AcDbEntity
8
SK1
62
256
6
ByLayer
370
18
48
1
60
0
100
AcDbSpline
70
4
71
3
72
282
73
278
40
0
40
0
40
0
40
0
40
0.0031167404917006
40
0.006691131374764
40
0.0102655222578275
40
0.013839913140891
40
0.0174143040239544
40
0.0209886949070179
40
0.0245630857900814
40
0.0281374766731449
40
0.0317118675562083
40
0.0352862584392718
40
0.0424350402053987
40
0.0460094310884622
40
0.0495838219715257
40
0.0531582128545892
40
0.0567326037376526
40
0.0638813855037796
40
0.067455776386843
40
0.0710301672699065
40
0.0781789490360335
40
0.0817533399190969
40
0.0853277308021604
40
0.0924765125682873
40
0.0960509034513508
40
0.0996252943344143
40
0.103199685217478
40
0.106774076100541
40
0.110348466983605
40
0.113922857866668
40
0.117497248749732
40
0.121071639632795
40
0.128220421398922
40
0.131794812281986
40
0.135369203165049
40
0.138943594048112
40
0.142517984931176
40
0.149666766697303
40
0.153241157580366
40
0.155028353021898
40
0.15681554846343
40
0.160389939346493
40
0.163964330229557
40
0.171113111995684
40
0.174687502878747
40
0.178261893761811
40
0.181836284644874
40
0.185410675527938
40
0.192559457294065
40
0.196133848177128
40
0.199708239060191
40
0.203282629943255
40
0.206857020826318
40
0.214005802592445
40
0.217580193475509
40
0.221154584358572
40
0.224728975241636
40
0.228303366124699
40
0.235452147890826
40
0.23902653877389
40
0.242600929656953
40
0.246175320540017
40
0.24974971142308
40
0.256898493189207
40
0.26047288407227
40
0.264047274955334
40
0.271196056721461
40
0.278344838487588
40
0.281919229370651
40
0.285493620253715
40
0.292642402019842
40
0.296216792902905
40
0.299791183785969
40
0.303365574669032
40
0.306939965552096
40
0.310514356435159
40
0.314088747318223
40
0.321237529084349
40
0.328386310850476
40
0.33196070173354
40
0.335535092616603
40
0.339109483499667
40
0.34268387438273
40
0.346258265265794
40
0.349832656148857
40
0.356981437914984
40
0.364130219681111
40
0.371279001447238
40
0.374853392330302
40
0.378427783213365
40
0.382002174096429
40
0.385576564979492
40
0.389150955862555
40
0.392725346745619
40
0.396299737628682
40
0.399874128511746
40
0.403448519394809
40
0.407022910277873
40
0.410597301160936
40
0.414171692044
40
0.417746082927063
40
0.421320473810127
40
0.42489486469319
40
0.428469255576254
40
0.432043646459317
40
0.433830841900849
40
0.435618037342381
40
0.437405232783912
40
0.439192428225444
40
0.442766819108508
40
0.446341209991571
40
0.448128405433103
40
0.449915600874634
40
0.453489991757698
40
0.45527718719923
40
0.457064382640761
40
0.458851578082293
40
0.460638773523825
40
0.462425968965357
40
0.464213164406888
40
0.46600035984842
40
0.467787555289952
40
0.469574750731484
40
0.471361946173015
40
0.473149141614547
40
0.474936337056079
40
0.476723532497611
40
0.478510727939142
40
0.480297923380674
40
0.482085118822206
40
0.483872314263737
40
0.485659509705269
40
0.487446705146801
40
0.489233900588333
40
0.491021096029864
40
0.492808291471396
40
0.494595486912928
40
0.49638268235446
40
0.498169877795991
40
0.499957073237523
40
0.501744268679055
40
0.503531464120587
40
0.505318659562118
40
0.50710585500365
40
0.508893050445182
40
0.510680245886713
40
0.512467441328245
40
0.514254636769777
40
0.516041832211309
40
0.51782902765284
40
0.519616223094372
40
0.521403418535904
40
0.523190613977436
40
0.524977809418967
40
0.526765004860499
40
0.528552200302031
40
0.530339395743563
40
0.532126591185094
40
0.533913786626626
40
0.535700982068158
40
0.537488177509689
40
0.539275372951221
40
0.542849763834285
40
0.544636959275816
40
0.546424154717348
40
0.54821135015888
40
0.549998545600412
40
0.551785741041943
40
0.553572936483475
40
0.557147327366539
40
0.560721718249602
40
0.562508913691134
40
0.564296109132665
40
0.566083304574197
40
0.567870500015729
40
0.571444890898792
40
0.575019281781856
40
0.578593672664919
40
0.582168063547983
40
0.585742454431046
40
0.58931684531411
40
0.592891236197173
40
0.596465627080237
40
0.6000400179633
40
0.603614408846364
40
0.607188799729427
40
0.610763190612491
40
0.614337581495554
40
0.617911972378618
40
0.621486363261681
40
0.625060754144744
40
0.628635145027808
40
0.635783926793935
40
0.642932708560062
40
0.650081490326189
40
0.653655881209252
40
0.657230272092316
40
0.660804662975379
40
0.664379053858443
40
0.667953444741506
40
0.67152783562457
40
0.678676617390697
40
0.685825399156824
40
0.689399790039887
40
0.69297418092295
40
0.696548571806014
40
0.700122962689077
40
0.703697353572141
40
0.707271744455204
40
0.714420526221331
40
0.717994917104395
40
0.721569307987458
40
0.728718089753585
40
0.735866871519712
40
0.739441262402776
40
0.743015653285839
40
0.750164435051966
40
0.75373882593503
40
0.757313216818093
40
0.760887607701156
40
0.76446199858422
40
0.771610780350347
40
0.77518517123341
40
0.778759562116474
40
0.782333952999537
40
0.785908343882601
40
0.793057125648728
40
0.796631516531791
40
0.800205907414855
40
0.803780298297918
40
0.807354689180982
40
0.814503470947109
40
0.818077861830172
40
0.821652252713236
40
0.825226643596299
40
0.828801034479362
40
0.835949816245489
40
0.839524207128553
40
0.843098598011616
40
0.84667298889468
40
0.850247379777743
40
0.85739616154387
40
0.860970552426934
40
0.864544943309997
40
0.868119334193061
40
0.871693725076124
40
0.878842506842251
40
0.882416897725314
40
0.885991288608378
40
0.889565679491441
40
0.893140070374505
40
0.896714461257568
40
0.900288852140632
40
0.903863243023695
40
0.907437633906759
40
0.914586415672886
40
0.918160806555949
40
0.921735197439013
40
0.92888397920514
40
0.932458370088203
40
0.936032760971267
40
0.943181542737393
40
0.946755933620457
40
0.95033032450352
40
0.953904715386584
40
0.957479106269647
40
0.964627888035774
40
0.968202278918838
40
0.971776669801901
40
0.975351060684965
40
0.978925451568028
40
0.982499842451092
40
0.986074233334155
40
0.989648624217219
40
0.993223015100282
40
0.996797405983346
40
1
40
1
40
1
40
1
41
1
10
-2.19999999999999
20
-17.5147025704913
30
0
41
1
10
-2.19999999999999
20
-17.5131708539635
30
0
41
1
10
-2.19999999999999
20
-17.5091909611618
30
0
41
1
10
-2.19999999999999
20
-17.5008423321234
30
0
41
1
10
-2.19999999999999
20
-17.4896606126055
30
0
41
1
10
-2.19999999999999
20
-17.4760589706817
30
0
41
1
10
-2.19999999999999
20
-17.4600756994924
30
0
41
1
10
-2.19999999999999
20
-17.4417480876219
30
0
41
1
10
-2.19999999999999
20
-17.4211116738093
30
0
41
1
10
-2.19999999999999
20
-17.398199993695
30
0
41
1
10
-2.19999999999999
20
-17.3730462873428
30
0
41
1
10
-2.19999999999999
20
-17.3365615705832
30
0
41
1
10
-2.19999999999999
20
-17.2957083328928
30
0
41
1
10
-2.19999999999999
20
-17.2506133231919
30
0
41
1
10
-2.19999999999999
20
-17.2146924603873
30
0
41
1
10
-2.19999999999999
20
-17.1766986986672
30
0
41
1
10
-2.19999999999999
20
-17.123313852319
30
0
41
1
10
-2.19999999999999
20
-17.0658713913631
30
0
41
1
10
-2.19999999999999
20
-17.0044820909957
30
0
41
1
10
-2.19999999999999
20
-16.9404820184079
30
0
41
1
10
-2.19999999999999
20
-16.8725984731112
30
0
41
1
10
-2.19999999999999
20
-16.8009296884544
30
0
41
1
10
-2.19999999999999
20
-16.7267561914694
30
0
41
1
10
-2.19999999999999
20
-16.6488473199257
30
0
41
1
10
-2.19999999999999
20
-16.5672977619412
30
0
41
1
10
-2.19999999999999
20
-16.5043209901434
30
0
41
1
10
-2.19999999999999
20
-16.439549393056
30
0
41
1
10
-2.19999999999999
20
-16.3729983688048
30
0
41
1
10
-2.19999999999999
20
-16.3046816359758
30
0
41
1
10
-2.19999999999999
20
-16.2346146707391
30
0
41
1
10
-2.19999999999999
20
-16.1628111223414
30
0
41
1
10
-2.19999999999999
20
-16.0647793597711
30
0
41
1
10
-2.19999999999999
20
-15.9633135259672
30
0
41
1
10
-2.19999999999999
20
-15.8584914079188
30
0
41
1
10
-2.19999999999999
20
-15.7781982539187
30
0
41
1
10
-2.19999999999999
20
-15.6962433571226
30
0
41
1
10
-2.19999999999999
20
-15.5847743990242
30
0
41
1
10
-2.19999999999999
20
-15.4700110929875
30
0
41
1
10
-2.19999999999999
20
-15.3667724139347
30
0
41
1
10
-2.19999999999999
20
-15.3069761679616
30
0
41
1
10
-2.19999999999999
20
-15.2466455133785
30
0
41
1
10
-2.19999999999999
20
-15.1702261509224
30
0
41
1
10
-2.19999999999999
20
-15.0458464314392
30
0
41
1
10
-2.19999999999999
20
-14.9182892218295
30
0
41
1
10
-2.19999999999999
20
-14.7876243995297
30
0
41
1
10
-2.19999999999999
20
-14.6880675812844
30
0
41
1
10
-2.19999999999999
20
-14.5869647126432
30
0
41
1
10
-2.19999999999999
20
-14.4501162106047
30
0
41
1
10
-2.19999999999999
20
-14.3101885914782
30
0
41
1
10
-2.19999999999999
20
-14.1672492642274
30
0
41
1
10
-2.19999999999999
20
-14.0585319334344
30
0
41
1
10
-2.19999999999999
20
-13.9483131264862
30
0
41
1
10
-2.19999999999999
20
-13.7993681905533
30
0
41
1
10
-2.19999999999999
20
-13.6474264531923
30
0
41
1
10
-2.19999999999999
20
-13.4925540411334
30
0
41
1
10
-2.19999999999999
20
-13.3749248996583
30
0
41
1
10
-2.19999999999999
20
-13.2558316973182
30
0
41
1
10
-2.19999999999999
20
-13.0951031927999
30
0
41
1
10
-2.19999999999999
20
-12.9314463925932
30
0
41
1
10
-2.19999999999999
20
-12.7649271637091
30
0
41
1
10
-2.19999999999999
20
-12.6385945454976
30
0
41
1
10
-2.19999999999999
20
-12.510829004708
30
0
41
1
10
-2.19999999999999
20
-12.3385783781737
30
0
41
1
10
-2.19999999999999
20
-12.1634558646821
30
0
41
1
10
-2.19999999999999
20
-11.9855280067157
30
0
41
1
10
-2.19999999999999
20
-11.8057194023465
30
0
41
1
10
-2.19999999999999
20
-11.5774197477568
30
0
41
1
10
-2.19999999999999
20
-11.3444552554371
30
0
41
1
10
-2.19999999999999
20
-11.1553144582602
30
0
41
1
10
-2.19999999999999
20
-10.9643215989582
30
0
41
1
10
-2.19999999999999
20
-10.7705258416001
30
0
41
1
10
-2.19999999999999
20
-10.5740001651574
30
0
41
1
10
-2.19999999999999
20
-10.4252201002359
30
0
41
1
10
-2.19999999999999
20
-10.2750653748105
30
0
41
1
10
-2.19999999999999
20
-10.123538466054
30
0
41
1
10
-2.19999999999999
20
-9.97064123613961
30
0
41
1
10
-2.19999999999999
20
-9.76496631110052
30
0
41
1
10
-2.19999999999999
20
-9.50443394039922
30
0
41
1
10
-2.19999999999999
20
-9.23936571773675
30
0
41
1
10
-2.19999999999999
20
-9.02461799205525
30
0
41
1
10
-2.19999999999999
20
-8.86219304073114
30
0
41
1
10
-2.19999999999999
20
-8.69841428877766
30
0
41
1
10
-2.19999999999999
20
-8.53328407858572
30
0
41
1
10
-2.19999999999999
20
-8.36680341033821
30
0
41
1
10
-2.19999999999999
20
-8.14304411844034
30
0
41
1
10
-2.19999999999999
20
-7.85994708827315
30
0
41
1
10
-2.19999999999999
20
-7.51487112820212
30
0
41
1
10
-2.19999999999999
20
-7.22282328452872
30
0
41
1
10
-2.19999999999999
20
-6.98653550324826
30
0
41
1
10
-2.19999999999999
20
-6.80797159432132
30
0
41
1
10
-2.19999999999999
20
-6.62807271786153
30
0
41
1
10
-2.19999999999999
20
-6.44684092947375
30
0
41
1
10
-2.19999999999999
20
-6.26427796235191
30
0
41
1
10
-2.19999999999999
20
-6.08038609680852
30
0
41
1
10
-2.19999999999999
20
-5.89516734859467
30
0
41
1
10
-2.19999999999999
20
-5.70862461825789
30
0
41
1
10
-2.19999999999999
20
-5.52076102284178
30
0
41
1
10
-2.19999999999999
20
-5.33157993903222
30
0
41
1
10
-2.19999999999999
20
-5.14108500618136
30
0
41
1
10
-2.19999999999999
20
-4.94928076863459
30
0
41
1
10
-2.19999999999999
20
-4.75617249379656
30
0
41
1
10
-2.19999999999999
20
-4.56176617271484
30
0
41
1
10
-2.19999999999999
20
-4.36606871643772
30
0
41
1
10
-2.19999999999999
20
-4.16908851178403
30
0
41
1
10
-2.19999999999999
20
-4.00386592221611
30
0
41
1
10
-2.19999999999999
20
-3.87107811616198
30
0
41
1
10
-2.19999999999999
20
-3.77116418775421
30
0
41
1
10
-2.19999999999999
20
-3.67093805397229
30
0
41
1
10
-2.19999999999999
20
-3.53690183437425
30
0
41
1
10
-2.19999999999999
20
-3.3685565996314
30
0
41
1
10
-2.19999999999999
20
-3.19919952332833
30
0
41
1
10
-2.19999999999999
20
-3.06314133551615
30
0
41
1
10
-2.19999999999999
20
-2.92668912429065
30
0
41
1
10
-2.19999999999999
20
-2.78960994504098
30
0
41
1
10
-2.19999999999999
20
-2.65200559968281
30
0
41
1
10
-2.19999999999999
20
-2.54851063247162
30
0
41
1
10
-2.19999999999999
20
-2.44473977839391
30
0
41
1
10
-2.19999999999999
20
-2.34069812940874
30
0
41
1
10
-2.19999999999999
20
-2.23639086291985
30
0
41
1
10
-2.19999999999999
20
-2.13182396747072
30
0
41
1
10
-2.19999999999999
20
-2.02700349385555
30
0
41
1
10
-2.19999999999999
20
-1.92193654804362
30
0
41
1
10
-2.19999999999999
20
-1.81663009373557
30
0
41
1
10
-2.19999999999999
20
-1.71109232444707
30
0
41
1
10
-2.19999999999999
20
-1.60533156181742
30
0
41
1
10
-2.19999999999999
20
-1.49935699380711
30
0
41
1
10
-2.19999999999999
20
-1.39317848503856
30
0
41
1
10
-2.19999999999999
20
-1.2868063464968
30
0
41
1
10
-2.19999999999999
20
-1.18025198377217
30
0
41
1
10
-2.19999999999999
20
-1.073527029491
30
0
41
1
10
-2.19999999999999
20
-0.966644355262417
30
0
41
1
10
-2.19999999999999
20
-0.859617007920519
30
0
41
1
10
-2.19999999999999
20
-0.752459230354134
30
0
41
1
10
-2.19999999999999
20
-0.645185463980454
30
0
41
1
10
-2.19999999999999
20
-0.537811175438549
30
0
41
1
10
-2.19999999999999
20
-0.430352036900842
30
0
41
1
10
-2.19999999999999
20
-0.322824507999485
30
0
41
1
10
-2.19999999999999
20
-0.215245223931788
30
0
41
1
10
-2.19999999999999
20
-0.107631313716809
30
0
41
1
10
-2.19999999999999
20
-5.9909553E-09
30
0
41
1
10
-2.19999999999999
20
0.107631302158211
30
0
41
1
10
-2.19999999999999
20
0.215245213108574
30
0
41
1
10
-2.19999999999999
20
0.322824496958617
30
0
41
1
10
-2.19999999999999
20
0.430352024765966
30
0
41
1
10
-2.19999999999999
20
0.537811163545598
30
0
41
1
10
-2.19999999999999
20
0.6451854537342
30
0
41
1
10
-2.19999999999999
20
0.752459219961509
30
0
41
1
10
-2.19999999999999
20
0.859616995486306
30
0
41
1
10
-2.19999999999999
20
0.96664434311532
30
0
41
1
10
-2.19999999999999
20
1.073527020087
30
0
41
1
10
-2.19999999999999
20
1.18025197439016
30
0
41
1
10
-2.19999999999999
20
1.28680633401086
30
0
41
1
10
-2.19999999999999
20
1.39317847233161
30
0
41
1
10
-2.19999999999999
20
1.49935698477981
30
0
41
1
10
-2.19999999999999
20
1.60533155404698
30
0
41
1
10
-2.19999999999999
20
1.71109231328518
30
0
41
1
10
-2.19999999999999
20
1.81663008016324
30
0
41
1
10
-2.19999999999999
20
1.92193653735018
30
0
41
1
10
-2.19999999999999
20
2.0270034875229
30
0
41
1
10
-2.19999999999999
20
2.13182395998013
30
0
41
1
10
-2.19999999999999
20
2.23639085040651
30
0
41
1
10
-2.19999999999999
20
2.375450816946
30
0
41
1
10
-2.19999999999999
20
2.51402705629772
30
0
41
1
10
-2.19999999999999
20
2.65200561172497
30
0
41
1
10
-2.19999999999999
20
2.75522026664271
30
0
41
1
10
-2.19999999999999
20
2.85815023786415
30
0
41
1
10
-2.19999999999999
20
2.96079189341759
30
0
41
1
10
-2.19999999999999
20
3.06314133422205
30
0
41
1
10
-2.19999999999999
20
3.19919951970695
30
0
41
1
10
-2.19999999999999
20
3.36855658184021
30
0
41
1
10
-2.19999999999999
20
3.5369018254882
30
0
41
1
10
-2.2
20
3.67093805129474
30
0
41
1
10
-2.2
20
3.77116418570387
30
0
41
1
10
-2.2
20
3.87107810854144
30
0
41
1
10
-2.2
20
4.00386590607064
30
0
41
1
10
-2.2
20
4.16908849962459
30
0
41
1
10
-2.2
20
4.36606873641341
30
0
41
1
10
-2.2
20
4.56176620564526
30
0
41
1
10
-2.2
20
4.75617251627347
30
0
41
1
10
-2.2
20
4.94928086714646
30
0
41
1
10
-2.2
20
5.14108511996028
30
0
41
1
10
-2.2
20
5.33157993388585
30
0
41
1
10
-2.2
20
5.52076103085631
30
0
41
1
10
-2.2
20
5.708624690926
30
0
41
1
10
-2.2
20
5.89516728223867
30
0
41
1
10
-2.2
20
6.08038585927517
30
0
41
1
10
-2.2
20
6.26427776637019
30
0
41
1
10
-2.2
20
6.44684086969579
30
0
41
1
10
-2.2
20
6.62807270531454
30
0
41
1
10
-2.2
20
6.80797157864475
30
0
41
1
10
-2.2
20
6.98653548716828
30
0
41
1
10
-2.2
20
7.22282329277959
30
0
41
1
10
-2.2
20
7.51487111531026
30
0
41
1
10
-2.2
20
7.85994707617317
30
0
41
1
10
-2.2
20
8.14304412571011
30
0
41
1
10
-2.2
20
8.36680339868337
30
0
41
1
10
-2.2
20
8.53328405958746
30
0
41
1
10
-2.2
20
8.69841428000512
30
0
41
1
10
-2.2
20
8.86219304475884
30
0
41
1
10
-2.2
20
9.02461799380217
30
0
41
1
10
-2.2
20
9.23936570098886
30
0
41
1
10
-2.2
20
9.50443392738595
30
0
41
1
10
-2.2
20
9.76496631801302
30
0
41
1
10
-2.2
20
9.97064122920807
30
0
41
1
10
-2.2
20
10.1235384488298
30
0
41
1
10
-2.2
20
10.2750653600417
30
0
41
1
10
-2.2
20
10.4252200954492
30
0
41
1
10
-2.2
20
10.5740001677826
30
0
41
1
10
-2.2
20
10.7705258372791
30
0
41
1
10
-2.2
20
10.96432157968
30
0
41
1
10
-2.2
20
11.1553144466798
30
0
41
1
10
-2.2
20
11.3444552561941
30
0
41
1
10
-2.2
20
11.5774197426994
30
0
41
1
10
-2.2
20
11.8057193844339
30
0
41
1
10
-2.2
20
11.9855279960913
30
0
41
1
10
-2.2
20
12.1634558634281
30
0
41
1
10
-2.2
20
12.3385783725546
30
0
41
1
10
-2.2
20
12.510828990928
30
0
41
1
10
-2.2
20
12.6385945304865
30
0
41
1
10
-2.2
20
12.7649271524075
30
0
41
1
10
-2.2
20
12.9314463879873
30
0
41
1
10
-2.2
20
13.0951031858018
30
0
41
1
10
-2.2
20
13.2558316845062
30
0
41
1
10
-2.2
20
13.3749248852382
30
0
41
1
10
-2.2
20
13.4925540283558
30
0
41
1
10
-2.2
20
13.6474264445926
30
0
41
1
10
-2.2
20
13.7993681823228
30
0
41
1
10
-2.2
20
13.9483131149779
30
0
41
1
10
-2.2
20
14.0585319196999
30
0
41
1
10
-2.2
20
14.1672492498436
30
0
41
1
10
-2.2
20
14.310188578504
30
0
41
1
10
-2.2
20
14.4501162009323
30
0
41
1
10
-2.2
20
14.5869647024965
30
0
41
1
10
-2.2
20
14.6880675684927
30
0
41
1
10
-2.2
20
14.7876243835494
30
0
41
1
10
-2.2
20
14.9182892137509
30
0
41
1
10
-2.2
20
15.0458463802595
30
0
41
1
10
-2.2
20
15.1702262286607
30
0
41
1
10
-2.2
20
15.2619258251736
30
0
41
1
10
-2.2
20
15.3520264687641
30
0
41
1
10
-2.2
20
15.4700110710185
30
0
41
1
10
-2.2
20
15.5847743861311
30
0
41
1
10
-2.2
20
15.6962433497342
30
0
41
1
10
-2.2
20
15.7781982427732
30
0
41
1
10
-2.2
20
15.8584913887799
30
0
41
1
10
-2.2
20
15.9633134995801
30
0
41
1
10
-2.2
20
16.0647793469533
30
0
41
1
10
-2.2
20
16.1628111167188
30
0
41
1
10
-2.2
20
16.2346146587631
30
0
41
1
10
-2.2
20
16.3046816133433
30
0
41
1
10
-2.2
20
16.3729983406747
30
0
41
1
10
-2.2
20
16.4395493732765
30
0
41
1
10
-2.2
20
16.5043209819811
30
0
41
1
10
-2.2
20
16.567297757363
30
0
41
1
10
-2.2
20
16.6488472996884
30
0
41
1
10
-2.2
20
16.72675615712
30
0
41
1
10
-2.2
20
16.8009296734765
30
0
41
1
10
-2.2
20
16.8725984751516
30
0
41
1
10
-2.2
20
16.9404819965209
30
0
41
1
10
-2.2
20
17.0044820563696
30
0
41
1
10
-2.2
20
17.0658713749173
30
0
41
1
10
-2.2
20
17.1233138560685
30
0
41
1
10
-2.2
20
17.1766986759848
30
0
41
1
10
-2.2
20
17.2146924230801
30
0
41
1
10
-2.2
20
17.2506132986913
30
0
41
1
10
-2.2
20
17.2957083393221
30
0
41
1
10
-2.2
20
17.3365615480365
30
0
41
1
10
-2.2
20
17.373046254225
30
0
41
1
10
-2.2
20
17.3981999720817
30
0
41
1
10
-2.2
20
17.4211116708093
30
0
41
1
10
-2.2
20
17.4417480829298
30
0
41
1
10
-2.2
20
17.4600756660116
30
0
41
1
10
-2.2
20
17.4760589345483
30
0
41
1
10
-2.2
20
17.4896606050755
30
0
41
1
10
-2.2
20
17.5008423359265
30
0
41
1
10
-2.20000000000002
20
17.5092607632043
30
0
41
1
10
-2.2
20
17.5132727395139
30
0
41
1
10
-2.2
20
17.5148284304411
30
0
0
SPLINE
5
1CB
100
AcDbEntity
8
SK1
62
256
6
ByLayer
370
18
48
1
60
0
100
AcDbSpline
70
4
71
3
72
290
73
286
40
0
40
0
40
0
40
0
40
0.0008596815730393
40
0.0043501767618107
40
0.0078406719505821
40
0.0113311671393534
40
0.0148216623281248
40
0.0183121575168961
40
0.0218026527056675
40
0.0252931478944388
40
0.0287836430832102
40
0.0322741382719815
40
0.0357646334607529
40
0.0392551286495243
40
0.0427456238382956
40
0.046236119027067
40
0.0532171094046097
40
0.0567076045933811
40
0.0601980997821524
40
0.0636885949709238
40
0.0671790901596951
40
0.0741600805372378
40
0.0776505757260092
40
0.0811410709147806
40
0.0881220612923233
40
0.0916125564810946
40
0.095103051669866
40
0.102084042047409
40
0.10557453723618
40
0.109065032424951
40
0.112555527613723
40
0.116046022802494
40
0.119536517991265
40
0.123027013180037
40
0.126517508368808
40
0.13000800355758
40
0.136988993935122
40
0.140479489123894
40
0.143969984312665
40
0.147460479501436
40
0.150950974690208
40
0.157931965067751
40
0.161422460256522
40
0.163167707850908
40
0.164912955445293
40
0.168403450634065
40
0.171893945822836
40
0.178874936200379
40
0.18236543138915
40
0.185855926577921
40
0.189346421766693
40
0.192836916955464
40
0.199817907333007
40
0.203308402521778
40
0.206798897710549
40
0.210289392899321
40
0.213779888088092
40
0.220760878465635
40
0.224251373654406
40
0.227741868843178
40
0.231232364031949
40
0.23472285922072
40
0.241703849598263
40
0.245194344787034
40
0.248684839975806
40
0.252175335164577
40
0.255665830353349
40
0.262646820730891
40
0.266137315919663
40
0.269627811108434
40
0.276608801485977
40
0.283589791863519
40
0.287080287052291
40
0.290570782241062
40
0.297551772618605
40
0.301042267807376
40
0.304532762996148
40
0.308023258184919
40
0.31151375337369
40
0.315004248562462
40
0.318494743751233
40
0.325475734128776
40
0.332456724506318
40
0.33594721969509
40
0.339437714883861
40
0.342928210072633
40
0.346418705261404
40
0.349909200450175
40
0.353399695638947
40
0.360380686016489
40
0.367361676394032
40
0.374342666771575
40
0.377833161960346
40
0.381323657149117
40
0.384814152337889
40
0.38830464752666
40
0.391795142715432
40
0.395285637904203
40
0.398776133092974
40
0.402266628281746
40
0.405757123470517
40
0.409247618659288
40
0.41273811384806
40
0.416228609036831
40
0.419719104225602
40
0.423209599414374
40
0.426700094603145
40
0.430190589791916
40
0.433681084980688
40
0.435426332575074
40
0.437171580169459
40
0.438916827763845
40
0.440662075358231
40
0.444152570547002
40
0.447643065735773
40
0.449388313330159
40
0.451133560924545
40
0.454624056113316
40
0.456369303707702
40
0.458114551302087
40
0.459859798896473
40
0.461605046490859
40
0.463350294085244
40
0.46509554167963
40
0.466840789274016
40
0.468586036868402
40
0.470331284462787
40
0.472076532057173
40
0.473821779651558
40
0.475567027245944
40
0.47731227484033
40
0.479057522434716
40
0.480802770029101
40
0.482548017623487
40
0.484293265217873
40
0.486038512812258
40
0.487783760406644
40
0.48952900800103
40
0.491274255595415
40
0.493019503189801
40
0.494764750784187
40
0.496509998378572
40
0.498255245972958
40
0.500000493567344
40
0.501745741161729
40
0.503490988756115
40
0.505236236350501
40
0.506981483944886
40
0.508726731539272
40
0.510471979133658
40
0.512217226728043
40
0.513962474322429
40
0.515707721916815
40
0.517452969511201
40
0.519198217105586
40
0.520943464699972
40
0.522688712294358
40
0.524433959888743
40
0.526179207483129
40
0.527924455077515
40
0.5296697026719
40
0.531414950266286
40
0.533160197860672
40
0.534905445455057
40
0.536650693049443
40
0.538395940643829
40
0.5418864358326
40
0.543631683426986
40
0.545376931021371
40
0.547122178615757
40
0.548867426210143
40
0.550612673804528
40
0.552357921398914
40
0.555848416587685
40
0.559338911776457
40
0.561084159370843
40
0.562829406965228
40
0.564574654559614
40
0.566319902154
40
0.569810397342771
40
0.573300892531542
40
0.576791387720314
40
0.580281882909085
40
0.583772378097856
40
0.587262873286628
40
0.590753368475399
40
0.59424386366417
40
0.597734358852942
40
0.601224854041713
40
0.604715349230485
40
0.608205844419256
40
0.611696339608027
40
0.615186834796798
40
0.61867732998557
40
0.622167825174341
40
0.625658320363113
40
0.632639310740655
40
0.639620301118198
40
0.646601291495741
40
0.650091786684512
40
0.653582281873283
40
0.657072777062055
40
0.660563272250826
40
0.664053767439598
40
0.667544262628369
40
0.674525253005912
40
0.681506243383454
40
0.684996738572226
40
0.688487233760997
40
0.691977728949769
40
0.69546822413854
40
0.698958719327311
40
0.702449214516083
40
0.709430204893625
40
0.712920700082397
40
0.716411195271168
40
0.723392185648711
40
0.730373176026254
40
0.733863671215025
40
0.737354166403796
40
0.744335156781339
40
0.74782565197011
40
0.751316147158882
40
0.754806642347653
40
0.758297137536424
40
0.765278127913967
40
0.768768623102738
40
0.77225911829151
40
0.775749613480281
40
0.779240108669053
40
0.786221099046595
40
0.789711594235367
40
0.793202089424138
40
0.796692584612909
40
0.800183079801681
40
0.807164070179223
40
0.810654565367995
40
0.814145060556766
40
0.817635555745538
40
0.821126050934309
40
0.828107041311851
40
0.831597536500623
40
0.835088031689394
40
0.838578526878165
40
0.842069022066937
40
0.84905001244448
40
0.852540507633251
40
0.856031002822022
40
0.859521498010794
40
0.863011993199565
40
0.869992983577108
40
0.873483478765879
40
0.876973973954651
40
0.880464469143422
40
0.883954964332193
40
0.887445459520965
40
0.890935954709736
40
0.894426449898507
40
0.897916945087279
40
0.904897935464821
40
0.908388430653593
40
0.911878925842364
40
0.918859916219907
40
0.922350411408678
40
0.92584090659745
40
0.932821896974992
40
0.936312392163764
40
0.939802887352535
40
0.943293382541306
40
0.946783877730078
40
0.95376486810762
40
0.957255363296392
40
0.960745858485163
40
0.964236353673935
40
0.967726848862706
40
0.971217344051477
40
0.974707839240249
40
0.97819833442902
40
0.981688829617791
40
0.985179324806563
40
0.988669819995334
40
0.992160315184106
40
0.995650810372877
40
0.999141305561648
40
1
40
1
40
1
40
1
41
1
10
-28.5
20
-16.8570615126367
30
0
41
1
10
-28.5
20
-16.8573439117445
30
0
41
1
10
-28.5
20
-16.8586399007828
30
0
41
1
10
-28.5
20
-16.8597680746869
30
0
41
1
10
-28.5
20
-16.8587319423622
30
0
41
1
10
-28.5
20
-16.8551966659016
30
0
41
1
10
-28.5
20
-16.8492033090471
30
0
41
1
10
-28.5
20
-16.8407921763224
30
0
41
1
10
-28.5
20
-16.8300011251081
30
0
41
1
10
-28.5
20
-16.816867307208
30
0
41
1
10
-28.5
20
-16.8014255596809
30
0
41
1
10
-28.5
20
-16.7837098927271
30
0
41
1
10
-28.5
20
-16.7637529737167
30
0
41
1
10
-28.5
20
-16.741585550229
30
0
41
1
10
-28.5
20
-16.7172383773104
30
0
41
1
10
-28.5
20
-16.6818354096897
30
0
41
1
10
-28.5
20
-16.642411504334
30
0
41
1
10
-28.5
20
-16.5986105943247
30
0
41
1
10
-28.5
20
-16.5637763395247
30
0
41
1
10
-28.5
20
-16.5269199399481
30
0
41
1
10
-28.5
20
-16.4750169286961
30
0
41
1
10
-28.5
20
-16.4194622696319
30
0
41
1
10
-28.5
20
-16.3597332242326
30
0
41
1
10
-28.5
20
-16.2974462376793
30
0
41
1
10
-28.5
20
-16.2317181619347
30
0
41
1
10
-28.5
20
-16.1619255341458
30
0
41
1
10
-28.5
20
-16.0896767899467
30
0
41
1
10
-28.5
20
-16.0141701800502
30
0
41
1
10
-28.5
20
-15.9346970807191
30
0
41
1
10
-28.5
20
-15.8734193510279
30
0
41
1
10
-28.5
20
-15.810384423087
30
0
41
1
10
-28.5
20
-15.7456081924763
30
0
41
1
10
-28.5
20
-15.679103534252
30
0
41
1
10
-28.5
20
-15.6108850733398
30
0
41
1
10
-28.5
20
-15.5409672073329
30
0
41
1
10
-28.5
20
-15.4453363938053
30
0
41
1
10
-28.5
20
-15.3468344527491
30
0
41
1
10
-28.5
20
-15.2445501295776
30
0
41
1
10
-28.5
20
-15.1663215599361
30
0
41
1
10
-28.5
20
-15.0864673213159
30
0
41
1
10
-28.5
20
-14.9776668655465
30
0
41
1
10
-28.5
20
-14.8661866667289
30
0
41
1
10
-28.5
20
-14.7654709460418
30
0
41
1
10
-28.5
20
-14.7070919001429
30
0
41
1
10
-28.5
20
-14.6481896525931
30
0
41
1
10
-28.5
20
-14.5737935062701
30
0
41
1
10
-28.5
20
-14.452347405446
30
0
41
1
10
-28.5
20
-14.328392039309
30
0
41
1
10
-28.5
20
-14.2007962250068
30
0
41
1
10
-28.5
20
-14.1037299370702
30
0
41
1
10
-28.5
20
-14.0051547249398
30
0
41
1
10
-28.5
20
-13.8715103854275
30
0
41
1
10
-28.5
20
-13.7355116125921
30
0
41
1
10
-28.5
20
-13.5959164434403
30
0
41
1
10
-28.5
20
-13.4899116562855
30
0
41
1
10
-28.5
20
-13.3824445445542
30
0
41
1
10
-28.5
20
-13.2369867372074
30
0
41
1
10
-28.5
20
-13.0893180117674
30
0
41
1
10
-28.5
20
-12.9380809438717
30
0
41
1
10
-28.5
20
-12.8234002933141
30
0
41
1
10
-28.5
20
-12.7072977423403
30
0
41
1
10
-28.5
20
-12.5503594172971
30
0
41
1
10
-28.5
20
-12.3913462461042
30
0
41
1
10
-28.5
20
-12.2287775174239
30
0
41
1
10
-28.5
20
-12.1056498404809
30
0
41
1
10
-28.5
20
-11.9811355648908
30
0
41
1
10
-28.5
20
-11.8130068303033
30
0
41
1
10
-28.5
20
-11.6429357656381
30
0
41
1
10
-28.5
20
-11.4693068596264
30
0
41
1
10
-28.5
20
-11.2938625632929
30
0
41
1
10
-28.5
20
-11.0718089525805
30
0
41
1
10
-28.5
20
-10.8452681286137
30
0
41
1
10
-28.5
20
-10.6608197986608
30
0
41
1
10
-28.5
20
-10.4745957936974
30
0
41
1
10
-28.5
20
-10.2866518813937
30
0
41
1
10
-28.5
20
-10.095113531911
30
0
41
1
10
-28.5
20
-9.95038952754788
30
0
41
1
10
-28.5
20
-9.80435457188474
30
0
41
1
10
-28.5
20
-9.6570150628749
30
0
41
1
10
-28.5
20
-9.50837344479851
30
0
41
1
10
-28.5
20
-9.30810991622684
30
0
41
1
10
-28.5
20
-9.05534969583795
30
0
41
1
10
-28.5
20
-8.79830467826935
30
0
41
1
10
-28.5
20
-8.5894423488798
30
0
41
1
10
-28.5
20
-8.43181570788789
30
0
41
1
10
-28.5
20
-8.27292308432646
30
0
41
1
10
-28.5
20
-8.11277014937082
30
0
41
1
10
-28.5
20
-7.95136176299604
30
0
41
1
10
-28.5
20
-7.73407184285281
30
0
41
1
10
-28.5
20
-7.46030865505759
30
0
41
1
10
-28.5
20
-7.12632144512304
30
0
41
1
10
-28.5
20
-6.84437400802858
30
0
41
1
10
-28.5
20
-6.61554357091569
30
0
41
1
10
-28.5
20
-6.44309032655627
30
0
41
1
10
-28.5
20
-6.26944357118299
30
0
41
1
10
-28.5
20
-6.0946120882553
30
0
41
1
10
-28.5
20
-5.91860495448572
30
0
41
1
10
-28.5
20
-5.74143237747984
30
0
41
1
10
-28.5
20
-5.56310445504442
30
0
41
1
10
-28.5
20
-5.38363156234237
30
0
41
1
10
-28.5
20
-5.2030267003301
30
0
41
1
10
-28.5
20
-5.02130448518983
30
0
41
1
10
-28.5
20
-4.83847943804494
30
0
41
1
10
-28.5
20
-4.65456683421036
30
0
41
1
10
-28.5
20
-4.4695846174555
30
0
41
1
10
-28.5
20
-4.28355297730502
30
0
41
1
10
-28.5
20
-4.09649259176149
30
0
41
1
10
-28.5
20
-3.90842799420625
30
0
41
1
10
-28.5
20
-3.75124942106055
30
0
41
1
10
-28.5
20
-3.62435506854831
30
0
41
1
10
-28.5
20
-3.52924322184191
30
0
41
1
10
-28.5
20
-3.43390157548936
30
0
41
1
10
-28.5
20
-3.30608709676801
30
0
41
1
10
-28.5
20
-3.14669074057872
30
0
41
1
10
-28.5
20
-2.98656948332388
30
0
41
1
10
-28.5
20
-2.8572942882393
30
0
41
1
10
-28.5
20
-2.72777279716706
30
0
41
1
10
-28.5
20
-2.59923374131699
30
0
41
1
10
-28.5
20
-2.46893613943036
30
0
41
1
10
-28.5
20
-2.37140757120352
30
0
41
1
10
-28.5
20
-2.27371679621319
30
0
41
1
10
-28.5
20
-2.17587292609085
30
0
41
1
10
-28.5
20
-2.0778804265363
30
0
41
1
10
-28.5
20
-1.9797500364362
30
0
41
1
10
-28.5
20
-1.88148718140701
30
0
41
1
10
-28.5
20
-1.78310084050696
30
0
41
1
10
-28.5
20
-1.6846006870125
30
0
41
1
10
-28.5
20
-1.58599188781932
30
0
41
1
10
-28.5
20
-1.48728656512981
30
0
41
1
10
-28.5
20
-1.38848913588993
30
0
41
1
10
-28.5
20
-1.28961134189751
30
0
41
1
10
-28.5
20
-1.19065859620264
30
0
41
1
10
-28.5
20
-1.09164077920423
30
0
41
1
10
-28.5
20
-0.992564112169873
30
0
41
1
10
-28.5
20
-0.89343688343348
30
0
41
1
10
-28.5
20
-0.794265459276176
30
0
41
1
10
-28.5
20
-0.695056784277028
30
0
41
1
10
-28.5
20
-0.595816495504096
30
0
41
1
10
-28.5
20
-0.496550594205587
30
0
41
1
10
-28.5
20
-0.397263840423989
30
0
41
1
10
-28.5
20
-0.297961388791691
30
0
41
1
10
-28.5
20
-0.198647127601248
30
0
41
1
10
-28.5
20
-0.0993254684406111
30
0
41
1
10
-28.5
20
5.4724865E-09
30
0
41
1
10
-28.5
20
0.0993254669347152
30
0
41
1
10
-28.5
20
0.198647102840709
30
0
41
1
10
-28.5
20
0.297961366795107
30
0
41
1
10
-28.5
20
0.397263853181812
30
0
41
1
10
-28.5
20
0.49655061320999
30
0
41
1
10
-28.5
20
0.595816468507223
30
0
41
1
10
-28.5
20
0.695056741362862
30
0
41
1
10
-28.5
20
0.794265471937138
30
0
41
1
10
-28.5
20
0.893436923932541
30
0
41
1
10
-28.5
20
0.992564090788449
30
0
41
1
10
-28.5
20
1.09164071478051
30
0
41
1
10
-28.5
20
1.1906585936099
30
0
41
1
10
-28.5
20
1.28961139997085
30
0
41
1
10
-28.5
20
1.3884891432059
30
0
41
1
10
-28.5
20
1.48728649469353
30
0
41
1
10
-28.5
20
1.58599184128093
30
0
41
1
10
-28.5
20
1.68460072925302
30
0
41
1
10
-28.5
20
1.7831009010128
30
0
41
1
10
-28.5
20
1.88148715614125
30
0
41
1
10
-28.5
20
1.97974994874613
30
0
41
1
10
-28.5
20
2.07788039572898
30
0
41
1
10
-28.5
20
2.20905952740145
30
0
41
1
10
-28.5
20
2.33842740009589
30
0
41
1
10
-28.5
20
2.46893611478754
30
0
41
1
10
-28.5
20
2.56629526768592
30
0
41
1
10
-28.5
20
2.66347976206254
30
0
41
1
10
-28.5
20
2.76048089001324
30
0
41
1
10
-28.5
20
2.85729421649609
30
0
41
1
10
-28.5
20
2.98656939879123
30
0
41
1
10
-28.5
20
3.14669072023423
30
0
41
1
10
-28.5
20
3.30608717079298
30
0
41
1
10
-28.5
20
3.43390158445521
30
0
41
1
10
-28.5
20
3.52924315934183
30
0
41
1
10
-28.5
20
3.6243549796439
30
0
41
1
10
-28.5
20
3.75124940963565
30
0
41
1
10
-28.5
20
3.90842813226232
30
0
41
1
10
-28.5
20
4.09649275318179
30
0
41
1
10
-28.5
20
4.28355302808069
30
0
41
1
10
-28.5
20
4.46958486845949
30
0
41
1
10
-28.5
20
4.65456716028001
30
0
41
1
10
-28.5
20
4.83847919931264
30
0
41
1
10
-28.5
20
5.02130422324717
30
0
41
1
10
-28.5
20
5.20302692387259
30
0
41
1
10
-28.5
20
5.38363134733163
30
0
41
1
10
-28.5
20
5.56310357372001
30
0
41
1
10
-28.5
20
5.74143189937956
30
0
41
1
10
-28.5
20
5.91860523667611
30
0
41
1
10
-28.5
20
6.09461246091769
30
0
41
1
10
-28.5
20
6.26944364545886
30
0
41
1
10
-28.5
20
6.44309029411608
30
0
41
1
10
-28.5
20
6.61554359890368
30
0
41
1
10
-28.5
20
6.84437402550572
30
0
41
1
10
-28.5
20
7.12632140637373
30
0
41
1
10
-28.5
20
7.46030866767529
30
0
41
1
10
-28.5
20
7.73407184255308
30
0
41
1
10
-28.5
20
7.95136171184487
30
0
41
1
10
-28.5
20
8.11277014047181
30
0
41
1
10
-28.5
20
8.27292311790592
30
0
41
1
10
-28.5
20
8.43181572672978
30
0
41
1
10
-28.5
20
8.58944232029052
30
0
41
1
10
-28.5
20
8.79830464348919
30
0
41
1
10
-28.5
20
9.05534970701541
30
0
41
1
10
-28.5
20
9.30810992365679
30
0
41
1
10
-28.5
20
9.50837340526908
30
0
41
1
10
-28.5
20
9.6570150361182
30
0
41
1
10
-28.5
20
9.8043545776041
30
0
41
1
10
-28.5
20
9.95038954775907
30
0
41
1
10
-28.5
20
10.0951135357909
30
0
41
1
10
-28.5
20
10.28665185334
30
0
41
1
10
-28.5
20
10.4745957683654
30
0
41
1
10
-28.5
20
10.6608198079832
30
0
41
1
10
-28.5
20
10.8452681360072
30
0
41
1
10
-28.5
20
11.0718089327864
30
0
41
1
10
-28.5
20
11.2938625434425
30
0
41
1
10
-28.5
20
11.4693068645233
30
0
41
1
10
-28.5
20
11.642935768078
30
0
41
1
10
-28.5
20
11.8130068133241
30
0
41
1
10
-28.5
20
11.9811355431937
30
0
41
1
10
-28.5
20
12.1056498288981
30
0
41
1
10
-28.5
20
12.2287775158425
30
0
41
1
10
-28.5
20
12.3913462445321
30
0
41
1
10
-28.5
20
12.550359403554
30
0
41
1
10
-28.5
20
12.7072977235969
30
0
41
1
10
-28.5
20
12.8234002792818
30
0
41
1
10
-28.5
20
12.9380809359595
30
0
41
1
10
-28.5
20
13.0893180063072
30
0
41
1
10
-28.5
20
13.2369867267196
30
0
41
1
10
-28.5
20
13.3824445287113
30
0
41
1
10
-28.5
20
13.4899116400767
30
0
41
1
10
-28.5
20
13.5959164295663
30
0
41
1
10
-28.5
20
13.7355116027341
30
0
41
1
10
-28.5
20
13.8715103774192
30
0
41
1
10
-28.5
20
14.0051547121626
30
0
41
1
10
-28.5
20
14.1037299196573
30
0
41
1
10
-28.5
20
14.2007962111626
30
0
41
1
10
-28.5
20
14.3283920102608
30
0
41
1
10
-28.5
20
14.4523474056541
30
0
41
1
10
-28.5
20
14.5737935545692
30
0
41
1
10
-28.5
20
14.6631805593238
30
0
41
1
10
-28.5
20
14.7510047173632
30
0
41
1
10
-28.5
20
14.8661866472664
30
0
41
1
10
-28.5
20
14.9776668598204
30
0
41
1
10
-28.5
20
15.0864673138636
30
0
41
1
10
-28.5
20
15.1663215412447
30
0
41
1
10
-28.5
20
15.2445501023873
30
0
41
1
10
-28.5
20
15.3468344295442
30
0
41
1
10
-28.5
20
15.4453363897878
30
0
41
1
10
-28.5
20
15.5409672008416
30
0
41
1
10
-28.5
20
15.6108850520675
30
0
41
1
10
-28.5
20
15.6791035033831
30
0
41
1
10
-28.5
20
15.745608166167
30
0
41
1
10
-28.5
20
15.8103844132607
30
0
41
1
10
-28.5
20
15.8734193498834
30
0
41
1
10
-28.5
20
15.9346970720351
30
0
41
1
10
-28.5
20
16.0141701499498
30
0
41
1
10
-28.5
20
16.0896767577218
30
0
41
1
10
-28.5
20
16.1619255301562
30
0
41
1
10
-28.5
20
16.2317181614777
30
0
41
1
10
-28.5
20
16.2974462059125
30
0
41
1
10
-28.5
20
16.3597331913305
30
0
41
1
10
-28.5
20
16.4194622625482
30
0
41
1
10
-28.5
20
16.4750169305148
30
0
41
1
10
-28.5
20
16.5269199075572
30
0
41
1
10
-28.5
20
16.5637763020886
30
0
41
1
10
-28.5
20
16.5986105790194
30
0
41
1
10
-28.5
20
16.642411510514
30
0
41
1
10
-28.5
20
16.6818353810987
30
0
41
1
10
-28.5
20
16.7172383450784
30
0
41
1
10
-28.5
20
16.7415855338906
30
0
41
1
10
-28.5
20
16.7637529731542
30
0
41
1
10
-28.5
20
16.783709883521
30
0
41
1
10
-28.5
20
16.8014255225769
30
0
41
1
10
-28.5
20
16.8168672741156
30
0
41
1
10
-28.5
20
16.8300011209595
30
0
41
1
10
-28.5
20
16.8407921788659
30
0
41
1
10
-28.5
20
16.8492032887544
30
0
41
1
10
-28.5
20
16.8551966776124
30
0
41
1
10
-28.5
20
16.8587320876464
30
0
41
1
10
-28.5
20
16.8597682913315
30
0
41
1
10
-28.5
20
16.8586401515025
30
0
41
1
10
-28.5
20
16.8573445204181
30
0
41
1
10
-28.5
20
16.8570624876409
30
0
0
SPLINE
5
1CC
100
AcDbEntity
8
1
62
256
6
ByLayer
370
18
48
1
60
0
100
AcDbSpline
70
2053
71
3
72
154
73
150
40
0
40
0
40
0
40
0
40
0.0156249999999786
40
0.0156249999999786
40
0.023437499999968
40
0.023437499999968
40
0.0273437499999554
40
0.0273437499999554
40
0.0312499999999428
40
0.0312499999999428
40
0.0468749999999064
40
0.0468749999999064
40
0.0546874999998926
40
0.0546874999998926
40
0.0624999999998789
40
0.0624999999998789
40
0.0781249999998404
40
0.0781249999998404
40
0.093749999999802
40
0.093749999999802
40
0.109374999999763
40
0.109374999999763
40
0.117187499999743
40
0.117187499999743
40
0.124999999999722
40
0.124999999999722
40
0.156249999999639
40
0.156249999999639
40
0.187499999999556
40
0.187499999999556
40
0.218749999999473
40
0.218749999999473
40
0.226562499999452
40
0.226562499999452
40
0.234374999999432
40
0.249999999999387
40
0.249999999999387
40
0.281249999999301
40
0.281249999999301
40
0.312499999999214
40
0.312499999999214
40
0.328124999999172
40
0.328124999999172
40
0.335937499999148
40
0.335937499999148
40
0.343749999999124
40
0.343749999999124
40
0.374999999999036
40
0.374999999999036
40
0.382812499999019
40
0.382812499999019
40
0.390624999999002
40
0.390624999999002
40
0.406249999998959
40
0.406249999998959
40
0.421874999998915
40
0.421874999998915
40
0.425781249998905
40
0.425781249998905
40
0.429687499998896
40
0.429687499998896
40
0.437499999998892
40
0.437499999998892
40
0.453124999998884
40
0.453124999998884
40
0.460937499998872
40
0.460937499998872
40
0.46874999999886
40
0.476562499998848
40
0.476562499998848
40
0.48046874999885
40
0.48046874999885
40
0.484374999998853
40
0.484374999998853
40
0.499999999998829
40
0.499999999998829
40
0.507812499998826
40
0.507812499998826
40
0.515624999998823
40
0.515624999998823
40
0.531249999998832
40
0.531249999998832
40
0.535156249998835
40
0.535156249998835
40
0.539062499998839
40
0.546874999998858
40
0.546874999998858
40
0.562499999998887
40
0.562499999998887
40
0.570312499998904
40
0.570312499998904
40
0.57812499999892
40
0.57812499999892
40
0.593749999998957
40
0.593749999998957
40
0.624999999999043
40
0.624999999999043
40
0.640624999999092
40
0.640624999999092
40
0.656249999999141
40
0.656249999999141
40
0.687499999999234
40
0.687499999999234
40
0.70312499999928
40
0.70312499999928
40
0.710937499999301
40
0.710937499999301
40
0.718749999999321
40
0.718749999999321
40
0.749999999999399
40
0.749999999999399
40
0.781249999999477
40
0.781249999999477
40
0.812499999999554
40
0.812499999999554
40
0.828124999999593
40
0.828124999999593
40
0.843749999999632
40
0.843749999999632
40
0.874999999999709
40
0.874999999999709
40
0.88281249999973
40
0.88281249999973
40
0.89062499999975
40
0.89062499999975
40
0.906249999999788
40
0.906249999999788
40
0.921874999999825
40
0.921874999999825
40
0.929687499999851
40
0.929687499999851
40
0.937499999999877
40
0.937499999999877
40
0.95312499999994
40
0.95312499999994
40
0.957031249999952
40
0.957031249999952
40
0.960937499999964
40
0.960937499999964
40
0.968749999999971
40
0.976562499999978
40
0.976562499999978
40
0.984374999999986
40
0.984374999999986
40
0.992187499999993
40
0.992187499999993
40
0.996093749999996
40
0.996093749999996
40
1
40
1
40
1
40
1
41
1
10
267.678747587812
20
-21.4932967815458
30
0
41
1
10
267.628736448257
20
-21.4877502808977
30
0
41
1
10
267.581317673379
20
-21.4790559681892
30
0
41
1
10
267.513271309345
20
-21.4622300097298
30
0
41
1
10
267.491107912095
20
-21.4559842663134
30
0
41
1
10
267.458575182713
20
-21.445733411204
30
0
41
1
10
267.447856507033
20
-21.4421701414211
30
0
41
1
10
267.426860779475
20
-21.4348385214199
30
0
41
1
10
267.416554496748
20
-21.431061204774
30
0
41
1
10
267.365908869248
20
-21.4116558117635
30
0
41
1
10
267.328196861825
20
-21.3944880542978
30
0
41
1
10
267.274881849573
20
-21.3667740692246
30
0
41
1
10
267.257658293609
20
-21.3572056984391
30
0
41
1
10
267.224202626649
20
-21.3374618181332
30
0
41
1
10
267.207935535262
20
-21.3272607672537
30
0
41
1
10
267.160962984962
20
-21.2961267415847
30
0
41
1
10
267.13193463699
20
-21.2745971439464
30
0
41
1
10
267.077546358607
20
-21.2302362492029
30
0
41
1
10
267.052193421929
20
-21.2074029295071
30
0
41
1
10
267.004613600222
20
-21.1605752059009
30
0
41
1
10
266.982390002954
20
-21.1365798602645
30
0
41
1
10
266.951137399499
20
-21.0997794544888
30
0
41
1
10
266.94106825249
20
-21.0873777229902
30
0
41
1
10
266.921594988541
20
-21.0623114952873
30
0
41
1
10
266.912206268537
20
-21.0496652759162
30
0
41
1
10
266.867102802157
20
-20.9861618411001
30
0
41
1
10
266.836638159361
20
-20.9342327021581
30
0
41
1
10
266.785089336004
20
-20.8282837379122
30
0
41
1
10
266.76402786084
20
-20.7742615011873
30
0
41
1
10
266.730637791485
20
-20.6641484646661
30
0
41
1
10
266.718315138824
20
-20.6080571946764
30
0
41
1
10
266.70842012919
20
-20.5366071249543
30
0
41
1
10
266.706717977294
20
-20.5222407599037
30
0
41
1
10
266.703886331905
20
-20.4935088472512
30
0
41
1
10
266.700492089209
20
-20.4503655152551
30
0
41
1
10
266.699642818807
20
-20.4070868090975
30
0
41
1
10
266.701363893172
20
-20.3203551568682
30
0
41
1
10
266.707048050663
20
-20.2623004081336
30
0
41
1
10
266.728141639744
20
-20.1457859234631
30
0
41
1
10
266.743538511721
20
-20.0873253501828
30
0
41
1
10
266.775060288977
20
-19.9994158428225
30
0
41
1
10
266.78697963984
20
-19.9700766989715
30
0
41
1
10
266.807218892981
20
-19.926030858323
30
0
41
1
10
266.814355427508
20
-19.9113551543207
30
0
41
1
10
266.829362164558
20
-19.8821861329588
30
0
41
1
10
266.837242332399
20
-19.8676705247569
30
0
41
1
10
266.878606104344
20
-19.7954627911915
30
0
41
1
10
266.917884779146
20
-19.7388559243971
30
0
41
1
10
266.97678224329
20
-19.6701781402214
30
0
41
1
10
266.989058248154
20
-19.6565484204865
30
0
41
1
10
267.014687534291
20
-19.6295254013466
30
0
41
1
10
267.028011478043
20
-19.6161660786514
30
0
41
1
10
267.069358911585
20
-19.5768285858478
30
0
41
1
10
267.098839036038
20
-19.55149179667
30
0
41
1
10
267.162173714116
20
-19.5029099835929
30
0
41
1
10
267.196022010324
20
-19.4796616654887
30
0
41
1
10
267.24160398498
20
-19.4522093351992
30
0
41
1
10
267.250885062784
20
-19.4467998513752
30
0
41
1
10
267.269795330861
20
-19.4361531519811
30
0
41
1
10
267.279432518351
20
-19.4309125025404
30
0
41
1
10
267.308668183318
20
-19.4155827263572
30
0
41
1
10
267.328657831469
20
-19.4058457714349
30
0
41
1
10
267.390217559598
20
-19.3781865964981
30
0
41
1
10
267.433364364413
20
-19.3618021556636
30
0
41
1
10
267.501817554003
20
-19.3409172165418
30
0
41
1
10
267.525372373654
20
-19.3345536968244
30
0
41
1
10
267.572918241321
20
-19.3234172486768
30
0
41
1
10
267.621047176929
20
-19.3138125733144
30
0
41
1
10
267.670377810803
20
-19.3073757353584
30
0
41
1
10
267.707847712612
20
-19.3037950101221
30
0
41
1
10
267.720416420151
20
-19.3028094669236
30
0
41
1
10
267.745716014908
20
-19.3012671566679
30
0
41
1
10
267.758483910627
20
-19.3007102155042
30
0
41
1
10
267.822026244752
20
-19.2990455503895
30
0
41
1
10
267.872244307916
20
-19.301239379694
30
0
41
1
10
267.946695127312
20
-19.3095395124932
30
0
41
1
10
267.971365399953
20
-19.3131444304994
30
0
41
1
10
268.020413596704
20
-19.3220208834846
30
0
41
1
10
268.044454113397
20
-19.3272329899731
30
0
41
1
10
268.114941250038
20
-19.3449362604769
30
0
41
1
10
268.159901237459
20
-19.3595083432808
30
0
41
1
10
268.213852619486
20
-19.3807549381421
30
0
41
1
10
268.224535852276
20
-19.3851603060647
30
0
41
1
10
268.245504305622
20
-19.3941885002872
30
0
41
1
10
268.276428919861
20
-19.4080846153558
30
0
41
1
10
268.30585984517
20
-19.4229769025789
30
0
41
1
10
268.362914145091
20
-19.4539551127696
30
0
41
1
10
268.398549717748
20
-19.4761922705813
30
0
41
1
10
268.448903358418
20
-19.5115490712348
30
0
41
1
10
268.465187773511
20
-19.5236852394141
30
0
41
1
10
268.496693749321
20
-19.548518847357
30
0
41
1
10
268.51181465019
20
-19.5611345756461
30
0
41
1
10
268.555459627198
20
-19.5995114383832
30
0
41
1
10
268.582274424374
20
-19.6257992341015
30
0
41
1
10
268.656887546515
20
-19.7063832928657
30
0
41
1
10
268.698913850778
20
-19.7623792070198
30
0
41
1
10
268.75258848413
20
-19.8488858769793
30
0
41
1
10
268.768725108139
20
-19.8778636932761
30
0
41
1
10
268.797841261089
20
-19.9359229852648
30
0
41
1
10
268.810831439611
20
-19.9650246473076
30
0
41
1
10
268.845545795894
20
-20.0524816325565
30
0
41
1
10
268.863043392307
20
-20.1109853289484
30
0
41
1
10
268.881871771907
20
-20.1988752808492
30
0
41
1
10
268.886903121219
20
-20.2281953752428
30
0
41
1
10
268.892650640852
20
-20.2721978754278
30
0
41
1
10
268.894266184314
20
-20.2868691470031
30
0
41
1
10
268.896903634022
20
-20.3162176050606
30
0
41
1
10
268.897925021335
20
-20.3309008566485
30
0
41
1
10
268.901548458137
20
-20.4039622884718
30
0
41
1
10
268.899760832969
20
-20.4615693223948
30
0
41
1
10
268.887463346527
20
-20.5751803104035
30
0
41
1
10
268.876951524603
20
-20.6311839811236
30
0
41
1
10
268.84717138975
20
-20.7416177688049
30
0
41
1
10
268.827910250855
20
-20.7960482373714
30
0
41
1
10
268.791873537878
20
-20.8764979615827
30
0
41
1
10
268.778664168425
20
-20.9031147849871
30
0
41
1
10
268.749652117493
20
-20.9559396524553
30
0
41
1
10
268.733913516315
20
-20.9820237980678
30
0
41
1
10
268.682936575119
20
-21.0589443331626
30
0
41
1
10
268.64393473641
20
-21.1085962141257
30
0
41
1
10
268.58734554811
20
-21.1683475060127
30
0
41
1
10
268.575630340253
20
-21.1801808903269
30
0
41
1
10
268.551338773877
20
-21.2036010784098
30
0
41
1
10
268.538746119635
20
-21.2152022273089
30
0
41
1
10
268.499664988397
20
-21.249512158096
30
0
41
1
10
268.472010177012
20
-21.2716226684427
30
0
41
1
10
268.412945103798
20
-21.3141236534961
30
0
41
1
10
268.381541817915
20
-21.3345168764595
30
0
41
1
10
268.330951380119
20
-21.3635708596373
30
0
41
1
10
268.313503743198
20
-21.372998268833
30
0
41
1
10
268.277270021458
20
-21.3912744584863
30
0
41
1
10
268.25844504828
20
-21.4001359934112
30
0
41
1
10
268.200495340271
20
-21.4253677159228
30
0
41
1
10
268.159696682058
20
-21.4405226472604
30
0
41
1
10
268.105236384201
20
-21.4568633153909
30
0
41
1
10
268.09416945201
20
-21.4599999966263
30
0
41
1
10
268.071658511553
20
-21.4659912346941
30
0
41
1
10
268.060184839974
20
-21.4688519958966
30
0
41
1
10
268.025515689639
20
-21.4768962968016
30
0
41
1
10
267.978485503661
20
-21.4862350276183
30
0
41
1
10
267.929725201572
20
-21.492609125861
30
0
41
1
10
267.880019502719
20
-21.497369677466
30
0
41
1
10
267.85454333169
20
-21.498937302326
30
0
41
1
10
267.804037213343
20
-21.5002826320469
30
0
41
1
10
267.778866356972
20
-21.5000836318568
30
0
41
1
10
267.741231169424
20
-21.4985007426213
30
0
41
1
10
267.728706305891
20
-21.4977588491273
30
0
41
1
10
267.703696797284
20
-21.4958480619154
30
0
41
1
10
267.6912503727
20
-21.4946834067078
30
0
41
1
10
267.678747587812
20
-21.4932967815458
30
0
0
SPLINE
5
1CD
100
AcDbEntity
8
1
62
256
6
ByLayer
370
18
48
1
60
0
100
AcDbSpline
70
4
71
3
72
16
73
12
40
0
40
0
40
0
40
0
40
0.111430279628008
40
0.111430279628008
40
0.248747543515427
40
0.248747543515427
40
0.465535329195197
40
0.465535329195197
40
0.883855351867491
40
0.883855351867491
40
1
40
1
40
1
40
1
41
1
10
8.53867513459497
20
-23.8391299750501
30
0
41
1
10
8.51081528400594
20
-23.8391299750501
30
0
41
1
10
8.48260885722463
20
-23.8375361275705
30
0
41
1
10
8.42415079676087
20
-23.8311506585889
30
0
41
1
10
8.3939586107696
20
-23.8256668770178
30
0
41
1
10
8.3248462456426
20
-23.8089605749786
30
0
41
1
10
8.28921459142971
20
-23.7960379707758
30
0
41
1
10
8.20100610925415
20
-23.755682424683
30
0
41
1
10
8.16026799314929
20
-23.7250165399979
30
0
41
1
10
8.12070829847335
20
-23.6845451449631
30
0
41
1
10
8.11283840142704
20
-23.6755726082076
30
0
41
1
10
8.1056624327026
20
-23.6665017920807
30
0
0
SPLINE
5
1CE
100
AcDbEntity
8
1
62
256
6
ByLayer
370
18
48
1
60
0
100
AcDbSpline
70
4
71
3
72
55
73
51
40
0
40
0
40
0
40
0
40
0.0312499999999514
40
0.0312499999999514
40
0.0624999999999028
40
0.0624999999999028
40
0.124999999999767
40
0.124999999999767
40
0.18749999999963
40
0.18749999999963
40
0.203124999999611
40
0.203124999999611
40
0.218749999999591
40
0.24999999999956
40
0.24999999999956
40
0.312499999999503
40
0.312499999999503
40
0.343749999999487
40
0.343749999999487
40
0.374999999999471
40
0.374999999999471
40
0.437499999999447
40
0.437499999999447
40
0.468749999999435
40
0.468749999999435
40
0.484374999999429
40
0.484374999999429
40
0.499999999999423
40
0.499999999999423
40
0.562499999999469
40
0.562499999999469
40
0.593749999999505
40
0.593749999999505
40
0.62499999999954
40
0.62499999999954
40
0.68749999999961
40
0.68749999999961
40
0.74999999999968
40
0.74999999999968
40
0.781249999999715
40
0.781249999999715
40
0.81249999999975
40
0.81249999999975
40
0.874999999999838
40
0.874999999999838
40
0.937499999999926
40
0.937499999999926
40
0.968749999999963
40
0.968749999999963
40
1
40
1
40
1
40
1
41
1
10
286.164144620463
20
18.9772882604974
30
0
41
1
10
286.138529189046
20
18.9929281179667
30
0
41
1
10
286.11312054612
20
19.009413506427
30
0
41
1
10
286.0627311165
20
19.0441857019003
30
0
41
1
10
286.037676030967
20
19.0625352065485
30
0
41
1
10
285.964140659026
20
19.1197265798482
30
0
41
1
10
285.917057291556
20
19.1608328659619
30
0
41
1
10
285.826932825451
20
19.2493472715256
30
0
41
1
10
285.783889645542
20
19.2967514691107
30
0
41
1
10
285.732847796597
20
19.3603679308143
30
0
41
1
10
285.722766639683
20
19.3733274420428
30
0
41
1
10
285.7030687044
20
19.3994561826239
30
0
41
1
10
285.674152786122
20
19.4390429812337
30
0
41
1
10
285.647115143826
20
19.4798023146489
30
0
41
1
10
285.595531184051
20
19.5628778598261
30
0
41
1
10
285.564454242638
20
19.6203314836003
30
0
41
1
10
285.522922159661
20
19.7096952838188
30
0
41
1
10
285.509907318653
20
19.7400673063069
30
0
41
1
10
285.485711331451
20
19.8016881966572
30
0
41
1
10
285.474663806029
20
19.8325867115
30
0
41
1
10
285.444525910924
20
19.9255272956656
30
0
41
1
10
285.428429500282
20
19.9878136861951
30
0
41
1
10
285.409920324786
20
20.0816736289933
30
0
41
1
10
285.404692703252
20
20.1130322119261
30
0
41
1
10
285.398242918071
20
20.160172037843
30
0
41
1
10
285.396328029196
20
20.1758882672475
30
0
41
1
10
285.392980300961
20
20.2071157005886
30
0
41
1
10
285.391543256759
20
20.2226562927153
30
0
41
1
10
285.385500836803
20
20.3000025685458
30
0
41
1
10
285.384309212676
20
20.3607433122611
30
0
41
1
10
285.387389366617
20
20.4502558854235
30
0
41
1
10
285.389230283023
20
20.4798259724845
30
0
41
1
10
285.394469980981
20
20.5384376512914
30
0
41
1
10
285.397878993435
20
20.5675136823044
30
0
41
1
10
285.410174986043
20
20.6528913037529
30
0
41
1
10
285.421145666877
20
20.707719174576
30
0
41
1
10
285.447778196693
20
20.8135572954741
30
0
41
1
10
285.463445703242
20
20.8645661386342
30
0
41
1
10
285.489966363868
20
20.9383130748027
30
0
41
1
10
285.499310708233
20
20.9624326796268
30
0
41
1
10
285.51892686678
20
21.0097423567052
30
0
41
1
10
285.529224609483
20
21.0329836029808
30
0
41
1
10
285.561102505906
20
21.10071258338
30
0
41
1
10
285.583710450033
20
21.1433361909841
30
0
41
1
10
285.630593759334
20
21.2235229435548
30
0
41
1
10
285.654885030287
20
21.26109378773
30
0
41
1
10
285.691483715803
20
21.3132832638161
30
0
41
1
10
285.703705670511
20
21.3299808809719
30
0
41
1
10
285.727914661961
20
21.3618358199725
30
0
41
1
10
285.739922387936
20
21.3770174246845
30
0
41
1
10
285.751574643002
20
21.3912625862508
30
0
0
SPLINE
5
1CF
100
AcDbEntity
8
1
62
256
6
ByLayer
370
18
48
1
60
0
100
AcDbSpline
70
4
71
3
72
26
73
22
40
0
40
0
40
0
40
0
40
0.125000000000027
40
0.250000000000054
40
0.250000000000054
40
0.312500000000067
40
0.312500000000067
40
0.375000000000081
40
0.375000000000081
40
0.499999999999938
40
0.499999999999938
40
0.562499999999946
40
0.562499999999946
40
0.624999999999953
40
0.624999999999953
40
0.749999999999969
40
0.874999999999985
40
0.874999999999985
40
0.937499999999993
40
0.937499999999993
40
1
40
1
40
1
40
1
41
1
10
287.201481908328
20
26.4000674485536
30
0
41
1
10
287.163887727258
20
26.3981850578086
30
0
41
1
10
287.089617231469
20
26.3941063086601
30
0
41
1
10
287.017104334811
20
26.3894446252825
30
0
41
1
10
286.9633878584
20
26.3857479757283
30
0
41
1
10
286.945543132646
20
26.3844786150684
30
0
41
1
10
286.910319675202
20
26.3818939420135
30
0
41
1
10
286.89303208964
20
26.3805856010279
30
0
41
1
10
286.84211600678
20
26.3766231138565
30
0
41
1
10
286.809429737549
20
26.3739312919336
30
0
41
1
10
286.762269252707
20
26.3698629860163
30
0
41
1
10
286.746861699281
20
26.3685018319318
30
0
41
1
10
286.716682660996
20
26.3657776576408
30
0
41
1
10
286.701854900703
20
26.3644092694721
30
0
41
1
10
286.658851803103
20
26.3603618441486
30
0
41
1
10
286.605452440687
20
26.3551220929931
30
0
41
1
10
286.559680139161
20
26.3503277419461
30
0
41
1
10
286.528288585323
20
26.3469571518375
30
0
41
1
10
286.518297206495
20
26.3458691326464
30
0
41
1
10
286.499506623428
20
26.343799059353
30
0
41
1
10
286.490687397544
20
26.3428149159597
30
0
41
1
10
286.482446671289
20
26.3418858102856
30
0
0
SPLINE
5
1D0
100
AcDbEntity
8
1
62
256
6
ByLayer
370
18
48
1
60
0
100
AcDbSpline
70
4
71
3
72
20
73
16
40
0
40
0
40
0
40
0
40
0.250000000000062
40
0.250000000000062
40
0.37500000000012
40
0.37500000000012
40
0.500000000000177
40
0.500000000000177
40
0.531250000000176
40
0.531250000000176
40
0.562500000000176
40
0.625000000000118
40
0.750000000000059
40
0.750000000000059
40
1
40
1
40
1
40
1
41
1
10
285.306646136988
20
26.1581137701486
30
0
41
1
10
285.489209322943
20
26.1967798582057
30
0
41
1
10
285.676842057878
20
26.2321123308101
30
0
41
1
10
285.968495995913
20
26.2794678380318
30
0
41
1
10
286.067425310668
20
26.2943089324254
30
0
41
1
10
286.269305486913
20
26.3219366861822
30
0
41
1
10
286.372254859586
20
26.3347240333097
30
0
41
1
10
286.503925415963
20
26.3492835992034
30
0
41
1
10
286.530438662338
20
26.3521271252423
30
0
41
1
10
286.583622528223
20
26.3576510629292
30
0
41
1
10
286.66358743654
20
26.3656880748762
30
0
41
1
10
286.851528201377
20
26.3826788690292
30
0
41
1
10
287.015057257848
20
26.3941499965179
30
0
41
1
10
287.345675566205
20
26.4127381259614
30
0
41
1
10
287.570837069809
20
26.4193427397859
30
0
41
1
10
287.801586426801
20
26.4193427397859
30
0
0
SPLINE
5
1D1
100
AcDbEntity
8
1
62
256
6
ByLayer
370
18
48
1
60
0
100
AcDbSpline
70
4
71
3
72
28
73
24
40
0
40
0
40
0
40
0
40
0.124999999999928
40
0.124999999999928
40
0.249999999999856
40
0.249999999999856
40
0.31249999999988
40
0.31249999999988
40
0.374999999999905
40
0.374999999999905
40
0.500000000000094
40
0.500000000000094
40
0.562500000000105
40
0.562500000000105
40
0.625000000000116
40
0.625000000000116
40
0.750000000000138
40
0.750000000000138
40
0.87500000000016
40
0.87500000000016
40
0.93750000000008
40
0.93750000000008
40
1
40
1
40
1
40
1
41
1
10
286.482446671289
20
18.8283820091142
30
0
41
1
10
286.498858352621
20
18.822779302993
30
0
41
1
10
286.517388993215
20
18.8167385288994
30
0
41
1
10
286.55852022005
20
18.8043042242692
30
0
41
1
10
286.581121377659
20
18.7979088248184
30
0
41
1
10
286.618160830878
20
18.7884302651618
30
0
41
1
10
286.631059420616
20
18.7852837051391
30
0
41
1
10
286.657830883971
20
18.7791228922148
30
0
41
1
10
286.671601369979
20
18.7761317736314
30
0
41
1
10
286.714050551527
20
18.7675140458366
30
0
41
1
10
286.743861125798
20
18.7622422130635
30
0
41
1
10
286.790886265781
20
18.755394708553
30
0
41
1
10
286.80694764327
20
18.7532890189315
30
0
41
1
10
286.839868693933
20
18.7494938382568
30
0
41
1
10
286.856792791928
20
18.7477991271399
30
0
41
1
10
286.908357473124
20
18.7434790847211
30
0
41
1
10
286.94345497275
20
18.7416371388797
30
0
41
1
10
287.015048213984
20
18.7402861451708
30
0
41
1
10
287.051543997227
20
18.7407757922057
30
0
41
1
10
287.107366075458
20
18.7434789459702
30
0
41
1
10
287.126209170492
20
18.7447143420906
30
0
41
1
10
287.163841073435
20
18.7478454884494
30
0
41
1
10
287.182660192311
20
18.7497407255504
30
0
41
1
10
287.201481908328
20
18.7519693822894
30
0
0
SPLINE
5
1D2
100
AcDbEntity
8
1
62
256
6
ByLayer
370
18
48
1
60
0
100
AcDbSpline
70
4
71
3
72
28
73
24
40
0
40
0
40
0
40
0
40
0.125000000000082
40
0.125000000000082
40
0.250000000000164
40
0.250000000000164
40
0.312500000000174
40
0.312500000000174
40
0.375000000000184
40
0.375000000000184
40
0.500000000000089
40
0.500000000000089
40
0.624999999999994
40
0.624999999999994
40
0.687499999999929
40
0.687499999999929
40
0.749999999999864
40
0.749999999999864
40
0.874999999999852
40
0.874999999999852
40
0.937499999999926
40
0.937499999999926
40
1
40
1
40
1
40
1
41
1
10
286.482446671289
20
21.9700106378946
30
0
41
1
10
286.499186489393
20
21.9856092820199
30
0
41
1
10
286.517884333283
20
22.002393712684
30
0
41
1
10
286.55891765545
20
22.0373657039062
30
0
41
1
10
286.581256991115
20
22.0555601763489
30
0
41
1
10
286.617544653986
20
22.0834303096221
30
0
41
1
10
286.630105906352
20
22.0928186264202
30
0
41
1
10
286.656193554736
20
22.1117285505404
30
0
41
1
10
286.669711914357
20
22.121241774755
30
0
41
1
10
286.711214306713
20
22.1495207435629
30
0
41
1
10
286.740309045211
20
22.1681479937177
30
0
41
1
10
286.801498879675
20
22.2045839421301
30
0
41
1
10
286.833592677331
20
22.2223947707631
30
0
41
1
10
286.884232530889
20
22.2482551734556
30
0
41
1
10
286.901593041615
20
22.2567604752621
30
0
41
1
10
286.936737517321
20
22.2732269425006
30
0
41
1
10
286.954551349599
20
22.2812059826203
30
0
41
1
10
287.008734286854
20
22.3043481037946
30
0
41
1
10
287.045841648123
20
22.3187174236776
30
0
41
1
10
287.103098908884
20
22.3385391870127
30
0
41
1
10
287.122451438509
20
22.3448574829951
30
0
41
1
10
287.16172052518
20
22.3568876055921
30
0
41
1
10
287.181556078242
20
22.362572989758
30
0
41
1
10
287.201481908328
20
22.3678919078707
30
0
0
SPLINE
5
1D3
100
AcDbEntity
8
1
62
256
6
ByLayer
370
18
48
1
60
0
100
AcDbSpline
70
4
71
3
72
22
73
18
40
0
40
0
40
0
40
0
40
0.125000000000024
40
0.125000000000024
40
0.250000000000047
40
0.250000000000047
40
0.375000000000071
40
0.375000000000071
40
0.437500000000106
40
0.437500000000106
40
0.500000000000141
40
0.500000000000141
40
0.750000000000167
40
0.750000000000167
40
0.875000000000083
40
0.875000000000083
40
1
40
1
40
1
40
1
41
1
10
291.672010755152
20
7.07221146438457
30
0
41
1
10
291.653565294151
20
7.05223137757983
30
0
41
1
10
291.634552838003
20
7.03137693589551
30
0
41
1
10
291.595635129862
20
6.98806935641758
30
0
41
1
10
291.575728477746
20
6.96561500630889
30
0
41
1
10
291.535173075115
20
6.91916743894305
30
0
41
1
10
291.514523657879
20
6.89517374326792
30
0
41
1
10
291.483063775725
20
6.85802749639385
30
0
41
1
10
291.472495802359
20
6.84545234941083
30
0
41
1
10
291.45120491387
20
6.8199105594268
30
0
41
1
10
291.44045615034
20
6.80691221648016
30
0
41
1
10
291.386738115475
20
6.74140941018666
30
0
41
1
10
291.343819944107
20
6.68735094011694
30
0
41
1
10
291.279714007453
20
6.60371947795852
30
0
41
1
10
291.258388674112
20
6.5754159956912
30
0
41
1
10
291.215835473505
20
6.5179167604075
30
0
41
1
10
291.194608080814
20
6.48871781864082
30
0
41
1
10
291.173661638747
20
6.45937590988939
30
0
0
SPLINE
5
1D4
100
AcDbEntity
8
1
62
256
6
ByLayer
370
18
48
1
60
0
100
AcDbSpline
70
4
71
3
72
8
73
4
40
0
40
0
40
0
40
0
40
1
40
1
40
1
40
1
41
1
10
286.434863552327
20
21.7816371127645
30
0
41
1
10
286.414976943399
20
21.8094616233597
30
0
41
1
10
286.395102628663
20
21.8372581985641
30
0
41
1
10
286.375238502509
20
21.8650316553281
30
0
0
SPLINE
5
1D5
100
AcDbEntity
8
1
62
256
6
ByLayer
370
18
48
1
60
0
100
AcDbSpline
70
4
71
3
72
28
73
24
40
0
40
0
40
0
40
0
40
0.0405984349492804
40
0.0405984349492804
40
0.13691802851012
40
0.13691802851012
40
0.284178405664751
40
0.284178405664751
40
0.500822929974434
40
0.500822929974434
40
0.566758824834795
40
0.566758824834795
40
0.632050095044761
40
0.632050095044761
40
0.735175839208392
40
0.735175839208392
40
0.797186106051225
40
0.797186106051225
40
0.859268321592037
40
0.859268321592037
40
0.921511331908837
40
0.921511331908837
40
1
40
1
40
1
40
1
41
1
10
294.852085304438
20
21.2407175677001
30
0
41
1
10
294.851857735253
20
21.2303507137736
30
0
41
1
10
294.850413157887
20
21.219892081619
30
0
41
1
10
294.842498064583
20
21.185360880522
30
0
41
1
10
294.831866166676
20
21.1615477455045
30
0
41
1
10
294.798534284601
20
21.1049753170153
30
0
41
1
10
294.771885525632
20
21.0730017954665
30
0
41
1
10
294.69895930814
20
21.0013156920463
30
0
41
1
10
294.647829135476
20
20.9635448910755
30
0
41
1
10
294.577334472074
20
20.9228448005002
30
0
41
1
10
294.560370005206
20
20.9138402243697
30
0
41
1
10
294.526118392346
20
20.8972256024517
30
0
41
1
10
294.508794328896
20
20.8895823224136
30
0
41
1
10
294.463729326373
20
20.8717327148715
30
0
41
1
10
294.435580187499
20
20.862517050944
30
0
41
1
10
294.390340362464
20
20.8513030366923
30
0
41
1
10
294.373237072353
20
20.8478777124978
30
0
41
1
10
294.339131013994
20
20.8429587099842
30
0
41
1
10
294.322057275944
20
20.8414545799106
30
0
41
1
10
294.288322237293
20
20.8408860112085
30
0
41
1
10
294.271550745027
20
20.8418224323054
30
0
41
1
10
294.235012675153
20
20.8475908393855
30
0
41
1
10
294.215142735106
20
20.8534418937389
30
0
41
1
10
294.197778946785
20
20.8629538231085
30
0
0
SPLINE
5
1D6
100
AcDbEntity
8
1
62
256
6
ByLayer
370
18
48
1
60
0
100
AcDbSpline
70
4
71
3
72
8
73
4
40
0
40
0
40
0
40
0
40
1
40
1
40
1
40
1
41
1
10
294.197778946785
20
20.8629538231085
30
0
41
1
10
294.191931548383
20
20.8661570434864
30
0
41
1
10
294.186084925826
20
20.8693598366675
30
0
41
1
10
294.180239050003
20
20.8725622186837
30
0
0
SPLINE
5
1D7
100
AcDbEntity
8
1
62
256
6
ByLayer
370
18
48
1
60
0
100
AcDbSpline
70
4
71
3
72
26
73
22
40
0
40
0
40
0
40
0
40
0.0698312878838325
40
0.0698312878838325
40
0.183326154219688
40
0.183326154219688
40
0.296850939623593
40
0.296850939623593
40
0.410442440726439
40
0.410442440726439
40
0.524182073091698
40
0.524182073091698
40
0.608467808779311
40
0.608467808779311
40
0.77106347367122
40
0.77106347367122
40
0.85465099014116
40
0.85465099014116
40
0.938878764920235
40
0.938878764920235
40
1
40
1
40
1
40
1
41
1
10
293.787281439897
20
20.6529640769433
30
0
41
1
10
293.793464350272
20
20.6636731859799
30
0
41
1
10
293.799895657711
20
20.6742431793071
30
0
41
1
10
293.81741728283
20
20.7015884455362
30
0
41
1
10
293.828915155126
20
20.7181255852206
30
0
41
1
10
293.853167688767
20
20.7501902858923
30
0
41
1
10
293.8659449403
20
20.7657485596604
30
0
41
1
10
293.8928001879
20
20.7956021596849
30
0
41
1
10
293.906911345281
20
20.8099357938143
30
0
41
1
10
293.936518117408
20
20.8369158450316
30
0
41
1
10
293.952071573504
20
20.8496165930285
30
0
41
1
10
293.98041444736
20
20.8695826009335
30
0
41
1
10
293.992926700022
20
20.8774352079375
30
0
41
1
10
294.03036451694
20
20.8974544702924
30
0
41
1
10
294.057154401977
20
20.9075020040821
30
0
41
1
10
294.097389777989
20
20.9118642189857
30
0
41
1
10
294.111326273285
20
20.911368999804
30
0
41
1
10
294.137274005619
20
20.9054682830534
30
0
41
1
10
294.149581255536
20
20.8999061984985
30
0
41
1
10
294.167639606207
20
20.8867276811754
30
0
41
1
10
294.174432775549
20
20.8800038338088
30
0
41
1
10
294.180239050003
20
20.8725622186837
30
0
0
SPLINE
5
1D8
100
AcDbEntity
8
1
62
256
6
ByLayer
370
18
48
1
60
0
100
AcDbSpline
70
4
71
3
72
26
73
22
40
0
40
0
40
0
40
0
40
0.0698312878838128
40
0.0698312878838128
40
0.183326154219666
40
0.183326154219666
40
0.296850939623569
40
0.296850939623569
40
0.410442440726413
40
0.410442440726413
40
0.524182073091668
40
0.524182073091668
40
0.608467808779301
40
0.608467808779301
40
0.771063473671262
40
0.771063473671262
40
0.85465099014121
40
0.85465099014121
40
0.938878764920293
40
0.938878764920293
40
1
40
1
40
1
40
1
41
1
10
295.239086426801
20
21.4911636173488
30
0
41
1
10
295.226720606051
20
21.4911636173488
30
0
41
1
10
295.214351141956
20
21.490878986122
30
0
41
1
10
295.181909031423
20
21.4893776919392
30
0
41
1
10
295.161838966131
20
21.487689084353
30
0
41
1
10
295.121945224231
20
21.4827189358806
30
0
41
1
10
295.102083655289
20
21.4794331881936
30
0
41
1
10
295.062804453077
20
21.4711040667524
30
0
41
1
10
295.043337065562
20
21.4660511295763
30
0
41
1
10
295.005171978958
20
21.4539031013657
30
0
41
1
10
294.986398312786
20
21.4467850869488
30
0
41
1
10
294.954940609612
20
21.4322252345388
30
0
41
1
10
294.941886269686
20
21.4253169705233
30
0
41
1
10
294.905838106547
20
21.4029091057735
30
0
41
1
10
294.883748534419
20
21.3847360872849
30
0
41
1
10
294.859866777459
20
21.3520802785052
30
0
41
1
10
294.853332821335
20
21.3397664451662
30
0
41
1
10
294.845480995972
20
21.3143515553806
30
0
41
1
10
294.844150900248
20
21.3009159499653
30
0
41
1
10
294.846546233421
20
21.2786943902315
30
0
41
1
10
294.848977681129
20
21.2694523030873
30
0
41
1
10
294.852524081849
20
21.2607059499684
30
0
0
SPLINE
5
1D9
100
AcDbEntity
8
1
62
256
6
ByLayer
370
18
48
1
60
0
100
AcDbSpline
70
4
71
3
72
8
73
4
40
0
40
0
40
0
40
0
40
1
40
1
40
1
40
1
41
1
10
294.852085304438
20
21.2407175677001
30
0
41
1
10
294.852231582741
20
21.2473812370392
30
0
41
1
10
294.852377841635
20
21.2540440200422
30
0
41
1
10
294.852524081849
20
21.2607059499684
30
0
0
SPLINE
5
1DA
100
AcDbEntity
8
1
62
256
6
ByLayer
370
18
48
1
60
0
100
AcDbSpline
70
4
71
3
72
24
73
20
40
0
40
0
40
0
40
0
40
0.158126111966006
40
0.158126111966006
40
0.271563393607305
40
0.271563393607305
40
0.385066230469783
40
0.385066230469783
40
0.49871451931031
40
0.49871451931031
40
0.612721087896067
40
0.612721087896067
40
0.746221642583606
40
0.746221642583606
40
0.82491337829754
40
0.82491337829754
40
0.908986128606071
40
0.908986128606071
40
1
40
1
40
1
40
1
41
1
10
295.239086426801
20
21.4911636173488
30
0
41
1
10
295.267073040103
20
21.4911636173488
30
0
41
1
10
295.29510499937
20
21.4897123182784
30
0
41
1
10
295.342913173315
20
21.484616933385
30
0
41
1
10
295.362836232379
20
21.4816981529628
30
0
41
1
10
295.402291788371
20
21.4741479954842
30
0
41
1
10
295.421870518142
20
21.4695084949861
30
0
41
1
10
295.460351479404
20
21.4582618746389
30
0
41
1
10
295.479321838822
20
21.4516357223158
30
0
41
1
10
295.516063158761
20
21.4359967580346
30
0
41
1
10
295.533951403044
20
21.4269312948861
30
0
41
1
10
295.570077548636
20
21.4041011517341
30
0
41
1
10
295.588281276679
20
21.38952863394
30
0
41
1
10
295.611258835254
20
21.3626174933734
30
0
41
1
10
295.618577317414
20
21.3516115941122
30
0
41
1
10
295.629389226322
20
21.3277756011221
30
0
41
1
10
295.632665217088
20
21.3145558440419
30
0
41
1
10
295.633625104145
20
21.2876228682234
30
0
41
1
10
295.630863470572
20
21.2735667631931
30
0
41
1
10
295.625648771753
20
21.2607059499684
30
0
0
SPLINE
5
1DB
100
AcDbEntity
8
1
62
256
6
ByLayer
370
18
48
1
60
0
100
AcDbSpline
70
4
71
3
72
26
73
22
40
0
40
0
40
0
40
0
40
0.0698312878838294
40
0.0698312878838294
40
0.183326154219681
40
0.183326154219681
40
0.296850939623581
40
0.296850939623581
40
0.410442440726422
40
0.410442440726422
40
0.524182073091674
40
0.524182073091674
40
0.608467808779307
40
0.608467808779307
40
0.771063473671265
40
0.771063473671265
40
0.854650990141212
40
0.854650990141212
40
0.938878764920293
40
0.938878764920293
40
1
40
1
40
1
40
1
41
1
10
296.690891413705
20
20.6529640769433
30
0
41
1
10
296.68470850333
20
20.6636731859799
30
0
41
1
10
296.678277195892
20
20.6742431793071
30
0
41
1
10
296.660755570772
20
20.7015884455362
30
0
41
1
10
296.649257698477
20
20.7181255852205
30
0
41
1
10
296.625005164836
20
20.7501902858922
30
0
41
1
10
296.612227913302
20
20.7657485596604
30
0
41
1
10
296.585372665702
20
20.7956021596849
30
0
41
1
10
296.571261508321
20
20.8099357938139
30
0
41
1
10
296.541654736194
20
20.8369158450311
30
0
41
1
10
296.526101280098
20
20.8496165930284
30
0
41
1
10
296.497758406243
20
20.8695826009334
30
0
41
1
10
296.485246153581
20
20.8774352079375
30
0
41
1
10
296.447808336662
20
20.8974544702924
30
0
41
1
10
296.421018451625
20
20.907502004082
30
0
41
1
10
296.380783075613
20
20.9118642189856
30
0
41
1
10
296.366846580318
20
20.911368999804
30
0
41
1
10
296.340898847984
20
20.9054682830534
30
0
41
1
10
296.328591598066
20
20.8999061984982
30
0
41
1
10
296.310533247395
20
20.8867276811749
30
0
41
1
10
296.303740078054
20
20.8800038338088
30
0
41
1
10
296.297933803599
20
20.8725622186837
30
0
0
SPLINE
5
1DC
100
AcDbEntity
8
1
62
256
6
ByLayer
370
18
48
1
60
0
100
AcDbSpline
70
4
71
3
72
24
73
20
40
0
40
0
40
0
40
0
40
0.158126111965989
40
0.158126111965989
40
0.271563393607291
40
0.271563393607291
40
0.385066230469772
40
0.385066230469772
40
0.4987145193103
40
0.4987145193103
40
0.612721087896059
40
0.612721087896059
40
0.746221642583601
40
0.746221642583601
40
0.824913378297536
40
0.824913378297536
40
0.90898612860607
40
0.90898612860607
40
1
40
1
40
1
40
1
41
1
10
296.690891413705
20
20.6529640769433
30
0
41
1
10
296.704884720356
20
20.6287269721479
30
0
41
1
10
296.717643445804
20
20.6037251731898
30
0
41
1
10
296.737133385693
20
20.5597752254633
30
0
41
1
10
296.744566361024
20
20.5410624398786
30
0
41
1
10
296.757753342891
20
20.5031191156614
30
0
41
1
10
296.763523429044
20
20.4838444774903
30
0
41
1
10
296.77302064823
20
20.4448976569342
30
0
41
1
10
296.776765358113
20
20.4251569604265
30
0
41
1
10
296.781587195927
20
20.3855215089864
30
0
41
1
10
296.7826773534
20
20.365498866483
30
0
41
1
10
296.780960804693
20
20.3228023441995
30
0
41
1
10
296.777437053646
20
20.2997543423829
30
0
41
1
10
296.765609095208
20
20.2664059807053
30
0
41
1
10
296.759732256526
20
20.2545677486499
30
0
41
1
10
296.744484901082
20
20.233292560507
30
0
41
1
10
296.734667983653
20
20.2238492071262
30
0
41
1
10
296.711809762535
20
20.2095592334402
30
0
41
1
10
296.698248509899
20
20.2049271459894
30
0
41
1
10
296.684496148551
20
20.2030169640532
30
0
0
SPLINE
5
1DD
100
AcDbEntity
8
1
62
256
6
ByLayer
370
18
48
1
60
0
100
AcDbSpline
70
4
71
3
72
8
73
4
40
0
40
0
40
0
40
0
40
1
40
1
40
1
40
1
41
1
10
295.625648771753
20
21.2607059499684
30
0
41
1
10
295.625795011967
20
21.2540440200422
30
0
41
1
10
295.625941270862
20
21.2473812370392
30
0
41
1
10
295.626087549164
20
21.2407175677001
30
0
0
SPLINE
5
1DE
100
AcDbEntity
8
1
62
256
6
ByLayer
370
18
48
1
60
0
100
AcDbSpline
70
4
71
3
72
8
73
4
40
0
40
0
40
0
40
0
40
1
40
1
40
1
40
1
41
1
10
296.280393906818
20
20.8629538231085
30
0
41
1
10
296.286241305219
20
20.8661570434864
30
0
41
1
10
296.292087927776
20
20.8693598366675
30
0
41
1
10
296.297933803599
20
20.8725622186837
30
0
0
SPLINE
5
1DF
100
AcDbEntity
8
1
62
256
6
ByLayer
370
18
48
1
60
0
100
AcDbSpline
70
4
71
3
72
30
73
26
40
0
40
0
40
0
40
0
40
0.0728681126376389
40
0.0728681126376389
40
0.12781259347739
40
0.12781259347739
40
0.199092397893153
40
0.199092397893153
40
0.288874798003796
40
0.288874798003796
40
0.393641276926117
40
0.393641276926117
40
0.499915621932665
40
0.499915621932665
40
0.63162364629755
40
0.63162364629755
40
0.734868911743394
40
0.734868911743394
40
0.796951047610412
40
0.796951047610412
40
0.859105215562921
40
0.859105215562921
40
0.921420364650245
40
0.921420364650245
40
1
40
1
40
1
40
1
41
1
10
295.626087549164
20
21.2407175677001
30
0
41
1
10
295.626490863526
20
21.2223446887716
30
0
41
1
10
295.630711342398
20
21.2036759401243
30
0
41
1
10
295.642117656773
20
21.1721943426112
30
0
41
1
10
295.648398290223
20
21.1588628863797
30
0
41
1
10
295.664975707578
20
21.1291521414913
30
0
41
1
10
295.675977615385
20
21.1129136060647
30
0
41
1
10
295.70328422547
20
21.0777134578204
30
0
41
1
10
295.720341379637
20
21.05898450082
30
0
41
1
10
295.759873118487
20
21.0205983319372
30
0
41
1
10
295.782943173901
20
21.0011502215256
30
0
41
1
10
295.831686089631
20
20.9648066880933
30
0
41
1
10
295.857562797304
20
20.9478299570018
30
0
41
1
10
295.917237690312
20
20.9133766603511
30
0
41
1
10
295.95175484381
20
20.8965628121471
30
0
41
1
10
296.014443527229
20
20.8717327148716
30
0
41
1
10
296.042592666103
20
20.862517050944
30
0
41
1
10
296.087832491138
20
20.8513030366924
30
0
41
1
10
296.10493578125
20
20.8478777124982
30
0
41
1
10
296.139041839608
20
20.8429587099847
30
0
41
1
10
296.15611557766
20
20.8414545799119
30
0
41
1
10
296.189850616311
20
20.84088601121
30
0
41
1
10
296.206622108575
20
20.8418224323054
30
0
41
1
10
296.243160178449
20
20.8475908393855
30
0
41
1
10
296.263030118496
20
20.8534418937389
30
0
41
1
10
296.280393906818
20
20.8629538231085
30
0
0
SPLINE
5
1E0
100
AcDbEntity
8
1
62
256
6
ByLayer
370
18
48
1
60
0
100
AcDbSpline
70
4
71
3
72
24
73
20
40
0
40
0
40
0
40
0
40
0.158126111965988
40
0.158126111965988
40
0.271563393607288
40
0.271563393607288
40
0.385066230469766
40
0.385066230469766
40
0.498714519310295
40
0.498714519310295
40
0.612721087896053
40
0.612721087896053
40
0.7462216425836
40
0.7462216425836
40
0.824913378297533
40
0.824913378297533
40
0.908986128606068
40
0.908986128606068
40
1
40
1
40
1
40
1
41
1
10
293.787281439897
20
20.6529640769433
30
0
41
1
10
293.773288133246
20
20.6287269721479
30
0
41
1
10
293.760529407799
20
20.6037251731899
30
0
41
1
10
293.74103946791
20
20.5597752254633
30
0
41
1
10
293.733606492578
20
20.5410624398787
30
0
41
1
10
293.720419510712
20
20.5031191156615
30
0
41
1
10
293.714649424557
20
20.4838444774907
30
0
41
1
10
293.705152205371
20
20.4448976569346
30
0
41
1
10
293.701407495489
20
20.4251569604265
30
0
41
1
10
293.696585657675
20
20.3855215089864
30
0
41
1
10
293.695495500202
20
20.365498866483
30
0
41
1
10
293.697212048909
20
20.3228023441995
30
0
41
1
10
293.700735799957
20
20.2997543423829
30
0
41
1
10
293.712563758394
20
20.2664059807054
30
0
41
1
10
293.718440597076
20
20.2545677486499
30
0
41
1
10
293.73368795252
20
20.233292560507
30
0
41
1
10
293.743504869949
20
20.2238492071262
30
0
41
1
10
293.766363091067
20
20.2095592334402
30
0
41
1
10
293.779924343703
20
20.2049271459894
30
0
41
1
10
293.793676705051
20
20.2030169640532
30
0
0
SPLINE
5
1E1
100
AcDbEntity
8
1
62
256
6
ByLayer
370
18
48
1
60
0
100
AcDbSpline
70
4
71
3
72
8
73
4
40
0
40
0
40
0
40
0
40
1
40
1
40
1
40
1
41
1
10
296.684496148551
20
20.2030169640532
30
0
41
1
10
296.678796512942
20
20.1995612866952
30
0
41
1
10
296.67309614928
20
20.196105165817
30
0
41
1
10
296.667395029181
20
20.1926485841256
30
0
0
SPLINE
5
1E2
100
AcDbEntity
8
1
62
256
6
ByLayer
370
18
48
1
60
0
100
AcDbSpline
70
4
71
3
72
26
73
22
40
0
40
0
40
0
40
0
40
0.0698312878838667
40
0.0698312878838667
40
0.183326154219715
40
0.183326154219715
40
0.296850939623612
40
0.296850939623612
40
0.410442440726449
40
0.410442440726449
40
0.524182073091699
40
0.524182073091699
40
0.608467808779327
40
0.608467808779327
40
0.771063473671277
40
0.771063473671277
40
0.85465099014122
40
0.85465099014122
40
0.938878764920298
40
0.938878764920298
40
1
40
1
40
1
40
1
41
1
10
296.690891413705
20
18.9765649961323
30
0
41
1
10
296.697074324081
20
18.9872741051689
30
0
41
1
10
296.703012480737
20
18.9981288190772
30
0
41
1
10
296.71793296615
20
19.0269758531925
30
0
41
1
10
296.726505159148
20
19.0452021336806
30
0
41
1
10
296.742146367406
20
19.0822385826543
30
0
41
1
10
296.749230684815
20
19.1010836716692
30
0
41
1
10
296.761654639426
20
19.139269178017
30
0
41
1
10
296.76701086956
20
19.1586574689776
30
0
41
1
10
296.775569184037
20
19.1977898462218
30
0
41
1
10
296.778789394113
20
19.2176111932239
30
0
41
1
10
296.781904223431
20
19.2521426114476
30
0
41
1
10
296.782446310696
20
19.2669061928768
30
0
41
1
10
296.781056656916
20
19.3093424935996
30
0
41
1
10
296.776356344008
20
19.3375708916814
30
0
41
1
10
296.760002724955
20
19.3746047602041
30
0
41
1
10
296.752600185784
20
19.3864296315612
30
0
41
1
10
296.734504278813
20
19.4059575078765
30
0
41
1
10
296.723527124619
20
19.4138386729316
30
0
41
1
10
296.703073440776
20
19.4228950769107
30
0
41
1
10
296.693848823725
20
19.425419097759
30
0
41
1
10
296.684496148551
20
19.4267295014838
30
0
0
SPLINE
5
1E3
100
AcDbEntity
8
1
62
256
6
ByLayer
370
18
48
1
60
0
100
AcDbSpline
70
4
71
3
72
8
73
4
40
0
40
0
40
0
40
0
40
1
40
1
40
1
40
1
41
1
10
296.667395029181
20
19.4371210949424
30
0
41
1
10
296.67309614928
20
19.4336567787114
30
0
41
1
10
296.678796512942
20
19.4301929199459
30
0
41
1
10
296.684496148551
20
19.4267295014838
30
0
0
SPLINE
5
1E4
100
AcDbEntity
8
1
62
256
6
ByLayer
370
18
48
1
60
0
100
AcDbSpline
70
4
71
3
72
30
73
26
40
0
40
0
40
0
40
0
40
0.0728681126376381
40
0.0728681126376381
40
0.127812593477389
40
0.127812593477389
40
0.199092397893152
40
0.199092397893152
40
0.288874798003795
40
0.288874798003795
40
0.393641276926117
40
0.393641276926117
40
0.499915621932665
40
0.499915621932665
40
0.63162364629755
40
0.63162364629755
40
0.734868911743394
40
0.734868911743394
40
0.796951047610412
40
0.796951047610412
40
0.859105215562921
40
0.859105215562921
40
0.921420364650245
40
0.921420364650245
40
1
40
1
40
1
40
1
41
1
10
296.667395029181
20
20.1926485841256
30
0
41
1
10
296.651676063548
20
20.1831181957328
30
0
41
1
10
296.637609837173
20
20.1701338889403
30
0
41
1
10
296.61603494386
20
20.1445231199953
30
0
41
1
10
296.607624125516
20
20.132421525911
30
0
41
1
10
296.590170299051
20
20.1032167757807
30
0
41
1
10
296.581601975128
20
20.0855732108142
30
0
41
1
10
296.564758362867
20
20.0443322512721
30
0
41
1
10
296.557061126889
20
20.0201993459487
30
0
41
1
10
296.543572768902
20
19.9667770323585
30
0
41
1
10
296.538260811236
20
19.9370762850533
30
0
41
1
10
296.531151873539
20
19.8766953763766
30
0
41
1
10
296.529386426801
20
19.8457980099261
30
0
41
1
10
296.529386426801
20
19.7768914166246
30
0
41
1
10
296.532086097498
20
19.7385904367346
30
0
41
1
10
296.541935117859
20
19.6718806996188
30
0
41
1
10
296.548033699792
20
19.6428921157057
30
0
41
1
10
296.560952193955
20
19.5981003986205
30
0
41
1
10
296.566541762769
20
19.5815733534008
30
0
41
1
10
296.579344476104
20
19.5495715737723
30
0
41
1
10
296.586584074508
20
19.534030140049
30
0
41
1
10
296.60297087209
20
19.5045237315723
30
0
41
1
10
296.612173951457
20
19.4904637349671
30
0
41
1
10
296.635453983872
20
19.4616961635252
30
0
41
1
10
296.650465612747
20
19.4474083457137
30
0
41
1
10
296.667395029181
20
19.4371210949424
30
0
0
SPLINE
5
1E5
100
AcDbEntity
8
1
62
256
6
ByLayer
370
18
48
1
60
0
100
AcDbSpline
70
4
71
3
72
24
73
20
40
0
40
0
40
0
40
0
40
0.158126111965957
40
0.158126111965957
40
0.271563393607263
40
0.271563393607263
40
0.385066230469748
40
0.385066230469748
40
0.498714519310282
40
0.498714519310282
40
0.612721087896046
40
0.612721087896046
40
0.746221642583593
40
0.746221642583593
40
0.824913378297531
40
0.824913378297531
40
0.908986128606067
40
0.908986128606067
40
1
40
1
40
1
40
1
41
1
10
296.690891413705
20
18.9765649961323
30
0
41
1
10
296.676898107055
20
18.9523278913369
30
0
41
1
10
296.661624873235
20
18.9287778436682
30
0
41
1
10
296.633306639179
20
18.889924911161
30
0
41
1
10
296.620816555446
20
18.8741318468725
30
0
41
1
10
296.594547981321
20
18.8437411793261
30
0
41
1
10
296.580739337703
20
18.8291076019258
30
0
41
1
10
296.551755595628
20
18.8014113244367
30
0
41
1
10
296.536529946093
20
18.7882991478931
30
0
41
1
10
296.504610463968
20
18.7643085201122
30
0
41
1
10
296.487812377158
20
18.7533548498669
30
0
41
1
10
296.449969682858
20
18.7334978546598
30
0
41
1
10
296.428242203768
20
18.7250286493663
30
0
41
1
10
296.393436686756
20
18.7186041225306
30
0
41
1
10
296.380241365913
20
18.7177772008729
30
0
41
1
10
296.354182101561
20
18.7203503877118
30
0
41
1
10
296.341089193366
20
18.7241340210697
30
0
41
1
10
296.317271085192
20
18.7367926238892
30
0
41
1
10
296.306471466129
20
18.7462252845601
30
0
41
1
10
296.297933803599
20
18.7571842468533
30
0
0
SPLINE
5
1E6
100
AcDbEntity
8
1
62
256
6
ByLayer
370
18
48
1
60
0
100
AcDbSpline
70
4
71
3
72
8
73
4
40
0
40
0
40
0
40
0
40
1
40
1
40
1
40
1
41
1
10
294.852524081849
20
18.3690405155687
30
0
41
1
10
294.852377841635
20
18.3757101865989
30
0
41
1
10
294.852231582741
20
18.3823807074892
30
0
41
1
10
294.852085304438
20
18.3890521113679
30
0
0
SPLINE
5
1E7
100
AcDbEntity
8
1
62
256
6
ByLayer
370
18
48
1
60
0
100
AcDbSpline
70
4
71
3
72
24
73
20
40
0
40
0
40
0
40
0
40
0.158126111966005
40
0.158126111966005
40
0.271563393607304
40
0.271563393607304
40
0.385066230469783
40
0.385066230469783
40
0.49871451931031
40
0.49871451931031
40
0.612721087896067
40
0.612721087896067
40
0.746221642583607
40
0.746221642583607
40
0.82491337829754
40
0.82491337829754
40
0.908986128606072
40
0.908986128606072
40
1
40
1
40
1
40
1
41
1
10
295.239086426801
20
18.1383654557269
30
0
41
1
10
295.2110998135
20
18.1383654557269
30
0
41
1
10
295.183067854232
20
18.1398176592352
30
0
41
1
10
295.135259680288
20
18.1449163047806
30
0
41
1
10
295.115336621223
20
18.1478369669506
30
0
41
1
10
295.075881065231
20
18.1553921228134
30
0
41
1
10
295.05630233546
20
18.1600347438572
30
0
41
1
10
295.017821374198
20
18.1712892096438
30
0
41
1
10
294.99885101478
20
18.177920097249
30
0
41
1
10
294.962109694842
20
18.1935707802862
30
0
41
1
10
294.944221450559
20
18.2026432616541
30
0
41
1
10
294.908095304966
20
18.2254921726546
30
0
41
1
10
294.889891576924
20
18.2400772479067
30
0
41
1
10
294.866914018349
20
18.2670137770239
30
0
41
1
10
294.859595536188
20
18.2780304985583
30
0
41
1
10
294.84878362728
20
18.3018912555317
30
0
41
1
10
294.845507636515
20
18.3151254719289
30
0
41
1
10
294.844547749458
20
18.3420896491214
30
0
41
1
10
294.847309383031
20
18.3561630403344
30
0
41
1
10
294.852524081849
20
18.3690405155687
30
0
0
SPLINE
5
1E8
100
AcDbEntity
8
1
62
256
6
ByLayer
370
18
48
1
60
0
100
AcDbSpline
70
4
71
3
72
26
73
22
40
0
40
0
40
0
40
0
40
0.0698312878838339
40
0.0698312878838339
40
0.183326154219685
40
0.183326154219685
40
0.296850939623585
40
0.296850939623585
40
0.410442440726426
40
0.410442440726426
40
0.524182073091678
40
0.524182073091678
40
0.608467808779309
40
0.608467808779309
40
0.771063473671267
40
0.771063473671267
40
0.854650990141212
40
0.854650990141212
40
0.938878764920294
40
0.938878764920294
40
1
40
1
40
1
40
1
41
1
10
293.787281439897
20
18.9765649961323
30
0
41
1
10
293.793464350272
20
18.9658558870957
30
0
41
1
10
293.799895657711
20
18.9552860724771
30
0
41
1
10
293.81741728283
20
18.9279417536548
30
0
41
1
10
293.828915155126
20
18.9114056804055
30
0
41
1
10
293.853167688767
20
18.8793441793931
30
0
41
1
10
293.8659449403
20
18.8637880407444
30
0
41
1
10
293.8928001879
20
18.8339400104843
30
0
41
1
10
293.906911345282
20
18.8196098156661
30
0
41
1
10
293.936518117409
20
18.7926383600816
30
0
41
1
10
293.952071573504
20
18.7799427812601
30
0
41
1
10
293.98041444736
20
18.7599878891727
30
0
41
1
10
293.992926700022
20
18.7521407029876
30
0
41
1
10
294.03036451694
20
18.7321397878692
30
0
41
1
10
294.057154401977
20
18.7221079456863
30
0
41
1
10
294.097389777989
20
18.7177774204617
30
0
41
1
10
294.111326273285
20
18.7182851540426
30
0
41
1
10
294.137274005619
20
18.7242132773538
30
0
41
1
10
294.149581255536
20
18.7297906502991
30
0
41
1
10
294.167639606207
20
18.7429958907597
30
0
41
1
10
294.174432775549
20
18.749731300266
30
0
41
1
10
294.180239050003
20
18.7571842468533
30
0
0
SPLINE
5
1E9
100
AcDbEntity
8
1
62
256
6
ByLayer
370
18
48
1
60
0
100
AcDbSpline
70
4
71
3
72
8
73
4
40
0
40
0
40
0
40
0
40
1
40
1
40
1
40
1
41
1
10
294.197778946785
20
18.7668158559594
30
0
41
1
10
294.191931548383
20
18.763604901042
30
0
41
1
10
294.186084925826
20
18.7603943699735
30
0
41
1
10
294.180239050003
20
18.7571842468533
30
0
0
SPLINE
5
1EA
100
AcDbEntity
8
1
62
256
6
ByLayer
370
18
48
1
60
0
100
AcDbSpline
70
4
71
3
72
30
73
26
40
0
40
0
40
0
40
0
40
0.072868112637639
40
0.072868112637639
40
0.12781259347739
40
0.12781259347739
40
0.199092397893153
40
0.199092397893153
40
0.288874798003796
40
0.288874798003796
40
0.393641276926117
40
0.393641276926117
40
0.499915621932665
40
0.499915621932665
40
0.63162364629755
40
0.63162364629755
40
0.734868911743394
40
0.734868911743394
40
0.796951047610412
40
0.796951047610412
40
0.859105215562921
40
0.859105215562921
40
0.921420364650245
40
0.921420364650245
40
1
40
1
40
1
40
1
41
1
10
294.852085304438
20
18.3890521113679
30
0
41
1
10
294.851681990076
20
18.4074463157482
30
0
41
1
10
294.847461511205
20
18.4261354941794
30
0
41
1
10
294.83605519683
20
18.4576498213232
30
0
41
1
10
294.829774563379
20
18.4709945542312
30
0
41
1
10
294.813197146024
20
18.500733615122
30
0
41
1
10
294.802195238217
20
18.5169866672428
30
0
41
1
10
294.774888628133
20
18.5522160940385
30
0
41
1
10
294.757831473965
20
18.5709590266484
30
0
41
1
10
294.718299735116
20
18.6093701642469
30
0
41
1
10
294.695229679701
20
18.6288284786648
30
0
41
1
10
294.646486763972
20
18.6651857647771
30
0
41
1
10
294.620610056298
20
18.6821659879448
30
0
41
1
10
294.56093516329
20
18.7166192845955
30
0
41
1
10
294.526418009792
20
18.7334277712698
30
0
41
1
10
294.463729326373
20
18.7582389650432
30
0
41
1
10
294.435580187499
20
18.7674430451466
30
0
41
1
10
294.390340362464
20
18.7786334846028
30
0
41
1
10
294.373237072352
20
18.7820487787208
30
0
41
1
10
294.339131013994
20
18.7869454548122
30
0
41
1
10
294.322057275943
20
18.7884372412668
30
0
41
1
10
294.288322237291
20
18.7889788512679
30
0
41
1
10
294.271550745027
20
18.7880277231459
30
0
41
1
10
294.235012675153
20
18.7822237336012
30
0
41
1
10
294.215142735106
20
18.7763507529634
30
0
41
1
10
294.197778946785
20
18.7668158559595
30
0
0
SPLINE
5
1EB
100
AcDbEntity
8
1
62
256
6
ByLayer
370
18
48
1
60
0
100
AcDbSpline
70
4
71
3
72
24
73
20
40
0
40
0
40
0
40
0
40
0.158126111965987
40
0.158126111965987
40
0.271563393607288
40
0.271563393607288
40
0.38506623046977
40
0.38506623046977
40
0.498714519310298
40
0.498714519310298
40
0.612721087896058
40
0.612721087896058
40
0.7462216425836
40
0.7462216425836
40
0.824913378297537
40
0.824913378297537
40
0.908986128606071
40
0.908986128606071
40
1
40
1
40
1
40
1
41
1
10
293.787281439897
20
18.9765649961323
30
0
41
1
10
293.773288133246
20
19.0008021009278
30
0
41
1
10
293.760529407799
20
19.0258048043237
30
0
41
1
10
293.74103946791
20
19.0697580127024
30
0
41
1
10
293.733606492578
20
19.0884726800348
30
0
41
1
10
293.720419510712
20
19.1264210026362
30
0
41
1
10
293.714649424558
20
19.145698761353
30
0
41
1
10
293.705152205372
20
19.1846534273485
30
0
41
1
10
293.701407495489
20
19.2043988591383
30
0
41
1
10
293.696585657675
20
19.2440460293344
30
0
41
1
10
293.695495500202
20
19.2640756900573
30
0
41
1
10
293.697212048909
20
19.3067909801891
30
0
41
1
10
293.700735799957
20
19.3298515394638
30
0
41
1
10
293.712563758394
20
19.363225289692
30
0
41
1
10
293.718440597076
20
19.3750743440207
30
0
41
1
10
293.73368795252
20
19.3963742961468
30
0
41
1
10
293.743504869949
20
19.4058321088446
30
0
41
1
10
293.766363091067
20
19.4201532839046
30
0
41
1
10
293.779924343703
20
19.424802657538
30
0
41
1
10
293.793676705051
20
19.4267295014838
30
0
0
SPLINE
5
1EC
100
AcDbEntity
8
1
62
256
6
ByLayer
370
18
48
1
60
0
100
AcDbSpline
70
4
71
3
72
8
73
4
40
0
40
0
40
0
40
0
40
1
40
1
40
1
40
1
41
1
10
296.297933803599
20
18.7571842468533
30
0
41
1
10
296.292087927776
20
18.7603943699735
30
0
41
1
10
296.286241305219
20
18.763604901042
30
0
41
1
10
296.280393906818
20
18.7668158559595
30
0
0
SPLINE
5
1ED
100
AcDbEntity
8
1
62
256
6
ByLayer
370
18
48
1
60
0
100
AcDbSpline
70
4
71
3
72
26
73
22
40
0
40
0
40
0
40
0
40
0.0698312878838135
40
0.0698312878838135
40
0.183326154219668
40
0.183326154219668
40
0.296850939623571
40
0.296850939623571
40
0.410442440726415
40
0.410442440726415
40
0.52418207309167
40
0.52418207309167
40
0.608467808779303
40
0.608467808779303
40
0.771063473671263
40
0.771063473671263
40
0.854650990141211
40
0.854650990141211
40
0.938878764920295
40
0.938878764920295
40
1
40
1
40
1
40
1
41
1
10
295.239086426801
20
18.1383654557269
30
0
41
1
10
295.251452247552
20
18.1383654557269
30
0
41
1
10
295.263821711646
20
18.1386502656622
30
0
41
1
10
295.296263822179
20
18.1401525072518
30
0
41
1
10
295.316333887472
20
18.141842181273
30
0
41
1
10
295.356227629371
20
18.1468155294047
30
0
41
1
10
295.376089198313
20
18.1501034122112
30
0
41
1
10
295.415368400525
20
18.1584381034168
30
0
41
1
10
295.43483578804
20
18.1634944799037
30
0
41
1
10
295.473000874645
20
18.175651103747
30
0
41
1
10
295.491774540816
20
18.1827742873397
30
0
41
1
10
295.52323224399
20
18.1973452555673
30
0
41
1
10
295.536286583916
20
18.2042589404018
30
0
41
1
10
295.572334747055
20
18.2266851523881
30
0
41
1
10
295.594424319183
20
18.2448738624835
30
0
41
1
10
295.618306076143
20
18.2775613609422
30
0
41
1
10
295.624840032267
20
18.2898877086805
30
0
41
1
10
295.63269185763
20
18.3153300050267
30
0
41
1
10
295.634021953354
20
18.328780898832
30
0
41
1
10
295.631626620182
20
18.3510291817031
30
0
41
1
10
295.629195172473
20
18.3602828309875
30
0
41
1
10
295.625648771753
20
18.3690405155687
30
0
0
SPLINE
5
1EE
100
AcDbEntity
8
1
62
256
6
ByLayer
370
18
48
1
60
0
100
AcDbSpline
70
4
71
3
72
8
73
4
40
0
40
0
40
0
40
0
40
1
40
1
40
1
40
1
41
1
10
295.626087549164
20
18.3890521113679
30
0
41
1
10
295.625941270862
20
18.3823807074892
30
0
41
1
10
295.625795011967
20
18.3757101865989
30
0
41
1
10
295.625648771753
20
18.3690405155687
30
0
0
SPLINE
5
1EF
100
AcDbEntity
8
1
62
256
6
ByLayer
370
18
48
1
60
0
100
AcDbSpline
70
4
71
3
72
30
73
26
40
0
40
0
40
0
40
0
40
0.072868112637639
40
0.072868112637639
40
0.127812593477389
40
0.127812593477389
40
0.199092397893152
40
0.199092397893152
40
0.288874798003795
40
0.288874798003795
40
0.393641276926117
40
0.393641276926117
40
0.499915621932665
40
0.499915621932665
40
0.63162364629755
40
0.63162364629755
40
0.734868911743394
40
0.734868911743394
40
0.796951047610412
40
0.796951047610412
40
0.859105215562921
40
0.859105215562921
40
0.921420364650245
40
0.921420364650245
40
1
40
1
40
1
40
1
41
1
10
296.280393906818
20
18.7668158559595
30
0
41
1
10
296.264271626823
20
18.7756690092211
30
0
41
1
10
296.245984921577
20
18.7813636659679
30
0
41
1
10
296.213003713888
20
18.7872508593513
30
0
41
1
10
296.198312262094
20
18.7884873598368
30
0
41
1
10
296.164281018274
20
18.789007512596
30
0
41
1
10
296.144710786544
20
18.7876097414033
30
0
41
1
10
296.100560564198
20
18.7815835693811
30
0
41
1
10
296.075806174053
20
18.7761866088629
30
0
41
1
10
296.022786077217
20
18.7611629485133
30
0
41
1
10
295.994404064135
20
18.7509154136229
30
0
41
1
10
295.938552210709
20
18.7268849147185
30
0
41
1
10
295.910910056298
20
18.7129660253975
30
0
41
1
10
295.85123516329
20
18.6785127287468
30
0
41
1
10
295.819417680489
20
18.657022916296
30
0
41
1
10
295.766578017431
20
18.6151338247046
30
0
41
1
10
295.744527460489
20
18.595355112807
30
0
41
1
10
295.712206129618
20
18.5617656225757
30
0
41
1
10
295.70069240832
20
18.5486588865122
30
0
41
1
10
295.679389063297
20
18.5215649461861
30
0
41
1
10
295.66955492365
20
18.5075214707265
30
0
41
1
10
295.652206682581
20
18.4785701516013
30
0
41
1
10
295.644638269683
20
18.4635663803874
30
0
41
1
10
295.631380232224
20
18.429012610633
30
0
41
1
10
295.626521921053
20
18.408862775326
30
0
41
1
10
295.626087549164
20
18.3890521113679
30
0
0
SPLINE
5
1F0
100
AcDbEntity
8
1
62
256
6
ByLayer
370
18
48
1
60
0
100
AcDbSpline
70
4
71
3
72
8
73
4
40
0
40
0
40
0
40
0
40
1
40
1
40
1
40
1
41
1
10
293.793676705051
20
19.4267295014838
30
0
41
1
10
293.79937634066
20
19.4301929199459
30
0
41
1
10
293.805076704323
20
19.4336567787114
30
0
41
1
10
293.810777824421
20
19.4371210949424
30
0
0
SPLINE
5
1F1
100
AcDbEntity
8
1
62
256
6
ByLayer
370
18
48
1
60
0
100
AcDbSpline
70
4
71
3
72
8
73
4
40
0
40
0
40
0
40
0
40
1
40
1
40
1
40
1
41
1
10
293.793676705051
20
20.2030169640532
30
0
41
1
10
293.79937634066
20
20.1995612866952
30
0
41
1
10
293.805076704323
20
20.196105165817
30
0
41
1
10
293.810777824421
20
20.1926485841256
30
0
0
SPLINE
5
1F2
100
AcDbEntity
8
1
62
256
6
ByLayer
370
18
48
1
60
0
100
AcDbSpline
70
4
71
3
72
26
73
22
40
0
40
0
40
0
40
0
40
0.0727938302381826
40
0.0727938302381826
40
0.127682300187043
40
0.127682300187043
40
0.1988894413381
40
0.1988894413381
40
0.288580316474637
40
0.288580316474637
40
0.393239995518945
40
0.393239995518945
40
0.4994060035159
40
0.4994060035159
40
0.600539842293538
40
0.600539842293538
40
0.795411350083001
40
0.795411350083001
40
0.921875057553232
40
0.921875057553232
40
1
40
1
40
1
40
1
41
1
10
293.810777824421
20
20.1926485841256
30
0
41
1
10
293.826496790054
20
20.1831181957328
30
0
41
1
10
293.840563016429
20
20.1701338889403
30
0
41
1
10
293.862137909743
20
20.1445231199953
30
0
41
1
10
293.870548728086
20
20.132421525911
30
0
41
1
10
293.888002554551
20
20.1032167757807
30
0
41
1
10
293.896570878475
20
20.0855732108143
30
0
41
1
10
293.913414490736
20
20.044332251272
30
0
41
1
10
293.921111726715
20
20.0201993459483
30
0
41
1
10
293.934600084702
20
19.966777032358
30
0
41
1
10
293.939912042367
20
19.9370762850532
30
0
41
1
10
293.947020980064
20
19.8766953763766
30
0
41
1
10
293.948786426801
20
19.8457980099261
30
0
41
1
10
293.948786426801
20
19.7856492784282
30
0
41
1
10
293.947183179264
20
19.7562135940009
30
0
41
1
10
293.937737737414
20
19.6718034421908
30
0
41
1
10
293.925516564042
20
19.6167380554003
30
0
41
1
10
293.892907828126
20
19.5344852332851
30
0
41
1
10
293.876545050984
20
19.5034958083239
30
0
41
1
10
293.842718869731
20
19.4616961635252
30
0
41
1
10
293.827707240855
20
19.4474083457138
30
0
41
1
10
293.810777824421
20
19.4371210949424
30
0
0
SPLINE
5
1F3
100
AcDbEntity
8
1
62
256
6
ByLayer
370
18
48
1
60
0
100
AcDbSpline
70
4
71
3
72
8
73
4
40
0
40
0
40
0
40
0
40
1
40
1
40
1
40
1
41
1
10
280.580123746664
20
-2.15584893706912
30
0
41
1
10
282.246790413331
20
-2.15584893706912
30
0
41
1
10
283.913457079997
20
-2.15584893706912
30
0
41
1
10
285.580123746664
20
-2.15584893706912
30
0
0
SPLINE
5
1F4
100
AcDbEntity
8
1
62
256
6
ByLayer
370
18
48
1
60
0
100
AcDbSpline
70
4
71
3
72
8
73
4
40
0
40
0
40
0
40
0
40
1
40
1
40
1
40
1
41
1
10
280.580123746664
20
-3.68155883729935
30
0
41
1
10
280.580123746664
20
-3.17298887055597
30
0
41
1
10
280.580123746664
20
-2.66441890381256
30
0
41
1
10
280.580123746664
20
-2.15584893706912
30
0
0
SPLINE
5
1F5
100
AcDbEntity
8
1
62
256
6
ByLayer
370
18
48
1
60
0
100
AcDbSpline
70
4
71
3
72
18
73
14
40
0
40
0
40
0
40
0
40
0.191325435437369
40
0.191325435437369
40
0.382650870874737
40
0.382650870874737
40
0.536214707212625
40
0.536214707212625
40
0.690626528447003
40
0.690626528447003
40
0.845885455798056
40
0.845885455798056
40
1
40
1
40
1
40
1
41
1
10
283.240650735664
20
-4.42343655538585
30
0
41
1
10
283.151113769688
20
-4.66493054361814
30
0
41
1
10
283.000180027043
20
-4.85116743284809
30
0
41
1
10
282.572960789386
20
-5.11108045408113
30
0
41
1
10
282.320978185139
20
-5.176570349195
30
0
41
1
10
281.795268284909
20
-5.176570349195
30
0
41
1
10
281.577821367539
20
-5.13666244436001
30
0
41
1
10
281.17507519267
20
-4.97864228912462
30
0
41
1
10
281.02013397946
20
-4.88084254157155
30
0
41
1
10
280.802090603178
20
-4.64689482490184
30
0
41
1
10
280.719545593684
20
-4.50222908544467
30
0
41
1
10
280.607399668106
20
-4.15151819091125
30
0
41
1
10
280.580123746664
20
-3.93533218086549
30
0
41
1
10
280.580123746664
20
-3.68155883729935
30
0
0
SPLINE
5
1F6
100
AcDbEntity
8
1
62
256
6
ByLayer
370
18
48
1
60
0
100
AcDbSpline
70
4
71
3
72
18
73
14
40
0
40
0
40
0
40
0
40
0.252026352812657
40
0.252026352812657
40
0.40561296454716
40
0.40561296454716
40
0.559855857535999
40
0.559855857535999
40
0.714098750524839
40
0.714098750524839
40
0.85720187902004
40
0.85720187902004
40
1
40
1
40
1
40
1
41
1
10
285.580123746664
20
-2.15584893706912
30
0
41
1
10
285.580123746664
20
-2.65623266692333
30
0
41
1
10
285.580123746664
20
-3.15661639677748
30
0
41
1
10
285.580123746664
20
-3.9619374507555
30
0
41
1
10
285.528959766106
20
-4.20752455743238
30
0
41
1
10
285.326430257392
20
-4.57669226951856
30
0
41
1
10
285.170811902203
20
-4.72121092223156
30
0
41
1
10
284.75126726163
20
-4.92995996290696
30
0
41
1
10
284.531262145232
20
-4.9821472230758
30
0
41
1
10
284.087414613894
20
-4.9821472230758
30
0
41
1
10
283.886595990205
20
-4.93609964057387
30
0
41
1
10
283.50838601914
20
-4.75006122237463
30
0
41
1
10
283.355769691919
20
-4.61069672422698
30
0
41
1
10
283.240650735664
20
-4.42343655538585
30
0
0
SPLINE
5
1F7
100
AcDbEntity
8
1
62
256
6
ByLayer
370
18
48
1
60
0
100
AcDbSpline
70
4
71
3
72
30
73
26
40
0
40
0
40
0
40
0
40
0.0625000000001941
40
0.0625000000001941
40
0.0937500000002971
40
0.0937500000002971
40
0.1250000000004
40
0.1250000000004
40
0.18750000000041
40
0.18750000000041
40
0.25000000000042
40
0.25000000000042
40
0.31250000000043
40
0.31250000000043
40
0.37500000000044
40
0.37500000000044
40
0.500000000000352
40
0.500000000000352
40
0.625000000000264
40
0.625000000000264
40
0.750000000000176
40
0.750000000000176
40
0.875000000000088
40
0.875000000000088
40
1
40
1
40
1
40
1
41
1
10
298.701586426801
20
-26.0983472368848
30
0
41
1
10
298.718203807689
20
-26.0983472368849
30
0
41
1
10
298.734200896536
20
-26.0973151268595
30
0
41
1
10
298.757435198739
20
-26.0944969857938
30
0
41
1
10
298.764979107431
20
-26.0933506594385
30
0
41
1
10
298.779386801721
20
-26.0907727430912
30
0
41
1
10
298.7863121996
20
-26.0893336406911
30
0
41
1
10
298.806406270813
20
-26.0846467500163
30
0
41
1
10
298.818943913342
20
-26.0810107881784
30
0
41
1
10
298.842040545228
20
-26.0732880059341
30
0
41
1
10
298.852719957518
20
-26.0691724437528
30
0
41
1
10
298.872870193054
20
-26.0605800645786
30
0
41
1
10
298.882342163742
20
-26.0560978607486
30
0
41
1
10
298.900336050753
20
-26.046866764591
30
0
41
1
10
298.908772607486
20
-26.0421617450775
30
0
41
1
10
298.932819499347
20
-26.0278363605778
30
0
41
1
10
298.947187612689
20
-26.0180085402984
30
0
41
1
10
298.973762138506
20
-25.9979578357373
30
0
41
1
10
298.98595030675
20
-25.9877323881709
30
0
41
1
10
299.008713502379
20
-25.9669603786891
30
0
41
1
10
299.019282473989
20
-25.9564129698783
30
0
41
1
10
299.039134223174
20
-25.9350402177204
30
0
41
1
10
299.048424136689
20
-25.9242003483599
30
0
41
1
10
299.06582016254
20
-25.9024118749975
30
0
41
1
10
299.073941316103
20
-25.8914474762357
30
0
41
1
10
299.081575189054
20
-25.8804164059675
30
0
0
SPLINE
5
1F8
100
AcDbEntity
8
1
62
256
6
ByLayer
370
18
48
1
60
0
100
AcDbSpline
70
4
71
3
72
21
73
17
40
0
40
0
40
0
40
0
40
0.249999999999747
40
0.249999999999747
40
0.374999999999621
40
0.374999999999621
40
0.499999999999495
40
0.499999999999495
40
0.531249999999491
40
0.531249999999491
40
0.562499999999487
40
0.562499999999487
40
0.624999999999536
40
0.749999999999691
40
0.749999999999691
40
1
40
1
40
1
40
1
41
1
10
285.006646136988
20
-25.7730150840626
30
0
41
1
10
285.190616760948
20
-25.8210177467073
30
0
41
1
10
285.379508489327
20
-25.8649985386286
30
0
41
1
10
285.672503824075
20
-25.9239927258512
30
0
41
1
10
285.771787063609
20
-25.9424901802729
30
0
41
1
10
285.97409860191
20
-25.9769225707788
30
0
41
1
10
286.077125908659
20
-25.9928581751344
30
0
41
1
10
286.208641222541
20
-26.0109921128437
30
0
41
1
10
286.235081176008
20
-26.0145294269499
30
0
41
1
10
286.288246060933
20
-26.021419654185
30
0
41
1
10
286.3149694826
20
-26.0247720373297
30
0
41
1
10
286.395221013606
20
-26.0345017947979
30
0
41
1
10
286.556400042731
20
-26.0526978869409
30
0
41
1
10
286.719690564497
20
-26.0670104054542
30
0
41
1
10
287.049314013279
20
-26.090174163535
30
0
41
1
10
287.273122386265
20
-26.0983472368848
30
0
41
1
10
287.501586426801
20
-26.0983472368847
30
0
0
SPLINE
5
1F9
100
AcDbEntity
8
1
62
256
6
ByLayer
370
18
48
1
60
0
100
AcDbSpline
70
4
71
3
72
16
73
12
40
0
40
0
40
0
40
0
40
0.125000000000005
40
0.125000000000005
40
0.250000000000009
40
0.250000000000009
40
0.500000000000006
40
0.500000000000006
40
0.750000000000003
40
0.750000000000003
40
1
40
1
40
1
40
1
41
1
10
292.388868261337
20
-18.703447601234
30
0
41
1
10
292.388868261337
20
-18.6592843329201
30
0
41
1
10
292.389875557497
20
-18.6150422900892
30
0
41
1
10
292.393922305359
20
-18.5265852669083
30
0
41
1
10
292.396961689035
20
-18.4823416979498
30
0
41
1
10
292.409174393717
20
-18.3495769476947
30
0
41
1
10
292.421434389585
20
-18.2610207948502
30
0
41
1
10
292.454616196559
20
-18.0838956603324
30
0
41
1
10
292.475535650637
20
-17.9953263558269
30
0
41
1
10
292.526738612026
20
-17.8182877834688
30
0
41
1
10
292.557017479557
20
-17.729817911485
30
0
41
1
10
292.592519154429
20
-17.6414778479715
30
0
0
SPLINE
5
1FA
100
AcDbEntity
8
1
62
256
6
ByLayer
370
18
48
1
60
0
100
AcDbSpline
70
4
71
3
72
8
73
4
40
0
40
0
40
0
40
0
40
1
40
1
40
1
40
1
41
1
10
281.194091513356
20
-4.04175326042548
30
0
41
1
10
281.220952603149
20
-4.1635235341528
30
0
41
1
10
281.267000185651
20
-4.26482821565702
30
0
41
1
10
281.330955161348
20
-4.34669058454929
30
0
0
SPLINE
5
1FB
100
AcDbEntity
8
1
62
256
6
ByLayer
370
18
48
1
60
0
100
AcDbSpline
70
4
71
3
72
10
73
6
40
0
40
0
40
0
40
0
40
0.660338983050847
40
0.660338983050847
40
1
40
1
40
1
40
1
41
1
10
281.169788622592
20
-2.68488449603561
30
0
41
1
10
281.169788622592
20
-3.01710927645686
30
0
41
1
10
281.169788622592
20
-3.34933405687812
30
0
41
1
10
281.169788622592
20
-3.85244653236205
30
0
41
1
10
281.177463219675
20
-3.97217024686705
30
0
41
1
10
281.194091513356
20
-4.04175326042548
30
0
0
SPLINE
5
1FC
100
AcDbEntity
8
1
62
256
6
ByLayer
370
18
48
1
60
0
100
AcDbSpline
70
4
71
3
72
8
73
4
40
0
40
0
40
0
40
0
40
1
40
1
40
1
40
1
41
1
10
282.88889836933
20
-2.68488449603561
30
0
41
1
10
282.315861787084
20
-2.68488449603561
30
0
41
1
10
281.742825204838
20
-2.68488449603561
30
0
41
1
10
281.169788622592
20
-2.68488449603561
30
0
0
SPLINE
5
1FD
100
AcDbEntity
8
1
62
256
6
ByLayer
370
18
48
1
60
0
100
AcDbSpline
70
4
71
3
72
18
73
14
40
0
40
0
40
0
40
0
40
0.144086644560489
40
0.144086644560489
40
0.287731062505122
40
0.287731062505122
40
0.456860780407674
40
0.456860780407674
40
0.627194363444235
40
0.627194363444235
40
0.795871414023979
40
0.795871414023979
40
1
40
1
40
1
40
1
41
1
10
281.330955161348
20
-4.34669058454929
30
0
41
1
10
281.393631037531
20
-4.4285529534416
30
0
41
1
10
281.487005302049
20
-4.49608940777776
30
0
41
1
10
281.729661261006
20
-4.60234717506822
30
0
41
1
10
281.870735156232
20
-4.62809247761658
30
0
41
1
10
282.216092024996
20
-4.62809247761658
30
0
41
1
10
282.378537663267
20
-4.59023113200391
30
0
41
1
10
282.653239154537
20
-4.43619291260026
30
0
41
1
10
282.74947652231
20
-4.33134139038202
30
0
41
1
10
282.86148994018
20
-4.06047257989715
30
0
41
1
10
282.88889836933
20
-3.8647258876959
30
0
41
1
10
282.88889836933
20
-3.3015810083576
30
0
41
1
10
282.88889836933
20
-2.9932327521966
30
0
41
1
10
282.88889836933
20
-2.68488449603561
30
0
0
SPLINE
5
1FE
100
AcDbEntity
8
1
62
256
6
ByLayer
370
18
48
1
60
0
100
AcDbSpline
70
4
71
3
72
8
73
4
40
0
40
0
40
0
40
0
40
1
40
1
40
1
40
1
41
1
10
284.990458870737
20
-2.68488449603561
30
0
41
1
10
284.486493662244
20
-2.68488449603561
30
0
41
1
10
283.98252845375
20
-2.68488449603561
30
0
41
1
10
283.478563245257
20
-2.68488449603561
30
0
0
SPLINE
5
1FF
100
AcDbEntity
8
1
62
256
6
ByLayer
370
18
48
1
60
0
100
AcDbSpline
70
4
71
3
72
22
73
18
40
0
40
0
40
0
40
0
40
0.125919801008141
40
0.125919801008141
40
0.228173823812625
40
0.228173823812625
40
0.362000949327645
40
0.362000949327645
40
0.497453699158081
40
0.497453699158081
40
0.624996799363382
40
0.624996799363382
40
0.753577031326435
40
0.753577031326435
40
0.881194351724582
40
0.881194351724582
40
1
40
1
40
1
40
1
41
1
10
283.478563245257
20
-2.68488449603561
30
0
41
1
10
283.478563245257
20
-2.97344934638099
30
0
41
1
10
283.478563245257
20
-3.26201419672634
30
0
41
1
10
283.478563245257
20
-3.78491007802592
30
0
41
1
10
283.49902883748
20
-3.95272793425514
30
0
41
1
10
283.587623283093
20
-4.18897978922126
30
0
41
1
10
283.670428172349
20
-4.291433485547
30
0
41
1
10
283.902064457376
20
-4.42732677276305
30
0
41
1
10
284.047762528961
20
-4.46129790099852
30
0
41
1
10
284.38800299967
20
-4.46129790099852
30
0
41
1
10
284.535099443773
20
-4.42957623305276
30
0
41
1
10
284.78682226106
20
-4.30217366430338
30
0
41
1
10
284.874060814968
20
-4.21161767587702
30
0
41
1
10
284.965811138863
20
-3.9751057298358
30
0
41
1
10
284.990458870737
20
-3.77160744308091
30
0
41
1
10
284.990458870737
20
-3.21835426665047
30
0
41
1
10
284.990458870737
20
-2.95161938134302
30
0
41
1
10
284.990458870737
20
-2.68488449603561
30
0
0
SPLINE
5
200
100
AcDbEntity
8
1
62
256
6
ByLayer
370
18
48
1
60
0
100
AcDbSpline
70
4
71
3
72
12
73
8
40
0
40
0
40
0
40
0
40
0.0608396131802421
40
0.302823430431025
40
0.549290181377452
40
0.801020285607638
40
1
40
1
40
1
40
1
41
1
10
293.601668831116
20
-18.6465993440066
30
0
41
1
10
293.620344293375
20
-18.6104080370633
30
0
41
1
10
293.719578958436
20
-18.4355393094536
30
0
41
1
10
293.965885080106
20
-18.155929877471
30
0
41
1
10
294.394867136631
20
-17.9097600574258
30
0
41
1
10
294.851887709309
20
-17.8232703499608
30
0
41
1
10
295.139377626585
20
-17.8563110120569
30
0
41
1
10
295.267466455085
20
-17.8879610764919
30
0
0
SPLINE
5
201
100
AcDbEntity
8
1
62
256
6
ByLayer
370
18
48
1
60
0
100
AcDbSpline
70
4
71
3
72
12
73
8
40
0
40
0
40
0
40
0
40
0.0608396131802421
40
0.302823430431025
40
0.549290181377452
40
0.801020285607638
40
1
40
1
40
1
40
1
41
1
10
293.601668831116
20
-18.6465993440066
30
0
41
1
10
293.620344293375
20
-18.6104080370633
30
0
41
1
10
293.719578958436
20
-18.4355393094536
30
0
41
1
10
293.965885080106
20
-18.155929877471
30
0
41
1
10
294.394867136631
20
-17.9097600574258
30
0
41
1
10
294.851887709309
20
-17.8232703499608
30
0
41
1
10
295.139377626585
20
-17.8563110120569
30
0
41
1
10
295.267466455085
20
-17.8879610764919
30
0
0
SPLINE
5
202
100
AcDbEntity
8
1
62
256
6
ByLayer
370
18
48
1
60
0
100
AcDbSpline
70
4
71
3
72
26
73
22
40
0
40
0
40
0
40
0
40
0.125000000000184
40
0.250000000000369
40
0.250000000000369
40
0.312500000000461
40
0.312500000000461
40
0.375000000000553
40
0.375000000000553
40
0.500000000000571
40
0.500000000000571
40
0.5625000000005
40
0.5625000000005
40
0.625000000000428
40
0.625000000000428
40
0.750000000000285
40
0.875000000000143
40
0.875000000000143
40
0.937500000000071
40
0.937500000000071
40
1
40
1
40
1
40
1
41
1
10
286.901481908328
20
-26.3722122419609
30
0
41
1
10
286.863887727258
20
-26.3703345741317
30
0
41
1
10
286.789617231469
20
-26.3666448353511
30
0
41
1
10
286.717104334811
20
-26.3630994062422
30
0
41
1
10
286.6633878584
20
-26.3605169218196
30
0
41
1
10
286.645543132646
20
-26.3596666477689
30
0
41
1
10
286.610319675202
20
-26.3580092916388
30
0
41
1
10
286.59303208964
20
-26.3572064594754
30
0
41
1
10
286.54211600678
20
-26.3548827999778
30
0
41
1
10
286.509429737548
20
-26.353446020612
30
0
41
1
10
286.462269252707
20
-26.3515020778942
30
0
41
1
10
286.446861699281
20
-26.3508894903953
30
0
41
1
10
286.416682660996
20
-26.3497448128103
30
0
41
1
10
286.401854900703
20
-26.3492109007745
30
0
41
1
10
286.358851803103
20
-26.3477637932803
30
0
41
1
10
286.305452440687
20
-26.3462431074424
30
0
41
1
10
286.259680139161
20
-26.3456563760336
30
0
41
1
10
286.228288585323
20
-26.3456298808523
30
0
41
1
10
286.218297206495
20
-26.3456907509745
30
0
41
1
10
286.199506623427
20
-26.3459609382026
30
0
41
1
10
286.190687397544
20
-26.3461699251385
30
0
41
1
10
286.182446671289
20
-26.3464570541986
30
0
0
SPLINE
5
203
100
AcDbEntity
8
1
62
256
6
ByLayer
370
18
48
1
60
0
100
AcDbSpline
70
4
71
3
72
8
73
4
40
0
40
0
40
0
40
0
40
1
40
1
40
1
40
1
41
1
10
298.272523531342
20
3.21246920555797
30
0
41
1
10
298.00333245042
20
4.20521630188219
30
0
41
1
10
298.066486669098
20
5.25848513212839
30
0
41
1
10
298.455986122015
20
6.25246920555819
30
0
0
SPLINE
5
204
100
AcDbEntity
8
1
62
256
6
ByLayer
370
18
48
1
60
0
100
AcDbSpline
70
4
71
3
72
14
73
10
40
0
40
0
40
0
40
0
40
0.0216417413202022
40
0.119765741659816
40
0.222569379822798
40
0.347735669361867
40
0.531348970442323
40
0.793138344745166
40
1
40
1
40
1
40
1
41
1
10
297.634677897182
20
-0.112051615931676
30
0
41
1
10
297.65523899581
20
-0.102391296049916
30
0
41
1
10
297.76593219581
20
-0.0454085302814917
30
0
41
1
10
297.931570124206
20
0.0790612373228896
30
0
41
1
10
298.079144393388
20
0.276335620374454
30
0
41
1
10
298.187960749641
20
0.495800200109585
30
0
41
1
10
298.287133481651
20
0.79756815249371
30
0
41
1
10
298.375621338
20
1.20361004529346
30
0
41
1
10
298.430587076835
20
1.57288903594147
30
0
41
1
10
298.452458567338
20
1.74880439389273
30
0
0
SPLINE
5
205
100
AcDbEntity
8
1
62
256
6
ByLayer
370
18
48
1
60
0
100
AcDbSpline
70
4
71
3
72
8
73
4
40
0
40
0
40
0
40
0
40
1
40
1
40
1
40
1
41
1
10
297.861794531343
20
3.21246920555814
30
0
41
1
10
297.9311656425
20
3.21246920555814
30
0
41
1
10
298.068554289822
20
3.21246920555814
30
0
41
1
10
298.272523531343
20
3.21246920555814
30
0
0
SPLINE
5
206
100
AcDbEntity
8
1
62
256
6
ByLayer
370
18
48
1
60
0
100
AcDbSpline
70
4
71
3
72
8
73
4
40
0
40
0
40
0
40
0
40
1
40
1
40
1
40
1
41
1
10
297.809861531343
20
9.29246920555812
30
0
41
1
10
297.82323049428
20
9.29246920555812
30
0
41
1
10
297.978880330577
20
9.29246920555812
30
0
41
1
10
298.272523531343
20
9.29246920555812
30
0
0
SPLINE
5
207
100
AcDbEntity
8
1
62
256
6
ByLayer
370
18
48
1
60
0
100
AcDbSpline
70
4
71
3
72
8
73
4
40
0
40
0
40
0
40
0
40
1
40
1
40
1
40
1
41
1
10
298.272523531342
20
9.29246920555829
30
0
41
1
10
298.00333245042
20
8.29972210923407
30
0
41
1
10
298.066486669098
20
7.24645327898784
30
0
41
1
10
298.455986122015
20
6.25246920555804
30
0
0
SPLINE
5
208
100
AcDbEntity
8
1
62
256
6
ByLayer
370
18
48
1
60
0
100
AcDbSpline
70
4
71
3
72
8
73
4
40
0
40
0
40
0
40
0
40
1
40
1
40
1
40
1
41
1
10
267.357062452291
20
-19.690050906721
30
0
41
1
10
267.323775047857
20
-19.6467054437343
30
0
41
1
10
267.290512206466
20
-19.6033919657129
30
0
41
1
10
267.25726354173
20
-19.5600969479369
30
0
0
SPLINE
5
209
100
AcDbEntity
8
1
62
256
6
ByLayer
370
18
48
1
60
0
100
AcDbSpline
70
4
71
3
72
8
73
4
40
0
40
0
40
0
40
0
40
1
40
1
40
1
40
1
41
1
10
267.589097765083
20
-19.4224928402784
30
0
41
1
10
267.596244444498
20
-19.4766117578978
30
0
41
1
10
267.603394171134
20
-19.5307537508859
30
0
41
1
10
267.610549177506
20
-19.5849357251881
30
0
0
SPLINE
5
20A
100
AcDbEntity
8
1
62
256
6
ByLayer
370
18
48
1
60
0
100
AcDbSpline
70
4
71
3
72
22
73
18
40
0
40
0
40
0
40
0
40
0.0057953732284812
40
0.103478732989251
40
0.201110937297585
40
0.263685637694186
40
0.34706271823319
40
0.441512188461599
40
0.5348863015828
40
0.627746304255836
40
0.720876506263676
40
0.814976538577383
40
0.910474526381713
40
0.958400088072941
40
0.98133812717381
40
0.994204626769399
40
1
40
1
40
1
40
1
41
1
10
256
20
9.36516483539785
30
0
41
1
10
255.997930871523
20
9.35557181585807
30
0
41
1
10
255.962861818391
20
9.18418229412399
30
0
41
1
10
255.958961904584
20
8.83583207152239
30
0
41
1
10
256.113707310582
20
8.41055464046164
30
0
41
1
10
256.369006706518
20
8.06488545083201
30
0
41
1
10
256.707434363297
20
7.79232625510022
30
0
41
1
10
257.173951894228
20
7.61300474630769
30
0
41
1
10
257.693909583379
20
7.59186433312917
30
0
41
1
10
258.189259225013
20
7.7356356815574
30
0
41
1
10
258.608234210634
20
8.02658455923702
30
0
41
1
10
258.906802293747
20
8.4329900432071
30
0
41
1
10
259.026207992478
20
8.83096636249422
30
0
41
1
10
259.034427990896
20
9.11414545820838
30
0
41
1
10
259.020114279809
20
9.25524095351432
30
0
41
1
10
259.008393291236
20
9.3246513301425
30
0
41
1
10
259.002067730718
20
9.35557878985361
30
0
41
1
10
259
20
9.36516483539788
30
0
0
SPLINE
5
20B
100
AcDbEntity
8
1
62
256
6
ByLayer
370
18
48
1
60
0
100
AcDbSpline
70
4
71
3
72
14
73
10
40
0
40
0
40
0
40
0
40
0.142995411170392
40
0.445857162789942
40
0.625455898959992
40
0.748464861665084
40
0.865554840969671
40
0.98465212513094
40
1
40
1
40
1
40
1
41
1
10
298.082702631442
20
-1.27471644378167
30
0
41
1
10
298.066855168354
20
-1.18221387473525
30
0
41
1
10
298.012151080687
20
-0.905233318781058
30
0
41
1
10
297.927362851427
20
-0.589415147827594
30
0
41
1
10
297.797753876281
20
-0.301113376975849
30
0
41
1
10
297.623923866381
20
-0.0664475752797671
30
0
41
1
10
297.367761439375
20
0.1116859405019
30
0
41
1
10
297.115793958335
20
0.200478152398858
30
0
41
1
10
296.988763076942
20
0.175308291733415
30
0
41
1
10
296.97417924039
20
0.171866122932812
30
0
0
SPLINE
5
20C
100
AcDbEntity
8
1
62
256
6
ByLayer
370
18
48
1
60
0
100
AcDbSpline
70
4
71
3
72
26
73
22
40
0
40
0
40
0
40
0
40
0.124999999999996
40
0.124999999999996
40
0.249999999999992
40
0.249999999999992
40
0.374999999999989
40
0.374999999999989
40
0.499999999999985
40
0.499999999999985
40
0.562499999999983
40
0.562499999999983
40
0.593749999999986
40
0.593749999999986
40
0.624999999999989
40
0.624999999999989
40
0.749999999999993
40
0.749999999999993
40
0.874999999999996
40
0.874999999999996
40
1
40
1
40
1
40
1
41
1
10
266.5
20
18
30
0
41
1
10
266.5
20
17.8061186922981
30
0
41
1
10
266.507040444235
20
17.6098445528056
30
0
41
1
10
266.536335326609
20
17.2128096146085
30
0
41
1
10
266.55858759289
20
17.0120484146546
30
0
41
1
10
266.619655490567
20
16.6063537868474
30
0
41
1
10
266.658468036496
20
16.4014198205564
30
0
41
1
10
266.754302649013
20
15.9877240070838
30
0
41
1
10
266.811320114991
20
15.7789613906604
30
0
41
1
10
266.912045085875
20
15.4632416471431
30
0
41
1
10
266.948156822171
20
15.3575728834171
30
0
41
1
10
267.006361967752
20
15.1984686055863
30
0
41
1
10
267.026436910696
20
15.1453336986913
30
0
41
1
10
267.067975985954
20
15.0388711618252
30
0
41
1
10
267.089467925778
20
14.985478245032
30
0
41
1
10
267.200062711765
20
14.7191238768013
30
0
41
1
10
267.298622243188
20
14.5077469649652
30
0
41
1
10
267.516961219279
20
14.0893936219589
30
0
41
1
10
267.636736878133
20
13.8824150729791
30
0
41
1
10
267.898923853656
20
13.473999555747
30
0
41
1
10
268.041329091563
20
13.272559380968
30
0
41
1
10
268.196015863233
20
13.0745777842513
30
0
0
SPLINE
5
20D
100
AcDbEntity
8
1
62
256
6
ByLayer
370
18
48
1
60
0
100
AcDbSpline
70
4
71
3
72
64
73
60
40
0
40
0
40
0
40
0
40
0.0483105648746438
40
0.0483105648746438
40
0.143479508387197
40
0.143479508387197
40
0.238648451899751
40
0.238648451899751
40
0.333817395412304
40
0.333817395412304
40
0.357609631290441
40
0.357609631290441
40
0.381401867168578
40
0.428986338924852
40
0.428986338924852
40
0.524155282437401
40
0.524155282437401
40
0.547947518315537
40
0.571739754193673
40
0.571739754193673
40
0.619324225949949
40
0.619324225949949
40
0.666908697706225
40
0.666908697706225
40
0.714493169462501
40
0.714493169462501
40
0.738285405340638
40
0.738285405340638
40
0.762077641218775
40
0.762077641218775
40
0.809662112975054
40
0.809662112975054
40
0.833454348853192
40
0.833454348853192
40
0.857246584731329
40
0.857246584731329
40
0.881038820609467
40
0.881038820609467
40
0.904831056487605
40
0.904831056487605
40
0.916727174426673
40
0.916727174426673
40
0.922675233396201
40
0.922675233396201
40
0.92862329236573
40
0.92862329236573
40
0.952415528243847
40
0.952415528243847
40
0.958363587213369
40
0.958363587213369
40
0.964311646182892
40
0.964311646182892
40
0.976207764121923
40
0.976207764121923
40
0.988103882060954
40
0.988103882060954
40
0.994051941030477
40
0.994051941030477
40
1
40
1
40
1
40
1
41
1
10
266.519642968435
20
-25.0000001610773
30
0
41
1
10
266.519646884501
20
-24.9999695997715
30
0
41
1
10
266.519892062727
20
-24.9981370323019
30
0
41
1
10
266.521339173306
20
-24.9873387479055
30
0
41
1
10
266.523237433687
20
-24.9731784140135
30
0
41
1
10
266.529729073077
20
-24.9307710049261
30
0
41
1
10
266.534319076738
20
-24.9025240572583
30
0
41
1
10
266.547875242206
20
-24.8317786352349
30
0
41
1
10
266.556833415152
20
-24.7892803639199
30
0
41
1
10
266.572457014707
20
-24.7270980203371
30
0
41
1
10
266.575807465316
20
-24.714202922654
30
0
41
1
10
266.583000909644
20
-24.6875412825896
30
0
41
1
10
266.594532569805
20
-24.646235870696
30
0
41
1
10
266.608531318667
20
-24.6010034096296
30
0
41
1
10
266.640595193902
20
-24.5053329364703
30
0
41
1
10
266.667317087792
20
-24.4346110008958
30
0
41
1
10
266.710906805116
20
-24.3376373963898
30
0
41
1
10
266.729382117053
20
-24.2979741341879
30
0
41
1
10
266.75009916318
20
-24.2567026319937
30
0
41
1
10
266.783034431174
20
-24.1936089074355
30
0
41
1
10
266.80746113302
20
-24.1499635994968
30
0
41
1
10
266.8624056338
20
-24.0596279062393
30
0
41
1
10
266.892917473299
20
-24.0129369899117
30
0
41
1
10
266.961556197557
20
-23.916663692067
30
0
41
1
10
266.999671313182
20
-23.8670802966506
30
0
41
1
10
267.064170400887
20
-23.7906934814132
30
0
41
1
10
267.086897049977
20
-23.7648964407325
30
0
41
1
10
267.135175321718
20
-23.712667821269
30
0
41
1
10
267.160721815478
20
-23.6862445584812
30
0
41
1
10
267.241901977732
20
-23.6064566972969
30
0
41
1
10
267.302087691737
20
-23.552454409329
30
0
41
1
10
267.404919160544
20
-23.4708844568858
30
0
41
1
10
267.441386054215
20
-23.4435526910598
30
0
41
1
10
267.518703876595
20
-23.3893695520324
30
0
41
1
10
267.559600548184
20
-23.3624723607601
30
0
41
1
10
267.646756088626
20
-23.309363761567
30
0
41
1
10
267.693007193299
20
-23.2831501852156
30
0
41
1
10
267.792155068188
20
-23.2318208871317
30
0
41
1
10
267.845034427234
20
-23.206700359467
30
0
41
1
10
267.9308646753
20
-23.1703123597778
30
0
41
1
10
267.960567133982
20
-23.1584005221928
30
0
41
1
10
268.00705423213
20
-23.1409467412334
30
0
41
1
10
268.022907164888
20
-23.135186278816
30
0
41
1
10
268.05514303105
20
-23.1238842361638
30
0
41
1
10
268.071505868208
20
-23.1183488186114
30
0
41
1
10
268.154617870107
20
-23.091296501712
30
0
41
1
10
268.225201074446
20
-23.0716215356655
30
0
41
1
10
268.32022728546
20
-23.0505117989966
30
0
41
1
10
268.3396385134
20
-23.0464546402755
30
0
41
1
10
268.3788670999
20
-23.0387953504529
30
0
41
1
10
268.398665354119
20
-23.0351950756445
30
0
41
1
10
268.458631525695
20
-23.0251129834154
30
0
41
1
10
268.499369632203
20
-23.0193485323361
30
0
41
1
10
268.582496900093
20
-23.0099252989193
30
0
41
1
10
268.624885532806
20
-23.0062659045991
30
0
41
1
10
268.689837410364
20
-23.0025373783017
30
0
41
1
10
268.711778112919
20
-23.0015869519872
30
0
41
1
10
268.75583436734
20
-23.0003184921542
30
0
41
1
10
268.777898856611
20
-23
30
0
41
1
10
268.8
20
-23
30
0
0
SPLINE
5
20E
100
AcDbEntity
8
1
62
256
6
ByLayer
370
18
48
1
60
0
100
AcDbSpline
70
4
71
3
72
21
73
17
40
0
40
0
40
0
40
0
40
0.182307381766439
40
0.182307381766439
40
0.227884227208049
40
0.227884227208049
40
0.273461072649659
40
0.273461072649659
40
0.364614763532881
40
0.364614763532881
40
0.546922145299327
40
0.546922145299327
40
0.729229527065773
40
0.729229527065773
40
0.911536908832219
40
1
40
1
40
1
40
1
41
1
10
266.69874622716
20
24.3647286050964
30
0
41
1
10
266.664606825586
20
24.441428851411
30
0
41
1
10
266.638327076127
20
24.5115676649319
30
0
41
1
10
266.612023500903
20
24.5907487747988
30
0
41
1
10
266.607094875553
20
24.6061606305935
30
0
41
1
10
266.597837084241
20
24.6361291934279
30
0
41
1
10
266.593509558416
20
24.6506812109791
30
0
41
1
10
266.581361687707
20
24.6929548010831
30
0
41
1
10
266.574362676503
20
24.7193278330698
30
0
41
1
10
266.555989109382
20
24.7930663085193
30
0
41
1
10
266.547204448128
20
24.835053471936
30
0
41
1
10
266.533914643012
20
24.904879477456
30
0
41
1
10
266.529416848819
20
24.9327182058106
30
0
41
1
10
266.523070465745
20
24.9743688301033
30
0
41
1
10
266.520328778752
20
24.9948827458433
30
0
41
1
10
266.51964568032
20
24.9999812141952
30
0
41
1
10
266.519642946195
20
25.0000003824488
30
0
0
SPLINE
5
20F
100
AcDbEntity
8
1
62
256
6
ByLayer
370
18
48
1
60
0
100
AcDbSpline
70
4
71
3
72
8
73
4
40
0
40
0
40
0
40
0
40
1
40
1
40
1
40
1
41
1
10
267.66279147143
20
21.2254666594756
30
0
41
1
10
267.648646399798
20
21.2782567854841
30
0
41
1
10
267.634511765928
20
21.3310079572345
30
0
41
1
10
267.620383156252
20
21.3837366463856
30
0
0
SPLINE
5
210
100
AcDbEntity
8
1
62
256
6
ByLayer
370
18
48
1
60
0
100
AcDbSpline
70
4
71
3
72
8
73
4
40
0
40
0
40
0
40
0
40
1
40
1
40
1
40
1
41
1
10
267.979616843748
20
21.3837366463856
30
0
41
1
10
267.965488234072
20
21.3310079572345
30
0
41
1
10
267.951353600202
20
21.2782567854841
30
0
41
1
10
267.93720852857
20
21.2254666594756
30
0
0
SPLINE
5
211
100
AcDbEntity
8
1
62
256
6
ByLayer
370
18
48
1
60
0
100
AcDbSpline
70
4
71
3
72
14
73
10
40
0
40
0
40
0
40
0
40
0.0299042142405827
40
0.167935971101437
40
0.289909773115999
40
0.417655271263915
40
0.573131422545249
40
0.801096439225583
40
1
40
1
40
1
40
1
41
1
10
296.984768478148
20
-12.6723359014746
30
0
41
1
10
297.010312096422
20
-12.677326687688
30
0
41
1
10
297.151722476716
20
-12.6969491236218
30
0
41
1
10
297.398765238104
20
-12.6001210736383
30
0
41
1
10
297.631152157976
20
-12.4258936006379
30
0
41
1
10
297.778872400354
20
-12.2287933817029
30
0
41
1
10
297.887703056317
20
-12.0083540838639
30
0
41
1
10
297.969330309328
20
-11.7666108973988
30
0
41
1
10
298.01863385094
20
-11.5458634394649
30
0
41
1
10
298.037504560482
20
-11.4374195042382
30
0
0
SPLINE
5
212
100
AcDbEntity
8
1
62
256
6
ByLayer
370
18
48
1
60
0
100
AcDbSpline
70
4
71
3
72
16
73
12
40
0
40
0
40
0
40
0
40
0.461208588217087
40
0.461208588217087
40
0.643534962278529
40
0.643534962278529
40
0.828408472975269
40
0.828408472975269
40
0.943003644159968
40
0.943003644159968
40
1
40
1
40
1
40
1
41
1
10
11.8943375672976
20
8.05584836782833
30
0
41
1
10
11.8660503915153
20
7.95080268681502
30
0
41
1
10
11.827333919291
20
7.84628670970858
30
0
41
1
10
11.7473160248317
20
7.7144246914518
30
0
41
1
10
11.7212784637479
20
7.67825379650785
30
0
41
1
10
11.6606543989166
20
7.61290523367282
30
0
41
1
10
11.6251722226875
20
7.58305923051464
30
0
41
1
10
11.559922585196
20
7.54855881865646
30
0
41
1
10
11.5324782774945
20
7.53852018102347
30
0
41
1
10
11.4901684747701
20
7.53097042135312
30
0
41
1
10
11.4757173930756
20
7.52966679426527
30
0
41
1
10
11.4613248654054
20
7.52966679426527
30
0
0
SPLINE
5
213
100
AcDbEntity
8
1
62
256
6
ByLayer
370
18
48
1
60
0
100
AcDbSpline
70
4
71
3
72
16
73
12
40
0
40
0
40
0
40
0
40
0.111430279628041
40
0.111430279628041
40
0.24874754351545
40
0.24874754351545
40
0.465535329195209
40
0.465535329195209
40
0.883855351867513
40
0.883855351867513
40
1
40
1
40
1
40
1
41
1
10
11.4613248654054
20
23.8391299750502
30
0
41
1
10
11.4891847159944
20
23.8391299750502
30
0
41
1
10
11.5173911427757
20
23.8375361275705
30
0
41
1
10
11.5758492032394
20
23.8311506585889
30
0
41
1
10
11.6060413892307
20
23.8256668770178
30
0
41
1
10
11.6751537543577
20
23.8089605749786
30
0
41
1
10
11.7107854085706
20
23.7960379707758
30
0
41
1
10
11.7989938907462
20
23.755682424683
30
0
41
1
10
11.839732006851
20
23.725016539998
30
0
41
1
10
11.879291701527
20
23.6845451449631
30
0
41
1
10
11.8871615985733
20
23.6755726082076
30
0
41
1
10
11.8943375672977
20
23.6665017920807
30
0
0
SPLINE
5
214
100
AcDbEntity
8
1
62
256
6
ByLayer
370
18
48
1
60
0
100
AcDbSpline
70
4
71
3
72
16
73
12
40
0
40
0
40
0
40
0
40
0.461208588217094
40
0.461208588217094
40
0.643534962278535
40
0.643534962278535
40
0.828408472975266
40
0.828408472975266
40
0.943003644159962
40
0.943003644159962
40
1
40
1
40
1
40
1
41
1
10
8.10566243270274
20
23.6665017920806
30
0
41
1
10
8.13394960848501
20
23.702258326163
30
0
41
1
10
8.17266608070936
20
23.7370095736336
30
0
41
1
10
8.25268397516864
20
23.7800170858172
30
0
41
1
10
8.27872153625245
20
23.7917125768791
30
0
41
1
10
8.33934560108374
20
23.8127037684949
30
0
41
1
10
8.37482777731276
20
23.8222104320952
30
0
41
1
10
8.44007741480435
20
23.8331586856491
30
0
41
1
10
8.46752172250578
20
23.8363323784728
30
0
41
1
10
8.5098315252302
20
23.8387183279984
30
0
41
1
10
8.52428260692474
20
23.8391299750503
30
0
41
1
10
8.5386751345949
20
23.8391299750503
30
0
0
SPLINE
5
215
100
AcDbEntity
8
1
62
256
6
ByLayer
370
18
48
1
60
0
100
AcDbSpline
70
4
71
3
72
16
73
12
40
0
40
0
40
0
40
0
40
0.461208588217087
40
0.461208588217087
40
0.643534962278528
40
0.643534962278528
40
0.828408472975266
40
0.828408472975266
40
0.943003644159969
40
0.943003644159969
40
1
40
1
40
1
40
1
41
1
10
11.8943375672976
20
-23.6665017920807
30
0
41
1
10
11.8660503915153
20
-23.7022583261631
30
0
41
1
10
11.827333919291
20
-23.7370095736336
30
0
41
1
10
11.7473160248317
20
-23.7800170858172
30
0
41
1
10
11.7212784637479
20
-23.7917125768791
30
0
41
1
10
11.6606543989166
20
-23.8127037684949
30
0
41
1
10
11.6251722226875
20
-23.8222104320952
30
0
41
1
10
11.559922585196
20
-23.8331586856491
30
0
41
1
10
11.5324782774945
20
-23.8363323784728
30
0
41
1
10
11.4901684747701
20
-23.8387183279984
30
0
41
1
10
11.4757173930756
20
-23.8391299750503
30
0
41
1
10
11.4613248654054
20
-23.8391299750503
30
0
0
SPLINE
5
216
100
AcDbEntity
8
1
62
256
6
ByLayer
370
18
48
1
60
0
100
AcDbSpline
70
4
71
3
72
16
73
12
40
0
40
0
40
0
40
0
40
0.11143027962804
40
0.11143027962804
40
0.24874754351545
40
0.24874754351545
40
0.465535329195219
40
0.465535329195219
40
0.883855351867485
40
0.883855351867485
40
1
40
1
40
1
40
1
41
1
10
11.4613248654054
20
-7.52966679426555
30
0
41
1
10
11.4891847159944
20
-7.52966679426555
30
0
41
1
10
11.5173911427757
20
-7.53471706780908
30
0
41
1
10
11.5758492032394
20
-7.5548921022108
30
0
41
1
10
11.6060413892307
20
-7.57218953888497
30
0
41
1
10
11.6751537543577
20
-7.62460019394143
30
0
41
1
10
11.7107854085706
20
-7.66489294253961
30
0
41
1
10
11.7989938907462
20
-7.78941367630404
30
0
41
1
10
11.839732006851
20
-7.88247511004201
30
0
41
1
10
11.879291701527
20
-8.0026926953806
30
0
41
1
10
11.8871615985733
20
-8.02920008991634
30
0
41
1
10
11.8943375672977
20
-8.05584836782828
30
0
0
SPLINE
5
217
100
AcDbEntity
8
1
62
256
6
ByLayer
370
18
48
1
60
0
100
AcDbSpline
70
4
71
3
72
16
73
12
40
0
40
0
40
0
40
0
40
0.461208588217173
40
0.461208588217173
40
0.643534962278602
40
0.643534962278602
40
0.828408472975324
40
0.828408472975324
40
0.943003644160004
40
0.943003644160004
40
1
40
1
40
1
40
1
41
1
10
8.10566243270274
20
-8.05584836782833
30
0
41
1
10
8.13394960848501
20
-7.95080268681499
30
0
41
1
10
8.17266608070939
20
-7.84628670970855
30
0
41
1
10
8.25268397516868
20
-7.71442469145174
30
0
41
1
10
8.27872153625249
20
-7.67825379650779
30
0
41
1
10
8.33934560108378
20
-7.61290523367279
30
0
41
1
10
8.3748277773128
20
-7.58305923051464
30
0
41
1
10
8.44007741480439
20
-7.54855881865646
30
0
41
1
10
8.46752172250581
20
-7.53852018102347
30
0
41
1
10
8.50983152523021
20
-7.53097042135312
30
0
41
1
10
8.52428260692476
20
-7.52966679426527
30
0
41
1
10
8.5386751345949
20
-7.52966679426527
30
0
0
SPLINE
5
218
100
AcDbEntity
8
1
62
256
6
ByLayer
370
18
48
1
60
0
100
AcDbSpline
70
4
71
3
72
16
73
12
40
0
40
0
40
0
40
0
40
0.111430279628008
40
0.111430279628008
40
0.248747543515423
40
0.248747543515423
40
0.465535329195218
40
0.465535329195218
40
0.883855351867535
40
0.883855351867535
40
1
40
1
40
1
40
1
41
1
10
8.53867513459497
20
7.52966679426561
30
0
41
1
10
8.51081528400594
20
7.52966679426561
30
0
41
1
10
8.48260885722463
20
7.53471706780911
30
0
41
1
10
8.42415079676087
20
7.55489210221083
30
0
41
1
10
8.39395861076959
20
7.572189538885
30
0
41
1
10
8.32484624564259
20
7.62460019394146
30
0
41
1
10
8.28921459142971
20
7.66489294253964
30
0
41
1
10
8.20100610925414
20
7.78941367630409
30
0
41
1
10
8.16026799314928
20
7.88247511004207
30
0
41
1
10
8.12070829847333
20
8.00269269538069
30
0
41
1
10
8.11283840142703
20
8.02920008991637
30
0
41
1
10
8.10566243270259
20
8.0558483678283
30
0
0
SPLINE
5
219
100
AcDbEntity
8
1
62
256
6
ByLayer
370
18
48
1
60
0
100
AcDbSpline
70
4
71
3
72
20
73
16
40
0
40
0
40
0
40
0
40
0.0057980605057795
40
0.103526715312782
40
0.201204190972913
40
0.298001526261635
40
0.393351103046028
40
0.487303952261889
40
0.580374101523778
40
0.673312197489923
40
0.76688602865431
40
0.861684964150241
40
0.957939834256801
40
0.994201939494166
40
1
40
1
40
1
40
1
41
1
10
259
20
9.36516483539788
30
0
41
1
10
259.002069128475
20
9.37475802788526
30
0
41
1
10
259.03714006637
20
9.54606051440138
30
0
41
1
10
259.040912827853
20
9.89121204877432
30
0
41
1
10
258.866223692823
20
10.3593482671275
30
0
41
1
10
258.532866016784
20
10.7412523274281
30
0
41
1
10
258.083061469384
20
10.9941772577405
30
0
41
1
10
257.57184788893
20
11.0949191404204
30
0
41
1
10
257.057009619439
20
11.0376734752189
30
0
41
1
10
256.593043229631
20
10.8309248038149
30
0
41
1
10
256.228104062502
20
10.4948398288783
30
0
41
1
10
256.001667140021
20
10.0614208182746
30
0
41
1
10
255.954575399529
20
9.67599925197032
30
0
41
1
10
255.983684799321
20
9.44438353125611
30
0
41
1
10
255.997931905289
20
9.37475288850385
30
0
41
1
10
256
20
9.36516483539785
30
0
0
SPLINE
5
21A
100
AcDbEntity
8
1
62
256
6
ByLayer
370
18
48
1
60
0
100
AcDbSpline
70
4
71
3
72
22
73
18
40
0
40
0
40
0
40
0
40
0.0057953732306053
40
0.0186618728263769
40
0.0415999119271066
40
0.0895254736183059
40
0.185023461422607
40
0.279123493736286
40
0.372253695744116
40
0.465113698417131
40
0.558487811538305
40
0.652937281766702
40
0.736314362305689
40
0.798889062732694
40
0.896521267028097
40
0.994204626771517
40
1
40
1
40
1
40
1
41
1
10
259
20
-23.1795963641697
30
0
41
1
10
259.002067730716
20
-23.1834694552548
30
0
41
1
10
259.008393291235
20
-23.1959425283193
30
0
41
1
10
259.020114279809
20
-23.2237750593893
30
0
41
1
10
259.034427990896
20
-23.2797181245721
30
0
41
1
10
259.026207992478
20
-23.3894825313309
30
0
41
1
10
258.906802293747
20
-23.5363785631067
30
0
41
1
10
258.608234210634
20
-23.6774070223053
30
0
41
1
10
258.189259225012
20
-23.7734445462869
30
0
41
1
10
257.693909583379
20
-23.819391208848
30
0
41
1
10
257.173951894228
20
-23.8126967065003
30
0
41
1
10
256.707434363296
20
-23.755040637983
30
0
41
1
10
256.369006706475
20
-23.6640809356445
30
0
41
1
10
256.113707310539
20
-23.5438465873734
30
0
41
1
10
255.958961904575
20
-23.3885780293045
30
0
41
1
10
255.962861818405
20
-23.2525953152276
30
0
41
1
10
255.997930871523
20
-23.183472444616
30
0
41
1
10
256
20
-23.1795963641698
30
0
0
SPLINE
5
21B
100
AcDbEntity
8
1
62
256
6
ByLayer
370
18
48
1
60
0
100
AcDbSpline
70
4
71
3
72
8
73
4
40
0
40
0
40
0
40
0
40
1
40
1
40
1
40
1
41
1
10
257.33019691804
20
-23.8114720508158
30
0
41
1
10
257.386318639348
20
-23.8133655012429
30
0
41
1
10
257.442896963352
20
-23.8143158126152
30
0
41
1
10
257.5
20
-23.8143223997268
30
0
0
SPLINE
5
21C
100
AcDbEntity
8
1
62
256
6
ByLayer
370
18
48
1
60
0
100
AcDbSpline
70
4
71
3
72
8
73
4
40
0
40
0
40
0
40
0
40
1
40
1
40
1
40
1
41
1
10
257.5
20
-23.8143223997268
30
0
41
1
10
257.54705195689
20
-23.8143215470623
30
0
41
1
10
257.5938115422
20
-23.8136700468796
30
0
41
1
10
257.64035178069
20
-23.8123660480043
30
0
0
SPLINE
5
21D
100
AcDbEntity
8
1
62
256
6
ByLayer
370
18
48
1
60
0
100
AcDbSpline
70
4
71
3
72
20
73
16
40
0
40
0
40
0
40
0
40
0.0057980605058204
40
0.0420601657789536
40
0.138315035884947
40
0.233113971380322
40
0.326687802544325
40
0.419625898510319
40
0.512696047772379
40
0.606648896988652
40
0.701998473773563
40
0.798795809062577
40
0.896473284707574
40
0.994201939494222
40
1
40
1
40
1
40
1
41
1
10
256
20
-23.1795963641698
30
0
41
1
10
255.997931905289
20
-23.1757226936334
30
0
41
1
10
255.983684799314
20
-23.147539035127
30
0
41
1
10
255.95457539952
20
-23.0525978210487
30
0
41
1
10
256.001667140076
20
-22.8878929908218
30
0
41
1
10
256.228104062612
20
-22.6918357576893
30
0
41
1
10
256.593043229786
20
-22.5326691355993
30
0
41
1
10
257.057009619623
20
-22.4315782799754
30
0
41
1
10
257.571847889123
20
-22.4031529280568
30
0
41
1
10
258.083061469564
20
-22.4530561829893
30
0
41
1
10
258.532866016932
20
-22.5758098793298
30
0
41
1
10
258.866223692899
20
-22.7543207856046
30
0
41
1
10
259.040912827863
20
-22.9621677421227
30
0
41
1
10
259.037140066353
20
-23.1063871605944
30
0
41
1
10
259.002069128474
20
-23.1757207117828
30
0
41
1
10
259
20
-23.1795963641697
30
0
0
LINE
5
70
100
AcDbEntity
8
4
62
256
6
ByLayer
370
13
48
0.05
60
0
100
AcDbLine
10
0
20
0
30
0
11
300
21
0
31
0
39
0
210
0
220
0
230
1
0
LINE
5
72
100
AcDbEntity
8
80
62
256
6
ByLayer
370
13
48
1
60
0
100
AcDbLine
10
0
20
0
30
0
11
-4.28511
21
0
31
0
39
0
210
0
220
0
230
1
0
LINE
5
73
100
AcDbEntity
8
SK4
62
256
6
ByLayer
370
13
48
0.05
60
0
100
AcDbLine
10
-32.5
20
0
30
0
11
302.5
21
0
31
0
39
0
210
0
220
0
230
1
0
LINE
5
75
100
AcDbEntity
8
81
62
256
6
ByLayer
370
13
48
1
60
0
100
AcDbLine
10
300.000937
20
27.482719
30
0
11
302.000937
21
27.482719
31
0
39
0
210
0
220
0
230
1
0
LINE
5
76
100
AcDbEntity
8
1
62
256
6
ByLayer
370
18
48
1
60
0
100
AcDbLine
10
271.400238
20
-1.900254
30
0
11
271.438399
21
-1.900254
31
0
39
0
210
0
220
0
230
1
0
LINE
5
78
100
AcDbEntity
8
1
62
256
6
ByLayer
370
18
48
1
60
0
100
AcDbLine
10
268.59949
20
-1.785646
30
0
11
268.561329
21
-1.785646
31
0
39
0
210
0
220
0
230
1
0
LINE
5
79
100
AcDbEntity
8
1
62
256
6
ByLayer
370
18
48
1
60
0
100
AcDbLine
10
270.707641
20
-0.12384
30
0
11
270.669479
21
-0.12384
31
0
39
0
210
0
220
0
230
1
0
LINE
5
7A
100
AcDbEntity
8
1
62
256
6
ByLayer
370
18
48
1
60
0
100
AcDbLine
10
268.441285
20
-0.12384
30
0
11
268.403123
21
-0.12384
31
0
39
0
210
0
220
0
230
1
0
LINE
5
7B
100
AcDbEntity
8
1
62
256
6
ByLayer
370
18
48
1
60
0
100
AcDbLine
10
268.465141
20
-1.480709
30
0
11
268.426979
21
-1.480709
31
0
39
0
210
0
220
0
230
1
0
LINE
5
7C
100
AcDbEntity
8
1
62
256
6
ByLayer
370
18
48
1
60
0
100
AcDbLine
10
270.474099
20
-1.862392
30
0
11
270.435938
21
-1.862392
31
0
39
0
210
0
220
0
230
1
0
LINE
5
7D
100
AcDbEntity
8
SK1
62
256
6
ByLayer
370
18
48
1
60
0
100
AcDbLine
10
-1.307107
20
-3.918065
30
0
11
-1.307107
21
3.918065
31
0
39
0
210
0
220
0
230
1
0
LINE
5
7F
100
AcDbEntity
8
SK1
62
256
6
ByLayer
370
18
48
1
60
0
100
AcDbLine
10
-0.2
20
-17.833485
30
0
11
-0.2
21
-6.103448
31
0
39
0
210
0
220
0
230
1
0
LINE
5
80
100
AcDbEntity
8
SK1
62
256
6
ByLayer
370
18
48
1
60
0
100
AcDbLine
10
-0.2
20
6.103447
30
0
11
-0.2
21
17.833485
31
0
39
0
210
0
220
0
230
1
0
LINE
5
81
100
AcDbEntity
8
1
62
256
6
ByLayer
370
18
48
1
60
0
100
AcDbLine
10
300.001586
20
12.940574
30
0
11
300.001586
21
26.68872
31
0
39
0
210
0
220
0
230
1
0
LINE
5
82
100
AcDbEntity
8
1
62
256
6
ByLayer
370
18
48
1
60
0
100
AcDbLine
10
298.810961
20
27.376127
30
0
11
286.904711
21
20.502054
31
0
39
0
210
0
220
0
230
1
0
LINE
5
83
100
AcDbEntity
8
1
62
256
6
ByLayer
370
18
48
1
60
0
100
AcDbLine
10
286.904711
20
19.12724
30
0
11
298.810961
21
12.253167
31
0
39
0
210
0
220
0
230
1
0
LINE
5
84
100
AcDbEntity
8
1
62
256
6
ByLayer
370
13
48
1
60
0
100
AcDbLine
10
277.524283
20
12.799635
30
0
11
284.143133
21
12.799635
31
0
39
0
210
0
220
0
230
1
0
LINE
5
85
100
AcDbEntity
8
1
62
256
6
ByLayer
370
18
48
1
60
0
100
AcDbLine
10
277.524283
20
12.799635
30
0
11
277.524283
21
13.700242
31
0
39
0
210
0
220
0
230
1
0
LINE
5
86
100
AcDbEntity
8
1
62
256
6
ByLayer
370
18
48
1
60
0
100
AcDbLine
10
277.524283
20
13.700242
30
0
11
273.801586
21
13.700242
31
0
39
0
210
0
220
0
230
1
0
LINE
5
87
100
AcDbEntity
8
1
62
256
6
ByLayer
370
13
48
1
60
0
100
AcDbLine
10
284.147832
20
22.000242
30
0
11
273.801586
21
22.000242
31
0
39
0
210
0
220
0
230
1
0
LINE
5
88
100
AcDbEntity
8
1
62
256
6
ByLayer
370
18
48
1
60
0
100
AcDbLine
10
273.801586
20
13.700242
30
0
11
273.801586
21
22.000242
31
0
39
0
210
0
220
0
230
1
0
LINE
5
89
100
AcDbEntity
8
1
62
256
6
ByLayer
370
18
48
1
60
0
100
AcDbLine
10
284.147832
20
22.000242
30
0
11
284.143133
21
12.799635
31
0
39
0
210
0
220
0
230
1
0
LINE
5
8A
100
AcDbEntity
8
1
62
256
6
ByLayer
370
18
48
1
60
0
100
AcDbLine
10
276.466321
20
10.161105
30
0
11
276.466321
21
12.500242
31
0
39
0
210
0
220
0
230
1
0
LINE
5
8B
100
AcDbEntity
8
1
62
256
6
ByLayer
370
13
48
1
60
0
100
AcDbLine
10
284.490798
20
11.267546
30
0
11
277.398311
21
11.267546
31
0
39
0
210
0
220
0
230
1
0
LINE
5
8C
100
AcDbEntity
8
1
62
256
6
ByLayer
370
18
48
1
60
0
100
AcDbLine
10
277.165802
20
10.161092
30
0
11
277.398311
21
11.267546
31
0
39
0
210
0
220
0
230
1
0
LINE
5
8D
100
AcDbEntity
8
1
62
256
6
ByLayer
370
13
48
1
60
0
100
AcDbLine
10
286.482447
20
11.000368
30
0
11
286.482447
21
18.828382
31
0
39
0
210
0
220
0
230
1
0
LINE
5
8E
100
AcDbEntity
8
1
62
256
6
ByLayer
370
18
48
1
60
0
100
AcDbLine
10
284.490798
20
11.267546
30
0
11
284.646054
21
11.000209
31
0
39
0
210
0
220
0
230
1
0
LINE
5
8F
100
AcDbEntity
8
1
62
256
6
ByLayer
370
18
48
1
60
0
100
AcDbLine
10
285.306646
20
26.149858
30
0
11
285.213771
21
26.129918
31
0
39
0
210
0
220
0
230
1
0
LINE
5
90
100
AcDbEntity
8
1
62
256
6
ByLayer
370
13
48
1
60
0
100
AcDbLine
10
286.482447
20
21.970011
30
0
11
286.482447
21
26.341886
31
0
39
0
210
0
220
0
230
1
0
LINE
5
91
100
AcDbEntity
8
1
62
256
6
ByLayer
370
18
48
1
60
0
100
AcDbLine
10
280.441402
20
25.125592
30
0
11
273.801586
21
23.714255
31
0
39
0
210
0
220
0
230
1
0
LINE
5
92
100
AcDbEntity
8
1
62
256
6
ByLayer
370
18
48
1
60
0
100
AcDbLine
10
280.643682
20
25.168447
30
0
11
280.441402
21
25.125592
31
0
39
0
210
0
220
0
230
1
0
LINE
5
93
100
AcDbEntity
8
1
62
256
6
ByLayer
370
13
48
1
60
0
100
AcDbLine
10
285.306646
20
26.158114
30
0
11
285.306646
21
26.149858
31
0
39
0
210
0
220
0
230
1
0
LINE
5
94
100
AcDbEntity
8
1
62
256
6
ByLayer
370
13
48
1
60
0
100
AcDbLine
10
290.090176
20
7.072211
30
0
11
291.672011
21
7.072211
31
0
39
0
210
0
220
0
230
1
0
LINE
5
95
100
AcDbEntity
8
1
62
256
6
ByLayer
370
18
48
1
60
0
100
AcDbLine
10
273.801586
20
23.714255
30
0
11
273.801586
21
23.70221
31
0
39
0
210
0
220
0
230
1
0
LINE
5
96
100
AcDbEntity
8
1
62
256
6
ByLayer
370
18
48
1
60
0
100
AcDbLine
10
290.049452
20
7.460739
30
0
11
292.063574
21
7.460739
31
0
39
0
210
0
220
0
230
1
0
LINE
5
97
100
AcDbEntity
8
1
62
256
6
ByLayer
370
13
48
1
60
0
100
AcDbLine
10
287.801586
20
26.419343
30
0
11
287.801586
21
26.415082
31
0
39
0
210
0
220
0
230
1
0
LINE
5
98
100
AcDbEntity
8
1
62
256
6
ByLayer
370
13
48
1
60
0
100
AcDbLine
10
287.201482
20
26.400067
30
0
11
287.201482
21
22.367892
31
0
39
0
210
0
220
0
230
1
0
LINE
5
99
100
AcDbEntity
8
1
62
256
6
ByLayer
370
13
48
1
60
0
100
AcDbLine
10
287.201482
20
18.751969
30
0
11
287.201482
21
11.000363
31
0
39
0
210
0
220
0
230
1
0
LINE
5
9A
100
AcDbEntity
8
1
62
256
6
ByLayer
370
13
48
1
60
0
100
AcDbLine
10
273.801586
20
12.500242
30
0
11
276.466321
21
12.500242
31
0
39
0
210
0
220
0
230
1
0
LINE
5
9B
100
AcDbEntity
8
1
62
256
6
ByLayer
370
18
48
1
60
0
100
AcDbLine
10
287.801586
20
26.419343
30
0
11
297.153616
21
26.419343
31
0
39
0
210
0
220
0
230
1
0
LINE
5
9C
100
AcDbEntity
8
1
62
256
6
ByLayer
370
18
48
1
60
0
100
AcDbLine
10
297.152821
20
26.4188
30
0
11
295.919086
21
26.4188
31
0
39
0
210
0
220
0
230
1
0
LINE
5
9D
100
AcDbEntity
8
1
62
256
6
ByLayer
370
18
48
1
60
0
100
AcDbLine
10
295.819086
20
26.418695
30
0
11
295.919086
21
26.4188
31
0
39
0
210
0
220
0
230
1
0
LINE
5
9E
100
AcDbEntity
8
1
62
256
6
ByLayer
370
18
48
1
60
0
100
AcDbLine
10
295.819086
20
26.415082
30
0
11
295.819086
21
26.418695
31
0
39
0
210
0
220
0
230
1
0
LINE
5
9F
100
AcDbEntity
8
1
62
256
6
ByLayer
370
18
48
1
60
0
100
AcDbLine
10
295.819086
20
26.415082
30
0
11
287.801586
21
26.415082
31
0
39
0
210
0
220
0
230
1
0
LINE
5
A0
100
AcDbEntity
8
1
62
256
6
ByLayer
370
18
48
1
60
0
100
AcDbLine
10
288.489859
20
22.197654
30
0
11
289.165716
21
21.807448
31
0
39
0
210
0
220
0
230
1
0
LINE
5
A1
100
AcDbEntity
8
1
62
256
6
ByLayer
370
18
48
1
60
0
100
AcDbLine
10
295.819086
20
25.648772
30
0
11
295.819086
21
26.415082
31
0
39
0
210
0
220
0
230
1
0
LINE
5
A2
100
AcDbEntity
8
1
62
256
6
ByLayer
370
18
48
1
60
0
100
AcDbLine
10
299.201586
20
12.087448
30
0
11
299.081041
21
12.157045
31
0
39
0
210
0
220
0
230
1
0
LINE
5
A3
100
AcDbEntity
8
1
62
256
6
ByLayer
370
18
48
1
60
0
100
AcDbLine
10
299.201586
20
10.014451
30
0
11
299.201586
21
12.087448
31
0
39
0
210
0
220
0
230
1
0
LINE
5
A4
100
AcDbEntity
8
1
62
256
6
ByLayer
370
18
48
1
60
0
100
AcDbLine
10
294.775821
20
8.910983
30
0
11
299.201586
21
10.014451
31
0
39
0
210
0
220
0
230
1
0
LINE
5
A5
100
AcDbEntity
8
1
62
256
6
ByLayer
370
13
48
1
60
0
100
AcDbLine
10
290.150352
20
6.459376
30
0
11
291.173662
21
6.459376
31
0
39
0
210
0
220
0
230
1
0
LINE
5
A6
100
AcDbEntity
8
1
62
256
6
ByLayer
370
18
48
1
60
0
100
AcDbLine
10
299.201586
20
12.14685
30
0
11
299.201586
21
12.087448
31
0
39
0
210
0
220
0
230
1
0
LINE
5
A7
100
AcDbEntity
8
1
62
256
6
ByLayer
370
18
48
1
60
0
100
AcDbLine
10
273.801586
20
12.500242
30
0
11
273.801586
21
11.00015
31
0
39
0
210
0
220
0
230
1
0
LINE
5
A8
100
AcDbEntity
8
1
62
256
6
ByLayer
370
18
48
1
60
0
100
AcDbLine
10
295.919086
20
26.4188
30
0
11
295.919086
21
25.706519
31
0
39
0
210
0
220
0
230
1
0
LINE
5
A9
100
AcDbEntity
8
1
62
256
6
ByLayer
370
13
48
1
60
0
100
AcDbLine
10
288.439859
20
22.114769
30
0
11
288.488293
21
22.198557
31
0
39
0
210
0
220
0
230
1
0
LINE
5
AA
100
AcDbEntity
8
1
62
256
6
ByLayer
370
18
48
1
60
0
100
AcDbLine
10
289.068938
20
21.751571
30
0
11
288.439859
21
22.114769
31
0
39
0
210
0
220
0
230
1
0
LINE
5
AB
100
AcDbEntity
8
1
62
256
6
ByLayer
370
18
48
1
60
0
100
AcDbLine
10
280.216563
20
11.000244
30
0
11
280.075094
21
9.999978
31
0
39
0
210
0
220
0
230
1
0
LINE
5
AC
100
AcDbEntity
8
1
62
256
6
ByLayer
370
18
48
1
60
0
100
AcDbLine
10
279.797945
20
8.040369
30
0
11
279.580124
21
6.500244
31
0
39
0
210
0
220
0
230
1
0
LINE
5
AD
100
AcDbEntity
8
1
62
256
6
ByLayer
370
18
48
1
60
0
100
AcDbLine
10
259
20
-23.179596
30
0
11
256
21
-23.179596
31
0
39
0
210
0
220
0
230
1
0
LINE
5
AE
100
AcDbEntity
8
1
62
256
6
ByLayer
370
18
48
1
60
0
100
AcDbLine
10
295.625649
20
21.260706
30
0
11
295.625649
21
21.262247
31
0
39
0
210
0
220
0
230
1
0
LINE
5
AF
100
AcDbEntity
8
1
62
256
6
ByLayer
370
18
48
1
60
0
100
AcDbLine
10
294.852524
20
21.260706
30
0
11
294.852524
21
21.262247
31
0
39
0
210
0
220
0
230
1
0
LINE
5
B0
100
AcDbEntity
8
1
62
256
6
ByLayer
370
18
48
1
60
0
100
AcDbLine
10
296.684496
20
20.203017
30
0
11
296.684496
21
20.204558
31
0
39
0
210
0
220
0
230
1
0
LINE
5
B1
100
AcDbEntity
8
1
62
256
6
ByLayer
370
18
48
1
60
0
100
AcDbLine
10
293.793677
20
20.203017
30
0
11
293.793677
21
20.204558
31
0
39
0
210
0
220
0
230
1
0
LINE
5
B2
100
AcDbEntity
8
1
62
256
6
ByLayer
370
18
48
1
60
0
100
AcDbLine
10
296.297934
20
18.757184
30
0
11
296.297934
21
18.758725
31
0
39
0
210
0
220
0
230
1
0
LINE
5
B3
100
AcDbEntity
8
1
62
256
6
ByLayer
370
18
48
1
60
0
100
AcDbLine
10
294.180239
20
18.757184
30
0
11
294.180239
21
18.758725
31
0
39
0
210
0
220
0
230
1
0
LINE
5
B4
100
AcDbEntity
8
1
62
256
6
ByLayer
370
18
48
1
60
0
100
AcDbLine
10
294.852524
20
18.369041
30
0
11
294.852524
21
18.370581
31
0
39
0
210
0
220
0
230
1
0
LINE
5
B5
100
AcDbEntity
8
1
62
256
6
ByLayer
370
18
48
1
60
0
100
AcDbLine
10
295.625649
20
18.369041
30
0
11
295.625649
21
18.370581
31
0
39
0
210
0
220
0
230
1
0
LINE
5
B6
100
AcDbEntity
8
1
62
256
6
ByLayer
370
13
48
1
60
0
100
AcDbLine
10
293.810778
20
20.192649
30
0
11
293.810778
21
20.194178
31
0
39
0
210
0
220
0
230
1
0
LINE
5
B7
100
AcDbEntity
8
1
62
256
6
ByLayer
370
18
48
1
60
0
100
AcDbLine
10
293.948786
20
19.814998
30
0
11
293.948786
21
19.816414
31
0
39
0
210
0
220
0
230
1
0
LINE
5
B8
100
AcDbEntity
8
1
62
256
6
ByLayer
370
18
48
1
60
0
100
AcDbLine
10
296.529386
20
19.816414
30
0
11
296.529386
21
19.814998
31
0
39
0
210
0
220
0
230
1
0
LINE
5
B9
100
AcDbEntity
8
1
62
256
6
ByLayer
370
13
48
1
60
0
100
AcDbLine
10
296.667395
20
20.192649
30
0
11
296.667395
21
20.194178
31
0
39
0
210
0
220
0
230
1
0
LINE
5
BA
100
AcDbEntity
8
1
62
256
6
ByLayer
370
18
48
1
60
0
100
AcDbLine
10
293.793677
20
20.204558
30
0
11
293.810778
21
20.194178
31
0
39
0
210
0
220
0
230
1
0
LINE
5
BB
100
AcDbEntity
8
1
62
256
6
ByLayer
370
18
48
1
60
0
100
AcDbLine
10
296.667395
20
20.194178
30
0
11
296.684496
21
20.204558
31
0
39
0
210
0
220
0
230
1
0
LINE
5
BC
100
AcDbEntity
8
1
62
256
6
ByLayer
370
18
48
1
60
0
100
AcDbLine
10
295.626088
20
18.389052
30
0
11
295.626088
21
18.390581
31
0
39
0
210
0
220
0
230
1
0
LINE
5
BD
100
AcDbEntity
8
1
62
256
6
ByLayer
370
13
48
1
60
0
100
AcDbLine
10
296.280394
20
18.766816
30
0
11
296.280394
21
18.768345
31
0
39
0
210
0
220
0
230
1
0
LINE
5
BE
100
AcDbEntity
8
1
62
256
6
ByLayer
370
13
48
1
60
0
100
AcDbLine
10
294.197779
20
18.766816
30
0
11
294.197779
21
18.768345
31
0
39
0
210
0
220
0
230
1
0
LINE
5
BF
100
AcDbEntity
8
1
62
256
6
ByLayer
370
18
48
1
60
0
100
AcDbLine
10
294.852085
20
18.389052
30
0
11
294.852085
21
18.390581
31
0
39
0
210
0
220
0
230
1
0
LINE
5
C0
100
AcDbEntity
8
1
62
256
6
ByLayer
370
18
48
1
60
0
100
AcDbLine
10
294.180239
20
18.758725
30
0
11
294.197779
21
18.768345
31
0
39
0
210
0
220
0
230
1
0
LINE
5
C1
100
AcDbEntity
8
1
62
256
6
ByLayer
370
18
48
1
60
0
100
AcDbLine
10
296.280394
20
18.768345
30
0
11
296.297934
21
18.758725
31
0
39
0
210
0
220
0
230
1
0
LINE
5
C2
100
AcDbEntity
8
1
62
256
6
ByLayer
370
18
48
1
60
0
100
AcDbLine
10
294.852085
20
18.390581
30
0
11
294.852524
21
18.370581
31
0
39
0
210
0
220
0
230
1
0
LINE
5
C3
100
AcDbEntity
8
1
62
256
6
ByLayer
370
18
48
1
60
0
100
AcDbLine
10
295.625649
20
18.370581
30
0
11
295.626088
21
18.390581
31
0
39
0
210
0
220
0
230
1
0
LINE
5
C4
100
AcDbEntity
8
1
62
256
6
ByLayer
370
18
48
1
60
0
100
AcDbLine
10
297.864086
20
19.815053
30
0
11
297.864086
21
19.816335
31
0
39
0
210
0
220
0
230
1
0
LINE
5
C5
100
AcDbEntity
8
1
62
256
6
ByLayer
370
18
48
1
60
0
100
AcDbLine
10
292.614086
20
19.816335
30
0
11
292.614086
21
19.815053
31
0
39
0
210
0
220
0
230
1
0
LINE
5
C6
100
AcDbEntity
8
1
62
256
6
ByLayer
370
18
48
1
60
0
100
AcDbLine
10
279.580124
20
-13.832663
30
0
11
279.580124
21
-13.554039
31
0
39
0
210
0
220
0
230
1
0
LINE
5
C7
100
AcDbEntity
8
1
62
256
6
ByLayer
370
18
48
1
60
0
100
AcDbLine
10
279.580124
20
3.998343
30
0
11
279.580124
21
6.500244
31
0
39
0
210
0
220
0
230
1
0
LINE
5
C8
100
AcDbEntity
8
1
62
256
6
ByLayer
370
18
48
1
60
0
100
AcDbLine
10
279.580124
20
6.500244
30
0
11
290.150469
21
6.500244
31
0
39
0
210
0
220
0
230
1
0
LINE
5
C9
100
AcDbEntity
8
1
62
256
6
ByLayer
370
18
48
1
60
0
100
AcDbLine
10
290.150469
20
-13.62756
30
0
11
290.145053
21
-12.899756
31
0
39
0
210
0
220
0
230
1
0
LINE
5
CA
100
AcDbEntity
8
1
62
256
6
ByLayer
370
18
48
1
60
0
100
AcDbLine
10
290.145053
20
-12.899756
30
0
11
290.150469
21
-12.899756
31
0
39
0
210
0
220
0
230
1
0
LINE
5
CB
100
AcDbEntity
8
1
62
256
6
ByLayer
370
18
48
1
60
0
100
AcDbLine
10
290.150469
20
6.500244
30
0
11
290.150469
21
-12.899756
31
0
39
0
210
0
220
0
230
1
0
LINE
5
CC
100
AcDbEntity
8
1
62
256
6
ByLayer
370
18
48
1
60
0
100
AcDbLine
10
290.150469
20
-13.62756
30
0
11
290.150469
21
-13.832663
31
0
39
0
210
0
220
0
230
1
0
LINE
5
CD
100
AcDbEntity
8
1
62
256
6
ByLayer
370
18
48
1
60
0
100
AcDbLine
10
290.149856
20
-12.899756
30
0
11
290.150469
21
-13.62756
31
0
39
0
210
0
220
0
230
1
0
LINE
5
CE
100
AcDbEntity
8
1
62
256
6
ByLayer
370
18
48
1
60
0
100
AcDbLine
10
280.216563
20
11.000244
30
0
11
289.6775
21
11.000244
31
0
39
0
210
0
220
0
230
1
0
LINE
5
CF
100
AcDbEntity
8
1
62
256
6
ByLayer
370
18
48
1
60
0
100
AcDbLine
10
289.6775
20
11.000244
30
0
11
290.150469
21
6.500244
31
0
39
0
210
0
220
0
230
1
0
LINE
5
D0
100
AcDbEntity
8
1
62
256
6
ByLayer
370
18
48
1
60
0
100
AcDbLine
10
287.501586
20
-26.098347
30
0
11
298.701586
21
-26.098347
31
0
39
0
210
0
220
0
230
1
0
LINE
5
D1
100
AcDbEntity
8
1
62
256
6
ByLayer
370
18
48
1
60
0
100
AcDbLine
10
290.066529
20
-14.999756
30
0
11
290.819037
21
-14.999756
31
0
39
0
210
0
220
0
230
1
0
LINE
5
D2
100
AcDbEntity
8
1
62
256
6
ByLayer
370
18
48
1
60
0
100
AcDbLine
10
296.721282
20
-22.084508
30
0
11
292.388868
21
-22.084508
31
0
39
0
210
0
220
0
230
1
0
LINE
5
D3
100
AcDbEntity
8
1
62
256
6
ByLayer
370
18
48
1
60
0
100
AcDbLine
10
297.006143
20
-16.506747
30
0
11
294.888868
21
-16.324562
31
0
39
0
210
0
220
0
230
1
0
LINE
5
D4
100
AcDbEntity
8
1
62
256
6
ByLayer
370
18
48
1
60
0
100
AcDbLine
10
290.819037
20
-14.999756
30
0
11
298.326587
21
-14.999756
31
0
39
0
210
0
220
0
230
1
0
LINE
5
D5
100
AcDbEntity
8
1
62
256
6
ByLayer
370
18
48
1
60
0
100
AcDbLine
10
298.550153
20
-23.525585
30
0
11
298.486693
21
-14.997811
31
0
39
0
210
0
220
0
230
1
0
LINE
5
D6
100
AcDbEntity
8
1
62
256
6
ByLayer
370
13
48
1
60
0
100
AcDbLine
10
294.888868
20
-16.324562
30
0
11
294.888868
21
-16.506747
31
0
39
0
210
0
220
0
230
1
0
LINE
5
D7
100
AcDbEntity
8
1
62
256
6
ByLayer
370
18
48
1
60
0
100
AcDbLine
10
296.721282
20
-22.084508
30
0
11
297.006143
21
-16.506747
31
0
39
0
210
0
220
0
230
1
0
LINE
5
D8
100
AcDbEntity
8
1
62
256
6
ByLayer
370
18
48
1
60
0
100
AcDbLine
10
297.006143
20
-16.506747
30
0
11
294.888868
21
-16.506747
31
0
39
0
210
0
220
0
230
1
0
LINE
5
D9
100
AcDbEntity
8
1
62
256
6
ByLayer
370
18
48
1
60
0
100
AcDbLine
10
0
20
-24.7
30
0
11
0.3
21
-25
31
0
39
0
210
0
220
0
230
1
0
LINE
5
DA
100
AcDbEntity
8
1
62
256
6
ByLayer
370
18
48
1
60
0
100
AcDbLine
10
256
20
9.365165
30
0
11
259
21
9.365165
31
0
39
0
210
0
220
0
230
1
0
LINE
5
DB
100
AcDbEntity
8
1
62
256
6
ByLayer
370
18
48
1
60
0
100
AcDbLine
10
299.201586
20
-10.482882
30
0
11
299.201586
21
-12.131922
31
0
39
0
210
0
220
0
230
1
0
LINE
5
DC
100
AcDbEntity
8
1
62
256
6
ByLayer
370
18
48
1
60
0
100
AcDbLine
10
299.201586
20
-12.131922
30
0
11
299.201586
21
-25.6371
31
0
39
0
210
0
220
0
230
1
0
LINE
5
DD
100
AcDbEntity
8
1
62
256
6
ByLayer
370
18
48
1
60
0
100
AcDbLine
10
280.141402
20
-24.75613
30
0
11
273.501586
21
-23.341243
31
0
39
0
210
0
220
0
230
1
0
LINE
5
DE
100
AcDbEntity
8
1
62
256
6
ByLayer
370
18
48
1
60
0
100
AcDbLine
10
280.343682
20
-24.808737
30
0
11
280.141402
21
-24.75613
31
0
39
0
210
0
220
0
230
1
0
LINE
5
DF
100
AcDbEntity
8
1
62
256
6
ByLayer
370
13
48
1
60
0
100
AcDbLine
10
285.006646
20
-25.773015
30
0
11
285.006646
21
-26.328113
31
0
39
0
210
0
220
0
230
1
0
LINE
5
E0
100
AcDbEntity
8
1
62
256
6
ByLayer
370
18
48
1
60
0
100
AcDbLine
10
281.483049
20
-24.932347
30
0
11
281.644574
21
-24.979725
31
0
39
0
210
0
220
0
230
1
0
LINE
5
E1
100
AcDbEntity
8
1
62
256
6
ByLayer
370
18
48
1
60
0
100
AcDbLine
10
285.006646
20
-26.328113
30
0
11
284.101863
21
-26.26762
31
0
39
0
210
0
220
0
230
1
0
LINE
5
E2
100
AcDbEntity
8
1
62
256
6
ByLayer
370
18
48
1
60
0
100
AcDbLine
10
273.501586
20
-23.341243
30
0
11
273.501586
21
-24.14449
31
0
39
0
210
0
220
0
230
1
0
LINE
5
E3
100
AcDbEntity
8
1
62
256
6
ByLayer
370
13
48
1
60
0
100
AcDbLine
10
280.343682
20
-24.808737
30
0
11
280.343682
21
-22.999958
31
0
39
0
210
0
220
0
230
1
0
LINE
5
E4
100
AcDbEntity
8
1
62
256
6
ByLayer
370
13
48
1
60
0
100
AcDbLine
10
287.501586
20
-26.098347
30
0
11
287.501586
21
-26.387189
31
0
39
0
210
0
220
0
230
1
0
LINE
5
E5
100
AcDbEntity
8
1
62
256
6
ByLayer
370
18
48
1
60
0
100
AcDbLine
10
281.357031
20
-24.84225
30
0
11
281.483049
21
-24.932347
31
0
39
0
210
0
220
0
230
1
0
LINE
5
E6
100
AcDbEntity
8
1
62
256
6
ByLayer
370
13
48
1
60
0
100
AcDbLine
10
298.701586
20
-26.098347
30
0
11
298.701586
21
-26.135845
31
0
39
0
210
0
220
0
230
1
0
LINE
5
E7
100
AcDbEntity
8
1
62
256
6
ByLayer
370
18
48
1
60
0
100
AcDbLine
10
280.141402
20
-24.75613
30
0
11
280.141402
21
-22.9999
31
0
39
0
210
0
220
0
230
1
0
LINE
5
E8
100
AcDbEntity
8
1
62
256
6
ByLayer
370
18
48
1
60
0
100
AcDbLine
10
273.501586
20
-23.341243
30
0
11
273.501586
21
-22.999974
31
0
39
0
210
0
220
0
230
1
0
LINE
5
E9
100
AcDbEntity
8
1
62
256
6
ByLayer
370
18
48
1
60
0
100
AcDbLine
10
273.501586
20
10.062292
30
0
11
273.501586
21
11.000244
31
0
39
0
210
0
220
0
230
1
0
LINE
5
EA
100
AcDbEntity
8
1
62
256
6
ByLayer
370
18
48
1
60
0
100
AcDbLine
10
273.501586
20
11.000244
30
0
11
275.501586
21
11.000244
31
0
39
0
210
0
220
0
230
1
0
LINE
5
EB
100
AcDbEntity
8
1
62
256
6
ByLayer
370
18
48
1
60
0
100
AcDbLine
10
275.501586
20
10.161144
30
0
11
275.501586
21
11.000244
31
0
39
0
210
0
220
0
230
1
0
LINE
5
EC
100
AcDbEntity
8
1
62
256
6
ByLayer
370
18
48
1
60
0
100
AcDbLine
10
280.097831
20
10.161144
30
0
11
275.501586
21
10.161144
31
0
39
0
210
0
220
0
230
1
0
LINE
5
ED
100
AcDbEntity
8
1
62
256
6
ByLayer
370
18
48
1
60
0
100
AcDbLine
10
298.701586
20
-26.135845
30
0
11
295.919086
21
-26.135845
31
0
39
0
210
0
220
0
230
1
0
LINE
5
EE
100
AcDbEntity
8
1
62
256
6
ByLayer
370
18
48
1
60
0
100
AcDbLine
10
295.819086
20
-26.142925
30
0
11
295.919086
21
-26.135845
31
0
39
0
210
0
220
0
230
1
0
LINE
5
EF
100
AcDbEntity
8
1
62
256
6
ByLayer
370
18
48
1
60
0
100
AcDbLine
10
295.819086
20
-26.387189
30
0
11
295.819086
21
-26.142925
31
0
39
0
210
0
220
0
230
1
0
LINE
5
F0
100
AcDbEntity
8
1
62
256
6
ByLayer
370
18
48
1
60
0
100
AcDbLine
10
295.819086
20
-26.387189
30
0
11
287.501586
21
-26.387189
31
0
39
0
210
0
220
0
230
1
0
LINE
5
F1
100
AcDbEntity
8
1
62
256
6
ByLayer
370
18
48
1
60
0
100
AcDbLine
10
298.455986
20
6.252469
30
0
11
297.722091
21
6.252469
31
0
39
0
210
0
220
0
230
1
0
LINE
5
F2
100
AcDbEntity
8
1
62
256
6
ByLayer
370
18
48
1
60
0
100
AcDbLine
10
267.502242
20
-19.879097
30
0
11
267.357062
21
-19.690051
31
0
39
0
210
0
220
0
230
1
0
LINE
5
F3
100
AcDbEntity
8
1
62
256
6
ByLayer
370
18
48
1
60
0
100
AcDbLine
10
267.610549
20
-19.584936
30
0
11
267.641755
21
-19.821244
31
0
39
0
210
0
220
0
230
1
0
LINE
5
F4
100
AcDbEntity
8
1
62
256
6
ByLayer
370
18
48
1
60
0
100
AcDbLine
10
293.489086
20
-19.262596
30
0
11
293.489086
21
-19.377826
31
0
39
0
210
0
220
0
230
1
0
LINE
5
F5
100
AcDbEntity
8
1
62
256
6
ByLayer
370
13
48
1
60
0
100
AcDbLine
10
299.514285
20
-26.409234
30
0
11
300.001586
21
-26.690226
31
0
39
0
210
0
220
0
230
1
0
LINE
5
F6
100
AcDbEntity
8
1
62
256
6
ByLayer
370
13
48
1
60
0
100
AcDbLine
10
298.810961
20
-27.375909
30
0
11
299.054612
21
-26.673961
31
0
39
0
210
0
220
0
230
1
0
LINE
5
F7
100
AcDbEntity
8
1
62
256
6
ByLayer
370
18
48
1
60
0
100
AcDbLine
10
299.514285
20
-26.409234
30
0
11
299.514285
21
-12.695583
31
0
39
0
210
0
220
0
230
1
0
LINE
5
F8
100
AcDbEntity
8
1
62
256
6
ByLayer
370
18
48
1
60
0
100
AcDbLine
10
298.120157
20
-26.135807
30
0
11
299.054612
21
-26.673961
31
0
39
0
210
0
220
0
230
1
0
LINE
5
F9
100
AcDbEntity
8
1
62
256
6
ByLayer
370
13
48
1
60
0
100
AcDbLine
10
300.001586
20
-12.976574
30
0
11
299.514285
21
-12.695583
31
0
39
0
210
0
220
0
230
1
0
LINE
5
FA
100
AcDbEntity
8
1
62
256
6
ByLayer
370
18
48
1
60
0
100
AcDbLine
10
298.810961
20
-27.375909
30
0
11
296.657604
21
-26.135787
31
0
39
0
210
0
220
0
230
1
0
LINE
5
FB
100
AcDbEntity
8
1
62
256
6
ByLayer
370
18
48
1
60
0
100
AcDbLine
10
300.001586
20
-12.976574
30
0
11
300.001586
21
-26.690226
31
0
39
0
210
0
220
0
230
1
0
LINE
5
FC
100
AcDbEntity
8
1
62
256
6
ByLayer
370
18
48
1
60
0
100
AcDbLine
10
296.993443
20
0.180455
30
0
11
290.330097
21
0.180455
31
0
39
0
210
0
220
0
230
1
0
LINE
5
FD
100
AcDbEntity
8
1
62
256
6
ByLayer
370
18
48
1
60
0
100
AcDbLine
10
290.330097
20
-12.684545
30
0
11
296.993443
21
-12.684545
31
0
39
0
210
0
220
0
230
1
0
LINE
5
FE
100
AcDbEntity
8
1
62
256
6
ByLayer
370
18
48
1
60
0
100
AcDbLine
10
265
20
-25
30
0
11
266.521212
21
-25
31
0
39
0
210
0
220
0
230
1
0
LINE
5
FF
100
AcDbEntity
8
1
62
256
6
ByLayer
370
18
48
1
60
0
100
AcDbLine
10
266.521212
20
25
30
0
11
265
21
25
31
0
39
0
210
0
220
0
230
1
0
LINE
5
100
100
AcDbEntity
8
1
62
256
6
ByLayer
370
18
48
1
60
0
100
AcDbLine
10
268.8
20
-23
30
0
11
280.887779
21
-23
31
0
39
0
210
0
220
0
230
1
0
LINE
5
101
100
AcDbEntity
8
1
62
256
6
ByLayer
370
18
48
1
60
0
100
AcDbLine
10
266.698746
20
24.364729
30
0
11
266.5
21
24.364729
31
0
39
0
210
0
220
0
230
1
0
LINE
5
102
100
AcDbEntity
8
1
62
256
6
ByLayer
370
18
48
1
60
0
100
AcDbLine
10
267.76188
20
4.365554
30
0
11
279.618578
21
3.965086
31
0
39
0
210
0
220
0
230
1
0
LINE
5
103
100
AcDbEntity
8
1
62
256
6
ByLayer
370
18
48
1
60
0
100
AcDbLine
10
280.104209
20
10
30
0
11
280.075097
21
10
31
0
39
0
210
0
220
0
230
1
0
LINE
5
104
100
AcDbEntity
8
1
62
256
6
ByLayer
370
18
48
1
60
0
100
AcDbLine
10
273
20
10.141883
30
0
11
273
21
23
31
0
39
0
210
0
220
0
230
1
0
LINE
5
105
100
AcDbEntity
8
1
62
256
6
ByLayer
370
18
48
1
60
0
100
AcDbLine
10
268.8
20
23
30
0
11
273
21
23
31
0
39
0
210
0
220
0
230
1
0
LINE
5
106
100
AcDbEntity
8
1
62
256
6
ByLayer
370
13
48
1
60
0
100
AcDbLine
10
273.25
20
23
30
0
11
273.25
21
10.097885
31
0
39
0
210
0
220
0
230
1
0
LINE
5
107
100
AcDbEntity
8
1
62
256
6
ByLayer
370
18
48
1
60
0
100
AcDbLine
10
280.104209
20
10
30
0
11
279.834828
21
8.05867
31
0
39
0
210
0
220
0
230
1
0
LINE
5
108
100
AcDbEntity
8
1
62
256
6
ByLayer
370
18
48
1
60
0
100
AcDbLine
10
267.724484
20
20.995229
30
0
11
267.662791
21
21.225467
31
0
39
0
210
0
220
0
230
1
0
LINE
5
109
100
AcDbEntity
8
1
62
256
6
ByLayer
370
18
48
1
60
0
100
AcDbLine
10
267.937209
20
21.225467
30
0
11
267.875516
21
20.995229
31
0
39
0
210
0
220
0
230
1
0
LINE
5
10A
100
AcDbEntity
8
1
62
256
6
ByLayer
370
18
48
1
60
0
100
AcDbLine
10
279.580124
20
3.998545
30
0
11
279.618578
21
3.965086
31
0
39
0
210
0
220
0
230
1
0
LINE
5
10B
100
AcDbEntity
8
1
62
256
6
ByLayer
370
18
48
1
60
0
100
AcDbLine
10
279.797935
20
8.040301
30
0
11
279.834828
21
8.05867
31
0
39
0
210
0
220
0
230
1
0
LINE
5
10C
100
AcDbEntity
8
1
62
256
6
ByLayer
370
18
48
1
60
0
100
AcDbLine
10
0.3
20
-25
30
0
11
264.7
21
-25
31
0
39
0
210
0
220
0
230
1
0
LINE
5
10D
100
AcDbEntity
8
1
62
256
6
ByLayer
370
18
48
1
60
0
100
AcDbLine
10
264.7
20
25
30
0
11
0.3
21
25
31
0
39
0
210
0
220
0
230
1
0
LINE
5
10E
100
AcDbEntity
8
1
62
256
6
ByLayer
370
18
48
1
60
0
100
AcDbLine
10
11.461325
20
7.529667
30
0
11
8.538675
21
7.529667
31
0
39
0
210
0
220
0
230
1
0
LINE
5
10F
100
AcDbEntity
8
1
62
256
6
ByLayer
370
18
48
1
60
0
100
AcDbLine
10
8.538675
20
23.83913
30
0
11
11.461325
21
23.83913
31
0
39
0
210
0
220
0
230
1
0
LINE
5
110
100
AcDbEntity
8
1
62
256
6
ByLayer
370
18
48
1
60
0
100
AcDbLine
10
11.461325
20
-23.83913
30
0
11
8.538675
21
-23.83913
31
0
39
0
210
0
220
0
230
1
0
LINE
5
111
100
AcDbEntity
8
1
62
256
6
ByLayer
370
18
48
1
60
0
100
AcDbLine
10
8.538675
20
-7.529667
30
0
11
11.461325
21
-7.529667
31
0
39
0
210
0
220
0
230
1
0
LINE
5
112
100
AcDbEntity
8
1
62
256
6
ByLayer
370
18
48
1
60
0
100
AcDbLine
10
256
20
9.365165
30
0
11
259
21
9.365165
31
0
39
0
210
0
220
0
230
1
0
LINE
5
113
100
AcDbEntity
8
1
62
256
6
ByLayer
370
18
48
1
60
0
100
AcDbLine
10
0.3
20
25
30
0
11
0
21
24.7
31
0
39
0
210
0
220
0
230
1
0
LINE
5
114
100
AcDbEntity
8
1
62
256
6
ByLayer
370
13
48
1
60
0
100
AcDbLine
10
8.538675
20
-23.83913
30
0
11
8.538675
21
-7.529667
31
0
39
0
210
0
220
0
230
1
0
LINE
5
115
100
AcDbEntity
8
1
62
256
6
ByLayer
370
13
48
1
60
0
100
AcDbLine
10
8.105662
20
-23.666502
30
0
11
8.105662
21
-8.055848
31
0
39
0
210
0
220
0
230
1
0
LINE
5
116
100
AcDbEntity
8
1
62
256
6
ByLayer
370
13
48
1
60
0
100
AcDbLine
10
11.894338
20
8.055848
30
0
11
11.894338
21
23.666502
31
0
39
0
210
0
220
0
230
1
0
LINE
5
117
100
AcDbEntity
8
1
62
256
6
ByLayer
370
13
48
1
60
0
100
AcDbLine
10
11.461325
20
7.529667
30
0
11
11.461325
21
23.83913
31
0
39
0
210
0
220
0
230
1
0
LINE
5
118
100
AcDbEntity
8
1
62
256
6
ByLayer
370
13
48
1
60
0
100
AcDbLine
10
11.894338
20
-23.666502
30
0
11
11.894338
21
-8.055848
31
0
39
0
210
0
220
0
230
1
0
LINE
5
119
100
AcDbEntity
8
1
62
256
6
ByLayer
370
13
48
1
60
0
100
AcDbLine
10
11.461325
20
-23.83913
30
0
11
11.461325
21
-7.529667
31
0
39
0
210
0
220
0
230
1
0
LINE
5
11A
100
AcDbEntity
8
1
62
256
6
ByLayer
370
13
48
1
60
0
100
AcDbLine
10
8.538675
20
7.529667
30
0
11
8.538675
21
23.83913
31
0
39
0
210
0
220
0
230
1
0
LINE
5
11B
100
AcDbEntity
8
1
62
256
6
ByLayer
370
13
48
1
60
0
100
AcDbLine
10
8.105662
20
8.055848
30
0
11
8.105662
21
23.666502
31
0
39
0
210
0
220
0
230
1
0
LINE
5
11C
100
AcDbEntity
8
1
62
256
6
ByLayer
370
18
48
1
60
0
100
AcDbLine
10
273.801653
20
23
30
0
11
273.25
21
23
31
0
39
0
210
0
220
0
230
1
0
LINE
5
11D
100
AcDbEntity
8
1
62
256
6
ByLayer
370
18
48
1
60
0
100
AcDbLine
10
279.937381
20
10
30
0
11
280.104215
21
10
31
0
39
0
210
0
220
0
230
1
0
LINE
5
11E
100
AcDbEntity
8
1
62
256
6
ByLayer
370
18
48
1
60
0
100
AcDbLine
10
279.580124
20
-13.832663
30
0
11
290.150469
21
-13.832663
31
0
39
0
210
0
220
0
230
1
0
LINE
5
11F
100
AcDbEntity
8
1
62
256
6
ByLayer
370
18
48
1
60
0
100
AcDbLine
10
279.580124
20
-13.554204
30
0
11
279.618578
21
-13.554204
31
0
39
0
210
0
220
0
230
1
0
LINE
5
120
100
AcDbEntity
8
1
62
256
6
ByLayer
370
18
48
1
60
0
100
AcDbLine
10
279.618578
20
3.965086
30
0
11
279.618578
21
-13.554204
31
0
39
0
210
0
220
0
230
1
0
LINE
5
121
100
AcDbEntity
8
1
62
256
6
ByLayer
370
18
48
1
60
0
100
AcDbLine
10
274.5
20
10
30
0
11
279.937381
21
10
31
0
39
0
210
0
220
0
230
1
0
LINE
5
122
100
AcDbEntity
8
1
62
256
6
ByLayer
370
18
48
1
60
0
100
AcDbLine
10
279.834826
20
8.058644
30
0
11
279.937381
21
10
31
0
39
0
210
0
220
0
230
1
0
LINE
5
123
100
AcDbEntity
8
1
62
256
6
ByLayer
370
18
48
1
60
0
100
AcDbLine
10
273.801586
20
23.70221
30
0
11
273.801586
21
22.000242
31
0
39
0
210
0
220
0
230
1
0
LINE
5
124
100
AcDbEntity
8
1
62
256
6
ByLayer
370
18
48
1
60
0
100
AcDbLine
10
273.801586
20
13.700242
30
0
11
273.801586
21
12.500242
31
0
39
0
210
0
220
0
230
1
0
LINE
5
125
100
AcDbEntity
8
1
62
256
6
ByLayer
370
18
48
1
60
0
100
AcDbLine
10
292.388868
20
-22.084508
30
0
11
292.388868
21
-18.703448
31
0
39
0
210
0
220
0
230
1
0
LINE
5
126
100
AcDbEntity
8
1
62
256
6
ByLayer
370
13
48
1
60
0
100
AcDbLine
10
296.993434
20
-12.684545
30
0
11
296.993443
21
-12.684545
31
0
39
0
210
0
220
0
230
1
0
LINE
5
127
100
AcDbEntity
8
1
62
256
6
ByLayer
370
18
48
1
60
0
100
AcDbLine
10
266.5
20
24.364729
30
0
11
266.5
21
18
31
0
39
0
210
0
220
0
230
1
0
LINE
5
128
100
AcDbEntity
8
1
62
256
6
ByLayer
370
18
48
1
60
0
100
AcDbLine
10
265
20
25
30
0
11
265
21
0
31
0
39
0
210
0
220
0
230
1
0
LINE
5
129
100
AcDbEntity
8
1
62
256
6
ByLayer
370
18
48
1
60
0
100
AcDbLine
10
265
20
0
30
0
11
265
21
-25
31
0
39
0
210
0
220
0
230
1
0
LINE
5
12A
100
AcDbEntity
8
1
62
256
6
ByLayer
370
18
48
1
60
0
100
AcDbLine
10
273
20
23
30
0
11
273.25
21
23
31
0
39
0
210
0
220
0
230
1
0
LINE
5
12B
100
AcDbEntity
8
1
62
256
6
ByLayer
370
18
48
1
60
0
100
AcDbLine
10
0
20
24.7
30
0
11
0
21
0
31
0
39
0
210
0
220
0
230
1
0
LINE
5
12C
100
AcDbEntity
8
1
62
256
6
ByLayer
370
18
48
1
60
0
100
AcDbLine
10
0
20
0
30
0
11
0
21
-24.7
31
0
39
0
210
0
220
0
230
1
0
LINE
5
12D
100
AcDbEntity
8
1
62
256
6
ByLayer
370
13
48
1
60
0
100
AcDbLine
10
264.7
20
25
30
0
11
264.7
21
0
31
0
39
0
210
0
220
0
230
1
0
LINE
5
12E
100
AcDbEntity
8
1
62
256
6
ByLayer
370
13
48
1
60
0
100
AcDbLine
10
264.7
20
0
30
0
11
264.7
21
-25
31
0
39
0
210
0
220
0
230
1
0
LINE
5
12F
100
AcDbEntity
8
1
62
256
6
ByLayer
370
18
48
1
60
0
100
AcDbLine
10
0.3
20
25
30
0
11
0.3
21
0
31
0
39
0
210
0
220
0
230
1
0
LINE
5
130
100
AcDbEntity
8
1
62
256
6
ByLayer
370
18
48
1
60
0
100
AcDbLine
10
0.3
20
0
30
0
11
0.3
21
-25
31
0
39
0
210
0
220
0
230
1
0
LINE
5
131
100
AcDbEntity
8
1
62
256
6
ByLayer
370
18
48
1
60
0
100
AcDbLine
10
297.864086
20
19.816249
30
0
11
297.864086
21
19.816335
31
0
39
0
210
0
220
0
230
1
0
LINE
5
132
100
AcDbEntity
8
1
62
256
6
ByLayer
370
18
48
1
60
0
100
AcDbLine
10
299.201586
20
-9.788763
30
0
11
298.265878
21
-9.555465
31
0
39
0
210
0
220
0
230
1
0
LINE
5
133
100
AcDbEntity
8
1
62
256
6
ByLayer
370
18
48
1
60
0
100
AcDbLine
10
299.201586
20
-9.788763
30
0
11
299.201586
21
-10.482882
31
0
39
0
210
0
220
0
230
1
0
MTEXT
5
21E
100
AcDbEntity
8
SK6
62
256
6
ByLayer
370
18
48
1
60
0
100
AcDbMText
10
308.894086
20
30.289069
30
0
210
0
220
0
230
1
1
\W0.7279;BR20D-71TC16F-C5M
40
3
41
0
44
1.084337
50
0
71
7
72
5
7
iso_b_vert
0
DIMENSION
5
22C
100
AcDbEntity
8
2
62
256
6
ByLayer
370
13
48
1
60
0
100
AcDbDimension
2
DimnDraft3D1
10
0
20
39.006041
30
0
11
145.457047
21
39.006041
31
0
70
32
71
5
72
1
41
1
210
0
220
0
230
1
3
Standard
100
AcDbAlignedDimension
13
300.000937
23
29.482719
33
0
14
0
24
26.7
34
0
50
0
100
AcDbRotatedDimension
1001
ACAD
1000
DSTYLE
1002
{
1070
   279
1070
     0
1070
   172
1070
     1
1070
   173
1070
     1
1070
   340
1005
21F
1070
   271
1070
     1
1070
    77
1070
     1
1070
    73
1070
     0
1070
   171
1070
     4
1070
   274
1070
     4
1070
   177
1070
     7
1070
   176
1070
     7
1070
   178
1070
     7
1070
    41
1041
3.175
1070
   147
1041
1.5
1070
    42
1041
2.0
1070
    44
1041
2.0
1070
   140
1041
3.0
1070
   343
1005
0
1070
   344
1005
0
1002
}
0
DIMENSION
5
236
100
AcDbEntity
8
2
62
256
6
ByLayer
370
13
48
1
60
0
100
AcDbDimension
2
DimnDraft3D2
10
327.184322
20
-27.481984
30
0
11
327.184322
21
-11.34437
31
0
70
32
71
5
72
1
41
1
210
0
220
0
230
1
3
Standard
100
AcDbAlignedDimension
13
302.000937
23
27.482719
33
0
14
301.207836
24
-27.481984
34
0
50
90
100
AcDbRotatedDimension
1001
ACAD
1000
DSTYLE
1002
{
1070
    74
1070
     0
1070
   279
1070
     0
1070
   172
1070
     1
1070
   173
1070
     1
1070
   340
1005
21F
1070
   271
1070
     1
1070
    77
1070
     1
1070
    73
1070
     0
1070
   171
1070
     4
1070
   274
1070
     4
1070
   177
1070
     7
1070
   176
1070
     7
1070
   178
1070
     7
1070
    41
1041
3.175
1070
   147
1041
1.5
1070
    42
1041
2.0
1070
    44
1041
2.0
1070
   140
1041
3.0
1070
   343
1005
0
1070
   344
1005
0
1002
}
0
DIMENSION
5
240
100
AcDbEntity
8
2
62
256
6
ByLayer
370
13
48
1
60
0
100
AcDbDimension
2
DimnDraft3D3
10
301.000937
20
27.482719
30
0
11
308.144086
21
15.28347
31
0
70
34
71
5
72
1
41
1
210
0
220
0
230
1
3
Standard
100
AcDb2LineAngularDimension
13
300.001586
23
12.940574
33
0
14
300.001586
24
26.68872
34
0
15
300.000937
25
27.482719
35
0
16
312.494068
26
14.990237
36
0
40
0
0
DIMENSION
5
24C
100
AcDbEntity
8
SK2
62
256
6
ByLayer
370
13
48
1
60
0
100
AcDbDimension
2
DimnDraft3D4
10
-44.037888
20
-25
30
0
11
-43.537888
21
0.414474
31
0
70
33
71
5
72
1
41
1
210
0
220
0
230
1
3
Standard
100
AcDbAlignedDimension
13
-1.7
23
25
33
0
14
-1.7
24
-25
34
0
1001
ACAD
1000
DSTYLE
1002
{
1070
   279
1070
     0
1070
    74
1070
     0
1070
   173
1070
     1
1070
   340
1005
21F
1070
   271
1070
     0
1070
    77
1070
     1
1070
    73
1070
     0
1070
   171
1070
     4
1070
   274
1070
     4
1070
   177
1070
     7
1070
   176
1070
     7
1070
   178
1070
     7
1070
    41
1041
3.175
1070
   147
1041
1.5
1070
    42
1041
2.0
1070
    44
1041
2.0
1070
   140
1041
3.0
1070
   343
1005
0
1070
   344
1005
0
1002
}
0
ENDSEC
0
SECTION
2
OBJECTS
0
DICTIONARY
5
2bc
330
0
100
AcDbDictionary
280
0
281
1
3
ACAD_GROUP
350
2bd
3
ACAD_GROUP
350
2be
3
ACAD_MLINESTYLE
350
2bf
0
DICTIONARY
5
2bd
330
0
100
AcDbDictionary
280
0
281
1
0
DICTIONARY
5
2be
330
0
100
AcDbDictionary
280
0
281
1
3
<200940349NDI000_00>
350
257
3
<201778337MOD000_00>
350
255
3
391_68A_1_03213C06B_A1
350
256
3
DIT-000-00-UG_TO_2D CONVERT_BR20D_SIZED AND_E_TC
350
258
0
DICTIONARY
5
2bf
330
0
100
AcDbDictionary
280
0
281
1
3
Standard
350
18
0
GROUP
5
257
330
2be
100
AcDbGroup
300

70
0
71
1
340
76
340
78
340
79
340
7A
340
7B
340
7C
340
7D
340
7F
340
80
340
134
340
135
340
1A7
340
1A8
340
1A9
340
1AA
340
1AB
340
1AC
340
1AD
340
1AE
340
1AF
340
1B0
340
1B1
340
1B2
340
1B3
340
1B4
340
1B5
340
1B6
340
1B7
340
1B8
340
1B9
340
1BA
340
1BB
340
1BC
340
1BD
340
1BE
340
1BF
340
1C0
340
1C1
340
1C2
340
1C3
340
1C4
340
1C5
340
1C6
340
1C7
340
1C8
340
1C9
340
1CA
340
1CB
0
GROUP
5
255
330
2be
100
AcDbGroup
300

70
0
71
1
340
6C
340
6E
340
70
340
72
340
73
340
75
340
76
340
78
340
79
340
7A
340
7B
340
7C
340
7D
340
7F
340
80
340
81
340
82
340
83
340
84
340
85
340
86
340
87
340
88
340
89
340
8A
340
8B
340
8C
340
8D
340
8E
340
8F
340
90
340
91
340
92
340
93
340
94
340
95
340
96
340
97
340
98
340
99
340
9A
340
9B
340
9C
340
9D
340
9E
340
9F
340
A0
340
A1
340
A2
340
A3
340
A4
340
A5
340
A6
340
A7
340
A8
340
A9
340
AA
340
AB
340
AC
340
AD
340
AE
340
AF
340
B0
340
B1
340
B2
340
B3
340
B4
340
B5
340
B6
340
B7
340
B8
340
B9
340
BA
340
BB
340
BC
340
BD
340
BE
340
BF
340
C0
340
C1
340
C2
340
C3
340
C4
340
C5
340
C6
340
C7
340
C8
340
C9
340
CA
340
CB
340
CC
340
CD
340
CE
340
CF
340
D0
340
D1
340
D2
340
D3
340
D4
340
D5
340
D6
340
D7
340
D8
340
D9
340
DA
340
DB
340
DC
340
DD
340
DE
340
DF
340
E0
340
E1
340
E2
340
E3
340
E4
340
E5
340
E6
340
E7
340
E8
340
E9
340
EA
340
EB
340
EC
340
ED
340
EE
340
EF
340
F0
340
F1
340
F2
340
F3
340
F4
340
F5
340
F6
340
F7
340
F8
340
F9
340
FA
340
FB
340
FC
340
FD
340
FE
340
FF
340
100
340
101
340
102
340
103
340
104
340
105
340
106
340
107
340
108
340
109
340
10A
340
10B
340
10C
340
10D
340
10E
340
10F
340
110
340
111
340
112
340
113
340
114
340
115
340
116
340
117
340
118
340
119
340
11A
340
11B
340
11C
340
11D
340
11E
340
11F
340
120
340
121
340
122
340
123
340
124
340
125
340
126
340
127
340
128
340
129
340
12A
340
12B
340
12C
340
12D
340
12E
340
12F
340
130
340
131
340
132
340
133
340
134
340
135
340
136
340
137
340
138
340
139
340
13A
340
13B
340
13C
340
13D
340
13E
340
13F
340
140
340
141
340
142
340
143
340
144
340
145
340
146
340
147
340
148
340
149
340
14A
340
14B
340
14C
340
14D
340
14E
340
14F
340
150
340
151
340
152
340
153
340
154
340
155
340
156
340
157
340
158
340
159
340
15A
340
15B
340
15C
340
15D
340
15E
340
15F
340
160
340
161
340
162
340
163
340
164
340
165
340
166
340
167
340
168
340
169
340
16A
340
16B
340
16C
340
16D
340
16E
340
16F
340
170
340
171
340
172
340
173
340
174
340
175
340
176
340
177
340
178
340
179
340
17A
340
17B
340
17C
340
17D
340
17E
340
17F
340
180
340
181
340
182
340
183
340
184
340
185
340
186
340
187
340
188
340
189
340
18A
340
18B
340
18C
340
18D
340
18E
340
18F
340
190
340
191
340
192
340
193
340
194
340
195
340
196
340
197
340
198
340
199
340
19A
340
19B
340
19C
340
19D
340
19E
340
19F
340
1A0
340
1A1
340
1A2
340
1A3
340
1A4
340
1A5
340
1A6
340
1A7
340
1A8
340
1A9
340
1AA
340
1AB
340
1AC
340
1AD
340
1AE
340
1AF
340
1B0
340
1B1
340
1B2
340
1B3
340
1B4
340
1B5
340
1B6
340
1B7
340
1B8
340
1B9
340
1BA
340
1BB
340
1BC
340
1BD
340
1BE
340
1BF
340
1C0
340
1C1
340
1C2
340
1C3
340
1C4
340
1C5
340
1C6
340
1C7
340
1C8
340
1C9
340
1CA
340
1CB
340
1CC
340
1CD
340
1CE
340
1CF
340
1D0
340
1D1
340
1D2
340
1D3
340
1D4
340
1D5
340
1D6
340
1D7
340
1D8
340
1D9
340
1DA
340
1DB
340
1DC
340
1DD
340
1DE
340
1DF
340
1E0
340
1E1
340
1E2
340
1E3
340
1E4
340
1E5
340
1E6
340
1E7
340
1E8
340
1E9
340
1EA
340
1EB
340
1EC
340
1ED
340
1EE
340
1EF
340
1F0
340
1F1
340
1F2
340
1F3
340
1F4
340
1F5
340
1F6
340
1F7
340
1F8
340
1F9
340
1FA
340
1FB
340
1FC
340
1FD
340
1FE
340
1FF
340
200
340
201
340
202
340
203
340
204
340
205
340
206
340
207
340
208
340
209
340
20A
340
20B
340
20C
340
20D
340
20E
340
20F
340
210
340
211
340
212
340
213
340
214
340
215
340
216
340
217
340
218
340
219
340
21A
340
21B
340
21C
340
21D
340
6E
340
75
340
21E
340
236
340
240
340
76
340
78
340
79
340
7A
340
7B
340
7C
340
7D
340
7F
340
80
340
134
340
135
340
1A7
340
1A8
340
1A9
340
1AA
340
1AB
340
1AC
340
1AD
340
1AE
340
1AF
340
1B0
340
1B1
340
1B2
340
1B3
340
1B4
340
1B5
340
1B6
340
1B7
340
1B8
340
1B9
340
1BA
340
1BB
340
1BC
340
1BD
340
1BE
340
1BF
340
1C0
340
1C1
340
1C2
340
1C3
340
1C4
340
1C5
340
1C6
340
1C7
340
1C8
340
1C9
340
1CA
340
1CB
340
81
340
82
340
83
340
84
340
85
340
86
340
87
340
88
340
89
340
8A
340
8B
340
8C
340
8D
340
8E
340
8F
340
90
340
91
340
92
340
93
340
94
340
95
340
96
340
97
340
98
340
99
340
9A
340
9B
340
9C
340
9D
340
9E
340
9F
340
A0
340
A1
340
A2
340
A3
340
A4
340
A5
340
A6
340
A7
340
A8
340
A9
340
AA
340
AB
340
AC
340
AD
340
AE
340
AF
340
B0
340
B1
340
B2
340
B3
340
B4
340
B5
340
B6
340
B7
340
B8
340
B9
340
BA
340
BB
340
BC
340
BD
340
BE
340
BF
340
C0
340
C1
340
C2
340
C3
340
C4
340
C5
340
C6
340
C7
340
C8
340
C9
340
CA
340
CB
340
CC
340
CD
340
CE
340
CF
340
D0
340
D1
340
D2
340
D3
340
D4
340
D5
340
D6
340
D7
340
D8
340
D9
340
DA
340
DB
340
DC
340
DD
340
DE
340
DF
340
E0
340
E1
340
E2
340
E3
340
E4
340
E5
340
E6
340
E7
340
E8
340
E9
340
EA
340
EB
340
EC
340
ED
340
EE
340
EF
340
F0
340
F1
340
F2
340
F3
340
F4
340
F5
340
F6
340
F7
340
F8
340
F9
340
FA
340
FB
340
FC
340
FD
340
FE
340
FF
340
100
340
101
340
102
340
103
340
104
340
105
340
106
340
107
340
108
340
109
340
10A
340
10B
340
10C
340
10D
340
10E
340
10F
340
110
340
111
340
112
340
113
340
114
340
115
340
116
340
117
340
118
340
119
340
11A
340
11B
340
11C
340
11D
340
11E
340
11F
340
120
340
121
340
122
340
123
340
124
340
125
340
126
340
127
340
128
340
129
340
12A
340
12B
340
12C
340
12D
340
12E
340
12F
340
130
340
131
340
132
340
133
340
136
340
137
340
138
340
139
340
13A
340
13B
340
13C
340
13D
340
13E
340
13F
340
140
340
141
340
142
340
143
340
144
340
145
340
146
340
147
340
148
340
149
340
14A
340
14B
340
14C
340
14D
340
14E
340
14F
340
150
340
151
340
152
340
153
340
154
340
155
340
156
340
157
340
158
340
159
340
15A
340
15B
340
15C
340
15D
340
15E
340
15F
340
160
340
161
340
162
340
163
340
164
340
165
340
166
340
167
340
168
340
169
340
16A
340
16B
340
16C
340
16D
340
16E
340
16F
340
170
340
171
340
172
340
173
340
174
340
175
340
176
340
177
340
178
340
179
340
17A
340
17B
340
17C
340
17D
340
17E
340
17F
340
180
340
181
340
182
340
183
340
184
340
185
340
186
340
187
340
188
340
189
340
18A
340
18B
340
18C
340
18D
340
18E
340
18F
340
190
340
191
340
192
340
193
340
194
340
195
340
196
340
197
340
198
340
199
340
19A
340
19B
340
19C
340
19D
340
19E
340
19F
340
1A0
340
1A1
340
1A2
340
1A3
340
1A4
340
1A5
340
1A6
340
1CC
340
1CD
340
1CE
340
1CF
340
1D0
340
1D1
340
1D2
340
1D3
340
1D4
340
1D5
340
1D6
340
1D7
340
1D8
340
1D9
340
1DA
340
1DB
340
1DC
340
1DD
340
1DE
340
1DF
340
1E0
340
1E1
340
1E2
340
1E3
340
1E4
340
1E5
340
1E6
340
1E7
340
1E8
340
1E9
340
1EA
340
1EB
340
1EC
340
1ED
340
1EE
340
1EF
340
1F0
340
1F1
340
1F2
340
1F3
340
1F4
340
1F5
340
1F6
340
1F7
340
1F8
340
1F9
340
1FA
340
1FB
340
1FC
340
1FD
340
1FE
340
1FF
340
200
340
201
340
202
340
203
340
204
340
205
340
206
340
207
340
208
340
209
340
20A
340
20B
340
20C
340
20D
340
20E
340
20F
340
210
340
211
340
212
340
213
340
214
340
215
340
216
340
217
340
218
340
219
340
21A
340
21B
340
21C
340
21D
340
21E
340
22C
340
236
340
240
340
24C
0
GROUP
5
256
330
2be
100
AcDbGroup
300

70
0
71
1
340
6E
340
75
340
21E
340
236
340
240
0
GROUP
5
258
330
2be
100
AcDbGroup
300

70
0
71
1
340
81
340
82
340
83
340
84
340
85
340
86
340
87
340
88
340
89
340
8A
340
8B
340
8C
340
8D
340
8E
340
8F
340
90
340
91
340
92
340
93
340
94
340
95
340
96
340
97
340
98
340
99
340
9A
340
9B
340
9C
340
9D
340
9E
340
9F
340
A0
340
A1
340
A2
340
A3
340
A4
340
A5
340
A6
340
A7
340
A8
340
A9
340
AA
340
AB
340
AC
340
AD
340
AE
340
AF
340
B0
340
B1
340
B2
340
B3
340
B4
340
B5
340
B6
340
B7
340
B8
340
B9
340
BA
340
BB
340
BC
340
BD
340
BE
340
BF
340
C0
340
C1
340
C2
340
C3
340
C4
340
C5
340
C6
340
C7
340
C8
340
C9
340
CA
340
CB
340
CC
340
CD
340
CE
340
CF
340
D0
340
D1
340
D2
340
D3
340
D4
340
D5
340
D6
340
D7
340
D8
340
D9
340
DA
340
DB
340
DC
340
DD
340
DE
340
DF
340
E0
340
E1
340
E2
340
E3
340
E4
340
E5
340
E6
340
E7
340
E8
340
E9
340
EA
340
EB
340
EC
340
ED
340
EE
340
EF
340
F0
340
F1
340
F2
340
F3
340
F4
340
F5
340
F6
340
F7
340
F8
340
F9
340
FA
340
FB
340
FC
340
FD
340
FE
340
FF
340
100
340
101
340
102
340
103
340
104
340
105
340
106
340
107
340
108
340
109
340
10A
340
10B
340
10C
340
10D
340
10E
340
10F
340
110
340
111
340
112
340
113
340
114
340
115
340
116
340
117
340
118
340
119
340
11A
340
11B
340
11C
340
11D
340
11E
340
11F
340
120
340
121
340
122
340
123
340
124
340
125
340
126
340
127
340
128
340
129
340
12A
340
12B
340
12C
340
12D
340
12E
340
12F
340
130
340
131
340
132
340
133
340
136
340
137
340
138
340
139
340
13A
340
13B
340
13C
340
13D
340
13E
340
13F
340
140
340
141
340
142
340
143
340
144
340
145
340
146
340
147
340
148
340
149
340
14A
340
14B
340
14C
340
14D
340
14E
340
14F
340
150
340
151
340
152
340
153
340
154
340
155
340
156
340
157
340
158
340
159
340
15A
340
15B
340
15C
340
15D
340
15E
340
15F
340
160
340
161
340
162
340
163
340
164
340
165
340
166
340
167
340
168
340
169
340
16A
340
16B
340
16C
340
16D
340
16E
340
16F
340
170
340
171
340
172
340
173
340
174
340
175
340
176
340
177
340
178
340
179
340
17A
340
17B
340
17C
340
17D
340
17E
340
17F
340
180
340
181
340
182
340
183
340
184
340
185
340
186
340
187
340
188
340
189
340
18A
340
18B
340
18C
340
18D
340
18E
340
18F
340
190
340
191
340
192
340
193
340
194
340
195
340
196
340
197
340
198
340
199
340
19A
340
19B
340
19C
340
19D
340
19E
340
19F
340
1A0
340
1A1
340
1A2
340
1A3
340
1A4
340
1A5
340
1A6
340
1CC
340
1CD
340
1CE
340
1CF
340
1D0
340
1D1
340
1D2
340
1D3
340
1D4
340
1D5
340
1D6
340
1D7
340
1D8
340
1D9
340
1DA
340
1DB
340
1DC
340
1DD
340
1DE
340
1DF
340
1E0
340
1E1
340
1E2
340
1E3
340
1E4
340
1E5
340
1E6
340
1E7
340
1E8
340
1E9
340
1EA
340
1EB
340
1EC
340
1ED
340
1EE
340
1EF
340
1F0
340
1F1
340
1F2
340
1F3
340
1F4
340
1F5
340
1F6
340
1F7
340
1F8
340
1F9
340
1FA
340
1FB
340
1FC
340
1FD
340
1FE
340
1FF
340
200
340
201
340
202
340
203
340
204
340
205
340
206
340
207
340
208
340
209
340
20A
340
20B
340
20C
340
20D
340
20E
340
20F
340
210
340
211
340
212
340
213
340
214
340
215
340
216
340
217
340
218
340
219
340
21A
340
21B
340
21C
340
21D
0
MLINESTYLE
5
18
330
2bf
100
AcDbMlineStyle
2
Standard
70
0
3

62
256
51
90
52
90
71
2
49
-0.5
62
256
6
ByLayer
49
0.5
62
256
6
ByLayer
0
RASTERVARIABLES
5
2a9
330

100
AcDbRasterVariables
90
0
70
1
71
1
72
1
0
ENDSEC
0
EOF
