0
SECTION
2
HEADER
9
$ACADVER
1
AC1015
9
$DWGCODEPAGE
3
ANSI_1252
9
$HANDSEED
5
2cf
9
$ANGBASE
50
0
9
$ANGDIR
70
0
9
$ATTMODE
70
1
9
$AUNITS
70
0
9
$AUPREC
70
0
9
$CECOLOR
62
256
9
$CELTSCALE
40
1
9
$CELTYPE
6
ByLayer
9
$CELWEIGHT
370
18
9
$CLAYER
8
0
9
$CMLJUST
70
0
9
$CMLSCALE
40
1
9
$CMLSTYLE
2
Standard
9
$DIMSTYLE
2
Standard
9
$TEXTSIZE
40
0.2
9
$TEXTSTYLE
7
Standard
9
$LUNITS
70
2
9
$LUPREC
70
4
9
$EXTNAMES
290
1
9
$INSUNITS
70
4
9
$LTSCALE
40
1
9
$LWDISPLAY
290
1
9
$PDMODE
70
0
9
$PDSIZE
40
0
9
$PLINEGEN
70
0
0
ENDSEC
0
SECTION
2
CLASSES
0
CLASS
1
RASTERVARIABLES
2
AcDbRasterVariables
3
ISM
90
0
280
0
281
0
0
ENDSEC
0
SECTION
2
TABLES
0
TABLE
2
VPORT
5
2c5
100
AcDbSymbolTable
0
VPORT
5
1
100
AcDbSymbolTableRecord
100
AcDbViewportTableRecord
2
*Active
70
0
10
0
20
0
11
1
21
1
12
-1
22
1
13
0
23
0
14
0.5
24
0.5
15
10
25
10
16
0
26
0
36
1
17
0
27
0
37
0
0
ENDTAB
0
TABLE
2
LTYPE
5
2c6
100
AcDbSymbolTable
0
LTYPE
5
14
100
AcDbSymbolTableRecord
100
AcDbLinetypeTableRecord
70
0
2
ByBlock
3

72
65
73
0
40
0
0
LTYPE
5
15
100
AcDbSymbolTableRecord
100
AcDbLinetypeTableRecord
70
0
2
ByLayer
3

72
65
73
0
40
0
0
LTYPE
5
16
100
AcDbSymbolTableRecord
100
AcDbLinetypeTableRecord
70
0
2
CONTINUOUS
3
Solid line
72
65
73
0
40
0
0
LTYPE
5
6A
100
AcDbSymbolTableRecord
100
AcDbLinetypeTableRecord
70
0
2
CENTER
3
____ _ ____ _ ____ _ ____
72
65
73
4
40
47.5
49
22
74
0
49
-8.5
74
0
49
8.5
74
0
49
-8.5
74
0
0
LTYPE
5
6B
100
AcDbSymbolTableRecord
100
AcDbLinetypeTableRecord
70
0
2
DASHED
3
__ __ __ __ __ __ __ __ __
72
65
73
2
40
25.72
49
12.86
74
0
49
-12.86
74
0
0
ENDTAB
0
TABLE
2
LAYER
5
2c7
100
AcDbSymbolTable
0
LAYER
5
10
100
AcDbSymbolTableRecord
100
AcDbLayerTableRecord
2
0
70
0
62
7
6
CONTINUOUS
290
1
370
-3
390
0
0
LAYER
5
6D
100
AcDbSymbolTableRecord
100
AcDbLayerTableRecord
2
80
70
0
62
-6
6
CONTINUOUS
290
1
370
-3
390
0
0
LAYER
5
6F
100
AcDbSymbolTableRecord
100
AcDbLayerTableRecord
2
81
70
0
62
-3
6
CONTINUOUS
290
1
370
-3
390
0
0
LAYER
5
71
100
AcDbSymbolTableRecord
100
AcDbLayerTableRecord
2
4
70
0
62
-2
6
CENTER
290
1
370
-3
390
0
0
LAYER
5
77
100
AcDbSymbolTableRecord
100
AcDbLayerTableRecord
2
1
70
0
62
4
6
CONTINUOUS
290
1
370
-3
390
0
0
LAYER
5
86
100
AcDbSymbolTableRecord
100
AcDbLayerTableRecord
2
2
70
0
62
7
6
CONTINUOUS
290
1
370
-3
390
0
0
LAYER
5
2af
100
AcDbSymbolTableRecord
100
AcDbLayerTableRecord
2
SK4
70
0
62
2
6
CENTER
290
1
370
-3
390
0
0
LAYER
5
2b0
100
AcDbSymbolTableRecord
100
AcDbLayerTableRecord
2
SK1
70
0
62
4
6
CONTINUOUS
290
1
370
-3
390
0
0
LAYER
5
2b1
100
AcDbSymbolTableRecord
100
AcDbLayerTableRecord
2
SK6
70
0
62
5
6
CONTINUOUS
290
1
370
-3
390
0
0
LAYER
5
2b2
100
AcDbSymbolTableRecord
100
AcDbLayerTableRecord
2
SK2
70
0
62
7
6
CONTINUOUS
290
1
370
-3
390
0
0
ENDTAB
0
TABLE
2
STYLE
5
2c8
100
AcDbSymbolTable
0
STYLE
5
11
100
AcDbSymbolTableRecord
100
AcDbTextStyleTableRecord
2
Standard
3
txt
70
0
71
0
40
0
41
1
42
0
50
0
0
STYLE
5
219
100
AcDbSymbolTableRecord
100
AcDbTextStyleTableRecord
2
iso_b_vert
3
simplex.shx
70
0
71
0
40
0
41
1
42
0
50
0
0
STYLE
5
21A
100
AcDbSymbolTableRecord
100
AcDbTextStyleTableRecord
2
DWGDirectTextStyle
3
simplex
70
0
71
0
40
0
41
1
42
0
50
0
0
ENDTAB
0
TABLE
2
DIMSTYLE
5
2c9
100
AcDbSymbolTable
100
AcDbDimStyleTable
0
DIMSTYLE
105
27
100
AcDbSymbolTableRecord
100
AcDbDimStyleTableRecord
2
Standard
70
0
3
<>
41
0.18
42
0.0625
44
0.18
140
0.18
147
0.09
73
0
74
0
77
1
271
2
275
0
278
52
280
0
340
11
0
ENDTAB
0
TABLE
2
VIEW
5
2ca
100
AcDbSymbolTable
0
ENDTAB
0
TABLE
2
UCS
5
2cb
100
AcDbSymbolTable
0
ENDTAB
0
TABLE
2
APPID
5
2cc
100
AcDbSymbolTable
0
APPID
5
12
100
AcDbSymbolTableRecord
100
AcDbRegAppTableRecord
2
ACAD
70
0
0
ENDTAB
0
TABLE
2
BLOCK_RECORD
5
2cd
100
AcDbSymbolTable
0
BLOCK_RECORD
5
1F
100
AcDbSymbolTableRecord
100
AcDbBlockTableRecord
2
*Model_Space
340
0
70
0
0
BLOCK_RECORD
5
1B
100
AcDbSymbolTableRecord
100
AcDbBlockTableRecord
2
*Paper_Space
340
0
70
0
0
BLOCK_RECORD
5
23
100
AcDbSymbolTableRecord
100
AcDbBlockTableRecord
2
*Paper_Space0
340
0
70
0
0
BLOCK_RECORD
5
21C
100
AcDbSymbolTableRecord
100
AcDbBlockTableRecord
2
DimnDraft3D1
340
0
70
0
0
BLOCK_RECORD
5
226
100
AcDbSymbolTableRecord
100
AcDbBlockTableRecord
2
DimnDraft3D2
340
0
70
0
0
BLOCK_RECORD
5
230
100
AcDbSymbolTableRecord
100
AcDbBlockTableRecord
2
DimnDraft3D3
340
0
70
0
0
BLOCK_RECORD
5
23A
100
AcDbSymbolTableRecord
100
AcDbBlockTableRecord
2
DimnDraft3D4
340
0
70
0
0
BLOCK_RECORD
5
246
100
AcDbSymbolTableRecord
100
AcDbBlockTableRecord
2
DimnDraft3D5
340
0
70
0
0
ENDTAB
0
ENDSEC
0
SECTION
2
BLOCKS
0
BLOCK
5
20
100
AcDbEntity
8
0
100
AcDbBlockBegin
2
*Model_Space
70
0
10
0
20
0
30
0
3
*Model_Space
0
ENDBLK
5
21
100
AcDbEntity
8
0
100
AcDbBlockEnd
0
BLOCK
5
1C
100
AcDbEntity
8
0
100
AcDbBlockBegin
2
*Paper_Space
70
0
10
0
20
0
30
0
3
*Paper_Space
0
ENDBLK
5
1D
100
AcDbEntity
8
0
100
AcDbBlockEnd
0
BLOCK
5
24
100
AcDbEntity
8
0
100
AcDbBlockBegin
2
*Paper_Space0
70
0
10
0
20
0
30
0
3
*Paper_Space0
0
ENDBLK
5
25
100
AcDbEntity
8
0
100
AcDbBlockEnd
0
BLOCK
5
223
100
AcDbEntity
8
0
100
AcDbBlockBegin
2
DimnDraft3D1
70
0
10
0
20
0
30
0
3
DimnDraft3D1
0
MTEXT
5
21D
100
AcDbEntity
8
2
62
256
6
ByLayer
370
18
48
1
60
0
100
AcDbMText
10
164.207047
20
41.894611
30
0
210
0
220
0
230
1
1
\W0.7156;336.0
40
3
41
0
44
1.084337
50
0
71
7
72
5
7
iso_b_vert
0
LINE
5
21E
100
AcDbEntity
8
2
62
256
6
ByLayer
370
13
48
1
60
0
100
AcDbLine
10
336.000937
20
23.993116
30
0
11
336.000937
21
43.144611
31
0
39
0
210
0
220
0
230
1
0
LINE
5
21F
100
AcDbEntity
8
2
62
256
6
ByLayer
370
13
48
1
60
0
100
AcDbLine
10
0
20
26.7
30
0
11
0
21
43.144611
31
0
39
0
210
0
220
0
230
1
0
LINE
5
220
100
AcDbEntity
8
2
62
256
6
ByLayer
370
13
48
1
60
0
100
AcDbLine
10
336.000937
20
41.144611
30
0
11
0
21
41.144611
31
0
39
0
210
0
220
0
230
1
0
SOLID
5
221
100
AcDbEntity
8
2
62
256
6
ByLayer
370
13
48
1
60
0
100
AcDbTrace
10
336.000937
20
41.144611
30
0
11
332.825939
21
40.726614
31
0
12
332.825935
22
41.562608
32
0
13
336.000937
23
41.144611
33
0
39
0
210
0
220
0
230
1
0
SOLID
5
222
100
AcDbEntity
8
2
62
256
6
ByLayer
370
13
48
1
60
0
100
AcDbTrace
10
0
20
41.144611
30
0
11
3.174998
21
41.562608
31
0
12
3.175002
22
40.726614
32
0
13
0
23
41.144611
33
0
39
0
210
0
220
0
230
1
0
ENDBLK
5
224
100
AcDbEntity
8
0
100
AcDbBlockEnd
0
BLOCK
5
22D
100
AcDbEntity
8
0
100
AcDbBlockBegin
2
DimnDraft3D2
70
0
10
0
20
0
30
0
3
DimnDraft3D2
0
MTEXT
5
227
100
AcDbEntity
8
2
62
256
6
ByLayer
370
18
48
1
60
0
100
AcDbMText
10
363.416127
20
-11.285227
30
0
210
0
220
0
230
1
1
\W0.7409;Dc=44.0-56.0
40
3
41
0
44
1.084337
50
90
71
7
72
5
7
iso_b_vert
0
LINE
5
228
100
AcDbEntity
8
2
62
256
6
ByLayer
370
13
48
1
60
0
100
AcDbLine
10
338.000937
20
21.993116
30
0
11
366.166127
21
21.993116
31
0
39
0
210
0
220
0
230
1
0
LINE
5
229
100
AcDbEntity
8
2
62
256
6
ByLayer
370
13
48
1
60
0
100
AcDbLine
10
337.207836
20
-21.992518
30
0
11
366.166127
21
-21.992518
31
0
39
0
210
0
220
0
230
1
0
LINE
5
22A
100
AcDbEntity
8
2
62
256
6
ByLayer
370
13
48
1
60
0
100
AcDbLine
10
364.166127
20
21.993116
30
0
11
364.166127
21
-21.992518
31
0
39
0
210
0
220
0
230
1
0
SOLID
5
22B
100
AcDbEntity
8
2
62
256
6
ByLayer
370
13
48
1
60
0
100
AcDbTrace
10
364.166127
20
21.993116
30
0
11
364.584124
21
18.818117
31
0
12
363.748131
22
18.818114
32
0
13
364.166127
23
21.993116
33
0
39
0
210
0
220
0
230
1
0
SOLID
5
22C
100
AcDbEntity
8
2
62
256
6
ByLayer
370
13
48
1
60
0
100
AcDbTrace
10
364.166127
20
-21.992518
30
0
11
363.748131
21
-18.81752
31
0
12
364.584124
22
-18.817517
32
0
13
364.166127
23
-21.992518
33
0
39
0
210
0
220
0
230
1
0
ENDBLK
5
22E
100
AcDbEntity
8
0
100
AcDbBlockEnd
0
BLOCK
5
237
100
AcDbEntity
8
0
100
AcDbBlockBegin
2
DimnDraft3D3
70
0
10
0
20
0
30
0
3
DimnDraft3D3
0
MTEXT
5
231
100
AcDbEntity
8
2
62
256
6
ByLayer
370
18
48
1
60
0
100
AcDbMText
10
345.14726
20
10.081352
30
0
210
0
220
0
230
1
1
\W0.5899;90%%d
40
3
41
0
44
1.084337
50
45
71
7
72
5
7
iso_b_vert
0
LINE
5
232
100
AcDbEntity
8
2
62
256
6
ByLayer
370
13
48
1
60
0
100
AcDbLine
10
336.001586
20
10.958905
30
0
11
336.001586
21
4.353259
31
0
39
0
210
0
220
0
230
1
0
LINE
5
233
100
AcDbEntity
8
2
62
256
6
ByLayer
370
13
48
1
60
0
100
AcDbLine
10
340.000937
20
21.993116
30
0
11
353.641444
21
21.993116
31
0
39
0
210
0
220
0
230
1
0
ARC
5
234
100
AcDbEntity
8
2
62
256
6
ByLayer
370
13
48
1
60
0
100
AcDbCircle
39
0
10
336.001586
20
21.993116
30
0
40
15.6398571109906
210
0
220
0
230
1
100
AcDbArc
50
270
51
0
0
SOLID
5
235
100
AcDbEntity
8
2
62
256
6
ByLayer
370
13
48
1
60
0
100
AcDbTrace
10
336.001586
20
6.353259
30
0
11
339.151392
21
6.931239
31
0
12
339.19366
22
6.096315
32
0
13
336.001586
23
6.353259
33
0
39
0
210
0
220
0
230
1
0
SOLID
5
236
100
AcDbEntity
8
2
62
256
6
ByLayer
370
13
48
1
60
0
100
AcDbTrace
10
351.641444
20
21.993116
30
0
11
351.898387
21
18.801045
31
0
12
351.063463
22
18.843307
32
0
13
351.641444
23
21.993116
33
0
39
0
210
0
220
0
230
1
0
ENDBLK
5
238
100
AcDbEntity
8
0
100
AcDbBlockEnd
0
BLOCK
5
243
100
AcDbEntity
8
0
100
AcDbBlockBegin
2
DimnDraft3D4
70
0
10
0
20
0
30
0
3
DimnDraft3D4
0
MTEXT
5
23B
100
AcDbEntity
8
SK2
62
256
6
ByLayer
370
18
48
1
60
0
100
AcDbMText
10
-44.386113
20
1.164474
30
0
210
0
220
0
230
1
1
\W0.6337;50
40
3
41
0
44
1.084337
50
90
71
7
72
5
7
iso_b_vert
0
MTEXT
5
23D
100
AcDbEntity
8
SK2
62
256
6
ByLayer
370
18
48
1
60
0
100
AcDbMText
10
-44.386113
20
-3.248684
30
0
210
0
220
0
230
1
1
\W1.1719;%%c
40
3
41
0
44
1.084337
50
90
71
7
72
5
7
iso_b_vert
0
LINE
5
23E
100
AcDbEntity
8
SK2
62
256
6
ByLayer
370
13
48
1
60
0
100
AcDbLine
10
-1.7
20
25
30
0
11
-45.636113
21
25
31
0
39
0
210
0
220
0
230
1
0
LINE
5
23F
100
AcDbEntity
8
SK2
62
256
6
ByLayer
370
13
48
1
60
0
100
AcDbLine
10
-1.7
20
-25
30
0
11
-45.636113
21
-25
31
0
39
0
210
0
220
0
230
1
0
LINE
5
240
100
AcDbEntity
8
SK2
62
256
6
ByLayer
370
13
48
1
60
0
100
AcDbLine
10
-43.636113
20
25
30
0
11
-43.636113
21
-25
31
0
39
0
210
0
220
0
230
1
0
SOLID
5
241
100
AcDbEntity
8
SK2
62
256
6
ByLayer
370
13
48
1
60
0
100
AcDbTrace
10
-43.636113
20
25
30
0
11
-43.218116
21
21.825002
31
0
12
-44.054109
22
21.824998
32
0
13
-43.636113
23
25
33
0
39
0
210
0
220
0
230
1
0
SOLID
5
242
100
AcDbEntity
8
SK2
62
256
6
ByLayer
370
13
48
1
60
0
100
AcDbTrace
10
-43.636113
20
-25
30
0
11
-44.054109
21
-21.825002
31
0
12
-43.218116
22
-21.824998
32
0
13
-43.636113
23
-25
33
0
39
0
210
0
220
0
230
1
0
ENDBLK
5
244
100
AcDbEntity
8
0
100
AcDbBlockEnd
0
BLOCK
5
24D
100
AcDbEntity
8
0
100
AcDbBlockBegin
2
DimnDraft3D5
70
0
10
0
20
0
30
0
3
DimnDraft3D5
0
MTEXT
5
247
100
AcDbEntity
8
2
62
256
6
ByLayer
370
18
48
1
60
0
100
AcDbMText
10
191.791726
20
31.611151
30
0
210
0
220
0
230
1
1
\W0.7395;LU = 6.0 X Dc
40
3
41
0
44
1.084337
50
0
71
7
72
5
7
iso_b_vert
0
LINE
5
248
100
AcDbEntity
8
2
62
256
6
ByLayer
370
13
48
1
60
0
100
AcDbLine
10
336.000937
20
23.993116
30
0
11
336.000937
21
32.861151
31
0
39
0
210
0
220
0
230
1
0
LINE
5
249
100
AcDbEntity
8
2
62
256
6
ByLayer
370
13
48
1
60
0
100
AcDbLine
10
72.000937
20
23.993116
30
0
11
72.000937
21
32.861151
31
0
39
0
210
0
220
0
230
1
0
LINE
5
24A
100
AcDbEntity
8
2
62
256
6
ByLayer
370
13
48
1
60
0
100
AcDbLine
10
336.000937
20
30.861151
30
0
11
72.000937
21
30.861151
31
0
39
0
210
0
220
0
230
1
0
SOLID
5
24B
100
AcDbEntity
8
2
62
256
6
ByLayer
370
13
48
1
60
0
100
AcDbTrace
10
336.000937
20
30.861151
30
0
11
332.825939
21
30.443155
31
0
12
332.825935
22
31.279148
32
0
13
336.000937
23
30.861151
33
0
39
0
210
0
220
0
230
1
0
SOLID
5
24C
100
AcDbEntity
8
2
62
256
6
ByLayer
370
13
48
1
60
0
100
AcDbTrace
10
72.000937
20
30.861151
30
0
11
75.175935
21
31.279148
31
0
12
75.175939
22
30.443155
32
0
13
72.000937
23
30.861151
33
0
39
0
210
0
220
0
230
1
0
ENDBLK
5
24E
100
AcDbEntity
8
0
100
AcDbBlockEnd
0
ENDSEC
0
SECTION
2
ENTITIES
0
ARC
5
138
100
AcDbEntity
8
1
62
256
6
ByLayer
370
18
48
1
60
0
100
AcDbCircle
39
0
10
310.8
20
19.8
30
0
40
1.8
210
0
220
0
230
1
100
AcDbArc
50
189.271478
51
270
0
ARC
5
13A
100
AcDbEntity
8
1
62
256
6
ByLayer
370
18
48
1
60
0
100
AcDbCircle
39
0
10
-72.143899
20
-23
30
0
40
3
210
0
220
0
230
-1
100
AcDbArc
50
84.507675
51
90
0
ARC
5
13B
100
AcDbEntity
8
1
62
256
6
ByLayer
370
18
48
1
60
0
100
AcDbCircle
39
0
10
307.7
20
-19.7
30
0
40
0.3
210
0
220
0
230
1
100
AcDbArc
50
270
51
0
0
ARC
5
13C
100
AcDbEntity
8
1
62
256
6
ByLayer
370
18
48
1
60
0
100
AcDbCircle
39
0
10
-72.143899
20
23
30
0
40
3
210
0
220
0
230
-1
100
AcDbArc
50
270
51
275.492325
0
ARC
5
13D
100
AcDbEntity
8
1
62
256
6
ByLayer
370
18
48
1
60
0
100
AcDbCircle
39
0
10
-334.480274
20
3.800141
30
0
40
4.97868793636581
210
0
220
0
230
-1
100
AcDbArc
50
360
51
8.431736
0
ARC
5
13E
100
AcDbEntity
8
1
62
256
6
ByLayer
370
18
48
1
60
0
100
AcDbCircle
39
0
10
-334.480274
20
3.800141
30
0
40
4.97868793636581
210
0
220
0
230
-1
100
AcDbArc
50
14.650017
51
47.303793
0
ARC
5
13F
100
AcDbEntity
8
1
62
256
6
ByLayer
370
18
48
1
60
0
100
AcDbCircle
39
0
10
307.7
20
19.7
30
0
40
0.3
210
0
220
0
230
1
100
AcDbArc
50
0
51
90
0
ARC
5
140
100
AcDbEntity
8
1
62
256
6
ByLayer
370
18
48
1
60
0
100
AcDbCircle
39
0
10
312
20
-16.5
30
0
40
0.836792319645751
210
0
220
0
230
1
100
AcDbArc
50
121.960057
51
103.08529
0
ARC
5
141
100
AcDbEntity
8
1
62
256
6
ByLayer
370
18
48
1
60
0
100
AcDbCircle
39
0
10
312
20
-16.5
30
0
40
0.599999999999999
210
0
220
0
230
1
100
AcDbArc
50
119.753141
51
105.292206
0
ARC
5
142
100
AcDbEntity
8
1
62
256
6
ByLayer
370
18
48
1
60
0
100
AcDbCircle
39
0
10
-312
20
16.5
30
0
40
0.6
210
0
220
0
230
-1
100
AcDbArc
50
97.230467
51
82.769533
0
ARC
5
143
100
AcDbEntity
8
1
62
256
6
ByLayer
370
18
48
1
60
0
100
AcDbCircle
39
0
10
-312
20
16.5
30
0
40
0.836792319645751
210
0
220
0
230
-1
100
AcDbArc
50
99.437384
51
80.562616
0
ARC
5
144
100
AcDbEntity
8
1
62
256
6
ByLayer
370
18
48
1
60
0
100
AcDbCircle
39
0
10
-334.480274
20
3.800141
30
0
40
4.97868793645323
210
0
220
0
230
-1
100
AcDbArc
50
59.098479
51
76
0
CIRCLE
5
137
100
AcDbEntity
8
1
62
256
6
ByLayer
370
18
48
1
60
0
100
AcDbCircle
10
-312
20
-16.5
30
0
40
1
39
0
210
0
220
0
230
-1
0
CIRCLE
5
139
100
AcDbEntity
8
1
62
256
6
ByLayer
370
18
48
1
60
0
100
AcDbCircle
10
-312
20
16.5
30
0
40
1
39
0
210
0
220
0
230
-1
0
ELLIPSE
5
145
100
AcDbEntity
8
1
62
256
6
ByLayer
370
13
48
1
60
0
100
AcDbEllipse
10
302
20
-18.543677
30
0
11
1
21
0
31
0
210
0
220
0
230
1
40
0.374607
41
0
42
6.28318530717959
0
ELLIPSE
5
146
100
AcDbEntity
8
1
62
256
6
ByLayer
370
18
48
1
60
0
100
AcDbEllipse
10
332.826586
20
17.078778
30
0
11
1.03505
21
0
31
0
210
0
220
0
230
1
40
0.999033
41
2.61799387799147
42
-2.61799387799148
0
ELLIPSE
5
147
100
AcDbEntity
8
1
62
256
6
ByLayer
370
18
48
1
60
0
100
AcDbEllipse
10
332.826586
20
17.078778
30
0
11
1.03505
21
0
31
0
210
0
220
0
230
1
40
0.999033
41
-2.61799387799148
42
-1.57079632679495
0
ELLIPSE
5
148
100
AcDbEntity
8
1
62
256
6
ByLayer
370
18
48
1
60
0
100
AcDbEllipse
10
332.826586
20
17.078778
30
0
11
1.03505
21
0
31
0
210
0
220
0
230
1
40
0.999033
41
-1.57079632679495
42
-0.523598775598337
0
ELLIPSE
5
149
100
AcDbEntity
8
1
62
256
6
ByLayer
370
18
48
1
60
0
100
AcDbEllipse
10
332.826586
20
17.078778
30
0
11
1.03505
21
0
31
0
210
0
220
0
230
1
40
0.999033
41
-0.523598775598337
42
0.52359877559825
0
ELLIPSE
5
14A
100
AcDbEntity
8
1
62
256
6
ByLayer
370
18
48
1
60
0
100
AcDbEllipse
10
332.826586
20
17.078778
30
0
11
1.03505
21
0
31
0
210
0
220
0
230
1
40
0.999033
41
0.52359877559825
42
1.57079632679484
0
ELLIPSE
5
14B
100
AcDbEntity
8
1
62
256
6
ByLayer
370
18
48
1
60
0
100
AcDbEllipse
10
332.826586
20
17.078778
30
0
11
-1.3
21
1.59198825996909E-16
31
0
210
0
220
0
230
1
40
0.999033
41
0
42
6.28318530717959
0
ELLIPSE
5
14C
100
AcDbEntity
8
1
62
256
6
ByLayer
370
18
48
1
60
0
100
AcDbEllipse
10
332.826586
20
17.078778
30
0
11
1.03505
21
0
31
0
210
0
220
0
230
1
40
0.999033
41
1.57079632679484
42
2.61799387799147
0
ELLIPSE
5
14D
100
AcDbEntity
8
1
62
256
6
ByLayer
370
18
48
1
60
0
100
AcDbEllipse
10
332.826586
20
17.071131
30
0
11
-1.725
21
2.1124459603436E-16
31
0
210
0
220
0
230
1
40
0.999033
41
0
42
6.28318530717959
0
ELLIPSE
5
14E
100
AcDbEntity
8
1
62
256
6
ByLayer
370
18
48
1
60
0
100
AcDbEllipse
10
332.826586
20
17.03481
30
0
11
0.7912
21
0
31
0
210
0
220
0
230
1
40
0.999033
41
-1.95375916110559
42
-1.16657741158882
0
ELLIPSE
5
14F
100
AcDbEntity
8
1
62
256
6
ByLayer
370
18
48
1
60
0
100
AcDbEllipse
10
332.826586
20
17.03481
30
0
11
-0.791199999999999
21
9.68908547144264E-17
31
0
210
0
220
0
230
1
40
0.999033
41
-2.09439510239328
42
-1.04719755119667
0
ELLIPSE
5
150
100
AcDbEntity
8
1
62
256
6
ByLayer
370
18
48
1
60
0
100
AcDbEllipse
10
332.826586
20
17.03481
30
0
11
0.7912
21
0
31
0
210
0
220
0
230
1
40
0.999033
41
0.0820906793062924
42
1.04719755119659
0
ELLIPSE
5
151
100
AcDbEntity
8
1
62
256
6
ByLayer
370
18
48
1
60
0
100
AcDbEllipse
10
332.826586
20
17.03481
30
0
11
0.7912
21
0
31
0
210
0
220
0
230
1
40
0.999033
41
-0.871497499944778
42
0
0
ELLIPSE
5
152
100
AcDbEntity
8
1
62
256
6
ByLayer
370
18
48
1
60
0
100
AcDbEllipse
10
332.826586
20
17.03481
30
0
11
0.7912
21
0
31
0
210
0
220
0
230
1
40
0.999033
41
3.14159265358979
42
-2.24141241675971
0
ELLIPSE
5
153
100
AcDbEntity
8
1
62
256
6
ByLayer
370
18
48
1
60
0
100
AcDbEllipse
10
332.826586
20
17.03481
30
0
11
0.7912
21
0
31
0
210
0
220
0
230
1
40
0.999033
41
2.09439510239312
42
3.05906044806313
0
ELLIPSE
5
154
100
AcDbEntity
8
1
62
256
6
ByLayer
370
18
48
1
60
0
100
AcDbEllipse
10
332.826586
20
17.039207
30
0
11
-1.725
21
2.1124459603436E-16
31
0
210
0
220
0
230
1
40
0.999033
41
0
42
3.14156000678613
0
ELLIPSE
5
155
100
AcDbEntity
8
1
62
256
6
ByLayer
370
13
48
1
60
0
100
AcDbEllipse
10
302
20
7.492132
30
0
11
-1
21
1.22460635382238E-16
31
0
210
0
220
0
230
1
40
0.927184
41
0
42
6.28318530717959
0
ELLIPSE
5
156
100
AcDbEntity
8
1
62
256
6
ByLayer
370
18
48
1
60
0
100
AcDbEllipse
10
332.826586
20
-16.503442
30
0
11
1.25
21
0
31
0
210
0
220
0
230
1
40
0.99543
41
2.72968438344162
42
-3.14155971523252
0
ELLIPSE
5
157
100
AcDbEntity
8
1
62
256
6
ByLayer
370
13
48
1
60
0
100
AcDbEllipse
10
333.26291
20
4.501005
30
0
11
-9.28557767785818E-16
21
-5.055
31
0
210
0
220
0
230
1
40
0.104528
41
-2.49521008927319
42
-0.674951707788316
0
ELLIPSE
5
158
100
AcDbEntity
8
1
62
256
6
ByLayer
370
18
48
1
60
0
100
AcDbEllipse
10
333.859623
20
4.501005
30
0
11
-5.38754427719375E-16
21
-2.9329393674833
31
0
210
0
220
0
230
1
40
0.104528
41
-1.5707963267949
42
-0.523598775598172
0
ELLIPSE
5
159
100
AcDbEntity
8
1
62
256
6
ByLayer
370
18
48
1
60
0
100
AcDbEllipse
10
333.859623
20
4.501005
30
0
11
-5.38754427719375E-16
21
-2.9329393674833
31
0
210
0
220
0
230
1
40
0.104528
41
-0.523598775598172
42
0.523598775598329
0
ELLIPSE
5
15A
100
AcDbEntity
8
1
62
256
6
ByLayer
370
18
48
1
60
0
100
AcDbEllipse
10
333.859623
20
4.501005
30
0
11
-5.38754427719375E-16
21
-2.9329393674833
31
0
210
0
220
0
230
1
40
0.104528
41
0.523598775598329
42
1.5707963267949
0
ELLIPSE
5
15B
100
AcDbEntity
8
1
62
256
6
ByLayer
370
18
48
1
60
0
100
AcDbEllipse
10
333.859623
20
4.501005
30
0
11
-5.38754427719375E-16
21
-2.9329393674833
31
0
210
0
220
0
230
1
40
0.104528
41
1.5707963267949
42
2.61799387799146
0
ELLIPSE
5
15C
100
AcDbEntity
8
1
62
256
6
ByLayer
370
18
48
1
60
0
100
AcDbEllipse
10
333.859623
20
4.501005
30
0
11
-5.38754427719375E-16
21
-2.9329393674833
31
0
210
0
220
0
230
1
40
0.104528
41
2.61799387799146
42
-2.61799387799162
0
ELLIPSE
5
15D
100
AcDbEntity
8
1
62
256
6
ByLayer
370
18
48
1
60
0
100
AcDbEllipse
10
333.859623
20
4.501005
30
0
11
-5.38754427719375E-16
21
-2.9329393674833
31
0
210
0
220
0
230
1
40
0.104528
41
-2.61799387799162
42
-1.5707963267949
0
ELLIPSE
5
15E
100
AcDbEntity
8
1
62
256
6
ByLayer
370
18
48
1
60
0
100
AcDbEllipse
10
332.576115
20
-16.267539
30
0
11
1.5
21
0
31
0
210
0
220
0
230
1
40
0.99543
41
1.5707963267949
42
3.14159265358977
0
ELLIPSE
5
15F
100
AcDbEntity
8
1
62
256
6
ByLayer
370
18
48
1
60
0
100
AcDbEllipse
10
332.576115
20
-16.267539
30
0
11
-1.02499999999999
21
1.25522151266792E-16
31
0
210
0
220
0
230
1
40
0.99543
41
0
42
6.28318530717959
0
ELLIPSE
5
160
100
AcDbEntity
8
1
62
256
6
ByLayer
370
18
48
1
60
0
100
AcDbEllipse
10
327.136586
20
-9.360734
30
0
11
12
21
0
31
0
210
0
220
0
230
1
40
0.99543
41
-1.61540316141724
42
-1.5707963267949
0
ELLIPSE
5
161
100
AcDbEntity
8
1
62
256
6
ByLayer
370
18
48
1
60
0
100
AcDbEllipse
10
334.836586
20
-20.526454
30
0
11
0.499999999999998
21
0
31
0
210
0
220
0
230
1
40
0.99543
41
-1.5707963267949
42
0
0
ELLIPSE
5
162
100
AcDbEntity
8
1
62
256
6
ByLayer
370
18
48
1
60
0
100
AcDbEllipse
10
327.543214
20
17.338324
30
0
11
1.375
21
0
31
0
210
0
220
0
230
1
40
0.999033
41
1.9610194222788
42
-3.14158864938092
0
ELLIPSE
5
163
100
AcDbEntity
8
1
62
256
6
ByLayer
370
18
48
1
60
0
100
AcDbEllipse
10
327.543214
20
17.463633
30
0
11
-1.375
21
1.68383373650577E-16
31
0
210
0
220
0
230
1
40
0.999033
41
1.00102241647977
42
1.9539942465317
0
ELLIPSE
5
164
100
AcDbEntity
8
1
62
256
6
ByLayer
370
18
48
1
60
0
100
AcDbEllipse
10
327.543214
20
17.463633
30
0
11
-1.375
21
1.68383373650577E-16
31
0
210
0
220
0
230
1
40
0.999033
41
-1.180573231311
42
-1.00102241647977
0
ELLIPSE
5
165
100
AcDbEntity
8
1
62
256
6
ByLayer
370
18
48
1
60
0
100
AcDbEllipse
10
328.165535
20
17.818975
30
0
11
1.46656669475825
21
0
31
0
210
0
220
0
230
1
40
0.999033
41
1.04719755119663
42
2.46703446408985
0
ELLIPSE
5
166
100
AcDbEntity
8
1
62
256
6
ByLayer
370
18
48
1
60
0
100
AcDbEllipse
10
327.336586
20
9.326964
30
0
11
-12
21
1.46952762458685E-15
31
0
210
0
220
0
230
1
40
0.999033
41
-1.5707963267949
42
-1.52618949217255
0
ELLIPSE
5
167
100
AcDbEntity
8
1
62
256
6
ByLayer
370
18
48
1
60
0
100
AcDbEllipse
10
328.165535
20
17.693666
30
0
11
1.46656669475825
21
0
31
0
210
0
220
0
230
1
40
0.999033
41
1.04719755119663
42
2.46703446408985
0
ELLIPSE
5
168
100
AcDbEntity
8
1
62
256
6
ByLayer
370
18
48
1
60
0
100
AcDbEllipse
10
327.543214
20
17.333927
30
0
11
-1.275
21
1.56137310112353E-16
31
0
210
0
220
0
230
1
40
0.999033
41
-1.20087964837098
42
0.767919948099554
0
ELLIPSE
5
169
100
AcDbEntity
8
1
62
256
6
ByLayer
370
18
48
1
60
0
100
AcDbEllipse
10
328.165535
20
17.689269
30
0
11
-1.36656669475825
21
1.673506257323E-16
31
0
210
0
220
0
230
1
40
0.999033
41
-2.0943951023932
42
-0.655566111584512
0
ELLIPSE
5
16A
100
AcDbEntity
8
1
62
256
6
ByLayer
370
18
48
1
60
0
100
AcDbEllipse
10
335.207836
20
21.19982
30
0
11
-0.793749999999994
21
9.72031293346505E-17
31
0
210
0
220
0
230
1
40
0.999033
41
-3.14159265358979
42
-1.04719755119656
0
ELLIPSE
5
16B
100
AcDbEntity
8
1
62
256
6
ByLayer
370
18
48
1
60
0
100
AcDbEllipse
10
335.207836
20
12.958905
30
0
11
-0.793749999999994
21
9.72031293346505E-17
31
0
210
0
220
0
230
1
40
0.999033
41
1.04719755119656
42
3.14159265358979
0
ELLIPSE
5
16C
100
AcDbEntity
8
1
62
256
6
ByLayer
370
18
48
1
60
0
100
AcDbEllipse
10
328.064086
20
17.079362
30
0
11
-0.793749999999994
21
9.72031293346505E-17
31
0
210
0
220
0
230
1
40
0.999033
41
-1.04719755119656
42
1.04719755119656
0
ELLIPSE
5
16D
100
AcDbEntity
8
1
62
256
6
ByLayer
370
18
48
1
60
0
100
AcDbEllipse
10
332.826586
20
17.079362
30
0
11
-1.9225502321216
21
2.3543672297988E-16
31
0
210
0
220
0
230
1
40
0.999033
41
0
42
6.28318530717959
0
ELLIPSE
5
16E
100
AcDbEntity
8
1
62
256
6
ByLayer
370
18
48
1
60
0
100
AcDbEllipse
10
335.207836
20
-21.202396
30
0
11
0.793750000000015
21
0
31
0
210
0
220
0
230
1
40
0.99543
41
-2.09439510239314
42
0
0
ELLIPSE
5
16F
100
AcDbEntity
8
1
62
256
6
ByLayer
370
18
48
1
60
0
100
AcDbEllipse
10
335.207836
20
-20.899189
30
0
11
-0.403909019133296
21
4.94629551196798E-17
31
0
210
0
220
0
230
1
40
0.99543
41
1.04719755119664
42
3.14159265358979
0
ELLIPSE
5
170
100
AcDbEntity
8
1
62
256
6
ByLayer
370
18
48
1
60
0
100
AcDbEllipse
10
335.207836
20
-12.687998
30
0
11
-0.403909019133296
21
4.94629551196798E-17
31
0
210
0
220
0
230
1
40
0.99543
41
3.14159265358979
42
-1.89523151399976
0
ELLIPSE
5
171
100
AcDbEntity
8
1
62
256
6
ByLayer
370
13
48
1
60
0
100
AcDbEllipse
10
332.826586
20
17.044967
30
0
11
-1.80474984822621
21
2.21010813119779E-16
31
0
210
0
220
0
230
1
40
0.999033
41
0
42
6.28318530717959
0
ELLIPSE
5
172
100
AcDbEntity
8
1
62
256
6
ByLayer
370
18
48
1
60
0
100
AcDbEllipse
10
332.826586
20
17.055426
30
0
11
1.88448184300129
21
0
31
0
210
0
220
0
230
1
40
0.999033
41
0
42
6.28318530717959
0
ELLIPSE
5
173
100
AcDbEntity
8
1
62
256
6
ByLayer
370
18
48
1
60
0
100
AcDbEllipse
10
327.692492
20
-4.500755
30
0
11
-1.14806845670848E-15
21
-6.25
31
0
210
0
220
0
230
1
40
0.104528
41
0.452374788353122
42
2.67210647448644
0
ELLIPSE
5
174
100
AcDbEntity
8
1
62
256
6
ByLayer
370
18
48
1
60
0
100
AcDbEllipse
10
333.859623
20
4.501005
30
0
11
-7.1642764962708E-16
21
4.455
31
0
210
0
220
0
230
1
40
0.104528
41
0.312097854343195
42
2.89026513686687
0
ELLIPSE
5
175
100
AcDbEntity
8
1
62
256
6
ByLayer
370
13
48
1
60
0
100
AcDbEllipse
10
333.859623
20
4.501005
30
0
11
-7.1642764962708E-16
21
4.455
31
0
210
0
220
0
230
1
40
0.104528
41
2.89026513686687
42
-2.74162885607953
0
ELLIPSE
5
176
100
AcDbEntity
8
1
62
256
6
ByLayer
370
18
48
1
60
0
100
AcDbEllipse
10
333.859623
20
4.501005
30
0
11
-7.1642764962708E-16
21
4.455
31
0
210
0
220
0
230
1
40
0.104528
41
-2.7416288560795
42
-0.337427031232388
0
ELLIPSE
5
177
100
AcDbEntity
8
1
62
256
6
ByLayer
370
13
48
1
60
0
100
AcDbEllipse
10
333.859623
20
4.501005
30
0
11
-7.1642764962708E-16
21
4.455
31
0
210
0
220
0
230
1
40
0.104528
41
-0.337426381434208
42
-0.259966726779947
0
ELLIPSE
5
178
100
AcDbEntity
8
1
62
256
6
ByLayer
370
18
48
1
60
0
100
AcDbEllipse
10
332.576115
20
-16.680771
30
0
11
-1.025
21
1.25522151266794E-16
31
0
210
0
220
0
230
1
40
0.99543
41
-0.228649397528547
42
-0.204007344620027
0
ELLIPSE
5
179
100
AcDbEntity
8
1
62
256
6
ByLayer
370
18
48
1
60
0
100
AcDbEllipse
10
333.659623
20
-4.500755
30
0
11
-7.1642764962708E-16
21
4.455
31
0
210
0
220
0
230
1
40
0.104528
41
-2.61863010940497
42
-0.537226694458657
0
ELLIPSE
5
17A
100
AcDbEntity
8
1
62
256
6
ByLayer
370
13
48
1
60
0
100
AcDbEllipse
10
333.06291
20
-4.500755
30
0
11
-9.28557767785818E-16
21
-5.055
31
0
210
0
220
0
230
1
40
0.104528
41
2.60436568170893
42
3.14157797588633
0
ELLIPSE
5
17B
100
AcDbEntity
8
1
62
256
6
ByLayer
370
13
48
1
60
0
100
AcDbEllipse
10
333.06291
20
-4.500755
30
0
11
-9.28557767785818E-16
21
-5.055
31
0
210
0
220
0
230
1
40
0.104528
41
0
42
2.60436587632288
0
ELLIPSE
5
17C
100
AcDbEntity
8
1
62
256
6
ByLayer
370
18
48
1
60
0
100
AcDbEllipse
10
335.207836
20
-12.991205
30
0
11
0.793750000000015
21
0
31
0
210
0
220
0
230
1
40
0.99543
41
0
42
1.40785941763223
0
ELLIPSE
5
17D
100
AcDbEntity
8
1
62
256
6
ByLayer
370
18
48
1
60
0
100
AcDbEllipse
10
332.576115
20
-16.473979
30
0
11
1.02499999999999
21
0
31
0
210
0
220
0
230
1
40
0.99543
41
0.101314151250436
42
1.14435580373859
0
ELLIPSE
5
17E
100
AcDbEntity
8
1
62
256
6
ByLayer
370
18
48
1
60
0
100
AcDbEllipse
10
332.826586
20
-16.474793
30
0
11
-0.95
21
1.16337603613126E-16
31
0
210
0
220
0
230
1
40
0.99543
41
-1.75454637375399
42
0
0
ELLIPSE
5
17F
100
AcDbEntity
8
1
62
256
6
ByLayer
370
18
48
1
60
0
100
AcDbEllipse
10
332.826586
20
-16.474793
30
0
11
-0.95
21
1.16337603613126E-16
31
0
210
0
220
0
230
1
40
0.99543
41
0
42
0.945259163127093
0
ELLIPSE
5
180
100
AcDbEntity
8
1
62
256
6
ByLayer
370
18
48
1
60
0
100
AcDbEllipse
10
333.617441
20
16.578652
30
0
11
0.120909794987999
21
0.209081381528584
31
0
210
0
220
0
230
-1
40
0.504381
41
-0.195609509117103
42
0.70711856434246
0
ELLIPSE
5
181
100
AcDbEntity
8
1
62
256
6
ByLayer
370
18
48
1
60
0
100
AcDbEllipse
10
332.035732
20
16.578652
30
0
11
0.12090979498799
21
-0.20908138152855
31
0
210
0
220
0
230
-1
40
0.504381
41
2.53821630439994
42
-2.94598314447303
0
ELLIPSE
5
182
100
AcDbEntity
8
1
62
256
6
ByLayer
370
18
48
1
60
0
100
AcDbEllipse
10
333.617441
20
17.490969
30
0
11
0.120909794988009
21
-0.209081381528559
31
0
210
0
220
0
230
-1
40
0.504381
41
2.94711679610843
42
-0.603375853468689
0
ELLIPSE
5
183
100
AcDbEntity
8
1
62
256
6
ByLayer
370
18
48
1
60
0
100
AcDbEllipse
10
332.035732
20
17.490969
30
0
11
0.120909794987993
21
0.209081381528565
31
0
210
0
220
0
230
-1
40
0.504381
41
-2.43447455133087
42
0.19447585748139
0
ELLIPSE
5
184
100
AcDbEntity
8
1
62
256
6
ByLayer
370
18
48
1
60
0
100
AcDbEllipse
10
332.826586
20
17.947127
30
0
11
0.241700000000009
21
2.44271459613416E-16
31
0
210
0
220
0
230
-1
40
0.50365
41
2.94654997029109
42
0.195042683298701
0
ELLIPSE
5
185
100
AcDbEntity
8
1
62
256
6
ByLayer
370
18
48
1
60
0
100
AcDbEllipse
10
331.913536
20
17.03481
30
0
11
-1.47850558305527E-17
21
0.241466260311388
31
0
210
0
220
0
230
-1
40
0.504625
41
1.5707963267949
42
2.80244658853852
0
ELLIPSE
5
186
100
AcDbEntity
8
1
62
256
6
ByLayer
370
18
48
1
60
0
100
AcDbEllipse
10
333.739636
20
17.03481
30
0
11
-1.4785055830599E-17
21
0.241466260312144
31
0
210
0
220
0
230
-1
40
0.504625
41
-2.80244658853415
42
-1.5707963267949
0
ELLIPSE
5
187
100
AcDbEntity
8
1
62
256
6
ByLayer
370
18
48
1
60
0
100
AcDbEllipse
10
333.283111
20
17.82477
30
0
11
0.209352784297089
21
-0.12067345140078
31
0
210
0
220
0
230
-1
40
0.503893
41
0.339711969443284
42
1.57136223120858
0
ELLIPSE
5
188
100
AcDbEntity
8
1
62
256
6
ByLayer
370
18
48
1
60
0
100
AcDbEllipse
10
333.283111
20
17.82477
30
0
11
0.209352784302341
21
-0.120673451406492
31
0
210
0
220
0
230
-1
40
0.503893
41
1.57136223118574
42
2.80301249291958
0
ELLIPSE
5
189
100
AcDbEntity
8
1
62
256
6
ByLayer
370
18
48
1
60
0
100
AcDbEllipse
10
389.584282
20
0
30
0
11
80.5842822809372
21
8.14416228988968E-14
31
0
210
0
220
0
230
-1
40
0.248187
41
2.58730387758346
42
-2.67482731454252
0
ELLIPSE
5
18A
100
AcDbEntity
8
1
62
256
6
ByLayer
370
18
48
1
60
0
100
AcDbEllipse
10
323.42519
20
0
30
0
11
-1.22460635381737E-15
21
19.9999999999183
31
0
210
0
220
0
230
-1
40
0.138761
41
-2.56039041737033
42
-2.1250851027998
0
ELLIPSE
5
18B
100
AcDbEntity
8
1
62
256
6
ByLayer
370
18
48
1
60
0
100
AcDbEllipse
10
-1.056258
20
0
30
0
11
11.7092723497283
21
24.6771864409388
31
0
210
0
220
0
230
-1
40
0.341999
41
0.167213071908998
42
1.08183270048921
0
ELLIPSE
5
18C
100
AcDbEntity
8
1
62
256
6
ByLayer
370
18
48
1
60
0
100
AcDbEllipse
10
21.056258
20
0
30
0
11
11.7092723497279
21
-24.6771864409383
31
0
210
0
220
0
230
-1
40
0.341999
41
2.05975995310057
42
2.97437958168079
0
ELLIPSE
5
18D
100
AcDbEntity
8
1
62
256
6
ByLayer
370
18
48
1
60
0
100
AcDbEllipse
10
-1.056258
20
0
30
0
11
11.7092723497291
21
-24.6771864409398
31
0
210
0
220
0
230
-1
40
0.341999
41
-1.08183270048918
42
-0.16721307190899
0
ELLIPSE
5
18E
100
AcDbEntity
8
1
62
256
6
ByLayer
370
18
48
1
60
0
100
AcDbEllipse
10
21.056258
20
0
30
0
11
11.7092723497273
21
24.6771864409374
31
0
210
0
220
0
230
-1
40
0.341999
41
-2.97437958168079
42
-2.05975995310054
0
ELLIPSE
5
18F
100
AcDbEntity
8
1
62
256
6
ByLayer
370
18
48
1
60
0
100
AcDbEllipse
10
336.330147
20
6.755158
30
0
11
0.309490672472735
21
-30.4966527657491
31
0
210
0
220
0
230
-1
40
0.104613
41
0.448577246760931
42
0.572608253705514
0
ELLIPSE
5
190
100
AcDbEntity
8
1
62
256
6
ByLayer
370
18
48
1
60
0
100
AcDbEllipse
10
200.963148
20
6.755169
30
0
11
132.094109891985
21
-30.3709694030312
31
0
210
0
220
0
230
-1
40
0.020941
41
-0.405351503865161
42
-0.368106839754715
0
ELLIPSE
5
191
100
AcDbEntity
8
1
62
256
6
ByLayer
370
18
48
1
60
0
100
AcDbEllipse
10
346.590338
20
6.755158
30
0
11
0.64817867286781
21
-30.4930350386669
31
0
210
0
220
0
230
-1
40
0.726424
41
0.789501728610668
42
0.944496097819206
0
ELLIPSE
5
192
100
AcDbEntity
8
1
62
256
6
ByLayer
370
18
48
1
60
0
100
AcDbEllipse
10
324.603437
20
6.755158
30
0
11
-1.86732080138647E-15
21
30.4966701431523
31
0
210
0
220
0
230
-1
40
0.138761
41
-2.44906362718329
42
-2.15155311169998
0
ELLIPSE
5
193
100
AcDbEntity
8
1
62
256
6
ByLayer
370
18
48
1
60
0
100
AcDbEllipse
10
325.308282
20
6.755157
30
0
11
1.0075096872114E-07
21
30.4966688046237
31
0
210
0
220
0
230
-1
40
0.105104
41
2.15155309480919
42
2.21253663162574
0
ELLIPSE
5
194
100
AcDbEntity
8
1
62
256
6
ByLayer
370
18
48
1
60
0
100
AcDbEllipse
10
324.639716
20
6.755158
30
0
11
-1.86732080144567E-15
21
30.4966701441191
31
0
210
0
220
0
230
-1
40
0.141431
41
-2.64454285753204
42
-2.4490570174673
0
ELLIPSE
5
195
100
AcDbEntity
8
1
62
256
6
ByLayer
370
18
48
1
60
0
100
AcDbEllipse
10
332.576115
20
-16.039941
30
0
11
1.08217892941434
21
-1.18478434173805
31
0
210
0
220
0
230
-1
40
0.876696
41
2.95448500115915
42
-2.3356948652461
0
ELLIPSE
5
196
100
AcDbEntity
8
1
62
256
6
ByLayer
370
18
48
1
60
0
100
AcDbEllipse
10
334.198801
20
-4.999857
30
0
11
0.188546861416785
21
-6.49828992300073
31
0
210
0
220
0
230
-1
40
0.790737
41
-0.0779870765376188
42
0.0229390820689382
0
ELLIPSE
5
197
100
AcDbEntity
8
1
62
256
6
ByLayer
370
18
48
1
60
0
100
AcDbEllipse
10
334.651806
20
-4.999857
30
0
11
0.066722509108747
21
-6.49999612593738
31
0
210
0
220
0
230
-1
40
0.106359
41
-0.873885758180314
42
-0.0998343854879983
0
ELLIPSE
5
198
100
AcDbEntity
8
1
62
256
6
ByLayer
370
18
48
1
60
0
100
AcDbEllipse
10
334.836586
20
-20.072151
30
0
11
0.421155735204647
21
-0.650928261109363
31
0
210
0
220
0
230
-1
40
0.414017
41
-0.569238853333756
42
0.11063058498076
0
ELLIPSE
5
199
100
AcDbEntity
8
1
62
256
6
ByLayer
370
18
48
1
60
0
100
AcDbEllipse
10
321.995619
20
-20.001659
30
0
11
0.999773422571477
21
-0.233917779145584
31
0
210
0
220
0
230
-1
40
0.090999
41
-0.745599475781122
42
2.13419379000978
0
ELLIPSE
5
19A
100
AcDbEntity
8
1
62
256
6
ByLayer
370
18
48
1
60
0
100
AcDbEllipse
10
309.264504
20
-17.499857
30
0
11
21.657128347961
21
-4.97938925477115
31
0
210
0
220
0
230
-1
40
0.020941
41
0.790456066750269
42
1.21052921794899
0
ELLIPSE
5
19B
100
AcDbEntity
8
1
62
256
6
ByLayer
370
18
48
1
60
0
100
AcDbEllipse
10
327.136586
20
-9.15808
30
0
11
8.98339725629763
21
9.67863153279474
31
0
210
0
220
0
230
-1
40
0.822021
41
2.40032269851605
42
2.52251265552389
0
ELLIPSE
5
19C
100
AcDbEntity
8
1
62
256
6
ByLayer
370
18
48
1
60
0
100
AcDbEllipse
10
309.626039
20
17.500141
30
0
11
21.6573258428757
21
4.99564107345062
31
0
210
0
220
0
230
-1
40
0.009638
41
-1.22106511922549
42
-0.802766462690442
0
ELLIPSE
5
19D
100
AcDbEntity
8
1
62
256
6
ByLayer
370
18
48
1
60
0
100
AcDbEllipse
10
326.80869
20
17.500141
30
0
11
0.140567169489575
21
-4.99953141563605
31
0
210
0
220
0
230
-1
40
0.486967
41
1.58448707767656
42
2.42149738946343
0
ELLIPSE
5
19E
100
AcDbEntity
8
1
62
256
6
ByLayer
370
18
48
1
60
0
100
AcDbEllipse
10
325.471026
20
14.620809
30
0
11
0.120806938811969
21
0.848102506821392
31
0
210
0
220
0
230
-1
40
0.450185
41
0
42
6.28318530717959
0
ELLIPSE
5
19F
100
AcDbEntity
8
1
62
256
6
ByLayer
370
18
48
1
60
0
100
AcDbEllipse
10
325.449658
20
12.708705
30
0
11
0.0562268678189174
21
-1.99981256622913
31
0
210
0
220
0
230
-1
40
0.486967
41
0.711822451690499
42
1.58448707770227
0
ELLIPSE
5
1A0
100
AcDbEntity
8
1
62
256
6
ByLayer
370
18
48
1
60
0
100
AcDbEllipse
10
327.336586
20
9.233661
30
0
11
8.71865628590617
21
-9.0232994133502
31
0
210
0
220
0
230
-1
40
0.913779
41
-2.51598871309338
42
-2.43300114943755
0
ELLIPSE
5
1A1
100
AcDbEntity
8
1
62
256
6
ByLayer
370
18
48
1
60
0
100
AcDbEllipse
10
325.406307
20
16.701748
30
0
11
0.108039191100274
21
0.826261269525543
31
0
210
0
220
0
230
-1
40
0.465651
41
0
42
6.28318530717959
0
ELLIPSE
5
1A2
100
AcDbEntity
8
1
62
256
6
ByLayer
370
18
48
1
60
0
100
AcDbEllipse
10
319.477913
20
11.800141
30
0
11
-7.34763812292226E-17
21
1.19999999999804
31
0
210
0
220
0
230
-1
40
0.176327
41
-1.5707963267949
42
0
0
ELLIPSE
5
1A3
100
AcDbEntity
8
1
62
256
6
ByLayer
370
18
48
1
60
0
100
AcDbEllipse
10
319.742404
20
12.708705
30
0
11
-1.2246063538833E-16
21
2.0000000000995
31
0
210
0
220
0
230
-1
40
0.176327
41
1.5707963267949
42
2.44346095275125
0
ELLIPSE
5
1A4
100
AcDbEntity
8
1
62
256
6
ByLayer
370
18
48
1
60
0
100
AcDbEllipse
10
346.59034
20
6.755162
30
0
11
0.648175067800439
21
-30.4930393996414
31
0
210
0
220
0
230
-1
40
0.726424
41
0.586986565951652
42
0.623539937047369
0
POINT
5
6C
100
AcDbEntity
8
80
62
256
6
ByLayer
370
13
48
1
60
0
100
AcDbPoint
10
0
20
0
30
0
39
0
210
0
220
0
230
1
50
360
0
POINT
5
6E
100
AcDbEntity
8
81
62
256
6
ByLayer
370
18
48
1
60
0
100
AcDbPoint
10
336.000937
20
21.993116
30
0
39
0
210
0
220
0
230
1
50
360
0
SPLINE
5
1A5
100
AcDbEntity
8
1
62
256
6
ByLayer
370
18
48
1
60
0
100
AcDbSpline
70
4
71
3
72
8
73
4
40
0
40
0
40
0
40
0
40
1
40
1
40
1
40
1
41
1
10
312.541892962182
20
0.0407773111311371
30
0
41
1
10
312.999693966603
20
0.0407773111311371
30
0
41
1
10
313.457494971024
20
0.0407773111311371
30
0
41
1
10
313.915295975444
20
0.0407773111311371
30
0
0
SPLINE
5
1A6
100
AcDbEntity
8
1
62
256
6
ByLayer
370
18
48
1
60
0
100
AcDbSpline
70
4
71
3
72
10
73
6
40
0
40
0
40
0
40
0
40
0.608963827308745
40
0.608963827308745
40
1
40
1
40
1
40
1
41
1
10
312.660182303427
20
-1.28866755967977
30
0
41
1
10
312.710254288286
20
-1.35415745479361
30
0
41
1
10
312.784851326952
20
-1.40818661826256
30
0
41
1
10
312.944266933656
20
-1.47808967311579
30
0
41
1
10
313.013210750358
20
-1.49636271302899
30
0
41
1
10
313.088249179897
20
-1.50590694774422
30
0
0
SPLINE
5
1A7
100
AcDbEntity
8
1
62
256
6
ByLayer
370
18
48
1
60
0
100
AcDbSpline
70
4
71
3
72
18
73
14
40
0
40
0
40
0
40
0
40
0.154114544201946
40
0.154114544201946
40
0.309373471553003
40
0.309373471553003
40
0.463785292787383
40
0.463785292787383
40
0.61734912912527
40
0.61734912912527
40
0.808674564562636
40
0.808674564562636
40
1
40
1
40
1
40
1
41
1
10
312.070807553616
20
-0.756562161879856
30
0
41
1
10
312.070807553616
20
-0.959580836732755
30
0
41
1
10
312.092598386208
20
-1.13252964476931
30
0
41
1
10
312.182192172995
20
-1.41309836039608
30
0
41
1
10
312.248137680537
20
-1.52883095196182
30
0
41
1
10
312.422333324867
20
-1.7159891252976
30
0
41
1
10
312.546116422197
20
-1.79422892334003
30
0
41
1
10
312.867871802384
20
-1.92064504752835
30
0
41
1
10
313.041590933526
20
-1.95257137139635
30
0
41
1
10
313.461582479992
20
-1.95257137139635
30
0
41
1
10
313.662892296668
20
-1.90017945530525
30
0
41
1
10
314.004199295499
20
-1.69224903831884
30
0
41
1
10
314.124780810057
20
-1.54325952693483
30
0
41
1
10
314.196312216997
20
-1.35006433634902
30
0
0
SPLINE
5
1A8
100
AcDbEntity
8
1
62
256
6
ByLayer
370
18
48
1
60
0
100
AcDbSpline
70
4
71
3
72
18
73
14
40
0
40
0
40
0
40
0
40
0.204128585976023
40
0.204128585976023
40
0.372805636555768
40
0.372805636555768
40
0.543139219592331
40
0.543139219592331
40
0.712268937494881
40
0.712268937494881
40
0.855913355439513
40
0.855913355439513
40
1
40
1
40
1
40
1
41
1
10
313.915295975444
20
0.0407773111311371
30
0
41
1
10
313.915295975444
20
-0.205901293797638
30
0
41
1
10
313.915295975444
20
-0.452579898726413
30
0
41
1
10
313.915295975444
20
-0.903095802197072
30
0
41
1
10
313.893399281964
20
-1.05969315595809
30
0
41
1
10
313.803911356065
20
-1.27638820434595
30
0
41
1
10
313.727026973821
20
-1.36026942212055
30
0
41
1
10
313.507566955882
20
-1.48349999764344
30
0
41
1
10
313.377788546147
20
-1.51378907413363
30
0
41
1
10
313.101881690804
20
-1.51378907413363
30
0
41
1
10
312.98917724412
20
-1.49319283209491
30
0
41
1
10
312.795318518201
20
-1.40818661826256
30
0
41
1
10
312.720721479534
20
-1.35415745479361
30
0
41
1
10
312.670649494676
20
-1.28866755967977
30
0
0
SPLINE
5
1A9
100
AcDbEntity
8
1
62
256
6
ByLayer
370
18
48
1
60
0
100
AcDbSpline
70
4
71
3
72
14
73
10
40
0
40
0
40
0
40
0
40
0.253128947913729
40
0.253128947913729
40
0.4586840155458
40
0.4586840155458
40
0.727708578900576
40
0.727708578900576
40
1
40
1
40
1
40
1
41
1
10
314.375914192763
20
0.0407773111311371
30
0
41
1
10
314.375914192763
20
-0.190074569145111
30
0
41
1
10
314.375914192763
20
-0.420926449421415
30
0
41
1
10
314.375914192763
20
-0.839243154461087
30
0
41
1
10
314.392264228635
20
-0.973497439444429
30
0
41
1
10
314.463042652638
20
-1.16249892341733
30
0
41
1
10
314.529195779064
20
-1.24446188047796
30
0
41
1
10
314.71425049322
20
-1.35317630211921
30
0
41
1
10
314.830648679436
20
-1.38035320596953
30
0
41
1
10
314.970645149136
20
-1.38035341283796
30
0
0
SPLINE
5
1AA
100
AcDbEntity
8
1
62
256
6
ByLayer
370
18
48
1
60
0
100
AcDbSpline
70
4
71
3
72
8
73
4
40
0
40
0
40
0
40
0
40
1
40
1
40
1
40
1
41
1
10
312.670649494676
20
-1.28866755967977
30
0
41
1
10
312.619555632575
20
-1.22317766456592
30
0
41
1
10
312.582768051863
20
-1.14213391936255
30
0
41
1
10
312.561308629781
20
-1.04471770038072
30
0
0
SPLINE
5
1AB
100
AcDbEntity
8
1
62
256
6
ByLayer
370
18
48
1
60
0
100
AcDbSpline
70
4
71
3
72
10
73
6
40
0
40
0
40
0
40
0
40
0.339661016949153
40
0.339661016949153
40
1
40
1
40
1
40
1
41
1
10
312.561308629781
20
-1.04471770038072
30
0
41
1
10
312.548024225635
20
-0.989051289533961
30
0
41
1
10
312.541892962182
20
-0.893272317929984
30
0
41
1
10
312.541892962182
20
-0.490782337542839
30
0
41
1
10
312.541892962182
20
-0.225002513205823
30
0
41
1
10
312.541892962182
20
0.0407773111311371
30
0
0
SPLINE
5
1AC
100
AcDbEntity
8
1
62
256
6
ByLayer
370
18
48
1
60
0
100
AcDbSpline
70
4
71
3
72
10
73
6
40
0
40
0
40
0
40
0
40
0.660338983050847
40
0.660338983050847
40
1
40
1
40
1
40
1
41
1
10
312.531425770934
20
0.0407773111311371
30
0
41
1
10
312.531425770934
20
-0.225002513205823
30
0
41
1
10
312.531425770934
20
-0.490782337542839
30
0
41
1
10
312.531425770934
20
-0.893272317929984
30
0
41
1
10
312.537557034386
20
-0.989051289533961
30
0
41
1
10
312.550841438532
20
-1.04471770038072
30
0
0
SPLINE
5
1AD
100
AcDbEntity
8
1
62
256
6
ByLayer
370
18
48
1
60
0
100
AcDbSpline
70
4
71
3
72
18
73
14
40
0
40
0
40
0
40
0
40
0.142798120979958
40
0.142798120979958
40
0.28590124947516
40
0.28590124947516
40
0.440144142464
40
0.440144142464
40
0.594387035452839
40
0.594387035452839
40
0.747973647187342
40
0.747973647187342
40
1
40
1
40
1
40
1
41
1
10
314.196312216997
20
-1.35006433634902
30
0
41
1
10
314.288281168778
20
-1.49987247142189
30
0
41
1
10
314.410206906257
20
-1.61136406994007
30
0
41
1
10
314.712360224212
20
-1.76019480449941
30
0
41
1
10
314.872794951208
20
-1.79703287050097
30
0
41
1
10
315.227386354186
20
-1.79703287050097
30
0
41
1
10
315.403149239811
20
-1.75528306236589
30
0
41
1
10
315.738324975191
20
-1.58828382982563
30
0
41
1
10
315.862649043705
20
-1.47266890765519
30
0
41
1
10
316.024450602954
20
-1.17733473798626
30
0
41
1
10
316.065325692634
20
-0.980865052644731
30
0
41
1
10
316.065325692634
20
-0.336608209462327
30
0
41
1
10
316.065325692634
20
0.0636987744210273
30
0
41
1
10
316.065325692634
20
0.464005758304381
30
0
0
SPLINE
5
1AE
100
AcDbEntity
8
1
62
256
6
ByLayer
370
18
48
1
60
0
100
AcDbSpline
70
4
71
3
72
16
73
12
40
0
40
0
40
0
40
0
40
0.339543779278449
40
0.339543779278449
40
0.546464119206829
40
0.546464119206829
40
0.754268637376413
40
0.754268637376413
40
0.962073155545998
40
0.962073155545998
40
1
40
1
40
1
40
1
41
1
10
316.054858501386
20
0.464005758304381
30
0
41
1
10
316.054858501386
20
0.0636987744210273
30
0
41
1
10
316.054858501386
20
-0.336608209462327
30
0
41
1
10
316.054858501386
20
-0.980865052644731
30
0
41
1
10
316.013983411705
20
-1.17733473798626
30
0
41
1
10
315.852181852456
20
-1.47266890765519
30
0
41
1
10
315.727857783942
20
-1.58828382982563
30
0
41
1
10
315.392682048563
20
-1.75528306236589
30
0
41
1
10
315.216919162937
20
-1.79703287050097
30
0
41
1
10
314.999410361499
20
-1.79703287050097
30
0
41
1
10
314.96623491605
20
-1.79560728805575
30
0
41
1
10
314.9334471437
20
-1.79274989116328
30
0
0
SPLINE
5
1AF
100
AcDbEntity
8
1
62
256
6
ByLayer
370
18
48
1
60
0
100
AcDbSpline
70
4
71
3
72
8
73
4
40
0
40
0
40
0
40
0
40
1
40
1
40
1
40
1
41
1
10
314.386381384011
20
0.0407773111311371
30
0
41
1
10
314.789001017363
20
0.0407773111311371
30
0
41
1
10
315.191620650715
20
0.0407773111311371
30
0
41
1
10
315.594240284067
20
0.0407773111311371
30
0
0
SPLINE
5
1B0
100
AcDbEntity
8
1
62
256
6
ByLayer
370
18
48
1
60
0
100
AcDbSpline
70
4
71
3
72
8
73
4
40
0
40
0
40
0
40
0
40
1
40
1
40
1
40
1
41
1
10
312.550841438532
20
-1.04471770038072
30
0
41
1
10
312.572300860614
20
-1.14213391936255
30
0
41
1
10
312.609088441327
20
-1.22317766456592
30
0
41
1
10
312.660182303427
20
-1.28866755967977
30
0
0
SPLINE
5
1B1
100
AcDbEntity
8
1
62
256
6
ByLayer
370
18
48
1
60
0
100
AcDbSpline
70
4
71
3
72
22
73
18
40
0
40
0
40
0
40
0
40
0.118805648275418
40
0.118805648275418
40
0.246422968673565
40
0.246422968673565
40
0.375003200636619
40
0.375003200636619
40
0.50254630084192
40
0.50254630084192
40
0.637999050672358
40
0.637999050672358
40
0.771826176187376
40
0.771826176187376
40
0.87408019899186
40
0.87408019899186
40
1
40
1
40
1
40
1
41
1
10
315.594240284067
20
0.0407773111311371
30
0
41
1
10
315.594240284067
20
-0.172610597114783
30
0
41
1
10
315.594240284067
20
-0.385998505360703
30
0
41
1
10
315.594240284067
20
-0.828601046505071
30
0
41
1
10
315.574549121657
20
-0.991399675909008
30
0
41
1
10
315.501249455044
20
-1.18060923274197
30
0
41
1
10
315.431554257843
20
-1.25305402348306
30
0
41
1
10
315.230451985912
20
-1.35497607848254
30
0
41
1
10
315.11293610308
20
-1.38035341283916
30
0
41
1
10
314.841116756706
20
-1.38035341283916
30
0
41
1
10
314.724718038752
20
-1.35317651025076
30
0
41
1
10
314.539662970313
20
-1.24446188047796
30
0
41
1
10
314.473509843886
20
-1.16249892341733
30
0
41
1
10
314.402731419883
20
-0.973497439444429
30
0
41
1
10
314.386381384011
20
-0.83924315446103
30
0
41
1
10
314.386381384011
20
-0.420926449421415
30
0
41
1
10
314.386381384011
20
-0.190074569145111
30
0
41
1
10
314.386381384011
20
0.0407773111311371
30
0
0
SPLINE
5
1B2
100
AcDbEntity
8
1
62
256
6
ByLayer
370
18
48
1
60
0
100
AcDbSpline
70
4
71
3
72
12
73
8
40
0
40
0
40
0
40
0
40
0.490873079061421
40
0.490873079061421
40
0.981746158122849
40
0.981746158122849
40
1
40
1
40
1
40
1
41
1
10
314.185845025749
20
-1.35006433634902
30
0
41
1
10
314.114313618808
20
-1.54325952693483
30
0
41
1
10
313.993732104251
20
-1.69224903831884
30
0
41
1
10
313.652425105419
20
-1.90017945530525
30
0
41
1
10
313.451115288743
20
-1.95257137139635
30
0
41
1
10
313.209463273575
20
-1.95257137139635
30
0
41
1
10
313.200827785003
20
-1.9525028404754
30
0
41
1
10
313.192220811849
20
-1.95236586004586
30
0
0
SPLINE
5
1B3
100
AcDbEntity
8
1
62
256
6
ByLayer
370
18
48
1
60
0
100
AcDbSpline
70
4
71
3
72
8
73
4
40
0
40
0
40
0
40
0
40
1
40
1
40
1
40
1
41
1
10
316.065325692634
20
0.464005758304381
30
0
41
1
10
314.733819646295
20
0.464005758304381
30
0
41
1
10
313.402313599955
20
0.464005758304381
30
0
41
1
10
312.070807553616
20
0.464005758304381
30
0
0
SPLINE
5
1B4
100
AcDbEntity
8
1
62
256
6
ByLayer
370
18
48
1
60
0
100
AcDbSpline
70
4
71
3
72
8
73
4
40
0
40
0
40
0
40
0
40
1
40
1
40
1
40
1
41
1
10
312.070807553616
20
0.464005758304381
30
0
41
1
10
312.070807553616
20
0.0571497849095977
30
0
41
1
10
312.070807553616
20
-0.349706188485129
30
0
41
1
10
312.070807553616
20
-0.756562161879856
30
0
0
SPLINE
5
1B5
100
AcDbEntity
8
SK1
62
256
6
ByLayer
370
18
48
1
60
0
100
AcDbSpline
70
4
71
3
72
17
73
13
40
0
40
0
40
0
40
0
40
0.129370912103122
40
0.161372773537879
40
0.193726823312515
40
0.21171156119702
40
0.229736208406594
40
0.25301767842709
40
0.293608414906728
40
0.419265595805833
40
0.708969528884064
40
1
40
1
40
1
40
1
41
1
10
-0.194976888869529
20
5.10125345319453
30
0
41
1
10
-0.183219625916543
20
5.07120426726588
30
0
41
1
10
-0.162390524911088
20
5.04107223907691
30
0
41
1
10
-0.130111017060108
20
5.01243092310105
30
0
41
1
10
-0.113155423190661
20
5.00509307846838
30
0
41
1
10
-0.0975701196440229
20
5.00610079648173
30
0
41
1
10
-0.0846174580073206
20
5.01239379007517
30
0
41
1
10
-0.0698020180419608
20
5.0272171086033
30
0
41
1
10
-0.0458259794044947
20
5.0706938933691
30
0
41
1
10
-0.0183770255555136
20
5.18636834571079
30
0
41
1
10
-0.001441368168798
20
5.3639030992772
30
0
41
1
10
0.0022938188040238
20
5.5076952689668
30
0
41
1
10
-3.63E-14
20
5.57923236301639
30
0
0
SPLINE
5
1B6
100
AcDbEntity
8
SK1
62
256
6
ByLayer
370
18
48
1
60
0
100
AcDbSpline
70
4
71
3
72
18
73
14
40
0
40
0
40
0
40
0
40
0.515611483670873
40
0.606510907428565
40
0.69326532160631
40
0.726532304130227
40
0.760070668004453
40
0.778839374661175
40
0.797715271312228
40
0.815112837074487
40
0.8454766030073
40
0.922248768040193
40
1
40
1
40
1
40
1
41
1
10
2E-16
20
-5.57923036606766
30
0
41
1
10
0.0069355605930179
20
-5.45145300375904
30
0
41
1
10
-0.0028336610068003
20
-5.30029554557319
30
0
41
1
10
-0.0324270977886302
20
-5.12589476460431
30
0
41
1
10
-0.046954708885417
20
-5.07301429964291
30
0
41
1
10
-0.063879674590334
20
-5.03696291616059
30
0
41
1
10
-0.0769595507711927
20
-5.01879344864665
30
0
41
1
10
-0.0913435766460029
20
-5.0083871147859
30
0
41
1
10
-0.103898239085611
20
-5.00506725881668
30
0
41
1
10
-0.118635156888542
20
-5.00693088781313
30
0
41
1
10
-0.142826495355283
20
-5.02036432159243
30
0
41
1
10
-0.169052332461975
20
-5.05411726777307
30
0
41
1
10
-0.187358447100398
20
-5.08431871683351
30
0
41
1
10
-0.194976888875455
20
-5.10125086895358
30
0
0
SPLINE
5
1B7
100
AcDbEntity
8
SK1
62
256
6
ByLayer
370
18
48
1
60
0
100
AcDbSpline
70
4
71
3
72
18
73
14
40
0
40
0
40
0
40
0
40
0.0867937117994153
40
0.174403910300647
40
0.204409866434809
40
0.234693067024173
40
0.261468631966051
40
0.29767053850577
40
0.363633462184036
40
0.469771002415867
40
0.578509438511157
40
0.788394415348222
40
1
40
1
40
1
40
1
41
1
10
-0.194976888875295
20
-5.10125086895555
30
0
41
1
10
-0.221878345272035
20
-5.16279248735196
30
0
41
1
10
-0.292002868161269
20
-5.27443950187612
30
0
41
1
10
-0.397922750022483
20
-5.39867126928134
30
0
41
1
10
-0.506734593003706
20
-5.45369839100253
30
0
41
1
10
-0.580831392874853
20
-5.46537250630134
30
0
41
1
10
-0.659469597594682
20
-5.45016465194261
30
0
41
1
10
-0.753516549216966
20
-5.39781918457693
30
0
41
1
10
-0.867694061205499
20
-5.27617040877246
30
0
41
1
10
-0.977173096541626
20
-5.08791864373153
30
0
41
1
10
-1.10402239340652
20
-4.7871105142101
30
0
41
1
10
-1.21785759261507
20
-4.39436727353062
30
0
41
1
10
-1.28774019621445
20
-4.07400028636833
30
0
41
1
10
-1.31543506509547
20
-3.91026939581316
30
0
0
SPLINE
5
1B8
100
AcDbEntity
8
SK1
62
256
6
ByLayer
370
18
48
1
60
0
100
AcDbSpline
70
4
71
3
72
18
73
14
40
0
40
0
40
0
40
0
40
0.290049165056636
40
0.437141265968793
40
0.585885044033787
40
0.659987228284762
40
0.711438824560823
40
0.742505363517075
40
0.768645540332514
40
0.794810933345047
40
0.830620596786012
40
0.89531720100347
40
1
40
1
40
1
40
1
41
1
10
-1.31543506509497
20
3.91027172665434
30
0
41
1
10
-1.27891753161414
20
4.13534847802545
30
0
41
1
10
-1.20194276252725
20
4.4660700110409
30
0
41
1
10
-1.06330813875029
20
4.89478147782458
30
0
41
1
10
-0.945602166073449
20
5.15481193202845
30
0
41
1
10
-0.821873661641228
20
5.3299725454697
30
0
41
1
10
-0.727835197819162
20
5.41484600012288
30
0
41
1
10
-0.645690311819246
20
5.45425120106871
30
0
41
1
10
-0.574713520910116
20
5.46468275135456
30
0
41
1
10
-0.500539301683166
20
5.45184541818648
30
0
41
1
10
-0.408083762564095
20
5.40259985374777
30
0
41
1
10
-0.297157957122137
20
5.28403204947047
30
0
41
1
10
-0.226849889316051
20
5.1762780196367
30
0
41
1
10
-0.194976888875293
20
5.10125345321298
30
0
0
SPLINE
5
1B9
100
AcDbEntity
8
SK1
62
256
6
ByLayer
370
18
48
1
60
0
100
AcDbSpline
70
4
71
2
72
6
73
3
40
0
40
0
40
0
40
1
40
1
40
1
41
1
10
-28.5
20
-16.8545212066649
30
0
41
1
10
-15.2499999987993
20
-17.1871851888411
30
0
41
1
10
-2
20
-17.5198482068775
30
0
0
SPLINE
5
1BA
100
AcDbEntity
8
SK1
62
256
6
ByLayer
370
18
48
1
60
0
100
AcDbSpline
70
4
71
2
72
6
73
3
40
0
40
0
40
0
40
1
40
1
40
1
41
1
10
-2
20
17.5198479235724
30
0
41
1
10
-15.2499999987995
20
17.1871849060498
30
0
41
1
10
-28.5
20
16.8545209244112
30
0
0
SPLINE
5
1BB
100
AcDbEntity
8
SK1
62
256
6
ByLayer
370
18
48
1
60
0
100
AcDbSpline
70
4
71
3
72
13
73
9
40
0
40
0
40
0
40
0
40
0.239409099367218
40
0.368297400752126
40
0.499931438691492
40
0.631576866358073
40
0.760496583550959
40
1
40
1
40
1
40
1
41
1
10
-2
20
-17.525129116923
30
0
41
1
10
-1.999091257198
20
-17.4990813944884
30
0
41
1
10
-1.99103211472606
20
-17.4617233046648
30
0
41
1
10
-1.96563495891919
20
-17.4155240253433
30
0
41
1
10
-1.93886250822576
20
-17.3842556209573
30
0
41
1
10
-1.90627575278676
20
-17.3590990612904
30
0
41
1
10
-1.85883875467889
20
-17.3360651360603
30
0
41
1
10
-1.82110932008981
20
-17.3298953840654
30
0
41
1
10
-1.7950399779393
20
-17.3302974649007
30
0
0
SPLINE
5
1BC
100
AcDbEntity
8
SK1
62
256
6
ByLayer
370
18
48
1
60
0
100
AcDbSpline
70
4
71
3
72
13
73
9
40
0
40
0
40
0
40
0
40
0.255664312558833
40
0.393283104703421
40
0.533811529302254
40
0.674327795722587
40
0.81191305247048
40
1
40
1
40
1
40
1
41
1
10
-1.7950399779393
20
17.3302973195575
30
0
41
1
10
-1.82110932009615
20
17.3298952387249
30
0
41
1
10
-1.85883863471189
20
17.336064693352
30
0
41
1
10
-1.90627597098526
20
17.3590994568546
30
0
41
1
10
-1.93886166140052
20
17.3842533767782
30
0
41
1
10
-1.96563809251063
20
17.4155316473379
30
0
41
1
10
-1.98780770297255
20
17.455849018032
30
0
41
1
10
-1.99605051841839
20
17.4864531869698
30
0
41
1
10
-1.99849243767098
20
17.505144640418
30
0
0
SPLINE
5
1BD
100
AcDbEntity
8
SK1
62
256
6
ByLayer
370
18
48
1
60
0
100
AcDbSpline
70
4
71
1
72
4
73
2
40
0
40
0
40
1
40
1
41
1
10
-1.99849243767098
20
17.505144640418
30
0
41
1
10
-2
20
17.5251289721744
30
0
0
SPLINE
5
1BE
100
AcDbEntity
8
SK1
62
256
6
ByLayer
370
18
48
1
60
0
100
AcDbSpline
70
4
71
2
72
6
73
3
40
0
40
0
40
0
40
1
40
1
40
1
41
1
10
-1.7950399779393
20
-17.3250646819564
30
0
41
1
10
-0.995008433403041
20
-17.3451508243471
30
0
41
1
10
-0.194976888875295
20
-17.3652369633
30
0
0
SPLINE
5
1BF
100
AcDbEntity
8
SK1
62
256
6
ByLayer
370
18
48
1
60
0
100
AcDbSpline
70
4
71
2
72
6
73
3
40
0
40
0
40
0
40
1
40
1
40
1
41
1
10
-0.194976888875295
20
17.3652366802367
30
0
41
1
10
-0.995008433403042
20
17.3451505413153
30
0
41
1
10
-1.7950399779393
20
17.3250643989562
30
0
0
SPLINE
5
1C0
100
AcDbEntity
8
SK1
62
256
6
ByLayer
370
18
48
1
60
0
100
AcDbSpline
70
4
71
3
72
17
73
13
40
0
40
0
40
0
40
0
40
0.0988909632199361
40
0.198190489710056
40
0.299148309645012
40
0.400909172316098
40
0.499890845711827
40
0.600005923137618
40
0.703434971945771
40
0.807810389958672
40
0.903702209623698
40
1
40
1
40
1
40
1
41
1
10
-1.31543506509497
20
-3.91026939581312
30
0
41
1
10
-1.36013106495495
20
-3.6664193021083
30
0
41
1
10
-1.44421055862032
20
-3.17166067723518
30
0
41
1
10
-1.55760363727622
20
-2.40628721006044
30
0
41
1
10
-1.64878310304639
20
-1.61547132794119
30
0
41
1
10
-1.70908063872824
20
-0.810123352902153
30
0
41
1
10
-1.73020921905147
20
0.0021631364427748
30
0
41
1
10
-1.70880881687209
20
0.818977720347988
30
0
41
1
10
-1.6466112848841
20
1.6407297454418
30
0
41
1
10
-1.55370992550272
20
2.43525335402526
30
0
41
1
10
-1.44058974011941
20
3.19319397074322
30
0
41
1
10
-1.35892055109613
20
3.67281989679768
30
0
41
1
10
-1.31543506509498
20
3.91027172665432
30
0
0
SPLINE
5
1C1
100
AcDbEntity
8
SK1
62
256
6
ByLayer
370
18
48
1
60
0
100
AcDbSpline
70
4
71
2
72
6
73
3
40
0
40
0
40
0
40
1
40
1
40
1
41
1
10
-30
20
-15.9932495545753
30
0
41
1
10
-29.2499990770552
20
-16.4260289695447
30
0
41
1
10
-28.5
20
-16.8588008432385
30
0
0
SPLINE
5
1C2
100
AcDbEntity
8
SK1
62
256
6
ByLayer
370
18
48
1
60
0
100
AcDbSpline
70
4
71
1
72
4
73
2
40
0
40
0
40
1
40
1
41
1
10
-28.5
20
16.8588006436881
30
0
41
1
10
-28.5182632749506
20
16.8482621885213
30
0
0
SPLINE
5
1C3
100
AcDbEntity
8
SK1
62
256
6
ByLayer
370
18
48
1
60
0
100
AcDbSpline
70
4
71
2
72
6
73
3
40
0
40
0
40
0
40
1
40
1
40
1
41
1
10
-28.5182632749506
20
16.8482621885213
30
0
41
1
10
-29.2591307368908
20
16.4207594505486
30
0
41
1
10
-30
20
15.9932493559076
30
0
0
SPLINE
5
1C4
100
AcDbEntity
8
SK1
62
256
6
ByLayer
370
18
48
1
60
0
100
AcDbSpline
70
4
71
3
72
17
73
13
40
0
40
0
40
0
40
0
40
0.0657405250604878
40
0.0931315984044896
40
0.105639316665063
40
0.118289849750443
40
0.132330539139572
40
0.149102116192627
40
0.195229911634072
40
0.352416534370919
40
0.681552097441197
40
1
40
1
40
1
40
1
41
1
10
-0.194976888875295
20
-17.3704796738454
30
0
41
1
10
-0.184926114337303
20
-17.3701675468223
30
0
41
1
10
-0.16789286565846
20
-17.3722898591775
30
0
41
1
10
-0.144673929028377
20
-17.3779439318181
30
0
41
1
10
-0.131737224448355
20
-17.3822681291166
30
0
41
1
10
-0.122235622319877
20
-17.3859937717031
30
0
41
1
10
-0.112945867334021
20
-17.3902057898516
30
0
41
1
10
-0.0996054288583479
20
-17.3971073459553
30
0
41
1
10
-0.0745980169567557
20
-17.4131359529547
30
0
41
1
10
-0.0465484577184599
20
-17.4393867676832
30
0
41
1
10
-0.023168141427146
20
-17.4710118280524
30
0
41
1
10
-0.0118381604293084
20
-17.4913926231672
30
0
41
1
10
-0.0091268142657876
20
-17.4998993790085
30
0
0
SPLINE
5
1C5
100
AcDbEntity
8
SK1
62
256
6
ByLayer
370
18
48
1
60
0
100
AcDbSpline
70
4
71
3
72
20
73
16
40
0
40
0
40
0
40
0
40
0.249814146886926
40
0.526503846245744
40
0.686697029492517
40
0.72872850184929
40
0.742686125913135
40
0.748433515901953
40
0.753650984965096
40
0.758614572191075
40
0.763605266474406
40
0.774533387170726
40
0.803360483171443
40
0.890097715918536
40
1
40
1
40
1
40
1
41
1
10
-0.0055290424768779
20
17.5155581838581
30
0
41
1
10
-0.0069434837188801
20
17.5104812929902
30
0
41
1
10
-0.0130634616924901
20
17.4960371607015
30
0
41
1
10
-0.0261500861196141
20
17.4703890738096
30
0
41
1
10
-0.0441505822817318
20
17.4427102550032
30
0
41
1
10
-0.0662518526838902
20
17.4202643041788
30
0
41
1
10
-0.0776080382138276
20
17.4109258542121
30
0
41
1
10
-0.0834912354402217
20
17.4065442098929
30
0
41
1
10
-0.087725745481485
20
17.4035721294878
30
0
41
1
10
-0.0920441584207942
20
17.4007204601046
30
0
41
1
10
-0.0980292419790798
20
17.3970060721714
30
0
41
1
10
-0.109927005295198
20
17.3903589926142
30
0
41
1
10
-0.134486640869422
20
17.3796505264795
30
0
41
1
10
-0.162355119989474
20
17.3731655742945
30
0
41
1
10
-0.184964907174978
20
17.3699554274787
30
0
41
1
10
-0.194976888875295
20
17.3704795286247
30
0
0
SPLINE
5
1C6
100
AcDbEntity
8
1
62
256
6
ByLayer
370
18
48
1
60
0
100
AcDbSpline
70
4
71
2
72
6
73
3
40
0
40
0
40
0
40
1
40
1
40
1
41
0.500000024753144
10
322.603660145921
20
-20.0638310206116
30
0
41
0.499999975246857
10
322.593351988418
20
-20.0575235694408
30
0
41
0.500000024753144
10
322.583048683449
20
-20.0512059970876
30
0
0
SPLINE
5
1C7
100
AcDbEntity
8
1
62
256
6
ByLayer
370
18
48
1
60
0
100
AcDbSpline
70
4
71
3
72
28
73
24
40
0
40
0
40
0
40
0
40
0.108288540731878
40
0.108288540731878
40
0.225253580018296
40
0.225253580018296
40
0.342268318548578
40
0.342268318548578
40
0.459393576191602
40
0.459393576191602
40
0.555729824682046
40
0.555729824682046
40
0.632635573241399
40
0.632635573241399
40
0.704746769386155
40
0.704746769386155
40
0.818780459988306
40
0.818780459988306
40
0.901881358114116
40
0.901881358114116
40
0.984963093097928
40
0.984963093097928
40
1
40
1
40
1
40
1
41
1
10
332.826586426802
20
16.0447293144398
30
0
41
1
10
332.838477703961
20
16.0447293144398
30
0
41
1
10
332.850378382881
20
16.0451642190616
30
0
41
1
10
332.875036387667
20
16.0469906007088
30
0
41
1
10
332.887810456244
20
16.0484571978703
30
0
41
1
10
332.913136506772
20
16.0524947075842
30
0
41
1
10
332.92571892243
20
16.0550700886632
30
0
41
1
10
332.950488931963
20
16.0614620642128
30
0
41
1
10
332.962719044414
20
16.0652890717223
30
0
41
1
10
332.984359005544
20
16.0735983956628
30
0
41
1
10
332.993921627794
20
16.0778589420075
30
0
41
1
10
333.010393782336
20
16.0865770208028
30
0
41
1
10
333.017478789144
20
16.0908385949139
30
0
41
1
10
333.030420930656
20
16.0999229865687
30
0
41
1
10
333.036362382608
20
16.1047206687375
30
0
41
1
10
333.050180311917
20
16.1180592243885
30
0
41
1
10
333.057421363037
20
16.127434232799
30
0
41
1
10
333.065547224495
20
16.1448038287636
30
0
41
1
10
333.067664922692
20
16.1526629460511
30
0
41
1
10
333.06866452163
20
16.1681331093896
30
0
41
1
10
333.06756625819
20
16.1759250480495
30
0
41
1
10
333.064714640852
20
16.1845265357263
30
0
41
1
10
333.064229472462
20
16.185845797118
30
0
41
1
10
333.063703649312
20
16.1871499932188
30
0
0
SPLINE
5
1C8
100
AcDbEntity
8
1
62
256
6
ByLayer
370
18
48
1
60
0
100
AcDbSpline
70
4
71
3
72
26
73
22
40
0
40
0
40
0
40
0
40
0.0086569148769114
40
0.0086569148769114
40
0.125591395709248
40
0.125591395709248
40
0.242553460371887
40
0.242553460371887
40
0.359581429952962
40
0.359581429952962
40
0.476756419374735
40
0.476756419374735
40
0.594287938352907
40
0.594287938352907
40
0.734087980384806
40
0.734087980384806
40
0.816818773651458
40
0.816818773651458
40
0.904422913955517
40
0.904422913955517
40
1
40
1
40
1
40
1
41
1
10
332.826586426802
20
16.0447293144398
30
0
41
1
10
332.825634949982
20
16.0447293144398
30
0
41
1
10
332.824683468539
20
16.0447321054946
30
0
41
1
10
332.810889953969
20
16.0448130355455
30
0
41
1
10
332.79803922096
20
16.0453955534446
30
0
41
1
10
332.772459979631
20
16.0476009435859
30
0
41
1
10
332.759705776018
20
16.0492258795131
30
0
41
1
10
332.734439174429
20
16.0535960562923
30
0
41
1
10
332.721895107261
20
16.0563464530564
30
0
41
1
10
332.697233802998
20
16.0631168220135
30
0
41
1
10
332.685071320131
20
16.0671489294603
30
0
41
1
10
332.66150481407
20
16.0767303198434
30
0
41
1
10
332.650025356686
20
16.0823124057143
30
0
41
1
10
332.626607118684
20
16.0965214190698
30
0
41
1
10
332.614710570552
20
16.1056954514321
30
0
41
1
10
332.599609711714
20
16.12269063796
30
0
41
1
10
332.59477231201
20
16.1296660395696
30
0
41
1
10
332.587601892307
20
16.1447171344531
30
0
41
1
10
332.585380182153
20
16.1530294161224
30
0
41
1
10
332.584508521954
20
16.170053656101
30
0
41
1
10
332.586176645315
20
16.1789834783319
30
0
41
1
10
332.58946920429
20
16.1871499932188
30
0
0
SPLINE
5
1C9
100
AcDbEntity
8
1
62
256
6
ByLayer
370
18
48
1
60
0
100
AcDbSpline
70
4
71
3
72
8
73
4
40
0
40
0
40
0
40
0
40
1
40
1
40
1
40
1
41
1
10
332.58946920429
20
16.1871499932188
30
0
41
1
10
332.58888813483
20
16.193648459128
30
0
41
1
10
332.588306887577
20
16.2001491279444
30
0
41
1
10
332.587725451394
20
16.2066521383827
30
0
0
SPLINE
5
1CA
100
AcDbEntity
8
1
62
256
6
ByLayer
370
18
48
1
60
0
100
AcDbSpline
70
4
71
3
72
28
73
24
40
0
40
0
40
0
40
0
40
0.108288540731946
40
0.108288540731946
40
0.225253580018355
40
0.225253580018355
40
0.342268318548626
40
0.342268318548626
40
0.459393576191641
40
0.459393576191641
40
0.555729824682078
40
0.555729824682078
40
0.632635573241425
40
0.632635573241425
40
0.704746769386178
40
0.704746769386178
40
0.81878045998832
40
0.81878045998832
40
0.901881358114123
40
0.901881358114123
40
0.98496309309793
40
0.98496309309793
40
1
40
1
40
1
40
1
41
1
10
331.930206832616
20
16.5617538339576
30
0
41
1
10
331.936152471195
20
16.5514656448361
30
0
41
1
10
331.942485006233
20
16.5413837787204
30
0
41
1
10
331.956419298033
20
16.5209504349919
30
0
41
1
10
331.964095453178
20
16.5106215080665
30
0
41
1
10
331.980308517162
20
16.4906995915943
30
0
41
1
10
331.988864557449
20
16.4810824817919
30
0
41
1
10
332.006873425983
20
16.4627999455365
30
0
41
1
10
332.016356645824
20
16.4541028781252
30
0
41
1
10
332.034494581638
20
16.4394686319664
30
0
41
1
10
332.04302964221
20
16.4332905808394
30
0
41
1
10
332.058952203846
20
16.4233236486461
30
0
41
1
10
332.066253716003
20
16.419287194664
30
0
41
1
10
332.080743375783
20
16.4125491446044
30
0
41
1
10
332.087951186372
20
16.4097624382042
30
0
41
1
10
332.106649361845
20
16.4043459669
30
0
41
1
10
332.118564359478
20
16.402671920907
30
0
41
1
10
332.13802034405
20
16.4041325305632
30
0
41
1
10
332.146051622056
20
16.4061378002406
30
0
41
1
10
332.160294015529
20
16.4128165053018
30
0
41
1
10
332.16667574863
20
16.4175609812791
30
0
41
1
10
332.172910508325
20
16.4242110997339
30
0
41
1
10
332.173843149118
20
16.4252722626528
30
0
41
1
10
332.174742309575
20
16.426361120806
30
0
0
SPLINE
5
1CB
100
AcDbEntity
8
1
62
256
6
ByLayer
370
18
48
1
60
0
100
AcDbSpline
70
4
71
3
72
8
73
4
40
0
40
0
40
0
40
0
40
1
40
1
40
1
40
1
41
1
10
332.192934694099
20
16.4343642627155
30
0
41
1
10
332.186868633563
20
16.4316954747649
30
0
41
1
10
332.180804544116
20
16.4290277825547
30
0
41
1
10
332.174742309575
20
16.426361120806
30
0
0
SPLINE
5
1CC
100
AcDbEntity
8
1
62
256
6
ByLayer
370
18
48
1
60
0
100
AcDbSpline
70
4
71
3
72
34
73
30
40
0
40
0
40
0
40
0
40
0.0312499999999485
40
0.0312499999999485
40
0.0624999999998972
40
0.0624999999998972
40
0.124999999999891
40
0.124999999999891
40
0.250000000000025
40
0.250000000000025
40
0.312500000000001
40
0.312500000000001
40
0.374999999999978
40
0.374999999999978
40
0.437499999999953
40
0.437499999999953
40
0.499999999999929
40
0.499999999999929
40
0.624999999999861
40
0.624999999999861
40
0.687499999999835
40
0.687499999999835
40
0.749999999999809
40
0.749999999999809
40
0.874999999999756
40
0.874999999999756
40
0.937499999999878
40
0.937499999999878
40
1
40
1
40
1
40
1
41
1
10
332.587725451394
20
16.2066521383827
30
0
41
1
10
332.587307670007
20
16.2113247693459
30
0
41
1
10
332.586516206493
20
16.2160051643287
30
0
41
1
10
332.584339945598
20
16.225233974746
30
0
41
1
10
332.582958446851
20
16.2297832461943
30
0
41
1
10
332.578083653322
20
16.2432748902474
30
0
41
1
10
332.573868854545
20
16.2520630538759
30
0
41
1
10
332.558953357595
20
16.2779917209205
30
0
41
1
10
332.546278743069
20
16.2942368482806
30
0
41
1
10
332.524904684829
20
16.317047279908
30
0
41
1
10
332.517342632579
20
16.3244180832947
30
0
41
1
10
332.501576605228
20
16.3386098369618
30
0
41
1
10
332.493379120811
20
16.345428113205
30
0
41
1
10
332.476397315004
20
16.3585576971739
30
0
41
1
10
332.467608598268
20
16.3648687267987
30
0
41
1
10
332.449635097967
20
16.3768836721655
30
0
41
1
10
332.440429385928
20
16.3826043640769
30
0
41
1
10
332.412158698743
20
16.398912365545
30
0
41
1
10
332.392610466662
20
16.4085541360709
30
0
41
1
10
332.36264289391
20
16.4208376175909
30
0
41
1
10
332.352521164273
20
16.4245752244007
30
0
41
1
10
332.33218782225
20
16.4312049858455
30
0
41
1
10
332.321976942388
20
16.4341003929873
30
0
41
1
10
332.291174770037
20
16.4413736624429
30
0
41
1
10
332.270431643898
20
16.4443615732555
30
0
41
1
10
332.240145063826
20
16.4445622918359
30
0
41
1
10
332.230117321449
20
16.4438990399332
30
0
41
1
10
332.210891130755
20
16.440704713781
30
0
41
1
10
332.201650813963
20
16.4381989550219
30
0
41
1
10
332.192934694099
20
16.4343642627155
30
0
0
SPLINE
5
1CD
100
AcDbEntity
8
1
62
256
6
ByLayer
370
18
48
1
60
0
100
AcDbSpline
70
4
71
3
72
8
73
4
40
0
40
0
40
0
40
0
40
1
40
1
40
1
40
1
41
1
10
333.478430544027
20
16.426361120806
30
0
41
1
10
333.472368309487
20
16.4290277825547
30
0
41
1
10
333.466304220039
20
16.4316954747649
30
0
41
1
10
333.460238159503
20
16.4343642627155
30
0
0
SPLINE
5
1CE
100
AcDbEntity
8
1
62
256
6
ByLayer
370
18
48
1
60
0
100
AcDbSpline
70
4
71
3
72
26
73
22
40
0
40
0
40
0
40
0
40
0.008656914876879
40
0.008656914876879
40
0.12559139570922
40
0.12559139570922
40
0.242553460371862
40
0.242553460371862
40
0.359581429952941
40
0.359581429952941
40
0.476756419374717
40
0.476756419374717
40
0.594287938352893
40
0.594287938352893
40
0.734087980384797
40
0.734087980384797
40
0.816818773651452
40
0.816818773651452
40
0.904422913955514
40
0.904422913955514
40
1
40
1
40
1
40
1
41
1
10
333.722966020987
20
16.5617538339591
30
0
41
1
10
333.722490282577
20
16.5609306277264
30
0
41
1
10
333.722012088934
20
16.5601087937242
30
0
41
1
10
333.715044206131
20
16.5482147172362
30
0
41
1
10
333.708106920847
20
16.5373836657988
30
0
41
1
10
333.693378810945
20
16.5163401008788
30
0
41
1
10
333.685573331509
20
16.5061063774623
30
0
41
1
10
333.669097194013
20
16.4863996790442
30
0
41
1
10
333.660406183684
20
16.476901854395
30
0
41
1
10
333.64211801612
20
16.4588993144427
30
0
41
1
10
333.63248758974
20
16.4503614476226
30
0
41
1
10
333.612264576788
20
16.4346853966554
30
0
41
1
10
333.601605430892
20
16.4274981147297
30
0
41
1
10
333.577361859763
20
16.4142161810293
30
0
41
1
10
333.563314147463
20
16.4084257732471
30
0
41
1
10
333.54073351762
20
16.4036865810518
30
0
41
1
10
333.532140748004
20
16.4029155693285
30
0
41
1
10
333.515217781787
20
16.4040697935561
30
0
41
1
10
333.506732395007
20
16.4062063080796
30
0
41
1
10
333.491172158624
20
16.4137527626533
30
0
41
1
10
333.484060837856
20
16.419542992526
30
0
41
1
10
333.478430544027
20
16.426361120806
30
0
0
SPLINE
5
1CF
100
AcDbEntity
8
1
62
256
6
ByLayer
370
18
48
1
60
0
100
AcDbSpline
70
4
71
3
72
8
73
4
40
0
40
0
40
0
40
0
40
1
40
1
40
1
40
1
41
1
10
333.065447402209
20
16.2066521383827
30
0
41
1
10
333.064865966025
20
16.2001491279444
30
0
41
1
10
333.064284718772
20
16.1936484591281
30
0
41
1
10
333.063703649312
20
16.1871499932188
30
0
0
SPLINE
5
1D0
100
AcDbEntity
8
1
62
256
6
ByLayer
370
18
48
1
60
0
100
AcDbSpline
70
4
71
3
72
30
73
26
40
0
40
0
40
0
40
0
40
0.0212218158422365
40
0.0212218158422365
40
0.126059559525534
40
0.126059559525534
40
0.201107055759459
40
0.201107055759459
40
0.29411228301161
40
0.29411228301161
40
0.397100605352966
40
0.397100605352966
40
0.500042881039266
40
0.500042881039266
40
0.583971495240649
40
0.583971495240649
40
0.66656514848867
40
0.66656514848867
40
0.767859984421263
40
0.767859984421263
40
0.83872056129773
40
0.83872056129773
40
0.909748878403057
40
0.909748878403057
40
1
40
1
40
1
40
1
41
1
10
333.460238159503
20
16.4343642627155
30
0
41
1
10
333.457281187637
20
16.4356651944883
30
0
41
1
10
333.454236074537
20
16.4368202590351
30
0
41
1
10
333.435990951178
20
16.4428056475053
30
0
41
1
10
333.419225973312
20
16.4446451512533
30
0
41
1
10
333.390269432923
20
16.444380183647
30
0
41
1
10
333.377918116216
20
16.4432284553063
30
0
41
1
10
333.350315148957
20
16.4388876363812
30
0
41
1
10
333.334957189865
20
16.4352593736062
30
0
41
1
10
333.302987212249
20
16.4256514023601
30
0
41
1
10
333.286295111077
20
16.4194220686929
30
0
41
1
10
333.253684661807
20
16.4051087784087
30
0
41
1
10
333.237662739222
20
16.3969781651962
30
0
41
1
10
333.209556158839
20
16.3807665163452
30
0
41
1
10
333.197233485492
20
16.3729188536757
30
0
41
1
10
333.173699312182
20
16.3563849650839
30
0
41
1
10
333.162426349128
20
16.3476816283512
30
0
41
1
10
333.13861504496
20
16.327338230445
30
0
41
1
10
333.126275453437
20
16.3154087144727
30
0
41
1
10
333.107324339368
20
16.2940576883622
30
0
41
1
10
333.10006544549
20
16.2849103645605
30
0
41
1
10
333.087094067352
20
16.2659983088515
30
0
41
1
10
333.081339843396
20
16.2561704920045
30
0
41
1
10
333.070836290635
20
16.2333575165947
30
0
41
1
10
333.066636669211
20
16.2199533672143
30
0
41
1
10
333.065447402209
20
16.2066521383827
30
0
0
SPLINE
5
1D1
100
AcDbEntity
8
1
62
256
6
ByLayer
370
18
48
1
60
0
100
AcDbSpline
70
4
71
3
72
28
73
24
40
0
40
0
40
0
40
0
40
0.108288540731907
40
0.108288540731907
40
0.225253580018321
40
0.225253580018321
40
0.342268318548597
40
0.342268318548597
40
0.459393576191617
40
0.459393576191617
40
0.555729824682059
40
0.555729824682059
40
0.632635573241409
40
0.632635573241409
40
0.704746769386164
40
0.704746769386164
40
0.818780459988312
40
0.818780459988312
40
0.901881358114119
40
0.901881358114119
40
0.984963093097928
40
0.984963093097928
40
1
40
1
40
1
40
1
41
1
10
333.722966020987
20
16.5617538339591
30
0
41
1
10
333.728911659567
20
16.5720420230807
30
0
41
1
10
333.734479803449
20
16.582552803787
30
0
41
1
10
333.745203516435
20
16.6047870748474
30
0
41
1
10
333.750301429868
20
16.616562087073
30
0
41
1
10
333.759414416411
20
16.640463755576
30
0
41
1
10
333.763440791782
20
16.6526189533503
30
0
41
1
10
333.770201932781
20
16.6771978421889
30
0
41
1
10
333.77294882539
20
16.6896634654091
30
0
41
1
10
333.776450850706
20
16.7124744843304
30
0
41
1
10
333.777478412384
20
16.722843363342
30
0
41
1
10
333.778028005291
20
16.7413794487645
30
0
41
1
10
333.777811499942
20
16.749602719114
30
0
41
1
10
333.776263981674
20
16.7652594375444
30
0
41
1
10
333.774997623037
20
16.7727536758271
30
0
41
1
10
333.770117376874
20
16.791247415023
30
0
41
1
10
333.76544343036
20
16.8021031086632
30
0
41
1
10
333.754113307246
20
16.8176245123514
30
0
41
1
10
333.748199727438
20
16.823294195744
30
0
41
1
10
333.734956932903
20
16.8317025826186
30
0
41
1
10
333.727476936362
20
16.8345466501158
30
0
41
1
10
333.718390559328
20
16.8362623989333
30
0
41
1
10
333.716972750145
20
16.8364840382105
30
0
41
1
10
333.715547766539
20
16.8366630247104
30
0
0
SPLINE
5
1D2
100
AcDbEntity
8
1
62
256
6
ByLayer
370
18
48
1
60
0
100
AcDbSpline
70
4
71
3
72
26
73
22
40
0
40
0
40
0
40
0
40
0.0086569148768366
40
0.0086569148768366
40
0.125591395709182
40
0.125591395709182
40
0.242553460371829
40
0.242553460371829
40
0.359581429952912
40
0.359581429952912
40
0.476756419374694
40
0.476756419374694
40
0.594287938352875
40
0.594287938352875
40
0.734087980384786
40
0.734087980384786
40
0.816818773651443
40
0.816818773651443
40
0.904422913955509
40
0.904422913955509
40
1
40
1
40
1
40
1
41
1
10
331.930206832616
20
16.5617538339576
30
0
41
1
10
331.929731094206
20
16.5625770401904
30
0
41
1
10
331.929257806405
20
16.5634016266516
30
0
41
1
10
331.922432174639
20
16.5753755139903
30
0
41
1
10
331.916518726914
20
16.586781059981
30
0
41
1
10
331.905667595487
20
16.609999195272
30
0
41
1
10
331.900718871311
20
16.6218350371516
30
0
41
1
10
331.891928407216
20
16.6458490547054
30
0
41
1
10
331.888075350378
20
16.6580571803334
30
0
41
1
10
331.881702213679
20
16.6827279645064
30
0
41
1
10
331.879170157193
20
16.6952357637221
30
0
41
1
10
331.875826664083
20
16.7203386245643
30
0
41
1
10
331.875006352594
20
16.7330151179084
30
0
41
1
10
331.875831685722
20
16.7602555365558
30
0
41
1
10
331.87798284989
20
16.7750506277802
30
0
41
1
10
331.885462620896
20
16.7964415962958
30
0
41
1
10
331.889217990807
20
16.8040411039622
30
0
41
1
10
331.898970537321
20
16.8176028489296
30
0
41
1
10
331.905234213947
20
16.8235837569409
30
0
41
1
10
331.919922790131
20
16.8326385112298
30
0
41
1
10
331.92870223426
20
16.8355422608048
30
0
41
1
10
331.937625087064
20
16.8366630247104
30
0
0
SPLINE
5
1D3
100
AcDbEntity
8
1
62
256
6
ByLayer
370
18
48
1
60
0
100
AcDbSpline
70
4
71
3
72
8
73
4
40
0
40
0
40
0
40
0
40
1
40
1
40
1
40
1
41
1
10
331.937625087064
20
16.8366630247103
30
0
41
1
10
331.943106252145
20
16.8403351549902
30
0
41
1
10
331.948589094339
20
16.8440086233823
30
0
41
1
10
331.954073718691
20
16.847683514435
30
0
0
SPLINE
5
1D4
100
AcDbEntity
8
1
62
256
6
ByLayer
370
18
48
1
60
0
100
AcDbSpline
70
4
71
3
72
26
73
22
40
0
40
0
40
0
40
0
40
0.0086569148801101
40
0.0086569148801101
40
0.125591395712019
40
0.125591395712019
40
0.242553460374229
40
0.242553460374229
40
0.359581429954877
40
0.359581429954877
40
0.476756419376218
40
0.476756419376218
40
0.59428793835399
40
0.59428793835399
40
0.734087980384728
40
0.734087980384728
40
0.816818773651402
40
0.816818773651402
40
0.904422913955488
40
0.904422913955488
40
1
40
1
40
1
40
1
41
1
10
331.930206832616
20
17.5958028729962
30
0
41
1
10
331.929731094205
20
17.5949796667631
30
0
41
1
10
331.929257806405
20
17.5941550031102
30
0
41
1
10
331.922432174639
20
17.5821788773707
30
0
41
1
10
331.916518726913
20
17.5707572846886
30
0
41
1
10
331.905667595486
20
17.5474775098571
30
0
41
1
10
331.900718871311
20
17.5355960330492
30
0
41
1
10
331.891928407216
20
17.5114563002084
30
0
41
1
10
331.888075350377
20
17.4991679830101
30
0
41
1
10
331.881702213678
20
17.4742929493643
30
0
41
1
10
331.879170157189
20
17.4616608000471
30
0
41
1
10
331.87582666408
20
17.4362487781887
30
0
41
1
10
331.875006352594
20
17.4233865359389
30
0
41
1
10
331.875831685722
20
17.3956450604745
30
0
41
1
10
331.87798284989
20
17.3805112714102
30
0
41
1
10
331.885462620896
20
17.3584334824795
30
0
41
1
10
331.889217990807
20
17.3505401634801
30
0
41
1
10
331.898970537321
20
17.3363081671355
30
0
41
1
10
331.905234213947
20
17.3299375408553
30
0
41
1
10
331.919922790131
20
17.3200367243345
30
0
41
1
10
331.92870223426
20
17.316661289193
30
0
41
1
10
331.937625087064
20
17.3150852798847
30
0
0
SPLINE
5
1D5
100
AcDbEntity
8
1
62
256
6
ByLayer
370
18
48
1
60
0
100
AcDbSpline
70
4
71
3
72
8
73
4
40
0
40
0
40
0
40
0
40
1
40
1
40
1
40
1
41
1
10
331.937625087064
20
17.3150852798847
30
0
41
1
10
331.943106252145
20
17.3110938018434
30
0
41
1
10
331.948589094339
20
17.3071013170233
30
0
41
1
10
331.954073718691
20
17.3031077631006
30
0
0
SPLINE
5
1D6
100
AcDbEntity
8
1
62
256
6
ByLayer
370
18
48
1
60
0
100
AcDbSpline
70
4
71
3
72
26
73
22
40
0
40
0
40
0
40
0
40
0.0742301486906313
40
0.0742301486906313
40
0.125696238139609
40
0.125696238139609
40
0.200645519545574
40
0.200645519545574
40
0.293529030645351
40
0.293529030645351
40
0.396382571934823
40
0.396382571934823
40
0.499190126830596
40
0.499190126830596
40
0.558129055846337
40
0.558129055846337
40
0.765978231673768
40
0.765978231673768
40
0.910227308046386
40
0.910227308046386
40
1
40
1
40
1
40
1
41
1
10
331.954073718691
20
17.3031077631006
30
0
41
1
10
331.963337646834
20
17.2963623610096
30
0
41
1
10
331.971623528749
20
17.2878198947848
30
0
41
1
10
331.983967000664
20
17.2718762165536
30
0
41
1
10
331.988599599169
20
17.2648478729655
30
0
41
1
10
331.998980127589
20
17.2468646324982
30
0
41
1
10
332.004321958612
20
17.2355076392656
30
0
41
1
10
332.01468790068
20
17.2092666597071
30
0
41
1
10
332.019376035294
20
17.1940759717776
30
0
41
1
10
332.027297821011
20
17.1614587532171
30
0
41
1
10
332.030349669158
20
17.1438412688415
30
0
41
1
10
332.034388086246
20
17.1083892080605
30
0
41
1
10
332.035386426801
20
17.0904414443584
30
0
41
1
10
332.035386426801
20
17.0623328541037
30
0
41
1
10
332.035056815128
20
17.0520810173614
30
0
41
1
10
332.0320897466
20
17.0063858766351
30
0
41
1
10
332.025749325891
20
16.9709716718095
30
0
41
1
10
332.006960785336
20
16.9162609887432
30
0
41
1
10
331.996770534137
20
16.8947670511211
30
0
41
1
10
331.975077603674
20
16.865382288588
30
0
41
1
10
331.965291945121
20
16.8552001203651
30
0
41
1
10
331.954073718691
20
16.847683514435
30
0
0
SPLINE
5
1D7
100
AcDbEntity
8
1
62
256
6
ByLayer
370
18
48
1
60
0
100
AcDbSpline
70
4
71
3
72
8
73
4
40
0
40
0
40
0
40
0
40
1
40
1
40
1
40
1
41
1
10
333.715547766539
20
17.3150852798847
30
0
41
1
10
333.710066601457
20
17.3110938018434
30
0
41
1
10
333.704583759264
20
17.3071013170233
30
0
41
1
10
333.699099134911
20
17.3031077631006
30
0
0
SPLINE
5
1D8
100
AcDbEntity
8
1
62
256
6
ByLayer
370
18
48
1
60
0
100
AcDbSpline
70
4
71
3
72
26
73
22
40
0
40
0
40
0
40
0
40
0.0086569148768439
40
0.0086569148768439
40
0.125591395709188
40
0.125591395709188
40
0.242553460371835
40
0.242553460371835
40
0.359581429952918
40
0.359581429952918
40
0.476756419374699
40
0.476756419374699
40
0.594287938352879
40
0.594287938352879
40
0.734087980384787
40
0.734087980384787
40
0.816818773651445
40
0.816818773651445
40
0.90442291395551
40
0.90442291395551
40
1
40
1
40
1
40
1
41
1
10
333.722966020986
20
17.5958028729962
30
0
41
1
10
333.723441759397
20
17.5949796667634
30
0
41
1
10
333.723915047197
20
17.5941550031108
30
0
41
1
10
333.730740678963
20
17.5821788773716
30
0
41
1
10
333.736654126688
20
17.5707572846895
30
0
41
1
10
333.747505258115
20
17.5474775098579
30
0
41
1
10
333.752453982291
20
17.53559603305
30
0
41
1
10
333.761244446386
20
17.511456300209
30
0
41
1
10
333.765097503225
20
17.4991679830106
30
0
41
1
10
333.771470639924
20
17.4742929493648
30
0
41
1
10
333.77400269641
20
17.4616608000467
30
0
41
1
10
333.777346189519
20
17.4362487781882
30
0
41
1
10
333.778166501008
20
17.4233865359392
30
0
41
1
10
333.77734116788
20
17.3956450604747
30
0
41
1
10
333.775190003712
20
17.3805112714103
30
0
41
1
10
333.767710232707
20
17.3584334824795
30
0
41
1
10
333.763954862795
20
17.3505401634801
30
0
41
1
10
333.754202316282
20
17.3363081671355
30
0
41
1
10
333.747938639655
20
17.3299375408553
30
0
41
1
10
333.733250063471
20
17.3200367243345
30
0
41
1
10
333.724470619342
20
17.316661289193
30
0
41
1
10
333.715547766539
20
17.3150852798847
30
0
0
SPLINE
5
1D9
100
AcDbEntity
8
1
62
256
6
ByLayer
370
18
48
1
60
0
100
AcDbSpline
70
4
71
3
72
8
73
4
40
0
40
0
40
0
40
0
40
1
40
1
40
1
40
1
41
1
10
333.699099134911
20
16.847683514435
30
0
41
1
10
333.704583759264
20
16.8440086233823
30
0
41
1
10
333.710066601457
20
16.8403351549902
30
0
41
1
10
333.715547766539
20
16.8366630247104
30
0
0
SPLINE
5
1DA
100
AcDbEntity
8
1
62
256
6
ByLayer
370
18
48
1
60
0
100
AcDbSpline
70
4
71
3
72
30
73
26
40
0
40
0
40
0
40
0
40
0.0212218158422364
40
0.0212218158422364
40
0.126059559525534
40
0.126059559525534
40
0.20110705575946
40
0.20110705575946
40
0.294112283011609
40
0.294112283011609
40
0.397100605352965
40
0.397100605352965
40
0.500042881039265
40
0.500042881039265
40
0.583971495240649
40
0.583971495240649
40
0.66656514848867
40
0.66656514848867
40
0.767859984421262
40
0.767859984421262
40
0.83872056129773
40
0.83872056129773
40
0.909748878403058
40
0.909748878403058
40
1
40
1
40
1
40
1
41
1
10
333.699099134911
20
17.3031077631006
30
0
41
1
10
333.696425590885
20
17.3011610587236
30
0
41
1
10
333.69383541122
20
17.2990657318594
30
0
41
1
10
333.679142322451
20
17.2860526252612
30
0
41
1
10
333.668874908143
20
17.2723000632531
30
0
41
1
10
333.654192726013
20
17.2468646324978
30
0
41
1
10
333.648850894994
20
17.2355076392657
30
0
41
1
10
333.638484952926
20
17.2092666597073
30
0
41
1
10
333.633796818309
20
17.1940759717776
30
0
41
1
10
333.625875032592
20
17.1614587532172
30
0
41
1
10
333.622823184444
20
17.1438412688415
30
0
41
1
10
333.618784767356
20
17.1083892080605
30
0
41
1
10
333.617786426801
20
17.0904414443584
30
0
41
1
10
333.617786426801
20
17.0580181466563
30
0
41
1
10
333.618451551946
20
17.0434465042168
30
0
41
1
10
333.621110237802
20
17.014871802848
30
0
41
1
10
333.623087333872
20
17.0008066850215
30
0
41
1
10
333.62901918751
20
16.9701505642689
30
0
41
1
10
333.633335984766
20
16.9535935652776
30
0
41
1
10
333.642670391154
20
16.9266956997473
30
0
41
1
10
333.647110940295
20
16.9159227774347
30
0
41
1
10
333.657331607579
20
16.8954241338928
30
0
41
1
10
333.663146615775
20
16.885631376905
30
0
41
1
10
333.678095249929
20
16.8653822885879
30
0
41
1
10
333.687880908482
20
16.8552001203651
30
0
41
1
10
333.699099134911
20
16.847683514435
30
0
0
SPLINE
5
1DB
100
AcDbEntity
8
1
62
256
6
ByLayer
370
18
48
1
60
0
100
AcDbSpline
70
4
71
3
72
28
73
24
40
0
40
0
40
0
40
0
40
0.108288540731939
40
0.108288540731939
40
0.225253580018348
40
0.225253580018348
40
0.34226831854862
40
0.34226831854862
40
0.459393576191635
40
0.459393576191635
40
0.555729824682075
40
0.555729824682075
40
0.632635573241422
40
0.632635573241422
40
0.704746769386175
40
0.704746769386175
40
0.818780459988318
40
0.818780459988318
40
0.901881358114122
40
0.901881358114122
40
0.984963093097929
40
0.984963093097929
40
1
40
1
40
1
40
1
41
1
10
333.722966020986
20
17.5958028729962
30
0
41
1
10
333.717020382407
20
17.6060910621177
30
0
41
1
10
333.710687847369
20
17.6161609481713
30
0
41
1
10
333.696753555569
20
17.6365433832689
30
0
41
1
10
333.689077400424
20
17.6468312864718
30
0
41
1
10
333.67286433644
20
17.6666376875778
30
0
41
1
10
333.664308296153
20
17.6761802111661
30
0
41
1
10
333.646299427619
20
17.6942715014887
30
0
41
1
10
333.636816207778
20
17.7028516654988
30
0
41
1
10
333.618678271964
20
17.7172208093016
30
0
41
1
10
333.610143211392
20
17.7232594235085
30
0
41
1
10
333.594220649756
20
17.7329285045695
30
0
41
1
10
333.5869191376
20
17.7368154430643
30
0
41
1
10
333.572429477819
20
17.743222046556
30
0
41
1
10
333.56522166723
20
17.7458284523834
30
0
41
1
10
333.546523491758
20
17.7507223481692
30
0
41
1
10
333.534608494124
20
17.7520096726355
30
0
41
1
10
333.515152509552
20
17.7497738977388
30
0
41
1
10
333.507121231546
20
17.7474002996265
30
0
41
1
10
333.492878838073
20
17.7399554517598
30
0
41
1
10
333.486497104973
20
17.7348041854118
30
0
41
1
10
333.480262345277
20
17.7276828261479
30
0
41
1
10
333.479329704484
20
17.7265487448378
30
0
41
1
10
333.478430544027
20
17.725387183789
30
0
0
SPLINE
5
1DC
100
AcDbEntity
8
1
62
256
6
ByLayer
370
18
48
1
60
0
100
AcDbSpline
70
4
71
3
72
28
73
24
40
0
40
0
40
0
40
0
40
0.108288540728058
40
0.108288540728058
40
0.225253580013837
40
0.225253580013837
40
0.342268318543477
40
0.342268318543477
40
0.459393576185855
40
0.459393576185855
40
0.555729824677651
40
0.555729824677651
40
0.632635573237571
40
0.632635573237571
40
0.704746769382404
40
0.704746769382404
40
0.818780459984691
40
0.818780459984691
40
0.901881358110713
40
0.901881358110713
40
0.98496309309548
40
0.98496309309548
40
1
40
1
40
1
40
1
41
1
10
331.930206832616
20
17.5958028729962
30
0
41
1
10
331.936152471195
20
17.6060910621174
30
0
41
1
10
331.942485006233
20
17.6161609481706
30
0
41
1
10
331.956419298032
20
17.6365433832678
30
0
41
1
10
331.964095453177
20
17.6468312864708
30
0
41
1
10
331.980308517161
20
17.6666376875767
30
0
41
1
10
331.988864557448
20
17.6761802111652
30
0
41
1
10
332.006873425982
20
17.6942715014877
30
0
41
1
10
332.016356645822
20
17.7028516654985
30
0
41
1
10
332.034494581636
20
17.7172208093015
30
0
41
1
10
332.043029642207
20
17.7232594235089
30
0
41
1
10
332.058952203844
20
17.7329285045702
30
0
41
1
10
332.066253716001
20
17.7368154430648
30
0
41
1
10
332.080743375781
20
17.7432220465565
30
0
41
1
10
332.08795118637
20
17.7458284523847
30
0
41
1
10
332.106649361842
20
17.7507223481708
30
0
41
1
10
332.118564359477
20
17.7520096726355
30
0
41
1
10
332.138020344049
20
17.749773897739
30
0
41
1
10
332.146051622053
20
17.7474002996278
30
0
41
1
10
332.160294015527
20
17.7399554517616
30
0
41
1
10
332.166675748629
20
17.7348041854123
30
0
41
1
10
332.172910508324
20
17.7276828261483
30
0
41
1
10
332.173843149118
20
17.726548744838
30
0
41
1
10
332.174742309575
20
17.725387183789
30
0
0
SPLINE
5
1DD
100
AcDbEntity
8
1
62
256
6
ByLayer
370
18
48
1
60
0
100
AcDbSpline
70
4
71
3
72
8
73
4
40
0
40
0
40
0
40
0
40
1
40
1
40
1
40
1
41
1
10
333.063703649312
20
17.9645983113762
30
0
41
1
10
333.064284718772
20
17.9577804977056
30
0
41
1
10
333.064865966025
20
17.9509608124613
30
0
41
1
10
333.065447402209
20
17.944139139153
30
0
0
SPLINE
5
1DE
100
AcDbEntity
8
1
62
256
6
ByLayer
370
18
48
1
60
0
100
AcDbSpline
70
4
71
3
72
26
73
22
40
0
40
0
40
0
40
0
40
0.0086569148769117
40
0.0086569148769117
40
0.125591395709248
40
0.125591395709248
40
0.242553460371887
40
0.242553460371887
40
0.359581429952962
40
0.359581429952962
40
0.476756419374734
40
0.476756419374734
40
0.594287938352907
40
0.594287938352907
40
0.734087980384805
40
0.734087980384805
40
0.816818773651458
40
0.816818773651458
40
0.904422913955517
40
0.904422913955517
40
1
40
1
40
1
40
1
41
1
10
332.8265864268
20
18.112827392514
30
0
41
1
10
332.827537903621
20
18.112827392514
30
0
41
1
10
332.828489385063
20
18.1128245242679
30
0
41
1
10
332.842282899633
20
18.1127413558165
30
0
41
1
10
332.855133632642
20
18.1121427912259
30
0
41
1
10
332.880712873971
20
18.109875761544
30
0
41
1
10
332.893467077584
20
18.1082051906884
30
0
41
1
10
332.918733679173
20
18.1037092986221
30
0
41
1
10
332.931277746341
20
18.1008787102876
30
0
41
1
10
332.955939050605
20
18.0939040918577
30
0
41
1
10
332.968101533471
20
18.0897476343085
30
0
41
1
10
332.991668039532
20
18.079857082909
30
0
41
1
10
333.003147496916
20
18.0740892481334
30
0
41
1
10
333.026565734919
20
18.0593791779608
30
0
41
1
10
333.03846228305
20
18.0498664477584
30
0
41
1
10
333.053563141888
20
18.0321844408153
30
0
41
1
10
333.058400541592
20
18.0249152278727
30
0
41
1
10
333.065570961296
20
18.009193881612
30
0
41
1
10
333.067792671449
20
18.0004918816738
30
0
41
1
10
333.068664331648
20
17.9826215794635
30
0
41
1
10
333.066996208287
20
17.9732200716658
30
0
41
1
10
333.063703649312
20
17.9645983113762
30
0
0
SPLINE
5
1DF
100
AcDbEntity
8
1
62
256
6
ByLayer
370
18
48
1
60
0
100
AcDbSpline
70
4
71
3
72
8
73
4
40
0
40
0
40
0
40
0
40
1
40
1
40
1
40
1
41
1
10
333.460238159503
20
17.7164270148202
30
0
41
1
10
333.466304220039
20
17.7194144656407
30
0
41
1
10
333.472368309487
20
17.722401174279
30
0
41
1
10
333.478430544027
20
17.725387183789
30
0
0
SPLINE
5
1E0
100
AcDbEntity
8
1
62
256
6
ByLayer
370
18
48
1
60
0
100
AcDbSpline
70
4
71
3
72
30
73
26
40
0
40
0
40
0
40
0
40
0.0212218158422365
40
0.0212218158422365
40
0.126059559525534
40
0.126059559525534
40
0.20110705575946
40
0.20110705575946
40
0.294112283011609
40
0.294112283011609
40
0.397100605352965
40
0.397100605352965
40
0.500042881039265
40
0.500042881039265
40
0.583971495240649
40
0.583971495240649
40
0.66656514848867
40
0.66656514848867
40
0.767859984421263
40
0.767859984421263
40
0.83872056129773
40
0.83872056129773
40
0.909748878403058
40
0.909748878403058
40
1
40
1
40
1
40
1
41
1
10
333.065447402209
20
17.9441391391529
30
0
41
1
10
333.065730830049
20
17.9408138350393
30
0
41
1
10
333.066185763484
20
17.9374869153733
30
0
41
1
10
333.069737798074
20
17.9180477385907
30
0
41
1
10
333.076235361631
20
17.9021207570778
30
0
41
1
10
333.090509719891
20
17.8764500968042
30
0
41
1
10
333.097519205579
20
17.8660549933331
30
0
41
1
10
333.114756230769
20
17.8437771990958
30
0
41
1
10
333.125426055245
20
17.832036701627
30
0
41
1
10
333.149474247144
20
17.8087210640733
30
0
41
1
10
333.163114500168
20
17.7972108862216
30
0
41
1
10
333.19168653235
20
17.7759096167326
30
0
41
1
10
333.20671011438
20
17.7660514991825
30
0
41
1
10
333.234816694763
20
17.7498398503315
30
0
41
1
10
333.247804493255
20
17.7431431041176
30
0
41
1
10
333.273997352421
20
17.7312097411946
30
0
41
1
10
333.287247411545
20
17.725927523658
30
0
41
1
10
333.316990569351
20
17.7158484617429
30
0
41
1
10
333.333646958131
20
17.7113886272829
30
0
41
1
10
333.361932478586
20
17.7061896321045
30
0
41
1
10
333.373631921606
20
17.704726127081
30
0
41
1
10
333.396823967029
20
17.7034996667138
30
0
41
1
10
333.40839319918
20
17.7037339993329
30
0
41
1
10
333.433845386094
20
17.7067877787255
30
0
41
1
10
333.447830666072
20
17.7103164961051
30
0
41
1
10
333.460238159503
20
17.7164270148202
30
0
0
SPLINE
5
1E1
100
AcDbEntity
8
1
62
256
6
ByLayer
370
18
48
1
60
0
100
AcDbSpline
70
4
71
3
72
26
73
22
40
0
40
0
40
0
40
0
40
0.0271387234067453
40
0.0271387234067453
40
0.133143415966931
40
0.133143415966931
40
0.291286691908894
40
0.291286691908894
40
0.500757280312417
40
0.500757280312417
40
0.626885076483449
40
0.626885076483449
40
0.697530097277506
40
0.697530097277506
40
0.768209951105368
40
0.768209951105368
40
0.838963700897015
40
0.838963700897015
40
0.909884938037894
40
0.909884938037894
40
1
40
1
40
1
40
1
41
1
10
332.587725451394
20
17.9441391391528
30
0
41
1
10
332.587361744602
20
17.9398719659454
30
0
41
1
10
332.586715479714
20
17.9356012233774
30
0
41
1
10
332.582423594137
20
17.9150212124139
30
0
41
1
10
332.575487847677
20
17.8989509047242
30
0
41
1
10
332.553809632757
20
17.8615380657206
30
0
41
1
10
332.536527548176
20
17.8406861041131
30
0
41
1
10
332.49188221108
20
17.7970924774333
30
0
41
1
10
332.462232865002
20
17.7751475805269
30
0
41
1
10
332.41202191623
20
17.7461863102884
30
0
41
1
10
332.392221346
20
17.7365555967093
30
0
41
1
10
332.36075142306
20
17.724085304269
30
0
41
1
10
332.349274897886
20
17.720100972826
30
0
41
1
10
332.326188334369
20
17.7133002999262
30
0
41
1
10
332.314538224149
20
17.7104718727476
30
0
41
1
10
332.291240375016
20
17.7061896321044
30
0
41
1
10
332.279540931997
20
17.7047261270803
30
0
41
1
10
332.256348886574
20
17.7034996667131
30
0
41
1
10
332.244779654422
20
17.7037339993329
30
0
41
1
10
332.219327467508
20
17.7067877787255
30
0
41
1
10
332.20534218753
20
17.7103164961051
30
0
41
1
10
332.192934694099
20
17.7164270148202
30
0
0
SPLINE
5
1E2
100
AcDbEntity
8
1
62
256
6
ByLayer
370
18
48
1
60
0
100
AcDbSpline
70
4
71
3
72
8
73
4
40
0
40
0
40
0
40
0
40
1
40
1
40
1
40
1
41
1
10
332.192934694099
20
17.7164270148202
30
0
41
1
10
332.186868633563
20
17.7194144656407
30
0
41
1
10
332.180804544116
20
17.722401174279
30
0
41
1
10
332.174742309575
20
17.725387183789
30
0
0
SPLINE
5
1E3
100
AcDbEntity
8
1
62
256
6
ByLayer
370
18
48
1
60
0
100
AcDbSpline
70
4
71
3
72
28
73
24
40
0
40
0
40
0
40
0
40
0.108288540731877
40
0.108288540731877
40
0.225253580018295
40
0.225253580018295
40
0.342268318548575
40
0.342268318548575
40
0.459393576191598
40
0.459393576191598
40
0.555729824682044
40
0.555729824682044
40
0.632635573241396
40
0.632635573241396
40
0.704746769386154
40
0.704746769386154
40
0.818780459988305
40
0.818780459988305
40
0.901881358114115
40
0.901881358114115
40
0.984963093097927
40
0.984963093097927
40
1
40
1
40
1
40
1
41
1
10
332.8265864268
20
18.112827392514
30
0
41
1
10
332.814695149641
20
18.112827392514
30
0
41
1
10
332.802794470721
20
18.1123805078301
30
0
41
1
10
332.778136465936
20
18.1105032175519
30
0
41
1
10
332.765362397358
20
18.1089955966679
30
0
41
1
10
332.74003634683
20
18.1048425715879
30
0
41
1
10
332.727453931172
20
18.1021926042949
30
0
41
1
10
332.702683921639
20
18.0956093828124
30
0
41
1
10
332.690453809189
20
18.0916654719018
30
0
41
1
10
332.668813848059
20
18.0830910456052
30
0
41
1
10
332.659251225809
20
18.0786910623404
30
0
41
1
10
332.642779071266
20
18.0696751324127
30
0
41
1
10
332.635694064458
20
18.0652640428144
30
0
41
1
10
332.622751922946
20
18.0558482045917
30
0
41
1
10
332.616810470994
20
18.0508702218501
30
0
41
1
10
332.602992541685
20
18.0370090906807
30
0
41
1
10
332.595751490565
20
18.0272473607436
30
0
41
1
10
332.587625629107
20
18.0091025995385
30
0
41
1
10
332.58550793091
20
18.000875153816
30
0
41
1
10
332.584508331972
20
17.984638847672
30
0
41
1
10
332.585606595412
20
17.9764401186414
30
0
41
1
10
332.58845821275
20
17.9673673901556
30
0
41
1
10
332.58894338114
20
17.9659752103726
30
0
41
1
10
332.58946920429
20
17.9645983113762
30
0
0
SPLINE
5
1E4
100
AcDbEntity
8
1
62
256
6
ByLayer
370
18
48
1
60
0
100
AcDbSpline
70
4
71
3
72
8
73
4
40
0
40
0
40
0
40
0
40
1
40
1
40
1
40
1
41
1
10
332.587725451394
20
17.944139139153
30
0
41
1
10
332.588306887577
20
17.9509608124613
30
0
41
1
10
332.58888813483
20
17.9577804977056
30
0
41
1
10
332.58946920429
20
17.9645983113762
30
0
0
SPLINE
5
1E5
100
AcDbEntity
8
1
62
256
6
ByLayer
370
18
48
1
60
0
100
AcDbSpline
70
4
71
3
72
10
73
6
40
0
40
0
40
0
40
0
40
0.5
40
0.5
40
1
40
1
40
1
40
1
41
1
10
309.023515124304
20
19.5099974372115
30
0
41
1
10
309.013903733941
20
19.5688744672966
30
0
41
1
10
309.008119588361
20
19.6224806232025
30
0
41
1
10
309.001163574498
20
19.7191541402175
30
0
41
1
10
309
20
19.7622216057937
30
0
41
1
10
309
20
19.8
30
0
0
SPLINE
5
1E6
100
AcDbEntity
8
1
62
256
6
ByLayer
370
18
48
1
60
0
100
AcDbSpline
70
4
71
3
72
58
73
54
40
0
40
0
40
0
40
0
40
0.0625000000000257
40
0.0625000000000257
40
0.125000000000051
40
0.125000000000051
40
0.187500000000077
40
0.187500000000077
40
0.250000000000103
40
0.250000000000103
40
0.265625000000109
40
0.265625000000109
40
0.281250000000115
40
0.281250000000115
40
0.312500000000129
40
0.312500000000129
40
0.375000000000156
40
0.375000000000156
40
0.437500000000182
40
0.437500000000182
40
0.468750000000195
40
0.468750000000195
40
0.476562500000198
40
0.476562500000198
40
0.484375000000202
40
0.500000000000204
40
0.500000000000204
40
0.562500000000201
40
0.562500000000201
40
0.625000000000198
40
0.625000000000198
40
0.6562500000002
40
0.6562500000002
40
0.671875000000201
40
0.671875000000201
40
0.679687500000198
40
0.679687500000198
40
0.687500000000194
40
0.750000000000168
40
0.750000000000168
40
0.812500000000141
40
0.812500000000141
40
0.843750000000128
40
0.843750000000128
40
0.851562500000124
40
0.851562500000124
40
0.859375000000121
40
0.859375000000121
40
0.875000000000115
40
0.875000000000115
40
0.937500000000058
40
0.937500000000058
40
1
40
1
40
1
40
1
41
1
10
309
20
17
30
0
41
1
10
309
20
16.8318227607003
30
0
41
1
10
309.005294248454
20
16.6578251788081
30
0
41
1
10
309.028776650742
20
16.2985714731324
30
0
41
1
10
309.046960799046
20
16.1133147847012
30
0
41
1
10
309.098801445814
20
15.7318893540887
30
0
41
1
10
309.13245213853
20
15.5357199037383
30
0
41
1
10
309.218227203532
20
15.1327995027358
30
0
41
1
10
309.270342696791
20
14.9260475508166
30
0
41
1
10
309.349307246903
20
14.6612064120859
30
0
41
1
10
309.365793138302
20
14.6079181927137
30
0
41
1
10
309.400216673661
20
14.5007074655709
30
0
41
1
10
309.41810494398
20
14.4469398428331
30
0
41
1
10
309.473826782297
20
14.2852786655777
30
0
41
1
10
309.513729758042
20
14.1769855002777
30
0
41
1
10
309.642190243706
20
13.8508338253999
30
0
41
1
10
309.739481183541
20
13.631696724905
30
0
41
1
10
309.960316903222
20
13.1916588474636
30
0
41
1
10
310.083850672636
20
12.9707535771377
30
0
41
1
10
310.29157543413
20
12.6394923566545
30
0
41
1
10
310.364560872678
20
12.529090474157
30
0
41
1
10
310.460821148658
20
12.3912832344352
30
0
41
1
10
310.480316490733
20
12.3637442736159
30
0
41
1
10
310.519686401254
20
12.3088726425997
30
0
41
1
10
310.579355469349
20
12.226809381636
30
0
41
1
10
310.640875523461
20
12.1454982502788
30
0
41
1
10
310.850096636003
20
11.876221106233
30
0
41
1
10
311.030746305613
20
11.6664199617181
30
0
41
1
10
311.419946644464
20
11.260481706442
30
0
41
1
10
311.628487066156
20
11.0643358599809
30
0
41
1
10
311.963744185739
20
10.7824890535911
30
0
41
1
10
312.079243895026
20
10.690606176381
30
0
41
1
10
312.258378212512
20
10.55619711731
30
0
41
1
10
312.319071026309
20
10.5119637155059
30
0
41
1
10
312.411621213006
20
10.4465117816175
30
0
41
1
10
312.442753363411
20
10.4248235805076
30
0
41
1
10
312.505375039102
20
10.3818591496539
30
0
41
1
10
312.788575582682
20
10.1905136404179
30
0
41
1
10
313.084287049431
20
10.0170949674651
30
0
41
1
10
313.629538558268
20
9.73819855170558
30
0
41
1
10
313.911930999046
20
9.61344220611579
30
0
41
1
10
314.350564997888
20
9.44984465597923
30
0
41
1
10
314.499290106345
20
9.39924297372323
30
0
41
1
10
314.688434080976
20
9.34113395560087
30
0
41
1
10
314.726424917896
20
9.32976953429801
30
0
41
1
10
314.802733737973
20
9.30756215334122
30
0
41
1
10
314.84105301947
20
9.29671962073741
30
0
41
1
10
314.956059103262
20
9.26510321492793
30
0
41
1
10
315.032941435886
20
9.24519664926851
30
0
41
1
10
315.41839893031
20
9.15148112654049
30
0
41
1
10
315.730098497978
20
9.09506492731589
30
0
41
1
10
316.360064512955
20
9.01932766612924
30
0
41
1
10
316.678329905699
20
8.99999999999994
30
0
41
1
10
317
20
9
30
0
0
SPLINE
5
1E7
100
AcDbEntity
8
1
62
256
6
ByLayer
370
18
48
1
60
0
100
AcDbSpline
70
4
71
3
72
56
73
52
40
0
40
0
40
0
40
0
40
0.124999999999987
40
0.124999999999987
40
0.249999999999974
40
0.249999999999974
40
0.374999999999961
40
0.374999999999961
40
0.437499999999954
40
0.437499999999954
40
0.499999999999947
40
0.499999999999947
40
0.562499999999941
40
0.562499999999941
40
0.624999999999934
40
0.624999999999934
40
0.65624999999993
40
0.65624999999993
40
0.687499999999925
40
0.687499999999925
40
0.749999999999915
40
0.749999999999915
40
0.781249999999904
40
0.781249999999904
40
0.812499999999894
40
0.812499999999894
40
0.82812499999989
40
0.82812499999989
40
0.843749999999886
40
0.843749999999886
40
0.874999999999877
40
0.874999999999877
40
0.882812499999874
40
0.882812499999874
40
0.890624999999872
40
0.890624999999872
40
0.906249999999865
40
0.906249999999865
40
0.937499999999869
40
0.937499999999869
40
0.945312499999885
40
0.945312499999885
40
0.953124999999901
40
0.953124999999901
40
0.968749999999934
40
0.968749999999934
40
0.984374999999967
40
0.984374999999967
40
0.992187499999983
40
0.992187499999983
40
1
40
1
40
1
40
1
41
1
10
309
20
-19.8
30
0
41
1
10
309
20
-19.7596147257409
30
0
41
1
10
309.001327459959
20
-19.7132350570663
30
0
41
1
10
309.009431582061
20
-19.6086474397914
30
0
41
1
10
309.016197613725
20
-19.5504389502832
30
0
41
1
10
309.038865630502
20
-19.4223263268533
30
0
41
1
10
309.054740415442
20
-19.3524212433274
30
0
41
1
10
309.089235145298
20
-19.2388867742189
30
0
41
1
10
309.102526994516
20
-19.199595837302
30
0
41
1
10
309.133576490337
20
-19.1181404474729
30
0
41
1
10
309.151330387273
20
-19.0759758829317
30
0
41
1
10
309.192433059914
20
-18.9887966055484
30
0
41
1
10
309.215816104403
20
-18.9437230931771
30
0
41
1
10
309.269335601361
20
-18.8513613675548
30
0
41
1
10
309.299480957957
20
-18.8040229908461
30
0
41
1
10
309.351170788729
20
-18.7314608962965
30
0
41
1
10
309.369484192986
20
-18.7070150066642
30
0
41
1
10
309.408591190265
20
-18.6576457668638
30
0
41
1
10
309.429386551226
20
-18.6327243644533
30
0
41
1
10
309.495699323391
20
-18.5577221380851
30
0
41
1
10
309.54517250165
20
-18.5072694057166
30
0
41
1
10
309.630008212215
20
-18.431586565939
30
0
41
1
10
309.660070412135
20
-18.4063611007474
30
0
41
1
10
309.724469619792
20
-18.3560805950294
30
0
41
1
10
309.758800873898
20
-18.3310243931432
30
0
41
1
10
309.814262887082
20
-18.2937402008121
30
0
41
1
10
309.833433896696
20
-18.2813505043691
30
0
41
1
10
309.873193401684
20
-18.2567644859089
30
0
41
1
10
309.893703645169
20
-18.2446157710805
30
0
41
1
10
309.957326280972
20
-18.2086880467153
30
0
41
1
10
310.00250696966
20
-18.1854187174037
30
0
41
1
10
310.063380302586
20
-18.1575717178205
30
0
41
1
10
310.075776699623
20
-18.1520649881152
30
0
41
1
10
310.10104522219
20
-18.1411897604664
30
0
41
1
10
310.113939275079
20
-18.1358126586915
30
0
41
1
10
310.153173071952
20
-18.1199969565046
30
0
41
1
10
310.180080355828
20
-18.1098631686291
30
0
41
1
10
310.263298967132
20
-18.0808712970614
30
0
41
1
10
310.322070381674
20
-18.0633998739148
30
0
41
1
10
310.400867530482
20
-18.0447349013181
30
0
41
1
10
310.416896501224
20
-18.0411624248948
30
0
41
1
10
310.44953802654
20
-18.034368579931
30
0
41
1
10
310.466203380125
20
-18.0311387516227
30
0
41
1
10
310.516518877953
20
-18.0221362112792
30
0
41
1
10
310.550607072136
20
-18.0170186841445
30
0
41
1
10
310.619942639742
20
-18.0086880360542
30
0
41
1
10
310.655189746932
20
-18.0054745163202
30
0
41
1
10
310.70900170818
20
-18.0022118475391
30
0
41
1
10
310.727137738978
20
-18.0013831816191
30
0
41
1
10
310.763528001302
20
-18.0002774764551
30
0
41
1
10
310.781750314209
20
-18
30
0
41
1
10
310.8
20
-18
30
0
0
SPLINE
5
1E8
100
AcDbEntity
8
1
62
256
6
ByLayer
370
18
48
1
60
0
100
AcDbSpline
70
2053
71
3
72
150
73
146
40
0
40
0
40
0
40
0
40
0.0156249999999863
40
0.0156249999999863
40
0.0234374999999874
40
0.0234374999999874
40
0.0312499999999886
40
0.0312499999999886
40
0.0390624999999897
40
0.0390624999999897
40
0.0468749999999908
40
0.0468749999999908
40
0.0624999999999787
40
0.0624999999999787
40
0.0781249999999666
40
0.0781249999999666
40
0.0859374999999558
40
0.0859374999999558
40
0.0937499999999451
40
0.0937499999999451
40
0.109374999999932
40
0.109374999999932
40
0.124999999999919
40
0.124999999999919
40
0.140624999999906
40
0.140624999999906
40
0.156249999999893
40
0.156249999999893
40
0.187499999999868
40
0.187499999999868
40
0.218749999999842
40
0.218749999999842
40
0.249999999999816
40
0.249999999999816
40
0.265624999999804
40
0.265624999999804
40
0.281249999999793
40
0.281249999999793
40
0.31249999999977
40
0.31249999999977
40
0.343749999999746
40
0.343749999999746
40
0.359374999999737
40
0.359374999999737
40
0.374999999999729
40
0.374999999999729
40
0.390624999999721
40
0.390624999999721
40
0.406249999999712
40
0.406249999999712
40
0.414062499999713
40
0.414062499999713
40
0.421874999999713
40
0.421874999999713
40
0.437499999999702
40
0.437499999999702
40
0.445312499999689
40
0.445312499999689
40
0.453124999999676
40
0.453124999999676
40
0.46874999999965
40
0.46874999999965
40
0.476562499999645
40
0.476562499999645
40
0.48437499999964
40
0.48437499999964
40
0.499999999999646
40
0.499999999999646
40
0.503906249999661
40
0.503906249999661
40
0.507812499999675
40
0.507812499999675
40
0.515624999999704
40
0.523437499999732
40
0.523437499999732
40
0.527343749999739
40
0.527343749999739
40
0.531249999999745
40
0.531249999999745
40
0.546874999999756
40
0.546874999999756
40
0.554687499999761
40
0.554687499999761
40
0.562499999999766
40
0.562499999999766
40
0.578124999999773
40
0.578124999999773
40
0.593749999999781
40
0.593749999999781
40
0.601562499999781
40
0.601562499999781
40
0.60937499999978
40
0.60937499999978
40
0.624999999999789
40
0.624999999999789
40
0.656249999999814
40
0.656249999999814
40
0.66406249999982
40
0.66406249999982
40
0.671874999999826
40
0.687499999999839
40
0.687499999999839
40
0.718749999999861
40
0.718749999999861
40
0.749999999999883
40
0.749999999999883
40
0.765624999999896
40
0.765624999999896
40
0.781249999999909
40
0.781249999999909
40
0.812499999999932
40
0.812499999999932
40
0.843749999999956
40
0.843749999999956
40
0.859374999999968
40
0.859374999999968
40
0.87499999999998
40
0.87499999999998
40
0.890624999999992
40
0.890624999999992
40
0.906250000000004
40
0.906250000000004
40
0.914062500000005
40
0.914062500000005
40
0.921875000000006
40
0.921875000000006
40
0.937500000000009
40
0.937500000000009
40
0.953125000000011
40
0.953125000000011
40
0.957031250000008
40
0.957031250000008
40
0.960937500000006
40
0.968750000000013
40
0.968750000000013
40
0.976562500000021
40
0.976562500000021
40
0.980468750000017
40
0.980468750000017
40
0.984375000000014
40
0.992187500000007
40
0.992187500000007
40
0.996093750000003
40
0.996093750000003
40
1
40
1
40
1
40
1
41
1
10
312.00219831096
20
-17.5999978033746
30
0
41
1
10
311.949995836938
20
-17.6001021283746
30
0
41
1
10
311.899159747366
20
-17.596513511343
30
0
41
1
10
311.824706914269
20
-17.5862320163631
30
0
41
1
10
311.800094398607
20
-17.5819530217974
30
0
41
1
10
311.752747164061
20
-17.5721243519128
30
0
41
1
10
311.729840906573
20
-17.566558271109
30
0
41
1
10
311.685350209981
20
-17.5542902783736
30
0
41
1
10
311.663766515059
20
-17.5475877335141
30
0
41
1
10
311.621765634272
20
-17.5331659016767
30
0
41
1
10
311.601282680589
20
-17.5254149768482
30
0
41
1
10
311.54233572429
20
-17.5011737675894
30
0
41
1
10
311.506046435829
20
-17.4836242510236
30
0
41
1
10
311.437940126793
20
-17.4463590701679
30
0
41
1
10
311.406139501553
20
-17.4266364817996
30
0
41
1
10
311.361161003334
20
-17.3956651727031
30
0
41
1
10
311.346608850235
20
-17.3850936896524
30
0
41
1
10
311.318579688031
20
-17.3636997119889
30
0
41
1
10
311.305070407561
20
-17.35285630485
30
0
41
1
10
311.265902097393
20
-17.3199172702561
30
0
41
1
10
311.241594897816
20
-17.2974144710872
30
0
41
1
10
311.196009640518
20
-17.2514303956973
30
0
41
1
10
311.174735206103
20
-17.2279483547243
30
0
41
1
10
311.134853210392
20
-17.1800675110779
30
0
41
1
10
311.1162474972
20
-17.1556683254488
30
0
41
1
10
311.081469097191
20
-17.105987144903
30
0
41
1
10
311.06527900837
20
-17.0806731300618
30
0
41
1
10
311.020260185086
20
-17.0036351454651
30
0
41
1
10
310.995224885141
20
-16.9513201815336
30
0
41
1
10
310.953882011223
20
-16.8448189253159
30
0
41
1
10
310.937588240187
20
-16.7906318917437
30
0
41
1
10
310.913421110967
20
-16.6803661880543
30
0
41
1
10
310.905550122759
20
-16.6242875350912
30
0
41
1
10
310.900309427674
20
-16.5386991786753
30
0
41
1
10
310.899661712211
20
-16.5099242779374
30
0
41
1
10
310.900670063534
20
-16.4518696596899
30
0
41
1
10
310.902335453883
20
-16.4225394193868
30
0
41
1
10
310.910913004901
20
-16.3345916975866
30
0
41
1
10
310.921369148319
20
-16.2757928642993
30
0
41
1
10
310.952734333467
20
-16.1580234253665
30
0
41
1
10
310.973624572907
20
-16.0990505559557
30
0
41
1
10
311.01429877366
20
-16.010668991483
30
0
41
1
10
311.029434224988
20
-15.9812025512491
30
0
41
1
10
311.063214894214
20
-15.9224340885817
30
0
41
1
10
311.081710667346
20
-15.8933901426904
30
0
41
1
10
311.122231622592
20
-15.836107318104
30
0
41
1
10
311.144254698962
20
-15.8078677464697
30
0
41
1
10
311.192293894078
20
-15.7523651137884
30
0
41
1
10
311.218305927031
20
-15.7251007219036
30
0
41
1
10
311.260842917709
20
-15.6851224408352
30
0
41
1
10
311.275648300664
20
-15.6719207429393
30
0
41
1
10
311.306253908167
20
-15.6461165182695
30
0
41
1
10
311.32207350329
20
-15.6334923565402
30
0
41
1
10
311.371183624239
20
-15.5965237745046
30
0
41
1
10
311.40611301313
20
-15.5730757014203
30
0
41
1
10
311.462373582011
20
-15.5400883182302
30
0
41
1
10
311.481774219713
20
-15.5294582801433
30
0
41
1
10
311.522012518933
20
-15.5090221206913
30
0
41
1
10
311.542877944954
20
-15.4992117820378
30
0
41
1
10
311.606745628221
20
-15.4716510705216
30
0
41
1
10
311.651330893374
20
-15.4555826952
30
0
41
1
10
311.721666321177
20
-15.4355166622473
30
0
41
1
10
311.74570917203
20
-15.4294996206253
30
0
41
1
10
311.794992654647
20
-15.4189787810675
30
0
41
1
10
311.819813046708
20
-15.4145644506543
30
0
41
1
10
311.894811733532
20
-15.4038767823474
30
0
41
1
10
311.945524382064
20
-15.4001449594405
30
0
41
1
10
312.009856083006
20
-15.3999689088132
30
0
41
1
10
312.022769716774
20
-15.4001592238607
30
0
41
1
10
312.048693866749
20
-15.40100177425
30
0
41
1
10
312.06168211669
20
-15.4016550855283
30
0
41
1
10
312.10027280115
20
-15.4042763560048
30
0
41
1
10
312.151068622493
20
-15.4095411849401
30
0
41
1
10
312.200613983797
20
-15.4181594295601
30
0
41
1
10
312.237320235906
20
-15.4258327163725
30
0
41
1
10
312.249480107384
20
-15.4285922899347
30
0
41
1
10
312.273650510628
20
-15.4345094072678
30
0
41
1
10
312.2856856319
20
-15.4376745606552
30
0
41
1
10
312.344957478697
20
-15.4543278489202
30
0
41
1
10
312.389822794096
20
-15.4703423122035
30
0
41
1
10
312.453873160276
20
-15.4977333959514
30
0
41
1
10
312.474692731668
20
-15.5074365045928
30
0
41
1
10
312.515244430845
20
-15.5278690117085
30
0
41
1
10
312.534769351319
20
-15.5384919205609
30
0
41
1
10
312.59133039941
20
-15.5714352244027
30
0
41
1
10
312.626364838563
20
-15.5948232970703
30
0
41
1
10
312.691948917994
20
-15.6439132816116
30
0
41
1
10
312.722492345166
20
-15.6696187773798
30
0
41
1
10
312.765334593007
20
-15.7096551375045
30
0
41
1
10
312.779057863306
20
-15.7231941437784
30
0
41
1
10
312.805330204972
20
-15.7504656421483
30
0
41
1
10
312.817905379912
20
-15.7642225670684
30
0
41
1
10
312.854083113589
20
-15.8058151540936
30
0
41
1
10
312.876143960085
20
-15.8339708984601
30
0
41
1
10
312.936949484282
20
-15.9194677653494
30
0
41
1
10
312.970364290906
20
-15.9778252560247
30
0
41
1
10
313.004748753389
20
-16.0519519835076
30
0
41
1
10
313.011235357177
20
-16.0668028579671
30
0
41
1
10
313.023423919448
20
-16.0964389487659
30
0
41
1
10
313.040550036156
20
-16.1408464318818
30
0
41
1
10
313.054403106867
20
-16.1850994474999
30
0
41
1
10
313.078124310559
20
-16.2733702360246
30
0
41
1
10
313.08865070342
20
-16.3319022018951
30
0
41
1
10
313.100335033771
20
-16.4482309238947
30
0
41
1
10
313.101485121447
20
-16.5060282740045
30
0
41
1
10
313.09651205519
20
-16.5921290727012
30
0
41
1
10
313.093724058405
20
-16.6207594932818
30
0
41
1
10
313.085986818234
20
-16.6773352806785
30
0
41
1
10
313.08103678931
20
-16.7053397211667
30
0
41
1
10
313.063002814472
20
-16.7885217152139
30
0
41
1
10
313.046756852141
20
-16.842870260448
30
0
41
1
10
313.005633892568
20
-16.9494000413023
30
0
41
1
10
312.980767806461
20
-17.0015820876183
30
0
41
1
10
312.936245726264
20
-17.0782010552181
30
0
41
1
10
312.920194038789
20
-17.1034643254679
30
0
41
1
10
312.885418817973
20
-17.1534215927829
30
0
41
1
10
312.866772654306
20
-17.1780003627777
30
0
41
1
10
312.82682470435
20
-17.2261819568507
30
0
41
1
10
312.805509140853
20
-17.2498077905929
30
0
41
1
10
312.759825889619
20
-17.2960661507038
30
0
41
1
10
312.73546182669
20
-17.3186994483054
30
0
41
1
10
312.696196438182
20
-17.3518237732988
30
0
41
1
10
312.682678737021
20
-17.3627035110324
30
0
41
1
10
312.654828359258
20
-17.3840290865344
30
0
41
1
10
312.640479857082
20
-17.3944886015842
30
0
41
1
10
312.596044811247
20
-17.4252177072211
30
0
41
1
10
312.564584848732
20
-17.4448439968687
30
0
41
1
10
312.497053038593
20
-17.4820511731383
30
0
41
1
10
312.461000012658
20
-17.4996392982582
30
0
41
1
10
312.412024818768
20
-17.519974525351
30
0
41
1
10
312.402013300801
20
-17.5239644076344
30
0
41
1
10
312.381730582092
20
-17.5316979169209
30
0
41
1
10
312.350868782221
20
-17.5429474103638
30
0
41
1
10
312.318622421256
20
-17.5530960713703
30
0
41
1
10
312.27421603065
20
-17.5655220088748
30
0
41
1
10
312.251308172709
20
-17.5711829116262
30
0
41
1
10
312.21570301937
20
-17.5787119005517
30
0
41
1
10
312.203665849588
20
-17.5810510534838
30
0
41
1
10
312.179452426878
20
-17.5853334906223
30
0
41
1
10
312.142831994254
20
-17.5911809043525
30
0
41
1
10
312.105280302516
20
-17.5952483778505
30
0
41
1
10
312.067051915759
20
-17.5980288149286
30
0
41
1
10
312.054196183861
20
-17.5987407998922
30
0
41
1
10
312.02824739097
20
-17.5997138976099
30
0
41
1
10
312.015248929466
20
-17.5999717221246
30
0
41
1
10
312.00219831096
20
-17.5999978033746
30
0
0
SPLINE
5
1E9
100
AcDbEntity
8
1
62
256
6
ByLayer
370
18
48
1
60
0
100
AcDbSpline
70
4
71
3
72
16
73
12
40
0
40
0
40
0
40
0
40
0.461208588217111
40
0.461208588217111
40
0.643534962278555
40
0.643534962278555
40
0.828408472975289
40
0.828408472975289
40
0.94300364415999
40
0.94300364415999
40
1
40
1
40
1
40
1
41
1
10
11.8943375672976
20
8.05584836782833
30
0
41
1
10
11.8660503915153
20
7.95080268681505
30
0
41
1
10
11.827333919291
20
7.84628670970858
30
0
41
1
10
11.7473160248317
20
7.71442469145182
30
0
41
1
10
11.7212784637479
20
7.67825379650782
30
0
41
1
10
11.6606543989166
20
7.61290523367285
30
0
41
1
10
11.6251722226875
20
7.58305923051466
30
0
41
1
10
11.559922585196
20
7.54855881865649
30
0
41
1
10
11.5324782774945
20
7.5385201810235
30
0
41
1
10
11.4901684747701
20
7.53097042135312
30
0
41
1
10
11.4757173930756
20
7.52966679426527
30
0
41
1
10
11.4613248654054
20
7.52966679426527
30
0
0
SPLINE
5
1EA
100
AcDbEntity
8
1
62
256
6
ByLayer
370
18
48
1
60
0
100
AcDbSpline
70
4
71
3
72
16
73
12
40
0
40
0
40
0
40
0
40
0.111430279628038
40
0.111430279628038
40
0.248747543515448
40
0.248747543515448
40
0.465535329195228
40
0.465535329195228
40
0.883855351867569
40
0.883855351867569
40
1
40
1
40
1
40
1
41
1
10
11.4613248654054
20
23.8391299750501
30
0
41
1
10
11.4891847159944
20
23.8391299750501
30
0
41
1
10
11.5173911427757
20
23.8375361275704
30
0
41
1
10
11.5758492032395
20
23.8311506585889
30
0
41
1
10
11.6060413892307
20
23.8256668770178
30
0
41
1
10
11.6751537543577
20
23.8089605749786
30
0
41
1
10
11.7107854085706
20
23.7960379707758
30
0
41
1
10
11.7989938907462
20
23.755682424683
30
0
41
1
10
11.8397320068511
20
23.7250165399979
30
0
41
1
10
11.879291701527
20
23.6845451449631
30
0
41
1
10
11.8871615985733
20
23.6755726082075
30
0
41
1
10
11.8943375672977
20
23.6665017920807
30
0
0
SPLINE
5
1EB
100
AcDbEntity
8
1
62
256
6
ByLayer
370
18
48
1
60
0
100
AcDbSpline
70
4
71
3
72
16
73
12
40
0
40
0
40
0
40
0
40
0.461208588217117
40
0.461208588217117
40
0.643534962278557
40
0.643534962278557
40
0.82840847297529
40
0.82840847297529
40
0.943003644159978
40
0.943003644159978
40
1
40
1
40
1
40
1
41
1
10
8.10566243270276
20
23.6665017920807
30
0
41
1
10
8.13394960848501
20
23.702258326163
30
0
41
1
10
8.17266608070938
20
23.7370095736336
30
0
41
1
10
8.25268397516865
20
23.7800170858172
30
0
41
1
10
8.27872153625248
20
23.7917125768791
30
0
41
1
10
8.33934560108376
20
23.8127037684949
30
0
41
1
10
8.37482777731277
20
23.8222104320952
30
0
41
1
10
8.44007741480436
20
23.8331586856491
30
0
41
1
10
8.46752172250579
20
23.8363323784728
30
0
41
1
10
8.5098315252302
20
23.8387183279984
30
0
41
1
10
8.52428260692474
20
23.8391299750503
30
0
41
1
10
8.5386751345949
20
23.8391299750503
30
0
0
SPLINE
5
1EC
100
AcDbEntity
8
1
62
256
6
ByLayer
370
18
48
1
60
0
100
AcDbSpline
70
4
71
3
72
16
73
12
40
0
40
0
40
0
40
0
40
0.111430279628029
40
0.111430279628029
40
0.248747543515448
40
0.248747543515448
40
0.465535329195224
40
0.465535329195224
40
0.883855351867554
40
0.883855351867554
40
1
40
1
40
1
40
1
41
1
10
8.53867513459497
20
7.52966679426561
30
0
41
1
10
8.51081528400593
20
7.52966679426561
30
0
41
1
10
8.48260885722463
20
7.53471706780914
30
0
41
1
10
8.42415079676087
20
7.55489210221089
30
0
41
1
10
8.39395861076959
20
7.57218953888503
30
0
41
1
10
8.32484624564259
20
7.62460019394149
30
0
41
1
10
8.2892145914297
20
7.66489294253967
30
0
41
1
10
8.20100610925414
20
7.78941367630409
30
0
41
1
10
8.16026799314928
20
7.88247511004209
30
0
41
1
10
8.12070829847335
20
8.00269269538069
30
0
41
1
10
8.11283840142704
20
8.0292000899164
30
0
41
1
10
8.1056624327026
20
8.05584836782828
30
0
0
SPLINE
5
1ED
100
AcDbEntity
8
1
62
256
6
ByLayer
370
18
48
1
60
0
100
AcDbSpline
70
4
71
3
72
16
73
12
40
0
40
0
40
0
40
0
40
0.46120858821709
40
0.46120858821709
40
0.643534962278534
40
0.643534962278534
40
0.828408472975274
40
0.828408472975274
40
0.943003644159976
40
0.943003644159976
40
1
40
1
40
1
40
1
41
1
10
11.8943375672976
20
-23.6665017920807
30
0
41
1
10
11.8660503915153
20
-23.702258326163
30
0
41
1
10
11.827333919291
20
-23.7370095736336
30
0
41
1
10
11.7473160248317
20
-23.7800170858172
30
0
41
1
10
11.7212784637479
20
-23.7917125768791
30
0
41
1
10
11.6606543989166
20
-23.8127037684949
30
0
41
1
10
11.6251722226875
20
-23.8222104320952
30
0
41
1
10
11.559922585196
20
-23.8331586856491
30
0
41
1
10
11.5324782774945
20
-23.8363323784729
30
0
41
1
10
11.4901684747701
20
-23.8387183279984
30
0
41
1
10
11.4757173930756
20
-23.8391299750503
30
0
41
1
10
11.4613248654054
20
-23.8391299750503
30
0
0
SPLINE
5
1EE
100
AcDbEntity
8
1
62
256
6
ByLayer
370
18
48
1
60
0
100
AcDbSpline
70
4
71
3
72
16
73
12
40
0
40
0
40
0
40
0
40
0.111430279628039
40
0.111430279628039
40
0.248747543515459
40
0.248747543515459
40
0.465535329195262
40
0.465535329195262
40
0.883855351867611
40
0.883855351867611
40
1
40
1
40
1
40
1
41
1
10
11.4613248654054
20
-7.52966679426561
30
0
41
1
10
11.4891847159944
20
-7.52966679426561
30
0
41
1
10
11.5173911427757
20
-7.53471706780914
30
0
41
1
10
11.5758492032395
20
-7.55489210221083
30
0
41
1
10
11.6060413892307
20
-7.57218953888503
30
0
41
1
10
11.6751537543577
20
-7.62460019394149
30
0
41
1
10
11.7107854085706
20
-7.66489294253967
30
0
41
1
10
11.7989938907462
20
-7.78941367630409
30
0
41
1
10
11.8397320068511
20
-7.88247511004209
30
0
41
1
10
11.879291701527
20
-8.00269269538069
30
0
41
1
10
11.8871615985733
20
-8.0292000899164
30
0
41
1
10
11.8943375672977
20
-8.05584836782828
30
0
0
SPLINE
5
1EF
100
AcDbEntity
8
1
62
256
6
ByLayer
370
18
48
1
60
0
100
AcDbSpline
70
4
71
3
72
16
73
12
40
0
40
0
40
0
40
0
40
0.4612085882171
40
0.4612085882171
40
0.643534962278542
40
0.643534962278542
40
0.828408472975277
40
0.828408472975277
40
0.943003644159978
40
0.943003644159978
40
1
40
1
40
1
40
1
41
1
10
8.10566243270276
20
-8.05584836782833
30
0
41
1
10
8.13394960848501
20
-7.95080268681505
30
0
41
1
10
8.17266608070938
20
-7.84628670970858
30
0
41
1
10
8.25268397516864
20
-7.71442469145182
30
0
41
1
10
8.27872153625246
20
-7.67825379650788
30
0
41
1
10
8.33934560108375
20
-7.61290523367285
30
0
41
1
10
8.37482777731277
20
-7.58305923051466
30
0
41
1
10
8.44007741480436
20
-7.54855881865649
30
0
41
1
10
8.46752172250579
20
-7.5385201810235
30
0
41
1
10
8.50983152523021
20
-7.53097042135312
30
0
41
1
10
8.52428260692474
20
-7.52966679426532
30
0
41
1
10
8.5386751345949
20
-7.52966679426527
30
0
0
SPLINE
5
1F0
100
AcDbEntity
8
1
62
256
6
ByLayer
370
18
48
1
60
0
100
AcDbSpline
70
4
71
3
72
16
73
12
40
0
40
0
40
0
40
0
40
0.111430279628029
40
0.111430279628029
40
0.248747543515443
40
0.248747543515443
40
0.465535329195214
40
0.465535329195214
40
0.883855351867533
40
0.883855351867533
40
1
40
1
40
1
40
1
41
1
10
8.53867513459497
20
-23.8391299750501
30
0
41
1
10
8.51081528400593
20
-23.8391299750501
30
0
41
1
10
8.48260885722463
20
-23.8375361275704
30
0
41
1
10
8.42415079676087
20
-23.8311506585889
30
0
41
1
10
8.3939586107696
20
-23.8256668770178
30
0
41
1
10
8.3248462456426
20
-23.8089605749785
30
0
41
1
10
8.28921459142971
20
-23.7960379707758
30
0
41
1
10
8.20100610925415
20
-23.7556824246831
30
0
41
1
10
8.16026799314929
20
-23.7250165399979
30
0
41
1
10
8.12070829847335
20
-23.6845451449631
30
0
41
1
10
8.11283840142704
20
-23.6755726082076
30
0
41
1
10
8.1056624327026
20
-23.6665017920807
30
0
0
SPLINE
5
1F1
100
AcDbEntity
8
1
62
256
6
ByLayer
370
18
48
1
60
0
100
AcDbSpline
70
4
71
2
72
6
73
3
40
0
40
0
40
0
40
1
40
1
40
1
41
1
10
-0.0645940291091591
20
-17.4198121346315
30
0
41
1
10
-0.0324996396413582
20
-17.4293456158969
30
0
41
1
10
-0.0356373334004871
20
-17.4655271597146
30
0
0
SPLINE
5
1F2
100
AcDbEntity
8
1
62
256
6
ByLayer
370
18
48
1
60
0
100
AcDbSpline
70
4
71
2
72
6
73
3
40
0
40
0
40
0
40
1
40
1
40
1
41
1
10
-0.0343899619089569
20
17.4680396001793
30
0
41
1
10
-0.0309721218843748
20
17.4299227844527
30
0
41
1
10
-0.0645859132411175
20
17.419812196217
30
0
0
SPLINE
5
1F3
100
AcDbEntity
8
1
62
256
6
ByLayer
370
18
48
1
60
0
100
AcDbSpline
70
4
71
3
72
11
73
7
40
0
40
0
40
0
40
0
40
0.0087711294158127
40
0.355012703120983
40
0.866990990447274
40
1
40
1
40
1
40
1
41
1
10
333.821252532252
20
-0.2520294443338
30
0
41
1
10
333.822312322871
20
-0.250525767903582
30
0
41
1
10
333.864865829476
20
-0.189734095280699
30
0
41
1
10
333.935818243043
20
-0.0485650242629276
30
0
41
1
10
333.989540509574
20
0.095203896869748
30
0
41
1
10
334.016550151815
20
0.221848866848518
30
0
41
1
10
334.021679525963
20
0.248587915162887
30
0
0
SPLINE
5
1F4
100
AcDbEntity
8
1
62
256
6
ByLayer
370
18
48
1
60
0
100
AcDbSpline
70
4
71
3
72
8
73
4
40
0
40
0
40
0
40
0
40
1
40
1
40
1
40
1
41
1
10
333.669735775697
20
1.961005377356
30
0
41
1
10
333.727697128798
20
1.961005377356
30
0
41
1
10
333.842488997179
20
1.961005377356
30
0
41
1
10
334.012910775696
20
1.961005377356
30
0
0
SPLINE
5
1F5
100
AcDbEntity
8
1
62
256
6
ByLayer
370
18
48
1
60
0
100
AcDbSpline
70
4
71
3
72
8
73
4
40
0
40
0
40
0
40
0
40
1
40
1
40
1
40
1
41
1
10
333.626343775697
20
7.04100537735604
30
0
41
1
10
333.637509001437
20
7.04100537735604
30
0
41
1
10
333.767558854323
20
7.04100537735604
30
0
41
1
10
334.012910775696
20
7.04100537735604
30
0
0
SPLINE
5
1F6
100
AcDbEntity
8
1
62
256
6
ByLayer
370
18
48
1
60
0
100
AcDbSpline
70
4
71
3
72
20
73
16
40
0
40
0
40
0
40
0
40
0.250000000000004
40
0.250000000000004
40
0.375000000000004
40
0.375000000000004
40
0.500000000000003
40
0.500000000000003
40
0.562500000000003
40
0.562500000000003
40
0.625000000000004
40
0.625000000000004
40
0.750000000000006
40
0.750000000000006
40
1
40
1
40
1
40
1
41
1
10
334.012910775695
20
7.04100537735621
30
0
41
1
10
333.956681741955
20
6.83363888592885
30
0
41
1
10
333.912630229055
20
6.62476022771193
30
0
41
1
10
333.87286945173
20
6.30817433998351
30
0
41
1
10
333.864012462771
20
6.20209975414895
30
0
41
1
10
333.856248999671
20
5.98871495839467
30
0
41
1
10
333.857351124413
20
5.8814036806923
30
0
41
1
10
333.867007018443
20
5.71944301280075
30
0
41
1
10
333.87156993429
20
5.66518260805742
30
0
41
1
10
333.883280069368
20
5.55715487024708
30
0
41
1
10
333.89042485439
20
5.5033286667923
30
0
41
1
10
333.915560911336
20
5.34238868722048
30
0
41
1
10
333.937262539335
20
5.23581480115934
30
0
41
1
10
334.015407262114
20
4.91799055636238
30
0
41
1
10
334.084839385404
20
4.70863021766354
30
0
41
1
10
334.166198598166
20
4.50100537735591
30
0
0
SPLINE
5
1F7
100
AcDbEntity
8
1
62
256
6
ByLayer
370
18
48
1
60
0
100
AcDbSpline
70
4
71
3
72
20
73
16
40
0
40
0
40
0
40
0
40
0.250000000000006
40
0.250000000000006
40
0.375000000000005
40
0.375000000000005
40
0.500000000000005
40
0.500000000000005
40
0.562500000000004
40
0.562500000000004
40
0.625000000000003
40
0.625000000000003
40
0.750000000000004
40
0.750000000000004
40
1
40
1
40
1
40
1
41
1
10
334.012910775695
20
1.96100537735583
30
0
41
1
10
333.956681741955
20
2.1683718687832
30
0
41
1
10
333.912630229055
20
2.37725052700012
30
0
41
1
10
333.87286945173
20
2.69383641472854
30
0
41
1
10
333.864012462771
20
2.79991100056304
30
0
41
1
10
333.85624899967
20
3.01329579631738
30
0
41
1
10
333.857351124413
20
3.12060707401975
30
0
41
1
10
333.867007018443
20
3.28256774191124
30
0
41
1
10
333.87156993429
20
3.33682814665457
30
0
41
1
10
333.883280069368
20
3.44485588446497
30
0
41
1
10
333.89042485439
20
3.49868208791975
30
0
41
1
10
333.915560911336
20
3.65962206749157
30
0
41
1
10
333.937262539335
20
3.76619595355265
30
0
41
1
10
334.015407262114
20
4.08402019834961
30
0
41
1
10
334.084839385404
20
4.29338053704845
30
0
41
1
10
334.166198598166
20
4.50100537735614
30
0
0
SPLINE
5
1F8
100
AcDbEntity
8
1
62
256
6
ByLayer
370
18
48
1
60
0
100
AcDbSpline
70
4
71
3
72
32
73
28
40
0
40
0
40
0
40
0
40
0.0624999999994326
40
0.0624999999994326
40
0.0937499999992577
40
0.0937499999992577
40
0.124999999999083
40
0.124999999999083
40
0.187499999998735
40
0.187499999998735
40
0.21874999999865
40
0.21874999999865
40
0.249999999998567
40
0.249999999998567
40
0.374999999998711
40
0.374999999998711
40
0.43749999999885
40
0.43749999999885
40
0.499999999998989
40
0.499999999998989
40
0.624999999999241
40
0.624999999999241
40
0.749999999999494
40
0.749999999999494
40
0.874999999999747
40
0.874999999999747
40
1
40
1
40
1
40
1
41
1
10
334.836586426801
20
-20.9728325295357
30
0
41
1
10
334.851764324137
20
-20.9728325295357
30
0
41
1
10
334.866543150054
20
-20.9719582154041
30
0
41
1
10
334.888191588368
20
-20.9695064117666
30
0
41
1
10
334.895357433785
20
-20.9684919321487
30
0
41
1
10
334.90935181074
20
-20.9661327969676
30
0
41
1
10
334.916129423521
20
-20.9647995469431
30
0
41
1
10
334.935902784896
20
-20.9604072067668
30
0
41
1
10
334.948343928503
20
-20.9569589188109
30
0
41
1
10
334.9661584079
20
-20.9511877200003
30
0
41
1
10
334.971954118822
20
-20.949161895182
30
0
41
1
10
334.983140424224
20
-20.9449904979192
30
0
41
1
10
334.988553958609
20
-20.9428377462114
30
0
41
1
10
335.014853679828
20
-20.9317855180472
30
0
41
1
10
335.033503885353
20
-20.9220452159068
30
0
41
1
10
335.059273090835
20
-20.9065791231423
30
0
41
1
10
335.067465814438
20
-20.9012840534424
30
0
41
1
10
335.083041513192
20
-20.8905759626852
30
0
41
1
10
335.090452726268
20
-20.8851456160983
30
0
41
1
10
335.111757599201
20
-20.8686611019893
30
0
41
1
10
335.124732826205
20
-20.8574153011221
30
0
41
1
10
335.148882502451
20
-20.8345258271589
30
0
41
1
10
335.160049997275
20
-20.8228809102048
30
0
41
1
10
335.180947068128
20
-20.7992554830258
30
0
41
1
10
335.19067379809
20
-20.7872744655892
30
0
41
1
10
335.208920411892
20
-20.7630157156177
30
0
41
1
10
335.217452633334
20
-20.7507150908665
30
0
41
1
10
335.225413830997
20
-20.7383511521115
30
0
0
SPLINE
5
1F9
100
AcDbEntity
8
1
62
256
6
ByLayer
370
18
48
1
60
0
100
AcDbSpline
70
4
71
3
72
18
73
14
40
0
40
0
40
0
40
0
40
0.249999999999989
40
0.249999999999989
40
0.499999999999978
40
0.499999999999978
40
0.562500000000001
40
0.562500000000001
40
0.625000000000024
40
0.625000000000024
40
0.750000000000015
40
0.750000000000015
40
1
40
1
40
1
40
1
41
1
10
324.437173774675
20
-20.5858461482577
30
0
41
1
10
324.639715895881
20
-20.6441392800199
30
0
41
1
10
324.847084329093
20
-20.6971721745913
30
0
41
1
10
325.273798718909
20
-20.7913104750089
30
0
41
1
10
325.493134223598
20
-20.8324267458913
30
0
41
1
10
325.776776063457
20
-20.8750344782337
30
0
41
1
10
325.833980657579
20
-20.883114322384
30
0
41
1
10
325.949403569209
20
-20.8983466713503
30
0
41
1
10
326.007666373785
20
-20.9055018961773
30
0
41
1
10
326.182674178359
20
-20.9253581955953
30
0
41
1
10
326.300067484386
20
-20.9365109933971
30
0
41
1
10
326.654530648188
20
-20.9634859192121
30
0
41
1
10
326.893886265051
20
-20.9728325295358
30
0
41
1
10
327.136586426801
20
-20.9728325295357
30
0
0
SPLINE
5
1FA
100
AcDbEntity
8
1
62
256
6
ByLayer
370
18
48
1
60
0
100
AcDbSpline
70
4
71
3
72
16
73
12
40
0
40
0
40
0
40
0
40
0.25
40
0.25
40
0.375
40
0.375
40
0.5
40
0.5
40
0.75
40
0.75
40
1
40
1
40
1
40
1
41
1
10
331.076114679671
20
-15.9693967474224
30
0
41
1
10
331.076114679671
20
-15.8936228004857
30
0
41
1
10
331.080625661114
20
-15.8172320690967
30
0
41
1
10
331.094756356254
20
-15.7016933848005
30
0
41
1
10
331.1006990371
20
-15.6630177547119
30
0
41
1
10
331.115208338704
20
-15.5853572659781
30
0
41
1
10
331.123725018853
20
-15.5466408531895
30
0
41
1
10
331.153201027757
20
-15.4308713266458
30
0
41
1
10
331.178059517294
20
-15.3541926843699
30
0
41
1
10
331.239482929037
20
-15.2021464632848
30
0
41
1
10
331.276025823385
20
-15.1267744366383
30
0
41
1
10
331.319607796827
20
-15.0523187715147
30
0
0
SPLINE
5
1FB
100
AcDbEntity
8
1
62
256
6
ByLayer
370
18
48
1
60
0
100
AcDbSpline
70
4
71
3
72
8
73
4
40
0
40
0
40
0
40
0
40
1
40
1
40
1
40
1
41
1
10
321.53370086002
20
-2.41788284715341
30
0
41
1
10
322.867034193354
20
-2.41788284715341
30
0
41
1
10
324.200367526687
20
-2.41788284715341
30
0
41
1
10
325.53370086002
20
-2.41788284715341
30
0
0
SPLINE
5
1FC
100
AcDbEntity
8
1
62
256
6
ByLayer
370
18
48
1
60
0
100
AcDbSpline
70
4
71
3
72
8
73
4
40
0
40
0
40
0
40
0
40
1
40
1
40
1
40
1
41
1
10
321.53370086002
20
-3.63845076733759
30
0
41
1
10
321.53370086002
20
-3.23159479394286
30
0
41
1
10
321.53370086002
20
-2.82473882054813
30
0
41
1
10
321.53370086002
20
-2.41788284715341
30
0
0
SPLINE
5
1FD
100
AcDbEntity
8
1
62
256
6
ByLayer
370
18
48
1
60
0
100
AcDbSpline
70
4
71
3
72
18
73
14
40
0
40
0
40
0
40
0
40
0.191325435437368
40
0.191325435437368
40
0.382650870874737
40
0.382650870874737
40
0.536214707212625
40
0.536214707212625
40
0.690626528447002
40
0.690626528447002
40
0.845885455798056
40
0.845885455798056
40
1
40
1
40
1
40
1
41
1
10
323.66212245122
20
-4.23195294180675
30
0
41
1
10
323.590492878439
20
-4.42514813239262
30
0
41
1
10
323.469745884323
20
-4.57413764377657
30
0
41
1
10
323.127970494198
20
-4.78206806076304
30
0
41
1
10
322.926384410801
20
-4.83445997685408
30
0
41
1
10
322.505816490617
20
-4.83445997685408
30
0
41
1
10
322.33185895672
20
-4.80253365298609
30
0
41
1
10
322.009662016825
20
-4.67611752879782
30
0
41
1
10
321.885709046257
20
-4.59787773075539
30
0
41
1
10
321.711274345232
20
-4.41071955741961
30
0
41
1
10
321.645238337636
20
-4.29498696585387
30
0
41
1
10
321.555521597174
20
-4.0144182502271
30
0
41
1
10
321.53370086002
20
-3.84146944219049
30
0
41
1
10
321.53370086002
20
-3.63845076733759
30
0
0
SPLINE
5
1FE
100
AcDbEntity
8
1
62
256
6
ByLayer
370
18
48
1
60
0
100
AcDbSpline
70
4
71
3
72
18
73
14
40
0
40
0
40
0
40
0
40
0.252026352812658
40
0.252026352812658
40
0.405612964547161
40
0.405612964547161
40
0.559855857536001
40
0.559855857536001
40
0.714098750524839
40
0.714098750524839
40
0.85720187902004
40
0.85720187902004
40
1
40
1
40
1
40
1
41
1
10
325.53370086002
20
-2.41788284715341
30
0
41
1
10
325.53370086002
20
-2.81818983103676
30
0
41
1
10
325.53370086002
20
-3.21849681492012
30
0
41
1
10
325.53370086002
20
-3.86275365810252
30
0
41
1
10
325.492769675574
20
-4.05922334344405
30
0
41
1
10
325.330746068603
20
-4.35455751311292
30
0
41
1
10
325.206251384451
20
-4.47017243528336
30
0
41
1
10
324.870615671993
20
-4.63717166782368
30
0
41
1
10
324.694611578874
20
-4.67892147595876
30
0
41
1
10
324.339533553804
20
-4.67892147595876
30
0
41
1
10
324.178878654853
20
-4.64208340995719
30
0
41
1
10
323.876310678001
20
-4.4932526753978
30
0
41
1
10
323.754217616224
20
-4.38176107687968
30
0
41
1
10
323.66212245122
20
-4.23195294180675
30
0
0
SPLINE
5
1FF
100
AcDbEntity
8
1
62
256
6
ByLayer
370
18
48
1
60
0
100
AcDbSpline
70
4
71
3
72
8
73
4
40
0
40
0
40
0
40
0
40
1
40
1
40
1
40
1
41
1
10
322.024875073374
20
-3.9266063058385
30
0
41
1
10
322.046363945208
20
-4.02402252482034
30
0
41
1
10
322.08320201121
20
-4.10506627002371
30
0
41
1
10
322.134365991768
20
-4.17055616513755
30
0
0
SPLINE
5
200
100
AcDbEntity
8
1
62
256
6
ByLayer
370
18
48
1
60
0
100
AcDbSpline
70
4
71
3
72
10
73
6
40
0
40
0
40
0
40
0
40
0.660338983050848
40
0.660338983050848
40
1
40
1
40
1
40
1
41
1
10
322.005432760762
20
-2.84111129432659
30
0
41
1
10
322.005432760762
20
-3.10689111866361
30
0
41
1
10
322.005432760762
20
-3.37267094300057
30
0
41
1
10
322.005432760762
20
-3.77516092338772
30
0
41
1
10
322.011572438429
20
-3.87093989499175
30
0
41
1
10
322.024875073374
20
-3.9266063058385
30
0
0
SPLINE
5
201
100
AcDbEntity
8
1
62
256
6
ByLayer
370
18
48
1
60
0
100
AcDbSpline
70
4
71
3
72
8
73
4
40
0
40
0
40
0
40
0
40
1
40
1
40
1
40
1
41
1
10
323.380720558153
20
-2.84111129432659
30
0
41
1
10
322.922291292356
20
-2.84111129432659
30
0
41
1
10
322.463862026559
20
-2.84111129432659
30
0
41
1
10
322.005432760762
20
-2.84111129432659
30
0
0
SPLINE
5
202
100
AcDbEntity
8
1
62
256
6
ByLayer
370
18
48
1
60
0
100
AcDbSpline
70
4
71
3
72
18
73
14
40
0
40
0
40
0
40
0
40
0.144086644560488
40
0.144086644560488
40
0.28773106250512
40
0.28773106250512
40
0.456860780407672
40
0.456860780407672
40
0.627194363444233
40
0.627194363444233
40
0.795871414023978
40
0.795871414023978
40
1
40
1
40
1
40
1
41
1
10
322.134365991768
20
-4.17055616513755
30
0
41
1
10
322.184506692714
20
-4.2360460602514
30
0
41
1
10
322.259206104328
20
-4.29007522372029
30
0
41
1
10
322.453330871494
20
-4.37508143755264
30
0
41
1
10
322.566189987675
20
-4.39567767959136
30
0
41
1
10
322.842475482686
20
-4.39567767959136
30
0
41
1
10
322.972431993303
20
-4.36538860310122
30
0
41
1
10
323.192193186318
20
-4.24215802757834
30
0
41
1
10
323.269183080537
20
-4.15827680980368
30
0
41
1
10
323.358793814833
20
-3.94158176141582
30
0
41
1
10
323.380720558153
20
-3.7849844076548
30
0
41
1
10
323.380720558153
20
-3.3344685041842
30
0
41
1
10
323.380720558153
20
-3.08778989925543
30
0
41
1
10
323.380720558153
20
-2.84111129432659
30
0
0
SPLINE
5
203
100
AcDbEntity
8
1
62
256
6
ByLayer
370
18
48
1
60
0
100
AcDbSpline
70
4
71
3
72
8
73
4
40
0
40
0
40
0
40
0
40
1
40
1
40
1
40
1
41
1
10
325.061968959279
20
-2.84111129432659
30
0
41
1
10
324.658796792484
20
-2.84111129432659
30
0
41
1
10
324.255624625689
20
-2.84111129432659
30
0
41
1
10
323.852452458895
20
-2.84111129432659
30
0
0
SPLINE
5
204
100
AcDbEntity
8
1
62
256
6
ByLayer
370
18
48
1
60
0
100
AcDbSpline
70
4
71
3
72
22
73
18
40
0
40
0
40
0
40
0
40
0.125919801008143
40
0.125919801008143
40
0.228173823812627
40
0.228173823812627
40
0.362000949327648
40
0.362000949327648
40
0.497453699158084
40
0.497453699158084
40
0.624996799363384
40
0.624996799363384
40
0.753577031326437
40
0.753577031326437
40
0.881194351724583
40
0.881194351724583
40
1
40
1
40
1
40
1
41
1
10
323.852452458895
20
-2.84111129432659
30
0
41
1
10
323.852452458895
20
-3.0719631746029
30
0
41
1
10
323.852452458895
20
-3.30281505487915
30
0
41
1
10
323.852452458895
20
-3.72113175991882
30
0
41
1
10
323.868824932673
20
-3.85538604490216
30
0
41
1
10
323.939700489163
20
-4.04438752887512
30
0
41
1
10
324.005944400568
20
-4.12635048593569
30
0
41
1
10
324.19125342859
20
-4.23506511570855
30
0
41
1
10
324.307811885858
20
-4.26224201829694
30
0
41
1
10
324.580004262425
20
-4.26224201829694
30
0
41
1
10
324.697681417708
20
-4.23686468394032
30
0
41
1
10
324.899059671537
20
-4.13494262894079
30
0
41
1
10
324.968850514664
20
-4.0624978381997
30
0
41
1
10
325.04225077378
20
-3.87328828136674
30
0
41
1
10
325.061968959279
20
-3.7104896519628
30
0
41
1
10
325.061968959279
20
-3.26788711081843
30
0
41
1
10
325.061968959279
20
-3.05449920257252
30
0
41
1
10
325.061968959279
20
-2.84111129432659
30
0
0
SPLINE
5
205
100
AcDbEntity
8
1
62
256
6
ByLayer
370
18
48
1
60
0
100
AcDbSpline
70
4
71
3
72
14
73
10
40
0
40
0
40
0
40
0
40
0.30243953589274
40
0.30243953589274
40
0.604832503932935
40
0.604832503932935
40
0.907857367030919
40
0.907857367030919
40
1
40
1
40
1
40
1
41
1
10
326.601481908329
20
-21.2940067876177
30
0
41
1
10
326.511819043526
20
-21.290022847999
30
0
41
1
10
326.420969506744
20
-21.2864080834703
30
0
41
1
10
326.251945369627
20
-21.2808319131637
30
0
41
1
10
326.171435407306
20
-21.278807484248
30
0
41
1
10
326.031492490495
20
-21.2774451965931
30
0
41
1
10
325.970165820529
20
-21.278117026463
30
0
41
1
10
325.908015901346
20
-21.28134418399
30
0
41
1
10
325.894577343473
20
-21.2822746079073
30
0
41
1
10
325.882446671289
20
-21.2833808482831
30
0
0
SPLINE
5
206
100
AcDbEntity
8
1
62
256
6
ByLayer
370
18
48
1
60
0
100
AcDbSpline
70
4
71
3
72
8
73
4
40
0
40
0
40
0
40
0
40
1
40
1
40
1
40
1
41
1
10
324.637173774675
20
21.1208496972949
30
0
41
1
10
324.79002761865
20
21.1546127013824
30
0
41
1
10
324.943454833288
20
21.1854397828505
30
0
41
1
10
325.097502041201
20
21.2133628597338
30
0
0
SPLINE
5
207
100
AcDbEntity
8
1
62
256
6
ByLayer
370
18
48
1
60
0
100
AcDbSpline
70
4
71
3
72
20
73
16
40
0
40
0
40
0
40
0
40
0.145238614567465
40
0.145238614567465
40
0.316534079942819
40
0.316534079942819
40
0.445037822111604
40
0.445037822111604
40
0.549660439794436
40
0.549660439794436
40
0.681182059071602
40
0.681182059071602
40
0.860808574223346
40
0.860808574223346
40
1
40
1
40
1
40
1
41
1
10
326.801481908329
20
18.6202951398753
30
0
41
1
10
326.686722886835
20
18.5468459151588
30
0
41
1
10
326.582162955476
20
18.4559186439153
30
0
41
1
10
326.395770547669
20
18.2408207747981
30
0
41
1
10
326.316561471096
20
18.1098224302951
30
0
41
1
10
326.219640420351
20
17.8640588852553
30
0
41
1
10
326.190526120013
20
17.750162872658
30
0
41
1
10
326.165973338702
20
17.535421264808
30
0
41
1
10
326.165424966273
20
17.434033030827
30
0
41
1
10
326.188024718549
20
17.2134136928426
30
0
41
1
10
326.217041374506
20
17.0932604847675
30
0
41
1
10
326.316426363143
20
16.8299296433495
30
0
41
1
10
326.400017768593
20
16.6874440055009
30
0
41
1
10
326.590632218225
20
16.4660020974237
30
0
41
1
10
326.691379137296
20
16.3774403881574
30
0
41
1
10
326.801481908329
20
16.3069713037559
30
0
0
SPLINE
5
208
100
AcDbEntity
8
1
62
256
6
ByLayer
370
18
48
1
60
0
100
AcDbSpline
70
4
71
3
72
26
73
22
40
0
40
0
40
0
40
0
40
0.124999999999879
40
0.249999999999758
40
0.249999999999758
40
0.312499999999786
40
0.312499999999786
40
0.374999999999815
40
0.374999999999815
40
0.499999999999872
40
0.499999999999872
40
0.562499999999901
40
0.562499999999901
40
0.62499999999993
40
0.62499999999993
40
0.749999999999988
40
0.875000000000046
40
0.875000000000046
40
0.937500000000023
40
0.937500000000023
40
1
40
1
40
1
40
1
41
1
10
326.801481908329
20
21.3034345291767
30
0
41
1
10
326.763888564413
20
21.3017581187552
30
0
41
1
10
326.68961795066
20
21.2983241679873
30
0
41
1
10
326.617101830574
20
21.2947534866627
30
0
41
1
10
326.563381950441
20
21.2920450660173
30
0
41
1
10
326.545535476633
20
21.2911346572002
30
0
41
1
10
326.510310824522
20
21.2893213788402
30
0
41
1
10
326.493022589497
20
21.2884232212588
30
0
41
1
10
326.442104470738
20
21.2857628510635
30
0
41
1
10
326.4094167281
20
21.2840341919413
30
0
41
1
10
326.362254114653
20
21.2815521574024
30
0
41
1
10
326.346845865083
20
21.2807434334196
30
0
41
1
10
326.31666550289
20
21.2791723312603
30
0
41
1
10
326.301837084719
20
21.2784071111911
30
0
41
1
10
326.258836192818
20
21.2762221567409
30
0
41
1
10
326.205439801941
20
21.2736021783588
30
0
41
1
10
326.159670451257
20
21.271693069998
30
0
41
1
10
326.12828123106
20
21.2705883827118
30
0
41
1
10
326.1182910447
20
21.2702745469863
30
0
41
1
10
326.099503696993
20
21.2697729977952
30
0
41
1
10
326.090685994507
20
21.2695843913477
30
0
41
1
10
326.082446671289
20
21.2694621402998
30
0
0
SPLINE
5
209
100
AcDbEntity
8
1
62
256
6
ByLayer
370
18
48
1
60
0
100
AcDbSpline
70
4
71
3
72
18
73
14
40
0
40
0
40
0
40
0
40
0.25
40
0.25
40
0.5
40
0.5
40
0.625
40
0.625
40
0.75
40
0.75
40
0.875
40
0.875
40
1
40
1
40
1
40
1
41
1
10
331.104171236207
20
7.45927536046395
30
0
41
1
10
331.170668891841
20
7.52062948041635
30
0
41
1
10
331.237909561135
20
7.57932105231708
30
0
41
1
10
331.373939053317
20
7.69190312185532
30
0
41
1
10
331.442727817792
20
7.74578949232233
30
0
41
1
10
331.546983880303
20
7.82320169909781
30
0
41
1
10
331.582008811124
20
7.84849880937736
30
0
41
1
10
331.651562165042
20
7.89740002323731
30
0
41
1
10
331.686161228514
20
7.92106013634162
30
0
41
1
10
331.754911535222
20
7.96684716091477
30
0
41
1
10
331.789063858945
20
7.98897437734951
30
0
41
1
10
331.856757873703
20
8.03170103219281
30
0
41
1
10
331.890302021238
20
8.05230141505683
30
0
41
1
10
331.923399289184
20
8.07211091495913
30
0
0
SPLINE
5
20A
100
AcDbEntity
8
1
62
256
6
ByLayer
370
18
48
1
60
0
100
AcDbSpline
70
4
71
3
72
20
73
16
40
0
40
0
40
0
40
0
40
0.125000000000037
40
0.125000000000037
40
0.187500000000038
40
0.187500000000038
40
0.250000000000038
40
0.250000000000038
40
0.499999999999969
40
0.499999999999969
40
0.624999999999977
40
0.624999999999977
40
0.749999999999984
40
0.749999999999984
40
1
40
1
40
1
40
1
41
1
10
329.555399741213
20
4.53017122477507
30
0
41
1
10
329.558093149548
20
4.54834130241051
30
0
41
1
10
329.560995535412
20
4.56722928202635
30
0
41
1
10
329.565702726043
20
4.59664489424301
30
0
41
1
10
329.567330802583
20
4.60663097294412
30
0
41
1
10
329.570712731926
20
4.62696934482005
30
0
41
1
10
329.572469118427
20
4.63733527607485
30
0
41
1
10
329.581490789524
20
4.68955140397276
30
0
41
1
10
329.589536009625
20
4.73293771710041
30
0
41
1
10
329.60302508772
20
4.80029006606111
30
0
41
1
10
329.607758806727
20
4.82312214462831
30
0
41
1
10
329.617738396091
20
4.86955311760619
30
0
41
1
10
329.622991027583
20
4.89317329583071
30
0
41
1
10
329.639286326978
20
4.9639775376404
30
0
41
1
10
329.650948096816
20
5.01149799142013
30
0
41
1
10
329.663449775376
20
5.05932148698798
30
0
0
SPLINE
5
20B
100
AcDbEntity
8
1
62
256
6
ByLayer
370
18
48
1
60
0
100
AcDbSpline
70
4
71
3
72
8
73
4
40
0
40
0
40
0
40
0
40
1
40
1
40
1
40
1
41
1
10
327.082253603477
20
18.5215334460292
30
0
41
1
10
327.061541599208
20
18.5506396532355
30
0
41
1
10
327.040848820528
20
18.5797014116759
30
0
41
1
10
327.020171452373
20
18.608727632611
30
0
0
SPLINE
5
20C
100
AcDbEntity
8
1
62
256
6
ByLayer
370
18
48
1
60
0
100
AcDbSpline
70
4
71
3
72
21
73
17
40
0
40
0
40
0
40
0
40
0.0076062058284099
40
0.0362116345437391
40
0.133319866247603
40
0.230356709303252
40
0.326171345887707
40
0.419962020026264
40
0.511813482418984
40
0.602571523106474
40
0.693450944603619
40
0.785584848264091
40
0.879651516200831
40
0.97562682537855
40
0.99239379416025
40
1
40
1
40
1
40
1
41
1
10
301
20
-18.5436770913357
30
0
41
1
10
300.997941615809
20
-18.5471259642646
30
0
41
1
10
300.988725156481
20
-18.5635525549351
30
0
41
1
10
300.964878205677
20
-18.6242895554042
30
0
41
1
10
300.985310586646
20
-18.7255205103074
30
0
41
1
10
301.131914684839
20
-18.8405598470878
30
0
41
1
10
301.380099310865
20
-18.9272154651696
30
0
41
1
10
301.697218234603
20
-18.9785156018511
30
0
41
1
10
302.043787657418
20
-18.9923531119123
30
0
41
1
10
302.381472980324
20
-18.9694342899977
30
0
41
1
10
302.676408660671
20
-18.9118102534975
30
0
41
1
10
302.899163437168
20
-18.8226512467728
30
0
41
1
10
303.024974610871
20
-18.7077049489444
30
0
41
1
10
303.032762997348
20
-18.6129269292508
30
0
41
1
10
303.008262034585
20
-18.5581830264808
30
0
41
1
10
303.002058166698
20
-18.5471254572436
30
0
41
1
10
303
20
-18.5436770913358
30
0
0
SPLINE
5
20D
100
AcDbEntity
8
1
62
256
6
ByLayer
370
18
48
1
60
0
100
AcDbSpline
70
4
71
3
72
12
73
8
40
0
40
0
40
0
40
0
40
0.145394273601165
40
0.380149463060556
40
0.614655365688817
40
0.845468064252325
40
1
40
1
40
1
40
1
41
1
10
333.0000882236
20
-15.5450394692544
30
0
41
1
10
332.932229705129
20
-15.5162982213658
30
0
41
1
10
332.752222458623
20
-15.4611962353131
30
0
41
1
10
332.435979225995
20
-15.4555915628318
30
0
41
1
10
332.092923148504
20
-15.5712026221578
30
0
41
1
10
331.835847372612
20
-15.7730654250418
30
0
41
1
10
331.721163962563
20
-15.9340281704494
30
0
41
1
10
331.68116011428
20
-16.0052312781787
30
0
0
SPLINE
5
20E
100
AcDbEntity
8
1
62
256
6
ByLayer
370
18
48
1
60
0
100
AcDbSpline
70
4
71
3
72
12
73
8
40
0
40
0
40
0
40
0
40
0.145394273601165
40
0.380149463060556
40
0.614655365688817
40
0.845468064252325
40
1
40
1
40
1
40
1
41
1
10
333.0000882236
20
-15.5450394692544
30
0
41
1
10
332.932229705129
20
-15.5162982213658
30
0
41
1
10
332.752222458623
20
-15.4611962353131
30
0
41
1
10
332.435979225995
20
-15.4555915628318
30
0
41
1
10
332.092923148504
20
-15.5712026221578
30
0
41
1
10
331.835847372612
20
-15.7730654250418
30
0
41
1
10
331.721163962563
20
-15.9340281704494
30
0
41
1
10
331.68116011428
20
-16.0052312781787
30
0
0
SPLINE
5
20F
100
AcDbEntity
8
1
62
256
6
ByLayer
370
18
48
1
60
0
100
AcDbSpline
70
4
71
3
72
8
73
4
40
0
40
0
40
0
40
0
40
1
40
1
40
1
40
1
41
1
10
311.789097765083
20
-15.5224928402784
30
0
41
1
10
311.796244444498
20
-15.5766117578978
30
0
41
1
10
311.803394171134
20
-15.630753750886
30
0
41
1
10
311.810549177506
20
-15.6849357251882
30
0
0
SPLINE
5
210
100
AcDbEntity
8
1
62
256
6
ByLayer
370
18
48
1
60
0
100
AcDbSpline
70
4
71
3
72
8
73
4
40
0
40
0
40
0
40
0
40
1
40
1
40
1
40
1
41
1
10
311.557062452291
20
-15.790050906721
30
0
41
1
10
311.523775047857
20
-15.7467054437344
30
0
41
1
10
311.490512206466
20
-15.703391965713
30
0
41
1
10
311.45726354173
20
-15.6600969479369
30
0
0
SPLINE
5
211
100
AcDbEntity
8
1
62
256
6
ByLayer
370
18
48
1
60
0
100
AcDbSpline
70
4
71
3
72
8
73
4
40
0
40
0
40
0
40
0
40
1
40
1
40
1
40
1
41
1
10
312.179616843748
20
17.4837366463856
30
0
41
1
10
312.165488234072
20
17.4310079572345
30
0
41
1
10
312.151353600202
20
17.3782567854841
30
0
41
1
10
312.13720852857
20
17.3254666594756
30
0
0
SPLINE
5
212
100
AcDbEntity
8
1
62
256
6
ByLayer
370
18
48
1
60
0
100
AcDbSpline
70
4
71
3
72
8
73
4
40
0
40
0
40
0
40
0
40
1
40
1
40
1
40
1
41
1
10
311.86279147143
20
17.3254666594756
30
0
41
1
10
311.848646399798
20
17.3782567854841
30
0
41
1
10
311.834511765928
20
17.4310079572345
30
0
41
1
10
311.820383156252
20
17.4837366463856
30
0
0
SPLINE
5
213
100
AcDbEntity
8
1
62
256
6
ByLayer
370
18
48
1
60
0
100
AcDbSpline
70
4
71
3
72
13
73
9
40
0
40
0
40
0
40
0
40
0.162752836445624
40
0.507922476129754
40
0.694778125538432
40
0.825485148835363
40
0.958031290793085
40
1
40
1
40
1
40
1
41
1
10
333.892191045836
20
-0.569621489082579
30
0
41
1
10
333.878395383824
20
-0.488118619481725
30
0
41
1
10
333.828979401736
20
-0.24373657764238
30
0
41
1
10
333.75692321647
20
0.0130184679730974
30
0
41
1
10
333.627681393898
20
0.266780385521542
30
0
41
1
10
333.435124227599
20
0.455566863500508
30
0
41
1
10
333.216658468257
20
0.560095310794452
30
0
41
1
10
333.088149756749
20
0.54582605974997
30
0
41
1
10
333.056295036799
20
0.539738719696629
30
0
0
SPLINE
5
214
100
AcDbEntity
8
1
62
256
6
ByLayer
370
18
48
1
60
0
100
AcDbSpline
70
4
71
3
72
14
73
10
40
0
40
0
40
0
40
0
40
0.0180610851093655
40
0.154332048364918
40
0.273484720312167
40
0.406760181823112
40
0.579045954969099
40
0.862514402476564
40
1
40
1
40
1
40
1
41
1
10
333.06119069322
20
-9.54811408517145
30
0
41
1
10
333.074038824012
20
-9.55098598747549
30
0
41
1
10
333.18279161077
20
-9.57092272721752
30
0
41
1
10
333.383373502124
20
-9.48556167300177
30
0
41
1
10
333.568920040665
20
-9.33607623211157
30
0
41
1
10
333.682808504269
20
-9.16603720440452
30
0
41
1
10
333.772216906027
20
-8.95720690318979
30
0
41
1
10
333.834709810476
20
-8.74052583162211
30
0
41
1
10
333.871840259328
20
-8.5317979072945
30
0
41
1
10
333.882732203091
20
-8.45994315544806
30
0
0
SPLINE
5
215
100
AcDbEntity
8
1
62
256
6
ByLayer
370
18
48
1
60
0
100
AcDbSpline
70
4
71
3
72
21
73
17
40
0
40
0
40
0
40
0
40
0.0076062058284142
40
0.0362116345437641
40
0.133319866247877
40
0.230356709303742
40
0.326171345888208
40
0.419962020026746
40
0.511813482419458
40
0.602571523106933
40
0.6934509446041
40
0.785584848264574
40
0.87965151620133
40
0.975626825379108
40
0.992393794160247
40
1
40
1
40
1
40
1
41
1
10
301
20
7.49213186831827
30
0
41
1
10
300.997941615808
20
7.48359599044932
30
0
41
1
10
300.988725156479
20
7.44285639731856
30
0
41
1
10
300.964878205679
20
7.29081096400904
30
0
41
1
10
300.985310586646
20
7.02837156768896
30
0
41
1
10
301.13191468484
20
6.71299596550517
30
0
41
1
10
301.380099310866
20
6.46340586789904
30
0
41
1
10
301.697218234605
20
6.31021161754171
30
0
41
1
10
302.043787657419
20
6.26816193150842
30
0
41
1
10
302.381472980326
20
6.33762203521547
30
0
41
1
10
302.676408660673
20
6.50848458976179
30
0
41
1
10
302.899163437169
20
6.76304234265365
30
0
41
1
10
303.024974610872
20
7.07557986534783
30
0
41
1
10
303.032762997346
20
7.31954787406488
30
0
41
1
10
303.008262034586
20
7.45617337350939
30
0
41
1
10
303.002058166697
20
7.48359713480716
30
0
41
1
10
303
20
7.49213186831832
30
0
0
SPLINE
5
216
100
AcDbEntity
8
1
62
256
6
ByLayer
370
18
48
1
60
0
100
AcDbSpline
70
4
71
3
72
20
73
16
40
0
40
0
40
0
40
0
40
0.007606473588284
40
0.104770763643171
40
0.201913419111267
40
0.298208188805776
40
0.392626122197979
40
0.484988760517691
40
0.575951883196246
40
0.66666998330518
40
0.758343608506696
40
0.851815887281262
40
0.947285315763368
40
0.992393526410423
40
1
40
1
40
1
40
1
41
1
10
303
20
7.49213186831832
30
0
41
1
10
303.002059760564
20
7.50067465306677
30
0
41
1
10
303.028725405442
20
7.61838834388436
30
0
41
1
10
303.035386174406
20
7.85463154924122
30
0
41
1
10
302.922600128499
20
8.17444122192774
30
0
41
1
10
302.701340758348
20
8.43722166614566
30
0
41
1
10
302.400422411131
20
8.61241528665374
30
0
41
1
10
302.05834821747
20
8.68374289533443
30
0
41
1
10
301.714341592063
20
8.64821351950582
30
0
41
1
10
301.403665536191
20
8.51239820917078
30
0
41
1
10
301.156988385226
20
8.28944156068718
30
0
41
1
10
301.000582313912
20
7.9994299618312
30
0
41
1
10
300.963140492995
20
7.72936877727784
30
0
41
1
10
300.984525866504
20
7.55992991058906
30
0
41
1
10
300.997941302993
20
7.500669488678
30
0
41
1
10
301
20
7.49213186831832
30
0
0
SPLINE
5
217
100
AcDbEntity
8
1
62
256
6
ByLayer
370
18
48
1
60
0
100
AcDbSpline
70
4
71
3
72
20
73
16
40
0
40
0
40
0
40
0
40
0.0076064735882817
40
0.104770763640015
40
0.201913419105727
40
0.298208188800298
40
0.392626122192619
40
0.484988760512407
40
0.575951883191034
40
0.666669983299936
40
0.758343608501333
40
0.851815887275787
40
0.947285315757783
40
0.992393526410434
40
1
40
1
40
1
40
1
41
1
10
303
20
-18.5436770913357
30
0
41
1
10
303.002059760563
20
-18.540225880722
30
0
41
1
10
303.02872540544
20
-18.4925721536919
30
0
41
1
10
303.035386174407
20
-18.3942841779766
30
0
41
1
10
302.922600128507
20
-18.2541426725669
30
0
41
1
10
302.701340758363
20
-18.1337541293389
30
0
41
1
10
302.40042241115
20
-18.0508151720486
30
0
41
1
10
302.05834821749
20
-18.0164360604234
30
0
41
1
10
301.714341592083
20
-18.0336031350301
30
0
41
1
10
301.403665536207
20
-18.0983992613936
30
0
41
1
10
301.156988385238
20
-18.2019799613174
30
0
41
1
10
301.000582313919
20
-18.3316302690542
30
0
41
1
10
300.963140492992
20
-18.4467110218735
30
0
41
1
10
300.984525866506
20
-18.5162367057567
30
0
41
1
10
300.997941302993
20
-18.540227875915
30
0
41
1
10
301
20
-18.5436770913357
30
0
0
LINE
5
70
100
AcDbEntity
8
4
62
256
6
ByLayer
370
13
48
0.05
60
0
100
AcDbLine
10
0
20
0
30
0
11
336
21
0
31
0
39
0
210
0
220
0
230
1
0
LINE
5
72
100
AcDbEntity
8
80
62
256
6
ByLayer
370
13
48
1
60
0
100
AcDbLine
10
0
20
0
30
0
11
-4.28511
21
0
31
0
39
0
210
0
220
0
230
1
0
LINE
5
73
100
AcDbEntity
8
SK4
62
256
6
ByLayer
370
13
48
0.05
60
0
100
AcDbLine
10
-33.5
20
0
30
0
11
338.5
21
0
31
0
39
0
210
0
220
0
230
1
0
LINE
5
75
100
AcDbEntity
8
81
62
256
6
ByLayer
370
13
48
1
60
0
100
AcDbLine
10
336.000937
20
21.993116
30
0
11
338.000937
21
21.993116
31
0
39
0
210
0
220
0
230
1
0
LINE
5
76
100
AcDbEntity
8
1
62
256
6
ByLayer
370
18
48
1
60
0
100
AcDbLine
10
313.218127
20
-1.513789
30
0
11
313.231863
21
-1.513789
31
0
39
0
210
0
220
0
230
1
0
LINE
5
78
100
AcDbEntity
8
1
62
256
6
ByLayer
370
18
48
1
60
0
100
AcDbLine
10
314.970647
20
-1.380353
30
0
11
314.98447
21
-1.380353
31
0
39
0
210
0
220
0
230
1
0
LINE
5
79
100
AcDbEntity
8
1
62
256
6
ByLayer
370
18
48
1
60
0
100
AcDbLine
10
312.660182
20
-1.288668
30
0
11
312.670649
21
-1.288668
31
0
39
0
210
0
220
0
230
1
0
LINE
5
7A
100
AcDbEntity
8
1
62
256
6
ByLayer
370
18
48
1
60
0
100
AcDbLine
10
314.375914
20
0.040777
30
0
11
314.386381
21
0.040777
31
0
39
0
210
0
220
0
230
1
0
LINE
5
7B
100
AcDbEntity
8
1
62
256
6
ByLayer
370
18
48
1
60
0
100
AcDbLine
10
314.185845
20
-1.350064
30
0
11
314.196312
21
-1.350064
31
0
39
0
210
0
220
0
230
1
0
LINE
5
7C
100
AcDbEntity
8
1
62
256
6
ByLayer
370
18
48
1
60
0
100
AcDbLine
10
312.550841
20
-1.044718
30
0
11
312.561309
21
-1.044718
31
0
39
0
210
0
220
0
230
1
0
LINE
5
7D
100
AcDbEntity
8
SK1
62
256
6
ByLayer
370
18
48
1
60
0
100
AcDbLine
10
-1.315435
20
-3.910269
30
0
11
-1.315435
21
3.910272
31
0
39
0
210
0
220
0
230
1
0
LINE
5
7F
100
AcDbEntity
8
SK1
62
256
6
ByLayer
370
18
48
1
60
0
100
AcDbLine
10
-2
20
17.519847
30
0
11
-2
21
-17.519847
31
0
39
0
210
0
220
0
230
1
0
LINE
5
80
100
AcDbEntity
8
SK1
62
256
6
ByLayer
370
18
48
1
60
0
100
AcDbLine
10
-28.5
20
16.854548
30
0
11
-28.5
21
-16.854549
31
0
39
0
210
0
220
0
230
1
0
LINE
5
81
100
AcDbEntity
8
SK1
62
256
6
ByLayer
370
18
48
1
60
0
100
AcDbLine
10
-1.79504
20
17.325072
30
0
11
-1.79504
21
-17.325072
31
0
39
0
210
0
220
0
230
1
0
LINE
5
82
100
AcDbEntity
8
SK1
62
256
6
ByLayer
370
18
48
1
60
0
100
AcDbLine
10
-0.194977
20
17.365242
30
0
11
-0.194977
21
5.101253
31
0
39
0
210
0
220
0
230
1
0
LINE
5
83
100
AcDbEntity
8
SK1
62
256
6
ByLayer
370
18
48
1
60
0
100
AcDbLine
10
-0.194977
20
-5.101251
30
0
11
-0.194977
21
-17.365243
31
0
39
0
210
0
220
0
230
1
0
LINE
5
84
100
AcDbEntity
8
SK1
62
256
6
ByLayer
370
18
48
1
60
0
100
AcDbLine
10
-30
20
15.993274
30
0
11
-30
21
-15.993274
31
0
39
0
210
0
220
0
230
1
0
LINE
5
85
100
AcDbEntity
8
2
62
256
6
ByLayer
370
13
48
0.05
60
0
100
AcDbLine
10
336.000937
20
21.993116
30
0
11
72.000937
21
21.993116
31
0
39
0
210
0
220
0
230
1
0
LINE
5
87
100
AcDbEntity
8
1
62
256
6
ByLayer
370
18
48
1
60
0
100
AcDbLine
10
331.937625
20
16.836663
30
0
11
331.937625
21
16.795599
31
0
39
0
210
0
220
0
230
1
0
LINE
5
88
100
AcDbEntity
8
1
62
256
6
ByLayer
370
18
48
1
60
0
100
AcDbLine
10
333.715548
20
16.836663
30
0
11
333.715548
21
16.795599
31
0
39
0
210
0
220
0
230
1
0
LINE
5
89
100
AcDbEntity
8
1
62
256
6
ByLayer
370
18
48
1
60
0
100
AcDbLine
10
333.063704
20
16.18715
30
0
11
333.063704
21
16.146086
31
0
39
0
210
0
220
0
230
1
0
LINE
5
8A
100
AcDbEntity
8
1
62
256
6
ByLayer
370
18
48
1
60
0
100
AcDbLine
10
332.589469
20
16.18715
30
0
11
332.589469
21
16.146086
31
0
39
0
210
0
220
0
230
1
0
LINE
5
8B
100
AcDbEntity
8
1
62
256
6
ByLayer
370
18
48
1
60
0
100
AcDbLine
10
333.478431
20
17.725387
30
0
11
333.478431
21
17.684323
31
0
39
0
210
0
220
0
230
1
0
LINE
5
8C
100
AcDbEntity
8
1
62
256
6
ByLayer
370
18
48
1
60
0
100
AcDbLine
10
332.174742
20
17.725387
30
0
11
332.174742
21
17.684323
31
0
39
0
210
0
220
0
230
1
0
LINE
5
8D
100
AcDbEntity
8
1
62
256
6
ByLayer
370
18
48
1
60
0
100
AcDbLine
10
333.063704
20
17.964598
30
0
11
333.063704
21
17.923534
31
0
39
0
210
0
220
0
230
1
0
LINE
5
8E
100
AcDbEntity
8
1
62
256
6
ByLayer
370
18
48
1
60
0
100
AcDbLine
10
332.589469
20
17.964598
30
0
11
332.589469
21
17.923534
31
0
39
0
210
0
220
0
230
1
0
LINE
5
8F
100
AcDbEntity
8
1
62
256
6
ByLayer
370
18
48
1
60
0
100
AcDbLine
10
332.035386
20
17.03481
30
0
11
332.035386
21
17.072588
31
0
39
0
210
0
220
0
230
1
0
LINE
5
90
100
AcDbEntity
8
1
62
256
6
ByLayer
370
13
48
1
60
0
100
AcDbLine
10
331.954074
20
16.847684
30
0
11
331.954074
21
16.807098
31
0
39
0
210
0
220
0
230
1
0
LINE
5
91
100
AcDbEntity
8
1
62
256
6
ByLayer
370
18
48
1
60
0
100
AcDbLine
10
331.954074
20
16.807098
30
0
11
331.937625
21
16.795599
31
0
39
0
210
0
220
0
230
1
0
LINE
5
92
100
AcDbEntity
8
1
62
256
6
ByLayer
370
13
48
1
60
0
100
AcDbLine
10
333.699099
20
16.847684
30
0
11
333.699099
21
16.807098
31
0
39
0
210
0
220
0
230
1
0
LINE
5
93
100
AcDbEntity
8
1
62
256
6
ByLayer
370
18
48
1
60
0
100
AcDbLine
10
333.715548
20
16.795599
30
0
11
333.699099
21
16.807098
31
0
39
0
210
0
220
0
230
1
0
LINE
5
94
100
AcDbEntity
8
1
62
256
6
ByLayer
370
18
48
1
60
0
100
AcDbLine
10
333.617786
20
17.072588
30
0
11
333.617786
21
17.03481
31
0
39
0
210
0
220
0
230
1
0
LINE
5
95
100
AcDbEntity
8
1
62
256
6
ByLayer
370
13
48
1
60
0
100
AcDbLine
10
332.192935
20
17.716427
30
0
11
332.192935
21
17.675842
31
0
39
0
210
0
220
0
230
1
0
LINE
5
96
100
AcDbEntity
8
1
62
256
6
ByLayer
370
18
48
1
60
0
100
AcDbLine
10
332.192935
20
17.675842
30
0
11
332.174742
21
17.684323
31
0
39
0
210
0
220
0
230
1
0
LINE
5
97
100
AcDbEntity
8
1
62
256
6
ByLayer
370
13
48
1
60
0
100
AcDbLine
10
333.460238
20
17.716427
30
0
11
333.460238
21
17.675842
31
0
39
0
210
0
220
0
230
1
0
LINE
5
98
100
AcDbEntity
8
1
62
256
6
ByLayer
370
18
48
1
60
0
100
AcDbLine
10
333.478431
20
17.684323
30
0
11
333.460238
21
17.675842
31
0
39
0
210
0
220
0
230
1
0
LINE
5
99
100
AcDbEntity
8
1
62
256
6
ByLayer
370
18
48
1
60
0
100
AcDbLine
10
333.065447
20
17.944139
30
0
11
333.065447
21
17.903554
31
0
39
0
210
0
220
0
230
1
0
LINE
5
9A
100
AcDbEntity
8
1
62
256
6
ByLayer
370
18
48
1
60
0
100
AcDbLine
10
331.101586
20
17.071131
30
0
11
331.101586
21
17.039207
31
0
39
0
210
0
220
0
230
1
0
LINE
5
9B
100
AcDbEntity
8
1
62
256
6
ByLayer
370
18
48
1
60
0
100
AcDbLine
10
333.065447
20
17.903554
30
0
11
333.063704
21
17.923534
31
0
39
0
210
0
220
0
230
1
0
LINE
5
9C
100
AcDbEntity
8
1
62
256
6
ByLayer
370
18
48
1
60
0
100
AcDbLine
10
321.065539
20
5.900143
30
0
11
327.988089
21
5.900143
31
0
39
0
210
0
220
0
230
1
0
LINE
5
9D
100
AcDbEntity
8
1
62
256
6
ByLayer
370
18
48
1
60
0
100
AcDbLine
10
308
20
-20
30
0
11
309
21
-20
31
0
39
0
210
0
220
0
230
1
0
LINE
5
9E
100
AcDbEntity
8
1
62
256
6
ByLayer
370
18
48
1
60
0
100
AcDbLine
10
309
20
20
30
0
11
308
21
20
31
0
39
0
210
0
220
0
230
1
0
LINE
5
9F
100
AcDbEntity
8
1
62
256
6
ByLayer
370
18
48
1
60
0
100
AcDbLine
10
309.023515
20
19.509997
30
0
11
309
21
19.509997
31
0
39
0
210
0
220
0
230
1
0
LINE
5
A0
100
AcDbEntity
8
1
62
256
6
ByLayer
370
18
48
1
60
0
100
AcDbLine
10
317
20
9
30
0
11
317.620217
21
9
31
0
39
0
210
0
220
0
230
1
0
LINE
5
A1
100
AcDbEntity
8
1
62
256
6
ByLayer
370
18
48
1
60
0
100
AcDbLine
10
310.8
20
-18
30
0
11
322.120604
21
-18
31
0
39
0
210
0
220
0
230
1
0
LINE
5
A2
100
AcDbEntity
8
1
62
256
6
ByLayer
370
18
48
1
60
0
100
AcDbLine
10
321.065482
20
9
30
0
11
321.065482
21
-10.526774
31
0
39
0
210
0
220
0
230
1
0
LINE
5
A3
100
AcDbEntity
8
1
62
256
6
ByLayer
370
18
48
1
60
0
100
AcDbLine
10
321.065482
20
9
30
0
11
321.495635
21
9
31
0
39
0
210
0
220
0
230
1
0
LINE
5
A4
100
AcDbEntity
8
1
62
256
6
ByLayer
370
18
48
1
60
0
100
AcDbLine
10
316.345991
20
9.026778
30
0
11
316.345991
21
18
31
0
39
0
210
0
220
0
230
1
0
LINE
5
A5
100
AcDbEntity
8
1
62
256
6
ByLayer
370
18
48
1
60
0
100
AcDbLine
10
310.8
20
18
30
0
11
316.345991
21
18
31
0
39
0
210
0
220
0
230
1
0
LINE
5
A6
100
AcDbEntity
8
1
62
256
6
ByLayer
370
13
48
1
60
0
100
AcDbLine
10
316.55
20
18
30
0
11
316.55
21
9.031373
31
0
39
0
210
0
220
0
230
1
0
LINE
5
A7
100
AcDbEntity
8
1
62
256
6
ByLayer
370
18
48
1
60
0
100
AcDbLine
10
317.001638
20
18
30
0
11
316.55
21
18
31
0
39
0
210
0
220
0
230
1
0
LINE
5
A8
100
AcDbEntity
8
1
62
256
6
ByLayer
370
18
48
1
60
0
100
AcDbLine
10
317.620217
20
9
30
0
11
321.065482
21
9
31
0
39
0
210
0
220
0
230
1
0
LINE
5
A9
100
AcDbEntity
8
1
62
256
6
ByLayer
370
18
48
1
60
0
100
AcDbLine
10
334.551586
20
17.039207
30
0
11
334.551586
21
17.071131
31
0
39
0
210
0
220
0
230
1
0
LINE
5
AA
100
AcDbEntity
8
1
62
256
6
ByLayer
370
18
48
1
60
0
100
AcDbLine
10
0.3
20
-25
30
0
11
20
21
-25
31
0
39
0
210
0
220
0
230
1
0
LINE
5
AB
100
AcDbEntity
8
1
62
256
6
ByLayer
370
18
48
1
60
0
100
AcDbLine
10
20
20
25
30
0
11
0.3
21
25
31
0
39
0
210
0
220
0
230
1
0
LINE
5
AC
100
AcDbEntity
8
1
62
256
6
ByLayer
370
18
48
1
60
0
100
AcDbLine
10
11.461325
20
7.529667
30
0
11
8.538675
21
7.529667
31
0
39
0
210
0
220
0
230
1
0
LINE
5
AD
100
AcDbEntity
8
1
62
256
6
ByLayer
370
18
48
1
60
0
100
AcDbLine
10
8.538675
20
23.83913
30
0
11
11.461325
21
23.83913
31
0
39
0
210
0
220
0
230
1
0
LINE
5
AE
100
AcDbEntity
8
1
62
256
6
ByLayer
370
18
48
1
60
0
100
AcDbLine
10
11.461325
20
-23.83913
30
0
11
8.538675
21
-23.83913
31
0
39
0
210
0
220
0
230
1
0
LINE
5
AF
100
AcDbEntity
8
1
62
256
6
ByLayer
370
18
48
1
60
0
100
AcDbLine
10
8.538675
20
-7.529667
30
0
11
11.461325
21
-7.529667
31
0
39
0
210
0
220
0
230
1
0
LINE
5
B0
100
AcDbEntity
8
1
62
256
6
ByLayer
370
18
48
1
60
0
100
AcDbLine
10
20
20
-25
30
0
11
71.856762
21
-20.013773
31
0
39
0
210
0
220
0
230
1
0
LINE
5
B1
100
AcDbEntity
8
1
62
256
6
ByLayer
370
18
48
1
60
0
100
AcDbLine
10
0.3
20
25
30
0
11
0
21
24.7
31
0
39
0
210
0
220
0
230
1
0
LINE
5
B2
100
AcDbEntity
8
1
62
256
6
ByLayer
370
18
48
1
60
0
100
AcDbLine
10
71.856762
20
20.013773
30
0
11
20
21
25
31
0
39
0
210
0
220
0
230
1
0
LINE
5
B3
100
AcDbEntity
8
1
62
256
6
ByLayer
370
13
48
1
60
0
100
AcDbLine
10
11.894338
20
8.055848
30
0
11
11.894338
21
23.666502
31
0
39
0
210
0
220
0
230
1
0
LINE
5
B4
100
AcDbEntity
8
1
62
256
6
ByLayer
370
13
48
1
60
0
100
AcDbLine
10
11.461325
20
7.529667
30
0
11
11.461325
21
23.83913
31
0
39
0
210
0
220
0
230
1
0
LINE
5
B5
100
AcDbEntity
8
1
62
256
6
ByLayer
370
13
48
1
60
0
100
AcDbLine
10
8.538675
20
-23.83913
30
0
11
8.538675
21
-7.529667
31
0
39
0
210
0
220
0
230
1
0
LINE
5
B6
100
AcDbEntity
8
1
62
256
6
ByLayer
370
13
48
1
60
0
100
AcDbLine
10
8.105662
20
-23.666502
30
0
11
8.105662
21
-8.055848
31
0
39
0
210
0
220
0
230
1
0
LINE
5
B7
100
AcDbEntity
8
1
62
256
6
ByLayer
370
13
48
1
60
0
100
AcDbLine
10
11.894338
20
-23.666502
30
0
11
11.894338
21
-8.055848
31
0
39
0
210
0
220
0
230
1
0
LINE
5
B8
100
AcDbEntity
8
1
62
256
6
ByLayer
370
13
48
1
60
0
100
AcDbLine
10
11.461325
20
-23.83913
30
0
11
11.461325
21
-7.529667
31
0
39
0
210
0
220
0
230
1
0
LINE
5
B9
100
AcDbEntity
8
1
62
256
6
ByLayer
370
13
48
1
60
0
100
AcDbLine
10
8.538675
20
7.529667
30
0
11
8.538675
21
23.83913
31
0
39
0
210
0
220
0
230
1
0
LINE
5
BA
100
AcDbEntity
8
1
62
256
6
ByLayer
370
13
48
1
60
0
100
AcDbLine
10
8.105662
20
8.055848
30
0
11
8.105662
21
23.666502
31
0
39
0
210
0
220
0
230
1
0
LINE
5
BB
100
AcDbEntity
8
1
62
256
6
ByLayer
370
18
48
1
60
0
100
AcDbLine
10
0
20
-24.7
30
0
11
0.3
21
-25
31
0
39
0
210
0
220
0
230
1
0
LINE
5
BC
100
AcDbEntity
8
1
62
256
6
ByLayer
370
18
48
1
60
0
100
AcDbLine
10
72.143899
20
-20
30
0
11
307.7
21
-20
31
0
39
0
210
0
220
0
230
1
0
LINE
5
BD
100
AcDbEntity
8
1
62
256
6
ByLayer
370
18
48
1
60
0
100
AcDbLine
10
307.7
20
20
30
0
11
72.143899
21
20
31
0
39
0
210
0
220
0
230
1
0
LINE
5
BE
100
AcDbEntity
8
1
62
256
6
ByLayer
370
18
48
1
60
0
100
AcDbLine
10
334.166199
20
4.501005
30
0
11
333.553029
21
4.501005
31
0
39
0
210
0
220
0
230
1
0
LINE
5
BF
100
AcDbEntity
8
1
62
256
6
ByLayer
370
18
48
1
60
0
100
AcDbLine
10
327.136586
20
-20.972833
30
0
11
334.836586
21
-20.972833
31
0
39
0
210
0
220
0
230
1
0
LINE
5
C0
100
AcDbEntity
8
1
62
256
6
ByLayer
370
18
48
1
60
0
100
AcDbLine
10
321.065539
20
-9.977048
30
0
11
327.988089
21
-9.977048
31
0
39
0
210
0
220
0
230
1
0
LINE
5
C1
100
AcDbEntity
8
1
62
256
6
ByLayer
370
18
48
1
60
0
100
AcDbLine
10
327.875927
20
-11.499857
30
0
11
329.023592
21
-11.499857
31
0
39
0
210
0
220
0
230
1
0
LINE
5
C2
100
AcDbEntity
8
1
62
256
6
ByLayer
370
18
48
1
60
0
100
AcDbLine
10
334.182362
20
-18.274527
30
0
11
331.076115
21
-18.274527
31
0
39
0
210
0
220
0
230
1
0
LINE
5
C3
100
AcDbEntity
8
1
62
256
6
ByLayer
370
18
48
1
60
0
100
AcDbLine
10
321.500423
20
9.200143
30
0
11
327.641246
21
9.200143
31
0
39
0
210
0
220
0
230
1
0
LINE
5
C4
100
AcDbEntity
8
1
62
256
6
ByLayer
370
18
48
1
60
0
100
AcDbLine
10
321.065482
20
5.900143
30
0
11
321.495622
21
9
31
0
39
0
210
0
220
0
230
1
0
LINE
5
C5
100
AcDbEntity
8
1
62
256
6
ByLayer
370
18
48
1
60
0
100
AcDbLine
10
327.641246
20
9.200143
30
0
11
327.988089
21
5.900143
31
0
39
0
210
0
220
0
230
1
0
LINE
5
C6
100
AcDbEntity
8
1
62
256
6
ByLayer
370
18
48
1
60
0
100
AcDbLine
10
321.500423
20
9.200143
30
0
11
321.472113
21
8.999977
31
0
39
0
210
0
220
0
230
1
0
LINE
5
C7
100
AcDbEntity
8
1
62
256
6
ByLayer
370
18
48
1
60
0
100
AcDbLine
10
327.988089
20
5.900143
30
0
11
327.988089
21
-9.977048
31
0
39
0
210
0
220
0
230
1
0
LINE
5
C8
100
AcDbEntity
8
1
62
256
6
ByLayer
370
18
48
1
60
0
100
AcDbLine
10
334.391209
20
-14.774395
30
0
11
332.576115
21
-14.535049
31
0
39
0
210
0
220
0
230
1
0
LINE
5
C9
100
AcDbEntity
8
1
62
256
6
ByLayer
370
18
48
1
60
0
100
AcDbLine
10
334.861655
20
-18.894535
30
0
11
334.787101
21
-11.466781
31
0
39
0
210
0
220
0
230
1
0
LINE
5
CA
100
AcDbEntity
8
1
62
256
6
ByLayer
370
18
48
1
60
0
100
AcDbLine
10
334.182362
20
-18.274527
30
0
11
334.391209
21
-14.774395
31
0
39
0
210
0
220
0
230
1
0
LINE
5
CB
100
AcDbEntity
8
1
62
256
6
ByLayer
370
13
48
1
60
0
100
AcDbLine
10
332.576115
20
-14.535049
30
0
11
332.576115
21
-14.774395
31
0
39
0
210
0
220
0
230
1
0
LINE
5
CC
100
AcDbEntity
8
1
62
256
6
ByLayer
370
18
48
1
60
0
100
AcDbLine
10
329.023592
20
-11.499857
30
0
11
334.269438
21
-11.499857
31
0
39
0
210
0
220
0
230
1
0
LINE
5
CD
100
AcDbEntity
8
1
62
256
6
ByLayer
370
18
48
1
60
0
100
AcDbLine
10
334.391209
20
-14.774395
30
0
11
332.576115
21
-14.774395
31
0
39
0
210
0
220
0
230
1
0
LINE
5
CE
100
AcDbEntity
8
1
62
256
6
ByLayer
370
18
48
1
60
0
100
AcDbLine
10
335.336586
20
-9.194329
30
0
11
335.224765
21
-9.166449
31
0
39
0
210
0
220
0
230
1
0
LINE
5
CF
100
AcDbEntity
8
1
62
256
6
ByLayer
370
18
48
1
60
0
100
AcDbLine
10
335.336586
20
-9.194329
30
0
11
335.336586
21
-12.058843
31
0
39
0
210
0
220
0
230
1
0
LINE
5
D0
100
AcDbEntity
8
1
62
256
6
ByLayer
370
18
48
1
60
0
100
AcDbLine
10
335.336586
20
-12.058843
30
0
11
335.336586
21
-20.526454
31
0
39
0
210
0
220
0
230
1
0
LINE
5
D1
100
AcDbEntity
8
1
62
256
6
ByLayer
370
18
48
1
60
0
100
AcDbLine
10
321.241402
20
-19.893891
30
0
11
316.801586
21
-18.864172
31
0
39
0
210
0
220
0
230
1
0
LINE
5
D2
100
AcDbEntity
8
1
62
256
6
ByLayer
370
18
48
1
60
0
100
AcDbLine
10
321.443682
20
-19.953649
30
0
11
321.241402
21
-19.893891
31
0
39
0
210
0
220
0
230
1
0
LINE
5
D3
100
AcDbEntity
8
1
62
256
6
ByLayer
370
13
48
1
60
0
100
AcDbLine
10
324.437174
20
-20.585846
30
0
11
324.437174
21
-21.325628
31
0
39
0
210
0
220
0
230
1
0
LINE
5
D4
100
AcDbEntity
8
1
62
256
6
ByLayer
370
18
48
1
60
0
100
AcDbLine
10
324.437174
20
-21.325628
30
0
11
324.42665
21
-21.32527
31
0
39
0
210
0
220
0
230
1
0
LINE
5
D5
100
AcDbEntity
8
1
62
256
6
ByLayer
370
18
48
1
60
0
100
AcDbLine
10
316.801586
20
-18.864172
30
0
11
316.801586
21
-19.67962
31
0
39
0
210
0
220
0
230
1
0
LINE
5
D6
100
AcDbEntity
8
1
62
256
6
ByLayer
370
13
48
1
60
0
100
AcDbLine
10
321.443682
20
-19.953649
30
0
11
321.443682
21
-17.999737
31
0
39
0
210
0
220
0
230
1
0
LINE
5
D7
100
AcDbEntity
8
1
62
256
6
ByLayer
370
13
48
1
60
0
100
AcDbLine
10
327.136586
20
-20.972833
30
0
11
327.136586
21
-21.305889
31
0
39
0
210
0
220
0
230
1
0
LINE
5
D8
100
AcDbEntity
8
1
62
256
6
ByLayer
370
18
48
1
60
0
100
AcDbLine
10
322.60366
20
-20.063831
30
0
11
322.744574
21
-20.111793
31
0
39
0
210
0
220
0
230
1
0
LINE
5
D9
100
AcDbEntity
8
1
62
256
6
ByLayer
370
13
48
1
60
0
100
AcDbLine
10
334.836586
20
-20.972833
30
0
11
334.836586
21
-21.024169
31
0
39
0
210
0
220
0
230
1
0
LINE
5
DA
100
AcDbEntity
8
1
62
256
6
ByLayer
370
18
48
1
60
0
100
AcDbLine
10
316.801586
20
-18.864172
30
0
11
316.801586
21
-17.999879
31
0
39
0
210
0
220
0
230
1
0
LINE
5
DB
100
AcDbEntity
8
1
62
256
6
ByLayer
370
18
48
1
60
0
100
AcDbLine
10
316.801586
20
9.013778
30
0
11
316.801586
21
9.200143
31
0
39
0
210
0
220
0
230
1
0
LINE
5
DC
100
AcDbEntity
8
1
62
256
6
ByLayer
370
18
48
1
60
0
100
AcDbLine
10
321.241402
20
-19.893891
30
0
11
321.241402
21
-17.99978
31
0
39
0
210
0
220
0
230
1
0
LINE
5
DD
100
AcDbEntity
8
1
62
256
6
ByLayer
370
18
48
1
60
0
100
AcDbLine
10
316.801586
20
9.200143
30
0
11
318.601586
21
9.200143
31
0
39
0
210
0
220
0
230
1
0
LINE
5
DE
100
AcDbEntity
8
1
62
256
6
ByLayer
370
18
48
1
60
0
100
AcDbLine
10
318.601586
20
8.999998
30
0
11
318.601586
21
9.200143
31
0
39
0
210
0
220
0
230
1
0
LINE
5
DF
100
AcDbEntity
8
1
62
256
6
ByLayer
370
18
48
1
60
0
100
AcDbLine
10
334.836586
20
-21.024169
30
0
11
333.326586
21
-21.024169
31
0
39
0
210
0
220
0
230
1
0
LINE
5
E0
100
AcDbEntity
8
1
62
256
6
ByLayer
370
18
48
1
60
0
100
AcDbLine
10
333.226586
20
-21.033719
30
0
11
333.326586
21
-21.024169
31
0
39
0
210
0
220
0
230
1
0
LINE
5
E1
100
AcDbEntity
8
1
62
256
6
ByLayer
370
18
48
1
60
0
100
AcDbLine
10
333.226586
20
-21.305889
30
0
11
333.226586
21
-21.033719
31
0
39
0
210
0
220
0
230
1
0
LINE
5
E2
100
AcDbEntity
8
1
62
256
6
ByLayer
370
18
48
1
60
0
100
AcDbLine
10
333.226586
20
-21.305889
30
0
11
327.136586
21
-21.305889
31
0
39
0
210
0
220
0
230
1
0
LINE
5
E3
100
AcDbEntity
8
1
62
256
6
ByLayer
370
18
48
1
60
0
100
AcDbLine
10
329.301586
20
6.430494
30
0
11
329.301586
21
0.554276
31
0
39
0
210
0
220
0
230
1
0
LINE
5
E4
100
AcDbEntity
8
1
62
256
6
ByLayer
370
18
48
1
60
0
100
AcDbLine
10
327.919529
20
6.552382
30
0
11
329.301586
21
6.430494
31
0
39
0
210
0
220
0
230
1
0
LINE
5
E5
100
AcDbEntity
8
1
62
256
6
ByLayer
370
13
48
1
60
0
100
AcDbLine
10
320.095058
20
12.708705
30
0
11
324.475136
21
12.708705
31
0
39
0
210
0
220
0
230
1
0
LINE
5
E6
100
AcDbEntity
8
1
62
256
6
ByLayer
370
18
48
1
60
0
100
AcDbLine
10
320.095058
20
13.000141
30
0
11
320.095058
21
12.708705
31
0
39
0
210
0
220
0
230
1
0
LINE
5
E7
100
AcDbEntity
8
1
62
256
6
ByLayer
370
13
48
1
60
0
100
AcDbLine
10
324.372386
20
17.500141
30
0
11
317.001586
21
17.500141
31
0
39
0
210
0
220
0
230
1
0
LINE
5
E8
100
AcDbEntity
8
1
62
256
6
ByLayer
370
18
48
1
60
0
100
AcDbLine
10
320.095058
20
13.000141
30
0
11
317.001586
21
13.000141
31
0
39
0
210
0
220
0
230
1
0
LINE
5
E9
100
AcDbEntity
8
1
62
256
6
ByLayer
370
18
48
1
60
0
100
AcDbLine
10
324.372386
20
17.500141
30
0
11
324.475136
21
12.708705
31
0
39
0
210
0
220
0
230
1
0
LINE
5
EA
100
AcDbEntity
8
1
62
256
6
ByLayer
370
18
48
1
60
0
100
AcDbLine
10
317.001586
20
13.000141
30
0
11
317.001586
21
17.500141
31
0
39
0
210
0
220
0
230
1
0
LINE
5
EB
100
AcDbEntity
8
1
62
256
6
ByLayer
370
13
48
1
60
0
100
AcDbLine
10
326.082447
20
9.200241
30
0
11
326.082447
21
21.269462
31
0
39
0
210
0
220
0
230
1
0
LINE
5
EC
100
AcDbEntity
8
1
62
256
6
ByLayer
370
18
48
1
60
0
100
AcDbLine
10
324.856103
20
11.176616
30
0
11
326.046212
21
9.200149
31
0
39
0
210
0
220
0
230
1
0
LINE
5
ED
100
AcDbEntity
8
1
62
256
6
ByLayer
370
18
48
1
60
0
100
AcDbLine
10
319.511699
20
9.000018
30
0
11
319.969085
21
11.176616
31
0
39
0
210
0
220
0
230
1
0
LINE
5
EE
100
AcDbEntity
8
1
62
256
6
ByLayer
370
13
48
1
60
0
100
AcDbLine
10
324.856103
20
11.176616
30
0
11
319.969085
21
11.176616
31
0
39
0
210
0
220
0
230
1
0
LINE
5
EF
100
AcDbEntity
8
1
62
256
6
ByLayer
370
18
48
1
60
0
100
AcDbLine
10
319.266321
20
11.800141
30
0
11
319.266321
21
9.000012
31
0
39
0
210
0
220
0
230
1
0
LINE
5
F0
100
AcDbEntity
8
1
62
256
6
ByLayer
370
18
48
1
60
0
100
AcDbLine
10
333.275821
20
8.630941
30
0
11
333.857771
21
8.776038
31
0
39
0
210
0
220
0
230
1
0
LINE
5
F1
100
AcDbEntity
8
1
62
256
6
ByLayer
370
13
48
1
60
0
100
AcDbLine
10
327.759646
20
8.072111
30
0
11
331.923399
21
8.072111
31
0
39
0
210
0
220
0
230
1
0
LINE
5
F2
100
AcDbEntity
8
1
62
256
6
ByLayer
370
13
48
1
60
0
100
AcDbLine
10
326.801482
20
16.306971
30
0
11
326.801482
21
9.200241
31
0
39
0
210
0
220
0
230
1
0
LINE
5
F3
100
AcDbEntity
8
1
62
256
6
ByLayer
370
13
48
1
60
0
100
AcDbLine
10
326.801482
20
21.303435
30
0
11
326.801482
21
18.620295
31
0
39
0
210
0
220
0
230
1
0
LINE
5
F4
100
AcDbEntity
8
1
62
256
6
ByLayer
370
18
48
1
60
0
100
AcDbLine
10
327.685833
20
8.776038
30
0
11
333.857771
21
8.776038
31
0
39
0
210
0
220
0
230
1
0
LINE
5
F5
100
AcDbEntity
8
1
62
256
6
ByLayer
370
13
48
1
60
0
100
AcDbLine
10
317.001586
20
11.800141
30
0
11
319.266321
21
11.800141
31
0
39
0
210
0
220
0
230
1
0
LINE
5
F6
100
AcDbEntity
8
1
62
256
6
ByLayer
370
18
48
1
60
0
100
AcDbLine
10
327.020171
20
18.734037
30
0
11
327.020171
21
18.608728
31
0
39
0
210
0
220
0
230
1
0
LINE
5
F7
100
AcDbEntity
8
1
62
256
6
ByLayer
370
18
48
1
60
0
100
AcDbLine
10
335.336586
20
9.144748
30
0
11
333.857771
21
8.776038
31
0
39
0
210
0
220
0
230
1
0
LINE
5
F8
100
AcDbEntity
8
1
62
256
6
ByLayer
370
18
48
1
60
0
100
AcDbLine
10
335.336586
20
11.990963
30
0
11
334.97012
21
12.202337
31
0
39
0
210
0
220
0
230
1
0
LINE
5
F9
100
AcDbEntity
8
1
62
256
6
ByLayer
370
18
48
1
60
0
100
AcDbLine
10
335.336586
20
9.144748
30
0
11
335.336586
21
11.990963
31
0
39
0
210
0
220
0
230
1
0
LINE
5
FA
100
AcDbEntity
8
1
62
256
6
ByLayer
370
18
48
1
60
0
100
AcDbLine
10
335.26952
20
12.168358
30
0
11
335.336586
21
12.129675
31
0
39
0
210
0
220
0
230
1
0
LINE
5
FB
100
AcDbEntity
8
1
62
256
6
ByLayer
370
18
48
1
60
0
100
AcDbLine
10
335.336586
20
12.129675
30
0
11
335.336586
21
11.990963
31
0
39
0
210
0
220
0
230
1
0
LINE
5
FC
100
AcDbEntity
8
1
62
256
6
ByLayer
370
18
48
1
60
0
100
AcDbLine
10
328.898818
20
19.087831
30
0
11
329.428762
21
18.782163
31
0
39
0
210
0
220
0
230
1
0
LINE
5
FD
100
AcDbEntity
8
1
62
256
6
ByLayer
370
18
48
1
60
0
100
AcDbLine
10
333.226586
20
21.31536
30
0
11
327.336586
21
21.31536
31
0
39
0
210
0
220
0
230
1
0
LINE
5
FE
100
AcDbEntity
8
1
62
256
6
ByLayer
370
18
48
1
60
0
100
AcDbLine
10
333.226586
20
20.972714
30
0
11
333.226586
21
21.31536
31
0
39
0
210
0
220
0
230
1
0
LINE
5
FF
100
AcDbEntity
8
1
62
256
6
ByLayer
370
13
48
1
60
0
100
AcDbLine
10
328.898818
20
19.087831
30
0
11
328.898818
21
18.962522
31
0
39
0
210
0
220
0
230
1
0
LINE
5
100
100
AcDbEntity
8
1
62
256
6
ByLayer
370
13
48
1
60
0
100
AcDbLine
10
327.824162
20
7.459275
30
0
11
331.104171
21
7.459275
31
0
39
0
210
0
220
0
230
1
0
LINE
5
101
100
AcDbEntity
8
1
62
256
6
ByLayer
370
18
48
1
60
0
100
AcDbLine
10
328.898818
20
18.962522
30
0
11
329.320144
21
18.719504
31
0
39
0
210
0
220
0
230
1
0
LINE
5
102
100
AcDbEntity
8
1
62
256
6
ByLayer
370
13
48
1
60
0
100
AcDbLine
10
329.3014
20
5.059321
30
0
11
329.66345
21
5.059321
31
0
39
0
210
0
220
0
230
1
0
LINE
5
103
100
AcDbEntity
8
1
62
256
6
ByLayer
370
18
48
1
60
0
100
AcDbLine
10
329.5554
20
4.530171
30
0
11
329.301577
21
4.530171
31
0
39
0
210
0
220
0
230
1
0
LINE
5
104
100
AcDbEntity
8
1
62
256
6
ByLayer
370
18
48
1
60
0
100
AcDbLine
10
329.501586
20
0.554181
30
0
11
329.501586
21
3.800141
31
0
39
0
210
0
220
0
230
1
0
LINE
5
105
100
AcDbEntity
8
1
62
256
6
ByLayer
370
18
48
1
60
0
100
AcDbLine
10
317.001586
20
11.800141
30
0
11
317.001586
21
9.200081
31
0
39
0
210
0
220
0
230
1
0
LINE
5
106
100
AcDbEntity
8
1
62
256
6
ByLayer
370
18
48
1
60
0
100
AcDbLine
10
335.336586
20
12.176423
30
0
11
335.336586
21
12.129675
31
0
39
0
210
0
220
0
230
1
0
LINE
5
107
100
AcDbEntity
8
1
62
256
6
ByLayer
370
18
48
1
60
0
100
AcDbLine
10
329.216336
20
18.659625
30
0
11
328.848818
21
18.871606
31
0
39
0
210
0
220
0
230
1
0
LINE
5
108
100
AcDbEntity
8
1
62
256
6
ByLayer
370
18
48
1
60
0
100
AcDbLine
10
333.326586
20
21.185654
30
0
11
333.326586
21
21.030384
31
0
39
0
210
0
220
0
230
1
0
LINE
5
109
100
AcDbEntity
8
1
62
256
6
ByLayer
370
18
48
1
60
0
100
AcDbLine
10
333.595791
20
21.185654
30
0
11
333.326586
21
21.185654
31
0
39
0
210
0
220
0
230
1
0
LINE
5
10A
100
AcDbEntity
8
1
62
256
6
ByLayer
370
13
48
1
60
0
100
AcDbLine
10
328.848818
20
18.871606
30
0
11
328.898818
21
18.962522
31
0
39
0
210
0
220
0
230
1
0
LINE
5
10B
100
AcDbEntity
8
1
62
256
6
ByLayer
370
18
48
1
60
0
100
AcDbLine
10
333.226586
20
21.19005
30
0
11
333.326586
21
21.185654
31
0
39
0
210
0
220
0
230
1
0
LINE
5
10C
100
AcDbEntity
8
1
62
256
6
ByLayer
370
18
48
1
60
0
100
AcDbLine
10
336.001586
20
12.958905
30
0
11
336.001586
21
21.19982
31
0
39
0
210
0
220
0
230
1
0
LINE
5
10D
100
AcDbEntity
8
1
62
256
6
ByLayer
370
18
48
1
60
0
100
AcDbLine
10
327.667211
20
16.39262
30
0
11
334.810961
21
12.272162
31
0
39
0
210
0
220
0
230
1
0
LINE
5
10E
100
AcDbEntity
8
1
62
256
6
ByLayer
370
18
48
1
60
0
100
AcDbLine
10
334.810961
20
21.886563
30
0
11
327.667211
21
17.766105
31
0
39
0
210
0
220
0
230
1
0
LINE
5
10F
100
AcDbEntity
8
1
62
256
6
ByLayer
370
18
48
1
60
0
100
AcDbLine
10
301
20
-18.543677
30
0
11
303
21
-18.543677
31
0
39
0
210
0
220
0
230
1
0
LINE
5
110
100
AcDbEntity
8
1
62
256
6
ByLayer
370
13
48
1
60
0
100
AcDbLine
10
335.611745
20
-20.899189
30
0
11
336.001586
21
-21.202396
31
0
39
0
210
0
220
0
230
1
0
LINE
5
111
100
AcDbEntity
8
1
62
256
6
ByLayer
370
13
48
1
60
0
100
AcDbLine
10
334.810961
20
-21.886662
30
0
11
335.005882
21
-21.247386
31
0
39
0
210
0
220
0
230
1
0
LINE
5
112
100
AcDbEntity
8
1
62
256
6
ByLayer
370
18
48
1
60
0
100
AcDbLine
10
335.611745
20
-20.899189
30
0
11
335.611745
21
-12.687998
31
0
39
0
210
0
220
0
230
1
0
LINE
5
113
100
AcDbEntity
8
1
62
256
6
ByLayer
370
18
48
1
60
0
100
AcDbLine
10
334.617441
20
-21.024144
30
0
11
335.005882
21
-21.247386
31
0
39
0
210
0
220
0
230
1
0
LINE
5
114
100
AcDbEntity
8
1
62
256
6
ByLayer
370
13
48
1
60
0
100
AcDbLine
10
336.001586
20
-12.991205
30
0
11
335.611745
21
-12.687998
31
0
39
0
210
0
220
0
230
1
0
LINE
5
115
100
AcDbEntity
8
1
62
256
6
ByLayer
370
18
48
1
60
0
100
AcDbLine
10
334.810961
20
-21.886662
30
0
11
333.312448
21
-21.025449
31
0
39
0
210
0
220
0
230
1
0
LINE
5
116
100
AcDbEntity
8
1
62
256
6
ByLayer
370
18
48
1
60
0
100
AcDbLine
10
336.001586
20
-12.991205
30
0
11
336.001586
21
-21.202396
31
0
39
0
210
0
220
0
230
1
0
LINE
5
117
100
AcDbEntity
8
1
62
256
6
ByLayer
370
18
48
1
60
0
100
AcDbLine
10
311.810549
20
-15.684936
30
0
11
311.841755
21
-15.921244
31
0
39
0
210
0
220
0
230
1
0
LINE
5
118
100
AcDbEntity
8
1
62
256
6
ByLayer
370
18
48
1
60
0
100
AcDbLine
10
311.702242
20
-15.979097
30
0
11
311.557062
21
-15.790051
31
0
39
0
210
0
220
0
230
1
0
LINE
5
119
100
AcDbEntity
8
1
62
256
6
ByLayer
370
18
48
1
60
0
100
AcDbLine
10
311.924484
20
17.095229
30
0
11
311.862791
21
17.325467
31
0
39
0
210
0
220
0
230
1
0
LINE
5
11A
100
AcDbEntity
8
1
62
256
6
ByLayer
370
18
48
1
60
0
100
AcDbLine
10
312.137209
20
17.325467
30
0
11
312.075516
21
17.095229
31
0
39
0
210
0
220
0
230
1
0
LINE
5
11B
100
AcDbEntity
8
1
62
256
6
ByLayer
370
18
48
1
60
0
100
AcDbLine
10
333.06291
20
0.554245
30
0
11
328.076728
21
0.554245
31
0
39
0
210
0
220
0
230
1
0
LINE
5
11C
100
AcDbEntity
8
1
62
256
6
ByLayer
370
18
48
1
60
0
100
AcDbLine
10
328.076728
20
-9.555755
30
0
11
333.06291
21
-9.555755
31
0
39
0
210
0
220
0
230
1
0
LINE
5
11D
100
AcDbEntity
8
1
62
256
6
ByLayer
370
18
48
1
60
0
100
AcDbLine
10
301
20
7.492132
30
0
11
303
21
7.492132
31
0
39
0
210
0
220
0
230
1
0
LINE
5
11E
100
AcDbEntity
8
1
62
256
6
ByLayer
370
18
48
1
60
0
100
AcDbLine
10
321.901517
20
-16.716108
30
0
11
321.885819
21
-16.716108
31
0
39
0
210
0
220
0
230
1
0
LINE
5
11F
100
AcDbEntity
8
1
62
256
6
ByLayer
370
18
48
1
60
0
100
AcDbLine
10
331.101586
20
17.039263
30
0
11
331.101586
21
17.039207
31
0
39
0
210
0
220
0
230
1
0
LINE
5
120
100
AcDbEntity
8
1
62
256
6
ByLayer
370
18
48
1
60
0
100
AcDbLine
10
309
20
19.8
30
0
11
309
21
20
31
0
39
0
210
0
220
0
230
1
0
LINE
5
121
100
AcDbEntity
8
1
62
256
6
ByLayer
370
18
48
1
60
0
100
AcDbLine
10
309
20
19.509997
30
0
11
309
21
17
31
0
39
0
210
0
220
0
230
1
0
LINE
5
122
100
AcDbEntity
8
1
62
256
6
ByLayer
370
18
48
1
60
0
100
AcDbLine
10
309
20
-20
30
0
11
309
21
-19.8
31
0
39
0
210
0
220
0
230
1
0
LINE
5
123
100
AcDbEntity
8
1
62
256
6
ByLayer
370
18
48
1
60
0
100
AcDbLine
10
316.345993
20
18
30
0
11
316.55
21
18
31
0
39
0
210
0
220
0
230
1
0
LINE
5
124
100
AcDbEntity
8
1
62
256
6
ByLayer
370
13
48
1
60
0
100
AcDbLine
10
307.7
20
20
30
0
11
307.7
21
0
31
0
39
0
210
0
220
0
230
1
0
LINE
5
125
100
AcDbEntity
8
1
62
256
6
ByLayer
370
13
48
1
60
0
100
AcDbLine
10
307.7
20
0
30
0
11
307.7
21
-20
31
0
39
0
210
0
220
0
230
1
0
LINE
5
126
100
AcDbEntity
8
1
62
256
6
ByLayer
370
18
48
1
60
0
100
AcDbLine
10
0.3
20
25
30
0
11
0.3
21
0
31
0
39
0
210
0
220
0
230
1
0
LINE
5
127
100
AcDbEntity
8
1
62
256
6
ByLayer
370
18
48
1
60
0
100
AcDbLine
10
0.3
20
0
30
0
11
0.3
21
-25
31
0
39
0
210
0
220
0
230
1
0
LINE
5
128
100
AcDbEntity
8
1
62
256
6
ByLayer
370
18
48
1
60
0
100
AcDbLine
10
20
20
25
30
0
11
20
21
0
31
0
39
0
210
0
220
0
230
1
0
LINE
5
129
100
AcDbEntity
8
1
62
256
6
ByLayer
370
18
48
1
60
0
100
AcDbLine
10
20
20
0
30
0
11
20
21
-25
31
0
39
0
210
0
220
0
230
1
0
LINE
5
12A
100
AcDbEntity
8
1
62
256
6
ByLayer
370
13
48
1
60
0
100
AcDbLine
10
71.856762
20
20.013773
30
0
11
71.856762
21
0
31
0
39
0
210
0
220
0
230
1
0
LINE
5
12B
100
AcDbEntity
8
1
62
256
6
ByLayer
370
13
48
1
60
0
100
AcDbLine
10
71.856762
20
0
30
0
11
71.856762
21
-20.013773
31
0
39
0
210
0
220
0
230
1
0
LINE
5
12C
100
AcDbEntity
8
1
62
256
6
ByLayer
370
18
48
1
60
0
100
AcDbLine
10
0
20
24.7
30
0
11
0
21
0
31
0
39
0
210
0
220
0
230
1
0
LINE
5
12D
100
AcDbEntity
8
1
62
256
6
ByLayer
370
18
48
1
60
0
100
AcDbLine
10
0
20
0
30
0
11
0
21
-24.7
31
0
39
0
210
0
220
0
230
1
0
LINE
5
12E
100
AcDbEntity
8
1
62
256
6
ByLayer
370
13
48
1
60
0
100
AcDbLine
10
72.143899
20
-20
30
0
11
72.143899
21
0
31
0
39
0
210
0
220
0
230
1
0
LINE
5
12F
100
AcDbEntity
8
1
62
256
6
ByLayer
370
13
48
1
60
0
100
AcDbLine
10
72.143899
20
0
30
0
11
72.143899
21
20
31
0
39
0
210
0
220
0
230
1
0
LINE
5
130
100
AcDbEntity
8
1
62
256
6
ByLayer
370
18
48
1
60
0
100
AcDbLine
10
331.076115
20
-18.274527
30
0
11
331.076115
21
-15.969397
31
0
39
0
210
0
220
0
230
1
0
LINE
5
131
100
AcDbEntity
8
1
62
256
6
ByLayer
370
18
48
1
60
0
100
AcDbLine
10
308
20
20
30
0
11
308
21
0
31
0
39
0
210
0
220
0
230
1
0
LINE
5
132
100
AcDbEntity
8
1
62
256
6
ByLayer
370
18
48
1
60
0
100
AcDbLine
10
308
20
0
30
0
11
308
21
-20
31
0
39
0
210
0
220
0
230
1
0
LINE
5
133
100
AcDbEntity
8
1
62
256
6
ByLayer
370
18
48
1
60
0
100
AcDbLine
10
317.001586
20
19.407973
30
0
11
317.001586
21
17.500141
31
0
39
0
210
0
220
0
230
1
0
LINE
5
134
100
AcDbEntity
8
1
62
256
6
ByLayer
370
18
48
1
60
0
100
AcDbLine
10
317.001586
20
13.000141
30
0
11
317.001586
21
11.800141
31
0
39
0
210
0
220
0
230
1
0
LINE
5
135
100
AcDbEntity
8
1
62
256
6
ByLayer
370
13
48
1
60
0
100
AcDbLine
10
333.062902
20
-9.555755
30
0
11
333.06291
21
-9.555755
31
0
39
0
210
0
220
0
230
1
0
LINE
5
136
100
AcDbEntity
8
1
62
256
6
ByLayer
370
18
48
1
60
0
100
AcDbLine
10
333.822867
20
-8.816916
30
0
11
335.224765
21
-9.166449
31
0
39
0
210
0
220
0
230
1
0
MTEXT
5
218
100
AcDbEntity
8
SK6
62
256
6
ByLayer
370
18
48
1
60
0
100
AcDbMText
10
343.26287
20
25.333471
30
0
210
0
220
0
230
1
1
\W0.7312;BR20D-56TC11F-C5L
40
3
41
0
44
1.084337
50
0
71
7
72
5
7
iso_b_vert
0
DIMENSION
5
225
100
AcDbEntity
8
2
62
256
6
ByLayer
370
13
48
1
60
0
100
AcDbDimension
2
DimnDraft3D1
10
0
20
41.144611
30
0
11
163.457047
21
41.144611
31
0
70
32
71
5
72
1
41
1
210
0
220
0
230
1
3
Standard
100
AcDbAlignedDimension
13
336.000937
23
23.993116
33
0
14
0
24
26.7
34
0
50
0
100
AcDbRotatedDimension
1001
ACAD
1000
DSTYLE
1002
{
1070
   279
1070
     0
1070
   172
1070
     1
1070
   173
1070
     1
1070
   340
1005
219
1070
   271
1070
     1
1070
    77
1070
     1
1070
    73
1070
     0
1070
   171
1070
     4
1070
   274
1070
     4
1070
   177
1070
     7
1070
   176
1070
     7
1070
   178
1070
     7
1070
    41
1041
3.175
1070
   147
1041
1.5
1070
    42
1041
2.0
1070
    44
1041
2.0
1070
   140
1041
3.0
1070
   343
1005
0
1070
   344
1005
0
1002
}
0
DIMENSION
5
22F
100
AcDbEntity
8
2
62
256
6
ByLayer
370
13
48
1
60
0
100
AcDbDimension
2
DimnDraft3D2
10
364.166127
20
-21.992518
30
0
11
364.166127
21
-12.035227
31
0
70
32
71
5
72
1
41
1
210
0
220
0
230
1
3
Standard
100
AcDbAlignedDimension
13
338.000937
23
21.993116
33
0
14
337.207836
24
-21.992518
34
0
50
90
100
AcDbRotatedDimension
1001
ACAD
1000
DSTYLE
1002
{
1070
    74
1070
     0
1070
   279
1070
     0
1070
   172
1070
     1
1070
   173
1070
     1
1070
   340
1005
219
1070
   271
1070
     1
1070
    77
1070
     1
1070
    73
1070
     0
1070
   171
1070
     4
1070
   274
1070
     4
1070
   177
1070
     7
1070
   176
1070
     7
1070
   178
1070
     7
1070
    41
1041
3.175
1070
   147
1041
1.5
1070
    42
1041
2.0
1070
    44
1041
2.0
1070
   140
1041
3.0
1070
   343
1005
0
1070
   344
1005
0
1002
}
0
DIMENSION
5
239
100
AcDbEntity
8
2
62
256
6
ByLayer
370
13
48
1
60
0
100
AcDbDimension
2
DimnDraft3D3
10
337.000937
20
21.993116
30
0
11
344.939315
21
13.055387
31
0
70
34
71
5
72
1
41
1
210
0
220
0
230
1
3
Standard
100
AcDb2LineAngularDimension
13
336.001586
23
12.958905
33
0
14
336.001586
24
21.19982
34
0
15
336.000937
25
21.993116
35
0
16
347.060635
26
10.934067
36
0
40
0
0
DIMENSION
5
245
100
AcDbEntity
8
SK2
62
256
6
ByLayer
370
13
48
1
60
0
100
AcDbDimension
2
DimnDraft3D4
10
-45.636113
20
-25
30
0
11
-45.136113
21
0.414474
31
0
70
33
71
5
72
1
41
1
210
0
220
0
230
1
3
Standard
100
AcDbAlignedDimension
13
-1.7
23
25
33
0
14
-1.7
24
-25
34
0
1001
ACAD
1000
DSTYLE
1002
{
1070
   279
1070
     0
1070
    74
1070
     0
1070
   173
1070
     1
1070
   340
1005
219
1070
   271
1070
     0
1070
    77
1070
     1
1070
    73
1070
     0
1070
   171
1070
     4
1070
   274
1070
     4
1070
   177
1070
     7
1070
   176
1070
     7
1070
   178
1070
     7
1070
    41
1041
3.175
1070
   147
1041
1.5
1070
    42
1041
2.0
1070
    44
1041
2.0
1070
   140
1041
3.0
1070
   343
1005
0
1070
   344
1005
0
1002
}
0
DIMENSION
5
24F
100
AcDbEntity
8
2
62
256
6
ByLayer
370
13
48
1
60
0
100
AcDbDimension
2
DimnDraft3D5
10
72.000937
20
30.861151
30
0
11
191.041726
21
30.861151
31
0
70
32
71
5
72
1
41
1
210
0
220
0
230
1
3
Standard
100
AcDbAlignedDimension
13
336.000937
23
23.993116
33
0
14
72.000937
24
23.993116
34
0
50
0
100
AcDbRotatedDimension
1001
ACAD
1000
DSTYLE
1002
{
1070
   279
1070
     0
1070
   172
1070
     1
1070
   173
1070
     1
1070
   340
1005
219
1070
   271
1070
     1
1070
    77
1070
     1
1070
    73
1070
     0
1070
   171
1070
     4
1070
   274
1070
     4
1070
   177
1070
     7
1070
   176
1070
     7
1070
   178
1070
     7
1070
    41
1041
3.175
1070
   147
1041
1.5
1070
    42
1041
2.0
1070
    44
1041
2.0
1070
   140
1041
3.0
1070
   343
1005
0
1070
   344
1005
0
1002
}
0
ENDSEC
0
SECTION
2
OBJECTS
0
DICTIONARY
5
2c1
330
0
100
AcDbDictionary
280
0
281
1
3
ACAD_GROUP
350
2c2
3
ACAD_GROUP
350
2c3
3
ACAD_MLINESTYLE
350
2c4
0
DICTIONARY
5
2c2
330
0
100
AcDbDictionary
280
0
281
1
0
DICTIONARY
5
2c3
330
0
100
AcDbDictionary
280
0
281
1
3
<200939429NDI000_00>
350
25A
3
<201778261MOD000_00>
350
258
3
391_68A_1_03213C06B_A1
350
259
3
DIT-000-00-C5_BR20D_D_323_A1
350
25B
3
DIT-000-00-UG_TO_2D CONVERT_BR20D_SIZED AND_E_TC
350
25D
3
Group5
350
25C
0
DICTIONARY
5
2c4
330
0
100
AcDbDictionary
280
0
281
1
3
Standard
350
18
0
GROUP
5
25A
330
2c3
100
AcDbGroup
300

70
0
71
1
340
76
340
78
340
79
340
7A
340
7B
340
7C
340
1A5
340
1A6
340
1A7
340
1A8
340
1A9
340
1AA
340
1AB
340
1AC
340
1AD
340
1AE
340
1AF
340
1B0
340
1B1
340
1B2
340
1B3
340
1B4
0
GROUP
5
258
330
2c3
100
AcDbGroup
300

70
0
71
1
340
6C
340
6E
340
70
340
72
340
73
340
75
340
76
340
78
340
79
340
7A
340
7B
340
7C
340
7D
340
7F
340
80
340
81
340
82
340
83
340
84
340
85
340
87
340
88
340
89
340
8A
340
8B
340
8C
340
8D
340
8E
340
8F
340
90
340
91
340
92
340
93
340
94
340
95
340
96
340
97
340
98
340
99
340
9A
340
9B
340
9C
340
9D
340
9E
340
9F
340
A0
340
A1
340
A2
340
A3
340
A4
340
A5
340
A6
340
A7
340
A8
340
A9
340
AA
340
AB
340
AC
340
AD
340
AE
340
AF
340
B0
340
B1
340
B2
340
B3
340
B4
340
B5
340
B6
340
B7
340
B8
340
B9
340
BA
340
BB
340
BC
340
BD
340
BE
340
BF
340
C0
340
C1
340
C2
340
C3
340
C4
340
C5
340
C6
340
C7
340
C8
340
C9
340
CA
340
CB
340
CC
340
CD
340
CE
340
CF
340
D0
340
D1
340
D2
340
D3
340
D4
340
D5
340
D6
340
D7
340
D8
340
D9
340
DA
340
DB
340
DC
340
DD
340
DE
340
DF
340
E0
340
E1
340
E2
340
E3
340
E4
340
E5
340
E6
340
E7
340
E8
340
E9
340
EA
340
EB
340
EC
340
ED
340
EE
340
EF
340
F0
340
F1
340
F2
340
F3
340
F4
340
F5
340
F6
340
F7
340
F8
340
F9
340
FA
340
FB
340
FC
340
FD
340
FE
340
FF
340
100
340
101
340
102
340
103
340
104
340
105
340
106
340
107
340
108
340
109
340
10A
340
10B
340
10C
340
10D
340
10E
340
10F
340
110
340
111
340
112
340
113
340
114
340
115
340
116
340
117
340
118
340
119
340
11A
340
11B
340
11C
340
11D
340
11E
340
11F
340
120
340
121
340
122
340
123
340
124
340
125
340
126
340
127
340
128
340
129
340
12A
340
12B
340
12C
340
12D
340
12E
340
12F
340
130
340
131
340
132
340
133
340
134
340
135
340
136
340
137
340
138
340
139
340
13A
340
13B
340
13C
340
13D
340
13E
340
13F
340
140
340
141
340
142
340
143
340
144
340
145
340
146
340
147
340
148
340
149
340
14A
340
14B
340
14C
340
14D
340
14E
340
14F
340
150
340
151
340
152
340
153
340
154
340
155
340
156
340
157
340
158
340
159
340
15A
340
15B
340
15C
340
15D
340
15E
340
15F
340
160
340
161
340
162
340
163
340
164
340
165
340
166
340
167
340
168
340
169
340
16A
340
16B
340
16C
340
16D
340
16E
340
16F
340
170
340
171
340
172
340
173
340
174
340
175
340
176
340
177
340
178
340
179
340
17A
340
17B
340
17C
340
17D
340
17E
340
17F
340
180
340
181
340
182
340
183
340
184
340
185
340
186
340
187
340
188
340
189
340
18A
340
18B
340
18C
340
18D
340
18E
340
18F
340
190
340
191
340
192
340
193
340
194
340
195
340
196
340
197
340
198
340
199
340
19A
340
19B
340
19C
340
19D
340
19E
340
19F
340
1A0
340
1A1
340
1A2
340
1A3
340
1A4
340
1A5
340
1A6
340
1A7
340
1A8
340
1A9
340
1AA
340
1AB
340
1AC
340
1AD
340
1AE
340
1AF
340
1B0
340
1B1
340
1B2
340
1B3
340
1B4
340
1B5
340
1B6
340
1B7
340
1B8
340
1B9
340
1BA
340
1BB
340
1BC
340
1BD
340
1BE
340
1BF
340
1C0
340
1C1
340
1C2
340
1C3
340
1C4
340
1C5
340
1C6
340
1C7
340
1C8
340
1C9
340
1CA
340
1CB
340
1CC
340
1CD
340
1CE
340
1CF
340
1D0
340
1D1
340
1D2
340
1D3
340
1D4
340
1D5
340
1D6
340
1D7
340
1D8
340
1D9
340
1DA
340
1DB
340
1DC
340
1DD
340
1DE
340
1DF
340
1E0
340
1E1
340
1E2
340
1E3
340
1E4
340
1E5
340
1E6
340
1E7
340
1E8
340
1E9
340
1EA
340
1EB
340
1EC
340
1ED
340
1EE
340
1EF
340
1F0
340
1F1
340
1F2
340
1F3
340
1F4
340
1F5
340
1F6
340
1F7
340
1F8
340
1F9
340
1FA
340
1FB
340
1FC
340
1FD
340
1FE
340
1FF
340
200
340
201
340
202
340
203
340
204
340
205
340
206
340
207
340
208
340
209
340
20A
340
20B
340
20C
340
20D
340
20E
340
20F
340
210
340
211
340
212
340
213
340
214
340
215
340
216
340
217
340
6E
340
75
340
218
340
22F
340
239
340
76
340
78
340
79
340
7A
340
7B
340
7C
340
1A5
340
1A6
340
1A7
340
1A8
340
1A9
340
1AA
340
1AB
340
1AC
340
1AD
340
1AE
340
1AF
340
1B0
340
1B1
340
1B2
340
1B3
340
1B4
340
7D
340
7F
340
80
340
81
340
82
340
83
340
84
340
1B5
340
1B6
340
1B7
340
1B8
340
1B9
340
1BA
340
1BB
340
1BC
340
1BD
340
1BE
340
1BF
340
1C0
340
1C1
340
1C2
340
1C3
340
1C4
340
1C5
340
7D
340
1B5
340
1B6
340
1B7
340
1B8
340
7F
340
80
340
1B9
340
1BA
340
1BB
340
1BC
340
1BD
340
81
340
82
340
1BE
340
1BF
340
1C0
340
83
340
84
340
1C1
340
1C2
340
1C3
340
1C4
340
1C5
340
7D
340
1B5
340
1B6
340
1B7
340
1B8
340
7F
340
80
340
1B9
340
1BA
340
1BB
340
1BC
340
1BD
340
81
340
82
340
1BE
340
1BF
340
1C0
340
83
340
84
340
1C1
340
1C2
340
1C3
340
1C4
340
1C5
340
87
340
88
340
89
340
8A
340
8B
340
8C
340
8D
340
8E
340
8F
340
90
340
91
340
92
340
93
340
94
340
95
340
96
340
97
340
98
340
99
340
9A
340
9B
340
9C
340
9D
340
9E
340
9F
340
A0
340
A1
340
A2
340
A3
340
A4
340
A5
340
A6
340
A7
340
A8
340
A9
340
AA
340
AB
340
AC
340
AD
340
AE
340
AF
340
B0
340
B1
340
B2
340
B3
340
B4
340
B5
340
B6
340
B7
340
B8
340
B9
340
BA
340
BB
340
BC
340
BD
340
BE
340
BF
340
C0
340
C1
340
C2
340
C3
340
C4
340
C5
340
C6
340
C7
340
C8
340
C9
340
CA
340
CB
340
CC
340
CD
340
CE
340
CF
340
D0
340
D1
340
D2
340
D3
340
D4
340
D5
340
D6
340
D7
340
D8
340
D9
340
DA
340
DB
340
DC
340
DD
340
DE
340
DF
340
E0
340
E1
340
E2
340
E3
340
E4
340
E5
340
E6
340
E7
340
E8
340
E9
340
EA
340
EB
340
EC
340
ED
340
EE
340
EF
340
F0
340
F1
340
F2
340
F3
340
F4
340
F5
340
F6
340
F7
340
F8
340
F9
340
FA
340
FB
340
FC
340
FD
340
FE
340
FF
340
100
340
101
340
102
340
103
340
104
340
105
340
106
340
107
340
108
340
109
340
10A
340
10B
340
10C
340
10D
340
10E
340
10F
340
110
340
111
340
112
340
113
340
114
340
115
340
116
340
117
340
118
340
119
340
11A
340
11B
340
11C
340
11D
340
11E
340
11F
340
120
340
121
340
122
340
123
340
124
340
125
340
126
340
127
340
128
340
129
340
12A
340
12B
340
12C
340
12D
340
12E
340
12F
340
130
340
131
340
132
340
133
340
134
340
135
340
136
340
137
340
138
340
139
340
13A
340
13B
340
13C
340
13D
340
13E
340
13F
340
140
340
141
340
142
340
143
340
144
340
145
340
146
340
147
340
148
340
149
340
14A
340
14B
340
14C
340
14D
340
14E
340
14F
340
150
340
151
340
152
340
153
340
154
340
155
340
156
340
157
340
158
340
159
340
15A
340
15B
340
15C
340
15D
340
15E
340
15F
340
160
340
161
340
162
340
163
340
164
340
165
340
166
340
167
340
168
340
169
340
16A
340
16B
340
16C
340
16D
340
16E
340
16F
340
170
340
171
340
172
340
173
340
174
340
175
340
176
340
177
340
178
340
179
340
17A
340
17B
340
17C
340
17D
340
17E
340
17F
340
180
340
181
340
182
340
183
340
184
340
185
340
186
340
187
340
188
340
189
340
18A
340
18B
340
18C
340
18D
340
18E
340
18F
340
190
340
191
340
192
340
193
340
194
340
195
340
196
340
197
340
198
340
199
340
19A
340
19B
340
19C
340
19D
340
19E
340
19F
340
1A0
340
1A1
340
1A2
340
1A3
340
1A4
340
1C6
340
1C7
340
1C8
340
1C9
340
1CA
340
1CB
340
1CC
340
1CD
340
1CE
340
1CF
340
1D0
340
1D1
340
1D2
340
1D3
340
1D4
340
1D5
340
1D6
340
1D7
340
1D8
340
1D9
340
1DA
340
1DB
340
1DC
340
1DD
340
1DE
340
1DF
340
1E0
340
1E1
340
1E2
340
1E3
340
1E4
340
1E5
340
1E6
340
1E7
340
1E8
340
1E9
340
1EA
340
1EB
340
1EC
340
1ED
340
1EE
340
1EF
340
1F0
340
1F1
340
1F2
340
1F3
340
1F4
340
1F5
340
1F6
340
1F7
340
1F8
340
1F9
340
1FA
340
1FB
340
1FC
340
1FD
340
1FE
340
1FF
340
200
340
201
340
202
340
203
340
204
340
205
340
206
340
207
340
208
340
209
340
20A
340
20B
340
20C
340
20D
340
20E
340
20F
340
210
340
211
340
212
340
213
340
214
340
215
340
216
340
217
340
218
340
225
340
22F
340
239
340
245
340
24F
0
GROUP
5
259
330
2c3
100
AcDbGroup
300

70
0
71
1
340
6E
340
75
340
218
340
22F
340
239
0
GROUP
5
25B
330
2c3
100
AcDbGroup
300

70
0
71
1
340
7D
340
7F
340
80
340
81
340
82
340
83
340
84
340
1B5
340
1B6
340
1B7
340
1B8
340
1B9
340
1BA
340
1BB
340
1BC
340
1BD
340
1BE
340
1BF
340
1C0
340
1C1
340
1C2
340
1C3
340
1C4
340
1C5
340
7D
340
1B5
340
1B6
340
1B7
340
1B8
340
7F
340
80
340
1B9
340
1BA
340
1BB
340
1BC
340
1BD
340
81
340
82
340
1BE
340
1BF
340
1C0
340
83
340
84
340
1C1
340
1C2
340
1C3
340
1C4
340
1C5
0
GROUP
5
25D
330
2c3
100
AcDbGroup
300

70
0
71
1
340
87
340
88
340
89
340
8A
340
8B
340
8C
340
8D
340
8E
340
8F
340
90
340
91
340
92
340
93
340
94
340
95
340
96
340
97
340
98
340
99
340
9A
340
9B
340
9C
340
9D
340
9E
340
9F
340
A0
340
A1
340
A2
340
A3
340
A4
340
A5
340
A6
340
A7
340
A8
340
A9
340
AA
340
AB
340
AC
340
AD
340
AE
340
AF
340
B0
340
B1
340
B2
340
B3
340
B4
340
B5
340
B6
340
B7
340
B8
340
B9
340
BA
340
BB
340
BC
340
BD
340
BE
340
BF
340
C0
340
C1
340
C2
340
C3
340
C4
340
C5
340
C6
340
C7
340
C8
340
C9
340
CA
340
CB
340
CC
340
CD
340
CE
340
CF
340
D0
340
D1
340
D2
340
D3
340
D4
340
D5
340
D6
340
D7
340
D8
340
D9
340
DA
340
DB
340
DC
340
DD
340
DE
340
DF
340
E0
340
E1
340
E2
340
E3
340
E4
340
E5
340
E6
340
E7
340
E8
340
E9
340
EA
340
EB
340
EC
340
ED
340
EE
340
EF
340
F0
340
F1
340
F2
340
F3
340
F4
340
F5
340
F6
340
F7
340
F8
340
F9
340
FA
340
FB
340
FC
340
FD
340
FE
340
FF
340
100
340
101
340
102
340
103
340
104
340
105
340
106
340
107
340
108
340
109
340
10A
340
10B
340
10C
340
10D
340
10E
340
10F
340
110
340
111
340
112
340
113
340
114
340
115
340
116
340
117
340
118
340
119
340
11A
340
11B
340
11C
340
11D
340
11E
340
11F
340
120
340
121
340
122
340
123
340
124
340
125
340
126
340
127
340
128
340
129
340
12A
340
12B
340
12C
340
12D
340
12E
340
12F
340
130
340
131
340
132
340
133
340
134
340
135
340
136
340
137
340
138
340
139
340
13A
340
13B
340
13C
340
13D
340
13E
340
13F
340
140
340
141
340
142
340
143
340
144
340
145
340
146
340
147
340
148
340
149
340
14A
340
14B
340
14C
340
14D
340
14E
340
14F
340
150
340
151
340
152
340
153
340
154
340
155
340
156
340
157
340
158
340
159
340
15A
340
15B
340
15C
340
15D
340
15E
340
15F
340
160
340
161
340
162
340
163
340
164
340
165
340
166
340
167
340
168
340
169
340
16A
340
16B
340
16C
340
16D
340
16E
340
16F
340
170
340
171
340
172
340
173
340
174
340
175
340
176
340
177
340
178
340
179
340
17A
340
17B
340
17C
340
17D
340
17E
340
17F
340
180
340
181
340
182
340
183
340
184
340
185
340
186
340
187
340
188
340
189
340
18A
340
18B
340
18C
340
18D
340
18E
340
18F
340
190
340
191
340
192
340
193
340
194
340
195
340
196
340
197
340
198
340
199
340
19A
340
19B
340
19C
340
19D
340
19E
340
19F
340
1A0
340
1A1
340
1A2
340
1A3
340
1A4
340
1C6
340
1C7
340
1C8
340
1C9
340
1CA
340
1CB
340
1CC
340
1CD
340
1CE
340
1CF
340
1D0
340
1D1
340
1D2
340
1D3
340
1D4
340
1D5
340
1D6
340
1D7
340
1D8
340
1D9
340
1DA
340
1DB
340
1DC
340
1DD
340
1DE
340
1DF
340
1E0
340
1E1
340
1E2
340
1E3
340
1E4
340
1E5
340
1E6
340
1E7
340
1E8
340
1E9
340
1EA
340
1EB
340
1EC
340
1ED
340
1EE
340
1EF
340
1F0
340
1F1
340
1F2
340
1F3
340
1F4
340
1F5
340
1F6
340
1F7
340
1F8
340
1F9
340
1FA
340
1FB
340
1FC
340
1FD
340
1FE
340
1FF
340
200
340
201
340
202
340
203
340
204
340
205
340
206
340
207
340
208
340
209
340
20A
340
20B
340
20C
340
20D
340
20E
340
20F
340
210
340
211
340
212
340
213
340
214
340
215
340
216
340
217
0
GROUP
5
25C
330
2c3
100
AcDbGroup
300

70
0
71
1
340
7D
340
1B5
340
1B6
340
1B7
340
1B8
340
7F
340
80
340
1B9
340
1BA
340
1BB
340
1BC
340
1BD
340
81
340
82
340
1BE
340
1BF
340
1C0
340
83
340
84
340
1C1
340
1C2
340
1C3
340
1C4
340
1C5
0
MLINESTYLE
5
18
330
2c4
100
AcDbMlineStyle
2
Standard
70
0
3

62
256
51
90
52
90
71
2
49
-0.5
62
256
6
ByLayer
49
0.5
62
256
6
ByLayer
0
RASTERVARIABLES
5
2ae
330

100
AcDbRasterVariables
90
0
70
1
71
1
72
1
0
ENDSEC
0
EOF
