0
SECTION
2
HEADER
9
$ACADVER
1
AC1015
9
$DWGCODEPAGE
3
ANSI_1252
9
$HANDSEED
5
2bf
9
$ANGBASE
50
0
9
$ANGDIR
70
0
9
$ATTMODE
70
1
9
$AUNITS
70
0
9
$AUPREC
70
0
9
$CECOLOR
62
256
9
$CELTSCALE
40
1
9
$CELTYPE
6
ByLayer
9
$CELWEIGHT
370
18
9
$CLAYER
8
0
9
$CMLJUST
70
0
9
$CMLSCALE
40
1
9
$CMLSTYLE
2
Standard
9
$DIMSTYLE
2
Standard
9
$TEXTSIZE
40
0.2
9
$TEXTSTYLE
7
Standard
9
$LUNITS
70
2
9
$LUPREC
70
4
9
$EXTNAMES
290
1
9
$INSUNITS
70
4
9
$LTSCALE
40
1
9
$LWDISPLAY
290
1
9
$PDMODE
70
0
9
$PDSIZE
40
0
9
$PLINEGEN
70
0
0
ENDSEC
0
SECTION
2
CLASSES
0
CLASS
1
RASTERVARIABLES
2
AcDbRasterVariables
3
ISM
90
0
280
0
281
0
0
ENDSEC
0
SECTION
2
TABLES
0
TABLE
2
VPORT
5
2b5
100
AcDbSymbolTable
0
VPORT
5
1
100
AcDbSymbolTableRecord
100
AcDbViewportTableRecord
2
*Active
70
0
10
0
20
0
11
1
21
1
12
-1
22
1
13
0
23
0
14
0.5
24
0.5
15
10
25
10
16
0
26
0
36
1
17
0
27
0
37
0
0
ENDTAB
0
TABLE
2
LTYPE
5
2b6
100
AcDbSymbolTable
0
LTYPE
5
14
100
AcDbSymbolTableRecord
100
AcDbLinetypeTableRecord
70
0
2
ByBlock
3

72
65
73
0
40
0
0
LTYPE
5
15
100
AcDbSymbolTableRecord
100
AcDbLinetypeTableRecord
70
0
2
ByLayer
3

72
65
73
0
40
0
0
LTYPE
5
16
100
AcDbSymbolTableRecord
100
AcDbLinetypeTableRecord
70
0
2
CONTINUOUS
3
Solid line
72
65
73
0
40
0
0
LTYPE
5
6A
100
AcDbSymbolTableRecord
100
AcDbLinetypeTableRecord
70
0
2
CENTER
3
____ _ ____ _ ____ _ ____
72
65
73
4
40
47.5
49
22
74
0
49
-8.5
74
0
49
8.5
74
0
49
-8.5
74
0
0
LTYPE
5
6B
100
AcDbSymbolTableRecord
100
AcDbLinetypeTableRecord
70
0
2
DASHED
3
__ __ __ __ __ __ __ __ __
72
65
73
2
40
25.72
49
12.86
74
0
49
-12.86
74
0
0
ENDTAB
0
TABLE
2
LAYER
5
2b7
100
AcDbSymbolTable
0
LAYER
5
10
100
AcDbSymbolTableRecord
100
AcDbLayerTableRecord
2
0
70
0
62
7
6
CONTINUOUS
290
1
370
-3
390
0
0
LAYER
5
6D
100
AcDbSymbolTableRecord
100
AcDbLayerTableRecord
2
80
70
0
62
-6
6
CONTINUOUS
290
1
370
-3
390
0
0
LAYER
5
6F
100
AcDbSymbolTableRecord
100
AcDbLayerTableRecord
2
81
70
0
62
-3
6
CONTINUOUS
290
1
370
-3
390
0
0
LAYER
5
71
100
AcDbSymbolTableRecord
100
AcDbLayerTableRecord
2
4
70
0
62
-2
6
CENTER
290
1
370
-3
390
0
0
LAYER
5
77
100
AcDbSymbolTableRecord
100
AcDbLayerTableRecord
2
1
70
0
62
4
6
CONTINUOUS
290
1
370
-3
390
0
0
LAYER
5
219
100
AcDbSymbolTableRecord
100
AcDbLayerTableRecord
2
2
70
0
62
7
6
CONTINUOUS
290
1
370
-3
390
0
0
LAYER
5
29f
100
AcDbSymbolTableRecord
100
AcDbLayerTableRecord
2
SK4
70
0
62
2
6
CENTER
290
1
370
-3
390
0
0
LAYER
5
2a0
100
AcDbSymbolTableRecord
100
AcDbLayerTableRecord
2
SK1
70
0
62
4
6
CONTINUOUS
290
1
370
-3
390
0
0
LAYER
5
2a1
100
AcDbSymbolTableRecord
100
AcDbLayerTableRecord
2
SK6
70
0
62
5
6
CONTINUOUS
290
1
370
-3
390
0
0
LAYER
5
2a2
100
AcDbSymbolTableRecord
100
AcDbLayerTableRecord
2
SK2
70
0
62
7
6
CONTINUOUS
290
1
370
-3
390
0
0
ENDTAB
0
TABLE
2
STYLE
5
2b8
100
AcDbSymbolTable
0
STYLE
5
11
100
AcDbSymbolTableRecord
100
AcDbTextStyleTableRecord
2
Standard
3
txt
70
0
71
0
40
0
41
1
42
0
50
0
0
STYLE
5
214
100
AcDbSymbolTableRecord
100
AcDbTextStyleTableRecord
2
iso_b_vert
3
simplex.shx
70
0
71
0
40
0
41
1
42
0
50
0
0
STYLE
5
215
100
AcDbSymbolTableRecord
100
AcDbTextStyleTableRecord
2
DWGDirectTextStyle
3
simplex
70
0
71
0
40
0
41
1
42
0
50
0
0
ENDTAB
0
TABLE
2
DIMSTYLE
5
2b9
100
AcDbSymbolTable
100
AcDbDimStyleTable
0
DIMSTYLE
105
27
100
AcDbSymbolTableRecord
100
AcDbDimStyleTableRecord
2
Standard
70
0
3
<>
41
0.18
42
0.0625
44
0.18
140
0.18
147
0.09
73
0
74
0
77
1
271
2
275
0
278
52
280
0
340
11
0
ENDTAB
0
TABLE
2
VIEW
5
2ba
100
AcDbSymbolTable
0
ENDTAB
0
TABLE
2
UCS
5
2bb
100
AcDbSymbolTable
0
ENDTAB
0
TABLE
2
APPID
5
2bc
100
AcDbSymbolTable
0
APPID
5
12
100
AcDbSymbolTableRecord
100
AcDbRegAppTableRecord
2
ACAD
70
0
0
ENDTAB
0
TABLE
2
BLOCK_RECORD
5
2bd
100
AcDbSymbolTable
0
BLOCK_RECORD
5
1F
100
AcDbSymbolTableRecord
100
AcDbBlockTableRecord
2
*Model_Space
340
0
70
0
0
BLOCK_RECORD
5
1B
100
AcDbSymbolTableRecord
100
AcDbBlockTableRecord
2
*Paper_Space
340
0
70
0
0
BLOCK_RECORD
5
23
100
AcDbSymbolTableRecord
100
AcDbBlockTableRecord
2
*Paper_Space0
340
0
70
0
0
BLOCK_RECORD
5
217
100
AcDbSymbolTableRecord
100
AcDbBlockTableRecord
2
DimnDraft3D1
340
0
70
0
0
BLOCK_RECORD
5
222
100
AcDbSymbolTableRecord
100
AcDbBlockTableRecord
2
DimnDraft3D2
340
0
70
0
0
BLOCK_RECORD
5
22C
100
AcDbSymbolTableRecord
100
AcDbBlockTableRecord
2
DimnDraft3D3
340
0
70
0
0
BLOCK_RECORD
5
236
100
AcDbSymbolTableRecord
100
AcDbBlockTableRecord
2
DimnDraft3D4
340
0
70
0
0
ENDTAB
0
ENDSEC
0
SECTION
2
BLOCKS
0
BLOCK
5
20
100
AcDbEntity
8
0
100
AcDbBlockBegin
2
*Model_Space
70
0
10
0
20
0
30
0
3
*Model_Space
0
ENDBLK
5
21
100
AcDbEntity
8
0
100
AcDbBlockEnd
0
BLOCK
5
1C
100
AcDbEntity
8
0
100
AcDbBlockBegin
2
*Paper_Space
70
0
10
0
20
0
30
0
3
*Paper_Space
0
ENDBLK
5
1D
100
AcDbEntity
8
0
100
AcDbBlockEnd
0
BLOCK
5
24
100
AcDbEntity
8
0
100
AcDbBlockBegin
2
*Paper_Space0
70
0
10
0
20
0
30
0
3
*Paper_Space0
0
ENDBLK
5
25
100
AcDbEntity
8
0
100
AcDbBlockEnd
0
BLOCK
5
21F
100
AcDbEntity
8
0
100
AcDbBlockBegin
2
DimnDraft3D1
70
0
10
0
20
0
30
0
3
DimnDraft3D1
0
MTEXT
5
218
100
AcDbEntity
8
2
62
256
6
ByLayer
370
18
48
1
60
0
100
AcDbMText
10
106.207047
20
30.253188
30
0
210
0
220
0
230
1
1
\W0.7156;220.0
40
3
41
0
44
1.084337
50
0
71
7
72
5
7
iso_b_vert
0
LINE
5
21A
100
AcDbEntity
8
2
62
256
6
ByLayer
370
13
48
1
60
0
100
AcDbLine
10
220.000937
20
23.993116
30
0
11
220.000937
21
31.503188
31
0
39
0
210
0
220
0
230
1
0
LINE
5
21B
100
AcDbEntity
8
2
62
256
6
ByLayer
370
13
48
1
60
0
100
AcDbLine
10
0
20
21.7
30
0
11
0
21
31.503188
31
0
39
0
210
0
220
0
230
1
0
LINE
5
21C
100
AcDbEntity
8
2
62
256
6
ByLayer
370
13
48
1
60
0
100
AcDbLine
10
220.000937
20
29.503188
30
0
11
0
21
29.503188
31
0
39
0
210
0
220
0
230
1
0
SOLID
5
21D
100
AcDbEntity
8
2
62
256
6
ByLayer
370
13
48
1
60
0
100
AcDbTrace
10
220.000937
20
29.503188
30
0
11
216.825939
21
29.085192
31
0
12
216.825935
22
29.921185
32
0
13
220.000937
23
29.503188
33
0
39
0
210
0
220
0
230
1
0
SOLID
5
21E
100
AcDbEntity
8
2
62
256
6
ByLayer
370
13
48
1
60
0
100
AcDbTrace
10
0
20
29.503188
30
0
11
3.174998
21
29.921185
31
0
12
3.175002
22
29.085192
32
0
13
0
23
29.503188
33
0
39
0
210
0
220
0
230
1
0
ENDBLK
5
220
100
AcDbEntity
8
0
100
AcDbBlockEnd
0
BLOCK
5
229
100
AcDbEntity
8
0
100
AcDbBlockBegin
2
DimnDraft3D2
70
0
10
0
20
0
30
0
3
DimnDraft3D2
0
MTEXT
5
223
100
AcDbEntity
8
2
62
256
6
ByLayer
370
18
48
1
60
0
100
AcDbMText
10
248.661291
20
-11.285227
30
0
210
0
220
0
230
1
1
\W0.7409;Dc=44.0-56.0
40
3
41
0
44
1.084337
50
90
71
7
72
5
7
iso_b_vert
0
LINE
5
224
100
AcDbEntity
8
2
62
256
6
ByLayer
370
13
48
1
60
0
100
AcDbLine
10
222.000937
20
21.993116
30
0
11
251.411291
21
21.993116
31
0
39
0
210
0
220
0
230
1
0
LINE
5
225
100
AcDbEntity
8
2
62
256
6
ByLayer
370
13
48
1
60
0
100
AcDbLine
10
221.207836
20
-21.992518
30
0
11
251.411291
21
-21.992518
31
0
39
0
210
0
220
0
230
1
0
LINE
5
226
100
AcDbEntity
8
2
62
256
6
ByLayer
370
13
48
1
60
0
100
AcDbLine
10
249.411291
20
21.993116
30
0
11
249.411291
21
-21.992518
31
0
39
0
210
0
220
0
230
1
0
SOLID
5
227
100
AcDbEntity
8
2
62
256
6
ByLayer
370
13
48
1
60
0
100
AcDbTrace
10
249.411291
20
21.993116
30
0
11
249.829288
21
18.818117
31
0
12
248.993295
22
18.818114
32
0
13
249.411291
23
21.993116
33
0
39
0
210
0
220
0
230
1
0
SOLID
5
228
100
AcDbEntity
8
2
62
256
6
ByLayer
370
13
48
1
60
0
100
AcDbTrace
10
249.411291
20
-21.992518
30
0
11
248.993295
21
-18.81752
31
0
12
249.829288
22
-18.817517
32
0
13
249.411291
23
-21.992518
33
0
39
0
210
0
220
0
230
1
0
ENDBLK
5
22A
100
AcDbEntity
8
0
100
AcDbBlockEnd
0
BLOCK
5
233
100
AcDbEntity
8
0
100
AcDbBlockBegin
2
DimnDraft3D3
70
0
10
0
20
0
30
0
3
DimnDraft3D3
0
MTEXT
5
22D
100
AcDbEntity
8
2
62
256
6
ByLayer
370
18
48
1
60
0
100
AcDbMText
10
229.125968
20
10.102645
30
0
210
0
220
0
230
1
1
\W0.5899;90%%d
40
3
41
0
44
1.084337
50
45
71
7
72
5
7
iso_b_vert
0
LINE
5
22E
100
AcDbEntity
8
2
62
256
6
ByLayer
370
13
48
1
60
0
100
AcDbLine
10
220.001586
20
10.958905
30
0
11
220.001586
21
4.383371
31
0
39
0
210
0
220
0
230
1
0
LINE
5
22F
100
AcDbEntity
8
2
62
256
6
ByLayer
370
13
48
1
60
0
100
AcDbLine
10
224.000937
20
21.993116
30
0
11
237.611331
21
21.993116
31
0
39
0
210
0
220
0
230
1
0
ARC
5
230
100
AcDbEntity
8
2
62
256
6
ByLayer
370
13
48
1
60
0
100
AcDbCircle
39
0
10
220.001586
20
21.993116
30
0
40
15.6097447572644
210
0
220
0
230
1
100
AcDbArc
50
270
51
0
0
SOLID
5
231
100
AcDbEntity
8
2
62
256
6
ByLayer
370
13
48
1
60
0
100
AcDbTrace
10
220.001586
20
6.383371
30
0
11
223.151336
21
6.961657
31
0
12
223.193685
22
6.126737
32
0
13
220.001586
23
6.383371
33
0
39
0
210
0
220
0
230
1
0
SOLID
5
232
100
AcDbEntity
8
2
62
256
6
ByLayer
370
13
48
1
60
0
100
AcDbTrace
10
235.611331
20
21.993116
30
0
11
235.867966
21
18.80102
31
0
12
235.033045
22
18.843363
32
0
13
235.611331
23
21.993116
33
0
39
0
210
0
220
0
230
1
0
ENDBLK
5
234
100
AcDbEntity
8
0
100
AcDbBlockEnd
0
BLOCK
5
23F
100
AcDbEntity
8
0
100
AcDbBlockBegin
2
DimnDraft3D4
70
0
10
0
20
0
30
0
3
DimnDraft3D4
0
MTEXT
5
237
100
AcDbEntity
8
SK2
62
256
6
ByLayer
370
18
48
1
60
0
100
AcDbMText
10
-34.695338
20
1.006579
30
0
210
0
220
0
230
1
1
\W0.6920;40
40
3
41
0
44
1.084337
50
90
71
7
72
5
7
iso_b_vert
0
MTEXT
5
239
100
AcDbEntity
8
SK2
62
256
6
ByLayer
370
18
48
1
60
0
100
AcDbMText
10
-34.695338
20
-3.406579
30
0
210
0
220
0
230
1
1
\W1.1719;%%c
40
3
41
0
44
1.084337
50
90
71
7
72
5
7
iso_b_vert
0
LINE
5
23A
100
AcDbEntity
8
SK2
62
256
6
ByLayer
370
13
48
1
60
0
100
AcDbLine
10
-1.7
20
20
30
0
11
-35.945338
21
20
31
0
39
0
210
0
220
0
230
1
0
LINE
5
23B
100
AcDbEntity
8
SK2
62
256
6
ByLayer
370
13
48
1
60
0
100
AcDbLine
10
-1.7
20
-20
30
0
11
-35.945338
21
-20
31
0
39
0
210
0
220
0
230
1
0
LINE
5
23C
100
AcDbEntity
8
SK2
62
256
6
ByLayer
370
13
48
1
60
0
100
AcDbLine
10
-33.945338
20
20
30
0
11
-33.945338
21
-20
31
0
39
0
210
0
220
0
230
1
0
SOLID
5
23D
100
AcDbEntity
8
SK2
62
256
6
ByLayer
370
13
48
1
60
0
100
AcDbTrace
10
-33.945338
20
20
30
0
11
-33.527341
21
16.825002
31
0
12
-34.363334
22
16.824998
32
0
13
-33.945338
23
20
33
0
39
0
210
0
220
0
230
1
0
SOLID
5
23E
100
AcDbEntity
8
SK2
62
256
6
ByLayer
370
13
48
1
60
0
100
AcDbTrace
10
-33.945338
20
-20
30
0
11
-34.363334
21
-16.825002
31
0
12
-33.527341
22
-16.824998
32
0
13
-33.945338
23
-20
33
0
39
0
210
0
220
0
230
1
0
ENDBLK
5
240
100
AcDbEntity
8
0
100
AcDbBlockEnd
0
ENDSEC
0
SECTION
2
ENTITIES
0
ARC
5
12A
100
AcDbEntity
8
SK1
62
256
6
ByLayer
370
18
48
1
60
0
100
AcDbCircle
39
0
10
0.6
20
-15
30
0
40
0.999999999999989
210
0
220
0
230
-1
100
AcDbArc
50
113.578178
51
126.870857
0
ARC
5
12B
100
AcDbEntity
8
SK1
62
256
6
ByLayer
370
18
48
1
60
0
100
AcDbCircle
39
0
10
0.6
20
15
30
0
40
0.999999999999989
210
0
220
0
230
-1
100
AcDbArc
50
233.129143
51
246.421822
0
ARC
5
12C
100
AcDbEntity
8
1
62
256
6
ByLayer
370
18
48
1
60
0
100
AcDbCircle
39
0
10
-196
20
16.5
30
0
40
0.836792319645751
210
0
220
0
230
-1
100
AcDbArc
50
99.437384
51
80.562616
0
ARC
5
12D
100
AcDbEntity
8
1
62
256
6
ByLayer
370
18
48
1
60
0
100
AcDbCircle
39
0
10
-196
20
16.5
30
0
40
0.6
210
0
220
0
230
-1
100
AcDbArc
50
97.230467
51
82.769533
0
ARC
5
12E
100
AcDbEntity
8
1
62
256
6
ByLayer
370
18
48
1
60
0
100
AcDbCircle
39
0
10
196
20
-16.5
30
0
40
0.836792319645751
210
0
220
0
230
1
100
AcDbArc
50
121.960057
51
103.08529
0
ARC
5
12F
100
AcDbEntity
8
1
62
256
6
ByLayer
370
18
48
1
60
0
100
AcDbCircle
39
0
10
196
20
-16.5
30
0
40
0.599999999999999
210
0
220
0
230
1
100
AcDbArc
50
119.753141
51
105.292206
0
ARC
5
130
100
AcDbEntity
8
1
62
256
6
ByLayer
370
18
48
1
60
0
100
AcDbCircle
39
0
10
191.7
20
-19.7
30
0
40
0.3
210
0
220
0
230
1
100
AcDbArc
50
270
51
0
0
ARC
5
131
100
AcDbEntity
8
1
62
256
6
ByLayer
370
18
48
1
60
0
100
AcDbCircle
39
0
10
191.7
20
19.7
30
0
40
0.3
210
0
220
0
230
1
100
AcDbArc
50
0
51
90
0
ARC
5
133
100
AcDbEntity
8
1
62
256
6
ByLayer
370
18
48
1
60
0
100
AcDbCircle
39
0
10
194.8
20
19.8
30
0
40
1.8
210
0
220
0
230
1
100
AcDbArc
50
189.271478
51
270
0
ARC
5
135
100
AcDbEntity
8
1
62
256
6
ByLayer
370
18
48
1
60
0
100
AcDbCircle
39
0
10
-218.480274
20
3.800141
30
0
40
4.97868793636581
210
0
220
0
230
-1
100
AcDbArc
50
360
51
8.431736
0
ARC
5
136
100
AcDbEntity
8
1
62
256
6
ByLayer
370
18
48
1
60
0
100
AcDbCircle
39
0
10
-218.480274
20
3.800141
30
0
40
4.97868793636581
210
0
220
0
230
-1
100
AcDbArc
50
14.650017
51
47.303793
0
ARC
5
137
100
AcDbEntity
8
1
62
256
6
ByLayer
370
18
48
1
60
0
100
AcDbCircle
39
0
10
-218.480274
20
3.800141
30
0
40
4.97868793643046
210
0
220
0
230
-1
100
AcDbArc
50
59.098479
51
76
0
CIRCLE
5
132
100
AcDbEntity
8
1
62
256
6
ByLayer
370
18
48
1
60
0
100
AcDbCircle
10
-196
20
-16.5
30
0
40
1
39
0
210
0
220
0
230
-1
0
CIRCLE
5
134
100
AcDbEntity
8
1
62
256
6
ByLayer
370
18
48
1
60
0
100
AcDbCircle
10
-196
20
16.5
30
0
40
1
39
0
210
0
220
0
230
-1
0
ELLIPSE
5
138
100
AcDbEntity
8
1
62
256
6
ByLayer
370
13
48
1
60
0
100
AcDbEllipse
10
217.26291
20
4.501005
30
0
11
-9.28557767785818E-16
21
-5.055
31
0
210
0
220
0
230
1
40
0.104528
41
-2.49521008927318
42
-0.674951707788319
0
ELLIPSE
5
139
100
AcDbEntity
8
1
62
256
6
ByLayer
370
18
48
1
60
0
100
AcDbEllipse
10
217.859623
20
4.501005
30
0
11
-5.38754427719375E-16
21
-2.9329393674833
31
0
210
0
220
0
230
1
40
0.104528
41
-1.5707963267949
42
-0.523598775598332
0
ELLIPSE
5
13A
100
AcDbEntity
8
1
62
256
6
ByLayer
370
18
48
1
60
0
100
AcDbEllipse
10
217.859623
20
4.501005
30
0
11
-5.38754427719375E-16
21
-2.9329393674833
31
0
210
0
220
0
230
1
40
0.104528
41
-0.523598775598332
42
0.523598775598249
0
ELLIPSE
5
13B
100
AcDbEntity
8
1
62
256
6
ByLayer
370
18
48
1
60
0
100
AcDbEllipse
10
217.859623
20
4.501005
30
0
11
-5.38754427719375E-16
21
-2.9329393674833
31
0
210
0
220
0
230
1
40
0.104528
41
0.523598775598249
42
1.5707963267949
0
ELLIPSE
5
13C
100
AcDbEntity
8
1
62
256
6
ByLayer
370
18
48
1
60
0
100
AcDbEllipse
10
217.859623
20
4.501005
30
0
11
-5.38754427719375E-16
21
-2.9329393674833
31
0
210
0
220
0
230
1
40
0.104528
41
1.5707963267949
42
2.61799387799154
0
ELLIPSE
5
13D
100
AcDbEntity
8
1
62
256
6
ByLayer
370
18
48
1
60
0
100
AcDbEllipse
10
217.859623
20
4.501005
30
0
11
-5.38754427719375E-16
21
-2.9329393674833
31
0
210
0
220
0
230
1
40
0.104528
41
2.61799387799154
42
-2.61799387799146
0
ELLIPSE
5
13E
100
AcDbEntity
8
1
62
256
6
ByLayer
370
18
48
1
60
0
100
AcDbEllipse
10
217.859623
20
4.501005
30
0
11
-5.38754427719375E-16
21
-2.9329393674833
31
0
210
0
220
0
230
1
40
0.104528
41
-2.61799387799146
42
-1.5707963267949
0
ELLIPSE
5
13F
100
AcDbEntity
8
1
62
256
6
ByLayer
370
18
48
1
60
0
100
AcDbEllipse
10
216.576115
20
-16.680771
30
0
11
-1.025
21
1.25522151266794E-16
31
0
210
0
220
0
230
1
40
0.99543
41
-0.228649397528548
42
-0.204007344620027
0
ELLIPSE
5
140
100
AcDbEntity
8
1
62
256
6
ByLayer
370
18
48
1
60
0
100
AcDbEllipse
10
216.576115
20
-16.267539
30
0
11
1.5
21
0
31
0
210
0
220
0
230
1
40
0.99543
41
1.5707963267949
42
3.14159265358978
0
ELLIPSE
5
141
100
AcDbEntity
8
1
62
256
6
ByLayer
370
18
48
1
60
0
100
AcDbEllipse
10
216.576115
20
-16.267539
30
0
11
-1.02499999999999
21
1.25522151266792E-16
31
0
210
0
220
0
230
1
40
0.99543
41
0
42
6.28318530717959
0
ELLIPSE
5
142
100
AcDbEntity
8
1
62
256
6
ByLayer
370
18
48
1
60
0
100
AcDbEllipse
10
211.136586
20
-9.360734
30
0
11
12
21
0
31
0
210
0
220
0
230
1
40
0.99543
41
-1.61540316141724
42
-1.5707963267949
0
ELLIPSE
5
143
100
AcDbEntity
8
1
62
256
6
ByLayer
370
18
48
1
60
0
100
AcDbEllipse
10
218.836586
20
-20.526454
30
0
11
0.499999999999998
21
0
31
0
210
0
220
0
230
1
40
0.99543
41
-1.5707963267949
42
1.42760964760978E-14
0
ELLIPSE
5
144
100
AcDbEntity
8
1
62
256
6
ByLayer
370
18
48
1
60
0
100
AcDbEllipse
10
216.576115
20
-16.473979
30
0
11
1.02499999999999
21
0
31
0
210
0
220
0
230
1
40
0.99543
41
0.101314151250475
42
1.14435580373862
0
ELLIPSE
5
145
100
AcDbEntity
8
1
62
256
6
ByLayer
370
18
48
1
60
0
100
AcDbEllipse
10
216.826586
20
17.071131
30
0
11
-1.725
21
2.1124459603436E-16
31
0
210
0
220
0
230
1
40
0.999033
41
0
42
6.28318530717959
0
ELLIPSE
5
146
100
AcDbEntity
8
1
62
256
6
ByLayer
370
18
48
1
60
0
100
AcDbEllipse
10
216.826586
20
17.078778
30
0
11
1.03505
21
0
31
0
210
0
220
0
230
1
40
0.999033
41
2.61799387799148
42
-2.61799387799151
0
ELLIPSE
5
147
100
AcDbEntity
8
1
62
256
6
ByLayer
370
18
48
1
60
0
100
AcDbEllipse
10
216.826586
20
17.078778
30
0
11
1.03505
21
0
31
0
210
0
220
0
230
1
40
0.999033
41
-2.61799387799151
42
-1.57079632679492
0
ELLIPSE
5
148
100
AcDbEntity
8
1
62
256
6
ByLayer
370
18
48
1
60
0
100
AcDbEllipse
10
216.826586
20
17.078778
30
0
11
1.03505
21
0
31
0
210
0
220
0
230
1
40
0.999033
41
-1.57079632679492
42
-0.523598775598317
0
ELLIPSE
5
149
100
AcDbEntity
8
1
62
256
6
ByLayer
370
18
48
1
60
0
100
AcDbEllipse
10
216.826586
20
17.078778
30
0
11
1.03505
21
0
31
0
210
0
220
0
230
1
40
0.999033
41
-0.523598775598317
42
0.523598775598288
0
ELLIPSE
5
14A
100
AcDbEntity
8
1
62
256
6
ByLayer
370
18
48
1
60
0
100
AcDbEllipse
10
216.826586
20
17.078778
30
0
11
1.03505
21
0
31
0
210
0
220
0
230
1
40
0.999033
41
0.523598775598288
42
1.5707963267949
0
ELLIPSE
5
14B
100
AcDbEntity
8
1
62
256
6
ByLayer
370
18
48
1
60
0
100
AcDbEllipse
10
216.826586
20
17.078778
30
0
11
1.03505
21
0
31
0
210
0
220
0
230
1
40
0.999033
41
1.5707963267949
42
2.61799387799148
0
ELLIPSE
5
14C
100
AcDbEntity
8
1
62
256
6
ByLayer
370
18
48
1
60
0
100
AcDbEllipse
10
211.692492
20
-4.500755
30
0
11
-1.14806845670848E-15
21
-6.25
31
0
210
0
220
0
230
1
40
0.104528
41
0.452374788353119
42
2.67210647448644
0
ELLIPSE
5
14D
100
AcDbEntity
8
1
62
256
6
ByLayer
370
18
48
1
60
0
100
AcDbEllipse
10
216.826586
20
17.078778
30
0
11
-1.3
21
1.59198825996909E-16
31
0
210
0
220
0
230
1
40
0.999033
41
0
42
6.28318530717959
0
ELLIPSE
5
14E
100
AcDbEntity
8
1
62
256
6
ByLayer
370
18
48
1
60
0
100
AcDbEllipse
10
216.826586
20
17.03481
30
0
11
0.7912
21
0
31
0
210
0
220
0
230
1
40
0.999033
41
-1.95375916110562
42
-1.16657741158886
0
ELLIPSE
5
14F
100
AcDbEntity
8
1
62
256
6
ByLayer
370
18
48
1
60
0
100
AcDbEllipse
10
216.826586
20
17.03481
30
0
11
-0.791199999999999
21
9.68908547144264E-17
31
0
210
0
220
0
230
1
40
0.999033
41
-2.0943951023932
42
-1.04719755119659
0
ELLIPSE
5
150
100
AcDbEntity
8
1
62
256
6
ByLayer
370
18
48
1
60
0
100
AcDbEllipse
10
216.826586
20
17.03481
30
0
11
0.7912
21
0
31
0
210
0
220
0
230
1
40
0.999033
41
0.0820906793063073
42
1.04719755119659
0
ELLIPSE
5
151
100
AcDbEntity
8
1
62
256
6
ByLayer
370
18
48
1
60
0
100
AcDbEllipse
10
216.826586
20
17.03481
30
0
11
0.7912
21
0
31
0
210
0
220
0
230
1
40
0.999033
41
-0.871497499944823
42
-3.5957052358412E-14
0
ELLIPSE
5
152
100
AcDbEntity
8
1
62
256
6
ByLayer
370
18
48
1
60
0
100
AcDbEllipse
10
216.826586
20
17.03481
30
0
11
0.7912
21
0
31
0
210
0
220
0
230
1
40
0.999033
41
3.14159265358978
42
-2.24141241675975
0
ELLIPSE
5
153
100
AcDbEntity
8
1
62
256
6
ByLayer
370
18
48
1
60
0
100
AcDbEllipse
10
216.826586
20
-16.503442
30
0
11
1.25
21
0
31
0
210
0
220
0
230
1
40
0.99543
41
2.72968438344162
42
-3.14155971523252
0
ELLIPSE
5
154
100
AcDbEntity
8
1
62
256
6
ByLayer
370
18
48
1
60
0
100
AcDbEllipse
10
217.659623
20
-4.500755
30
0
11
-7.1642764962708E-16
21
4.455
31
0
210
0
220
0
230
1
40
0.104528
41
-2.61863010940497
42
-0.537226694458654
0
ELLIPSE
5
155
100
AcDbEntity
8
1
62
256
6
ByLayer
370
13
48
1
60
0
100
AcDbEllipse
10
186
20
7.492132
30
0
11
-1
21
1.22460635382238E-16
31
0
210
0
220
0
230
1
40
0.927184
41
0
42
6.28318530717959
0
ELLIPSE
5
156
100
AcDbEntity
8
1
62
256
6
ByLayer
370
18
48
1
60
0
100
AcDbEllipse
10
216.826586
20
17.03481
30
0
11
0.7912
21
0
31
0
210
0
220
0
230
1
40
0.999033
41
2.0943951023932
42
3.05906044806319
0
ELLIPSE
5
157
100
AcDbEntity
8
1
62
256
6
ByLayer
370
18
48
1
60
0
100
AcDbEllipse
10
216.826586
20
17.055426
30
0
11
1.88448184300129
21
0
31
0
210
0
220
0
230
1
40
0.999033
41
0
42
6.28318530717959
0
ELLIPSE
5
158
100
AcDbEntity
8
1
62
256
6
ByLayer
370
18
48
1
60
0
100
AcDbEllipse
10
219.207836
20
-12.687998
30
0
11
-0.403909019133296
21
4.94629551196798E-17
31
0
210
0
220
0
230
1
40
0.99543
41
-3.14159265358978
42
-1.89523151399983
0
ELLIPSE
5
159
100
AcDbEntity
8
1
62
256
6
ByLayer
370
18
48
1
60
0
100
AcDbEllipse
10
219.207836
20
-20.899189
30
0
11
-0.403909019133296
21
4.94629551196798E-17
31
0
210
0
220
0
230
1
40
0.99543
41
1.04719755119664
42
3.14159265358979
0
ELLIPSE
5
15A
100
AcDbEntity
8
1
62
256
6
ByLayer
370
18
48
1
60
0
100
AcDbEllipse
10
219.207836
20
-21.202396
30
0
11
0.793750000000015
21
0
31
0
210
0
220
0
230
1
40
0.99543
41
-2.09439510239322
42
8.99281667785667E-15
0
ELLIPSE
5
15B
100
AcDbEntity
8
1
62
256
6
ByLayer
370
18
48
1
60
0
100
AcDbEllipse
10
219.207836
20
-12.991205
30
0
11
0.793750000000015
21
0
31
0
210
0
220
0
230
1
40
0.99543
41
0
42
1.40785941763223
0
ELLIPSE
5
15C
100
AcDbEntity
8
1
62
256
6
ByLayer
370
18
48
1
60
0
100
AcDbEllipse
10
217.859623
20
4.501005
30
0
11
-7.1642764962708E-16
21
4.455
31
0
210
0
220
0
230
1
40
0.104528
41
0.312097854343195
42
2.89026513686687
0
ELLIPSE
5
15D
100
AcDbEntity
8
1
62
256
6
ByLayer
370
13
48
1
60
0
100
AcDbEllipse
10
217.859623
20
4.501005
30
0
11
-7.1642764962708E-16
21
4.455
31
0
210
0
220
0
230
1
40
0.104528
41
2.89026513686687
42
-2.74162885607953
0
ELLIPSE
5
15E
100
AcDbEntity
8
1
62
256
6
ByLayer
370
18
48
1
60
0
100
AcDbEllipse
10
217.859623
20
4.501005
30
0
11
-7.1642764962708E-16
21
4.455
31
0
210
0
220
0
230
1
40
0.104528
41
-2.74162885607951
42
-0.337427031232391
0
ELLIPSE
5
15F
100
AcDbEntity
8
1
62
256
6
ByLayer
370
13
48
1
60
0
100
AcDbEllipse
10
217.859623
20
4.501005
30
0
11
-7.1642764962708E-16
21
4.455
31
0
210
0
220
0
230
1
40
0.104528
41
-0.33742638143421
42
-0.259966726779946
0
ELLIPSE
5
160
100
AcDbEntity
8
1
62
256
6
ByLayer
370
13
48
1
60
0
100
AcDbEllipse
10
216.826586
20
17.044967
30
0
11
-1.80474984822621
21
2.21010813119779E-16
31
0
210
0
220
0
230
1
40
0.999033
41
0
42
6.28318530717959
0
ELLIPSE
5
161
100
AcDbEntity
8
1
62
256
6
ByLayer
370
18
48
1
60
0
100
AcDbEllipse
10
219.207836
20
21.19982
30
0
11
-0.793749999999994
21
9.72031293346505E-17
31
0
210
0
220
0
230
1
40
0.999033
41
-3.14159265358979
42
-1.04719755119656
0
ELLIPSE
5
162
100
AcDbEntity
8
1
62
256
6
ByLayer
370
18
48
1
60
0
100
AcDbEllipse
10
212.064086
20
17.079362
30
0
11
-0.793749999999994
21
9.72031293346505E-17
31
0
210
0
220
0
230
1
40
0.999033
41
-1.0471975511966
42
1.0471975511966
0
ELLIPSE
5
163
100
AcDbEntity
8
1
62
256
6
ByLayer
370
18
48
1
60
0
100
AcDbEllipse
10
219.207836
20
12.958905
30
0
11
-0.793749999999994
21
9.72031293346505E-17
31
0
210
0
220
0
230
1
40
0.999033
41
1.0471975511966
42
3.14159265358979
0
ELLIPSE
5
164
100
AcDbEntity
8
1
62
256
6
ByLayer
370
18
48
1
60
0
100
AcDbEllipse
10
216.826586
20
17.079362
30
0
11
-1.9225502321216
21
2.3543672297988E-16
31
0
210
0
220
0
230
1
40
0.999033
41
0
42
6.28318530717959
0
ELLIPSE
5
165
100
AcDbEntity
8
1
62
256
6
ByLayer
370
13
48
1
60
0
100
AcDbEllipse
10
217.06291
20
-4.500755
30
0
11
-9.28557767785818E-16
21
-5.055
31
0
210
0
220
0
230
1
40
0.104528
41
2.60436568170893
42
3.14157797588633
0
ELLIPSE
5
166
100
AcDbEntity
8
1
62
256
6
ByLayer
370
13
48
1
60
0
100
AcDbEllipse
10
217.06291
20
-4.500755
30
0
11
-9.28557767785818E-16
21
-5.055
31
0
210
0
220
0
230
1
40
0.104528
41
0
42
2.60436587632288
0
ELLIPSE
5
167
100
AcDbEntity
8
1
62
256
6
ByLayer
370
18
48
1
60
0
100
AcDbEllipse
10
211.543214
20
17.338324
30
0
11
1.375
21
0
31
0
210
0
220
0
230
1
40
0.999033
41
1.9610194222788
42
-3.14158864938093
0
ELLIPSE
5
168
100
AcDbEntity
8
1
62
256
6
ByLayer
370
18
48
1
60
0
100
AcDbEllipse
10
211.543214
20
17.463633
30
0
11
-1.375
21
1.68383373650577E-16
31
0
210
0
220
0
230
1
40
0.999033
41
1.00102241647977
42
1.9539942465317
0
ELLIPSE
5
169
100
AcDbEntity
8
1
62
256
6
ByLayer
370
18
48
1
60
0
100
AcDbEllipse
10
211.543214
20
17.463633
30
0
11
-1.375
21
1.68383373650577E-16
31
0
210
0
220
0
230
1
40
0.999033
41
-1.180573231311
42
-1.00102241647977
0
ELLIPSE
5
16A
100
AcDbEntity
8
1
62
256
6
ByLayer
370
18
48
1
60
0
100
AcDbEllipse
10
212.165535
20
17.818975
30
0
11
1.46656669475825
21
0
31
0
210
0
220
0
230
1
40
0.999033
41
1.04719755119661
42
2.46703446408983
0
ELLIPSE
5
16B
100
AcDbEntity
8
1
62
256
6
ByLayer
370
18
48
1
60
0
100
AcDbEllipse
10
211.336586
20
9.326964
30
0
11
-12
21
1.46952762458685E-15
31
0
210
0
220
0
230
1
40
0.999033
41
-1.5707963267949
42
-1.52618949217255
0
ELLIPSE
5
16C
100
AcDbEntity
8
1
62
256
6
ByLayer
370
18
48
1
60
0
100
AcDbEllipse
10
212.165535
20
17.693666
30
0
11
1.46656669475825
21
0
31
0
210
0
220
0
230
1
40
0.999033
41
1.04719755119661
42
2.4670344640898
0
ELLIPSE
5
16D
100
AcDbEntity
8
1
62
256
6
ByLayer
370
18
48
1
60
0
100
AcDbEllipse
10
211.543214
20
17.333927
30
0
11
-1.275
21
1.56137310112353E-16
31
0
210
0
220
0
230
1
40
0.999033
41
-1.20087964837101
42
0.767919948099526
0
ELLIPSE
5
16E
100
AcDbEntity
8
1
62
256
6
ByLayer
370
18
48
1
60
0
100
AcDbEllipse
10
212.165535
20
17.689269
30
0
11
-1.36656669475825
21
1.673506257323E-16
31
0
210
0
220
0
230
1
40
0.999033
41
-2.0943951023932
42
-0.655566111584516
0
ELLIPSE
5
16F
100
AcDbEntity
8
1
62
256
6
ByLayer
370
18
48
1
60
0
100
AcDbEllipse
10
216.826586
20
17.039207
30
0
11
-1.725
21
2.1124459603436E-16
31
0
210
0
220
0
230
1
40
0.999033
41
0
42
3.14156000678613
0
ELLIPSE
5
170
100
AcDbEntity
8
1
62
256
6
ByLayer
370
18
48
1
60
0
100
AcDbEllipse
10
216.826586
20
-16.474793
30
0
11
-0.95
21
1.16337603613126E-16
31
0
210
0
220
0
230
1
40
0.99543
41
-1.75454637375402
42
0
0
ELLIPSE
5
171
100
AcDbEntity
8
1
62
256
6
ByLayer
370
18
48
1
60
0
100
AcDbEllipse
10
216.826586
20
-16.474793
30
0
11
-0.95
21
1.16337603613126E-16
31
0
210
0
220
0
230
1
40
0.99543
41
0
42
0.945259163127093
0
ELLIPSE
5
172
100
AcDbEntity
8
1
62
256
6
ByLayer
370
13
48
1
60
0
100
AcDbEllipse
10
186
20
-18.543677
30
0
11
1
21
0
31
0
210
0
220
0
230
1
40
0.374607
41
0
42
6.28318530717959
0
ELLIPSE
5
173
100
AcDbEntity
8
1
62
256
6
ByLayer
370
18
48
1
60
0
100
AcDbEllipse
10
220.330148
20
6.755158
30
0
11
0.309490658540994
21
-30.496653111856
31
0
210
0
220
0
230
-1
40
0.104613
41
0.44857724433248
42
0.572608250481676
0
ELLIPSE
5
174
100
AcDbEntity
8
1
62
256
6
ByLayer
370
18
48
1
60
0
100
AcDbEllipse
10
84.963205
20
6.755157
30
0
11
132.094053541575
21
-30.3709569157983
31
0
210
0
220
0
230
-1
40
0.020941
41
-0.405351588214865
42
-0.36810691556129
0
ELLIPSE
5
175
100
AcDbEntity
8
1
62
256
6
ByLayer
370
18
48
1
60
0
100
AcDbEllipse
10
230.590338
20
6.755158
30
0
11
0.648178646252458
21
-30.4930350644759
31
0
210
0
220
0
230
-1
40
0.726424
41
0.789501727725929
42
0.94449609684333
0
ELLIPSE
5
176
100
AcDbEntity
8
1
62
256
6
ByLayer
370
18
48
1
60
0
100
AcDbEllipse
10
230.590337
20
6.755156
30
0
11
0.64818013988502
21
-30.4930332402885
31
0
210
0
220
0
230
-1
40
0.726424
41
0.586986743014894
42
0.623540118438719
0
ELLIPSE
5
177
100
AcDbEntity
8
1
62
256
6
ByLayer
370
18
48
1
60
0
100
AcDbEllipse
10
208.639716
20
6.755158
30
0
11
-1.86732080145057E-15
21
30.4966701441991
31
0
210
0
220
0
230
-1
40
0.141431
41
-2.64454285753102
42
-2.44905701746698
0
ELLIPSE
5
178
100
AcDbEntity
8
1
62
256
6
ByLayer
370
18
48
1
60
0
100
AcDbEllipse
10
209.308282
20
6.755156
30
0
11
1.61489402975663E-07
21
30.4966679962757
31
0
210
0
220
0
230
-1
40
0.105104
41
2.15155308479008
42
2.21253662283035
0
ELLIPSE
5
179
100
AcDbEntity
8
1
62
256
6
ByLayer
370
18
48
1
60
0
100
AcDbEllipse
10
216.576115
20
-16.039941
30
0
11
1.0821789294195
21
-1.18478434171019
31
0
210
0
220
0
230
-1
40
0.876696
41
2.95448500117036
42
-2.3356948652292
0
ELLIPSE
5
17A
100
AcDbEntity
8
1
62
256
6
ByLayer
370
18
48
1
60
0
100
AcDbEllipse
10
218.198801
20
-4.999857
30
0
11
0.188546861770223
21
-6.49828992747573
31
0
210
0
220
0
230
-1
40
0.790737
41
-0.077987076483518
42
0.0229390820882569
0
ELLIPSE
5
17B
100
AcDbEntity
8
1
62
256
6
ByLayer
370
18
48
1
60
0
100
AcDbEllipse
10
218.651806
20
-4.999857
30
0
11
0.06672250911457
21
-6.49999612603273
31
0
210
0
220
0
230
-1
40
0.106359
41
-0.873885758173426
42
-0.0998343854875427
0
ELLIPSE
5
17C
100
AcDbEntity
8
1
62
256
6
ByLayer
370
18
48
1
60
0
100
AcDbEllipse
10
218.836586
20
-20.072151
30
0
11
0.421155735226974
21
-0.650928261135379
31
0
210
0
220
0
230
-1
40
0.414017
41
-0.569238853318504
42
0.110630584980726
0
ELLIPSE
5
17D
100
AcDbEntity
8
1
62
256
6
ByLayer
370
18
48
1
60
0
100
AcDbEllipse
10
205.995619
20
-20.001659
30
0
11
0.999773422571532
21
-0.233917779145589
31
0
210
0
220
0
230
-1
40
0.090999
41
-0.745599475781065
42
2.13419379000978
0
ELLIPSE
5
17E
100
AcDbEntity
8
1
62
256
6
ByLayer
370
18
48
1
60
0
100
AcDbEllipse
10
193.264504
20
-17.499857
30
0
11
21.6571283450444
21
-4.97938925405381
31
0
210
0
220
0
230
-1
40
0.020941
41
0.790456066779777
42
1.21052921802211
0
ELLIPSE
5
17F
100
AcDbEntity
8
1
62
256
6
ByLayer
370
18
48
1
60
0
100
AcDbEllipse
10
211.136586
20
-9.15808
30
0
11
8.98339727577241
21
9.67863145635897
31
0
210
0
220
0
230
-1
40
0.822021
41
2.40032269328013
42
2.522512650535
0
ELLIPSE
5
180
100
AcDbEntity
8
1
62
256
6
ByLayer
370
18
48
1
60
0
100
AcDbEllipse
10
217.617441
20
16.578652
30
0
11
0.120909794987966
21
0.209081381528557
31
0
210
0
220
0
230
-1
40
0.504381
41
-0.195609509116245
42
0.707118564342778
0
ELLIPSE
5
181
100
AcDbEntity
8
1
62
256
6
ByLayer
370
18
48
1
60
0
100
AcDbEllipse
10
216.035732
20
16.578652
30
0
11
0.120909794987969
21
-0.209081381528587
31
0
210
0
220
0
230
-1
40
0.504381
41
2.53821630439965
42
-2.94598314447303
0
ELLIPSE
5
182
100
AcDbEntity
8
1
62
256
6
ByLayer
370
18
48
1
60
0
100
AcDbEllipse
10
217.617441
20
17.490969
30
0
11
0.120909794988
21
-0.20908138152855
31
0
210
0
220
0
230
-1
40
0.504381
41
2.94711679610934
42
-0.603375853467821
0
ELLIPSE
5
183
100
AcDbEntity
8
1
62
256
6
ByLayer
370
18
48
1
60
0
100
AcDbEllipse
10
216.035732
20
17.490969
30
0
11
0.120909794987992
21
0.209081381528568
31
0
210
0
220
0
230
-1
40
0.504381
41
-2.4344745513312
42
0.194475857480652
0
ELLIPSE
5
184
100
AcDbEntity
8
1
62
256
6
ByLayer
370
18
48
1
60
0
100
AcDbEllipse
10
216.826586
20
17.947127
30
0
11
0.24169999999999
21
2.44271459613397E-16
31
0
210
0
220
0
230
-1
40
0.50365
41
2.94654997029087
42
0.195042683298895
0
ELLIPSE
5
185
100
AcDbEntity
8
1
62
256
6
ByLayer
370
18
48
1
60
0
100
AcDbEllipse
10
215.913536
20
17.03481
30
0
11
-1.47850558306013E-17
21
0.241466260312182
31
0
210
0
220
0
230
-1
40
0.504625
41
1.5707963267949
42
2.80244658853373
0
ELLIPSE
5
186
100
AcDbEntity
8
1
62
256
6
ByLayer
370
18
48
1
60
0
100
AcDbEllipse
10
217.739636
20
17.03481
30
0
11
-1.47850558303495E-17
21
0.24146626030807
31
0
210
0
220
0
230
-1
40
0.504625
41
-2.80244658855014
42
-1.5707963267949
0
ELLIPSE
5
187
100
AcDbEntity
8
1
62
256
6
ByLayer
370
18
48
1
60
0
100
AcDbEllipse
10
217.283111
20
17.82477
30
0
11
0.209352784299742
21
-0.120673451404967
31
0
210
0
220
0
230
-1
40
0.503893
41
0.33971196943914
42
1.57136223118716
0
ELLIPSE
5
188
100
AcDbEntity
8
1
62
256
6
ByLayer
370
18
48
1
60
0
100
AcDbEllipse
10
217.283111
20
17.82477
30
0
11
0.20935278429688
21
-0.120673451406348
31
0
210
0
220
0
230
-1
40
0.503893
41
1.57136223116211
42
2.80301249291583
0
ELLIPSE
5
189
100
AcDbEntity
8
1
62
256
6
ByLayer
370
18
48
1
60
0
100
AcDbEllipse
10
208.603437
20
6.755158
30
0
11
-1.86732080170694E-15
21
30.4966701483861
31
0
210
0
220
0
230
-1
40
0.138761
41
-2.44906362714534
42
-2.15155311171581
0
ELLIPSE
5
18A
100
AcDbEntity
8
1
62
256
6
ByLayer
370
18
48
1
60
0
100
AcDbEllipse
10
-0.948929
20
0
30
0
11
9.36741787978091
21
19.741749152749
31
0
210
0
220
0
230
-1
40
0.341999
41
0.152726244898411
42
1.0963195274999
0
ELLIPSE
5
18B
100
AcDbEntity
8
1
62
256
6
ByLayer
370
18
48
1
60
0
100
AcDbEllipse
10
16.948929
20
0
30
0
11
9.36741787978194
21
-19.7417491527499
31
0
210
0
220
0
230
-1
40
0.341999
41
2.04527312608996
42
2.98886640869138
0
ELLIPSE
5
18C
100
AcDbEntity
8
1
62
256
6
ByLayer
370
18
48
1
60
0
100
AcDbEllipse
10
-0.948929
20
0
30
0
11
9.36741787978094
21
-19.741749152749
31
0
210
0
220
0
230
-1
40
0.341999
41
-1.0963195274999
42
-0.152726244898412
0
ELLIPSE
5
18D
100
AcDbEntity
8
1
62
256
6
ByLayer
370
18
48
1
60
0
100
AcDbEllipse
10
16.948929
20
0
30
0
11
9.36741787978183
21
19.7417491527499
31
0
210
0
220
0
230
-1
40
0.341999
41
-2.98886640869139
42
-2.04527312608996
0
ELLIPSE
5
18E
100
AcDbEntity
8
1
62
256
6
ByLayer
370
18
48
1
60
0
100
AcDbEllipse
10
273.584282
20
0
30
0
11
80.5842822809306
21
8.14416228988901E-14
31
0
210
0
220
0
230
-1
40
0.248187
41
2.58730387758344
42
-2.6748273145425
0
ELLIPSE
5
18F
100
AcDbEntity
8
1
62
256
6
ByLayer
370
18
48
1
60
0
100
AcDbEllipse
10
207.42519
20
0
30
0
11
-1.2246063538271E-15
21
20.0000000000771
31
0
210
0
220
0
230
-1
40
0.138761
41
-2.56039041737005
42
-2.12508510280252
0
ELLIPSE
5
190
100
AcDbEntity
8
1
62
256
6
ByLayer
370
18
48
1
60
0
100
AcDbEllipse
10
193.626039
20
17.500141
30
0
11
21.6573258425871
21
4.99564107338291
31
0
210
0
220
0
230
-1
40
0.009638
41
-1.2210651192341
42
-0.80276646269511
0
ELLIPSE
5
191
100
AcDbEntity
8
1
62
256
6
ByLayer
370
18
48
1
60
0
100
AcDbEllipse
10
210.80869
20
17.500141
30
0
11
0.140567169508501
21
-4.99953141567522
31
0
210
0
220
0
230
-1
40
0.486967
41
1.58448707768407
42
2.42149738946505
0
ELLIPSE
5
192
100
AcDbEntity
8
1
62
256
6
ByLayer
370
18
48
1
60
0
100
AcDbEllipse
10
209.471026
20
14.620809
30
0
11
0.120806938811981
21
0.848102506821396
31
0
210
0
220
0
230
-1
40
0.450185
41
0
42
6.28318530717959
0
ELLIPSE
5
193
100
AcDbEntity
8
1
62
256
6
ByLayer
370
18
48
1
60
0
100
AcDbEllipse
10
209.449658
20
12.708705
30
0
11
0.0562268677984172
21
-1.99981256627689
31
0
210
0
220
0
230
-1
40
0.486967
41
0.711822451684881
42
1.58448707767859
0
ELLIPSE
5
194
100
AcDbEntity
8
1
62
256
6
ByLayer
370
18
48
1
60
0
100
AcDbEllipse
10
211.336586
20
9.233661
30
0
11
8.71865631060957
21
-9.02329936946701
31
0
210
0
220
0
230
-1
40
0.913779
41
-2.51598870926517
42
-2.43300114555028
0
ELLIPSE
5
195
100
AcDbEntity
8
1
62
256
6
ByLayer
370
18
48
1
60
0
100
AcDbEllipse
10
209.406307
20
16.701748
30
0
11
0.108039191100257
21
0.826261269525543
31
0
210
0
220
0
230
-1
40
0.465651
41
0
42
6.28318530717959
0
ELLIPSE
5
196
100
AcDbEntity
8
1
62
256
6
ByLayer
370
18
48
1
60
0
100
AcDbEllipse
10
203.477913
20
11.800141
30
0
11
-7.34763812293788E-17
21
1.20000000000059
31
0
210
0
220
0
230
-1
40
0.176327
41
-1.5707963267949
42
0
0
ELLIPSE
5
197
100
AcDbEntity
8
1
62
256
6
ByLayer
370
18
48
1
60
0
100
AcDbEllipse
10
203.742404
20
12.708705
30
0
11
-1.22460635383319E-16
21
2.00000000001766
31
0
210
0
220
0
230
-1
40
0.176327
41
1.5707963267949
42
2.44346095278414
0
POINT
5
6C
100
AcDbEntity
8
80
62
256
6
ByLayer
370
13
48
1
60
0
100
AcDbPoint
10
0
20
0
30
0
39
0
210
0
220
0
230
1
50
360
0
POINT
5
6E
100
AcDbEntity
8
81
62
256
6
ByLayer
370
18
48
1
60
0
100
AcDbPoint
10
220.000937
20
21.993116
30
0
39
0
210
0
220
0
230
1
50
360
0
SPLINE
5
198
100
AcDbEntity
8
SK1
62
256
6
ByLayer
370
18
48
1
60
0
100
AcDbSpline
70
4
71
2
72
6
73
3
40
0
40
0
40
0
40
1
40
1
40
1
41
1
10
-22.5
20
-13.4933966698402
30
0
41
1
10
-12.0999999999449
20
-13.7545973909208
30
0
41
1
10
-1.70000000000005
20
-14.0157977997179
30
0
0
SPLINE
5
199
100
AcDbEntity
8
SK1
62
256
6
ByLayer
370
18
48
1
60
0
100
AcDbSpline
70
4
71
2
72
6
73
3
40
0
40
0
40
0
40
1
40
1
40
1
41
1
10
-1.69999999999999
20
14.0157970602975
30
0
41
1
10
-12.099999999963
20
13.7545958471854
30
0
41
1
10
-22.5
20
13.493394380475
30
0
0
SPLINE
5
19A
100
AcDbEntity
8
SK1
62
256
6
ByLayer
370
18
48
1
60
0
100
AcDbSpline
70
4
71
3
72
13
73
9
40
0
40
0
40
0
40
0
40
0.239456136997416
40
0.36835972341705
40
0.499998985516682
40
0.631638416576596
40
0.760542468702461
40
1
40
1
40
1
40
1
41
1
10
-1.70000000000005
20
-14.0200984156386
30
0
41
1
10
-1.6990919864528
20
-13.9940409390257
30
0
41
1
10
-1.69103284110326
20
-13.9566683539303
30
0
41
1
10
-1.66563592205648
20
-13.9104491790264
30
0
41
1
10
-1.63886378681673
20
-13.8791676243503
30
0
41
1
10
-1.60627712752262
20
-13.8540002532836
30
0
41
1
10
-1.5588406423667
20
-13.830956449625
30
0
41
1
10
-1.52111030874414
20
-13.8247841935567
30
0
41
1
10
-1.49503997793926
20
-13.8251858327437
30
0
0
SPLINE
5
19B
100
AcDbEntity
8
SK1
62
256
6
ByLayer
370
18
48
1
60
0
100
AcDbSpline
70
4
71
3
72
13
73
9
40
0
40
0
40
0
40
0
40
0.239457531275231
40
0.3683615833945
40
0.500001014452671
40
0.631640276555333
40
0.760543862982291
40
1
40
1
40
1
40
1
41
1
10
-1.49503997793931
20
13.8251858293361
30
0
41
1
10
-1.52111030874494
20
13.8247841901529
30
0
41
1
10
-1.55884064236795
20
13.8309564462264
30
0
41
1
10
-1.60627712752341
20
13.8540002498916
30
0
41
1
10
-1.63886378681741
20
13.8791676209636
30
0
41
1
10
-1.66563592205688
20
13.9104491756452
30
0
41
1
10
-1.69103284110355
20
13.9566683505561
30
0
41
1
10
-1.69909198645314
20
13.9940409356568
30
0
41
1
10
-1.69999999999999
20
14.0200984122732
30
0
0
SPLINE
5
19C
100
AcDbEntity
8
SK1
62
256
6
ByLayer
370
18
48
1
60
0
100
AcDbSpline
70
4
71
2
72
6
73
3
40
0
40
0
40
0
40
1
40
1
40
1
41
1
10
-24
20
-12.6310964932104
30
0
41
1
10
-23.2499999989323
20
-13.0640911753538
30
0
41
1
10
-22.5
20
-13.4970856697526
30
0
0
SPLINE
5
19D
100
AcDbEntity
8
SK1
62
256
6
ByLayer
370
18
48
1
60
0
100
AcDbSpline
70
4
71
2
72
6
73
3
40
0
40
0
40
0
40
1
40
1
40
1
41
1
10
-22.5
20
13.4970852847173
30
0
41
1
10
-23.2499999989318
20
13.0640908004417
30
0
41
1
10
-24
20
12.6310961283886
30
0
0
SPLINE
5
19E
100
AcDbEntity
8
SK1
62
256
6
ByLayer
370
18
48
1
60
0
100
AcDbSpline
70
4
71
2
72
6
73
3
40
0
40
0
40
0
40
1
40
1
40
1
41
1
10
-1.49503997793931
20
-13.7129410868414
30
0
41
1
10
-0.945008433407338
20
-13.7266599565278
30
0
41
1
10
-0.394976888875306
20
-13.7403788260776
30
0
0
SPLINE
5
19F
100
AcDbEntity
8
SK1
62
256
6
ByLayer
370
18
48
1
60
0
100
AcDbSpline
70
4
71
2
72
6
73
3
40
0
40
0
40
0
40
1
40
1
40
1
41
1
10
-0.394976888875306
20
13.740379899128
30
0
41
1
10
-0.945008433407338
20
13.7266611372792
30
0
41
1
10
-1.49503997793931
20
13.7129423752897
30
0
0
SPLINE
5
1A0
100
AcDbEntity
8
1
62
256
6
ByLayer
370
18
48
1
60
0
100
AcDbSpline
70
4
71
3
72
8
73
4
40
0
40
0
40
0
40
0
40
1
40
1
40
1
40
1
41
1
10
196.541892962182
20
0.0407773111311371
30
0
41
1
10
196.999693966603
20
0.0407773111311371
30
0
41
1
10
197.457494971024
20
0.0407773111311371
30
0
41
1
10
197.915295975444
20
0.0407773111311371
30
0
0
SPLINE
5
1A1
100
AcDbEntity
8
SK1
62
256
6
ByLayer
370
18
48
1
60
0
100
AcDbSpline
70
4
71
3
72
116
73
112
40
0
40
0
40
0
40
0
40
0.0075236721532844
40
0.0155476303979646
40
0.0235715886426447
40
0.0315955468873249
40
0.039619505132005
40
0.0476434633766851
40
0.0556674216213653
40
0.0636913798660454
40
0.0717153381107256
40
0.0797392963554057
40
0.095787212844766
40
0.103811171089446
40
0.111835129334126
40
0.119859087578806
40
0.127883045823487
40
0.143930962312847
40
0.151954920557527
40
0.159978878802207
40
0.168002837046887
40
0.176026795291567
40
0.184050753536247
40
0.192074711780928
40
0.208122628270288
40
0.216146586514968
40
0.224170544759648
40
0.232194503004328
40
0.240218461249008
40
0.248242419493689
40
0.256266377738369
40
0.264290335983049
40
0.272314294227729
40
0.288362210717089
40
0.296386168961769
40
0.30441012720645
40
0.32045804369581
40
0.33650596018517
40
0.34452991842985
40
0.35255387667453
40
0.360577834919211
40
0.368601793163891
40
0.376625751408571
40
0.384649709653251
40
0.388661688775591
40
0.392673667897931
40
0.400697626142611
40
0.408721584387291
40
0.416745542631972
40
0.432793459121332
40
0.440817417366012
40
0.448841375610692
40
0.456865333855372
40
0.464889292100052
40
0.472913250344732
40
0.480937208589413
40
0.488961166834093
40
0.496985125078773
40
0.505009083323453
40
0.513033041568133
40
0.529080958057493
40
0.537104916302174
40
0.545128874546854
40
0.549140853669194
40
0.553152832791534
40
0.561176791036214
40
0.577224707525574
40
0.585248665770254
40
0.593272624014934
40
0.609320540504295
40
0.625368456993655
40
0.633392415238335
40
0.641416373483015
40
0.657464289972375
40
0.665488248217056
40
0.673512206461736
40
0.681536164706416
40
0.689560122951096
40
0.697584081195776
40
0.705608039440456
40
0.721655955929817
40
0.737703872419177
40
0.745727830663857
40
0.753751788908537
40
0.761775747153218
40
0.769799705397898
40
0.785847621887258
40
0.801895538376618
40
0.817943454865978
40
0.833991371355339
40
0.842015329600019
40
0.850039287844699
40
0.858063246089379
40
0.866087204334059
40
0.874111162578739
40
0.882135120823419
40
0.8901590790681
40
0.89818303731278
40
0.90620699555746
40
0.91423095380214
40
0.92225491204682
40
0.9302788702915
40
0.93830282853618
40
0.946326786780861
40
0.954350745025541
40
0.962374703270221
40
0.970398661514901
40
0.978422619759581
40
0.986446578004261
40
0.994470536248941
40
1
40
1
40
1
40
1
41
1
10
-1.7000000000001
20
-14.0157960320958
30
0
41
1
10
-1.70000000000005
20
-14.0144803678162
30
0
41
1
10
-1.70000000000005
20
-14.0111456741661
30
0
41
1
10
-1.70000000000005
20
-14.0041924220526
30
0
41
1
10
-1.70000000000005
20
-13.9951249982352
30
0
41
1
10
-1.70000000000005
20
-13.9841238377961
30
0
41
1
10
-1.70000000000005
20
-13.9712195410174
30
0
41
1
10
-1.70000000000005
20
-13.9564420504847
30
0
41
1
10
-1.70000000000005
20
-13.9398197437578
30
0
41
1
10
-1.70000000000005
20
-13.9213794981547
30
0
41
1
10
-1.70000000000005
20
-13.9011479145568
30
0
41
1
10
-1.70000000000005
20
-13.8718187984145
30
0
41
1
10
-1.70000000000005
20
-13.8389980176943
30
0
41
1
10
-1.70000000000005
20
-13.8027899277569
30
0
41
1
10
-1.70000000000005
20
-13.7739560268625
30
0
41
1
10
-1.70000000000005
20
-13.7434661079966
30
0
41
1
10
-1.70000000000005
20
-13.7006353167884
30
0
41
1
10
-1.70000000000005
20
-13.6545611570252
30
0
41
1
10
-1.70000000000005
20
-13.6053356175565
30
0
41
1
10
-1.70000000000005
20
-13.5668499598694
30
0
41
1
10
-1.70000000000005
20
-13.5268172136993
30
0
41
1
10
-1.70000000000005
20
-13.4852529409442
30
0
41
1
10
-1.70000000000005
20
-13.4421723383994
30
0
41
1
10
-1.70000000000005
20
-13.382734448188
30
0
41
1
10
-1.70000000000005
20
-13.3203101272292
30
0
41
1
10
-1.70000000000005
20
-13.2549799687684
30
0
41
1
10
-1.70000000000005
20
-13.2045321176789
30
0
41
1
10
-1.70000000000005
20
-13.1526505331688
30
0
41
1
10
-1.70000000000005
20
-13.0993474417035
30
0
41
1
10
-1.70000000000005
20
-13.0446338377524
30
0
41
1
10
-1.70000000000005
20
-12.9885221046097
30
0
41
1
10
-1.70000000000005
20
-12.9310230820619
30
0
41
1
10
-1.70000000000005
20
-12.8525264302737
30
0
41
1
10
-1.70000000000005
20
-12.7712834981638
30
0
41
1
10
-1.70000000000005
20
-12.687362440577
30
0
41
1
10
-1.70000000000005
20
-12.6016599065257
30
0
41
1
10
-1.70000000000005
20
-12.4912006631364
30
0
41
1
10
-1.70000000000005
20
-12.3763763795169
30
0
41
1
10
-1.70000000000005
20
-12.2819407102378
30
0
41
1
10
-1.70000000000005
20
-12.209824831333
30
0
41
1
10
-1.70000000000005
20
-12.1364317035572
30
0
41
1
10
-1.70000000000005
20
-12.0617686735772
30
0
41
1
10
-1.70000000000005
20
-11.9858436943514
30
0
41
1
10
-1.70000000000005
20
-11.9215236271769
30
0
41
1
10
-1.70000000000005
20
-11.869448828233
30
0
41
1
10
-1.70000000000005
20
-11.8169591619061
30
0
41
1
10
-1.70000000000005
20
-11.7505641463283
30
0
41
1
10
-1.70000000000005
20
-11.6696587897977
30
0
41
1
10
-1.70000000000005
20
-11.5601529310587
30
0
41
1
10
-1.70000000000005
20
-11.4481829097131
30
0
41
1
10
-1.70000000000005
20
-11.3338110691597
30
0
41
1
10
-1.70000000000005
20
-11.2468221981049
30
0
41
1
10
-1.70000000000005
20
-11.1586337774266
30
0
41
1
10
-1.70000000000005
20
-11.0692509525239
30
0
41
1
10
-1.70000000000005
20
-10.9786794570573
30
0
41
1
10
-1.70000000000005
20
-10.8869237943964
30
0
41
1
10
-1.70000000000005
20
-10.7939888545435
30
0
41
1
10
-1.70000000000005
20
-10.6998796625668
30
0
41
1
10
-1.70000000000005
20
-10.6046008653873
30
0
41
1
10
-1.70000000000005
20
-10.4760157822056
30
0
41
1
10
-1.70000000000005
20
-10.3450861597474
30
0
41
1
10
-1.70000000000005
20
-10.2118742978003
30
0
41
1
10
-1.70000000000005
20
-10.127650582945
30
0
41
1
10
-1.70000000000005
20
-10.059706595653
30
0
41
1
10
-1.70000000000005
20
-9.99138145148612
30
0
41
1
10
-1.70000000000005
20
-9.87081045044334
30
0
41
1
10
-1.70000000000005
20
-9.73071863089586
30
0
41
1
10
-1.70000000000005
20
-9.58839009925038
30
0
41
1
10
-1.70000000000005
20
-9.44455857133374
30
0
41
1
10
-1.70000000000005
20
-9.26193699842014
30
0
41
1
10
-1.70000000000005
20
-9.07558728630886
30
0
41
1
10
-1.70000000000005
20
-8.92429762219672
30
0
41
1
10
-1.70000000000005
20
-8.77152769372714
30
0
41
1
10
-1.70000000000005
20
-8.61651163422607
30
0
41
1
10
-1.70000000000005
20
-8.45931946186533
30
0
41
1
10
-1.70000000000005
20
-8.34031608257322
30
0
41
1
10
-1.70000000000005
20
-8.22021382021131
30
0
41
1
10
-1.70000000000005
20
-8.09901466976936
30
0
41
1
10
-1.70000000000005
20
-7.97672004102662
30
0
41
1
10
-1.70000000000005
20
-7.81221412115065
30
0
41
1
10
-1.70000000000005
20
-7.60382757721294
30
0
41
1
10
-1.70000000000005
20
-7.391814483107
30
0
41
1
10
-1.70000000000005
20
-7.22005471809888
30
0
41
1
10
-1.70000000000005
20
-7.09014227483777
30
0
41
1
10
-1.70000000000005
20
-6.95914718913934
30
0
41
1
10
-1.70000000000005
20
-6.78305839594083
30
0
41
1
10
-1.70000000000005
20
-6.56021849497898
30
0
41
1
10
-1.70000000000005
20
-6.28851702131561
30
0
41
1
10
-1.70000000000005
20
-6.01251450148573
30
0
41
1
10
-1.70000000000005
20
-5.77892152593586
30
0
41
1
10
-1.70000000000005
20
-5.58993219435263
30
0
41
1
10
-1.70000000000005
20
-5.44710902267542
30
0
41
1
10
-1.70000000000005
20
-5.30321731736848
30
0
41
1
10
-1.70000000000005
20
-5.15825863689906
30
0
41
1
10
-1.70000000000005
20
-5.01223421717725
30
0
41
1
10
-1.70000000000005
20
-4.86514572624662
30
0
41
1
10
-1.70000000000005
20
-4.71699462569848
30
0
41
1
10
-1.70000000000005
20
-4.56778315161375
30
0
41
1
10
-1.70000000000005
20
-4.41751369191314
30
0
41
1
10
-1.70000000000005
20
-4.26618881241484
30
0
41
1
10
-1.70000000000005
20
-4.11381118090259
30
0
41
1
10
-1.70000000000005
20
-3.96038382889077
30
0
41
1
10
-1.70000000000005
20
-3.80591068333541
30
0
41
1
10
-1.70000000000005
20
-3.65039703338328
30
0
41
1
10
-1.70000000000005
20
-3.49384788295134
30
0
41
1
10
-1.70000000000005
20
-3.33626946559076
30
0
41
1
10
-1.70000000000005
20
-3.17766896347746
30
0
41
1
10
-1.70000000000005
20
-3.01805529196173
30
0
41
1
10
-1.70000000000005
20
-2.85743848960823
30
0
41
1
10
-1.70000000000005
20
-2.71257747842986
30
0
41
1
10
-1.69999999999999
20
-2.62111400924692
30
0
41
1
10
-1.69999999999999
20
-2.5837250319525
30
0
0
SPLINE
5
1A2
100
AcDbEntity
8
SK1
62
256
6
ByLayer
370
18
48
1
60
0
100
AcDbSpline
70
4
71
3
72
98
73
94
40
0
40
0
40
0
40
0
40
0.0043783660462982
40
0.0136712703442177
40
0.0229641746421373
40
0.0322570789400569
40
0.0415499832379765
40
0.0601357918338157
40
0.0787216004296549
40
0.0973074090254941
40
0.115893217621333
40
0.125186121919253
40
0.134479026217173
40
0.143771930515092
40
0.153064834813012
40
0.171650643408851
40
0.19023645200469
40
0.19952935630261
40
0.208822260600529
40
0.218115164898449
40
0.227408069196368
40
0.236700973494288
40
0.245993877792208
40
0.264579686388047
40
0.273872590685966
40
0.283165494983886
40
0.301751303579725
40
0.320337112175564
40
0.329630016473484
40
0.338922920771404
40
0.357508729367243
40
0.366801633665162
40
0.371448085814122
40
0.376094537963082
40
0.385387442261002
40
0.394680346558921
40
0.41326615515476
40
0.42255905945268
40
0.4318519637506
40
0.441144868048519
40
0.450437772346439
40
0.459730676644358
40
0.469023580942278
40
0.478316485240197
40
0.487609389538117
40
0.496902293836037
40
0.506195198133956
40
0.524781006729796
40
0.534073911027715
40
0.543366815325635
40
0.552659719623554
40
0.557306171772514
40
0.561952623921474
40
0.571245528219394
40
0.580538432517313
40
0.589831336815233
40
0.599124241113152
40
0.608417145411072
40
0.617710049708992
40
0.636295858304831
40
0.65488166690067
40
0.66417457119859
40
0.673467475496509
40
0.692053284092348
40
0.701346188390268
40
0.710639092688187
40
0.719931996986107
40
0.729224901284027
40
0.738517805581946
40
0.747810709879866
40
0.757103614177785
40
0.766396518475705
40
0.784982327071544
40
0.794275231369464
40
0.803568135667384
40
0.812861039965303
40
0.822153944263223
40
0.831446848561142
40
0.840739752859062
40
0.859325561454901
40
0.868618465752821
40
0.87791137005074
40
0.88720427434866
40
0.896497178646579
40
0.915082987242419
40
0.933668795838258
40
0.952254604434097
40
0.961547508732017
40
0.970840413029936
40
0.980133317327856
40
0.989426221625775
40
0.998719125923695
40
1
40
1
40
1
40
1
41
1
10
-0.394976888875306
20
5.0009244140283
30
0
41
1
10
-0.394976888875249
20
5.02359271293307
30
0
41
1
10
-0.394976888875249
20
5.09425517295409
30
0
41
1
10
-0.394976888875306
20
5.21232773385498
30
0
41
1
10
-0.394976888875306
20
5.35463940810166
30
0
41
1
10
-0.394976888875306
20
5.49591838220567
30
0
41
1
10
-0.394976888875306
20
5.68302324019061
30
0
41
1
10
-0.394976888875306
20
5.91406385279549
30
0
41
1
10
-0.394976888875306
20
6.18726433662556
30
0
41
1
10
-0.394976888875306
20
6.45627503636445
30
0
41
1
10
-0.394976888875306
20
6.67684685573994
30
0
41
1
10
-0.394976888875306
20
6.85136200824962
30
0
41
1
10
-0.394976888875306
20
6.98112244545177
30
0
41
1
10
-0.394976888875306
20
7.10982244878716
30
0
41
1
10
-0.394976888875306
20
7.28009509164627
30
0
41
1
10
-0.394976888875306
20
7.49008089634202
30
0
41
1
10
-0.394976888875306
20
7.69650359349293
30
0
41
1
10
-0.394976888875306
20
7.85964213989763
30
0
41
1
10
-0.394976888875306
20
7.98086143927401
30
0
41
1
10
-0.394976888875306
20
8.10100252302425
30
0
41
1
10
-0.394976888875306
20
8.22006379392718
30
0
41
1
10
-0.394976888875306
20
8.33804225713789
30
0
41
1
10
-0.394976888875306
20
8.49397418950429
30
0
41
1
10
-0.394976888875306
20
8.64751154095558
30
0
41
1
10
-0.394976888875306
20
8.79907643306461
30
0
41
1
10
-0.394976888875306
20
8.94918033853526
30
0
41
1
10
-0.394976888875306
20
9.13390678694702
30
0
41
1
10
-0.394976888875306
20
9.31494996650383
30
0
41
1
10
-0.394976888875306
20
9.45767861814852
30
0
41
1
10
-0.394976888875306
20
9.59892076352935
30
0
41
1
10
-0.394976888875306
20
9.7377360063029
30
0
41
1
10
-0.394976888875306
20
9.85736934874495
30
0
41
1
10
-0.394976888875306
20
9.92517900727512
30
0
41
1
10
-0.394976888875306
20
9.99261143893301
30
0
41
1
10
-0.394976888875306
20
10.0761265525343
30
0
41
1
10
-0.394976888875306
20
10.2083399780689
30
0
41
1
10
-0.394976888875306
20
10.3380960413352
30
0
41
1
10
-0.394976888875306
20
10.4657231550754
30
0
41
1
10
-0.394976888875306
20
10.5602461340712
30
0
41
1
10
-0.394976888875306
20
10.6536100721469
30
0
41
1
10
-0.394976888875306
20
10.74580988339
30
0
41
1
10
-0.394976888875306
20
10.8368404439692
30
0
41
1
10
-0.394976888875306
20
10.9266969759659
30
0
41
1
10
-0.394976888875306
20
11.0153746780185
30
0
41
1
10
-0.394976888875306
20
11.102867622286
30
0
41
1
10
-0.394976888875306
20
11.1891707558493
30
0
41
1
10
-0.394976888875306
20
11.3026972493619
30
0
41
1
10
-0.394976888875306
20
11.4136741241806
30
0
41
1
10
-0.394976888875306
20
11.5223699646631
30
0
41
1
10
-0.394976888875306
20
11.6026363586083
30
0
41
1
10
-0.394976888875306
20
11.6684804259269
30
0
41
1
10
-0.394976888875306
20
11.7205808778945
30
0
41
1
10
-0.394976888875306
20
11.7722691621605
30
0
41
1
10
-0.394976888875306
20
11.8360539668502
30
0
41
1
10
-0.394976888875306
20
11.9113764581405
30
0
41
1
10
-0.394976888875306
20
11.9854459580753
30
0
41
1
10
-0.394976888875306
20
12.0582544060742
30
0
41
1
10
-0.394976888875306
20
12.1297946053789
30
0
41
1
10
-0.394976888875306
20
12.2235215734124
30
0
41
1
10
-0.394976888875306
20
12.3373769122162
30
0
41
1
10
-0.394976888875306
20
12.4468991604423
30
0
41
1
10
-0.394976888875306
20
12.5319491453114
30
0
41
1
10
-0.394976888875306
20
12.6152283382819
30
0
41
1
10
-0.394976888875306
20
12.6957215859151
30
0
41
1
10
-0.394976888875306
20
12.7736108931729
30
0
41
1
10
-0.394976888875306
20
12.8306328717281
30
0
41
1
10
-0.394976888875306
20
12.8862769376535
30
0
41
1
10
-0.394976888875306
20
12.9405320737836
30
0
41
1
10
-0.394976888875306
20
12.9933861020735
30
0
41
1
10
-0.394976888875306
20
13.0448282447276
30
0
41
1
10
-0.394976888875306
20
13.0948461342591
30
0
41
1
10
-0.394976888875306
20
13.1596507604527
30
0
41
1
10
-0.394976888875306
20
13.2214670183476
30
0
41
1
10
-0.394976888875306
20
13.2804176635456
30
0
41
1
10
-0.394976888875306
20
13.3231185671575
30
0
41
1
10
-0.394976888875306
20
13.3643136176474
30
0
41
1
10
-0.394976888875306
20
13.4039879614121
30
0
41
1
10
-0.394976888875306
20
13.4421262012037
30
0
41
1
10
-0.394976888875306
20
13.4909311840823
30
0
41
1
10
-0.394976888875306
20
13.5365270016785
30
0
41
1
10
-0.394976888875306
20
13.5789821852607
30
0
41
1
10
-0.394976888875306
20
13.6091837483775
30
0
41
1
10
-0.394976888875306
20
13.6377421071264
30
0
41
1
10
-0.394976888875306
20
13.6736219510479
30
0
41
1
10
-0.394976888875306
20
13.7142204148031
30
0
41
1
10
-0.394976888875306
20
13.7560496751861
30
0
41
1
10
-0.394976888875306
20
13.7849758313288
30
0
41
1
10
-0.394976888875306
20
13.8044829705053
30
0
41
1
10
-0.394976888875306
20
13.8172492272358
30
0
41
1
10
-0.394976888875306
20
13.8281310063337
30
0
41
1
10
-0.394976888875306
20
13.8370982474883
30
0
41
1
10
-0.394976888875306
20
13.842101166137
30
0
41
1
10
-0.394976888875306
20
13.8443369604552
30
0
41
1
10
-0.394976888875306
20
13.8446015176322
30
0
0
SPLINE
5
1A3
100
AcDbEntity
8
1
62
256
6
ByLayer
370
18
48
1
60
0
100
AcDbSpline
70
4
71
3
72
10
73
6
40
0
40
0
40
0
40
0
40
0.608963827308745
40
0.608963827308745
40
1
40
1
40
1
40
1
41
1
10
196.660182303427
20
-1.28866755967977
30
0
41
1
10
196.710254288286
20
-1.35415745479361
30
0
41
1
10
196.784851326952
20
-1.40818661826256
30
0
41
1
10
196.944266933656
20
-1.47808967311579
30
0
41
1
10
197.013210750358
20
-1.49636271302899
30
0
41
1
10
197.088249179897
20
-1.50590694774422
30
0
0
SPLINE
5
1A4
100
AcDbEntity
8
SK1
62
256
6
ByLayer
370
18
48
1
60
0
100
AcDbSpline
70
4
71
3
72
30
73
26
40
0
40
0
40
0
40
0
40
0.337353368394543
40
0.337353368394543
40
0.421572476593222
40
0.421572476593222
40
0.437870507638316
40
0.437870507638316
40
0.45436074417486
40
0.45436074417486
40
0.461024373241378
40
0.461024373241378
40
0.467802725012543
40
0.467802725012543
40
0.473791453422471
40
0.473791453422471
40
0.481264268995634
40
0.481264268995634
40
0.49480430141982
40
0.49480430141982
40
0.5410692622808
40
0.5410692622808
40
0.762218024234694
40
0.762218024234694
40
1
40
1
40
1
40
1
41
1
10
-1.70000000000005
20
-2.5837250319525
30
0
41
1
10
-1.69946915813011
20
-2.45210484593008
30
0
41
1
10
-1.69760670671559
20
-2.31884997747193
30
0
41
1
10
-1.67915375522102
20
-2.15294187932722
30
0
41
1
10
-1.67485152519237
20
-2.11932442567115
30
0
41
1
10
-1.66472347048307
20
-2.08095979549279
30
0
41
1
10
-1.66287560510222
20
-2.07475454077752
30
0
41
1
10
-1.65846712486041
20
-2.06274931231138
30
0
41
1
10
-1.65588139752765
20
-2.05680133794198
30
0
41
1
10
-1.65120237663189
20
-2.04976806653178
30
0
41
1
10
-1.64969999009793
20
-2.04787870491481
30
0
41
1
10
-1.6463951021322
20
-2.04478949380393
30
0
41
1
10
-1.64453557847707
20
-2.04357912964019
30
0
41
1
10
-1.64096575658948
20
-2.0424082838677
30
0
41
1
10
-1.63922229186971
20
-2.04230771235825
30
0
41
1
10
-1.63551182442291
20
-2.0429703718176
30
0
41
1
10
-1.63353448434611
20
-2.04393506875681
30
0
41
1
10
-1.62845259442088
20
-2.04750201060244
30
0
41
1
10
-1.62558657915474
20
-2.05080334173016
30
0
41
1
10
-1.61425491865009
20
-2.06649024761714
30
0
41
1
10
-1.60795428020373
20
-2.08189579117896
30
0
41
1
10
-1.57473680217703
20
-2.17064161742098
30
0
41
1
10
-1.55852136531604
20
-2.25243693059406
30
0
41
1
10
-1.52474337309138
20
-2.41950302647172
30
0
41
1
10
-1.50941945205875
20
-2.50700839290505
30
0
41
1
10
-1.49503997793931
20
-2.59465115086948
30
0
0
SPLINE
5
1A5
100
AcDbEntity
8
SK1
62
256
6
ByLayer
370
18
48
1
60
0
100
AcDbSpline
70
4
71
3
72
8
73
4
40
0
40
0
40
0
40
0
40
1
40
1
40
1
40
1
41
1
10
-1.49503997794182
20
-2.59465115080906
30
0
41
1
10
-1.43729564430123
20
-2.94660231503167
30
0
41
1
10
-1.37345704406016
20
-3.29127575595925
30
0
41
1
10
-1.30710678118771
20
-3.62781610099938
30
0
0
SPLINE
5
1A6
100
AcDbEntity
8
1
62
256
6
ByLayer
370
18
48
1
60
0
100
AcDbSpline
70
4
71
3
72
18
73
14
40
0
40
0
40
0
40
0
40
0.154114544201946
40
0.154114544201946
40
0.309373471553003
40
0.309373471553003
40
0.463785292787383
40
0.463785292787383
40
0.61734912912527
40
0.61734912912527
40
0.808674564562636
40
0.808674564562636
40
1
40
1
40
1
40
1
41
1
10
196.070807553616
20
-0.756562161879856
30
0
41
1
10
196.070807553616
20
-0.959580836732755
30
0
41
1
10
196.092598386208
20
-1.13252964476931
30
0
41
1
10
196.182192172995
20
-1.41309836039608
30
0
41
1
10
196.248137680537
20
-1.52883095196182
30
0
41
1
10
196.422333324867
20
-1.7159891252976
30
0
41
1
10
196.546116422197
20
-1.79422892334003
30
0
41
1
10
196.867871802384
20
-1.92064504752835
30
0
41
1
10
197.041590933526
20
-1.95257137139635
30
0
41
1
10
197.461582479992
20
-1.95257137139635
30
0
41
1
10
197.662892296668
20
-1.90017945530525
30
0
41
1
10
198.004199295499
20
-1.69224903831884
30
0
41
1
10
198.124780810057
20
-1.54325952693483
30
0
41
1
10
198.196312216997
20
-1.35006433634902
30
0
0
SPLINE
5
1A7
100
AcDbEntity
8
SK1
62
256
6
ByLayer
370
18
48
1
60
0
100
AcDbSpline
70
4
71
3
72
22
73
18
40
0
40
0
40
0
40
0
40
0.040814605597414
40
0.040814605597414
40
0.0823243808206097
40
0.0823243808206097
40
0.113722137960485
40
0.113722137960485
40
0.144934004837361
40
0.144934004837361
40
0.197663645148057
40
0.197663645148057
40
0.330404936221147
40
0.330404936221147
40
0.796191409882143
40
0.796191409882143
40
1
40
1
40
1
40
1
41
1
10
-0.394976888875306
20
-5.00092508226663
30
0
41
1
10
-0.415530107853954
20
-5.01747813555136
30
0
41
1
10
-0.438024560131566
20
-5.03261131985607
30
0
41
1
10
-0.487324802537898
20
-5.05682200266614
30
0
41
1
10
-0.514951385379675
20
-5.06597371583803
30
0
41
1
10
-0.565001076851445
20
-5.07238571210246
30
0
41
1
10
-0.587551462055274
20
-5.07198375916977
30
0
41
1
10
-0.630654498772856
20
-5.06497384681825
30
0
41
1
10
-0.651690830573216
20
-5.05839846240309
30
0
41
1
10
-0.704063404944236
20
-5.03546962035057
30
0
41
1
10
-0.733646054998758
20
-5.01537181535582
30
0
41
1
10
-0.825717517678299
20
-4.93804001611761
30
0
41
1
10
-0.875568215521128
20
-4.86927174197922
30
0
41
1
10
-1.06893868726917
20
-4.55513362670814
30
0
41
1
10
-1.1521386611181
20
-4.27852588598495
30
0
41
1
10
-1.254789054524
20
-3.87761185644103
30
0
41
1
10
-1.28234760083205
20
-3.75339907142154
30
0
41
1
10
-1.3071067811876
20
-3.62781610099955
30
0
0
SPLINE
5
1A8
100
AcDbEntity
8
SK1
62
256
6
ByLayer
370
18
48
1
60
0
100
AcDbSpline
70
4
71
3
72
24
73
20
40
0
40
0
40
0
40
0
40
0.0014544386981347
40
0.0014544386981347
40
0.361956423059349
40
0.361956423059349
40
0.727731599250178
40
0.727731599250178
40
0.782013304695229
40
0.782013304695229
40
0.837002501937548
40
0.837002501937548
40
0.873144196436321
40
0.873144196436321
40
0.90951190964777
40
0.90951190964777
40
0.952113857168661
40
0.952113857168661
40
1
40
1
40
1
40
1
41
1
10
-0.217773520819776
20
13.9477771104646
30
0
41
1
10
-0.217796303830426
20
13.9477385212397
30
0
41
1
10
-0.217819113763028
20
13.9476999169832
30
0
41
1
10
-0.223510113646853
20
13.9380759054838
30
0
41
1
10
-0.230869554015157
20
13.9275300777215
30
0
41
1
10
-0.252993763945824
20
13.9036085654018
30
0
41
1
10
-0.26616930605519
20
13.8900912648143
30
0
41
1
10
-0.299313210098944
20
13.8713678522793
30
0
41
1
10
-0.304168151080034
20
13.8688119846588
30
0
41
1
10
-0.31523361382682
20
13.8635902765912
30
0
41
1
10
-0.321588767727178
20
13.8608655729355
30
0
41
1
10
-0.333434048045547
20
13.8565368608439
30
0
41
1
10
-0.338587345813721
20
13.8548370746726
30
0
41
1
10
-0.349158334685967
20
13.8517865918864
30
0
41
1
10
-0.354704697438706
20
13.8504050227189
30
0
41
1
10
-0.366193697521908
20
13.847969712967
30
0
41
1
10
-0.37221373013341
20
13.8469665678177
30
0
41
1
10
-0.383950527302659
20
13.8454141457693
30
0
41
1
10
-0.389694590782028
20
13.8449066720063
30
0
41
1
10
-0.394976888882184
20
13.8446015176357
30
0
0
SPLINE
5
1A9
100
AcDbEntity
8
1
62
256
6
ByLayer
370
18
48
1
60
0
100
AcDbSpline
70
4
71
3
72
18
73
14
40
0
40
0
40
0
40
0
40
0.204128585976023
40
0.204128585976023
40
0.372805636555768
40
0.372805636555768
40
0.543139219592331
40
0.543139219592331
40
0.712268937494881
40
0.712268937494881
40
0.855913355439513
40
0.855913355439513
40
1
40
1
40
1
40
1
41
1
10
197.915295975444
20
0.0407773111311371
30
0
41
1
10
197.915295975444
20
-0.205901293797638
30
0
41
1
10
197.915295975444
20
-0.452579898726413
30
0
41
1
10
197.915295975444
20
-0.903095802197072
30
0
41
1
10
197.893399281964
20
-1.05969315595809
30
0
41
1
10
197.803911356065
20
-1.27638820434595
30
0
41
1
10
197.727026973821
20
-1.36026942212055
30
0
41
1
10
197.507566955882
20
-1.48349999764344
30
0
41
1
10
197.377788546147
20
-1.51378907413363
30
0
41
1
10
197.101881690804
20
-1.51378907413363
30
0
41
1
10
196.98917724412
20
-1.49319283209491
30
0
41
1
10
196.795318518201
20
-1.40818661826256
30
0
41
1
10
196.720721479534
20
-1.35415745479361
30
0
41
1
10
196.670649494676
20
-1.28866755967977
30
0
0
SPLINE
5
1AA
100
AcDbEntity
8
1
62
256
6
ByLayer
370
18
48
1
60
0
100
AcDbSpline
70
4
71
3
72
14
73
10
40
0
40
0
40
0
40
0
40
0.253128947913729
40
0.253128947913729
40
0.4586840155458
40
0.4586840155458
40
0.727708578900576
40
0.727708578900576
40
1
40
1
40
1
40
1
41
1
10
198.375914192763
20
0.0407773111311371
30
0
41
1
10
198.375914192763
20
-0.190074569145111
30
0
41
1
10
198.375914192763
20
-0.420926449421415
30
0
41
1
10
198.375914192763
20
-0.839243154461087
30
0
41
1
10
198.392264228635
20
-0.973497439444429
30
0
41
1
10
198.463042652638
20
-1.16249892341733
30
0
41
1
10
198.529195779064
20
-1.24446188047796
30
0
41
1
10
198.71425049322
20
-1.35317630211921
30
0
41
1
10
198.830648679436
20
-1.38035320596953
30
0
41
1
10
198.970645149136
20
-1.38035341283796
30
0
0
SPLINE
5
1AB
100
AcDbEntity
8
SK1
62
256
6
ByLayer
370
18
48
1
60
0
100
AcDbSpline
70
4
71
3
72
10
73
6
40
0
40
0
40
0
40
0
40
0.5
40
0.5
40
1
40
1
40
1
40
1
41
1
10
-1.70000000000005
20
2.58372509632829
30
0
41
1
10
-1.83222262461146
20
1.75185504452617
30
0
41
1
10
-1.92871617486685
20
0.88432918103581
30
0
41
1
10
-1.92842303871009
20
-0.888588835775465
30
0
41
1
10
-1.83224326233346
20
-1.75172436897293
30
0
41
1
10
-1.70000000000005
20
-2.5837250319525
30
0
0
SPLINE
5
1AC
100
AcDbEntity
8
1
62
256
6
ByLayer
370
18
48
1
60
0
100
AcDbSpline
70
4
71
3
72
8
73
4
40
0
40
0
40
0
40
0
40
1
40
1
40
1
40
1
41
1
10
196.670649494676
20
-1.28866755967977
30
0
41
1
10
196.619555632575
20
-1.22317766456592
30
0
41
1
10
196.582768051863
20
-1.14213391936255
30
0
41
1
10
196.561308629781
20
-1.04471770038072
30
0
0
SPLINE
5
1AD
100
AcDbEntity
8
1
62
256
6
ByLayer
370
18
48
1
60
0
100
AcDbSpline
70
4
71
3
72
10
73
6
40
0
40
0
40
0
40
0
40
0.339661016949153
40
0.339661016949153
40
1
40
1
40
1
40
1
41
1
10
196.561308629781
20
-1.04471770038072
30
0
41
1
10
196.548024225635
20
-0.989051289533961
30
0
41
1
10
196.541892962182
20
-0.893272317929984
30
0
41
1
10
196.541892962182
20
-0.490782337542839
30
0
41
1
10
196.541892962182
20
-0.225002513205823
30
0
41
1
10
196.541892962182
20
0.0407773111311371
30
0
0
SPLINE
5
1AE
100
AcDbEntity
8
1
62
256
6
ByLayer
370
18
48
1
60
0
100
AcDbSpline
70
4
71
3
72
10
73
6
40
0
40
0
40
0
40
0
40
0.660338983050847
40
0.660338983050847
40
1
40
1
40
1
40
1
41
1
10
196.531425770934
20
0.0407773111311371
30
0
41
1
10
196.531425770934
20
-0.225002513205823
30
0
41
1
10
196.531425770934
20
-0.490782337542839
30
0
41
1
10
196.531425770934
20
-0.893272317929984
30
0
41
1
10
196.537557034386
20
-0.989051289533961
30
0
41
1
10
196.550841438532
20
-1.04471770038072
30
0
0
SPLINE
5
1AF
100
AcDbEntity
8
SK1
62
256
6
ByLayer
370
18
48
1
60
0
100
AcDbSpline
70
4
71
3
72
32
73
28
40
0
40
0
40
0
40
0
40
0.335339404832216
40
0.335339404832216
40
0.429287156787407
40
0.429287156787407
40
0.475677053762747
40
0.475677053762747
40
0.494539743198055
40
0.494539743198055
40
0.513645880086011
40
0.513645880086011
40
0.520504273461391
40
0.520504273461391
40
0.527488218290999
40
0.527488218290999
40
0.533551201014695
40
0.533551201014695
40
0.540998152878596
40
0.540998152878596
40
0.554393631774757
40
0.554393631774757
40
0.598967269657256
40
0.598967269657256
40
0.809317334416101
40
0.809317334416101
40
1
40
1
40
1
40
1
41
1
10
-1.49503997793931
20
2.59465115838304
30
0
41
1
10
-1.51545804662703
20
2.47020327904033
30
0
41
1
10
-1.5371392192427
20
2.34554891087822
30
0
41
1
10
-1.57392592094845
20
2.19043955590803
30
0
41
1
10
-1.58255890853928
20
2.15670217135886
30
0
41
1
10
-1.59805956936566
20
2.10814688396863
30
0
41
1
10
-1.60359902440041
20
2.09231222948608
30
0
41
1
10
-1.61296122457532
20
2.07152520286888
30
0
41
1
10
-1.61586967413155
20
2.06567372444977
30
0
41
1
10
-1.62242426172156
20
2.0548188617305
30
0
41
1
10
-1.62611615645164
20
2.04963161073078
30
0
41
1
10
-1.63217263701881
20
2.04479089552194
30
0
41
1
10
-1.63391092603905
20
2.04372430879368
30
0
41
1
10
-1.63759701012464
20
2.04243943769597
30
0
41
1
10
-1.63960513001734
20
2.04224314885471
30
0
41
1
10
-1.6432714201469
20
2.04303363449088
30
0
41
1
10
-1.64498274878696
20
2.04388024545898
30
0
41
1
10
-1.64846923771176
20
2.04652261877817
30
0
41
1
10
-1.65023197368771
20
2.04850621085967
30
0
41
1
10
-1.65459297944471
20
2.05462030362457
30
0
41
1
10
-1.65687449353447
20
2.05928542847226
30
0
41
1
10
-1.66535432668741
20
2.07982184742576
30
0
41
1
10
-1.66919635898847
20
2.09736547364696
30
0
41
1
10
-1.68800967157858
20
2.1956949844228
30
0
41
1
10
-1.69174657129577
20
2.27904221250543
30
0
41
1
10
-1.69840552504974
20
2.43548746422846
30
0
41
1
10
-1.69970172620594
20
2.50976932903745
30
0
41
1
10
-1.70000000000005
20
2.58372509632824
30
0
0
SPLINE
5
1B0
100
AcDbEntity
8
SK1
62
256
6
ByLayer
370
18
48
1
60
0
100
AcDbSpline
70
4
71
3
72
22
73
18
40
0
40
0
40
0
40
0
40
0.0262442859026606
40
0.0262442859026606
40
0.0530261157854271
40
0.0530261157854271
40
0.0713559655737113
40
0.0713559655737113
40
0.0895874012638569
40
0.0895874012638569
40
0.119482247898455
40
0.119482247898455
40
0.178618886842854
40
0.178618886842854
40
0.388022338076657
40
0.388022338076657
40
1
40
1
40
1
40
1
41
1
10
-0.394976888875306
20
5.0009244140283
30
0
41
1
10
-0.389542958903178
20
4.99654803778401
30
0
41
1
10
-0.383617633691586
20
4.99263335383438
30
0
41
1
10
-0.370682657201087
20
4.98677476419829
30
0
41
1
10
-0.363425194676552
20
4.98483424058901
30
0
41
1
10
-0.350979181144225
20
4.98462903203949
30
0
41
1
10
-0.345738268039327
20
4.98542011278016
30
0
41
1
10
-0.335836240990034
20
4.98861553627461
30
0
41
1
10
-0.33106145671195
20
4.99102841332405
30
0
41
1
10
-0.319537139874114
20
4.99867156993253
30
0
41
1
10
-0.313226756018594
20
5.00478758784658
30
0
41
1
10
-0.29682625826149
20
5.02421063341325
30
0
41
1
10
-0.288455270980194
20
5.03906576138257
30
0
41
1
10
-0.256353055935506
20
5.10678482490908
30
0
41
1
10
-0.244000373145013
20
5.16381228581218
30
0
41
1
10
-0.204596889637344
20
5.38213882730383
30
0
41
1
10
-0.200000000000159
20
5.54465158381686
30
0
41
1
10
-0.200000000000046
20
5.70317614351302
30
0
0
SPLINE
5
1B1
100
AcDbEntity
8
SK1
62
256
6
ByLayer
370
18
48
1
60
0
100
AcDbSpline
70
4
71
3
72
114
73
110
40
0
40
0
40
0
40
0
40
0.00552945018693
40
0.0135533950334387
40
0.0215773398799475
40
0.0296012847264563
40
0.037625229572965
40
0.0456491744194738
40
0.0536731192659826
40
0.0616970641124914
40
0.0697210089590001
40
0.0777449538055089
40
0.0857688986520177
40
0.0937928434985264
40
0.101816788345035
40
0.109840733191544
40
0.117864678038053
40
0.125888622884562
40
0.13391256773107
40
0.141936512577579
40
0.149960457424088
40
0.157984402270597
40
0.166008347117105
40
0.182056236810123
40
0.19810412650314
40
0.214152016196158
40
0.230199905889175
40
0.238223850735684
40
0.246247795582193
40
0.254271740428702
40
0.262295685275211
40
0.278343574968228
40
0.294391464661246
40
0.302415409507754
40
0.310439354354263
40
0.318463299200772
40
0.326487244047281
40
0.334511188893789
40
0.342535133740298
40
0.358583023433316
40
0.366606968279825
40
0.374630913126333
40
0.390678802819351
40
0.406726692512368
40
0.414750637358877
40
0.422774582205386
40
0.438822471898404
40
0.446846416744912
40
0.450858389168167
40
0.454870361591421
40
0.46289430643793
40
0.470918251284438
40
0.486966140977456
40
0.494990085823965
40
0.503014030670474
40
0.511037975516982
40
0.519061920363491
40
0.52708586521
40
0.535109810056509
40
0.543133754903018
40
0.551157699749526
40
0.559181644596035
40
0.567205589442544
40
0.583253479135561
40
0.59127742398207
40
0.599301368828579
40
0.607325313675088
40
0.611337286098342
40
0.615349258521597
40
0.623373203368105
40
0.631397148214614
40
0.639421093061123
40
0.647445037907632
40
0.65546898275414
40
0.663492927600649
40
0.679540817293667
40
0.695588706986684
40
0.703612651833193
40
0.711636596679702
40
0.727684486372719
40
0.735708431219228
40
0.743732376065737
40
0.751756320912246
40
0.759780265758754
40
0.767804210605263
40
0.775828155451772
40
0.783852100298281
40
0.791876045144789
40
0.807923934837807
40
0.815947879684316
40
0.823971824530824
40
0.831995769377333
40
0.840019714223842
40
0.848043659070351
40
0.85606760391686
40
0.872115493609877
40
0.880139438456386
40
0.888163383302895
40
0.896187328149403
40
0.904211272995912
40
0.920259162688929
40
0.936307052381947
40
0.952354942074965
40
0.960378886921474
40
0.968402831767982
40
0.976426776614491
40
0.984450721461
40
0.992474666307509
40
1
40
1
40
1
40
1
41
1
10
-1.70000000000005
20
2.58372509632824
30
0
41
1
10
-1.69999999999999
20
2.62111404232411
30
0
41
1
10
-1.70000000000005
20
2.71257747642744
30
0
41
1
10
-1.70000000000005
20
2.85743846779502
30
0
41
1
10
-1.70000000000005
20
3.01805527431185
30
0
41
1
10
-1.70000000000005
20
3.17766893265434
30
0
41
1
10
-1.70000000000005
20
3.33626943234708
30
0
41
1
10
-1.70000000000005
20
3.49384789900154
30
0
41
1
10
-1.70000000000005
20
3.65039714326571
30
0
41
1
10
-1.70000000000005
20
3.80591077742719
30
0
41
1
10
-1.70000000000005
20
3.96038358832215
30
0
41
1
10
-1.70000000000005
20
4.11381092681609
30
0
41
1
10
-1.70000000000005
20
4.26618872973955
30
0
41
1
10
-1.70000000000005
20
4.41751381174834
30
0
41
1
10
-1.70000000000005
20
4.56778337246482
30
0
41
1
10
-1.70000000000005
20
4.71699468615469
30
0
41
1
10
-1.70000000000005
20
4.86514556778678
30
0
41
1
10
-1.70000000000005
20
5.01223405348071
30
0
41
1
10
-1.70000000000005
20
5.15825857839872
30
0
41
1
10
-1.70000000000005
20
5.30321729486519
30
0
41
1
10
-1.70000000000005
20
5.44710899667649
30
0
41
1
10
-1.70000000000005
20
5.58993216915877
30
0
41
1
10
-1.70000000000005
20
5.77892152059968
30
0
41
1
10
-1.70000000000005
20
6.01251447744062
30
0
41
1
10
-1.70000000000005
20
6.28851700104786
30
0
41
1
10
-1.70000000000005
20
6.56021848903174
30
0
41
1
10
-1.70000000000005
20
6.7830583657493
30
0
41
1
10
-1.70000000000005
20
6.95914717066267
30
0
41
1
10
-1.70000000000005
20
7.09014226669854
30
0
41
1
10
-1.70000000000005
20
7.22005470774224
30
0
41
1
10
-1.70000000000005
20
7.39181445781463
30
0
41
1
10
-1.70000000000005
20
7.60382755625841
30
0
41
1
10
-1.70000000000005
20
7.81221411547432
30
0
41
1
10
-1.70000000000005
20
7.97672002429073
30
0
41
1
10
-1.70000000000005
20
8.09901464495698
30
0
41
1
10
-1.70000000000005
20
8.22021379775833
30
0
41
1
10
-1.70000000000005
20
8.34031606829598
30
0
41
1
10
-1.70000000000005
20
8.45931945344489
30
0
41
1
10
-1.70000000000005
20
8.61651162008161
30
0
41
1
10
-1.70000000000005
20
8.77152766795064
30
0
41
1
10
-1.70000000000005
20
8.92429760284438
30
0
41
1
10
-1.70000000000005
20
9.07558727703645
30
0
41
1
10
-1.70000000000005
20
9.26193698423123
30
0
41
1
10
-1.70000000000005
20
9.44455854729449
30
0
41
1
10
-1.70000000000005
20
9.58839008121356
30
0
41
1
10
-1.70000000000005
20
9.73071862052217
30
0
41
1
10
-1.70000000000005
20
9.87081043657872
30
0
41
1
10
-1.70000000000005
20
9.9913814320609
30
0
41
1
10
-1.70000000000005
20
10.0597065749413
30
0
41
1
10
-1.70000000000005
20
10.1276505623382
30
0
41
1
10
-1.70000000000005
20
10.2118742799614
30
0
41
1
10
-1.70000000000005
20
10.3450861470912
30
0
41
1
10
-1.70000000000005
20
10.476015767914
30
0
41
1
10
-1.70000000000005
20
10.6046008465563
30
0
41
1
10
-1.70000000000005
20
10.6998796425436
30
0
41
1
10
-1.70000000000005
20
10.7939888359848
30
0
41
1
10
-1.70000000000005
20
10.8869237783616
30
0
41
1
10
-1.70000000000005
20
10.9786794422307
30
0
41
1
10
-1.70000000000005
20
11.0692509372408
30
0
41
1
10
-1.70000000000005
20
11.1586337603462
30
0
41
1
10
-1.70000000000005
20
11.2468221792499
30
0
41
1
10
-1.70000000000005
20
11.3338110499831
30
0
41
1
10
-1.70000000000005
20
11.448182891669
30
0
41
1
10
-1.70000000000005
20
11.5601529159528
30
0
41
1
10
-1.70000000000005
20
11.6696587742526
30
0
41
1
10
-1.70000000000005
20
11.7505641289662
30
0
41
1
10
-1.70000000000005
20
11.8169591426362
30
0
41
1
10
-1.70000000000005
20
11.8694488081268
30
0
41
1
10
-1.70000000000005
20
11.9215236068654
30
0
41
1
10
-1.70000000000005
20
11.9858436758677
30
0
41
1
10
-1.70000000000005
20
12.0617686582407
30
0
41
1
10
-1.70000000000005
20
12.1364316894724
30
0
41
1
10
-1.70000000000005
20
12.209824815618
30
0
41
1
10
-1.70000000000005
20
12.2819406900945
30
0
41
1
10
-1.70000000000005
20
12.3763763558488
30
0
41
1
10
-1.70000000000005
20
12.4912006491746
30
0
41
1
10
-1.70000000000005
20
12.6016598943421
30
0
41
1
10
-1.70000000000005
20
12.6873624197502
30
0
41
1
10
-1.70000000000005
20
12.7712834714132
30
0
41
1
10
-1.70000000000005
20
12.8525264142954
30
0
41
1
10
-1.70000000000005
20
12.9310230723471
30
0
41
1
10
-1.70000000000005
20
12.9885220902628
30
0
41
1
10
-1.70000000000005
20
13.0446338149516
30
0
41
1
10
-1.70000000000005
20
13.099347414251
30
0
41
1
10
-1.70000000000005
20
13.1526505121852
30
0
41
1
10
-1.70000000000005
20
13.2045321061977
30
0
41
1
10
-1.70000000000005
20
13.254979960848
30
0
41
1
10
-1.70000000000005
20
13.3203101073726
30
0
41
1
10
-1.70000000000005
20
13.3827344162837
30
0
41
1
10
-1.70000000000005
20
13.4421723218484
30
0
41
1
10
-1.70000000000005
20
13.485252935173
30
0
41
1
10
-1.70000000000005
20
13.5268172028035
30
0
41
1
10
-1.70000000000005
20
13.5668499361124
30
0
41
1
10
-1.70000000000005
20
13.6053355893185
30
0
41
1
10
-1.70000000000005
20
13.6545611373555
30
0
41
1
10
-1.70000000000005
20
13.7006353174901
30
0
41
1
10
-1.70000000000005
20
13.7434660879002
30
0
41
1
10
-1.70000000000005
20
13.773955994413
30
0
41
1
10
-1.70000000000005
20
13.8027899045868
30
0
41
1
10
-1.70000000000005
20
13.838998019961
30
0
41
1
10
-1.70000000000005
20
13.8800204120324
30
0
41
1
10
-1.70000000000005
20
13.9222750232465
30
0
41
1
10
-1.70000000000005
20
13.9515178138587
30
0
41
1
10
-1.70000000000005
20
13.9712195253815
30
0
41
1
10
-1.70000000000005
20
13.9841239086368
30
0
41
1
10
-1.70000000000005
20
13.9951252442004
30
0
41
1
10
-1.70000000000005
20
14.0041925984504
30
0
41
1
10
-1.70000000000005
20
14.0111457478344
30
0
41
1
10
-1.70000000000005
20
14.0144803195397
30
0
41
1
10
-1.70000000000005
20
14.0157960961925
30
0
0
SPLINE
5
1B2
100
AcDbEntity
8
1
62
256
6
ByLayer
370
18
48
1
60
0
100
AcDbSpline
70
4
71
3
72
18
73
14
40
0
40
0
40
0
40
0
40
0.142798120979958
40
0.142798120979958
40
0.28590124947516
40
0.28590124947516
40
0.440144142464
40
0.440144142464
40
0.594387035452839
40
0.594387035452839
40
0.747973647187342
40
0.747973647187342
40
1
40
1
40
1
40
1
41
1
10
198.196312216997
20
-1.35006433634902
30
0
41
1
10
198.288281168778
20
-1.49987247142189
30
0
41
1
10
198.410206906258
20
-1.61136406994007
30
0
41
1
10
198.712360224212
20
-1.76019480449941
30
0
41
1
10
198.872794951208
20
-1.79703287050097
30
0
41
1
10
199.227386354186
20
-1.79703287050097
30
0
41
1
10
199.403149239811
20
-1.75528306236589
30
0
41
1
10
199.738324975191
20
-1.58828382982563
30
0
41
1
10
199.862649043705
20
-1.47266890765519
30
0
41
1
10
200.024450602954
20
-1.17733473798626
30
0
41
1
10
200.065325692634
20
-0.980865052644731
30
0
41
1
10
200.065325692634
20
-0.336608209462327
30
0
41
1
10
200.065325692634
20
0.0636987744210273
30
0
41
1
10
200.065325692634
20
0.464005758304381
30
0
0
SPLINE
5
1B3
100
AcDbEntity
8
SK1
62
256
6
ByLayer
370
18
48
1
60
0
100
AcDbSpline
70
4
71
3
72
287
73
283
40
0
40
0
40
0
40
0
40
0.0011263688581848
40
0.0046149913339894
40
0.008103613809794
40
0.0115922362855986
40
0.0150808587614033
40
0.0185694812372079
40
0.0220581037130125
40
0.0255467261888171
40
0.0290353486646217
40
0.0325239711404263
40
0.0360125936162309
40
0.0395012160920355
40
0.0429898385678401
40
0.0464784610436447
40
0.0534557059952539
40
0.0569443284710585
40
0.0604329509468631
40
0.0639215734226677
40
0.0674101958984723
40
0.0743874408500815
40
0.0778760633258861
40
0.0813646858016907
40
0.0848533082774953
40
0.0883419307532999
40
0.0918305532291045
40
0.0953191757049092
40
0.102296420656518
40
0.105785043132323
40
0.109273665608128
40
0.112762288083932
40
0.116250910559737
40
0.119739533035541
40
0.123228155511346
40
0.126716777987151
40
0.130205400462955
40
0.137182645414564
40
0.140671267890369
40
0.144159890366174
40
0.151137135317783
40
0.158114380269392
40
0.161603002745197
40
0.165091625221001
40
0.168580247696806
40
0.17206887017261
40
0.175557492648415
40
0.17904611512422
40
0.180790426362122
40
0.182534737600024
40
0.186023360075829
40
0.189511982551633
40
0.193000605027438
40
0.199977849979047
40
0.203466472454852
40
0.206955094930656
40
0.210443717406461
40
0.213932339882266
40
0.21742096235807
40
0.220909584833875
40
0.224398207309679
40
0.227886829785484
40
0.231375452261289
40
0.234864074737093
40
0.241841319688702
40
0.245329942164507
40
0.248818564640312
40
0.250562875878214
40
0.252307187116116
40
0.255795809591921
40
0.26277305454353
40
0.266261677019335
40
0.269750299495139
40
0.276727544446749
40
0.283704789398358
40
0.287193411874162
40
0.290682034349967
40
0.297659279301576
40
0.301147901777381
40
0.304636524253185
40
0.30812514672899
40
0.311613769204795
40
0.315102391680599
40
0.318591014156404
40
0.325568259108013
40
0.332545504059622
40
0.336034126535427
40
0.339522749011231
40
0.343011371487036
40
0.34649999396284
40
0.35347723891445
40
0.360454483866059
40
0.367431728817668
40
0.374408973769277
40
0.377897596245082
40
0.381386218720887
40
0.384874841196691
40
0.388363463672496
40
0.3918520861483
40
0.395340708624105
40
0.39882933109991
40
0.402317953575714
40
0.405806576051519
40
0.409295198527323
40
0.412783821003128
40
0.416272443478933
40
0.419761065954737
40
0.423249688430542
40
0.426738310906347
40
0.430226933382151
40
0.433715555857956
40
0.43720417833376
40
0.440692800809565
40
0.44418142328537
40
0.447670045761174
40
0.449414356999076
40
0.451158668236979
40
0.454647290712783
40
0.456391601950686
40
0.458135913188588
40
0.45988022442649
40
0.461624535664392
40
0.463368846902295
40
0.465113158140197
40
0.4668574693781
40
0.468601780616002
40
0.472090403091806
40
0.473834714329709
40
0.475579025567611
40
0.477323336805513
40
0.479067648043416
40
0.480811959281318
40
0.48255627051922
40
0.484300581757122
40
0.486044892995025
40
0.487789204232927
40
0.489533515470829
40
0.491277826708732
40
0.493022137946634
40
0.494766449184536
40
0.496510760422439
40
0.498255071660341
40
0.499999382898243
40
0.501743694136146
40
0.503488005374048
40
0.50523231661195
40
0.506976627849852
40
0.508720939087755
40
0.510465250325657
40
0.512209561563559
40
0.513953872801461
40
0.515698184039364
40
0.517442495277266
40
0.519186806515168
40
0.520931117753071
40
0.522675428990973
40
0.524419740228875
40
0.526164051466778
40
0.52790836270468
40
0.531396985180485
40
0.533141296418387
40
0.534885607656289
40
0.536629918894192
40
0.538374230132094
40
0.540118541369996
40
0.541862852607898
40
0.543607163845801
40
0.545351475083703
40
0.548840097559508
40
0.55058440879741
40
0.552328720035312
40
0.555817342511117
40
0.559305964986921
40
0.562794587462726
40
0.56628320993853
40
0.569771832414335
40
0.57326045489014
40
0.576749077365945
40
0.580237699841749
40
0.583726322317554
40
0.587214944793358
40
0.590703567269163
40
0.594192189744967
40
0.597680812220772
40
0.601169434696577
40
0.604658057172381
40
0.608146679648186
40
0.61163530212399
40
0.615123924599795
40
0.6186125470756
40
0.622101169551404
40
0.625589792027209
40
0.632567036978818
40
0.639544281930427
40
0.646521526882036
40
0.653498771833646
40
0.65698739430945
40
0.660476016785255
40
0.663964639261059
40
0.667453261736864
40
0.674430506688473
40
0.681407751640082
40
0.684896374115887
40
0.688384996591692
40
0.691873619067496
40
0.695362241543301
40
0.698850864019106
40
0.70233948649491
40
0.709316731446519
40
0.712805353922324
40
0.716293976398128
40
0.723271221349738
40
0.730248466301347
40
0.733737088777151
40
0.737225711252956
40
0.744202956204565
40
0.74769157868037
40
0.749435889918272
40
0.751180201156175
40
0.754668823631979
40
0.758157446107784
40
0.765134691059393
40
0.768623313535197
40
0.772111936011002
40
0.775600558486807
40
0.779089180962611
40
0.782577803438416
40
0.786066425914221
40
0.789555048390025
40
0.79304367086583
40
0.796532293341634
40
0.800020915817439
40
0.806998160769048
40
0.810486783244853
40
0.813975405720658
40
0.817464028196462
40
0.819208339434364
40
0.820952650672267
40
0.824441273148071
40
0.827929895623876
40
0.83141851809968
40
0.834907140575485
40
0.838395763051289
40
0.841884385527094
40
0.848861630478703
40
0.855838875430313
40
0.859327497906117
40
0.862816120381922
40
0.869793365333531
40
0.873281987809336
40
0.87677061028514
40
0.880259232760945
40
0.883747855236749
40
0.887236477712554
40
0.890725100188359
40
0.894213722664163
40
0.897702345139968
40
0.904679590091577
40
0.908168212567382
40
0.911656835043186
40
0.915145457518991
40
0.918634079994795
40
0.9221227024706
40
0.925611324946405
40
0.932588569898014
40
0.936077192373819
40
0.939565814849623
40
0.943054437325428
40
0.946543059801232
40
0.953520304752842
40
0.960497549704451
40
0.96747479465606
40
0.970963417131864
40
0.974452039607669
40
0.977940662083474
40
0.981429284559278
40
0.984917907035083
40
0.988406529510888
40
0.991895151986692
40
0.995383774462497
40
0.998872396938301
40
1
40
1
40
1
40
1
41
1
10
-22.4999999999999
20
-13.4956568853069
30
0
41
1
10
-22.4999999999999
20
-13.4959565531726
30
0
41
1
10
-22.5
20
-13.497036119822
30
0
41
1
10
-22.5
20
-13.497871542388
30
0
41
1
10
-22.5
20
-13.4969168014739
30
0
41
1
10
-22.5
20
-13.4939634903146
30
0
41
1
10
-22.5
20
-13.4890446841776
30
0
41
1
10
-22.5
20
-13.4821927509398
30
0
41
1
10
-22.5
20
-13.4734380181859
30
0
41
1
10
-22.5
20
-13.4628103286331
30
0
41
1
10
-22.5
20
-13.4503375548198
30
0
41
1
10
-22.5
20
-13.4360470510206
30
0
41
1
10
-22.5
20
-13.4199649415155
30
0
41
1
10
-22.5
20
-13.4021158939437
30
0
41
1
10
-22.5
20
-13.3825245595672
30
0
41
1
10
-22.5
20
-13.3540536969874
30
0
41
1
10
-22.5
20
-13.3223661764574
30
0
41
1
10
-22.5
20
-13.2871835921006
30
0
41
1
10
-22.5
20
-13.2592105165633
30
0
41
1
10
-22.5
20
-13.2296213845592
30
0
41
1
10
-22.5
20
-13.187963912528
30
0
41
1
10
-22.5
20
-13.1433841410289
30
0
41
1
10
-22.5
20
-13.0954724456838
30
0
41
1
10
-22.5
20
-13.0580721081213
30
0
41
1
10
-22.5
20
-13.0191589652135
30
0
41
1
10
-22.5
20
-12.9787481114295
30
0
41
1
10
-22.5
20
-12.9368537080861
30
0
41
1
10
-22.5
20
-12.8789380178894
30
0
41
1
10
-22.5
20
-12.8184132466048
30
0
41
1
10
-22.5
20
-12.7547247990428
30
0
41
1
10
-22.5
20
-12.7056201424592
30
0
41
1
10
-22.5
20
-12.6551113940765
30
0
41
1
10
-22.5
20
-12.6032111946844
30
0
41
1
10
-22.5
20
-12.5499298292215
30
0
41
1
10
-22.5
20
-12.4952790541085
30
0
41
1
10
-22.5
20
-12.4392702870471
30
0
41
1
10
-22.5
20
-12.3626709807027
30
0
41
1
10
-22.5
20
-12.2837700876339
30
0
41
1
10
-22.5
20
-12.2018541939414
30
0
41
1
10
-22.5
20
-12.1181901818312
30
0
41
1
10
-22.5
20
-12.0106580919609
30
0
41
1
10
-22.5
20
-11.8988608066556
30
0
41
1
10
-22.5
20
-11.8066391033682
30
0
41
1
10
-22.5
20
-11.7363216229303
30
0
41
1
10
-22.5
20
-11.664755015164
30
0
41
1
10
-22.5
20
-11.5919461625788
30
0
41
1
10
-22.5
20
-11.5179033535968
30
0
41
1
10
-22.5
20
-11.4552554448703
30
0
41
1
10
-22.5
20
-11.4043881128182
30
0
41
1
10
-22.5
20
-11.3531143441571
30
0
41
1
10
-22.5
20
-11.2884404756242
30
0
41
1
10
-22.5
20
-11.2095312195267
30
0
41
1
10
-22.5
20
-11.1025558384385
30
0
41
1
10
-22.5
20
-10.9936883968036
30
0
41
1
10
-22.5
20
-10.881957410682
30
0
41
1
10
-22.5
20
-10.7971107724731
30
0
41
1
10
-22.5
20
-10.7110950034658
30
0
41
1
10
-22.5
20
-10.6239149629423
30
0
41
1
10
-22.5
20
-10.5355769962349
30
0
41
1
10
-22.5
20
-10.4460865401309
30
0
41
1
10
-22.5
20
-10.3554481360506
30
0
41
1
10
-22.5
20
-10.2636671117607
30
0
41
1
10
-22.5
20
-10.1707494782419
30
0
41
1
10
-22.5
20
-10.0451570606616
30
0
41
1
10
-22.5
20
-9.91789360326425
30
0
41
1
10
-22.5
20
-9.7878008492857
30
0
41
1
10
-22.5
20
-9.70579080403837
30
0
41
1
10
-22.5
20
-9.63944491324963
30
0
41
1
10
-22.5
20
-9.57273013875857
30
0
41
1
10
-22.5
20
-9.45508835059121
30
0
41
1
10
-22.5
20
-9.31898451102211
30
0
41
1
10
-22.5
20
-9.1800498446504
30
0
41
1
10
-22.5
20
-9.0396637144479
30
0
41
1
10
-22.5
20
-8.86197299364807
30
0
41
1
10
-22.5
20
-8.68069429599308
30
0
41
1
10
-22.5
20
-8.53310893988203
30
0
41
1
10
-22.5
20
-8.38410356414289
30
0
41
1
10
-22.5
20
-8.23370694014301
30
0
41
1
10
-22.5
20
-8.08045169790756
30
0
41
1
10
-22.5
20
-7.96465013686168
30
0
41
1
10
-22.5
20
-7.84779994085653
30
0
41
1
10
-22.5
20
-7.72990620240671
30
0
41
1
10
-22.5
20
-7.61097087712017
30
0
41
1
10
-22.5
20
-7.45073654783437
30
0
41
1
10
-22.5
20
-7.24848505302424
30
0
41
1
10
-22.5
20
-7.04280522024891
30
0
41
1
10
-22.5
20
-6.87569116366484
30
0
41
1
10
-22.5
20
-6.74956631857702
30
0
41
1
10
-22.5
20
-6.62242825981917
30
0
41
1
10
-22.5
20
-6.45125557139397
30
0
41
1
10
-22.5
20
-6.23550104742759
30
0
41
1
10
-22.5
20
-5.97220551419213
30
0
41
1
10
-22.5
20
-5.7049565533743
30
0
41
1
10
-22.5
20
-5.47933703089228
30
0
41
1
10
-22.5
20
-5.29623478947155
30
0
41
1
10
-22.5
20
-5.15823571506775
30
0
41
1
10
-22.5
20
-5.01927991936702
30
0
41
1
10
-22.5
20
-4.87937424460148
30
0
41
1
10
-22.5
20
-4.73852585442467
30
0
41
1
10
-22.5
20
-4.59674271442691
30
0
41
1
10
-22.5
20
-4.45403251641869
30
0
41
1
10
-22.5
20
-4.31040320562681
30
0
41
1
10
-22.5
20
-4.16586499181517
30
0
41
1
10
-22.5
20
-4.0204295025855
30
0
41
1
10
-22.5
20
-3.87410940415094
30
0
41
1
10
-22.5
20
-3.72691655621918
30
0
41
1
10
-22.5
20
-3.57886234252629
30
0
41
1
10
-22.5
20
-3.42996282061051
30
0
41
1
10
-22.5
20
-3.2802363758513
30
0
41
1
10
-22.5
20
-3.12970236953146
30
0
41
1
10
-22.5
20
-2.9783800820847
30
0
41
1
10
-22.5
20
-2.82629223006825
30
0
41
1
10
-22.5
20
-2.67346522993279
30
0
41
1
10
-22.5
20
-2.5199255233116
30
0
41
1
10
-22.5
20
-2.39172837491469
30
0
41
1
10
-22.5
20
-2.28823685042073
30
0
41
1
10
-22.5
20
-2.18454583019769
30
0
41
1
10
-22.5
20
-2.08161605220533
30
0
41
1
10
-22.5
20
-1.97729736527975
30
0
41
1
10
-22.5
20
-1.8992068709004
30
0
41
1
10
-22.5
20
-1.82098461234608
30
0
41
1
10
-22.5
20
-1.74263820265685
30
0
41
1
10
-22.5
20
-1.66417088377818
30
0
41
1
10
-22.5
20
-1.58559131690834
30
0
41
1
10
-22.5
20
-1.50690430877853
30
0
41
1
10
-22.5
20
-1.40144071039384
30
0
41
1
10
-22.5
20
-1.29707565327635
30
0
41
1
10
-22.5
20
-1.19121866112903
30
0
41
1
10
-22.5
20
-1.11209555133371
30
0
41
1
10
-22.5
20
-1.03290641330761
30
0
41
1
10
-22.5
20
-0.953656082911948
30
0
41
1
10
-22.5
20
-0.874352236673587
30
0
41
1
10
-22.5
20
-0.795000235128668
30
0
41
1
10
-22.5
20
-0.715606595157226
30
0
41
1
10
-22.5
20
-0.636176672544991
30
0
41
1
10
-22.5
20
-0.556716044364009
30
0
41
1
10
-22.5
20
-0.477229377934975
30
0
41
1
10
-22.5
20
-0.397721596430074
30
0
41
1
10
-22.5
20
-0.318196574925025
30
0
41
1
10
-22.5
20
-0.238658616598514
30
0
41
1
10
-22.5
20
-0.159110863620981
30
0
41
1
10
-22.5
20
-0.0795570195282949
30
0
41
1
10
-22.5
20
-4.3520458E-09
30
0
41
1
10
-22.5
20
0.0795570008676236
30
0
41
1
10
-22.5
20
0.159110826532412
30
0
41
1
10
-22.5
20
0.238658582119854
30
0
41
1
10
-22.5
20
0.318196568076189
30
0
41
1
10
-22.5
20
0.397721593521055
30
0
41
1
10
-22.5
20
0.477229338262987
30
0
41
1
10
-22.5
20
0.556715993884097
30
0
41
1
10
-22.5
20
0.636176666807899
30
0
41
1
10
-22.5
20
0.715606608921348
30
0
41
1
10
-22.5
20
0.795000198505306
30
0
41
1
10
-22.5
20
0.874352168955852
30
0
41
1
10
-22.5
20
0.95365606681014
30
0
41
1
10
-22.5
20
1.03290644237791
30
0
41
1
10
-22.5
20
1.11209553564783
30
0
41
1
10
-22.5
20
1.1912185842138
30
0
41
1
10
-22.5
20
1.29707563275719
30
0
41
1
10
-22.5
20
1.40144074045128
30
0
41
1
10
-22.5
20
1.50690426712367
30
0
41
1
10
-22.5
20
1.58559123041414
30
0
41
1
10
-22.5
20
1.66417084854152
30
0
41
1
10
-22.5
20
1.74263823347059
30
0
41
1
10
-22.5
20
1.82098464012654
30
0
41
1
10
-22.5
20
1.89920682890118
30
0
41
1
10
-22.5
20
1.97729727415896
30
0
41
1
10
-22.5
20
2.08161602870018
30
0
41
1
10
-22.5
20
2.18454587114542
30
0
41
1
10
-22.5
20
2.28823684006233
30
0
41
1
10
-22.5
20
2.39172828921562
30
0
41
1
10
-22.5
20
2.51992549648594
30
0
41
1
10
-22.5
20
2.67346525953189
30
0
41
1
10
-22.5
20
2.8262921676581
30
0
41
1
10
-22.5
20
2.97838003358396
30
0
41
1
10
-22.5
20
3.12970257053468
30
0
41
1
10
-22.5
20
3.28023687778403
30
0
41
1
10
-22.5
20
3.4299627769704
30
0
41
1
10
-22.5
20
3.57886126909131
30
0
41
1
10
-22.5
20
3.72691565105669
30
0
41
1
10
-22.5
20
3.87410976932693
30
0
41
1
10
-22.5
20
4.02043049501106
30
0
41
1
10
-22.5
20
4.16586580001649
30
0
41
1
10
-22.5
20
4.31040309161114
30
0
41
1
10
-22.5
20
4.45403157575561
30
0
41
1
10
-22.5
20
4.59674211262632
30
0
41
1
10
-22.5
20
4.73852599905979
30
0
41
1
10
-22.5
20
4.87937450907225
30
0
41
1
10
-22.5
20
5.01927995326395
30
0
41
1
10
-22.5
20
5.15823567759486
30
0
41
1
10
-22.5
20
5.29623480232567
30
0
41
1
10
-22.5
20
5.47933703035869
30
0
41
1
10
-22.5
20
5.70495651005672
30
0
41
1
10
-22.5
20
5.97220551217549
30
0
41
1
10
-22.5
20
6.23550102644134
30
0
41
1
10
-22.5
20
6.4512555331213
30
0
41
1
10
-22.5
20
6.62242827644155
30
0
41
1
10
-22.5
20
6.74956632065386
30
0
41
1
10
-22.5
20
6.87569112826714
30
0
41
1
10
-22.5
20
7.04280518235294
30
0
41
1
10
-22.5
20
7.24848505186407
30
0
41
1
10
-22.5
20
7.45073654157579
30
0
41
1
10
-22.5
20
7.61097083499584
30
0
41
1
10
-22.5
20
7.72990617143802
30
0
41
1
10
-22.5
20
7.84779993569691
30
0
41
1
10
-22.5
20
7.96465014223952
30
0
41
1
10
-22.5
20
8.08045168982596
30
0
41
1
10
-22.5
20
8.23370690743872
30
0
41
1
10
-22.5
20
8.38410353449399
30
0
41
1
10
-22.5
20
8.53310893756458
30
0
41
1
10
-22.5
20
8.68069429175796
30
0
41
1
10
-22.5
20
8.86197296792949
30
0
41
1
10
-22.5
20
9.03966368952018
30
0
41
1
10
-22.5
20
9.18004983919923
30
0
41
1
10
-22.5
20
9.3189845035638
30
0
41
1
10
-22.5
20
9.4550883278169
30
0
41
1
10
-22.5
20
9.57273011219269
30
0
41
1
10
-22.5
20
9.63944489130404
30
0
41
1
10
-22.5
20
9.70579078784203
30
0
41
1
10
-22.5
20
9.78780083934151
30
0
41
1
10
-22.5
20
9.9178935930201
30
0
41
1
10
-22.5
20
10.0451570413025
30
0
41
1
10
-22.5
20
10.1707494549495
30
0
41
1
10
-22.5
20
10.2636670923514
30
0
41
1
10
-22.5
20
10.3554481215356
30
0
41
1
10
-22.5
20
10.4460865275718
30
0
41
1
10
-22.5
20
10.5355769819029
30
0
41
1
10
-22.5
20
10.6239149454149
30
0
41
1
10
-22.5
20
10.7110949831286
30
0
41
1
10
-22.5
20
10.7971107518715
30
0
41
1
10
-22.5
20
10.881957392112
30
0
41
1
10
-22.5
20
10.9936883814228
30
0
41
1
10
-22.5
20
11.1025558247745
30
0
41
1
10
-22.5
20
11.2095312020912
30
0
41
1
10
-22.5
20
11.2884404549429
30
0
41
1
10
-22.5
20
11.3531143221948
30
0
41
1
10
-22.5
20
11.4043880916923
30
0
41
1
10
-22.5
20
11.4552554262223
30
0
41
1
10
-22.5
20
11.5179033392113
30
0
41
1
10
-22.5
20
11.59194615036
30
0
41
1
10
-22.5
20
11.6647550005754
30
0
41
1
10
-22.5
20
11.7363216027856
30
0
41
1
10
-22.5
20
11.8066390784571
30
0
41
1
10
-22.5
20
11.8988607853738
30
0
41
1
10
-22.5
20
12.0106580823312
30
0
41
1
10
-22.5
20
12.1181901660327
30
0
41
1
10
-22.5
20
12.201854166622
30
0
41
1
10
-22.5
20
12.2837700633604
30
0
41
1
10
-22.5
20
12.3626709718699
30
0
41
1
10
-22.5
20
12.4392702770472
30
0
41
1
10
-22.5
20
12.4952790326449
30
0
41
1
10
-22.5
20
12.5499297998313
30
0
41
1
10
-22.5
20
12.6032111684974
30
0
41
1
10
-22.5
20
12.6551113810006
30
0
41
1
10
-22.5
20
12.7056201369325
30
0
41
1
10
-22.5
20
12.7547247883429
30
0
41
1
10
-22.5
20
12.8184132188766
30
0
41
1
10
-22.5
20
12.8789379874313
30
0
41
1
10
-22.5
20
12.9368537004399
30
0
41
1
10
-22.5
20
12.9787481075024
30
0
41
1
10
-22.5
20
13.0191589474766
30
0
41
1
10
-22.5
20
13.0580720783436
30
0
41
1
10
-22.5
20
13.0954724183384
30
0
41
1
10
-22.5
20
13.1433841284414
30
0
41
1
10
-22.5
20
13.1879639126743
30
0
41
1
10
-22.5
20
13.2296213566399
30
0
41
1
10
-22.5
20
13.2592104836088
30
0
41
1
10
-22.5
20
13.2871835761246
30
0
41
1
10
-22.5
20
13.3223661774289
30
0
41
1
10
-22.5
20
13.3620642251226
30
0
41
1
10
-22.5
20
13.402990048048
30
0
41
1
10
-22.5
20
13.4312436783152
30
0
41
1
10
-22.5
20
13.4503375493538
30
0
41
1
10
-22.5
20
13.4628104278487
30
0
41
1
10
-22.5
20
13.4734382711797
30
0
41
1
10
-22.5
20
13.4821928739338
30
0
41
1
10
-22.5
20
13.4890441905268
30
0
41
1
10
-22.5
20
13.4939625245411
30
0
41
1
10
-22.5
20
13.4969161903089
30
0
41
1
10
-22.5
20
13.4978716184631
30
0
41
1
10
-22.5
20
13.4970363201319
30
0
41
1
10
-22.5
20
13.4959563502974
30
0
41
1
10
-22.5
20
13.4956562814244
30
0
0
SPLINE
5
1B4
100
AcDbEntity
8
1
62
256
6
ByLayer
370
18
48
1
60
0
100
AcDbSpline
70
4
71
3
72
16
73
12
40
0
40
0
40
0
40
0
40
0.339543779278449
40
0.339543779278449
40
0.546464119206829
40
0.546464119206829
40
0.754268637376413
40
0.754268637376413
40
0.962073155545998
40
0.962073155545998
40
1
40
1
40
1
40
1
41
1
10
200.054858501385
20
0.464005758304381
30
0
41
1
10
200.054858501385
20
0.0636987744210273
30
0
41
1
10
200.054858501385
20
-0.336608209462327
30
0
41
1
10
200.054858501385
20
-0.980865052644731
30
0
41
1
10
200.013983411705
20
-1.17733473798626
30
0
41
1
10
199.852181852456
20
-1.47266890765519
30
0
41
1
10
199.727857783942
20
-1.58828382982563
30
0
41
1
10
199.392682048563
20
-1.75528306236589
30
0
41
1
10
199.216919162937
20
-1.79703287050097
30
0
41
1
10
198.999410361499
20
-1.79703287050097
30
0
41
1
10
198.96623491605
20
-1.79560728805575
30
0
41
1
10
198.9334471437
20
-1.79274989116328
30
0
0
SPLINE
5
1B5
100
AcDbEntity
8
1
62
256
6
ByLayer
370
18
48
1
60
0
100
AcDbSpline
70
4
71
3
72
8
73
4
40
0
40
0
40
0
40
0
40
1
40
1
40
1
40
1
41
1
10
198.386381384011
20
0.0407773111311371
30
0
41
1
10
198.789001017363
20
0.0407773111311371
30
0
41
1
10
199.191620650715
20
0.0407773111311371
30
0
41
1
10
199.594240284067
20
0.0407773111311371
30
0
0
SPLINE
5
1B6
100
AcDbEntity
8
1
62
256
6
ByLayer
370
18
48
1
60
0
100
AcDbSpline
70
4
71
3
72
8
73
4
40
0
40
0
40
0
40
0
40
1
40
1
40
1
40
1
41
1
10
196.550841438532
20
-1.04471770038072
30
0
41
1
10
196.572300860614
20
-1.14213391936255
30
0
41
1
10
196.609088441327
20
-1.22317766456592
30
0
41
1
10
196.660182303427
20
-1.28866755967977
30
0
0
SPLINE
5
1B7
100
AcDbEntity
8
SK1
62
256
6
ByLayer
370
18
48
1
60
0
100
AcDbSpline
70
4
71
3
72
100
73
96
40
0
40
0
40
0
40
0
40
0.0012807126879718
40
0.0105736188801102
40
0.0198665250722485
40
0.0291594312643868
40
0.0384523374565251
40
0.0477452436486634
40
0.0570381498408017
40
0.06633105603294
40
0.0756239622250783
40
0.0849168684172166
40
0.103502680801493
40
0.112795586993632
40
0.12208849318577
40
0.131381399377908
40
0.140674305570046
40
0.159260117954323
40
0.168553024146461
40
0.1778459303386
40
0.187138836530738
40
0.196431742722876
40
0.205724648915014
40
0.215017555107153
40
0.233603367491429
40
0.242896273683568
40
0.252189179875706
40
0.261482086067844
40
0.270774992259983
40
0.280067898452121
40
0.289360804644259
40
0.298653710836398
40
0.307946617028536
40
0.326532429412813
40
0.335825335604951
40
0.345118241797089
40
0.363704054181366
40
0.382289866565642
40
0.391582772757781
40
0.400875678949919
40
0.410168585142057
40
0.419461491334196
40
0.428754397526334
40
0.438047303718472
40
0.442693756814541
40
0.44734020991061
40
0.456633116102749
40
0.465926022294887
40
0.475218928487025
40
0.493804740871302
40
0.50309764706344
40
0.512390553255579
40
0.521683459447717
40
0.530976365639855
40
0.540269271831993
40
0.549562178024132
40
0.55885508421627
40
0.568147990408408
40
0.577440896600547
40
0.586733802792685
40
0.605319615176962
40
0.6146125213691
40
0.623905427561238
40
0.628551880657307
40
0.633198333753377
40
0.642491239945515
40
0.661077052329791
40
0.67036995852193
40
0.679662864714068
40
0.698248677098345
40
0.716834489482621
40
0.726127395674759
40
0.735420301866898
40
0.754006114251174
40
0.763299020443313
40
0.772591926635451
40
0.781884832827589
40
0.791177739019728
40
0.800470645211866
40
0.809763551404004
40
0.828349363788281
40
0.846935176172557
40
0.856228082364696
40
0.865520988556834
40
0.874813894748972
40
0.884106800941111
40
0.902692613325387
40
0.921278425709664
40
0.93986423809394
40
0.958450050478217
40
0.967742956670355
40
0.977035862862494
40
0.986328769054632
40
0.99562167524677
40
1
40
1
40
1
40
1
41
1
10
-0.394976888875306
20
-13.8446019297681
30
0
41
1
10
-0.394976888875306
20
-13.8443373794894
30
0
41
1
10
-0.394976888875249
20
-13.8421014019358
30
0
41
1
10
-0.394976888875306
20
-13.8370980881852
30
0
41
1
10
-0.394976888875306
20
-13.8281307581185
30
0
41
1
10
-0.394976888875306
20
-13.8172491473121
30
0
41
1
10
-0.394976888875306
20
-13.8044829828858
30
0
41
1
10
-0.394976888875306
20
-13.7898613788954
30
0
41
1
10
-0.394976888875306
20
-13.7734119916163
30
0
41
1
10
-0.394976888875306
20
-13.7551609910391
30
0
41
1
10
-0.394976888875306
20
-13.7351343539634
30
0
41
1
10
-0.394976888875306
20
-13.706079968468
30
0
41
1
10
-0.394976888875306
20
-13.6736219491958
30
0
41
1
10
-0.394976888875306
20
-13.6377421279937
30
0
41
1
10
-0.394976888875306
20
-13.6091837809886
30
0
41
1
10
-0.394976888875306
20
-13.5789822078612
30
0
41
1
10
-0.394976888875306
20
-13.5365270011545
30
0
41
1
10
-0.394976888875306
20
-13.490931201485
30
0
41
1
10
-0.394976888875306
20
-13.442126229156
30
0
41
1
10
-0.394976888875306
20
-13.4039879870963
30
0
41
1
10
-0.394976888875306
20
-13.3643136307331
30
0
41
1
10
-0.394976888875306
20
-13.3231185723383
30
0
41
1
10
-0.394976888875306
20
-13.2804176772461
30
0
41
1
10
-0.394976888875306
20
-13.221467049789
30
0
41
1
10
-0.394976888875306
20
-13.1596507828291
30
0
41
1
10
-0.394976888875306
20
-13.0948461430692
30
0
41
1
10
-0.394976888875306
20
-13.0448282543027
30
0
41
1
10
-0.394976888875306
20
-12.9933861205259
30
0
41
1
10
-0.394976888875306
20
-12.940532100831
30
0
41
1
10
-0.394976888875306
20
-12.8862769625636
30
0
41
1
10
-0.394976888875306
20
-12.8306328883531
30
0
41
1
10
-0.394976888875306
20
-12.773610902979
30
0
41
1
10
-0.394976888875306
20
-12.6957215996061
30
0
41
1
10
-0.394976888875306
20
-12.6152283642396
30
0
41
1
10
-0.394976888875306
20
-12.5319491682166
30
0
41
1
10
-0.394976888875306
20
-12.446899173783
30
0
41
1
10
-0.394976888875306
20
-12.3373769247913
30
0
41
1
10
-0.394976888875306
20
-12.2235215963166
30
0
41
1
10
-0.394976888875306
20
-12.1297946270484
30
0
41
1
10
-0.394976888875306
20
-12.0582544232072
30
0
41
1
10
-0.394976888875306
20
-11.9854459723214
30
0
41
1
10
-0.394976888875306
20
-11.9113764724791
30
0
41
1
10
-0.394976888875306
20
-11.8360539840219
30
0
41
1
10
-0.394976888875306
20
-11.7722691819395
30
0
41
1
10
-0.394976888875306
20
-11.7205808983271
30
0
41
1
10
-0.394976888875306
20
-11.6684804460587
30
0
41
1
10
-0.394976888875306
20
-11.6026363770329
30
0
41
1
10
-0.394976888875306
20
-11.5223699808133
30
0
41
1
10
-0.394976888875306
20
-11.413674138825
30
0
41
1
10
-0.394976888875306
20
-11.3026972665534
30
0
41
1
10
-0.394976888875306
20
-11.1891707748317
30
0
41
1
10
-0.394976888875306
20
-11.1028676417001
30
0
41
1
10
-0.394976888875306
20
-11.0153746961414
30
0
41
1
10
-0.394976888875306
20
-10.9266969919675
30
0
41
1
10
-0.394976888875306
20
-10.8368404586375
30
0
41
1
10
-0.394976888875306
20
-10.7458098983121
30
0
41
1
10
-0.394976888875306
20
-10.6536100894112
30
0
41
1
10
-0.394976888875306
20
-10.5602461538978
30
0
41
1
10
-0.394976888875306
20
-10.4657231753345
30
0
41
1
10
-0.394976888875306
20
-10.3380960572489
30
0
41
1
10
-0.394976888875306
20
-10.2083399899529
30
0
41
1
10
-0.394976888875306
20
-10.0761265678461
30
0
41
1
10
-0.394976888875306
20
-9.99261145812801
30
0
41
1
10
-0.394976888875306
20
-9.92517902838176
30
0
41
1
10
-0.394976888875306
20
-9.8573693704559
30
0
41
1
10
-0.394976888875306
20
-9.73773602301958
30
0
41
1
10
-0.394976888875306
20
-9.59892077296985
30
0
41
1
10
-0.394976888875306
20
-9.45767863215661
30
0
41
1
10
-0.394976888875306
20
-9.31494999082747
30
0
41
1
10
-0.394976888875306
20
-9.13390680482667
30
0
41
1
10
-0.394976888875306
20
-8.94918034619519
30
0
41
1
10
-0.394976888875306
20
-8.79907644696402
30
0
41
1
10
-0.394976888875306
20
-8.64751156797166
30
0
41
1
10
-0.394976888875306
20
-8.49397420958985
30
0
41
1
10
-0.394976888875306
20
-8.33804226544987
30
0
41
1
10
-0.394976888875306
20
-8.22006380191277
30
0
41
1
10
-0.394976888875306
20
-8.10100253994153
30
0
41
1
10
-0.394976888875306
20
-7.98086146605698
30
0
41
1
10
-0.394976888875306
20
-7.85964216476054
30
0
41
1
10
-0.394976888875306
20
-7.69650359935565
30
0
41
1
10
-0.394976888875306
20
-7.49008091096033
30
0
41
1
10
-0.394976888875306
20
-7.2800951209731
30
0
41
1
10
-0.394976888875306
20
-7.10982246715957
30
0
41
1
10
-0.394976888875306
20
-6.98112245032081
30
0
41
1
10
-0.394976888875306
20
-6.85136201549096
30
0
41
1
10
-0.394976888875306
20
-6.6768468885183
30
0
41
1
10
-0.394976888875306
20
-6.45627504712576
30
0
41
1
10
-0.394976888875306
20
-6.18726435105106
30
0
41
1
10
-0.394976888875306
20
-5.91406388300976
30
0
41
1
10
-0.394976888875306
20
-5.68302324398945
30
0
41
1
10
-0.394976888875306
20
-5.49591839522026
30
0
41
1
10
-0.394976888875306
20
-5.35463943777347
30
0
41
1
10
-0.394976888875306
20
-5.21232773830428
30
0
41
1
10
-0.394976888875306
20
-5.09425535366773
30
0
41
1
10
-0.394976888875306
20
-5.02359314607173
30
0
41
1
10
-0.394976888875306
20
-5.00092508225413
30
0
0
SPLINE
5
1B8
100
AcDbEntity
8
SK1
62
256
6
ByLayer
370
18
48
1
60
0
100
AcDbSpline
70
4
71
3
72
24
73
20
40
0
40
0
40
0
40
0
40
0.470757791634604
40
0.470757791634604
40
0.661826126045202
40
0.661826126045202
40
0.855689166516028
40
0.855689166516028
40
0.884460546127799
40
0.884460546127799
40
0.913606918141734
40
0.913606918141734
40
0.932763100125357
40
0.932763100125357
40
0.952039096782394
40
0.952039096782394
40
0.974618894615366
40
0.974618894615366
40
1
40
1
40
1
40
1
41
1
10
-0.200000000000046
20
-5.70317605472957
30
0
41
1
10
-0.200000000000046
20
-5.58107998739877
30
0
41
1
10
-0.203895983734867
20
-5.45705658909736
30
0
41
1
10
-0.223509916035709
20
-5.28128624620626
30
0
41
1
10
-0.230869166091793
20
-5.23019697507465
30
0
41
1
10
-0.252992963271936
20
-5.12819212434221
30
0
41
1
10
-0.266168518183122
20
-5.07487581669187
30
0
41
1
10
-0.299311339941028
20
-5.0220298399887
30
0
41
1
10
-0.30416637027804
20
-5.01525404855022
30
0
41
1
10
-0.31523206046802
20
-5.00279573504576
30
0
41
1
10
-0.321587352348615
20
-4.99699852204861
30
0
41
1
10
-0.333432884234526
20
-4.98975078853738
30
0
41
1
10
-0.338586253854487
20
-4.98746585289797
30
0
41
1
10
-0.349157439354485
20
-4.98479989040237
30
0
41
1
10
-0.354703931885979
20
-4.98441392730473
30
0
41
1
10
-0.366193082216284
20
-4.98556317954746
30
0
41
1
10
-0.372213152675215
20
-4.98741181161262
30
0
41
1
10
-0.383950186909488
20
-4.99285513665984
30
0
41
1
10
-0.3896944310344
20
-4.99667072159758
30
0
41
1
10
-0.394976888882184
20
-5.00092508225595
30
0
0
SPLINE
5
1B9
100
AcDbEntity
8
1
62
256
6
ByLayer
370
18
48
1
60
0
100
AcDbSpline
70
4
71
3
72
22
73
18
40
0
40
0
40
0
40
0
40
0.118805648275418
40
0.118805648275418
40
0.246422968673565
40
0.246422968673565
40
0.375003200636619
40
0.375003200636619
40
0.50254630084192
40
0.50254630084192
40
0.637999050672358
40
0.637999050672358
40
0.771826176187376
40
0.771826176187376
40
0.87408019899186
40
0.87408019899186
40
1
40
1
40
1
40
1
41
1
10
199.594240284067
20
0.0407773111311371
30
0
41
1
10
199.594240284067
20
-0.172610597114783
30
0
41
1
10
199.594240284067
20
-0.385998505360703
30
0
41
1
10
199.594240284067
20
-0.828601046505071
30
0
41
1
10
199.574549121657
20
-0.991399675909008
30
0
41
1
10
199.501249455044
20
-1.18060923274197
30
0
41
1
10
199.431554257843
20
-1.25305402348306
30
0
41
1
10
199.230451985912
20
-1.35497607848254
30
0
41
1
10
199.112936103081
20
-1.38035341283916
30
0
41
1
10
198.841116756706
20
-1.38035341283916
30
0
41
1
10
198.724718038752
20
-1.35317651025076
30
0
41
1
10
198.539662970313
20
-1.24446188047796
30
0
41
1
10
198.473509843886
20
-1.16249892341733
30
0
41
1
10
198.402731419883
20
-0.973497439444429
30
0
41
1
10
198.386381384011
20
-0.83924315446103
30
0
41
1
10
198.386381384011
20
-0.420926449421415
30
0
41
1
10
198.386381384011
20
-0.190074569145111
30
0
41
1
10
198.386381384011
20
0.0407773111311371
30
0
0
SPLINE
5
1BA
100
AcDbEntity
8
1
62
256
6
ByLayer
370
18
48
1
60
0
100
AcDbSpline
70
4
71
3
72
12
73
8
40
0
40
0
40
0
40
0
40
0.490873079061421
40
0.490873079061421
40
0.981746158122849
40
0.981746158122849
40
1
40
1
40
1
40
1
41
1
10
198.185845025749
20
-1.35006433634902
30
0
41
1
10
198.114313618808
20
-1.54325952693483
30
0
41
1
10
197.993732104251
20
-1.69224903831884
30
0
41
1
10
197.652425105419
20
-1.90017945530525
30
0
41
1
10
197.451115288743
20
-1.95257137139635
30
0
41
1
10
197.209463273575
20
-1.95257137139635
30
0
41
1
10
197.200827785003
20
-1.9525028404754
30
0
41
1
10
197.192220811849
20
-1.95236586004586
30
0
0
SPLINE
5
1BB
100
AcDbEntity
8
1
62
256
6
ByLayer
370
18
48
1
60
0
100
AcDbSpline
70
4
71
3
72
8
73
4
40
0
40
0
40
0
40
0
40
1
40
1
40
1
40
1
41
1
10
200.065325692634
20
0.464005758304381
30
0
41
1
10
198.733819646295
20
0.464005758304381
30
0
41
1
10
197.402313599955
20
0.464005758304381
30
0
41
1
10
196.070807553616
20
0.464005758304381
30
0
0
SPLINE
5
1BC
100
AcDbEntity
8
1
62
256
6
ByLayer
370
18
48
1
60
0
100
AcDbSpline
70
4
71
3
72
8
73
4
40
0
40
0
40
0
40
0
40
1
40
1
40
1
40
1
41
1
10
196.070807553616
20
0.464005758304381
30
0
41
1
10
196.070807553616
20
0.0571497849095977
30
0
41
1
10
196.070807553616
20
-0.349706188485129
30
0
41
1
10
196.070807553616
20
-0.756562161879856
30
0
0
SPLINE
5
1BD
100
AcDbEntity
8
SK1
62
256
6
ByLayer
370
18
48
1
60
0
100
AcDbSpline
70
4
71
3
72
128
73
124
40
0
40
0
40
0
40
0
40
0.0069437521072776
40
0.0142876009830265
40
0.0216314498587753
40
0.0289752987345242
40
0.036319147610273
40
0.0436629964860219
40
0.0510068453617708
40
0.0583506942375196
40
0.0656945431132685
40
0.0730383919890174
40
0.0803822408647662
40
0.0877260897405151
40
0.095069938616264
40
0.102413787492013
40
0.109757636367762
40
0.11710148524351
40
0.124445334119259
40
0.131789182995008
40
0.139133031870757
40
0.146476880746506
40
0.153820729622255
40
0.161164578498004
40
0.175852276249502
40
0.18319612512525
40
0.190539974000999
40
0.197883822876748
40
0.205227671752497
40
0.219915369503995
40
0.227259218379743
40
0.234603067255492
40
0.241946916131241
40
0.24929076500699
40
0.256634613882739
40
0.263978462758488
40
0.278666160509985
40
0.286010009385734
40
0.293353858261483
40
0.300697707137232
40
0.308041556012981
40
0.31538540488873
40
0.322729253764479
40
0.330073102640228
40
0.337416951515977
40
0.352104649267474
40
0.359448498143223
40
0.366792347018972
40
0.38148004477047
40
0.396167742521968
40
0.403511591397716
40
0.410855440273465
40
0.418199289149214
40
0.425543138024963
40
0.432886986900712
40
0.44023083577646
40
0.443902760214335
40
0.44757468465221
40
0.454918533527958
40
0.462262382403707
40
0.469606231279456
40
0.484293929030954
40
0.491637777906703
40
0.498981626782451
40
0.5063254756582
40
0.513669324533949
40
0.521013173409698
40
0.528357022285447
40
0.535700871161196
40
0.543044720036945
40
0.550388568912694
40
0.557732417788443
40
0.57242011553994
40
0.579763964415689
40
0.587107813291438
40
0.590779737729312
40
0.594451662167187
40
0.601795511042936
40
0.616483208794433
40
0.623827057670182
40
0.631170906545931
40
0.645858604297429
40
0.660546302048927
40
0.667890150924675
40
0.675233999800424
40
0.689921697551922
40
0.697265546427671
40
0.70460939530342
40
0.711953244179169
40
0.719297093054918
40
0.726640941930666
40
0.733984790806415
40
0.748672488557913
40
0.763360186309411
40
0.77070403518516
40
0.778047884060908
40
0.785391732936657
40
0.792735581812406
40
0.807423279563904
40
0.822110977315402
40
0.836798675066899
40
0.851486372818397
40
0.858830221694146
40
0.866174070569895
40
0.873517919445644
40
0.880861768321393
40
0.888205617197141
40
0.89554946607289
40
0.902893314948639
40
0.910237163824388
40
0.917581012700137
40
0.924924861575886
40
0.932268710451635
40
0.939612559327383
40
0.946956408203132
40
0.954300257078881
40
0.96164410595463
40
0.968987954830379
40
0.976331803706128
40
0.983675652581877
40
0.991019501457625
40
0.998363350333374
40
1
40
1
40
1
40
1
41
1
10
-1.49503997793937
20
-13.7143750150331
30
0
41
1
10
-1.49503997793931
20
-13.7216342013662
30
0
41
1
10
-1.49503997793931
20
-13.7357811614642
30
0
41
1
10
-1.49503997793931
20
-13.7547953489792
30
0
41
1
10
-1.49503997793931
20
-13.77170198028
30
0
41
1
10
-1.49503997793931
20
-13.7862053981965
30
0
41
1
10
-1.49503997793931
20
-13.7983574446221
30
0
41
1
10
-1.49503997793931
20
-13.8082084421559
30
0
41
1
10
-1.49503997793931
20
-13.8158070688212
30
0
41
1
10
-1.49503997793931
20
-13.8211988832959
30
0
41
1
10
-1.49503997793931
20
-13.8244268679687
30
0
41
1
10
-1.49503997793931
20
-13.8255322925994
30
0
41
1
10
-1.49503997793931
20
-13.8245545856003
30
0
41
1
10
-1.49503997793931
20
-13.821531562835
30
0
41
1
10
-1.49503997793931
20
-13.8164987457743
30
0
41
1
10
-1.49503997793931
20
-13.8094907530556
30
0
41
1
10
-1.49503997793931
20
-13.800539960484
30
0
41
1
10
-1.49503997793931
20
-13.7896781016746
30
0
41
1
10
-1.49503997793931
20
-13.7769347594831
30
0
41
1
10
-1.49503997793931
20
-13.7623389110759
30
0
41
1
10
-1.49503997793931
20
-13.7459180935577
30
0
41
1
10
-1.49503997793931
20
-13.7276983600542
30
0
41
1
10
-1.49503997793931
20
-13.7077055842541
30
0
41
1
10
-1.49503997793931
20
-13.6786965897715
30
0
41
1
10
-1.49503997793931
20
-13.646298505966
30
0
41
1
10
-1.49503997793931
20
-13.6104729213425
30
0
41
1
10
-1.49503997793931
20
-13.5819601013665
30
0
41
1
10
-1.49503997793931
20
-13.5518061687379
30
0
41
1
10
-1.49503997793931
20
-13.5094130161235
30
0
41
1
10
-1.49503997793931
20
-13.4638962511352
30
0
41
1
10
-1.49503997793931
20
-13.4151607649325
30
0
41
1
10
-1.49503997793931
20
-13.3770799229021
30
0
41
1
10
-1.49503997793931
20
-13.3374647797226
30
0
41
1
10
-1.49503997793931
20
-13.2963307229449
30
0
41
1
10
-1.49503997793931
20
-13.2536925631392
30
0
41
1
10
-1.49503997793931
20
-13.1948224412614
30
0
41
1
10
-1.49503997793931
20
-13.133106637017
30
0
41
1
10
-1.49503997793931
20
-13.0683888234861
30
0
41
1
10
-1.49503997793931
20
-13.0184419731185
30
0
41
1
10
-1.49503997793931
20
-12.9670724454162
30
0
41
1
10
-1.49503997793931
20
-12.9142926213842
30
0
41
1
10
-1.49503997793931
20
-12.8601132308426
30
0
41
1
10
-1.49503997793931
20
-12.8045464232669
30
0
41
1
10
-1.49503997793931
20
-12.747603254001
30
0
41
1
10
-1.49503997793931
20
-12.6698142967671
30
0
41
1
10
-1.49503997793931
20
-12.5894449263383
30
0
41
1
10
-1.49503997793931
20
-12.5062717787185
30
0
41
1
10
-1.49503997793931
20
-12.4213295969168
30
0
41
1
10
-1.49503997793931
20
-12.3119621581916
30
0
41
1
10
-1.49503997793931
20
-12.1982669205398
30
0
41
1
10
-1.49503997793931
20
-12.1046570427268
30
0
41
1
10
-1.49503997793931
20
-12.0332119519516
30
0
41
1
10
-1.49503997793931
20
-11.960500101414
30
0
41
1
10
-1.49503997793931
20
-11.886528664654
30
0
41
1
10
-1.49503997793931
20
-11.8113057197552
30
0
41
1
10
-1.49503997793931
20
-11.747609354201
30
0
41
1
10
-1.49503997793931
20
-11.6959849306732
30
0
41
1
10
-1.49503997793931
20
-11.6439487843731
30
0
41
1
10
-1.49503997793931
20
-11.5781957427673
30
0
41
1
10
-1.49503997793931
20
-11.4980349156058
30
0
41
1
10
-1.49503997793931
20
-11.3894729046301
30
0
41
1
10
-1.49503997793931
20
-11.2786601205037
30
0
41
1
10
-1.49503997793931
20
-11.1652732973629
30
0
41
1
10
-1.49503997793931
20
-11.0790834618892
30
0
41
1
10
-1.49503997793931
20
-10.9917054227683
30
0
41
1
10
-1.49503997793931
20
-10.9031442186804
30
0
41
1
10
-1.49503997793931
20
-10.8134058114344
30
0
41
1
10
-1.49503997793931
20
-10.7224950525572
30
0
41
1
10
-1.49503997793931
20
-10.630416702033
30
0
41
1
10
-1.49503997793931
20
-10.537175897834
30
0
41
1
10
-1.49503997793931
20
-10.4427777956644
30
0
41
1
10
-1.49503997793931
20
-10.3153089526252
30
0
41
1
10
-1.49503997793931
20
-10.1857467801784
30
0
41
1
10
-1.49503997793931
20
-10.0536983203575
30
0
41
1
10
-1.49503997793931
20
-9.9703002864195
30
0
41
1
10
-1.49503997793931
20
-9.90295237623945
30
0
41
1
10
-1.49503997793931
20
-9.835227886979
30
0
41
1
10
-1.49503997793931
20
-9.71574945872362
30
0
41
1
10
-1.49503997793931
20
-9.57714512355727
30
0
41
1
10
-1.49503997793931
20
-9.43608247629771
30
0
41
1
10
-1.49503997793931
20
-9.29353605395187
30
0
41
1
10
-1.49503997793931
20
-9.1127536491245
30
0
41
1
10
-1.49503997793931
20
-8.92829538452321
30
0
41
1
10
-1.49503997793931
20
-8.77838739743157
30
0
41
1
10
-1.49503997793931
20
-8.62702161678089
30
0
41
1
10
-1.49503997793931
20
-8.47372856948016
30
0
41
1
10
-1.49503997793931
20
-8.31800484031686
30
0
41
1
10
-1.49503997793931
20
-8.20019571341777
30
0
41
1
10
-1.49503997793931
20
-8.08130644558901
30
0
41
1
10
-1.49503997793931
20
-7.96134018717203
30
0
41
1
10
-1.49503997793931
20
-7.84029855153602
30
0
41
1
10
-1.49503997793931
20
-7.67738590051289
30
0
41
1
10
-1.49503997793931
20
-7.47128768043939
30
0
41
1
10
-1.49503997793931
20
-7.2616368417514
30
0
41
1
10
-1.49503997793931
20
-7.09160988853205
30
0
41
1
10
-1.49503997793931
20
-6.96311018885422
30
0
41
1
10
-1.49503997793931
20
-6.83355374310952
30
0
41
1
10
-1.49503997793931
20
-6.6592986173581
30
0
41
1
10
-1.49503997793931
20
-6.4391015048937
30
0
41
1
10
-1.49503997793931
20
-6.17053537924176
30
0
41
1
10
-1.49503997793931
20
-5.89779786635279
30
0
41
1
10
-1.49503997793931
20
-5.66717892451572
30
0
41
1
10
-1.49503997793931
20
-5.48038543010176
30
0
41
1
10
-1.49503997793931
20
-5.33936160781599
30
0
41
1
10
-1.49503997793931
20
-5.19731095699916
30
0
41
1
10
-1.49503997793931
20
-5.05423700692029
30
0
41
1
10
-1.49503997793931
20
-4.91014320448994
30
0
41
1
10
-1.49503997793931
20
-4.76503356668587
30
0
41
1
10
-1.49503997793931
20
-4.61891187892093
30
0
41
1
10
-1.49503997793931
20
-4.47178250674136
30
0
41
1
10
-1.49503997793931
20
-4.32365075555242
30
0
41
1
10
-1.49503997793931
20
-4.17452257114439
30
0
41
1
10
-1.49503997793931
20
-4.02440435063465
30
0
41
1
10
-1.49503997793931
20
-3.87330241838254
30
0
41
1
10
-1.49503997793931
20
-3.72122348266288
30
0
41
1
10
-1.49503997793931
20
-3.56817684914563
30
0
41
1
10
-1.49503997793931
20
-3.4141725129254
30
0
41
1
10
-1.49503997793931
20
-3.25922160409141
30
0
41
1
10
-1.49503997793931
20
-3.10333581737223
30
0
41
1
10
-1.49503997793931
20
-2.94652921585708
30
0
41
1
10
-1.49503997793931
20
-2.78881794693001
30
0
41
1
10
-1.49503997793931
20
-2.67130382014665
30
0
41
1
10
-1.49503997793931
20
-2.60647324340221
30
0
41
1
10
-1.49503997793931
20
-2.59465115080991
30
0
0
SPLINE
5
1BE
100
AcDbEntity
8
SK1
62
256
6
ByLayer
370
18
48
1
60
0
100
AcDbSpline
70
4
71
3
72
22
73
18
40
0
40
0
40
0
40
0
40
0.0262443259631468
40
0.0262443259631468
40
0.0530261953237513
40
0.0530261953237513
40
0.0713561417137673
40
0.0713561417137673
40
0.0895876717321217
40
0.0895876717321217
40
0.119482760569231
40
0.119482760569231
40
0.178619847888644
40
0.178619847888644
40
0.388025243769262
40
0.388025243769262
40
1
40
1
40
1
40
1
41
1
10
-0.394976888875306
20
-13.8446019297681
30
0
41
1
10
-0.389542940031561
20
-13.8449158599001
30
0
41
1
10
-0.383617593481006
20
-13.8454439659091
30
0
41
1
10
-0.370682577094897
20
-13.847185676574
30
0
41
1
10
-0.363425095790546
20
-13.8484584409772
30
0
41
1
10
-0.350979043087193
20
-13.8513238322133
30
0
41
1
10
-0.345738104843406
20
-13.8527220431424
30
0
41
1
10
-0.335836036111402
20
-13.8557300394867
30
0
41
1
10
-0.331061234651429
20
-13.8573680363077
30
0
41
1
10
-0.319536857691617
20
-13.8617043765564
30
0
41
1
10
-0.313226439154846
20
-13.8644842406524
30
0
41
1
10
-0.296825865103983
20
-13.8724174982475
30
0
41
1
10
-0.288454852011284
20
-13.8774557840676
30
0
41
1
10
-0.256352537857197
20
-13.8987262995108
30
0
41
1
10
-0.243999907013688
20
-13.9124642192993
30
0
41
1
10
-0.204596917519325
20
-13.9605471889768
30
0
41
1
10
-0.200000000000102
20
-13.9849787272995
30
0
41
1
10
-0.200000000000046
20
-14.0034375364994
30
0
0
SPLINE
5
1BF
100
AcDbEntity
8
SK1
62
256
6
ByLayer
370
18
48
1
60
0
100
AcDbSpline
70
4
71
3
72
8
73
4
40
0
40
0
40
0
40
0
40
1
40
1
40
1
40
1
41
1
10
-1.30710678118658
20
3.62781725664621
30
0
41
1
10
-1.37345758266253
20
3.29127686428785
30
0
41
1
10
-1.43729556141977
20
2.94660267199697
30
0
41
1
10
-1.49503997793931
20
2.5946511583831
30
0
0
SPLINE
5
1C0
100
AcDbEntity
8
SK1
62
256
6
ByLayer
370
18
48
1
60
0
100
AcDbSpline
70
4
71
3
72
281
73
277
40
0
40
0
40
0
40
0
40
0.0026986425457701
40
0.0062507991441983
40
0.0098029557426266
40
0.0133551123410549
40
0.0169072689394831
40
0.0204594255379114
40
0.0240115821363396
40
0.0311158953331961
40
0.0382202085300526
40
0.0453245217269091
40
0.0488766783253374
40
0.0524288349237656
40
0.0559809915221939
40
0.0595331481206221
40
0.0666374613174786
40
0.0701896179159069
40
0.0737417745143351
40
0.0772939311127634
40
0.0808460877111916
40
0.0843982443096199
40
0.0879504009080482
40
0.0950547141049046
40
0.0986068707033329
40
0.102159027301761
40
0.105711183900189
40
0.109263340498618
40
0.112815497097046
40
0.116367653695474
40
0.119919810293902
40
0.123471966892331
40
0.130576280089187
40
0.134128436687615
40
0.137680593286044
40
0.1447849064829
40
0.151889219679757
40
0.155441376278185
40
0.158993532876613
40
0.162545689475041
40
0.16609784607347
40
0.169650002671898
40
0.173202159270326
40
0.17497823756954
40
0.176754315868755
40
0.180306472467183
40
0.183858629065611
40
0.187410785664039
40
0.194515098860896
40
0.198067255459324
40
0.201619412057752
40
0.20517156865618
40
0.208723725254609
40
0.212275881853037
40
0.215828038451465
40
0.219380195049893
40
0.222932351648322
40
0.22648450824675
40
0.230036664845178
40
0.237140978042035
40
0.240693134640463
40
0.244245291238891
40
0.246021369538105
40
0.247797447837319
40
0.251349604435748
40
0.258453917632604
40
0.262006074231032
40
0.265558230829461
40
0.272662544026317
40
0.279766857223174
40
0.283319013821602
40
0.28687117042003
40
0.293975483616887
40
0.297527640215315
40
0.301079796813743
40
0.304631953412171
40
0.3081841100106
40
0.311736266609028
40
0.315288423207456
40
0.322392736404313
40
0.329497049601169
40
0.333049206199597
40
0.336601362798026
40
0.340153519396454
40
0.343705675994882
40
0.350809989191739
40
0.357914302388595
40
0.365018615585452
40
0.372122928782308
40
0.375675085380737
40
0.379227241979165
40
0.382779398577593
40
0.386331555176021
40
0.38988371177445
40
0.393435868372878
40
0.396988024971306
40
0.400540181569734
40
0.404092338168162
40
0.407644494766591
40
0.411196651365019
40
0.414748807963447
40
0.418300964561875
40
0.421853121160304
40
0.425405277758732
40
0.42895743435716
40
0.432509590955589
40
0.436061747554017
40
0.439613904152445
40
0.443166060750873
40
0.446718217349302
40
0.448494295648516
40
0.45027037394773
40
0.453822530546158
40
0.455598608845372
40
0.457374687144586
40
0.4591507654438
40
0.460926843743015
40
0.462702922042229
40
0.464479000341443
40
0.466255078640657
40
0.468031156939871
40
0.471583313538299
40
0.473359391837514
40
0.475135470136728
40
0.476911548435942
40
0.478687626735156
40
0.48046370503437
40
0.482239783333584
40
0.484015861632798
40
0.485791939932012
40
0.487568018231226
40
0.48934409653044
40
0.491120174829655
40
0.492896253128869
40
0.494672331428083
40
0.496448409727297
40
0.498224488026511
40
0.500000566325725
40
0.50177664462494
40
0.503552722924154
40
0.505328801223368
40
0.507104879522582
40
0.508880957821796
40
0.51065703612101
40
0.512433114420224
40
0.514209192719438
40
0.515985271018652
40
0.517761349317867
40
0.519537427617081
40
0.521313505916295
40
0.523089584215509
40
0.524865662514723
40
0.526641740813937
40
0.528417819113151
40
0.531969975711579
40
0.533746054010794
40
0.535522132310008
40
0.537298210609222
40
0.539074288908436
40
0.54085036720765
40
0.542626445506864
40
0.544402523806078
40
0.546178602105293
40
0.549730758703721
40
0.551506837002935
40
0.553282915302149
40
0.556835071900577
40
0.560387228499006
40
0.563939385097434
40
0.567491541695862
40
0.57104369829429
40
0.574595854892719
40
0.578148011491147
40
0.581700168089575
40
0.585252324688003
40
0.588804481286432
40
0.59235663788486
40
0.595908794483288
40
0.599460951081716
40
0.603013107680145
40
0.606565264278573
40
0.610117420877001
40
0.61366957747543
40
0.617221734073858
40
0.620773890672286
40
0.624326047270714
40
0.627878203869143
40
0.634982517065999
40
0.642086830262856
40
0.649191143459712
40
0.656295456656568
40
0.659847613254997
40
0.663399769853425
40
0.666951926451853
40
0.670504083050281
40
0.677608396247138
40
0.684712709443995
40
0.688264866042423
40
0.691817022640851
40
0.695369179239279
40
0.698921335837708
40
0.702473492436136
40
0.706025649034564
40
0.71312996223142
40
0.716682118829849
40
0.720234275428277
40
0.727338588625133
40
0.73444290182199
40
0.737995058420418
40
0.741547215018847
40
0.748651528215703
40
0.752203684814131
40
0.753979763113345
40
0.75575584141256
40
0.759307998010988
40
0.762860154609416
40
0.769964467806272
40
0.773516624404701
40
0.777068781003129
40
0.780620937601557
40
0.784173094199985
40
0.787725250798414
40
0.791277407396842
40
0.79482956399527
40
0.798381720593699
40
0.801933877192127
40
0.805486033790555
40
0.812590346987412
40
0.81614250358584
40
0.819694660184268
40
0.823246816782696
40
0.82502289508191
40
0.826798973381124
40
0.830351129979553
40
0.833903286577981
40
0.837455443176409
40
0.841007599774837
40
0.844559756373266
40
0.848111912971694
40
0.855216226168551
40
0.862320539365407
40
0.865872695963835
40
0.869424852562264
40
0.87652916575912
40
0.880081322357548
40
0.883633478955977
40
0.887185635554405
40
0.890737792152833
40
0.894289948751261
40
0.89784210534969
40
0.901394261948118
40
0.904946418546546
40
0.912050731743403
40
0.915602888341831
40
0.919155044940259
40
0.922707201538687
40
0.926259358137116
40
0.929811514735544
40
0.933363671333972
40
0.940467984530829
40
0.944020141129257
40
0.947572297727685
40
0.951124454326113
40
0.954676610924542
40
0.961780924121398
40
0.965333080719826
40
0.968885237318255
40
0.972437393916683
40
0.975989550515111
40
0.979541707113539
40
0.983093863711968
40
0.986646020310396
40
0.990198176908824
40
0.993750333507252
40
0.997302490105681
40
1
40
1
40
1
40
1
41
1
10
-24
20
12.6301285397526
30
0
41
1
10
-24
20
12.6295507095351
30
0
41
1
10
-24
20
12.6277960209742
30
0
41
1
10
-24
20
12.623548726994
30
0
41
1
10
-24
20
12.6171099043119
30
0
41
1
10
-24
20
12.6088736083307
30
0
41
1
10
-24
20
12.5988647342339
30
0
41
1
10
-24
20
12.5871069661155
30
0
41
1
10
-24
20
12.569020437469
30
0
41
1
10
-24
20
12.5424060911486
30
0
41
1
10
-24
20
12.5036823998811
30
0
41
1
10
-24
20
12.466179119183
30
0
41
1
10
-24
20
12.4326960489613
30
0
41
1
10
-24
20
12.4061495447384
30
0
41
1
10
-24
20
12.3780532328159
30
0
41
1
10
-24
20
12.3383402816863
30
0
41
1
10
-24
20
12.2962370819873
30
0
41
1
10
-24
20
12.2505027270978
30
0
41
1
10
-24
20
12.2149010201899
30
0
41
1
10
-24
20
12.1778433481664
30
0
41
1
10
-24
20
12.1393440238031
30
0
41
1
10
-24
20
12.0994154546281
30
0
41
1
10
-24
20
12.0440223921018
30
0
41
1
10
-24
20
11.9866456328949
30
0
41
1
10
-24
20
11.9256779328098
30
0
41
1
10
-24
20
11.8787993022056
30
0
41
1
10
-24
20
11.8305656793587
30
0
41
1
10
-24
20
11.78099039585
30
0
41
1
10
-24
20
11.7300825884547
30
0
41
1
10
-24
20
11.6778529900837
30
0
41
1
10
-24
20
11.6243139686469
30
0
41
1
10
-24
20
11.5508590476175
30
0
41
1
10
-24
20
11.4758394707542
30
0
41
1
10
-24
20
11.3972466128896
30
0
41
1
10
-24
20
11.3169609533628
30
0
41
1
10
-24
20
11.2142799019792
30
0
41
1
10
-24
20
11.1074990885262
30
0
41
1
10
-24
20
11.0189464603389
30
0
41
1
10
-24
20
10.9516093773873
30
0
41
1
10
-24
20
10.8830697782116
30
0
41
1
10
-24
20
10.8133337656712
30
0
41
1
10
-24
20
10.7424101789121
30
0
41
1
10
-24
20
10.6825334430363
30
0
41
1
10
-24
20
10.6336671760819
30
0
41
1
10
-24
20
10.5844084477176
30
0
41
1
10
-24
20
10.5225869468266
30
0
41
1
10
-24
20
10.4469857296791
30
0
41
1
10
-24
20
10.3442039867663
30
0
41
1
10
-24
20
10.2404782892815
30
0
41
1
10
-24
20
10.133123847137
30
0
41
1
10
-24
20
10.0518274139735
30
0
41
1
10
-24
20
9.96941226524035
30
0
41
1
10
-24
20
9.8858827890852
30
0
41
1
10
-24
20
9.80124634105397
30
0
41
1
10
-24
20
9.71550990056983
30
0
41
1
10
-24
20
9.62867742465994
30
0
41
1
10
-24
20
9.54075474090104
30
0
41
1
10
-24
20
9.4517501287076
30
0
41
1
10
-24
20
9.33111730296775
30
0
41
1
10
-24
20
9.20992961158601
30
0
41
1
10
-24
20
9.08500600225796
30
0
41
1
10
-24
20
9.00666454438806
30
0
41
1
10
-24
20
8.94296708063843
30
0
41
1
10
-24
20
8.87892107357061
30
0
41
1
10
-24
20
8.76613371827506
30
0
41
1
10
-24
20
8.63663898523424
30
0
41
1
10
-24
20
8.50332881313915
30
0
41
1
10
-24
20
8.36865251940401
30
0
41
1
10
-24
20
8.19913342470039
30
0
41
1
10
-24
20
8.02625870426021
30
0
41
1
10
-24
20
7.8848123267644
30
0
41
1
10
-24
20
7.74204568631342
30
0
41
1
10
-24
20
7.59930458489885
30
0
41
1
10
-24
20
7.4525738679572
30
0
41
1
10
-24
20
7.34207855908448
30
0
41
1
10
-24
20
7.23061782890778
30
0
41
1
10
-24
20
7.11820191301109
30
0
41
1
10
-24
20
7.00483374343872
30
0
41
1
10
-24
20
6.8516785758469
30
0
41
1
10
-24
20
6.65959441745031
30
0
41
1
10
-24
20
6.46441027855923
30
0
41
1
10
-24
20
6.30499529459036
30
0
41
1
10
-24
20
6.18514753468799
30
0
41
1
10
-24
20
6.06440158167572
30
0
41
1
10
-24
20
5.90137597131746
30
0
41
1
10
-24
20
5.6973636795567
30
0
41
1
10
-24
20
5.44799894794272
30
0
41
1
10
-24
20
5.19525670130326
30
0
41
1
10
-24
20
4.98285125019777
30
0
41
1
10
-24
20
4.80950544532163
30
0
41
1
10
-24
20
4.67950096380332
30
0
41
1
10
-24
20
4.54872537799758
30
0
41
1
10
-24
20
4.41719445888799
30
0
41
1
10
-24
20
4.28492388892994
30
0
41
1
10
-24
20
4.15193103870837
30
0
41
1
10
-24
20
4.01823650200191
30
0
41
1
10
-24
20
3.88386015063668
30
0
41
1
10
-24
20
3.74882265025218
30
0
41
1
10
-24
20
3.61314816606938
30
0
41
1
10
-24
20
3.47686551917991
30
0
41
1
10
-24
20
3.34000139230267
30
0
41
1
10
-24
20
3.20258393847712
30
0
41
1
10
-24
20
3.06464837689458
30
0
41
1
10
-24
20
2.9262304523017
30
0
41
1
10
-24
20
2.78737006373564
30
0
41
1
10
-24
20
2.64810891556726
30
0
41
1
10
-24
20
2.50849315364218
30
0
41
1
10
-24
20
2.36857603859875
30
0
41
1
10
-24
20
2.22840727338092
30
0
41
1
10
-24
20
2.11231267734075
30
0
41
1
10
-24
20
2.01771125590744
30
0
41
1
10
-24
20
1.92310511773127
30
0
41
1
10
-24
20
1.8313714962141
30
0
41
1
10
-24
20
1.736633689764
30
0
41
1
10
-24
20
1.6663683926929
30
0
41
1
10
-24
20
1.59612143913762
30
0
41
1
10
-24
20
1.52590617425699
30
0
41
1
10
-24
20
1.45572440081651
30
0
41
1
10
-24
20
1.38559146347791
30
0
41
1
10
-24
20
1.31551245865842
30
0
41
1
10
-24
20
1.22103102890804
30
0
41
1
10
-24
20
1.13019491172781
30
0
41
1
10
-24
20
1.03590357373668
30
0
41
1
10
-24
20
0.966211278320714
30
0
41
1
10
-24
20
0.896616942008563
30
0
41
1
10
-24
20
0.827119549474446
30
0
41
1
10
-24
20
0.757724503129282
30
0
41
1
10
-24
20
0.688430802184314
30
0
41
1
10
-24
20
0.619238394305114
30
0
41
1
10
-24
20
0.550143822342477
30
0
41
1
10
-24
20
0.481142957404018
30
0
41
1
10
-24
20
0.412229055265982
30
0
41
1
10
-24
20
0.343394373554986
30
0
41
1
10
-24
20
0.274627961865065
30
0
41
1
10
-24
20
0.205919183520052
30
0
41
1
10
-24
20
0.137254128872428
30
0
41
1
10
-24
20
0.0686195806151204
30
0
41
1
10
-24
20
1.20069785E-08
30
0
41
1
10
-24
20
-0.0686195837654395
30
0
41
1
10
-24
20
-0.1372541822264
30
0
41
1
10
-24
20
-0.205919229600283
30
0
41
1
10
-24
20
-0.274627932715646
30
0
41
1
10
-24
20
-0.343394334295567
30
0
41
1
10
-24
20
-0.412229116407673
30
0
41
1
10
-24
20
-0.481143047124022
30
0
41
1
10
-24
20
-0.550143789897731
30
0
41
1
10
-24
20
-0.619238310392802
30
0
41
1
10
-24
20
-0.688430856535206
30
0
41
1
10
-24
20
-0.757724640342815
30
0
41
1
10
-24
20
-0.827119544713639
30
0
41
1
10
-24
20
-0.896616816711344
30
0
41
1
10
-24
20
-0.966211277672699
30
0
41
1
10
-24
20
-1.03590373801057
30
0
41
1
10
-24
20
-1.13019491751669
30
0
41
1
10
-24
20
-1.22103090337816
30
0
41
1
10
-24
20
-1.31551253110206
30
0
41
1
10
-24
20
-1.38559165365194
30
0
41
1
10
-24
20
-1.45572444737024
30
0
41
1
10
-24
20
-1.52590604398472
30
0
41
1
10
-24
20
-1.59612132289766
30
0
41
1
10
-24
20
-1.66636846888792
30
0
41
1
10
-24
20
-1.73663389391049
30
0
41
1
10
-24
20
-1.83137150908334
30
0
41
1
10
-24
20
-1.923104963833
30
0
41
1
10
-24
20
-2.01771124909396
30
0
41
1
10
-24
20
-2.11231287096445
30
0
41
1
10
-24
20
-2.22840729138045
30
0
41
1
10
-24
20
-2.36857592379664
30
0
41
1
10
-24
20
-2.50849329023106
30
0
41
1
10
-24
20
-2.64810899336408
30
0
41
1
10
-24
20
-2.78736947452717
30
0
41
1
10
-24
20
-2.92622914514112
30
0
41
1
10
-24
20
-3.06464867495959
30
0
41
1
10
-24
20
-3.20258694679336
30
0
41
1
10
-24
20
-3.34000339886188
30
0
41
1
10
-24
20
-3.47686412773231
30
0
41
1
10
-24
20
-3.61314539193518
30
0
41
1
10
-24
20
-3.74882070125756
30
0
41
1
10
-24
20
-3.88386081960971
30
0
41
1
10
-24
20
-4.01823910176785
30
0
41
1
10
-24
20
-4.15193237523465
30
0
41
1
10
-24
20
-4.28492323331267
30
0
41
1
10
-24
20
-4.41719365917402
30
0
41
1
10
-24
20
-4.54872525063161
30
0
41
1
10
-24
20
-4.67950102029136
30
0
41
1
10
-24
20
-4.8095053694127
30
0
41
1
10
-24
20
-4.98285124277226
30
0
41
1
10
-24
20
-5.19525677656026
30
0
41
1
10
-24
20
-5.44799891971269
30
0
41
1
10
-24
20
-5.69736372546623
30
0
41
1
10
-24
20
-5.90137602298262
30
0
41
1
10
-24
20
-6.06440150688547
30
0
41
1
10
-24
20
-6.18514751568057
30
0
41
1
10
-24
20
-6.30499537148728
30
0
41
1
10
-24
20
-6.4644103373426
30
0
41
1
10
-24
20
-6.6595943858062
30
0
41
1
10
-24
20
-6.8516785830704
30
0
41
1
10
-24
20
-7.00483382763792
30
0
41
1
10
-24
20
-7.11820195418233
30
0
41
1
10
-24
20
-7.2306178054078
30
0
41
1
10
-24
20
-7.34207852113332
30
0
41
1
10
-24
20
-7.4525738754773
30
0
41
1
10
-24
20
-7.59930464836134
30
0
41
1
10
-24
20
-7.74204572237983
30
0
41
1
10
-24
20
-7.88481230085068
30
0
41
1
10
-24
20
-8.02625870014725
30
0
41
1
10
-24
20
-8.19913346952643
30
0
41
1
10
-24
20
-8.3686525458042
30
0
41
1
10
-24
20
-8.50332879773271
30
0
41
1
10
-24
20
-8.63663898786109
30
0
41
1
10
-24
20
-8.76613375581502
30
0
41
1
10
-24
20
-8.87892111197033
30
0
41
1
10
-24
20
-8.94296710462891
30
0
41
1
10
-24
20
-9.00666455327519
30
0
41
1
10
-24
20
-9.08500599911844
30
0
41
1
10
-24
20
-9.20992961783276
30
0
41
1
10
-24
20
-9.33111733072479
30
0
41
1
10
-24
20
-9.45175015939355
30
0
41
1
10
-24
20
-9.54075475929301
30
0
41
1
10
-24
20
-9.6286774324733
30
0
41
1
10
-24
20
-9.71550990736876
30
0
41
1
10
-24
20
-9.80124635456616
30
0
41
1
10
-24
20
-9.88588281033202
30
0
41
1
10
-24
20
-9.96941229097467
30
0
41
1
10
-24
20
-10.0518274374696
30
0
41
1
10
-24
20
-10.1331238647016
30
0
41
1
10
-24
20
-10.240478300249
30
0
41
1
10
-24
20
-10.3442039980405
30
0
41
1
10
-24
20
-10.4469857502475
30
0
41
1
10
-24
20
-10.5225869730086
30
0
41
1
10
-24
20
-10.584408474142
30
0
41
1
10
-24
20
-10.6336671988976
30
0
41
1
10
-24
20
-10.6825334589272
30
0
41
1
10
-24
20
-10.7424101865055
30
0
41
1
10
-24
20
-10.8133337727233
30
0
41
1
10
-24
20
-10.8830697936353
30
0
41
1
10
-24
20
-10.951609404873
30
0
41
1
10
-24
20
-11.0189464931514
30
0
41
1
10
-24
20
-11.1074991058536
30
0
41
1
10
-24
20
-11.2142799044294
30
0
41
1
10
-24
20
-11.3169609751522
30
0
41
1
10
-24
20
-11.3972466509688
30
0
41
1
10
-24
20
-11.4758394909226
30
0
41
1
10
-24
20
-11.5508590446084
30
0
41
1
10
-24
20
-11.6243139791192
30
0
41
1
10
-24
20
-11.6778530233414
30
0
41
1
10
-24
20
-11.7300826287653
30
0
41
1
10
-24
20
-11.7809904199399
30
0
41
1
10
-24
20
-11.8305656793297
30
0
41
1
10
-24
20
-11.8787992978642
30
0
41
1
10
-24
20
-11.9256779481161
30
0
41
1
10
-24
20
-11.9866456736684
30
0
41
1
10
-24
20
-12.0440224201628
30
0
41
1
10
-24
20
-12.099415447517
30
0
41
1
10
-24
20
-12.1393440246738
30
0
41
1
10
-24
20
-12.1778433772408
30
0
41
1
10
-24
20
-12.2149010599454
30
0
41
1
10
-24
20
-12.2505027529639
30
0
41
1
10
-24
20
-12.2962370828382
30
0
41
1
10
-24
20
-12.3383402824608
30
0
41
1
10
-24
20
-12.3780532736993
30
0
41
1
10
-24
20
-12.4061495785297
30
0
41
1
10
-24
20
-12.4326960530149
30
0
41
1
10
-24
20
-12.4661791203578
30
0
41
1
10
-24
20
-12.4959885477691
30
0
41
1
10
-24
20
-12.5230370713979
30
0
41
1
10
-24
20
-12.5415673540695
30
0
41
1
10
-24
20
-12.55843663992
30
0
41
1
10
-24
20
-12.5736235086905
30
0
41
1
10
-24
20
-12.5871069547275
30
0
41
1
10
-24
20
-12.5988645879939
30
0
41
1
10
-24
20
-12.6088733436887
30
0
41
1
10
-24
20
-12.617109869821
30
0
41
1
10
-24
20
-12.6235493215145
30
0
41
1
10
-24
20
-12.6277964652282
30
0
41
1
10
-24
20
-12.629550833317
30
0
41
1
10
-24.0000000000001
20
-12.630128460091
30
0
0
SPLINE
5
1C1
100
AcDbEntity
8
SK1
62
256
6
ByLayer
370
18
48
1
60
0
100
AcDbSpline
70
4
71
3
72
126
73
122
40
0
40
0
40
0
40
0
40
0.0016366483116094
40
0.0089804995451165
40
0.0163243507786236
40
0.0236682020121307
40
0.0310120532456378
40
0.0383559044791449
40
0.0456997557126519
40
0.053043606946159
40
0.0603874581796661
40
0.0677313094131732
40
0.0750751606466803
40
0.0824190118801874
40
0.0897628631136945
40
0.0971067143472016
40
0.104450565580709
40
0.111794416814216
40
0.119138268047723
40
0.12648211928123
40
0.133825970514737
40
0.141169821748244
40
0.148513672981751
40
0.163201375448765
40
0.177889077915779
40
0.192576780382794
40
0.207264482849808
40
0.214608334083315
40
0.221952185316822
40
0.229296036550329
40
0.236639887783836
40
0.25132759025085
40
0.266015292717865
40
0.273359143951372
40
0.280702995184879
40
0.288046846418386
40
0.295390697651893
40
0.3027345488854
40
0.310078400118907
40
0.324766102585921
40
0.332109953819428
40
0.339453805052935
40
0.35414150751995
40
0.368829209986964
40
0.376173061220471
40
0.383516912453978
40
0.398204614920992
40
0.405548466154499
40
0.409220391771253
40
0.412892317388006
40
0.420236168621513
40
0.42758001985502
40
0.442267722322035
40
0.449611573555542
40
0.456955424789049
40
0.464299276022556
40
0.471643127256063
40
0.47898697848957
40
0.486330829723077
40
0.493674680956584
40
0.501018532190091
40
0.508362383423599
40
0.515706234657106
40
0.53039393712412
40
0.537737788357627
40
0.545081639591134
40
0.552425490824641
40
0.556097416441395
40
0.559769342058148
40
0.567113193291655
40
0.574457044525162
40
0.581800895758669
40
0.589144746992176
40
0.596488598225684
40
0.603832449459191
40
0.618520151926205
40
0.633207854393219
40
0.640551705626726
40
0.647895556860233
40
0.662583259327247
40
0.669927110560754
40
0.677270961794262
40
0.684614813027769
40
0.691958664261276
40
0.699302515494783
40
0.70664636672829
40
0.713990217961797
40
0.721334069195304
40
0.736021771662318
40
0.743365622895825
40
0.750709474129332
40
0.758053325362839
40
0.765397176596347
40
0.772741027829854
40
0.780084879063361
40
0.794772581530375
40
0.802116432763882
40
0.809460283997389
40
0.816804135230896
40
0.824147986464403
40
0.838835688931417
40
0.853523391398432
40
0.868211093865446
40
0.875554945098953
40
0.88289879633246
40
0.890242647565967
40
0.897586498799474
40
0.904930350032981
40
0.912274201266488
40
0.919618052499995
40
0.926961903733503
40
0.93430575496701
40
0.941649606200517
40
0.948993457434024
40
0.956337308667531
40
0.963681159901038
40
0.971025011134545
40
0.978368862368052
40
0.985712713601559
40
0.993056564835066
40
1
40
1
40
1
40
1
41
1
10
-1.49503997793926
20
2.5946511583831
30
0
41
1
10
-1.49503997793926
20
2.60647323876157
30
0
41
1
10
-1.49503997793931
20
2.67130381064959
30
0
41
1
10
-1.49503997793931
20
2.78881794429316
30
0
41
1
10
-1.49503997793931
20
2.94652918151195
30
0
41
1
10
-1.49503997793931
20
3.1033357799555
30
0
41
1
10
-1.49503997793931
20
3.25922165821993
30
0
41
1
10
-1.49503997793931
20
3.41417271020589
30
0
41
1
10
-1.49503997793931
20
3.56817690176541
30
0
41
1
10
-1.49503997793931
20
3.7212231412766
30
0
41
1
10
-1.49503997793931
20
3.87330192992579
30
0
41
1
10
-1.49503997793931
20
4.02440432752809
30
0
41
1
10
-1.49503997793931
20
4.17452288947305
30
0
41
1
10
-1.49503997793931
20
4.32365113214263
30
0
41
1
10
-1.49503997793931
20
4.47178260268987
30
0
41
1
10
-1.49503997793931
20
4.61891156596767
30
0
41
1
10
-1.49503997793931
20
4.76503324286352
30
0
41
1
10
-1.49503997793931
20
4.91014315579861
30
0
41
1
10
-1.49503997793931
20
5.05423706888553
30
0
41
1
10
-1.49503997793931
20
5.19731095553271
30
0
41
1
10
-1.49503997793931
20
5.33936157753737
30
0
41
1
10
-1.49503997793931
20
5.48038541909955
30
0
41
1
10
-1.49503997793931
20
5.66717892097091
30
0
41
1
10
-1.49503997793931
20
5.89779783511921
30
0
41
1
10
-1.49503997793931
20
6.17053536578157
30
0
41
1
10
-1.49503997793931
20
6.43910149333703
30
0
41
1
10
-1.49503997793931
20
6.6592985841524
30
0
41
1
10
-1.49503997793931
20
6.83355373772451
30
0
41
1
10
-1.49503997793931
20
6.96311018452548
30
0
41
1
10
-1.49503997793931
20
7.09160986883529
30
0
41
1
10
-1.49503997793931
20
7.26163681175802
30
0
41
1
10
-1.49503997793931
20
7.47128766686797
30
0
41
1
10
-1.49503997793931
20
7.67738589461936
30
0
41
1
10
-1.49503997793931
20
7.84029852533041
30
0
41
1
10
-1.49503997793931
20
7.96134016006346
30
0
41
1
10
-1.49503997793931
20
8.08130642958628
30
0
41
1
10
-1.49503997793931
20
8.20019570647173
30
0
41
1
10
-1.49503997793931
20
8.31800483202284
30
0
41
1
10
-1.49503997793931
20
8.47372854841308
30
0
41
1
10
-1.49503997793931
20
8.62702158956
30
0
41
1
10
-1.49503997793931
20
8.77838738443313
30
0
41
1
10
-1.49503997793931
20
8.9282953771297
30
0
41
1
10
-1.49503997793931
20
9.11275363063515
30
0
41
1
10
-1.49503997793931
20
9.29353602958128
30
0
41
1
10
-1.49503997793931
20
9.43608246295526
30
0
41
1
10
-1.49503997793931
20
9.57714511427093
30
0
41
1
10
-1.49503997793931
20
9.71574944153576
30
0
41
1
10
-1.49503997793931
20
9.83522786489038
30
0
41
1
10
-1.49503997793931
20
9.90295235506755
30
0
41
1
10
-1.49503997793931
20
9.97030026745779
30
0
41
1
10
-1.49503997793931
20
10.0536983054632
30
0
41
1
10
-1.49503997793931
20
10.1857467684219
30
0
41
1
10
-1.49503997793931
20
10.3153089364436
30
0
41
1
10
-1.49503997793931
20
10.4427777751693
30
0
41
1
10
-1.49503997793931
20
10.5371758780398
30
0
41
1
10
-1.49503997793931
20
10.6304166849825
30
0
41
1
10
-1.49503997793931
20
10.7224950378189
30
0
41
1
10
-1.49503997793931
20
10.8134057967923
30
0
41
1
10
-1.49503997793931
20
10.9031442025602
30
0
41
1
10
-1.49503997793931
20
10.9917054044732
30
0
41
1
10
-1.49503997793931
20
11.0790834423827
30
0
41
1
10
-1.49503997793931
20
11.1652732784127
30
0
41
1
10
-1.49503997793931
20
11.278660103453
30
0
41
1
10
-1.49503997793931
20
11.3894728900619
30
0
41
1
10
-1.49503997793931
20
11.4980348993556
30
0
41
1
10
-1.49503997793931
20
11.5781957241672
30
0
41
1
10
-1.49503997793931
20
11.643948764099
30
0
41
1
10
-1.49503997793931
20
11.6959849101866
30
0
41
1
10
-1.49503997793931
20
11.7476093345099
30
0
41
1
10
-1.49503997793931
20
11.8113057028001
30
0
41
1
10
-1.49503997793931
20
11.8865286504803
30
0
41
1
10
-1.49503997793931
20
11.9605000871413
30
0
41
1
10
-1.49503997793931
20
12.0332119345842
30
0
41
1
10
-1.49503997793931
20
12.1046570208052
30
0
41
1
10
-1.49503997793931
20
12.1982668977617
30
0
41
1
10
-1.49503997793931
20
12.3119621458456
30
0
41
1
10
-1.49503997793931
20
12.4213295833849
30
0
41
1
10
-1.49503997793931
20
12.50627175547
30
0
41
1
10
-1.49503997793931
20
12.5894449005116
30
0
41
1
10
-1.49503997793931
20
12.6698142834541
30
0
41
1
10
-1.49503997793931
20
12.74760324418
30
0
41
1
10
-1.49503997793931
20
12.8045464062654
30
0
41
1
10
-1.49503997793931
20
12.860113205584
30
0
41
1
10
-1.49503997793931
20
12.9142925944038
30
0
41
1
10
-1.49503997793931
20
12.9670724273822
30
0
41
1
10
-1.49503997793931
20
13.0184419638584
30
0
41
1
10
-1.49503997793931
20
13.0683888145289
30
0
41
1
10
-1.49503997793931
20
13.1331066142243
30
0
41
1
10
-1.49503997793931
20
13.1948224098965
30
0
41
1
10
-1.49503997793931
20
13.2536925499096
30
0
41
1
10
-1.49503997793931
20
13.2963307178616
30
0
41
1
10
-1.49503997793931
20
13.3374647662751
30
0
41
1
10
-1.49503997793931
20
13.3770798968994
30
0
41
1
10
-1.49503997793931
20
13.4151607370273
30
0
41
1
10
-1.49503997793931
20
13.4638962341071
30
0
41
1
10
-1.49503997793931
20
13.509413016618
30
0
41
1
10
-1.49503997793931
20
13.5518061457237
30
0
41
1
10
-1.49503997793931
20
13.5819600687286
30
0
41
1
10
-1.49503997793931
20
13.6104729008558
30
0
41
1
10
-1.49503997793931
20
13.6462985077496
30
0
41
1
10
-1.49503997793931
20
13.6868269300449
30
0
41
1
10
-1.49503997793931
20
13.7285859139399
30
0
41
1
10
-1.49503997793931
20
13.7574597557179
30
0
41
1
10
-1.49503997793931
20
13.7769347476405
30
0
41
1
10
-1.49503997793931
20
13.7896781830989
30
0
41
1
10
-1.49503997793931
20
13.8005402090708
30
0
41
1
10
-1.49503997793931
20
13.8094909095343
30
0
41
1
10
-1.49503997793931
20
13.8164982902869
30
0
41
1
10
-1.49503997793931
20
13.8215305966481
30
0
41
1
10
-1.49503997793931
20
13.8245539604949
30
0
41
1
10
-1.49503997793931
20
13.8255323712897
30
0
41
1
10
-1.49503997793931
20
13.8244272746327
30
0
41
1
10
-1.49503997793931
20
13.8211992752721
30
0
41
1
10
-1.49503997793931
20
13.8158072842266
30
0
41
1
10
-1.49503997793931
20
13.808208301662
30
0
41
1
10
-1.49503997793931
20
13.7983568536387
30
0
41
1
10
-1.49503997793931
20
13.7862048388089
30
0
41
1
10
-1.49503997793931
20
13.7717019129112
30
0
41
1
10
-1.49503997793931
20
13.7547954355729
30
0
41
1
10
-1.49503997793931
20
13.7357814265632
30
0
41
1
10
-1.49503997793931
20
13.7216348217144
30
0
41
1
10
-1.49503997793931
20
13.714376008137
30
0
0
SPLINE
5
1C2
100
AcDbEntity
8
SK1
62
256
6
ByLayer
370
18
48
1
60
0
100
AcDbSpline
70
4
71
3
72
24
73
20
40
0
40
0
40
0
40
0
40
0.408002420194557
40
0.408002420194557
40
0.586477084363333
40
0.586477084363333
40
0.763728221544512
40
0.763728221544512
40
0.834648330426419
40
0.834648330426419
40
0.871680147904134
40
0.871680147904134
40
0.90931586370464
40
0.90931586370464
40
0.941446160303603
40
0.941446160303603
40
0.988233002766686
40
0.988233002766686
40
1
40
1
40
1
40
1
41
1
10
-1.30710678118658
20
3.62781725664615
30
0
41
1
10
-1.25754709276271
20
3.87919081380426
30
0
41
1
10
-1.19771793926941
20
4.1258004888399
30
0
41
1
10
-1.07980138365167
20
4.46640123366592
30
0
41
1
10
-1.03947389583288
20
4.56855181342547
30
0
41
1
10
-0.943165684412463
20
4.76452984977919
30
0
41
1
10
-0.887972849225264
20
4.86076144162985
30
0
41
1
10
-0.781589632759733
20
4.97623115222154
30
0
41
1
10
-0.746942513659519
20
5.00751721259149
30
0
41
1
10
-0.685298347589651
20
5.04425501792008
30
0
41
1
10
-0.662073057062685
20
5.05499571071988
30
0
41
1
10
-0.61285810518973
20
5.06918922724969
30
0
41
1
10
-0.586087478285776
20
5.07253385323435
30
0
41
1
10
-0.537899014579011
20
5.06994558199369
30
0
41
1
10
-0.515734678473677
20
5.06532466911642
30
0
41
1
10
-0.465255653618954
20
5.04798484569733
30
0
41
1
10
-0.437776087568864
20
5.03248974169179
30
0
41
1
10
-0.406986543980793
20
5.01034621255963
30
0
41
1
10
-0.400907252385935
20
5.00570060770792
30
0
41
1
10
-0.394976888875306
20
5.00092441402836
30
0
0
SPLINE
5
1C3
100
AcDbEntity
8
1
62
256
6
ByLayer
370
18
48
1
60
0
100
AcDbSpline
70
4
71
2
72
6
73
3
40
0
40
0
40
0
40
1
40
1
40
1
41
0.500000023094505
10
206.603660145921
20
-20.0638310206116
30
0
41
0.499999976905495
10
206.593351988406
20
-20.0575235694334
30
0
41
0.500000023094505
10
206.583048683449
20
-20.0512059970876
30
0
0
SPLINE
5
1C4
100
AcDbEntity
8
1
62
256
6
ByLayer
370
18
48
1
60
0
100
AcDbSpline
70
4
71
3
72
11
73
7
40
0
40
0
40
0
40
0
40
0.0087711293986512
40
0.355012703109513
40
0.866990990444376
40
1
40
1
40
1
40
1
41
1
10
217.821252532259
20
-0.252029444325103
30
0
41
1
10
217.822312322875
20
-0.250525767897898
30
0
41
1
10
217.864865829478
20
-0.189734095278197
30
0
41
1
10
217.935818243043
20
-0.0485650242632119
30
0
41
1
10
217.989540509574
20
0.0952038968695206
30
0
41
1
10
218.016550151815
20
0.221848866848404
30
0
41
1
10
218.021679525963
20
0.248587915162943
30
0
0
SPLINE
5
1C5
100
AcDbEntity
8
1
62
256
6
ByLayer
370
18
48
1
60
0
100
AcDbSpline
70
4
71
3
72
8
73
4
40
0
40
0
40
0
40
0
40
1
40
1
40
1
40
1
41
1
10
217.669735775697
20
1.961005377356
30
0
41
1
10
217.727697128798
20
1.961005377356
30
0
41
1
10
217.842488997179
20
1.961005377356
30
0
41
1
10
218.012910775696
20
1.961005377356
30
0
0
SPLINE
5
1C6
100
AcDbEntity
8
1
62
256
6
ByLayer
370
18
48
1
60
0
100
AcDbSpline
70
4
71
3
72
8
73
4
40
0
40
0
40
0
40
0
40
1
40
1
40
1
40
1
41
1
10
217.626343775697
20
7.04100537735599
30
0
41
1
10
217.637509001438
20
7.04100537735604
30
0
41
1
10
217.767558854323
20
7.04100537735604
30
0
41
1
10
218.012910775696
20
7.04100537735604
30
0
0
SPLINE
5
1C7
100
AcDbEntity
8
1
62
256
6
ByLayer
370
18
48
1
60
0
100
AcDbSpline
70
4
71
3
72
20
73
16
40
0
40
0
40
0
40
0
40
0.249999999999996
40
0.249999999999996
40
0.374999999999991
40
0.374999999999991
40
0.499999999999987
40
0.499999999999987
40
0.562499999999987
40
0.562499999999987
40
0.624999999999986
40
0.624999999999986
40
0.749999999999989
40
0.749999999999989
40
1
40
1
40
1
40
1
41
1
10
218.012910775695
20
7.04100537735621
30
0
41
1
10
217.956681741955
20
6.83363888592885
30
0
41
1
10
217.912630229055
20
6.62476022771193
30
0
41
1
10
217.87286945173
20
6.30817433998351
30
0
41
1
10
217.864012462771
20
6.20209975414895
30
0
41
1
10
217.856248999671
20
5.98871495839467
30
0
41
1
10
217.857351124413
20
5.88140368069225
30
0
41
1
10
217.867007018443
20
5.71944301280075
30
0
41
1
10
217.87156993429
20
5.66518260805742
30
0
41
1
10
217.883280069368
20
5.55715487024708
30
0
41
1
10
217.89042485439
20
5.5033286667923
30
0
41
1
10
217.915560911336
20
5.34238868722048
30
0
41
1
10
217.937262539336
20
5.23581480115934
30
0
41
1
10
218.015407262114
20
4.91799055636238
30
0
41
1
10
218.084839385404
20
4.70863021766354
30
0
41
1
10
218.166198598166
20
4.50100537735591
30
0
0
SPLINE
5
1C8
100
AcDbEntity
8
1
62
256
6
ByLayer
370
18
48
1
60
0
100
AcDbSpline
70
4
71
3
72
20
73
16
40
0
40
0
40
0
40
0
40
0.249999999999999
40
0.249999999999999
40
0.374999999999996
40
0.374999999999996
40
0.499999999999993
40
0.499999999999993
40
0.562499999999992
40
0.562499999999992
40
0.624999999999991
40
0.624999999999991
40
0.749999999999993
40
0.749999999999993
40
1
40
1
40
1
40
1
41
1
10
218.012910775695
20
1.96100537735583
30
0
41
1
10
217.956681741955
20
2.1683718687832
30
0
41
1
10
217.912630229055
20
2.37725052700012
30
0
41
1
10
217.87286945173
20
2.69383641472854
30
0
41
1
10
217.864012462771
20
2.7999110005631
30
0
41
1
10
217.856248999671
20
3.01329579631738
30
0
41
1
10
217.857351124413
20
3.12060707401975
30
0
41
1
10
217.867007018443
20
3.28256774191124
30
0
41
1
10
217.87156993429
20
3.33682814665463
30
0
41
1
10
217.883280069368
20
3.44485588446497
30
0
41
1
10
217.89042485439
20
3.49868208791975
30
0
41
1
10
217.915560911336
20
3.65962206749157
30
0
41
1
10
217.937262539335
20
3.76619595355265
30
0
41
1
10
218.015407262114
20
4.08402019834961
30
0
41
1
10
218.084839385404
20
4.29338053704845
30
0
41
1
10
218.166198598166
20
4.50100537735614
30
0
0
SPLINE
5
1C9
100
AcDbEntity
8
1
62
256
6
ByLayer
370
18
48
1
60
0
100
AcDbSpline
70
4
71
3
72
8
73
4
40
0
40
0
40
0
40
0
40
1
40
1
40
1
40
1
41
1
10
205.533700860021
20
-2.41788284715341
30
0
41
1
10
206.867034193354
20
-2.41788284715341
30
0
41
1
10
208.200367526687
20
-2.41788284715341
30
0
41
1
10
209.533700860021
20
-2.41788284715341
30
0
0
SPLINE
5
1CA
100
AcDbEntity
8
1
62
256
6
ByLayer
370
18
48
1
60
0
100
AcDbSpline
70
4
71
3
72
8
73
4
40
0
40
0
40
0
40
0
40
1
40
1
40
1
40
1
41
1
10
205.533700860021
20
-3.63845076733759
30
0
41
1
10
205.533700860021
20
-3.23159479394286
30
0
41
1
10
205.533700860021
20
-2.82473882054813
30
0
41
1
10
205.533700860021
20
-2.41788284715341
30
0
0
SPLINE
5
1CB
100
AcDbEntity
8
1
62
256
6
ByLayer
370
18
48
1
60
0
100
AcDbSpline
70
4
71
3
72
18
73
14
40
0
40
0
40
0
40
0
40
0.191325435437368
40
0.191325435437368
40
0.382650870874737
40
0.382650870874737
40
0.536214707212625
40
0.536214707212625
40
0.690626528447002
40
0.690626528447002
40
0.845885455798056
40
0.845885455798056
40
1
40
1
40
1
40
1
41
1
10
207.66212245122
20
-4.23195294180681
30
0
41
1
10
207.59049287844
20
-4.42514813239262
30
0
41
1
10
207.469745884323
20
-4.57413764377662
30
0
41
1
10
207.127970494198
20
-4.78206806076304
30
0
41
1
10
206.926384410801
20
-4.83445997685413
30
0
41
1
10
206.505816490617
20
-4.83445997685413
30
0
41
1
10
206.331858956721
20
-4.80253365298614
30
0
41
1
10
206.009662016825
20
-4.67611752879782
30
0
41
1
10
205.885709046257
20
-4.59787773075539
30
0
41
1
10
205.711274345232
20
-4.41071955741961
30
0
41
1
10
205.645238337636
20
-4.29498696585387
30
0
41
1
10
205.555521597174
20
-4.0144182502271
30
0
41
1
10
205.533700860021
20
-3.84146944219049
30
0
41
1
10
205.533700860021
20
-3.63845076733759
30
0
0
SPLINE
5
1CC
100
AcDbEntity
8
1
62
256
6
ByLayer
370
18
48
1
60
0
100
AcDbSpline
70
4
71
3
72
18
73
14
40
0
40
0
40
0
40
0
40
0.252026352812658
40
0.252026352812658
40
0.405612964547161
40
0.405612964547161
40
0.559855857536001
40
0.559855857536001
40
0.714098750524839
40
0.714098750524839
40
0.85720187902004
40
0.85720187902004
40
1
40
1
40
1
40
1
41
1
10
209.533700860021
20
-2.41788284715341
30
0
41
1
10
209.533700860021
20
-2.81818983103676
30
0
41
1
10
209.533700860021
20
-3.21849681492012
30
0
41
1
10
209.533700860021
20
-3.86275365810252
30
0
41
1
10
209.492769675574
20
-4.05922334344405
30
0
41
1
10
209.330746068603
20
-4.35455751311298
30
0
41
1
10
209.206251384451
20
-4.47017243528336
30
0
41
1
10
208.870615671993
20
-4.63717166782368
30
0
41
1
10
208.694611578874
20
-4.67892147595876
30
0
41
1
10
208.339533553804
20
-4.67892147595876
30
0
41
1
10
208.178878654853
20
-4.64208340995719
30
0
41
1
10
207.876310678001
20
-4.4932526753978
30
0
41
1
10
207.754217616224
20
-4.38176107687968
30
0
41
1
10
207.66212245122
20
-4.23195294180681
30
0
0
SPLINE
5
1CD
100
AcDbEntity
8
1
62
256
6
ByLayer
370
18
48
1
60
0
100
AcDbSpline
70
4
71
3
72
32
73
28
40
0
40
0
40
0
40
0
40
0.062500000000096
40
0.062500000000096
40
0.0937500000000893
40
0.0937500000000893
40
0.125000000000082
40
0.125000000000082
40
0.187500000000066
40
0.187500000000066
40
0.218750000000056
40
0.218750000000056
40
0.250000000000046
40
0.250000000000046
40
0.375000000000082
40
0.375000000000082
40
0.437500000000097
40
0.437500000000097
40
0.500000000000113
40
0.500000000000113
40
0.625000000000085
40
0.625000000000085
40
0.750000000000057
40
0.750000000000057
40
0.875000000000028
40
0.875000000000028
40
1
40
1
40
1
40
1
41
1
10
218.836586426801
20
-20.9728325295357
30
0
41
1
10
218.851764324136
20
-20.9728325295357
30
0
41
1
10
218.866543150054
20
-20.9719582154041
30
0
41
1
10
218.888191588368
20
-20.9695064117666
30
0
41
1
10
218.895357433785
20
-20.9684919321486
30
0
41
1
10
218.909351810741
20
-20.9661327969677
30
0
41
1
10
218.916129423521
20
-20.964799546943
30
0
41
1
10
218.935902784897
20
-20.9604072067669
30
0
41
1
10
218.948343928503
20
-20.9569589188109
30
0
41
1
10
218.9661584079
20
-20.9511877200003
30
0
41
1
10
218.971954118823
20
-20.949161895182
30
0
41
1
10
218.983140424224
20
-20.9449904979192
30
0
41
1
10
218.988553958609
20
-20.9428377462114
30
0
41
1
10
219.014853679828
20
-20.9317855180472
30
0
41
1
10
219.033503885353
20
-20.9220452159068
30
0
41
1
10
219.059273090835
20
-20.9065791231423
30
0
41
1
10
219.067465814438
20
-20.9012840534424
30
0
41
1
10
219.083041513192
20
-20.8905759626853
30
0
41
1
10
219.090452726268
20
-20.8851456160983
30
0
41
1
10
219.111757599201
20
-20.8686611019893
30
0
41
1
10
219.124732826205
20
-20.8574153011221
30
0
41
1
10
219.148882502451
20
-20.8345258271589
30
0
41
1
10
219.160049997275
20
-20.8228809102048
30
0
41
1
10
219.180947068128
20
-20.7992554830258
30
0
41
1
10
219.19067379809
20
-20.7872744655892
30
0
41
1
10
219.208920411892
20
-20.7630157156177
30
0
41
1
10
219.217452633334
20
-20.7507150908665
30
0
41
1
10
219.225413830997
20
-20.7383511521115
30
0
0
SPLINE
5
1CE
100
AcDbEntity
8
1
62
256
6
ByLayer
370
18
48
1
60
0
100
AcDbSpline
70
4
71
3
72
18
73
14
40
0
40
0
40
0
40
0
40
0.250000000000007
40
0.250000000000007
40
0.500000000000015
40
0.500000000000015
40
0.562500000000016
40
0.562500000000016
40
0.625000000000018
40
0.625000000000018
40
0.750000000000022
40
0.750000000000022
40
1
40
1
40
1
40
1
41
1
10
208.437173774675
20
-20.5858461482577
30
0
41
1
10
208.639715895881
20
-20.6441392800199
30
0
41
1
10
208.847084329093
20
-20.6971721745913
30
0
41
1
10
209.273798718909
20
-20.791310475009
30
0
41
1
10
209.493134223598
20
-20.8324267458913
30
0
41
1
10
209.776776063457
20
-20.8750344782337
30
0
41
1
10
209.83398065758
20
-20.883114322384
30
0
41
1
10
209.949403569209
20
-20.8983466713503
30
0
41
1
10
210.007666373785
20
-20.9055018961773
30
0
41
1
10
210.182674178359
20
-20.9253581955954
30
0
41
1
10
210.300067484387
20
-20.9365109933971
30
0
41
1
10
210.654530648188
20
-20.9634859192121
30
0
41
1
10
210.893886265051
20
-20.9728325295357
30
0
41
1
10
211.136586426801
20
-20.9728325295358
30
0
0
SPLINE
5
1CF
100
AcDbEntity
8
1
62
256
6
ByLayer
370
18
48
1
60
0
100
AcDbSpline
70
4
71
3
72
16
73
12
40
0
40
0
40
0
40
0
40
0.250000000000003
40
0.250000000000003
40
0.375000000000005
40
0.375000000000005
40
0.500000000000004
40
0.500000000000004
40
0.750000000000002
40
0.750000000000002
40
1
40
1
40
1
40
1
41
1
10
215.07611467967
20
-15.9693967474224
30
0
41
1
10
215.07611467967
20
-15.8936228004857
30
0
41
1
10
215.080625661114
20
-15.8172320690967
30
0
41
1
10
215.094756356254
20
-15.7016933848005
30
0
41
1
10
215.1006990371
20
-15.6630177547119
30
0
41
1
10
215.115208338704
20
-15.5853572659781
30
0
41
1
10
215.123725018853
20
-15.5466408531895
30
0
41
1
10
215.153201027757
20
-15.4308713266458
30
0
41
1
10
215.178059517294
20
-15.3541926843699
30
0
41
1
10
215.239482929037
20
-15.2021464632848
30
0
41
1
10
215.276025823385
20
-15.1267744366383
30
0
41
1
10
215.319607796827
20
-15.0523187715147
30
0
0
SPLINE
5
1D0
100
AcDbEntity
8
1
62
256
6
ByLayer
370
18
48
1
60
0
100
AcDbSpline
70
4
71
3
72
22
73
18
40
0
40
0
40
0
40
0
40
0.125919801008143
40
0.125919801008143
40
0.228173823812627
40
0.228173823812627
40
0.362000949327648
40
0.362000949327648
40
0.497453699158084
40
0.497453699158084
40
0.624996799363384
40
0.624996799363384
40
0.753577031326437
40
0.753577031326437
40
0.881194351724583
40
0.881194351724583
40
1
40
1
40
1
40
1
41
1
10
207.852452458895
20
-2.84111129432659
30
0
41
1
10
207.852452458895
20
-3.0719631746029
30
0
41
1
10
207.852452458895
20
-3.3028150548792
30
0
41
1
10
207.852452458895
20
-3.72113175991882
30
0
41
1
10
207.868824932673
20
-3.85538604490222
30
0
41
1
10
207.939700489163
20
-4.04438752887512
30
0
41
1
10
208.005944400568
20
-4.12635048593575
30
0
41
1
10
208.19125342859
20
-4.23506511570855
30
0
41
1
10
208.307811885858
20
-4.26224201829694
30
0
41
1
10
208.580004262425
20
-4.26224201829694
30
0
41
1
10
208.697681417708
20
-4.23686468394032
30
0
41
1
10
208.899059671537
20
-4.13494262894079
30
0
41
1
10
208.968850514664
20
-4.0624978381997
30
0
41
1
10
209.04225077378
20
-3.87328828136674
30
0
41
1
10
209.061968959279
20
-3.71048965196286
30
0
41
1
10
209.061968959279
20
-3.26788711081849
30
0
41
1
10
209.061968959279
20
-3.05449920257252
30
0
41
1
10
209.061968959279
20
-2.84111129432659
30
0
0
SPLINE
5
1D1
100
AcDbEntity
8
1
62
256
6
ByLayer
370
18
48
1
60
0
100
AcDbSpline
70
4
71
3
72
8
73
4
40
0
40
0
40
0
40
0
40
1
40
1
40
1
40
1
41
1
10
209.061968959279
20
-2.84111129432659
30
0
41
1
10
208.658796792484
20
-2.84111129432659
30
0
41
1
10
208.25562462569
20
-2.84111129432659
30
0
41
1
10
207.852452458895
20
-2.84111129432659
30
0
0
SPLINE
5
1D2
100
AcDbEntity
8
1
62
256
6
ByLayer
370
18
48
1
60
0
100
AcDbSpline
70
4
71
3
72
8
73
4
40
0
40
0
40
0
40
0
40
1
40
1
40
1
40
1
41
1
10
207.380720558153
20
-2.84111129432659
30
0
41
1
10
206.922291292356
20
-2.84111129432659
30
0
41
1
10
206.463862026559
20
-2.84111129432659
30
0
41
1
10
206.005432760762
20
-2.84111129432659
30
0
0
SPLINE
5
1D3
100
AcDbEntity
8
1
62
256
6
ByLayer
370
18
48
1
60
0
100
AcDbSpline
70
4
71
3
72
18
73
14
40
0
40
0
40
0
40
0
40
0.144086644560488
40
0.144086644560488
40
0.28773106250512
40
0.28773106250512
40
0.456860780407672
40
0.456860780407672
40
0.627194363444233
40
0.627194363444233
40
0.795871414023978
40
0.795871414023978
40
1
40
1
40
1
40
1
41
1
10
206.134365991768
20
-4.17055616513755
30
0
41
1
10
206.184506692714
20
-4.2360460602514
30
0
41
1
10
206.259206104329
20
-4.29007522372029
30
0
41
1
10
206.453330871494
20
-4.37508143755269
30
0
41
1
10
206.566189987675
20
-4.39567767959136
30
0
41
1
10
206.842475482686
20
-4.39567767959136
30
0
41
1
10
206.972431993303
20
-4.36538860310122
30
0
41
1
10
207.192193186318
20
-4.24215802757834
30
0
41
1
10
207.269183080537
20
-4.15827680980374
30
0
41
1
10
207.358793814833
20
-3.94158176141582
30
0
41
1
10
207.380720558153
20
-3.7849844076548
30
0
41
1
10
207.380720558153
20
-3.3344685041842
30
0
41
1
10
207.380720558153
20
-3.08778989925543
30
0
41
1
10
207.380720558153
20
-2.84111129432659
30
0
0
SPLINE
5
1D4
100
AcDbEntity
8
1
62
256
6
ByLayer
370
18
48
1
60
0
100
AcDbSpline
70
4
71
3
72
10
73
6
40
0
40
0
40
0
40
0
40
0.660338983050848
40
0.660338983050848
40
1
40
1
40
1
40
1
41
1
10
206.005432760762
20
-2.84111129432659
30
0
41
1
10
206.005432760762
20
-3.10689111866361
30
0
41
1
10
206.005432760762
20
-3.37267094300063
30
0
41
1
10
206.005432760762
20
-3.77516092338777
30
0
41
1
10
206.011572438429
20
-3.87093989499175
30
0
41
1
10
206.024875073374
20
-3.9266063058385
30
0
0
SPLINE
5
1D5
100
AcDbEntity
8
1
62
256
6
ByLayer
370
18
48
1
60
0
100
AcDbSpline
70
4
71
3
72
8
73
4
40
0
40
0
40
0
40
0
40
1
40
1
40
1
40
1
41
1
10
206.024875073374
20
-3.9266063058385
30
0
41
1
10
206.046363945209
20
-4.02402252482034
30
0
41
1
10
206.08320201121
20
-4.10506627002371
30
0
41
1
10
206.134365991768
20
-4.17055616513755
30
0
0
SPLINE
5
1D6
100
AcDbEntity
8
1
62
256
6
ByLayer
370
18
48
1
60
0
100
AcDbSpline
70
4
71
3
72
14
73
10
40
0
40
0
40
0
40
0
40
0.30243953589274
40
0.30243953589274
40
0.604832503932935
40
0.604832503932935
40
0.907857367030919
40
0.907857367030919
40
1
40
1
40
1
40
1
41
1
10
210.601481908329
20
-21.2940067876177
30
0
41
1
10
210.511819043526
20
-21.290022847999
30
0
41
1
10
210.420969506744
20
-21.2864080834703
30
0
41
1
10
210.251945369627
20
-21.2808319131637
30
0
41
1
10
210.171435407306
20
-21.278807484248
30
0
41
1
10
210.031492490495
20
-21.2774451965931
30
0
41
1
10
209.970165820529
20
-21.2781170264629
30
0
41
1
10
209.908015901346
20
-21.28134418399
30
0
41
1
10
209.894577343473
20
-21.2822746079073
30
0
41
1
10
209.882446671289
20
-21.2833808482831
30
0
0
SPLINE
5
1D7
100
AcDbEntity
8
1
62
256
6
ByLayer
370
18
48
1
60
0
100
AcDbSpline
70
4
71
3
72
8
73
4
40
0
40
0
40
0
40
0
40
1
40
1
40
1
40
1
41
1
10
196.179616843748
20
17.4837366463856
30
0
41
1
10
196.165488234072
20
17.4310079572345
30
0
41
1
10
196.151353600202
20
17.3782567854841
30
0
41
1
10
196.13720852857
20
17.3254666594756
30
0
0
SPLINE
5
1D8
100
AcDbEntity
8
1
62
256
6
ByLayer
370
18
48
1
60
0
100
AcDbSpline
70
4
71
3
72
28
73
24
40
0
40
0
40
0
40
0
40
0.108288540731954
40
0.108288540731954
40
0.225253580018362
40
0.225253580018362
40
0.342268318548633
40
0.342268318548633
40
0.459393576191648
40
0.459393576191648
40
0.555729824682083
40
0.555729824682083
40
0.63263557324143
40
0.63263557324143
40
0.70474676938618
40
0.70474676938618
40
0.818780459988322
40
0.818780459988322
40
0.901881358114124
40
0.901881358114124
40
0.98496309309793
40
0.98496309309793
40
1
40
1
40
1
40
1
41
1
10
216.826586426802
20
16.0447293144398
30
0
41
1
10
216.838477703961
20
16.0447293144398
30
0
41
1
10
216.850378382881
20
16.0451642190616
30
0
41
1
10
216.875036387667
20
16.0469906007088
30
0
41
1
10
216.887810456244
20
16.0484571978703
30
0
41
1
10
216.913136506772
20
16.0524947075842
30
0
41
1
10
216.92571892243
20
16.0550700886632
30
0
41
1
10
216.950488931963
20
16.0614620642128
30
0
41
1
10
216.962719044414
20
16.0652890717223
30
0
41
1
10
216.984359005543
20
16.0735983956628
30
0
41
1
10
216.993921627794
20
16.0778589420075
30
0
41
1
10
217.010393782336
20
16.0865770208028
30
0
41
1
10
217.017478789144
20
16.0908385949139
30
0
41
1
10
217.030420930656
20
16.0999229865687
30
0
41
1
10
217.036362382608
20
16.1047206687375
30
0
41
1
10
217.050180311917
20
16.1180592243885
30
0
41
1
10
217.057421363037
20
16.127434232799
30
0
41
1
10
217.065547224495
20
16.1448038287636
30
0
41
1
10
217.067664922692
20
16.1526629460511
30
0
41
1
10
217.06866452163
20
16.1681331093896
30
0
41
1
10
217.06756625819
20
16.1759250480495
30
0
41
1
10
217.064714640852
20
16.1845265357263
30
0
41
1
10
217.064229472462
20
16.185845797118
30
0
41
1
10
217.063703649312
20
16.1871499932188
30
0
0
SPLINE
5
1D9
100
AcDbEntity
8
1
62
256
6
ByLayer
370
18
48
1
60
0
100
AcDbSpline
70
4
71
3
72
26
73
22
40
0
40
0
40
0
40
0
40
0.0086569148768278
40
0.0086569148768278
40
0.125591395709174
40
0.125591395709174
40
0.242553460371823
40
0.242553460371823
40
0.359581429952908
40
0.359581429952908
40
0.47675641937469
40
0.47675641937469
40
0.594287938352873
40
0.594287938352873
40
0.734087980384784
40
0.734087980384784
40
0.816818773651442
40
0.816818773651442
40
0.904422913955509
40
0.904422913955509
40
1
40
1
40
1
40
1
41
1
10
216.826586426802
20
16.0447293144398
30
0
41
1
10
216.825634949981
20
16.0447293144398
30
0
41
1
10
216.824683468539
20
16.0447321054946
30
0
41
1
10
216.810889953969
20
16.0448130355455
30
0
41
1
10
216.79803922096
20
16.0453955534446
30
0
41
1
10
216.772459979631
20
16.0476009435859
30
0
41
1
10
216.759705776018
20
16.0492258795131
30
0
41
1
10
216.734439174429
20
16.0535960562923
30
0
41
1
10
216.721895107261
20
16.0563464530564
30
0
41
1
10
216.697233802998
20
16.0631168220135
30
0
41
1
10
216.685071320131
20
16.0671489294603
30
0
41
1
10
216.66150481407
20
16.0767303198434
30
0
41
1
10
216.650025356686
20
16.0823124057143
30
0
41
1
10
216.626607118684
20
16.0965214190698
30
0
41
1
10
216.614710570552
20
16.105695451432
30
0
41
1
10
216.599609711714
20
16.12269063796
30
0
41
1
10
216.59477231201
20
16.1296660395696
30
0
41
1
10
216.587601892307
20
16.1447171344531
30
0
41
1
10
216.585380182153
20
16.1530294161224
30
0
41
1
10
216.584508521954
20
16.170053656101
30
0
41
1
10
216.586176645315
20
16.1789834783319
30
0
41
1
10
216.58946920429
20
16.1871499932188
30
0
0
SPLINE
5
1DA
100
AcDbEntity
8
1
62
256
6
ByLayer
370
18
48
1
60
0
100
AcDbSpline
70
4
71
3
72
8
73
4
40
0
40
0
40
0
40
0
40
1
40
1
40
1
40
1
41
1
10
216.58946920429
20
16.1871499932188
30
0
41
1
10
216.588888134831
20
16.193648459128
30
0
41
1
10
216.588306887577
20
16.2001491279444
30
0
41
1
10
216.587725451394
20
16.2066521383827
30
0
0
SPLINE
5
1DB
100
AcDbEntity
8
1
62
256
6
ByLayer
370
18
48
1
60
0
100
AcDbSpline
70
4
71
3
72
28
73
24
40
0
40
0
40
0
40
0
40
0.108288540731915
40
0.108288540731915
40
0.225253580018327
40
0.225253580018327
40
0.342268318548603
40
0.342268318548603
40
0.459393576191622
40
0.459393576191622
40
0.555729824682063
40
0.555729824682063
40
0.632635573241412
40
0.632635573241412
40
0.704746769386167
40
0.704746769386167
40
0.818780459988313
40
0.818780459988313
40
0.90188135811412
40
0.90188135811412
40
0.984963093097929
40
0.984963093097929
40
1
40
1
40
1
40
1
41
1
10
215.930206832616
20
16.5617538339576
30
0
41
1
10
215.936152471195
20
16.5514656448361
30
0
41
1
10
215.942485006233
20
16.5413837787204
30
0
41
1
10
215.956419298033
20
16.5209504349919
30
0
41
1
10
215.964095453178
20
16.5106215080665
30
0
41
1
10
215.980308517162
20
16.4906995915943
30
0
41
1
10
215.988864557449
20
16.4810824817919
30
0
41
1
10
216.006873425983
20
16.4627999455365
30
0
41
1
10
216.016356645824
20
16.4541028781252
30
0
41
1
10
216.034494581638
20
16.4394686319663
30
0
41
1
10
216.04302964221
20
16.4332905808394
30
0
41
1
10
216.058952203846
20
16.4233236486461
30
0
41
1
10
216.066253716003
20
16.419287194664
30
0
41
1
10
216.080743375783
20
16.4125491446044
30
0
41
1
10
216.087951186372
20
16.4097624382042
30
0
41
1
10
216.106649361845
20
16.4043459669
30
0
41
1
10
216.118564359478
20
16.402671920907
30
0
41
1
10
216.13802034405
20
16.4041325305632
30
0
41
1
10
216.146051622056
20
16.4061378002406
30
0
41
1
10
216.160294015529
20
16.4128165053018
30
0
41
1
10
216.16667574863
20
16.4175609812791
30
0
41
1
10
216.172910508325
20
16.4242110997339
30
0
41
1
10
216.173843149118
20
16.4252722626528
30
0
41
1
10
216.174742309575
20
16.426361120806
30
0
0
SPLINE
5
1DC
100
AcDbEntity
8
1
62
256
6
ByLayer
370
18
48
1
60
0
100
AcDbSpline
70
4
71
3
72
8
73
4
40
0
40
0
40
0
40
0
40
1
40
1
40
1
40
1
41
1
10
216.192934694099
20
16.4343642627155
30
0
41
1
10
216.186868633563
20
16.4316954747649
30
0
41
1
10
216.180804544115
20
16.4290277825547
30
0
41
1
10
216.174742309575
20
16.426361120806
30
0
0
SPLINE
5
1DD
100
AcDbEntity
8
1
62
256
6
ByLayer
370
18
48
1
60
0
100
AcDbSpline
70
4
71
3
72
34
73
30
40
0
40
0
40
0
40
0
40
0.0312499999999684
40
0.0312499999999684
40
0.0624999999999366
40
0.0624999999999366
40
0.12499999999989
40
0.12499999999989
40
0.249999999999869
40
0.249999999999869
40
0.312499999999918
40
0.312499999999918
40
0.374999999999968
40
0.374999999999968
40
0.437500000000017
40
0.437500000000017
40
0.500000000000066
40
0.500000000000066
40
0.625000000000154
40
0.625000000000154
40
0.687500000000128
40
0.687500000000128
40
0.750000000000103
40
0.750000000000103
40
0.875000000000052
40
0.875000000000052
40
0.937500000000026
40
0.937500000000026
40
1
40
1
40
1
40
1
41
1
10
216.587725451394
20
16.2066521383827
30
0
41
1
10
216.587307670007
20
16.2113247693459
30
0
41
1
10
216.586516206493
20
16.2160051643287
30
0
41
1
10
216.584339945598
20
16.2252339747461
30
0
41
1
10
216.582958446851
20
16.2297832461943
30
0
41
1
10
216.578083653322
20
16.2432748902474
30
0
41
1
10
216.573868854545
20
16.2520630538759
30
0
41
1
10
216.558953357595
20
16.2779917209205
30
0
41
1
10
216.546278743069
20
16.2942368482806
30
0
41
1
10
216.524904684829
20
16.317047279908
30
0
41
1
10
216.517342632579
20
16.3244180832947
30
0
41
1
10
216.501576605228
20
16.3386098369619
30
0
41
1
10
216.49337912081
20
16.345428113205
30
0
41
1
10
216.476397315004
20
16.3585576971739
30
0
41
1
10
216.467608598268
20
16.3648687267987
30
0
41
1
10
216.449635097967
20
16.3768836721656
30
0
41
1
10
216.440429385928
20
16.3826043640769
30
0
41
1
10
216.412158698743
20
16.398912365545
30
0
41
1
10
216.392610466662
20
16.4085541360709
30
0
41
1
10
216.36264289391
20
16.4208376175909
30
0
41
1
10
216.352521164273
20
16.4245752244007
30
0
41
1
10
216.33218782225
20
16.4312049858455
30
0
41
1
10
216.321976942388
20
16.4341003929873
30
0
41
1
10
216.291174770037
20
16.4413736624429
30
0
41
1
10
216.270431643897
20
16.4443615732555
30
0
41
1
10
216.240145063826
20
16.4445622918359
30
0
41
1
10
216.230117321449
20
16.4438990399332
30
0
41
1
10
216.210891130755
20
16.440704713781
30
0
41
1
10
216.201650813963
20
16.4381989550219
30
0
41
1
10
216.192934694099
20
16.4343642627155
30
0
0
SPLINE
5
1DE
100
AcDbEntity
8
1
62
256
6
ByLayer
370
18
48
1
60
0
100
AcDbSpline
70
4
71
3
72
8
73
4
40
0
40
0
40
0
40
0
40
1
40
1
40
1
40
1
41
1
10
217.478430544027
20
16.426361120806
30
0
41
1
10
217.472368309487
20
16.4290277825547
30
0
41
1
10
217.466304220039
20
16.4316954747649
30
0
41
1
10
217.460238159503
20
16.4343642627155
30
0
0
SPLINE
5
1DF
100
AcDbEntity
8
1
62
256
6
ByLayer
370
18
48
1
60
0
100
AcDbSpline
70
4
71
3
72
26
73
22
40
0
40
0
40
0
40
0
40
0.0086569148768396
40
0.0086569148768396
40
0.125591395709185
40
0.125591395709185
40
0.242553460371832
40
0.242553460371832
40
0.359581429952915
40
0.359581429952915
40
0.476756419374696
40
0.476756419374696
40
0.594287938352877
40
0.594287938352877
40
0.734087980384786
40
0.734087980384786
40
0.816818773651445
40
0.816818773651445
40
0.90442291395551
40
0.90442291395551
40
1
40
1
40
1
40
1
41
1
10
217.722966020987
20
16.5617538339591
30
0
41
1
10
217.722490282577
20
16.5609306277264
30
0
41
1
10
217.722012088934
20
16.5601087937242
30
0
41
1
10
217.715044206131
20
16.5482147172362
30
0
41
1
10
217.708106920847
20
16.5373836657988
30
0
41
1
10
217.693378810945
20
16.5163401008788
30
0
41
1
10
217.685573331508
20
16.5061063774623
30
0
41
1
10
217.669097194013
20
16.4863996790442
30
0
41
1
10
217.660406183684
20
16.476901854395
30
0
41
1
10
217.64211801612
20
16.4588993144427
30
0
41
1
10
217.63248758974
20
16.4503614476226
30
0
41
1
10
217.612264576788
20
16.4346853966554
30
0
41
1
10
217.601605430892
20
16.4274981147297
30
0
41
1
10
217.577361859763
20
16.4142161810293
30
0
41
1
10
217.563314147463
20
16.4084257732471
30
0
41
1
10
217.54073351762
20
16.4036865810518
30
0
41
1
10
217.532140748004
20
16.4029155693285
30
0
41
1
10
217.515217781787
20
16.4040697935561
30
0
41
1
10
217.506732395007
20
16.4062063080796
30
0
41
1
10
217.491172158624
20
16.4137527626533
30
0
41
1
10
217.484060837856
20
16.419542992526
30
0
41
1
10
217.478430544027
20
16.426361120806
30
0
0
SPLINE
5
1E0
100
AcDbEntity
8
1
62
256
6
ByLayer
370
18
48
1
60
0
100
AcDbSpline
70
4
71
3
72
8
73
4
40
0
40
0
40
0
40
0
40
1
40
1
40
1
40
1
41
1
10
217.065447402209
20
16.2066521383827
30
0
41
1
10
217.064865966025
20
16.2001491279444
30
0
41
1
10
217.064284718772
20
16.193648459128
30
0
41
1
10
217.063703649312
20
16.1871499932188
30
0
0
SPLINE
5
1E1
100
AcDbEntity
8
1
62
256
6
ByLayer
370
18
48
1
60
0
100
AcDbSpline
70
4
71
3
72
30
73
26
40
0
40
0
40
0
40
0
40
0.0212218158422365
40
0.0212218158422365
40
0.126059559525534
40
0.126059559525534
40
0.201107055759459
40
0.201107055759459
40
0.29411228301161
40
0.29411228301161
40
0.397100605352966
40
0.397100605352966
40
0.500042881039266
40
0.500042881039266
40
0.583971495240649
40
0.583971495240649
40
0.66656514848867
40
0.66656514848867
40
0.767859984421263
40
0.767859984421263
40
0.83872056129773
40
0.83872056129773
40
0.909748878403057
40
0.909748878403057
40
1
40
1
40
1
40
1
41
1
10
217.460238159503
20
16.4343642627155
30
0
41
1
10
217.457281187637
20
16.4356651944883
30
0
41
1
10
217.454236074537
20
16.4368202590351
30
0
41
1
10
217.435990951178
20
16.4428056475053
30
0
41
1
10
217.419225973312
20
16.4446451512533
30
0
41
1
10
217.390269432923
20
16.444380183647
30
0
41
1
10
217.377918116216
20
16.4432284553063
30
0
41
1
10
217.350315148957
20
16.4388876363812
30
0
41
1
10
217.334957189865
20
16.4352593736062
30
0
41
1
10
217.302987212249
20
16.4256514023601
30
0
41
1
10
217.286295111077
20
16.4194220686929
30
0
41
1
10
217.253684661807
20
16.4051087784087
30
0
41
1
10
217.237662739222
20
16.3969781651962
30
0
41
1
10
217.209556158839
20
16.3807665163452
30
0
41
1
10
217.197233485492
20
16.3729188536757
30
0
41
1
10
217.173699312182
20
16.3563849650839
30
0
41
1
10
217.162426349128
20
16.3476816283512
30
0
41
1
10
217.13861504496
20
16.327338230445
30
0
41
1
10
217.126275453437
20
16.3154087144727
30
0
41
1
10
217.107324339368
20
16.2940576883622
30
0
41
1
10
217.10006544549
20
16.2849103645605
30
0
41
1
10
217.087094067352
20
16.2659983088515
30
0
41
1
10
217.081339843396
20
16.2561704920045
30
0
41
1
10
217.070836290635
20
16.2333575165947
30
0
41
1
10
217.066636669211
20
16.2199533672143
30
0
41
1
10
217.065447402209
20
16.2066521383827
30
0
0
SPLINE
5
1E2
100
AcDbEntity
8
1
62
256
6
ByLayer
370
18
48
1
60
0
100
AcDbSpline
70
4
71
3
72
28
73
24
40
0
40
0
40
0
40
0
40
0.108288540731942
40
0.108288540731942
40
0.225253580018351
40
0.225253580018351
40
0.342268318548623
40
0.342268318548623
40
0.459393576191638
40
0.459393576191638
40
0.555729824682076
40
0.555729824682076
40
0.632635573241424
40
0.632635573241424
40
0.704746769386176
40
0.704746769386176
40
0.818780459988319
40
0.818780459988319
40
0.901881358114123
40
0.901881358114123
40
0.984963093097928
40
0.984963093097928
40
1
40
1
40
1
40
1
41
1
10
217.722966020987
20
16.5617538339591
30
0
41
1
10
217.728911659567
20
16.5720420230807
30
0
41
1
10
217.734479803449
20
16.582552803787
30
0
41
1
10
217.745203516435
20
16.6047870748474
30
0
41
1
10
217.750301429868
20
16.616562087073
30
0
41
1
10
217.759414416411
20
16.640463755576
30
0
41
1
10
217.763440791782
20
16.6526189533503
30
0
41
1
10
217.770201932781
20
16.6771978421889
30
0
41
1
10
217.772948825391
20
16.6896634654091
30
0
41
1
10
217.776450850706
20
16.7124744843304
30
0
41
1
10
217.777478412385
20
16.722843363342
30
0
41
1
10
217.778028005291
20
16.7413794487645
30
0
41
1
10
217.777811499942
20
16.749602719114
30
0
41
1
10
217.776263981674
20
16.7652594375444
30
0
41
1
10
217.774997623037
20
16.7727536758271
30
0
41
1
10
217.770117376874
20
16.791247415023
30
0
41
1
10
217.76544343036
20
16.8021031086632
30
0
41
1
10
217.754113307246
20
16.8176245123514
30
0
41
1
10
217.748199727438
20
16.823294195744
30
0
41
1
10
217.734956932903
20
16.8317025826186
30
0
41
1
10
217.727476936362
20
16.8345466501158
30
0
41
1
10
217.718390559328
20
16.8362623989333
30
0
41
1
10
217.716972750145
20
16.8364840382105
30
0
41
1
10
217.715547766538
20
16.8366630247104
30
0
0
SPLINE
5
1E3
100
AcDbEntity
8
1
62
256
6
ByLayer
370
18
48
1
60
0
100
AcDbSpline
70
4
71
3
72
26
73
22
40
0
40
0
40
0
40
0
40
0.0086569148768714
40
0.0086569148768714
40
0.125591395709212
40
0.125591395709212
40
0.242553460371855
40
0.242553460371855
40
0.359581429952935
40
0.359581429952935
40
0.476756419374712
40
0.476756419374712
40
0.594287938352889
40
0.594287938352889
40
0.734087980384795
40
0.734087980384795
40
0.816818773651449
40
0.816818773651449
40
0.904422913955512
40
0.904422913955512
40
1
40
1
40
1
40
1
41
1
10
215.930206832616
20
16.5617538339576
30
0
41
1
10
215.929731094205
20
16.5625770401904
30
0
41
1
10
215.929257806406
20
16.5634016266517
30
0
41
1
10
215.92243217464
20
16.5753755139903
30
0
41
1
10
215.916518726914
20
16.586781059981
30
0
41
1
10
215.905667595487
20
16.609999195272
30
0
41
1
10
215.900718871311
20
16.6218350371516
30
0
41
1
10
215.891928407216
20
16.6458490547054
30
0
41
1
10
215.888075350378
20
16.6580571803334
30
0
41
1
10
215.881702213678
20
16.6827279645064
30
0
41
1
10
215.879170157192
20
16.6952357637221
30
0
41
1
10
215.875826664083
20
16.7203386245643
30
0
41
1
10
215.875006352595
20
16.7330151179084
30
0
41
1
10
215.875831685722
20
16.7602555365558
30
0
41
1
10
215.87798284989
20
16.7750506277802
30
0
41
1
10
215.885462620896
20
16.7964415962958
30
0
41
1
10
215.889217990807
20
16.8040411039622
30
0
41
1
10
215.898970537321
20
16.8176028489296
30
0
41
1
10
215.905234213947
20
16.8235837569409
30
0
41
1
10
215.919922790131
20
16.8326385112298
30
0
41
1
10
215.92870223426
20
16.8355422608048
30
0
41
1
10
215.937625087064
20
16.8366630247104
30
0
0
SPLINE
5
1E4
100
AcDbEntity
8
1
62
256
6
ByLayer
370
18
48
1
60
0
100
AcDbSpline
70
4
71
3
72
8
73
4
40
0
40
0
40
0
40
0
40
1
40
1
40
1
40
1
41
1
10
215.937625087064
20
16.8366630247104
30
0
41
1
10
215.943106252145
20
16.8403351549902
30
0
41
1
10
215.948589094339
20
16.8440086233823
30
0
41
1
10
215.954073718691
20
16.847683514435
30
0
0
SPLINE
5
1E5
100
AcDbEntity
8
1
62
256
6
ByLayer
370
18
48
1
60
0
100
AcDbSpline
70
4
71
3
72
26
73
22
40
0
40
0
40
0
40
0
40
0.0086569148800989
40
0.0086569148800989
40
0.125591395712009
40
0.125591395712009
40
0.242553460374221
40
0.242553460374221
40
0.359581429954869
40
0.359581429954869
40
0.476756419376212
40
0.476756419376212
40
0.594287938353985
40
0.594287938353985
40
0.734087980384725
40
0.734087980384725
40
0.8168187736514
40
0.8168187736514
40
0.904422913955487
40
0.904422913955487
40
1
40
1
40
1
40
1
41
1
10
215.930206832616
20
17.5958028729962
30
0
41
1
10
215.929731094205
20
17.5949796667632
30
0
41
1
10
215.929257806405
20
17.5941550031102
30
0
41
1
10
215.922432174639
20
17.5821788773707
30
0
41
1
10
215.916518726913
20
17.5707572846886
30
0
41
1
10
215.905667595486
20
17.5474775098571
30
0
41
1
10
215.900718871311
20
17.5355960330492
30
0
41
1
10
215.891928407216
20
17.5114563002084
30
0
41
1
10
215.888075350377
20
17.4991679830101
30
0
41
1
10
215.881702213678
20
17.4742929493643
30
0
41
1
10
215.879170157189
20
17.4616608000471
30
0
41
1
10
215.87582666408
20
17.4362487781886
30
0
41
1
10
215.875006352595
20
17.4233865359389
30
0
41
1
10
215.875831685722
20
17.3956450604745
30
0
41
1
10
215.87798284989
20
17.3805112714102
30
0
41
1
10
215.885462620896
20
17.3584334824795
30
0
41
1
10
215.889217990807
20
17.3505401634801
30
0
41
1
10
215.898970537321
20
17.3363081671355
30
0
41
1
10
215.905234213947
20
17.3299375408553
30
0
41
1
10
215.919922790131
20
17.3200367243345
30
0
41
1
10
215.92870223426
20
17.316661289193
30
0
41
1
10
215.937625087064
20
17.3150852798847
30
0
0
SPLINE
5
1E6
100
AcDbEntity
8
1
62
256
6
ByLayer
370
18
48
1
60
0
100
AcDbSpline
70
4
71
3
72
8
73
4
40
0
40
0
40
0
40
0
40
1
40
1
40
1
40
1
41
1
10
215.937625087064
20
17.3150852798847
30
0
41
1
10
215.943106252145
20
17.3110938018434
30
0
41
1
10
215.948589094339
20
17.3071013170233
30
0
41
1
10
215.954073718691
20
17.3031077631006
30
0
0
SPLINE
5
1E7
100
AcDbEntity
8
1
62
256
6
ByLayer
370
18
48
1
60
0
100
AcDbSpline
70
4
71
3
72
26
73
22
40
0
40
0
40
0
40
0
40
0.0742301486906313
40
0.0742301486906313
40
0.125696238139609
40
0.125696238139609
40
0.200645519545574
40
0.200645519545574
40
0.293529030645351
40
0.293529030645351
40
0.396382571934823
40
0.396382571934823
40
0.499190126830596
40
0.499190126830596
40
0.558129055846337
40
0.558129055846337
40
0.765978231673768
40
0.765978231673768
40
0.910227308046386
40
0.910227308046386
40
1
40
1
40
1
40
1
41
1
10
215.954073718691
20
17.3031077631006
30
0
41
1
10
215.963337646834
20
17.2963623610096
30
0
41
1
10
215.971623528749
20
17.2878198947848
30
0
41
1
10
215.983967000664
20
17.2718762165536
30
0
41
1
10
215.988599599169
20
17.2648478729655
30
0
41
1
10
215.998980127589
20
17.2468646324982
30
0
41
1
10
216.004321958612
20
17.2355076392656
30
0
41
1
10
216.01468790068
20
17.2092666597071
30
0
41
1
10
216.019376035294
20
17.1940759717776
30
0
41
1
10
216.027297821011
20
17.1614587532171
30
0
41
1
10
216.030349669158
20
17.1438412688415
30
0
41
1
10
216.034388086246
20
17.1083892080605
30
0
41
1
10
216.035386426801
20
17.0904414443584
30
0
41
1
10
216.035386426801
20
17.0623328541037
30
0
41
1
10
216.035056815128
20
17.0520810173614
30
0
41
1
10
216.0320897466
20
17.0063858766351
30
0
41
1
10
216.025749325891
20
16.9709716718095
30
0
41
1
10
216.006960785336
20
16.9162609887432
30
0
41
1
10
215.996770534137
20
16.8947670511211
30
0
41
1
10
215.975077603674
20
16.865382288588
30
0
41
1
10
215.965291945121
20
16.8552001203651
30
0
41
1
10
215.954073718691
20
16.847683514435
30
0
0
SPLINE
5
1E8
100
AcDbEntity
8
1
62
256
6
ByLayer
370
18
48
1
60
0
100
AcDbSpline
70
4
71
3
72
8
73
4
40
0
40
0
40
0
40
0
40
1
40
1
40
1
40
1
41
1
10
217.715547766538
20
17.3150852798847
30
0
41
1
10
217.710066601457
20
17.3110938018434
30
0
41
1
10
217.704583759263
20
17.3071013170233
30
0
41
1
10
217.699099134911
20
17.3031077631006
30
0
0
SPLINE
5
1E9
100
AcDbEntity
8
1
62
256
6
ByLayer
370
18
48
1
60
0
100
AcDbSpline
70
4
71
3
72
26
73
22
40
0
40
0
40
0
40
0
40
0.0086569148768526
40
0.0086569148768526
40
0.125591395709196
40
0.125591395709196
40
0.242553460371842
40
0.242553460371842
40
0.359581429952924
40
0.359581429952924
40
0.476756419374703
40
0.476756419374703
40
0.594287938352882
40
0.594287938352882
40
0.734087980384789
40
0.734087980384789
40
0.816818773651446
40
0.816818773651446
40
0.904422913955511
40
0.904422913955511
40
1
40
1
40
1
40
1
41
1
10
217.722966020986
20
17.5958028729962
30
0
41
1
10
217.723441759397
20
17.5949796667634
30
0
41
1
10
217.723915047197
20
17.5941550031108
30
0
41
1
10
217.730740678963
20
17.5821788773716
30
0
41
1
10
217.736654126688
20
17.5707572846895
30
0
41
1
10
217.747505258115
20
17.5474775098579
30
0
41
1
10
217.752453982291
20
17.53559603305
30
0
41
1
10
217.761244446386
20
17.511456300209
30
0
41
1
10
217.765097503225
20
17.4991679830106
30
0
41
1
10
217.771470639924
20
17.4742929493648
30
0
41
1
10
217.77400269641
20
17.4616608000467
30
0
41
1
10
217.777346189519
20
17.4362487781882
30
0
41
1
10
217.778166501008
20
17.4233865359392
30
0
41
1
10
217.77734116788
20
17.3956450604747
30
0
41
1
10
217.775190003712
20
17.3805112714103
30
0
41
1
10
217.767710232706
20
17.3584334824795
30
0
41
1
10
217.763954862795
20
17.3505401634801
30
0
41
1
10
217.754202316282
20
17.3363081671355
30
0
41
1
10
217.747938639655
20
17.3299375408553
30
0
41
1
10
217.733250063471
20
17.3200367243345
30
0
41
1
10
217.724470619342
20
17.316661289193
30
0
41
1
10
217.715547766538
20
17.3150852798847
30
0
0
SPLINE
5
1EA
100
AcDbEntity
8
1
62
256
6
ByLayer
370
18
48
1
60
0
100
AcDbSpline
70
4
71
3
72
8
73
4
40
0
40
0
40
0
40
0
40
1
40
1
40
1
40
1
41
1
10
217.699099134911
20
16.847683514435
30
0
41
1
10
217.704583759263
20
16.8440086233823
30
0
41
1
10
217.710066601457
20
16.8403351549902
30
0
41
1
10
217.715547766538
20
16.8366630247104
30
0
0
SPLINE
5
1EB
100
AcDbEntity
8
1
62
256
6
ByLayer
370
18
48
1
60
0
100
AcDbSpline
70
4
71
3
72
30
73
26
40
0
40
0
40
0
40
0
40
0.0212218158422364
40
0.0212218158422364
40
0.126059559525534
40
0.126059559525534
40
0.20110705575946
40
0.20110705575946
40
0.294112283011609
40
0.294112283011609
40
0.397100605352965
40
0.397100605352965
40
0.500042881039265
40
0.500042881039265
40
0.583971495240649
40
0.583971495240649
40
0.66656514848867
40
0.66656514848867
40
0.767859984421262
40
0.767859984421262
40
0.83872056129773
40
0.83872056129773
40
0.909748878403058
40
0.909748878403058
40
1
40
1
40
1
40
1
41
1
10
217.699099134911
20
17.3031077631006
30
0
41
1
10
217.696425590885
20
17.3011610587236
30
0
41
1
10
217.69383541122
20
17.2990657318594
30
0
41
1
10
217.679142322451
20
17.2860526252612
30
0
41
1
10
217.668874908142
20
17.2723000632531
30
0
41
1
10
217.654192726013
20
17.2468646324978
30
0
41
1
10
217.648850894994
20
17.2355076392657
30
0
41
1
10
217.638484952925
20
17.2092666597073
30
0
41
1
10
217.633796818309
20
17.1940759717776
30
0
41
1
10
217.625875032592
20
17.1614587532172
30
0
41
1
10
217.622823184444
20
17.1438412688415
30
0
41
1
10
217.618784767356
20
17.1083892080605
30
0
41
1
10
217.617786426801
20
17.0904414443584
30
0
41
1
10
217.617786426801
20
17.0580181466563
30
0
41
1
10
217.618451551946
20
17.0434465042168
30
0
41
1
10
217.621110237802
20
17.014871802848
30
0
41
1
10
217.623087333872
20
17.0008066850215
30
0
41
1
10
217.629019187509
20
16.9701505642689
30
0
41
1
10
217.633335984766
20
16.9535935652776
30
0
41
1
10
217.642670391154
20
16.9266956997473
30
0
41
1
10
217.647110940295
20
16.9159227774347
30
0
41
1
10
217.657331607579
20
16.8954241338928
30
0
41
1
10
217.663146615775
20
16.885631376905
30
0
41
1
10
217.678095249929
20
16.8653822885879
30
0
41
1
10
217.687880908482
20
16.8552001203651
30
0
41
1
10
217.699099134911
20
16.847683514435
30
0
0
SPLINE
5
1EC
100
AcDbEntity
8
1
62
256
6
ByLayer
370
18
48
1
60
0
100
AcDbSpline
70
4
71
3
72
28
73
24
40
0
40
0
40
0
40
0
40
0.108288540731931
40
0.108288540731931
40
0.225253580018341
40
0.225253580018341
40
0.342268318548614
40
0.342268318548614
40
0.459393576191631
40
0.459393576191631
40
0.555729824682071
40
0.555729824682071
40
0.632635573241419
40
0.632635573241419
40
0.704746769386173
40
0.704746769386173
40
0.818780459988316
40
0.818780459988316
40
0.901881358114121
40
0.901881358114121
40
0.984963093097929
40
0.984963093097929
40
1
40
1
40
1
40
1
41
1
10
217.722966020986
20
17.5958028729962
30
0
41
1
10
217.717020382407
20
17.6060910621178
30
0
41
1
10
217.710687847369
20
17.6161609481713
30
0
41
1
10
217.696753555569
20
17.6365433832689
30
0
41
1
10
217.689077400424
20
17.6468312864718
30
0
41
1
10
217.67286433644
20
17.6666376875778
30
0
41
1
10
217.664308296153
20
17.6761802111661
30
0
41
1
10
217.646299427619
20
17.6942715014887
30
0
41
1
10
217.636816207778
20
17.7028516654988
30
0
41
1
10
217.618678271964
20
17.7172208093016
30
0
41
1
10
217.610143211392
20
17.7232594235085
30
0
41
1
10
217.594220649756
20
17.7329285045695
30
0
41
1
10
217.5869191376
20
17.7368154430643
30
0
41
1
10
217.572429477819
20
17.7432220465559
30
0
41
1
10
217.56522166723
20
17.7458284523834
30
0
41
1
10
217.546523491758
20
17.7507223481692
30
0
41
1
10
217.534608494124
20
17.7520096726355
30
0
41
1
10
217.515152509553
20
17.7497738977388
30
0
41
1
10
217.507121231547
20
17.7474002996265
30
0
41
1
10
217.492878838073
20
17.7399554517598
30
0
41
1
10
217.486497104973
20
17.7348041854118
30
0
41
1
10
217.480262345277
20
17.7276828261479
30
0
41
1
10
217.479329704484
20
17.7265487448378
30
0
41
1
10
217.478430544027
20
17.725387183789
30
0
0
SPLINE
5
1ED
100
AcDbEntity
8
1
62
256
6
ByLayer
370
18
48
1
60
0
100
AcDbSpline
70
4
71
3
72
28
73
24
40
0
40
0
40
0
40
0
40
0.108288540728068
40
0.108288540728068
40
0.225253580013846
40
0.225253580013846
40
0.342268318543485
40
0.342268318543485
40
0.459393576185861
40
0.459393576185861
40
0.555729824677656
40
0.555729824677656
40
0.632635573237575
40
0.632635573237575
40
0.704746769382407
40
0.704746769382407
40
0.818780459984693
40
0.818780459984693
40
0.901881358110714
40
0.901881358110714
40
0.98496309309548
40
0.98496309309548
40
1
40
1
40
1
40
1
41
1
10
215.930206832616
20
17.5958028729962
30
0
41
1
10
215.936152471195
20
17.6060910621174
30
0
41
1
10
215.942485006233
20
17.6161609481706
30
0
41
1
10
215.956419298032
20
17.6365433832678
30
0
41
1
10
215.964095453177
20
17.6468312864708
30
0
41
1
10
215.980308517161
20
17.6666376875768
30
0
41
1
10
215.988864557448
20
17.6761802111651
30
0
41
1
10
216.006873425982
20
17.6942715014877
30
0
41
1
10
216.016356645822
20
17.7028516654985
30
0
41
1
10
216.034494581636
20
17.7172208093015
30
0
41
1
10
216.043029642207
20
17.7232594235089
30
0
41
1
10
216.058952203844
20
17.7329285045702
30
0
41
1
10
216.066253716001
20
17.7368154430648
30
0
41
1
10
216.080743375781
20
17.7432220465565
30
0
41
1
10
216.08795118637
20
17.7458284523847
30
0
41
1
10
216.106649361842
20
17.7507223481708
30
0
41
1
10
216.118564359477
20
17.7520096726355
30
0
41
1
10
216.138020344049
20
17.749773897739
30
0
41
1
10
216.146051622053
20
17.7474002996278
30
0
41
1
10
216.160294015527
20
17.7399554517616
30
0
41
1
10
216.166675748629
20
17.7348041854123
30
0
41
1
10
216.172910508324
20
17.7276828261483
30
0
41
1
10
216.173843149118
20
17.726548744838
30
0
41
1
10
216.174742309575
20
17.725387183789
30
0
0
SPLINE
5
1EE
100
AcDbEntity
8
1
62
256
6
ByLayer
370
18
48
1
60
0
100
AcDbSpline
70
4
71
3
72
8
73
4
40
0
40
0
40
0
40
0
40
1
40
1
40
1
40
1
41
1
10
217.063703649312
20
17.9645983113762
30
0
41
1
10
217.064284718772
20
17.9577804977055
30
0
41
1
10
217.064865966025
20
17.9509608124613
30
0
41
1
10
217.065447402209
20
17.944139139153
30
0
0
SPLINE
5
1EF
100
AcDbEntity
8
1
62
256
6
ByLayer
370
18
48
1
60
0
100
AcDbSpline
70
4
71
3
72
26
73
22
40
0
40
0
40
0
40
0
40
0.008656914876828
40
0.008656914876828
40
0.125591395709174
40
0.125591395709174
40
0.242553460371822
40
0.242553460371822
40
0.359581429952908
40
0.359581429952908
40
0.47675641937469
40
0.47675641937469
40
0.594287938352872
40
0.594287938352872
40
0.734087980384783
40
0.734087980384783
40
0.816818773651442
40
0.816818773651442
40
0.904422913955509
40
0.904422913955509
40
1
40
1
40
1
40
1
41
1
10
216.8265864268
20
18.112827392514
30
0
41
1
10
216.827537903621
20
18.112827392514
30
0
41
1
10
216.828489385063
20
18.1128245242679
30
0
41
1
10
216.842282899633
20
18.1127413558165
30
0
41
1
10
216.855133632642
20
18.1121427912259
30
0
41
1
10
216.880712873971
20
18.109875761544
30
0
41
1
10
216.893467077584
20
18.1082051906884
30
0
41
1
10
216.918733679173
20
18.1037092986221
30
0
41
1
10
216.931277746341
20
18.1008787102876
30
0
41
1
10
216.955939050605
20
18.0939040918577
30
0
41
1
10
216.968101533471
20
18.0897476343085
30
0
41
1
10
216.991668039532
20
18.079857082909
30
0
41
1
10
217.003147496916
20
18.0740892481334
30
0
41
1
10
217.026565734918
20
18.0593791779608
30
0
41
1
10
217.03846228305
20
18.0498664477585
30
0
41
1
10
217.053563141888
20
18.0321844408153
30
0
41
1
10
217.058400541592
20
18.0249152278727
30
0
41
1
10
217.065570961295
20
18.009193881612
30
0
41
1
10
217.067792671449
20
18.0004918816738
30
0
41
1
10
217.068664331648
20
17.9826215794635
30
0
41
1
10
217.066996208287
20
17.9732200716658
30
0
41
1
10
217.063703649312
20
17.9645983113762
30
0
0
SPLINE
5
1F0
100
AcDbEntity
8
1
62
256
6
ByLayer
370
18
48
1
60
0
100
AcDbSpline
70
4
71
3
72
8
73
4
40
0
40
0
40
0
40
0
40
1
40
1
40
1
40
1
41
1
10
217.460238159503
20
17.7164270148202
30
0
41
1
10
217.466304220039
20
17.7194144656407
30
0
41
1
10
217.472368309487
20
17.722401174279
30
0
41
1
10
217.478430544027
20
17.725387183789
30
0
0
SPLINE
5
1F1
100
AcDbEntity
8
1
62
256
6
ByLayer
370
18
48
1
60
0
100
AcDbSpline
70
4
71
3
72
30
73
26
40
0
40
0
40
0
40
0
40
0.0212218158422365
40
0.0212218158422365
40
0.126059559525534
40
0.126059559525534
40
0.20110705575946
40
0.20110705575946
40
0.294112283011609
40
0.294112283011609
40
0.397100605352965
40
0.397100605352965
40
0.500042881039265
40
0.500042881039265
40
0.583971495240649
40
0.583971495240649
40
0.66656514848867
40
0.66656514848867
40
0.767859984421263
40
0.767859984421263
40
0.83872056129773
40
0.83872056129773
40
0.909748878403058
40
0.909748878403058
40
1
40
1
40
1
40
1
41
1
10
217.065447402209
20
17.9441391391529
30
0
41
1
10
217.065730830049
20
17.9408138350393
30
0
41
1
10
217.066185763484
20
17.9374869153733
30
0
41
1
10
217.069737798074
20
17.9180477385907
30
0
41
1
10
217.076235361631
20
17.9021207570778
30
0
41
1
10
217.090509719891
20
17.8764500968042
30
0
41
1
10
217.097519205579
20
17.8660549933331
30
0
41
1
10
217.114756230769
20
17.8437771990958
30
0
41
1
10
217.125426055245
20
17.832036701627
30
0
41
1
10
217.149474247144
20
17.8087210640733
30
0
41
1
10
217.163114500168
20
17.7972108862216
30
0
41
1
10
217.19168653235
20
17.7759096167326
30
0
41
1
10
217.20671011438
20
17.7660514991825
30
0
41
1
10
217.234816694763
20
17.7498398503315
30
0
41
1
10
217.247804493255
20
17.7431431041176
30
0
41
1
10
217.273997352421
20
17.7312097411946
30
0
41
1
10
217.287247411545
20
17.725927523658
30
0
41
1
10
217.316990569351
20
17.7158484617429
30
0
41
1
10
217.333646958131
20
17.7113886272829
30
0
41
1
10
217.361932478586
20
17.7061896321045
30
0
41
1
10
217.373631921605
20
17.704726127081
30
0
41
1
10
217.396823967028
20
17.7034996667138
30
0
41
1
10
217.40839319918
20
17.7037339993329
30
0
41
1
10
217.433845386094
20
17.7067877787255
30
0
41
1
10
217.447830666072
20
17.7103164961051
30
0
41
1
10
217.460238159503
20
17.7164270148202
30
0
0
SPLINE
5
1F2
100
AcDbEntity
8
1
62
256
6
ByLayer
370
18
48
1
60
0
100
AcDbSpline
70
4
71
3
72
26
73
22
40
0
40
0
40
0
40
0
40
0.0271387234067453
40
0.0271387234067453
40
0.133143415966931
40
0.133143415966931
40
0.291286691908894
40
0.291286691908894
40
0.500757280312417
40
0.500757280312417
40
0.626885076483449
40
0.626885076483449
40
0.697530097277506
40
0.697530097277506
40
0.768209951105368
40
0.768209951105368
40
0.838963700897015
40
0.838963700897015
40
0.909884938037894
40
0.909884938037894
40
1
40
1
40
1
40
1
41
1
10
216.587725451394
20
17.9441391391528
30
0
41
1
10
216.587361744602
20
17.9398719659454
30
0
41
1
10
216.586715479714
20
17.9356012233774
30
0
41
1
10
216.582423594137
20
17.9150212124139
30
0
41
1
10
216.575487847677
20
17.8989509047242
30
0
41
1
10
216.553809632757
20
17.8615380657206
30
0
41
1
10
216.536527548176
20
17.8406861041131
30
0
41
1
10
216.49188221108
20
17.7970924774333
30
0
41
1
10
216.462232865002
20
17.7751475805269
30
0
41
1
10
216.41202191623
20
17.7461863102884
30
0
41
1
10
216.392221346
20
17.7365555967092
30
0
41
1
10
216.36075142306
20
17.724085304269
30
0
41
1
10
216.349274897886
20
17.720100972826
30
0
41
1
10
216.326188334369
20
17.7133002999262
30
0
41
1
10
216.314538224149
20
17.7104718727476
30
0
41
1
10
216.291240375016
20
17.7061896321044
30
0
41
1
10
216.279540931997
20
17.7047261270803
30
0
41
1
10
216.256348886574
20
17.7034996667131
30
0
41
1
10
216.244779654422
20
17.7037339993329
30
0
41
1
10
216.219327467508
20
17.7067877787255
30
0
41
1
10
216.20534218753
20
17.7103164961051
30
0
41
1
10
216.192934694099
20
17.7164270148202
30
0
0
SPLINE
5
1F3
100
AcDbEntity
8
1
62
256
6
ByLayer
370
18
48
1
60
0
100
AcDbSpline
70
4
71
3
72
8
73
4
40
0
40
0
40
0
40
0
40
1
40
1
40
1
40
1
41
1
10
216.192934694099
20
17.7164270148202
30
0
41
1
10
216.186868633563
20
17.7194144656407
30
0
41
1
10
216.180804544115
20
17.722401174279
30
0
41
1
10
216.174742309575
20
17.725387183789
30
0
0
SPLINE
5
1F4
100
AcDbEntity
8
1
62
256
6
ByLayer
370
18
48
1
60
0
100
AcDbSpline
70
4
71
3
72
28
73
24
40
0
40
0
40
0
40
0
40
0.108288540731953
40
0.108288540731953
40
0.22525358001836
40
0.22525358001836
40
0.34226831854863
40
0.34226831854863
40
0.459393576191644
40
0.459393576191644
40
0.555729824682081
40
0.555729824682081
40
0.632635573241427
40
0.632635573241427
40
0.704746769386179
40
0.704746769386179
40
0.81878045998832
40
0.81878045998832
40
0.901881358114123
40
0.901881358114123
40
0.984963093097929
40
0.984963093097929
40
1
40
1
40
1
40
1
41
1
10
216.8265864268
20
18.112827392514
30
0
41
1
10
216.814695149641
20
18.112827392514
30
0
41
1
10
216.802794470721
20
18.1123805078301
30
0
41
1
10
216.778136465935
20
18.1105032175519
30
0
41
1
10
216.765362397358
20
18.1089955966679
30
0
41
1
10
216.74003634683
20
18.1048425715879
30
0
41
1
10
216.727453931172
20
18.1021926042949
30
0
41
1
10
216.702683921639
20
18.0956093828124
30
0
41
1
10
216.690453809189
20
18.0916654719018
30
0
41
1
10
216.668813848059
20
18.0830910456052
30
0
41
1
10
216.659251225809
20
18.0786910623404
30
0
41
1
10
216.642779071266
20
18.0696751324127
30
0
41
1
10
216.635694064458
20
18.0652640428144
30
0
41
1
10
216.622751922946
20
18.0558482045917
30
0
41
1
10
216.616810470994
20
18.0508702218501
30
0
41
1
10
216.602992541685
20
18.0370090906807
30
0
41
1
10
216.595751490565
20
18.0272473607436
30
0
41
1
10
216.587625629107
20
18.0091025995385
30
0
41
1
10
216.58550793091
20
18.000875153816
30
0
41
1
10
216.584508331972
20
17.984638847672
30
0
41
1
10
216.585606595412
20
17.9764401186414
30
0
41
1
10
216.58845821275
20
17.9673673901556
30
0
41
1
10
216.58894338114
20
17.9659752103726
30
0
41
1
10
216.58946920429
20
17.9645983113762
30
0
0
SPLINE
5
1F5
100
AcDbEntity
8
1
62
256
6
ByLayer
370
18
48
1
60
0
100
AcDbSpline
70
4
71
3
72
8
73
4
40
0
40
0
40
0
40
0
40
1
40
1
40
1
40
1
41
1
10
216.587725451394
20
17.944139139153
30
0
41
1
10
216.588306887577
20
17.9509608124613
30
0
41
1
10
216.588888134831
20
17.9577804977055
30
0
41
1
10
216.58946920429
20
17.9645983113762
30
0
0
SPLINE
5
1F6
100
AcDbEntity
8
1
62
256
6
ByLayer
370
18
48
1
60
0
100
AcDbSpline
70
4
71
3
72
12
73
8
40
0
40
0
40
0
40
0
40
0.145394273601052
40
0.38014946306049
40
0.614655365688773
40
0.845468064252275
40
1
40
1
40
1
40
1
41
1
10
217.0000882236
20
-15.5450394692543
30
0
41
1
10
216.932229705129
20
-15.5162982213657
30
0
41
1
10
216.752222458623
20
-15.4611962353131
30
0
41
1
10
216.435979225995
20
-15.4555915628319
30
0
41
1
10
216.092923148504
20
-15.5712026221578
30
0
41
1
10
215.835847372612
20
-15.7730654250418
30
0
41
1
10
215.721163962563
20
-15.9340281704495
30
0
41
1
10
215.68116011428
20
-16.0052312781788
30
0
0
SPLINE
5
1F7
100
AcDbEntity
8
1
62
256
6
ByLayer
370
18
48
1
60
0
100
AcDbSpline
70
4
71
3
72
12
73
8
40
0
40
0
40
0
40
0
40
0.145394273601052
40
0.38014946306049
40
0.614655365688773
40
0.845468064252275
40
1
40
1
40
1
40
1
41
1
10
217.0000882236
20
-15.5450394692543
30
0
41
1
10
216.932229705129
20
-15.5162982213657
30
0
41
1
10
216.752222458623
20
-15.4611962353131
30
0
41
1
10
216.435979225995
20
-15.4555915628319
30
0
41
1
10
216.092923148504
20
-15.5712026221578
30
0
41
1
10
215.835847372612
20
-15.7730654250418
30
0
41
1
10
215.721163962563
20
-15.9340281704495
30
0
41
1
10
215.68116011428
20
-16.0052312781788
30
0
0
SPLINE
5
1F8
100
AcDbEntity
8
1
62
256
6
ByLayer
370
18
48
1
60
0
100
AcDbSpline
70
4
71
3
72
16
73
12
40
0
40
0
40
0
40
0
40
0.114691258188246
40
0.114691258188246
40
0.256006982052374
40
0.256006982052374
40
0.478481509698297
40
0.478481509698297
40
0.904237458570026
40
0.904237458570026
40
1
40
1
40
1
40
1
41
1
10
6.92320508075683
20
-19.1222825906921
30
0
41
1
10
6.90623920058407
20
-19.1222825906921
30
0
41
1
10
6.88906253212406
20
-19.1213397893254
30
0
41
1
10
6.85346109846181
20
-19.1175632573666
30
0
41
1
10
6.83507168736787
20
-19.1143205262479
30
0
41
1
10
6.79305201772164
20
-19.1044641374223
30
0
41
1
10
6.77140364934785
20
-19.096857125639
30
0
41
1
10
6.71814486104417
20
-19.0732678361837
30
0
41
1
10
6.69359399943789
20
-19.0554522237105
30
0
41
1
10
6.67087946572553
20
-19.0329978954359
30
0
41
1
10
6.66699503410791
20
-19.028803868517
30
0
41
1
10
6.66339745962149
20
-19.0245744101318
30
0
0
SPLINE
5
1F9
100
AcDbEntity
8
1
62
256
6
ByLayer
370
18
48
1
60
0
100
AcDbSpline
70
4
71
3
72
8
73
4
40
0
40
0
40
0
40
0
40
1
40
1
40
1
40
1
41
1
10
195.557062452291
20
-15.790050906721
30
0
41
1
10
195.523775047857
20
-15.7467054437344
30
0
41
1
10
195.490512206466
20
-15.703391965713
30
0
41
1
10
195.45726354173
20
-15.6600969479369
30
0
0
SPLINE
5
1FA
100
AcDbEntity
8
1
62
256
6
ByLayer
370
18
48
1
60
0
100
AcDbSpline
70
4
71
3
72
8
73
4
40
0
40
0
40
0
40
0
40
1
40
1
40
1
40
1
41
1
10
195.789097765083
20
-15.5224928402784
30
0
41
1
10
195.796244444498
20
-15.5766117578979
30
0
41
1
10
195.803394171134
20
-15.630753750886
30
0
41
1
10
195.810549177506
20
-15.6849357251882
30
0
0
SPLINE
5
1FB
100
AcDbEntity
8
1
62
256
6
ByLayer
370
18
48
1
60
0
100
AcDbSpline
70
4
71
3
72
16
73
12
40
0
40
0
40
0
40
0
40
0.464304267159133
40
0.464304267159133
40
0.647533485141843
40
0.647533485141843
40
0.833383675860415
40
0.833383675860415
40
0.950238074309776
40
0.950238074309776
40
1
40
1
40
1
40
1
41
1
10
9.33660254037801
20
6.16973001948679
30
0
41
1
10
9.3192964345692
20
6.10699311212858
30
0
41
1
10
9.29554416795226
20
6.04466199750419
30
0
41
1
10
9.24667293447263
20
5.96658891112014
30
0
41
1
10
9.2307971165895
20
5.94525308185507
30
0
41
1
10
9.19394564855374
20
5.90694983484968
30
0
41
1
10
9.17240809259944
20
5.88959453036739
30
0
41
1
10
9.1328693484476
20
5.86981268652062
30
0
41
1
10
9.11613525534437
20
5.86416869949596
30
0
41
1
10
9.09170798023393
20
5.86046107106466
30
0
41
1
10
9.08424032311152
20
5.85988980457091
30
0
41
1
10
9.07679491924313
20
5.85988980457091
30
0
0
SPLINE
5
1FC
100
AcDbEntity
8
1
62
256
6
ByLayer
370
18
48
1
60
0
100
AcDbSpline
70
4
71
3
72
16
73
12
40
0
40
0
40
0
40
0
40
0.114691258188371
40
0.114691258188371
40
0.256006982052509
40
0.256006982052509
40
0.478481509698471
40
0.478481509698471
40
0.9042374585703
40
0.9042374585703
40
1
40
1
40
1
40
1
41
1
10
9.07679491924313
20
19.1222825906921
30
0
41
1
10
9.09376079941586
20
19.1222825906921
30
0
41
1
10
9.11093746787584
20
19.1213397893253
30
0
41
1
10
9.14653890153802
20
19.1175632573665
30
0
41
1
10
9.16492831263193
20
19.1143205262479
30
0
41
1
10
9.20694798227808
20
19.1044641374223
30
0
41
1
10
9.22859635065186
20
19.096857125639
30
0
41
1
10
9.28185513895544
20
19.0732678361837
30
0
41
1
10
9.30640600056167
20
19.0554522237105
30
0
41
1
10
9.32912053427398
20
19.032997895436
30
0
41
1
10
9.3330049658916
20
19.0288038685171
30
0
41
1
10
9.33660254037802
20
19.0245744101318
30
0
0
SPLINE
5
1FD
100
AcDbEntity
8
1
62
256
6
ByLayer
370
18
48
1
60
0
100
AcDbSpline
70
4
71
3
72
16
73
12
40
0
40
0
40
0
40
0
40
0.464304267159315
40
0.464304267159315
40
0.647533485142007
40
0.647533485142007
40
0.833383675860563
40
0.833383675860563
40
0.95023807430989
40
0.95023807430989
40
1
40
1
40
1
40
1
41
1
10
6.66339745962151
20
19.0245744101318
30
0
41
1
10
6.68070356543035
20
19.0449201888238
30
0
41
1
10
6.70445583204733
20
19.0647708693878
30
0
41
1
10
6.75332706552705
20
19.0892734034399
30
0
41
1
10
6.7692028834102
20
19.095925343103
30
0
41
1
10
6.80605435144602
20
19.1078085849617
30
0
41
1
10
6.82759190740038
20
19.1131587398639
30
0
41
1
10
6.86713065155227
20
19.1192406569506
30
0
41
1
10
6.88386474465554
20
19.120971021654
30
0
41
1
10
6.90829201976601
20
19.1221075563673
30
0
41
1
10
6.91575967688843
20
19.1222825906922
30
0
41
1
10
6.92320508075682
20
19.1222825906922
30
0
0
SPLINE
5
1FE
100
AcDbEntity
8
1
62
256
6
ByLayer
370
18
48
1
60
0
100
AcDbSpline
70
4
71
3
72
16
73
12
40
0
40
0
40
0
40
0
40
0.114691258188241
40
0.114691258188241
40
0.256006982052366
40
0.256006982052366
40
0.478481509698291
40
0.478481509698291
40
0.904237458569998
40
0.904237458569998
40
1
40
1
40
1
40
1
41
1
10
6.92320508075683
20
5.85988980457074
30
0
41
1
10
6.90623920058407
20
5.85988980457074
30
0
41
1
10
6.88906253212404
20
5.86296835504396
30
0
41
1
10
6.85346109846181
20
5.87527238052451
30
0
41
1
10
6.83507168736787
20
5.88582364044584
30
0
41
1
10
6.79305201772164
20
5.91775860341755
30
0
41
1
10
6.77140364934785
20
5.94228809980734
30
0
41
1
10
6.71814486104417
20
6.01773563791778
30
0
41
1
10
6.69359399943789
20
6.07398601286621
30
0
41
1
10
6.67087946572553
20
6.14371014971368
30
0
41
1
10
6.66699503410791
20
6.15668833929846
30
0
41
1
10
6.66339745962148
20
6.16973001948708
30
0
0
SPLINE
5
1FF
100
AcDbEntity
8
1
62
256
6
ByLayer
370
18
48
1
60
0
100
AcDbSpline
70
4
71
3
72
16
73
12
40
0
40
0
40
0
40
0
40
0.464304267159125
40
0.464304267159125
40
0.64753348514184
40
0.64753348514184
40
0.833383675860424
40
0.833383675860424
40
0.950238074309778
40
0.950238074309778
40
1
40
1
40
1
40
1
41
1
10
9.33660254037801
20
-19.0245744101318
30
0
41
1
10
9.3192964345692
20
-19.0449201888238
30
0
41
1
10
9.29554416795226
20
-19.0647708693878
30
0
41
1
10
9.24667293447263
20
-19.0892734034399
30
0
41
1
10
9.2307971165895
20
-19.095925343103
30
0
41
1
10
9.19394564855374
20
-19.1078085849617
30
0
41
1
10
9.17240809259944
20
-19.1131587398639
30
0
41
1
10
9.1328693484476
20
-19.1192406569506
30
0
41
1
10
9.11613525534437
20
-19.120971021654
30
0
41
1
10
9.09170798023393
20
-19.1221075563672
30
0
41
1
10
9.08424032311152
20
-19.1222825906921
30
0
41
1
10
9.07679491924313
20
-19.1222825906921
30
0
0
SPLINE
5
200
100
AcDbEntity
8
1
62
256
6
ByLayer
370
18
48
1
60
0
100
AcDbSpline
70
4
71
3
72
16
73
12
40
0
40
0
40
0
40
0
40
0.114691258188376
40
0.114691258188376
40
0.256006982052517
40
0.256006982052517
40
0.478481509698445
40
0.478481509698445
40
0.904237458570241
40
0.904237458570241
40
1
40
1
40
1
40
1
41
1
10
9.07679491924313
20
-5.85988980457091
30
0
41
1
10
9.09376079941586
20
-5.85988980457091
30
0
41
1
10
9.11093746787584
20
-5.86296835504419
30
0
41
1
10
9.14653890153802
20
-5.87527238052462
30
0
41
1
10
9.16492831263193
20
-5.88582364044601
30
0
41
1
10
9.20694798227809
20
-5.91775860341767
30
0
41
1
10
9.22859635065184
20
-5.94228809980734
30
0
41
1
10
9.28185513895544
20
-6.01773563791772
30
0
41
1
10
9.30640600056167
20
-6.07398601286604
30
0
41
1
10
9.32912053427398
20
-6.14371014971334
30
0
41
1
10
9.3330049658916
20
-6.15668833929817
30
0
41
1
10
9.33660254037802
20
-6.16973001948674
30
0
0
SPLINE
5
201
100
AcDbEntity
8
1
62
256
6
ByLayer
370
18
48
1
60
0
100
AcDbSpline
70
4
71
3
72
16
73
12
40
0
40
0
40
0
40
0
40
0.464304267159359
40
0.464304267159359
40
0.647533485142028
40
0.647533485142028
40
0.833383675860564
40
0.833383675860564
40
0.950238074309891
40
0.950238074309891
40
1
40
1
40
1
40
1
41
1
10
6.66339745962151
20
-6.16973001948708
30
0
41
1
10
6.68070356543035
20
-6.10699311212881
30
0
41
1
10
6.70445583204733
20
-6.04466199750425
30
0
41
1
10
6.75332706552706
20
-5.96658891112008
30
0
41
1
10
6.7692028834102
20
-5.94525308185501
30
0
41
1
10
6.80605435144604
20
-5.90694983484957
30
0
41
1
10
6.82759190740038
20
-5.88959453036722
30
0
41
1
10
6.86713065155227
20
-5.86981268652039
30
0
41
1
10
6.88386474465554
20
-5.86416869949574
30
0
41
1
10
6.90829201976601
20
-5.86046107106444
30
0
41
1
10
6.91575967688843
20
-5.85988980457074
30
0
41
1
10
6.92320508075683
20
-5.85988980457074
30
0
0
SPLINE
5
202
100
AcDbEntity
8
1
62
256
6
ByLayer
370
18
48
1
60
0
100
AcDbSpline
70
4
71
3
72
21
73
17
40
0
40
0
40
0
40
0
40
0.007606203794252
40
0.0358002930990619
40
0.132910265650934
40
0.229949476802216
40
0.325771477586623
40
0.419571075086472
40
0.511429304712275
40
0.602189468408062
40
0.693065784059831
40
0.78519255413915
40
0.879250584796147
40
0.975219012594014
40
0.992393796188893
40
1
40
1
40
1
40
1
41
1
10
185
20
-18.5436770913358
30
0
41
1
10
184.997941623467
20
-18.5471259467329
30
0
41
1
10
184.988829834379
20
-18.5633660119697
30
0
41
1
10
184.964941947063
20
-18.6239128681644
30
0
41
1
10
184.984939173258
20
-18.7249915623458
30
0
41
1
10
185.131068547847
20
-18.8401293165266
30
0
41
1
10
185.378886552177
20
-18.9269226662176
30
0
41
1
10
185.695797206455
20
-18.9783783029262
30
0
41
1
10
186.042325736619
20
-18.9923729470365
30
0
41
1
10
186.380122526222
20
-18.9696048280306
30
0
41
1
10
186.675302079172
20
-18.9121208837868
30
0
41
1
10
186.898415534069
20
-18.8230848721765
30
0
41
1
10
187.024677204473
20
-18.7082299286227
30
0
41
1
10
187.032845621798
20
-18.6132969122874
30
0
41
1
10
187.008365827601
20
-18.5583680224543
30
0
41
1
10
187.002058174234
20
-18.547125474788
30
0
41
1
10
187
20
-18.5436770913358
30
0
0
SPLINE
5
203
100
AcDbEntity
8
1
62
256
6
ByLayer
370
18
48
1
60
0
100
AcDbSpline
70
4
71
3
72
10
73
6
40
0
40
0
40
0
40
0
40
0.5
40
0.5
40
1
40
1
40
1
40
1
41
1
10
193.023515124304
20
19.5099974372115
30
0
41
1
10
193.013903733941
20
19.5688744672966
30
0
41
1
10
193.008119588361
20
19.6224806232025
30
0
41
1
10
193.001163574498
20
19.7191541402175
30
0
41
1
10
193
20
19.7622216057937
30
0
41
1
10
193
20
19.8
30
0
0
SPLINE
5
204
100
AcDbEntity
8
1
62
256
6
ByLayer
370
18
48
1
60
0
100
AcDbSpline
70
4
71
3
72
58
73
54
40
0
40
0
40
0
40
0
40
0.0625000000000161
40
0.0625000000000161
40
0.125000000000032
40
0.125000000000032
40
0.187500000000048
40
0.187500000000048
40
0.250000000000064
40
0.250000000000064
40
0.265625000000068
40
0.265625000000068
40
0.281250000000072
40
0.281250000000072
40
0.312500000000078
40
0.312500000000078
40
0.375000000000093
40
0.375000000000093
40
0.437500000000107
40
0.437500000000107
40
0.468750000000116
40
0.468750000000116
40
0.476562500000116
40
0.476562500000116
40
0.484375000000116
40
0.500000000000114
40
0.500000000000114
40
0.562500000000108
40
0.562500000000108
40
0.625000000000103
40
0.625000000000103
40
0.6562500000001
40
0.6562500000001
40
0.671875000000098
40
0.671875000000098
40
0.6796875000001
40
0.6796875000001
40
0.687500000000101
40
0.750000000000082
40
0.750000000000082
40
0.812500000000062
40
0.812500000000062
40
0.84375000000005
40
0.84375000000005
40
0.851562500000047
40
0.851562500000047
40
0.859375000000044
40
0.859375000000044
40
0.875000000000038
40
0.875000000000038
40
0.937500000000019
40
0.937500000000019
40
1
40
1
40
1
40
1
41
1
10
193
20
17
30
0
41
1
10
193
20
16.8318227607003
30
0
41
1
10
193.005294248454
20
16.6578251788081
30
0
41
1
10
193.028776650742
20
16.2985714731324
30
0
41
1
10
193.046960799046
20
16.1133147847012
30
0
41
1
10
193.098801445814
20
15.7318893540887
30
0
41
1
10
193.13245213853
20
15.5357199037383
30
0
41
1
10
193.218227203532
20
15.1327995027359
30
0
41
1
10
193.270342696791
20
14.9260475508166
30
0
41
1
10
193.349307246903
20
14.6612064120859
30
0
41
1
10
193.365793138302
20
14.6079181927137
30
0
41
1
10
193.400216673661
20
14.5007074655709
30
0
41
1
10
193.41810494398
20
14.4469398428331
30
0
41
1
10
193.473826782297
20
14.2852786655777
30
0
41
1
10
193.513729758042
20
14.1769855002778
30
0
41
1
10
193.642190243706
20
13.8508338253999
30
0
41
1
10
193.739481183541
20
13.631696724905
30
0
41
1
10
193.960316903222
20
13.1916588474636
30
0
41
1
10
194.083850672636
20
12.9707535771377
30
0
41
1
10
194.29157543413
20
12.6394923566545
30
0
41
1
10
194.364560872678
20
12.529090474157
30
0
41
1
10
194.460821148657
20
12.3912832344352
30
0
41
1
10
194.480316490733
20
12.3637442736159
30
0
41
1
10
194.519686401254
20
12.3088726425997
30
0
41
1
10
194.579355469349
20
12.226809381636
30
0
41
1
10
194.640875523461
20
12.1454982502788
30
0
41
1
10
194.850096636003
20
11.876221106233
30
0
41
1
10
195.030746305613
20
11.6664199617181
30
0
41
1
10
195.419946644464
20
11.260481706442
30
0
41
1
10
195.628487066156
20
11.0643358599809
30
0
41
1
10
195.963744185739
20
10.7824890535911
30
0
41
1
10
196.079243895026
20
10.690606176381
30
0
41
1
10
196.258378212512
20
10.55619711731
30
0
41
1
10
196.319071026309
20
10.5119637155059
30
0
41
1
10
196.411621213006
20
10.4465117816175
30
0
41
1
10
196.442753363411
20
10.4248235805076
30
0
41
1
10
196.505375039102
20
10.3818591496539
30
0
41
1
10
196.788575582682
20
10.1905136404179
30
0
41
1
10
197.084287049431
20
10.0170949674651
30
0
41
1
10
197.629538558268
20
9.73819855170558
30
0
41
1
10
197.911930999046
20
9.61344220611579
30
0
41
1
10
198.350564997888
20
9.44984465597918
30
0
41
1
10
198.499290106345
20
9.39924297372323
30
0
41
1
10
198.688434080975
20
9.34113395560087
30
0
41
1
10
198.726424917896
20
9.32976953429801
30
0
41
1
10
198.802733737974
20
9.30756215334122
30
0
41
1
10
198.84105301947
20
9.29671962073741
30
0
41
1
10
198.956059103262
20
9.26510321492788
30
0
41
1
10
199.032941435886
20
9.24519664926851
30
0
41
1
10
199.41839893031
20
9.15148112654049
30
0
41
1
10
199.730098497978
20
9.09506492731589
30
0
41
1
10
200.360064512955
20
9.01932766612924
30
0
41
1
10
200.678329905698
20
8.99999999999994
30
0
41
1
10
201
20
9
30
0
0
SPLINE
5
205
100
AcDbEntity
8
1
62
256
6
ByLayer
370
18
48
1
60
0
100
AcDbSpline
70
4
71
3
72
56
73
52
40
0
40
0
40
0
40
0
40
0.124999999999996
40
0.124999999999996
40
0.249999999999992
40
0.249999999999992
40
0.374999999999988
40
0.374999999999988
40
0.437499999999986
40
0.437499999999986
40
0.499999999999983
40
0.499999999999983
40
0.562499999999981
40
0.562499999999981
40
0.624999999999979
40
0.624999999999979
40
0.656249999999976
40
0.656249999999976
40
0.687499999999974
40
0.687499999999974
40
0.74999999999997
40
0.74999999999997
40
0.78124999999997
40
0.78124999999997
40
0.81249999999997
40
0.81249999999997
40
0.828124999999974
40
0.828124999999974
40
0.843749999999977
40
0.843749999999977
40
0.874999999999984
40
0.874999999999984
40
0.882812499999988
40
0.882812499999988
40
0.890624999999992
40
0.890624999999992
40
0.906249999999999
40
0.906249999999999
40
0.937500000000013
40
0.937500000000013
40
0.945312500000011
40
0.945312500000011
40
0.95312500000001
40
0.95312500000001
40
0.968750000000006
40
0.968750000000006
40
0.984375000000003
40
0.984375000000003
40
0.992187500000002
40
0.992187500000002
40
1
40
1
40
1
40
1
41
1
10
193
20
-19.8
30
0
41
1
10
193
20
-19.7596147257409
30
0
41
1
10
193.001327459959
20
-19.7132350570663
30
0
41
1
10
193.009431582061
20
-19.6086474397915
30
0
41
1
10
193.016197613725
20
-19.5504389502832
30
0
41
1
10
193.038865630502
20
-19.4223263268533
30
0
41
1
10
193.054740415442
20
-19.3524212433274
30
0
41
1
10
193.089235145298
20
-19.2388867742189
30
0
41
1
10
193.102526994516
20
-19.199595837302
30
0
41
1
10
193.133576490337
20
-19.1181404474729
30
0
41
1
10
193.151330387273
20
-19.0759758829317
30
0
41
1
10
193.192433059914
20
-18.9887966055483
30
0
41
1
10
193.215816104402
20
-18.9437230931771
30
0
41
1
10
193.269335601361
20
-18.8513613675548
30
0
41
1
10
193.299480957957
20
-18.8040229908461
30
0
41
1
10
193.351170788729
20
-18.7314608962966
30
0
41
1
10
193.369484192986
20
-18.7070150066642
30
0
41
1
10
193.408591190265
20
-18.6576457668638
30
0
41
1
10
193.429386551226
20
-18.6327243644533
30
0
41
1
10
193.495699323391
20
-18.5577221380852
30
0
41
1
10
193.54517250165
20
-18.5072694057167
30
0
41
1
10
193.630008212215
20
-18.431586565939
30
0
41
1
10
193.660070412135
20
-18.4063611007475
30
0
41
1
10
193.724469619792
20
-18.3560805950294
30
0
41
1
10
193.758800873898
20
-18.3310243931433
30
0
41
1
10
193.814262887082
20
-18.2937402008121
30
0
41
1
10
193.833433896696
20
-18.2813505043691
30
0
41
1
10
193.873193401683
20
-18.2567644859089
30
0
41
1
10
193.893703645169
20
-18.2446157710805
30
0
41
1
10
193.957326280972
20
-18.2086880467154
30
0
41
1
10
194.00250696966
20
-18.1854187174037
30
0
41
1
10
194.063380302586
20
-18.1575717178204
30
0
41
1
10
194.075776699623
20
-18.1520649881152
30
0
41
1
10
194.10104522219
20
-18.1411897604664
30
0
41
1
10
194.113939275079
20
-18.1358126586914
30
0
41
1
10
194.153173071952
20
-18.1199969565046
30
0
41
1
10
194.180080355828
20
-18.1098631686291
30
0
41
1
10
194.263298967132
20
-18.0808712970614
30
0
41
1
10
194.322070381674
20
-18.0633998739149
30
0
41
1
10
194.400867530482
20
-18.0447349013181
30
0
41
1
10
194.416896501224
20
-18.0411624248948
30
0
41
1
10
194.44953802654
20
-18.034368579931
30
0
41
1
10
194.466203380125
20
-18.0311387516228
30
0
41
1
10
194.516518877953
20
-18.0221362112792
30
0
41
1
10
194.550607072136
20
-18.0170186841445
30
0
41
1
10
194.619942639742
20
-18.0086880360542
30
0
41
1
10
194.655189746932
20
-18.0054745163202
30
0
41
1
10
194.70900170818
20
-18.0022118475391
30
0
41
1
10
194.727137738978
20
-18.0013831816191
30
0
41
1
10
194.763528001302
20
-18.000277476455
30
0
41
1
10
194.781750314208
20
-18
30
0
41
1
10
194.8
20
-18
30
0
0
SPLINE
5
206
100
AcDbEntity
8
1
62
256
6
ByLayer
370
18
48
1
60
0
100
AcDbSpline
70
2053
71
3
72
150
73
146
40
0
40
0
40
0
40
0
40
0.0156249999999911
40
0.0156249999999911
40
0.0234374999999825
40
0.0234374999999825
40
0.0312499999999739
40
0.0312499999999739
40
0.0390624999999654
40
0.0390624999999654
40
0.0468749999999568
40
0.0468749999999568
40
0.0624999999999464
40
0.0624999999999464
40
0.0781249999999359
40
0.0781249999999359
40
0.0859374999999303
40
0.0859374999999303
40
0.0937499999999247
40
0.0937499999999247
40
0.109374999999914
40
0.109374999999914
40
0.124999999999902
40
0.124999999999902
40
0.140624999999891
40
0.140624999999891
40
0.15624999999988
40
0.15624999999988
40
0.187499999999857
40
0.187499999999857
40
0.218749999999835
40
0.218749999999835
40
0.249999999999812
40
0.249999999999812
40
0.265624999999801
40
0.265624999999801
40
0.28124999999979
40
0.28124999999979
40
0.312499999999768
40
0.312499999999768
40
0.343749999999747
40
0.343749999999747
40
0.359374999999736
40
0.359374999999736
40
0.374999999999726
40
0.374999999999726
40
0.390624999999715
40
0.390624999999715
40
0.406249999999705
40
0.406249999999705
40
0.414062499999699
40
0.414062499999699
40
0.421874999999693
40
0.421874999999693
40
0.437499999999681
40
0.437499999999681
40
0.445312499999675
40
0.445312499999675
40
0.453124999999669
40
0.453124999999669
40
0.468749999999657
40
0.468749999999657
40
0.476562499999654
40
0.476562499999654
40
0.484374999999652
40
0.484374999999652
40
0.499999999999648
40
0.499999999999648
40
0.503906249999642
40
0.503906249999642
40
0.507812499999637
40
0.507812499999637
40
0.515624999999635
40
0.523437499999632
40
0.523437499999632
40
0.527343749999635
40
0.527343749999635
40
0.531249999999638
40
0.531249999999638
40
0.546874999999649
40
0.546874999999649
40
0.554687499999655
40
0.554687499999655
40
0.56249999999966
40
0.56249999999966
40
0.578124999999672
40
0.578124999999672
40
0.593749999999683
40
0.593749999999683
40
0.601562499999687
40
0.601562499999687
40
0.60937499999969
40
0.60937499999969
40
0.624999999999702
40
0.624999999999702
40
0.656249999999728
40
0.656249999999728
40
0.664062499999735
40
0.664062499999735
40
0.671874999999741
40
0.687499999999754
40
0.687499999999754
40
0.718749999999779
40
0.718749999999779
40
0.749999999999804
40
0.749999999999804
40
0.765624999999816
40
0.765624999999816
40
0.781249999999828
40
0.781249999999828
40
0.812499999999851
40
0.812499999999851
40
0.843749999999874
40
0.843749999999874
40
0.859374999999886
40
0.859374999999886
40
0.874999999999898
40
0.874999999999898
40
0.89062499999991
40
0.89062499999991
40
0.906249999999921
40
0.906249999999921
40
0.91406249999993
40
0.91406249999993
40
0.921874999999938
40
0.921874999999938
40
0.937499999999954
40
0.937499999999954
40
0.95312499999997
40
0.95312499999997
40
0.957031249999978
40
0.957031249999978
40
0.960937499999987
40
0.968749999999998
40
0.968749999999998
40
0.976562500000008
40
0.976562500000008
40
0.980468750000009
40
0.980468750000009
40
0.984375000000011
40
0.992187500000005
40
0.992187500000005
40
0.996093750000003
40
0.996093750000003
40
1
40
1
40
1
40
1
41
1
10
196.00219831096
20
-17.5999978033746
30
0
41
1
10
195.949995836938
20
-17.6001021283745
30
0
41
1
10
195.899159747366
20
-17.596513511343
30
0
41
1
10
195.824706914269
20
-17.586232016363
30
0
41
1
10
195.800094398607
20
-17.5819530217974
30
0
41
1
10
195.752747164061
20
-17.5721243519129
30
0
41
1
10
195.729840906573
20
-17.566558271109
30
0
41
1
10
195.685350209981
20
-17.5542902783736
30
0
41
1
10
195.663766515059
20
-17.5475877335141
30
0
41
1
10
195.621765634272
20
-17.5331659016767
30
0
41
1
10
195.601282680589
20
-17.5254149768481
30
0
41
1
10
195.54233572429
20
-17.5011737675894
30
0
41
1
10
195.506046435829
20
-17.4836242510236
30
0
41
1
10
195.437940126793
20
-17.4463590701679
30
0
41
1
10
195.406139501553
20
-17.4266364817995
30
0
41
1
10
195.361161003334
20
-17.3956651727031
30
0
41
1
10
195.346608850235
20
-17.3850936896524
30
0
41
1
10
195.318579688031
20
-17.3636997119889
30
0
41
1
10
195.305070407561
20
-17.35285630485
30
0
41
1
10
195.265902097393
20
-17.3199172702562
30
0
41
1
10
195.241594897816
20
-17.2974144710872
30
0
41
1
10
195.196009640518
20
-17.2514303956973
30
0
41
1
10
195.174735206103
20
-17.2279483547244
30
0
41
1
10
195.134853210392
20
-17.1800675110779
30
0
41
1
10
195.1162474972
20
-17.1556683254488
30
0
41
1
10
195.081469097192
20
-17.105987144903
30
0
41
1
10
195.06527900837
20
-17.0806731300618
30
0
41
1
10
195.020260185086
20
-17.0036351454651
30
0
41
1
10
194.995224885141
20
-16.9513201815336
30
0
41
1
10
194.953882011223
20
-16.844818925316
30
0
41
1
10
194.937588240187
20
-16.7906318917437
30
0
41
1
10
194.913421110966
20
-16.6803661880543
30
0
41
1
10
194.905550122759
20
-16.6242875350912
30
0
41
1
10
194.900309427674
20
-16.5386991786754
30
0
41
1
10
194.89966171221
20
-16.5099242779374
30
0
41
1
10
194.900670063534
20
-16.4518696596899
30
0
41
1
10
194.902335453884
20
-16.4225394193868
30
0
41
1
10
194.910913004901
20
-16.3345916975866
30
0
41
1
10
194.921369148319
20
-16.2757928642993
30
0
41
1
10
194.952734333467
20
-16.1580234253665
30
0
41
1
10
194.973624572907
20
-16.0990505559557
30
0
41
1
10
195.01429877366
20
-16.010668991483
30
0
41
1
10
195.029434224988
20
-15.9812025512492
30
0
41
1
10
195.063214894214
20
-15.9224340885817
30
0
41
1
10
195.081710667346
20
-15.8933901426904
30
0
41
1
10
195.122231622592
20
-15.836107318104
30
0
41
1
10
195.144254698962
20
-15.8078677464697
30
0
41
1
10
195.192293894077
20
-15.7523651137884
30
0
41
1
10
195.218305927032
20
-15.7251007219036
30
0
41
1
10
195.260842917709
20
-15.6851224408352
30
0
41
1
10
195.275648300664
20
-15.6719207429393
30
0
41
1
10
195.306253908167
20
-15.6461165182695
30
0
41
1
10
195.32207350329
20
-15.6334923565402
30
0
41
1
10
195.371183624239
20
-15.5965237745047
30
0
41
1
10
195.40611301313
20
-15.5730757014204
30
0
41
1
10
195.462373582011
20
-15.5400883182302
30
0
41
1
10
195.481774219713
20
-15.5294582801433
30
0
41
1
10
195.522012518933
20
-15.5090221206913
30
0
41
1
10
195.542877944955
20
-15.4992117820378
30
0
41
1
10
195.606745628221
20
-15.4716510705216
30
0
41
1
10
195.651330893374
20
-15.4555826952
30
0
41
1
10
195.721666321177
20
-15.4355166622473
30
0
41
1
10
195.74570917203
20
-15.4294996206253
30
0
41
1
10
195.794992654647
20
-15.4189787810675
30
0
41
1
10
195.819813046708
20
-15.4145644506543
30
0
41
1
10
195.894811733531
20
-15.4038767823473
30
0
41
1
10
195.945524382064
20
-15.4001449594405
30
0
41
1
10
196.009856083006
20
-15.3999689088133
30
0
41
1
10
196.022769716774
20
-15.4001592238607
30
0
41
1
10
196.048693866749
20
-15.40100177425
30
0
41
1
10
196.06168211669
20
-15.4016550855283
30
0
41
1
10
196.10027280115
20
-15.4042763560048
30
0
41
1
10
196.151068622493
20
-15.4095411849401
30
0
41
1
10
196.200613983796
20
-15.4181594295601
30
0
41
1
10
196.237320235906
20
-15.4258327163724
30
0
41
1
10
196.249480107384
20
-15.4285922899347
30
0
41
1
10
196.273650510628
20
-15.4345094072678
30
0
41
1
10
196.2856856319
20
-15.4376745606552
30
0
41
1
10
196.344957478697
20
-15.4543278489202
30
0
41
1
10
196.389822794096
20
-15.4703423122034
30
0
41
1
10
196.453873160276
20
-15.4977333959514
30
0
41
1
10
196.474692731668
20
-15.5074365045928
30
0
41
1
10
196.515244430845
20
-15.5278690117085
30
0
41
1
10
196.534769351319
20
-15.5384919205609
30
0
41
1
10
196.59133039941
20
-15.5714352244027
30
0
41
1
10
196.626364838563
20
-15.5948232970703
30
0
41
1
10
196.691948917994
20
-15.6439132816116
30
0
41
1
10
196.722492345166
20
-15.6696187773798
30
0
41
1
10
196.765334593007
20
-15.7096551375044
30
0
41
1
10
196.779057863306
20
-15.7231941437784
30
0
41
1
10
196.805330204972
20
-15.7504656421483
30
0
41
1
10
196.817905379912
20
-15.7642225670684
30
0
41
1
10
196.854083113589
20
-15.8058151540936
30
0
41
1
10
196.876143960085
20
-15.83397089846
30
0
41
1
10
196.936949484282
20
-15.9194677653495
30
0
41
1
10
196.970364290907
20
-15.9778252560247
30
0
41
1
10
197.004748753389
20
-16.0519519835076
30
0
41
1
10
197.011235357177
20
-16.0668028579671
30
0
41
1
10
197.023423919448
20
-16.0964389487659
30
0
41
1
10
197.040550036156
20
-16.1408464318818
30
0
41
1
10
197.054403106866
20
-16.1850994474999
30
0
41
1
10
197.078124310559
20
-16.2733702360246
30
0
41
1
10
197.08865070342
20
-16.3319022018951
30
0
41
1
10
197.100335033771
20
-16.4482309238946
30
0
41
1
10
197.101485121446
20
-16.5060282740045
30
0
41
1
10
197.09651205519
20
-16.5921290727011
30
0
41
1
10
197.093724058405
20
-16.6207594932818
30
0
41
1
10
197.085986818234
20
-16.6773352806786
30
0
41
1
10
197.081036789311
20
-16.7053397211668
30
0
41
1
10
197.063002814472
20
-16.7885217152139
30
0
41
1
10
197.046756852141
20
-16.842870260448
30
0
41
1
10
197.005633892568
20
-16.9494000413023
30
0
41
1
10
196.980767806461
20
-17.0015820876183
30
0
41
1
10
196.936245726264
20
-17.0782010552181
30
0
41
1
10
196.920194038789
20
-17.1034643254678
30
0
41
1
10
196.885418817973
20
-17.1534215927829
30
0
41
1
10
196.866772654305
20
-17.1780003627777
30
0
41
1
10
196.82682470435
20
-17.2261819568507
30
0
41
1
10
196.805509140853
20
-17.2498077905929
30
0
41
1
10
196.759825889618
20
-17.2960661507038
30
0
41
1
10
196.73546182669
20
-17.3186994483054
30
0
41
1
10
196.696196438181
20
-17.3518237732988
30
0
41
1
10
196.682678737021
20
-17.3627035110324
30
0
41
1
10
196.654828359258
20
-17.3840290865343
30
0
41
1
10
196.640479857083
20
-17.3944886015842
30
0
41
1
10
196.596044811247
20
-17.4252177072211
30
0
41
1
10
196.564584848732
20
-17.4448439968687
30
0
41
1
10
196.497053038593
20
-17.4820511731382
30
0
41
1
10
196.461000012658
20
-17.4996392982582
30
0
41
1
10
196.412024818769
20
-17.519974525351
30
0
41
1
10
196.4020133008
20
-17.5239644076344
30
0
41
1
10
196.381730582092
20
-17.5316979169209
30
0
41
1
10
196.350868782221
20
-17.5429474103638
30
0
41
1
10
196.318622421256
20
-17.5530960713703
30
0
41
1
10
196.274216030651
20
-17.5655220088748
30
0
41
1
10
196.251308172709
20
-17.5711829116262
30
0
41
1
10
196.215703019371
20
-17.5787119005517
30
0
41
1
10
196.203665849588
20
-17.5810510534838
30
0
41
1
10
196.179452426878
20
-17.5853334906223
30
0
41
1
10
196.142831994254
20
-17.5911809043525
30
0
41
1
10
196.105280302515
20
-17.5952483778505
30
0
41
1
10
196.067051915759
20
-17.5980288149286
30
0
41
1
10
196.054196183861
20
-17.5987407998923
30
0
41
1
10
196.028247390971
20
-17.5997138976098
30
0
41
1
10
196.015248929466
20
-17.5999717221246
30
0
41
1
10
196.00219831096
20
-17.5999978033746
30
0
0
SPLINE
5
207
100
AcDbEntity
8
1
62
256
6
ByLayer
370
18
48
1
60
0
100
AcDbSpline
70
4
71
3
72
13
73
9
40
0
40
0
40
0
40
0
40
0.162752836445622
40
0.50792247612981
40
0.694778125538457
40
0.825485148835366
40
0.958031290793106
40
1
40
1
40
1
40
1
41
1
10
217.892191045836
20
-0.569621489082579
30
0
41
1
10
217.878395383824
20
-0.488118619481725
30
0
41
1
10
217.828979401736
20
-0.24373657764238
30
0
41
1
10
217.75692321647
20
0.0130184679731542
30
0
41
1
10
217.627681393898
20
0.266780385521599
30
0
41
1
10
217.435124227599
20
0.455566863500565
30
0
41
1
10
217.216658468257
20
0.560095310794452
30
0
41
1
10
217.088149756748
20
0.54582605974997
30
0
41
1
10
217.056295036799
20
0.539738719696629
30
0
0
SPLINE
5
208
100
AcDbEntity
8
1
62
256
6
ByLayer
370
18
48
1
60
0
100
AcDbSpline
70
4
71
3
72
14
73
10
40
0
40
0
40
0
40
0
40
0.0180610851094448
40
0.154332048364975
40
0.27348472031222
40
0.406760181823211
40
0.579045954969083
40
0.862514402476957
40
1
40
1
40
1
40
1
41
1
10
217.06119069322
20
-9.54811408517139
30
0
41
1
10
217.074038824012
20
-9.55098598747549
30
0
41
1
10
217.18279161077
20
-9.57092272721746
30
0
41
1
10
217.383373502124
20
-9.48556167300171
30
0
41
1
10
217.568920040665
20
-9.33607623211151
30
0
41
1
10
217.682808504269
20
-9.16603720440446
30
0
41
1
10
217.772216906027
20
-8.95720690318961
30
0
41
1
10
217.834709810476
20
-8.74052583162194
30
0
41
1
10
217.871840259328
20
-8.53179790729428
30
0
41
1
10
217.882732203091
20
-8.45994315544806
30
0
0
SPLINE
5
209
100
AcDbEntity
8
1
62
256
6
ByLayer
370
18
48
1
60
0
100
AcDbSpline
70
4
71
3
72
8
73
4
40
0
40
0
40
0
40
0
40
1
40
1
40
1
40
1
41
1
10
208.637173774675
20
21.1208496972949
30
0
41
1
10
208.79002761865
20
21.1546127013824
30
0
41
1
10
208.943454833288
20
21.1854397828505
30
0
41
1
10
209.097502041201
20
21.2133628597338
30
0
0
SPLINE
5
20A
100
AcDbEntity
8
1
62
256
6
ByLayer
370
18
48
1
60
0
100
AcDbSpline
70
4
71
3
72
21
73
17
40
0
40
0
40
0
40
0
40
0.0076062038111019
40
0.0247809874061012
40
0.120749415203985
40
0.214807445860978
40
0.306934215940286
40
0.397810531592057
40
0.488570695287844
40
0.580428924913645
40
0.674228522413517
40
0.770050523197917
40
0.867089734349134
40
0.964199706900931
40
0.992393796205749
40
1
40
1
40
1
40
1
41
1
10
187
20
7.49213186831832
30
0
41
1
10
187.002058174234
20
7.48359709542666
30
0
41
1
10
187.0083658276
20
7.45571456494605
30
0
41
1
10
187.032845621799
20
7.31861301504779
30
0
41
1
10
187.024677204472
20
7.0741895359555
30
0
41
1
10
186.898415534068
20
6.76183120721396
30
0
41
1
10
186.675302079172
20
6.50757742965783
30
0
41
1
10
186.380122526222
20
6.3371084610784
30
0
41
1
10
186.042325736618
20
6.2681014064658
30
0
41
1
10
185.695797206454
20
6.31062729967374
30
0
41
1
10
185.378886552177
20
6.46426822461535
30
0
41
1
10
185.131068547847
20
6.71420890352783
30
0
41
1
10
184.984939173259
20
7.02978296591829
30
0
41
1
10
184.964941947061
20
7.29176571918134
30
0
41
1
10
184.98882983438
20
7.4433190418228
30
0
41
1
10
184.997941623466
20
7.48359603023698
30
0
41
1
10
185
20
7.49213186831832
30
0
0
SPLINE
5
20B
100
AcDbEntity
8
1
62
256
6
ByLayer
370
18
48
1
60
0
100
AcDbSpline
70
4
71
3
72
20
73
16
40
0
40
0
40
0
40
0
40
0.145238614567465
40
0.145238614567465
40
0.316534079942819
40
0.316534079942819
40
0.445037822111604
40
0.445037822111604
40
0.549660439794436
40
0.549660439794436
40
0.681182059071602
40
0.681182059071602
40
0.860808574223346
40
0.860808574223346
40
1
40
1
40
1
40
1
41
1
10
210.801481908329
20
18.6202951398753
30
0
41
1
10
210.686722886835
20
18.5468459151588
30
0
41
1
10
210.582162955476
20
18.4559186439153
30
0
41
1
10
210.395770547669
20
18.2408207747981
30
0
41
1
10
210.316561471096
20
18.1098224302951
30
0
41
1
10
210.219640420351
20
17.8640588852553
30
0
41
1
10
210.190526120013
20
17.750162872658
30
0
41
1
10
210.165973338702
20
17.535421264808
30
0
41
1
10
210.165424966273
20
17.434033030827
30
0
41
1
10
210.188024718549
20
17.2134136928426
30
0
41
1
10
210.217041374506
20
17.0932604847675
30
0
41
1
10
210.316426363143
20
16.8299296433495
30
0
41
1
10
210.400017768593
20
16.6874440055009
30
0
41
1
10
210.590632218225
20
16.4660020974237
30
0
41
1
10
210.691379137296
20
16.3774403881574
30
0
41
1
10
210.801481908329
20
16.3069713037559
30
0
0
SPLINE
5
20C
100
AcDbEntity
8
1
62
256
6
ByLayer
370
18
48
1
60
0
100
AcDbSpline
70
4
71
3
72
26
73
22
40
0
40
0
40
0
40
0
40
0.124999999999981
40
0.249999999999962
40
0.249999999999962
40
0.312499999999952
40
0.312499999999952
40
0.374999999999942
40
0.374999999999942
40
0.499999999999923
40
0.499999999999923
40
0.562499999999953
40
0.562499999999953
40
0.624999999999982
40
0.624999999999982
40
0.749999999999971
40
0.874999999999959
40
0.874999999999959
40
0.93749999999998
40
0.93749999999998
40
1
40
1
40
1
40
1
41
1
10
210.801481908329
20
21.3034345291767
30
0
41
1
10
210.763888564413
20
21.3017581187552
30
0
41
1
10
210.68961795066
20
21.2983241679873
30
0
41
1
10
210.617101830574
20
21.2947534866627
30
0
41
1
10
210.563381950441
20
21.2920450660174
30
0
41
1
10
210.545535476633
20
21.2911346572002
30
0
41
1
10
210.510310824522
20
21.2893213788403
30
0
41
1
10
210.493022589497
20
21.2884232212588
30
0
41
1
10
210.442104470738
20
21.2857628510635
30
0
41
1
10
210.4094167281
20
21.2840341919413
30
0
41
1
10
210.362254114653
20
21.2815521574024
30
0
41
1
10
210.346845865083
20
21.2807434334196
30
0
41
1
10
210.31666550289
20
21.2791723312603
30
0
41
1
10
210.301837084719
20
21.2784071111911
30
0
41
1
10
210.258836192818
20
21.2762221567409
30
0
41
1
10
210.205439716778
20
21.2736024073131
30
0
41
1
10
210.159670451257
20
21.271693069998
30
0
41
1
10
210.12828123106
20
21.2705883827118
30
0
41
1
10
210.1182910447
20
21.2702745469863
30
0
41
1
10
210.099503696993
20
21.2697729977952
30
0
41
1
10
210.090685994507
20
21.2695843913477
30
0
41
1
10
210.082446671289
20
21.2694621402998
30
0
0
SPLINE
5
20D
100
AcDbEntity
8
1
62
256
6
ByLayer
370
18
48
1
60
0
100
AcDbSpline
70
4
71
3
72
18
73
14
40
0
40
0
40
0
40
0
40
0.249999999999971
40
0.249999999999971
40
0.499999999999942
40
0.499999999999942
40
0.624999999999956
40
0.624999999999956
40
0.749999999999971
40
0.749999999999971
40
0.874999999999985
40
0.874999999999985
40
1
40
1
40
1
40
1
41
1
10
215.104171236207
20
7.45927536046395
30
0
41
1
10
215.170668891841
20
7.52062948041635
30
0
41
1
10
215.237909561135
20
7.57932105231708
30
0
41
1
10
215.373939053317
20
7.69190312185532
30
0
41
1
10
215.442727817792
20
7.74578949232233
30
0
41
1
10
215.546983880303
20
7.82320169909787
30
0
41
1
10
215.582008811124
20
7.84849880937736
30
0
41
1
10
215.651562165042
20
7.89740002323731
30
0
41
1
10
215.686161228514
20
7.92106013634162
30
0
41
1
10
215.754911535222
20
7.96684716091477
30
0
41
1
10
215.789063858945
20
7.98897437734951
30
0
41
1
10
215.856757873703
20
8.03170103219281
30
0
41
1
10
215.890302021239
20
8.05230141505683
30
0
41
1
10
215.923399289184
20
8.07211091495913
30
0
0
SPLINE
5
20E
100
AcDbEntity
8
1
62
256
6
ByLayer
370
18
48
1
60
0
100
AcDbSpline
70
4
71
3
72
20
73
16
40
0
40
0
40
0
40
0
40
0.12499999999999
40
0.12499999999999
40
0.187499999999986
40
0.187499999999986
40
0.249999999999981
40
0.249999999999981
40
0.49999999999999
40
0.49999999999999
40
0.624999999999993
40
0.624999999999993
40
0.749999999999995
40
0.749999999999995
40
1
40
1
40
1
40
1
41
1
10
213.555399741214
20
4.53017122477507
30
0
41
1
10
213.558093149548
20
4.54834130241051
30
0
41
1
10
213.560995535412
20
4.56722928202635
30
0
41
1
10
213.565702726043
20
4.59664489424301
30
0
41
1
10
213.567330802583
20
4.60663097294406
30
0
41
1
10
213.570712731926
20
4.62696934482005
30
0
41
1
10
213.572469118427
20
4.63733527607485
30
0
41
1
10
213.581490789524
20
4.68955140397276
30
0
41
1
10
213.589536009625
20
4.73293771710041
30
0
41
1
10
213.60302508772
20
4.80029006606111
30
0
41
1
10
213.607758806727
20
4.82312214462831
30
0
41
1
10
213.617738396091
20
4.86955311760619
30
0
41
1
10
213.622991027583
20
4.89317329583071
30
0
41
1
10
213.639286326978
20
4.9639775376404
30
0
41
1
10
213.650948096816
20
5.01149799142013
30
0
41
1
10
213.663449775376
20
5.05932148698798
30
0
0
SPLINE
5
20F
100
AcDbEntity
8
1
62
256
6
ByLayer
370
18
48
1
60
0
100
AcDbSpline
70
4
71
3
72
20
73
16
40
0
40
0
40
0
40
0
40
0.0076064735894309
40
0.0527146842322074
40
0.148184112714414
40
0.241656391489075
40
0.333330016690632
40
0.424048116799603
40
0.515011239478138
40
0.607373877797746
40
0.701791811189872
40
0.798086580884349
40
0.895229236354241
40
0.992393526411714
40
1
40
1
40
1
40
1
41
1
10
185
20
7.49213186831832
30
0
41
1
10
184.997941302993
20
7.50066948867783
30
0
41
1
10
184.984525866504
20
7.55992991058406
30
0
41
1
10
184.963140492996
20
7.72936877726738
30
0
41
1
10
185.000582313907
20
7.99942996181682
30
0
41
1
10
185.156988385217
20
8.28944156067519
30
0
41
1
10
185.403665536178
20
8.51239820916243
30
0
41
1
10
185.714341592048
20
8.64821351950178
30
0
41
1
10
186.058348217454
20
8.68374289533523
30
0
41
1
10
186.400422411116
20
8.61241528665943
30
0
41
1
10
186.701340758335
20
8.43722166615584
30
0
41
1
10
186.922600128493
20
8.17444122193967
30
0
41
1
10
187.035386174406
20
7.85463154924952
30
0
41
1
10
187.028725405443
20
7.61838834388709
30
0
41
1
10
187.002059760564
20
7.50067465306671
30
0
41
1
10
187
20
7.49213186831832
30
0
0
SPLINE
5
210
100
AcDbEntity
8
1
62
256
6
ByLayer
370
18
48
1
60
0
100
AcDbSpline
70
4
71
3
72
8
73
4
40
0
40
0
40
0
40
0
40
1
40
1
40
1
40
1
41
1
10
211.082253603477
20
18.5215334460292
30
0
41
1
10
211.061541599208
20
18.5506396532355
30
0
41
1
10
211.040848820528
20
18.5797014116759
30
0
41
1
10
211.020171452373
20
18.608727632611
30
0
0
SPLINE
5
211
100
AcDbEntity
8
1
62
256
6
ByLayer
370
18
48
1
60
0
100
AcDbSpline
70
4
71
3
72
8
73
4
40
0
40
0
40
0
40
0
40
1
40
1
40
1
40
1
41
1
10
195.86279147143
20
17.3254666594756
30
0
41
1
10
195.848646399798
20
17.3782567854841
30
0
41
1
10
195.834511765928
20
17.4310079572345
30
0
41
1
10
195.820383156252
20
17.4837366463856
30
0
0
SPLINE
5
212
100
AcDbEntity
8
1
62
256
6
ByLayer
370
18
48
1
60
0
100
AcDbSpline
70
4
71
3
72
20
73
16
40
0
40
0
40
0
40
0
40
0.0076064735882855
40
0.104770763649387
40
0.201913419122018
40
0.298208188816411
40
0.392626122208395
40
0.484988760527879
40
0.575951883206375
40
0.666669983315365
40
0.758343608517026
40
0.851815887291831
40
0.947285315774151
40
0.992393526410581
40
1
40
1
40
1
40
1
41
1
10
187
20
-18.5436770913358
30
0
41
1
10
187.002059760564
20
-18.540225880722
30
0
41
1
10
187.028725405446
20
-18.4925721536879
30
0
41
1
10
187.035386174405
20
-18.3942841779637
30
0
41
1
10
186.922600128484
20
-18.2541426725473
30
0
41
1
10
186.701340758318
20
-18.1337541293212
30
0
41
1
10
186.400422411095
20
-18.0508151720384
30
0
41
1
10
186.058348217431
20
-18.016436060422
30
0
41
1
10
185.714341592026
20
-18.0336031350373
30
0
41
1
10
185.403665536159
20
-18.0983992614082
30
0
41
1
10
185.156988385203
20
-18.2019799613377
30
0
41
1
10
185.0005823139
20
-18.3316302690775
30
0
41
1
10
184.963140492998
20
-18.4467110218897
30
0
41
1
10
184.984525866505
20
-18.5162367057638
30
0
41
1
10
184.997941302994
20
-18.5402278759153
30
0
41
1
10
185
20
-18.5436770913358
30
0
0
LINE
5
70
100
AcDbEntity
8
4
62
256
6
ByLayer
370
13
48
0.05
60
0
100
AcDbLine
10
0
20
0
30
0
11
220
21
0
31
0
39
0
210
0
220
0
230
1
0
LINE
5
72
100
AcDbEntity
8
80
62
256
6
ByLayer
370
13
48
1
60
0
100
AcDbLine
10
0
20
0
30
0
11
-4.28511
21
0
31
0
39
0
210
0
220
0
230
1
0
LINE
5
73
100
AcDbEntity
8
SK4
62
256
6
ByLayer
370
13
48
0.05
60
0
100
AcDbLine
10
-27.5
20
0
30
0
11
223.5
21
0
31
0
39
0
210
0
220
0
230
1
0
LINE
5
75
100
AcDbEntity
8
81
62
256
6
ByLayer
370
13
48
1
60
0
100
AcDbLine
10
220.000937
20
21.993116
30
0
11
222.000937
21
21.993116
31
0
39
0
210
0
220
0
230
1
0
LINE
5
76
100
AcDbEntity
8
1
62
256
6
ByLayer
370
18
48
1
60
0
100
AcDbLine
10
197.218127
20
-1.513789
30
0
11
197.231863
21
-1.513789
31
0
39
0
210
0
220
0
230
1
0
LINE
5
78
100
AcDbEntity
8
1
62
256
6
ByLayer
370
18
48
1
60
0
100
AcDbLine
10
198.970647
20
-1.380353
30
0
11
198.98447
21
-1.380353
31
0
39
0
210
0
220
0
230
1
0
LINE
5
79
100
AcDbEntity
8
SK1
62
256
6
ByLayer
370
18
48
1
60
0
100
AcDbLine
10
-0.2
20
5.703176
30
0
11
-0.2
21
14.083485
31
0
39
0
210
0
220
0
230
1
0
LINE
5
7B
100
AcDbEntity
8
SK1
62
256
6
ByLayer
370
18
48
1
60
0
100
AcDbLine
10
-0.2
20
-14.083485
30
0
11
-0.2
21
-5.703176
31
0
39
0
210
0
220
0
230
1
0
LINE
5
7C
100
AcDbEntity
8
1
62
256
6
ByLayer
370
18
48
1
60
0
100
AcDbLine
10
196.660182
20
-1.288668
30
0
11
196.670649
21
-1.288668
31
0
39
0
210
0
220
0
230
1
0
LINE
5
7D
100
AcDbEntity
8
1
62
256
6
ByLayer
370
18
48
1
60
0
100
AcDbLine
10
198.375914
20
0.040777
30
0
11
198.386381
21
0.040777
31
0
39
0
210
0
220
0
230
1
0
LINE
5
7E
100
AcDbEntity
8
1
62
256
6
ByLayer
370
18
48
1
60
0
100
AcDbLine
10
198.185845
20
-1.350064
30
0
11
198.196312
21
-1.350064
31
0
39
0
210
0
220
0
230
1
0
LINE
5
7F
100
AcDbEntity
8
SK1
62
256
6
ByLayer
370
18
48
1
60
0
100
AcDbLine
10
-1.307107
20
-3.627816
30
0
11
-1.307107
21
3.627817
31
0
39
0
210
0
220
0
230
1
0
LINE
5
80
100
AcDbEntity
8
1
62
256
6
ByLayer
370
18
48
1
60
0
100
AcDbLine
10
196.550841
20
-1.044718
30
0
11
196.561309
21
-1.044718
31
0
39
0
210
0
220
0
230
1
0
LINE
5
81
100
AcDbEntity
8
1
62
256
6
ByLayer
370
18
48
1
60
0
100
AcDbLine
10
211.919529
20
6.552382
30
0
11
213.301586
21
6.430494
31
0
39
0
210
0
220
0
230
1
0
LINE
5
82
100
AcDbEntity
8
1
62
256
6
ByLayer
370
18
48
1
60
0
100
AcDbLine
10
218.166199
20
4.501005
30
0
11
217.553029
21
4.501005
31
0
39
0
210
0
220
0
230
1
0
LINE
5
83
100
AcDbEntity
8
1
62
256
6
ByLayer
370
18
48
1
60
0
100
AcDbLine
10
205.065539
20
5.900143
30
0
11
211.988089
21
5.900143
31
0
39
0
210
0
220
0
230
1
0
LINE
5
84
100
AcDbEntity
8
1
62
256
6
ByLayer
370
18
48
1
60
0
100
AcDbLine
10
211.988089
20
5.900143
30
0
11
211.988089
21
-9.977048
31
0
39
0
210
0
220
0
230
1
0
LINE
5
85
100
AcDbEntity
8
1
62
256
6
ByLayer
370
18
48
1
60
0
100
AcDbLine
10
205.500423
20
9.200143
30
0
11
205.472113
21
8.999977
31
0
39
0
210
0
220
0
230
1
0
LINE
5
86
100
AcDbEntity
8
1
62
256
6
ByLayer
370
18
48
1
60
0
100
AcDbLine
10
205.500423
20
9.200143
30
0
11
211.641246
21
9.200143
31
0
39
0
210
0
220
0
230
1
0
LINE
5
87
100
AcDbEntity
8
1
62
256
6
ByLayer
370
18
48
1
60
0
100
AcDbLine
10
211.641246
20
9.200143
30
0
11
211.988089
21
5.900143
31
0
39
0
210
0
220
0
230
1
0
LINE
5
88
100
AcDbEntity
8
1
62
256
6
ByLayer
370
18
48
1
60
0
100
AcDbLine
10
211.136586
20
-20.972833
30
0
11
218.836586
21
-20.972833
31
0
39
0
210
0
220
0
230
1
0
LINE
5
89
100
AcDbEntity
8
1
62
256
6
ByLayer
370
18
48
1
60
0
100
AcDbLine
10
211.875927
20
-11.499857
30
0
11
213.023592
21
-11.499857
31
0
39
0
210
0
220
0
230
1
0
LINE
5
8A
100
AcDbEntity
8
1
62
256
6
ByLayer
370
18
48
1
60
0
100
AcDbLine
10
218.182362
20
-18.274527
30
0
11
215.076115
21
-18.274527
31
0
39
0
210
0
220
0
230
1
0
LINE
5
8B
100
AcDbEntity
8
1
62
256
6
ByLayer
370
18
48
1
60
0
100
AcDbLine
10
218.391209
20
-14.774395
30
0
11
216.576115
21
-14.535049
31
0
39
0
210
0
220
0
230
1
0
LINE
5
8C
100
AcDbEntity
8
1
62
256
6
ByLayer
370
18
48
1
60
0
100
AcDbLine
10
218.861655
20
-18.894535
30
0
11
218.787101
21
-11.466781
31
0
39
0
210
0
220
0
230
1
0
LINE
5
8D
100
AcDbEntity
8
1
62
256
6
ByLayer
370
18
48
1
60
0
100
AcDbLine
10
218.182362
20
-18.274527
30
0
11
218.391209
21
-14.774395
31
0
39
0
210
0
220
0
230
1
0
LINE
5
8E
100
AcDbEntity
8
1
62
256
6
ByLayer
370
13
48
1
60
0
100
AcDbLine
10
216.576115
20
-14.535049
30
0
11
216.576115
21
-14.774395
31
0
39
0
210
0
220
0
230
1
0
LINE
5
8F
100
AcDbEntity
8
1
62
256
6
ByLayer
370
18
48
1
60
0
100
AcDbLine
10
213.023592
20
-11.499857
30
0
11
218.269438
21
-11.499857
31
0
39
0
210
0
220
0
230
1
0
LINE
5
90
100
AcDbEntity
8
1
62
256
6
ByLayer
370
18
48
1
60
0
100
AcDbLine
10
218.391209
20
-14.774395
30
0
11
216.576115
21
-14.774395
31
0
39
0
210
0
220
0
230
1
0
LINE
5
91
100
AcDbEntity
8
1
62
256
6
ByLayer
370
18
48
1
60
0
100
AcDbLine
10
219.336586
20
-9.194329
30
0
11
219.224765
21
-9.166449
31
0
39
0
210
0
220
0
230
1
0
LINE
5
92
100
AcDbEntity
8
1
62
256
6
ByLayer
370
18
48
1
60
0
100
AcDbLine
10
219.336586
20
-9.194329
30
0
11
219.336586
21
-12.058843
31
0
39
0
210
0
220
0
230
1
0
LINE
5
93
100
AcDbEntity
8
1
62
256
6
ByLayer
370
18
48
1
60
0
100
AcDbLine
10
219.336586
20
-12.058843
30
0
11
219.336586
21
-20.526454
31
0
39
0
210
0
220
0
230
1
0
LINE
5
94
100
AcDbEntity
8
1
62
256
6
ByLayer
370
18
48
1
60
0
100
AcDbLine
10
205.241402
20
-19.893891
30
0
11
200.801586
21
-18.864172
31
0
39
0
210
0
220
0
230
1
0
LINE
5
95
100
AcDbEntity
8
1
62
256
6
ByLayer
370
18
48
1
60
0
100
AcDbLine
10
205.443682
20
-19.953649
30
0
11
205.241402
21
-19.893891
31
0
39
0
210
0
220
0
230
1
0
LINE
5
96
100
AcDbEntity
8
1
62
256
6
ByLayer
370
13
48
1
60
0
100
AcDbLine
10
208.437174
20
-20.585846
30
0
11
208.437174
21
-21.325628
31
0
39
0
210
0
220
0
230
1
0
LINE
5
97
100
AcDbEntity
8
1
62
256
6
ByLayer
370
18
48
1
60
0
100
AcDbLine
10
208.437174
20
-21.325628
30
0
11
208.42665
21
-21.32527
31
0
39
0
210
0
220
0
230
1
0
LINE
5
98
100
AcDbEntity
8
1
62
256
6
ByLayer
370
18
48
1
60
0
100
AcDbLine
10
200.801586
20
-18.864172
30
0
11
200.801586
21
-19.67962
31
0
39
0
210
0
220
0
230
1
0
LINE
5
99
100
AcDbEntity
8
1
62
256
6
ByLayer
370
13
48
1
60
0
100
AcDbLine
10
205.443682
20
-19.953649
30
0
11
205.443682
21
-17.999737
31
0
39
0
210
0
220
0
230
1
0
LINE
5
9A
100
AcDbEntity
8
1
62
256
6
ByLayer
370
13
48
1
60
0
100
AcDbLine
10
211.136586
20
-20.972833
30
0
11
211.136586
21
-21.305889
31
0
39
0
210
0
220
0
230
1
0
LINE
5
9B
100
AcDbEntity
8
1
62
256
6
ByLayer
370
18
48
1
60
0
100
AcDbLine
10
206.60366
20
-20.063831
30
0
11
206.744574
21
-20.111793
31
0
39
0
210
0
220
0
230
1
0
LINE
5
9C
100
AcDbEntity
8
1
62
256
6
ByLayer
370
13
48
1
60
0
100
AcDbLine
10
218.836586
20
-20.972833
30
0
11
218.836586
21
-21.024169
31
0
39
0
210
0
220
0
230
1
0
LINE
5
9D
100
AcDbEntity
8
1
62
256
6
ByLayer
370
18
48
1
60
0
100
AcDbLine
10
200.801586
20
-18.864172
30
0
11
200.801586
21
-17.999879
31
0
39
0
210
0
220
0
230
1
0
LINE
5
9E
100
AcDbEntity
8
1
62
256
6
ByLayer
370
18
48
1
60
0
100
AcDbLine
10
200.801586
20
9.013778
30
0
11
200.801586
21
9.200143
31
0
39
0
210
0
220
0
230
1
0
LINE
5
9F
100
AcDbEntity
8
1
62
256
6
ByLayer
370
18
48
1
60
0
100
AcDbLine
10
205.241402
20
-19.893891
30
0
11
205.241402
21
-17.99978
31
0
39
0
210
0
220
0
230
1
0
LINE
5
A0
100
AcDbEntity
8
1
62
256
6
ByLayer
370
18
48
1
60
0
100
AcDbLine
10
200.801586
20
9.200143
30
0
11
202.601586
21
9.200143
31
0
39
0
210
0
220
0
230
1
0
LINE
5
A1
100
AcDbEntity
8
1
62
256
6
ByLayer
370
18
48
1
60
0
100
AcDbLine
10
202.601586
20
8.999998
30
0
11
202.601586
21
9.200143
31
0
39
0
210
0
220
0
230
1
0
LINE
5
A2
100
AcDbEntity
8
1
62
256
6
ByLayer
370
18
48
1
60
0
100
AcDbLine
10
218.836586
20
-21.024169
30
0
11
217.326586
21
-21.024169
31
0
39
0
210
0
220
0
230
1
0
LINE
5
A3
100
AcDbEntity
8
1
62
256
6
ByLayer
370
18
48
1
60
0
100
AcDbLine
10
217.226586
20
-21.033719
30
0
11
217.326586
21
-21.024169
31
0
39
0
210
0
220
0
230
1
0
LINE
5
A4
100
AcDbEntity
8
1
62
256
6
ByLayer
370
18
48
1
60
0
100
AcDbLine
10
217.226586
20
-21.305889
30
0
11
217.226586
21
-21.033719
31
0
39
0
210
0
220
0
230
1
0
LINE
5
A5
100
AcDbEntity
8
1
62
256
6
ByLayer
370
18
48
1
60
0
100
AcDbLine
10
217.226586
20
-21.305889
30
0
11
211.136586
21
-21.305889
31
0
39
0
210
0
220
0
230
1
0
LINE
5
A6
100
AcDbEntity
8
1
62
256
6
ByLayer
370
18
48
1
60
0
100
AcDbLine
10
213.301586
20
6.430494
30
0
11
213.301586
21
0.554276
31
0
39
0
210
0
220
0
230
1
0
LINE
5
A7
100
AcDbEntity
8
1
62
256
6
ByLayer
370
18
48
1
60
0
100
AcDbLine
10
205.885819
20
-16.716108
30
0
11
205.901517
21
-16.716108
31
0
39
0
210
0
220
0
230
1
0
LINE
5
A8
100
AcDbEntity
8
1
62
256
6
ByLayer
370
18
48
1
60
0
100
AcDbLine
10
205.885819
20
-16.716108
30
0
11
205.901517
21
-16.716108
31
0
39
0
210
0
220
0
230
1
0
LINE
5
A9
100
AcDbEntity
8
1
62
256
6
ByLayer
370
18
48
1
60
0
100
AcDbLine
10
218.551586
20
17.039207
30
0
11
218.551586
21
17.071131
31
0
39
0
210
0
220
0
230
1
0
LINE
5
AA
100
AcDbEntity
8
1
62
256
6
ByLayer
370
18
48
1
60
0
100
AcDbLine
10
201.001638
20
18
30
0
11
200.55
21
18
31
0
39
0
210
0
220
0
230
1
0
LINE
5
AB
100
AcDbEntity
8
1
62
256
6
ByLayer
370
18
48
1
60
0
100
AcDbLine
10
196.137209
20
17.325467
30
0
11
196.075516
21
17.095229
31
0
39
0
210
0
220
0
230
1
0
LINE
5
AC
100
AcDbEntity
8
1
62
256
6
ByLayer
370
18
48
1
60
0
100
AcDbLine
10
195.924484
20
17.095229
30
0
11
195.862791
21
17.325467
31
0
39
0
210
0
220
0
230
1
0
LINE
5
AD
100
AcDbEntity
8
1
62
256
6
ByLayer
370
18
48
1
60
0
100
AcDbLine
10
217.226586
20
21.19005
30
0
11
217.326586
21
21.185654
31
0
39
0
210
0
220
0
230
1
0
LINE
5
AE
100
AcDbEntity
8
1
62
256
6
ByLayer
370
18
48
1
60
0
100
AcDbLine
10
216.589469
20
16.18715
30
0
11
216.589469
21
16.146086
31
0
39
0
210
0
220
0
230
1
0
LINE
5
AF
100
AcDbEntity
8
1
62
256
6
ByLayer
370
18
48
1
60
0
100
AcDbLine
10
217.063704
20
16.18715
30
0
11
217.063704
21
16.146086
31
0
39
0
210
0
220
0
230
1
0
LINE
5
B0
100
AcDbEntity
8
1
62
256
6
ByLayer
370
18
48
1
60
0
100
AcDbLine
10
217.715548
20
16.836663
30
0
11
217.715548
21
16.795599
31
0
39
0
210
0
220
0
230
1
0
LINE
5
B1
100
AcDbEntity
8
1
62
256
6
ByLayer
370
18
48
1
60
0
100
AcDbLine
10
215.937625
20
16.836663
30
0
11
215.937625
21
16.795599
31
0
39
0
210
0
220
0
230
1
0
LINE
5
B2
100
AcDbEntity
8
1
62
256
6
ByLayer
370
18
48
1
60
0
100
AcDbLine
10
217.478431
20
17.725387
30
0
11
217.478431
21
17.684323
31
0
39
0
210
0
220
0
230
1
0
LINE
5
B3
100
AcDbEntity
8
1
62
256
6
ByLayer
370
18
48
1
60
0
100
AcDbLine
10
216.174742
20
17.725387
30
0
11
216.174742
21
17.684323
31
0
39
0
210
0
220
0
230
1
0
LINE
5
B4
100
AcDbEntity
8
1
62
256
6
ByLayer
370
18
48
1
60
0
100
AcDbLine
10
217.063704
20
17.964598
30
0
11
217.063704
21
17.923534
31
0
39
0
210
0
220
0
230
1
0
LINE
5
B5
100
AcDbEntity
8
1
62
256
6
ByLayer
370
18
48
1
60
0
100
AcDbLine
10
216.589469
20
17.964598
30
0
11
216.589469
21
17.923534
31
0
39
0
210
0
220
0
230
1
0
LINE
5
B6
100
AcDbEntity
8
1
62
256
6
ByLayer
370
18
48
1
60
0
100
AcDbLine
10
216.035386
20
17.03481
30
0
11
216.035386
21
17.072588
31
0
39
0
210
0
220
0
230
1
0
LINE
5
B7
100
AcDbEntity
8
1
62
256
6
ByLayer
370
13
48
1
60
0
100
AcDbLine
10
215.954074
20
16.847684
30
0
11
215.954074
21
16.807098
31
0
39
0
210
0
220
0
230
1
0
LINE
5
B8
100
AcDbEntity
8
1
62
256
6
ByLayer
370
18
48
1
60
0
100
AcDbLine
10
215.954074
20
16.807098
30
0
11
215.937625
21
16.795599
31
0
39
0
210
0
220
0
230
1
0
LINE
5
B9
100
AcDbEntity
8
1
62
256
6
ByLayer
370
13
48
1
60
0
100
AcDbLine
10
217.699099
20
16.847684
30
0
11
217.699099
21
16.807098
31
0
39
0
210
0
220
0
230
1
0
LINE
5
BA
100
AcDbEntity
8
1
62
256
6
ByLayer
370
18
48
1
60
0
100
AcDbLine
10
217.715548
20
16.795599
30
0
11
217.699099
21
16.807098
31
0
39
0
210
0
220
0
230
1
0
LINE
5
BB
100
AcDbEntity
8
1
62
256
6
ByLayer
370
18
48
1
60
0
100
AcDbLine
10
217.617786
20
17.072588
30
0
11
217.617786
21
17.03481
31
0
39
0
210
0
220
0
230
1
0
LINE
5
BC
100
AcDbEntity
8
1
62
256
6
ByLayer
370
13
48
1
60
0
100
AcDbLine
10
216.192935
20
17.716427
30
0
11
216.192935
21
17.675842
31
0
39
0
210
0
220
0
230
1
0
LINE
5
BD
100
AcDbEntity
8
1
62
256
6
ByLayer
370
18
48
1
60
0
100
AcDbLine
10
216.192935
20
17.675842
30
0
11
216.174742
21
17.684323
31
0
39
0
210
0
220
0
230
1
0
LINE
5
BE
100
AcDbEntity
8
1
62
256
6
ByLayer
370
13
48
1
60
0
100
AcDbLine
10
217.460238
20
17.716427
30
0
11
217.460238
21
17.675842
31
0
39
0
210
0
220
0
230
1
0
LINE
5
BF
100
AcDbEntity
8
1
62
256
6
ByLayer
370
18
48
1
60
0
100
AcDbLine
10
217.478431
20
17.684323
30
0
11
217.460238
21
17.675842
31
0
39
0
210
0
220
0
230
1
0
LINE
5
C0
100
AcDbEntity
8
1
62
256
6
ByLayer
370
18
48
1
60
0
100
AcDbLine
10
217.065447
20
17.944139
30
0
11
217.065447
21
17.903554
31
0
39
0
210
0
220
0
230
1
0
LINE
5
C1
100
AcDbEntity
8
1
62
256
6
ByLayer
370
18
48
1
60
0
100
AcDbLine
10
215.101586
20
17.071131
30
0
11
215.101586
21
17.039207
31
0
39
0
210
0
220
0
230
1
0
LINE
5
C2
100
AcDbEntity
8
1
62
256
6
ByLayer
370
18
48
1
60
0
100
AcDbLine
10
217.065447
20
17.903554
30
0
11
217.063704
21
17.923534
31
0
39
0
210
0
220
0
230
1
0
LINE
5
C3
100
AcDbEntity
8
1
62
256
6
ByLayer
370
18
48
1
60
0
100
AcDbLine
10
0
20
-19.7
30
0
11
0.3
21
-20
31
0
39
0
210
0
220
0
230
1
0
LINE
5
C4
100
AcDbEntity
8
1
62
256
6
ByLayer
370
18
48
1
60
0
100
AcDbLine
10
195.702242
20
-15.979097
30
0
11
195.557062
21
-15.790051
31
0
39
0
210
0
220
0
230
1
0
LINE
5
C5
100
AcDbEntity
8
1
62
256
6
ByLayer
370
18
48
1
60
0
100
AcDbLine
10
195.810549
20
-15.684936
30
0
11
195.841755
21
-15.921244
31
0
39
0
210
0
220
0
230
1
0
LINE
5
C6
100
AcDbEntity
8
1
62
256
6
ByLayer
370
18
48
1
60
0
100
AcDbLine
10
0.3
20
20
30
0
11
0
21
19.7
31
0
39
0
210
0
220
0
230
1
0
LINE
5
C7
100
AcDbEntity
8
1
62
256
6
ByLayer
370
18
48
1
60
0
100
AcDbLine
10
0.3
20
-20
30
0
11
191.7
21
-20
31
0
39
0
210
0
220
0
230
1
0
LINE
5
C8
100
AcDbEntity
8
1
62
256
6
ByLayer
370
18
48
1
60
0
100
AcDbLine
10
191.7
20
20
30
0
11
0.3
21
20
31
0
39
0
210
0
220
0
230
1
0
LINE
5
C9
100
AcDbEntity
8
1
62
256
6
ByLayer
370
18
48
1
60
0
100
AcDbLine
10
9.076795
20
5.85989
30
0
11
6.923205
21
5.85989
31
0
39
0
210
0
220
0
230
1
0
LINE
5
CA
100
AcDbEntity
8
1
62
256
6
ByLayer
370
18
48
1
60
0
100
AcDbLine
10
6.923205
20
19.122283
30
0
11
9.076795
21
19.122283
31
0
39
0
210
0
220
0
230
1
0
LINE
5
CB
100
AcDbEntity
8
1
62
256
6
ByLayer
370
18
48
1
60
0
100
AcDbLine
10
9.076795
20
-19.122283
30
0
11
6.923205
21
-19.122283
31
0
39
0
210
0
220
0
230
1
0
LINE
5
CC
100
AcDbEntity
8
1
62
256
6
ByLayer
370
18
48
1
60
0
100
AcDbLine
10
6.923205
20
-5.85989
30
0
11
9.076795
21
-5.85989
31
0
39
0
210
0
220
0
230
1
0
LINE
5
CD
100
AcDbEntity
8
1
62
256
6
ByLayer
370
18
48
1
60
0
100
AcDbLine
10
185
20
-18.543677
30
0
11
187
21
-18.543677
31
0
39
0
210
0
220
0
230
1
0
LINE
5
CE
100
AcDbEntity
8
1
62
256
6
ByLayer
370
13
48
1
60
0
100
AcDbLine
10
9.336603
20
6.16973
30
0
11
9.336603
21
19.024574
31
0
39
0
210
0
220
0
230
1
0
LINE
5
CF
100
AcDbEntity
8
1
62
256
6
ByLayer
370
13
48
1
60
0
100
AcDbLine
10
9.076795
20
5.85989
30
0
11
9.076795
21
19.122283
31
0
39
0
210
0
220
0
230
1
0
LINE
5
D0
100
AcDbEntity
8
1
62
256
6
ByLayer
370
13
48
1
60
0
100
AcDbLine
10
6.923205
20
-19.122283
30
0
11
6.923205
21
-5.85989
31
0
39
0
210
0
220
0
230
1
0
LINE
5
D1
100
AcDbEntity
8
1
62
256
6
ByLayer
370
13
48
1
60
0
100
AcDbLine
10
6.663397
20
-19.024574
30
0
11
6.663397
21
-6.16973
31
0
39
0
210
0
220
0
230
1
0
LINE
5
D2
100
AcDbEntity
8
1
62
256
6
ByLayer
370
13
48
1
60
0
100
AcDbLine
10
9.336603
20
-19.024574
30
0
11
9.336603
21
-6.16973
31
0
39
0
210
0
220
0
230
1
0
LINE
5
D3
100
AcDbEntity
8
1
62
256
6
ByLayer
370
13
48
1
60
0
100
AcDbLine
10
9.076795
20
-19.122283
30
0
11
9.076795
21
-5.85989
31
0
39
0
210
0
220
0
230
1
0
LINE
5
D4
100
AcDbEntity
8
1
62
256
6
ByLayer
370
13
48
1
60
0
100
AcDbLine
10
6.923205
20
5.85989
30
0
11
6.923205
21
19.122283
31
0
39
0
210
0
220
0
230
1
0
LINE
5
D5
100
AcDbEntity
8
1
62
256
6
ByLayer
370
13
48
1
60
0
100
AcDbLine
10
6.663397
20
6.16973
30
0
11
6.663397
21
19.024574
31
0
39
0
210
0
220
0
230
1
0
LINE
5
D6
100
AcDbEntity
8
1
62
256
6
ByLayer
370
18
48
1
60
0
100
AcDbLine
10
185
20
-18.543677
30
0
11
187
21
-18.543677
31
0
39
0
210
0
220
0
230
1
0
LINE
5
D7
100
AcDbEntity
8
1
62
256
6
ByLayer
370
18
48
1
60
0
100
AcDbLine
10
219.611745
20
-20.899189
30
0
11
219.611745
21
-12.687998
31
0
39
0
210
0
220
0
230
1
0
LINE
5
D8
100
AcDbEntity
8
1
62
256
6
ByLayer
370
13
48
1
60
0
100
AcDbLine
10
219.611745
20
-20.899189
30
0
11
220.001586
21
-21.202396
31
0
39
0
210
0
220
0
230
1
0
LINE
5
D9
100
AcDbEntity
8
1
62
256
6
ByLayer
370
18
48
1
60
0
100
AcDbLine
10
218.617441
20
-21.024144
30
0
11
219.005882
21
-21.247386
31
0
39
0
210
0
220
0
230
1
0
LINE
5
DA
100
AcDbEntity
8
1
62
256
6
ByLayer
370
13
48
1
60
0
100
AcDbLine
10
218.810961
20
-21.886662
30
0
11
219.005882
21
-21.247386
31
0
39
0
210
0
220
0
230
1
0
LINE
5
DB
100
AcDbEntity
8
1
62
256
6
ByLayer
370
13
48
1
60
0
100
AcDbLine
10
220.001586
20
-12.991205
30
0
11
219.611745
21
-12.687998
31
0
39
0
210
0
220
0
230
1
0
LINE
5
DC
100
AcDbEntity
8
1
62
256
6
ByLayer
370
18
48
1
60
0
100
AcDbLine
10
218.810961
20
-21.886662
30
0
11
217.312448
21
-21.025449
31
0
39
0
210
0
220
0
230
1
0
LINE
5
DD
100
AcDbEntity
8
1
62
256
6
ByLayer
370
18
48
1
60
0
100
AcDbLine
10
220.001586
20
-12.991205
30
0
11
220.001586
21
-21.202396
31
0
39
0
210
0
220
0
230
1
0
LINE
5
DE
100
AcDbEntity
8
1
62
256
6
ByLayer
370
18
48
1
60
0
100
AcDbLine
10
205.065482
20
9
30
0
11
205.065482
21
-10.526774
31
0
39
0
210
0
220
0
230
1
0
LINE
5
DF
100
AcDbEntity
8
1
62
256
6
ByLayer
370
18
48
1
60
0
100
AcDbLine
10
201.620217
20
9
30
0
11
205.065482
21
9
31
0
39
0
210
0
220
0
230
1
0
LINE
5
E0
100
AcDbEntity
8
1
62
256
6
ByLayer
370
18
48
1
60
0
100
AcDbLine
10
192
20
-20
30
0
11
193
21
-20
31
0
39
0
210
0
220
0
230
1
0
LINE
5
E1
100
AcDbEntity
8
1
62
256
6
ByLayer
370
18
48
1
60
0
100
AcDbLine
10
193
20
20
30
0
11
192
21
20
31
0
39
0
210
0
220
0
230
1
0
LINE
5
E2
100
AcDbEntity
8
1
62
256
6
ByLayer
370
18
48
1
60
0
100
AcDbLine
10
193.023515
20
19.509997
30
0
11
193
21
19.509997
31
0
39
0
210
0
220
0
230
1
0
LINE
5
E3
100
AcDbEntity
8
1
62
256
6
ByLayer
370
18
48
1
60
0
100
AcDbLine
10
201
20
9
30
0
11
201.620217
21
9
31
0
39
0
210
0
220
0
230
1
0
LINE
5
E4
100
AcDbEntity
8
1
62
256
6
ByLayer
370
18
48
1
60
0
100
AcDbLine
10
194.8
20
-18
30
0
11
206.120604
21
-18
31
0
39
0
210
0
220
0
230
1
0
LINE
5
E5
100
AcDbEntity
8
1
62
256
6
ByLayer
370
18
48
1
60
0
100
AcDbLine
10
205.065482
20
9
30
0
11
205.495635
21
9
31
0
39
0
210
0
220
0
230
1
0
LINE
5
E6
100
AcDbEntity
8
1
62
256
6
ByLayer
370
18
48
1
60
0
100
AcDbLine
10
200.345991
20
9.026778
30
0
11
200.345991
21
18
31
0
39
0
210
0
220
0
230
1
0
LINE
5
E7
100
AcDbEntity
8
1
62
256
6
ByLayer
370
18
48
1
60
0
100
AcDbLine
10
194.8
20
18
30
0
11
200.345991
21
18
31
0
39
0
210
0
220
0
230
1
0
LINE
5
E8
100
AcDbEntity
8
1
62
256
6
ByLayer
370
13
48
1
60
0
100
AcDbLine
10
200.55
20
18
30
0
11
200.55
21
9.031373
31
0
39
0
210
0
220
0
230
1
0
LINE
5
E9
100
AcDbEntity
8
1
62
256
6
ByLayer
370
18
48
1
60
0
100
AcDbLine
10
220.001586
20
12.958905
30
0
11
220.001586
21
21.19982
31
0
39
0
210
0
220
0
230
1
0
LINE
5
EA
100
AcDbEntity
8
1
62
256
6
ByLayer
370
18
48
1
60
0
100
AcDbLine
10
211.667211
20
16.39262
30
0
11
218.810961
21
12.272162
31
0
39
0
210
0
220
0
230
1
0
LINE
5
EB
100
AcDbEntity
8
1
62
256
6
ByLayer
370
18
48
1
60
0
100
AcDbLine
10
218.810961
20
21.886563
30
0
11
211.667211
21
17.766105
31
0
39
0
210
0
220
0
230
1
0
LINE
5
EC
100
AcDbEntity
8
1
62
256
6
ByLayer
370
18
48
1
60
0
100
AcDbLine
10
217.06291
20
0.554245
30
0
11
212.076728
21
0.554245
31
0
39
0
210
0
220
0
230
1
0
LINE
5
ED
100
AcDbEntity
8
1
62
256
6
ByLayer
370
18
48
1
60
0
100
AcDbLine
10
212.076728
20
-9.555755
30
0
11
217.06291
21
-9.555755
31
0
39
0
210
0
220
0
230
1
0
LINE
5
EE
100
AcDbEntity
8
1
62
256
6
ByLayer
370
18
48
1
60
0
100
AcDbLine
10
217.595791
20
21.185654
30
0
11
217.326586
21
21.185654
31
0
39
0
210
0
220
0
230
1
0
LINE
5
EF
100
AcDbEntity
8
1
62
256
6
ByLayer
370
18
48
1
60
0
100
AcDbLine
10
205.065539
20
-9.977048
30
0
11
211.988089
21
-9.977048
31
0
39
0
210
0
220
0
230
1
0
LINE
5
F0
100
AcDbEntity
8
1
62
256
6
ByLayer
370
18
48
1
60
0
100
AcDbLine
10
187
20
7.492132
30
0
11
185
21
7.492132
31
0
39
0
210
0
220
0
230
1
0
LINE
5
F1
100
AcDbEntity
8
1
62
256
6
ByLayer
370
13
48
1
60
0
100
AcDbLine
10
208.372386
20
17.500141
30
0
11
201.001586
21
17.500141
31
0
39
0
210
0
220
0
230
1
0
LINE
5
F2
100
AcDbEntity
8
1
62
256
6
ByLayer
370
13
48
1
60
0
100
AcDbLine
10
204.095058
20
12.708705
30
0
11
208.475136
21
12.708705
31
0
39
0
210
0
220
0
230
1
0
LINE
5
F3
100
AcDbEntity
8
1
62
256
6
ByLayer
370
18
48
1
60
0
100
AcDbLine
10
204.095058
20
13.000141
30
0
11
204.095058
21
12.708705
31
0
39
0
210
0
220
0
230
1
0
LINE
5
F4
100
AcDbEntity
8
1
62
256
6
ByLayer
370
18
48
1
60
0
100
AcDbLine
10
204.095058
20
13.000141
30
0
11
201.001586
21
13.000141
31
0
39
0
210
0
220
0
230
1
0
LINE
5
F5
100
AcDbEntity
8
1
62
256
6
ByLayer
370
18
48
1
60
0
100
AcDbLine
10
208.372386
20
17.500141
30
0
11
208.475136
21
12.708705
31
0
39
0
210
0
220
0
230
1
0
LINE
5
F6
100
AcDbEntity
8
1
62
256
6
ByLayer
370
18
48
1
60
0
100
AcDbLine
10
201.001586
20
13.000141
30
0
11
201.001586
21
17.500141
31
0
39
0
210
0
220
0
230
1
0
LINE
5
F7
100
AcDbEntity
8
1
62
256
6
ByLayer
370
13
48
1
60
0
100
AcDbLine
10
210.082447
20
9.200241
30
0
11
210.082447
21
21.269462
31
0
39
0
210
0
220
0
230
1
0
LINE
5
F8
100
AcDbEntity
8
1
62
256
6
ByLayer
370
18
48
1
60
0
100
AcDbLine
10
208.856103
20
11.176616
30
0
11
210.046212
21
9.200149
31
0
39
0
210
0
220
0
230
1
0
LINE
5
F9
100
AcDbEntity
8
1
62
256
6
ByLayer
370
18
48
1
60
0
100
AcDbLine
10
203.511699
20
9.000018
30
0
11
203.969085
21
11.176616
31
0
39
0
210
0
220
0
230
1
0
LINE
5
FA
100
AcDbEntity
8
1
62
256
6
ByLayer
370
13
48
1
60
0
100
AcDbLine
10
208.856103
20
11.176616
30
0
11
203.969085
21
11.176616
31
0
39
0
210
0
220
0
230
1
0
LINE
5
FB
100
AcDbEntity
8
1
62
256
6
ByLayer
370
18
48
1
60
0
100
AcDbLine
10
203.266321
20
11.800141
30
0
11
203.266321
21
9.000012
31
0
39
0
210
0
220
0
230
1
0
LINE
5
FC
100
AcDbEntity
8
1
62
256
6
ByLayer
370
18
48
1
60
0
100
AcDbLine
10
217.275821
20
8.630941
30
0
11
217.857771
21
8.776038
31
0
39
0
210
0
220
0
230
1
0
LINE
5
FD
100
AcDbEntity
8
1
62
256
6
ByLayer
370
13
48
1
60
0
100
AcDbLine
10
211.759646
20
8.072111
30
0
11
215.923399
21
8.072111
31
0
39
0
210
0
220
0
230
1
0
LINE
5
FE
100
AcDbEntity
8
1
62
256
6
ByLayer
370
13
48
1
60
0
100
AcDbLine
10
210.801482
20
16.306971
30
0
11
210.801482
21
9.200241
31
0
39
0
210
0
220
0
230
1
0
LINE
5
FF
100
AcDbEntity
8
1
62
256
6
ByLayer
370
13
48
1
60
0
100
AcDbLine
10
210.801482
20
21.303435
30
0
11
210.801482
21
18.620295
31
0
39
0
210
0
220
0
230
1
0
LINE
5
100
100
AcDbEntity
8
1
62
256
6
ByLayer
370
18
48
1
60
0
100
AcDbLine
10
211.685833
20
8.776038
30
0
11
217.857771
21
8.776038
31
0
39
0
210
0
220
0
230
1
0
LINE
5
101
100
AcDbEntity
8
1
62
256
6
ByLayer
370
13
48
1
60
0
100
AcDbLine
10
201.001586
20
11.800141
30
0
11
203.266321
21
11.800141
31
0
39
0
210
0
220
0
230
1
0
LINE
5
102
100
AcDbEntity
8
1
62
256
6
ByLayer
370
18
48
1
60
0
100
AcDbLine
10
211.020171
20
18.734037
30
0
11
211.020171
21
18.608728
31
0
39
0
210
0
220
0
230
1
0
LINE
5
103
100
AcDbEntity
8
1
62
256
6
ByLayer
370
18
48
1
60
0
100
AcDbLine
10
219.336586
20
9.144748
30
0
11
217.857771
21
8.776038
31
0
39
0
210
0
220
0
230
1
0
LINE
5
104
100
AcDbEntity
8
1
62
256
6
ByLayer
370
18
48
1
60
0
100
AcDbLine
10
219.336586
20
11.990963
30
0
11
218.97012
21
12.202337
31
0
39
0
210
0
220
0
230
1
0
LINE
5
105
100
AcDbEntity
8
1
62
256
6
ByLayer
370
18
48
1
60
0
100
AcDbLine
10
219.336586
20
9.144748
30
0
11
219.336586
21
11.990963
31
0
39
0
210
0
220
0
230
1
0
LINE
5
106
100
AcDbEntity
8
1
62
256
6
ByLayer
370
18
48
1
60
0
100
AcDbLine
10
219.26952
20
12.168358
30
0
11
219.336586
21
12.129675
31
0
39
0
210
0
220
0
230
1
0
LINE
5
107
100
AcDbEntity
8
1
62
256
6
ByLayer
370
18
48
1
60
0
100
AcDbLine
10
219.336586
20
12.129675
30
0
11
219.336586
21
11.990963
31
0
39
0
210
0
220
0
230
1
0
LINE
5
108
100
AcDbEntity
8
1
62
256
6
ByLayer
370
18
48
1
60
0
100
AcDbLine
10
212.898818
20
19.087831
30
0
11
213.428762
21
18.782163
31
0
39
0
210
0
220
0
230
1
0
LINE
5
109
100
AcDbEntity
8
1
62
256
6
ByLayer
370
18
48
1
60
0
100
AcDbLine
10
217.226586
20
21.31536
30
0
11
211.336586
21
21.31536
31
0
39
0
210
0
220
0
230
1
0
LINE
5
10A
100
AcDbEntity
8
1
62
256
6
ByLayer
370
18
48
1
60
0
100
AcDbLine
10
217.226586
20
20.972714
30
0
11
217.226586
21
21.31536
31
0
39
0
210
0
220
0
230
1
0
LINE
5
10B
100
AcDbEntity
8
1
62
256
6
ByLayer
370
13
48
1
60
0
100
AcDbLine
10
212.898818
20
19.087831
30
0
11
212.898818
21
18.962522
31
0
39
0
210
0
220
0
230
1
0
LINE
5
10C
100
AcDbEntity
8
1
62
256
6
ByLayer
370
13
48
1
60
0
100
AcDbLine
10
211.824162
20
7.459275
30
0
11
215.104171
21
7.459275
31
0
39
0
210
0
220
0
230
1
0
LINE
5
10D
100
AcDbEntity
8
1
62
256
6
ByLayer
370
18
48
1
60
0
100
AcDbLine
10
212.898818
20
18.962522
30
0
11
213.320144
21
18.719504
31
0
39
0
210
0
220
0
230
1
0
LINE
5
10E
100
AcDbEntity
8
1
62
256
6
ByLayer
370
13
48
1
60
0
100
AcDbLine
10
213.3014
20
5.059321
30
0
11
213.66345
21
5.059321
31
0
39
0
210
0
220
0
230
1
0
LINE
5
10F
100
AcDbEntity
8
1
62
256
6
ByLayer
370
18
48
1
60
0
100
AcDbLine
10
213.5554
20
4.530171
30
0
11
213.301577
21
4.530171
31
0
39
0
210
0
220
0
230
1
0
LINE
5
110
100
AcDbEntity
8
1
62
256
6
ByLayer
370
18
48
1
60
0
100
AcDbLine
10
213.501586
20
0.554181
30
0
11
213.501586
21
3.800141
31
0
39
0
210
0
220
0
230
1
0
LINE
5
111
100
AcDbEntity
8
1
62
256
6
ByLayer
370
18
48
1
60
0
100
AcDbLine
10
201.001586
20
11.800141
30
0
11
201.001586
21
9.200081
31
0
39
0
210
0
220
0
230
1
0
LINE
5
112
100
AcDbEntity
8
1
62
256
6
ByLayer
370
18
48
1
60
0
100
AcDbLine
10
219.336586
20
12.176423
30
0
11
219.336586
21
12.129675
31
0
39
0
210
0
220
0
230
1
0
LINE
5
113
100
AcDbEntity
8
1
62
256
6
ByLayer
370
18
48
1
60
0
100
AcDbLine
10
213.216336
20
18.659625
30
0
11
212.848818
21
18.871606
31
0
39
0
210
0
220
0
230
1
0
LINE
5
114
100
AcDbEntity
8
1
62
256
6
ByLayer
370
18
48
1
60
0
100
AcDbLine
10
217.326586
20
21.185654
30
0
11
217.326586
21
21.030384
31
0
39
0
210
0
220
0
230
1
0
LINE
5
115
100
AcDbEntity
8
1
62
256
6
ByLayer
370
13
48
1
60
0
100
AcDbLine
10
212.848818
20
18.871606
30
0
11
212.898818
21
18.962522
31
0
39
0
210
0
220
0
230
1
0
LINE
5
116
100
AcDbEntity
8
1
62
256
6
ByLayer
370
18
48
1
60
0
100
AcDbLine
10
205.495622
20
9
30
0
11
205.472116
21
9
31
0
39
0
210
0
220
0
230
1
0
LINE
5
117
100
AcDbEntity
8
1
62
256
6
ByLayer
370
18
48
1
60
0
100
AcDbLine
10
205.495622
20
9
30
0
11
205.065482
21
5.900143
31
0
39
0
210
0
220
0
230
1
0
LINE
5
118
100
AcDbEntity
8
1
62
256
6
ByLayer
370
18
48
1
60
0
100
AcDbLine
10
215.076115
20
-18.274527
30
0
11
215.076115
21
-15.969397
31
0
39
0
210
0
220
0
230
1
0
LINE
5
119
100
AcDbEntity
8
1
62
256
6
ByLayer
370
18
48
1
60
0
100
AcDbLine
10
0
20
19.7
30
0
11
0
21
0
31
0
39
0
210
0
220
0
230
1
0
LINE
5
11A
100
AcDbEntity
8
1
62
256
6
ByLayer
370
18
48
1
60
0
100
AcDbLine
10
0
20
0
30
0
11
0
21
-19.7
31
0
39
0
210
0
220
0
230
1
0
LINE
5
11B
100
AcDbEntity
8
1
62
256
6
ByLayer
370
18
48
1
60
0
100
AcDbLine
10
192
20
20
30
0
11
192
21
0
31
0
39
0
210
0
220
0
230
1
0
LINE
5
11C
100
AcDbEntity
8
1
62
256
6
ByLayer
370
18
48
1
60
0
100
AcDbLine
10
192
20
0
30
0
11
192
21
-20
31
0
39
0
210
0
220
0
230
1
0
LINE
5
11D
100
AcDbEntity
8
1
62
256
6
ByLayer
370
13
48
1
60
0
100
AcDbLine
10
191.7
20
20
30
0
11
191.7
21
0
31
0
39
0
210
0
220
0
230
1
0
LINE
5
11E
100
AcDbEntity
8
1
62
256
6
ByLayer
370
13
48
1
60
0
100
AcDbLine
10
191.7
20
0
30
0
11
191.7
21
-20
31
0
39
0
210
0
220
0
230
1
0
LINE
5
11F
100
AcDbEntity
8
1
62
256
6
ByLayer
370
18
48
1
60
0
100
AcDbLine
10
193
20
19.8
30
0
11
193
21
20
31
0
39
0
210
0
220
0
230
1
0
LINE
5
120
100
AcDbEntity
8
1
62
256
6
ByLayer
370
18
48
1
60
0
100
AcDbLine
10
193
20
19.509997
30
0
11
193
21
17
31
0
39
0
210
0
220
0
230
1
0
LINE
5
121
100
AcDbEntity
8
1
62
256
6
ByLayer
370
18
48
1
60
0
100
AcDbLine
10
193
20
-20
30
0
11
193
21
-19.8
31
0
39
0
210
0
220
0
230
1
0
LINE
5
122
100
AcDbEntity
8
1
62
256
6
ByLayer
370
18
48
1
60
0
100
AcDbLine
10
200.345993
20
18
30
0
11
200.55
21
18
31
0
39
0
210
0
220
0
230
1
0
LINE
5
123
100
AcDbEntity
8
1
62
256
6
ByLayer
370
13
48
1
60
0
100
AcDbLine
10
217.062902
20
-9.555755
30
0
11
217.06291
21
-9.555755
31
0
39
0
210
0
220
0
230
1
0
LINE
5
124
100
AcDbEntity
8
1
62
256
6
ByLayer
370
18
48
1
60
0
100
AcDbLine
10
201.001586
20
19.407973
30
0
11
201.001586
21
17.500141
31
0
39
0
210
0
220
0
230
1
0
LINE
5
125
100
AcDbEntity
8
1
62
256
6
ByLayer
370
18
48
1
60
0
100
AcDbLine
10
201.001586
20
13.000141
30
0
11
201.001586
21
11.800141
31
0
39
0
210
0
220
0
230
1
0
LINE
5
126
100
AcDbEntity
8
1
62
256
6
ByLayer
370
18
48
1
60
0
100
AcDbLine
10
215.101586
20
17.039263
30
0
11
215.101586
21
17.039207
31
0
39
0
210
0
220
0
230
1
0
LINE
5
127
100
AcDbEntity
8
1
62
256
6
ByLayer
370
18
48
1
60
0
100
AcDbLine
10
0.3
20
20
30
0
11
0.3
21
0
31
0
39
0
210
0
220
0
230
1
0
LINE
5
128
100
AcDbEntity
8
1
62
256
6
ByLayer
370
18
48
1
60
0
100
AcDbLine
10
0.3
20
0
30
0
11
0.3
21
-20
31
0
39
0
210
0
220
0
230
1
0
LINE
5
129
100
AcDbEntity
8
1
62
256
6
ByLayer
370
18
48
1
60
0
100
AcDbLine
10
217.822867
20
-8.816916
30
0
11
219.224765
21
-9.166449
31
0
39
0
210
0
220
0
230
1
0
MTEXT
5
213
100
AcDbEntity
8
SK6
62
256
6
ByLayer
370
18
48
1
60
0
100
AcDbMText
10
225.291487
20
26.196933
30
0
210
0
220
0
230
1
1
\W0.7378;BR20D-56TC11F-C4L
40
3
41
0
44
1.084337
50
0
71
7
72
5
7
iso_b_vert
0
DIMENSION
5
221
100
AcDbEntity
8
2
62
256
6
ByLayer
370
13
48
1
60
0
100
AcDbDimension
2
DimnDraft3D1
10
0
20
29.503188
30
0
11
105.457047
21
29.503188
31
0
70
32
71
5
72
1
41
1
210
0
220
0
230
1
3
Standard
100
AcDbAlignedDimension
13
220.000937
23
23.993116
33
0
14
0
24
21.7
34
0
50
0
100
AcDbRotatedDimension
1001
ACAD
1000
DSTYLE
1002
{
1070
   279
1070
     0
1070
   172
1070
     1
1070
   173
1070
     1
1070
   340
1005
214
1070
   271
1070
     1
1070
    77
1070
     1
1070
    73
1070
     0
1070
   171
1070
     4
1070
   274
1070
     4
1070
   177
1070
     7
1070
   176
1070
     7
1070
   178
1070
     7
1070
    41
1041
3.175
1070
   147
1041
1.5
1070
    42
1041
2.0
1070
    44
1041
2.0
1070
   140
1041
3.0
1070
   343
1005
0
1070
   344
1005
0
1002
}
0
DIMENSION
5
22B
100
AcDbEntity
8
2
62
256
6
ByLayer
370
13
48
1
60
0
100
AcDbDimension
2
DimnDraft3D2
10
249.411291
20
-21.992518
30
0
11
249.411291
21
-12.035227
31
0
70
32
71
5
72
1
41
1
210
0
220
0
230
1
3
Standard
100
AcDbAlignedDimension
13
222.000937
23
21.993116
33
0
14
221.207836
24
-21.992518
34
0
50
90
100
AcDbRotatedDimension
1001
ACAD
1000
DSTYLE
1002
{
1070
    74
1070
     0
1070
   279
1070
     0
1070
   172
1070
     1
1070
   173
1070
     1
1070
   340
1005
214
1070
   271
1070
     1
1070
    77
1070
     1
1070
    73
1070
     0
1070
   171
1070
     4
1070
   274
1070
     4
1070
   177
1070
     7
1070
   176
1070
     7
1070
   178
1070
     7
1070
    41
1041
3.175
1070
   147
1041
1.5
1070
    42
1041
2.0
1070
    44
1041
2.0
1070
   140
1041
3.0
1070
   343
1005
0
1070
   344
1005
0
1002
}
0
DIMENSION
5
235
100
AcDbEntity
8
2
62
256
6
ByLayer
370
13
48
1
60
0
100
AcDbDimension
2
DimnDraft3D3
10
221.000937
20
21.993116
30
0
11
228.918022
21
13.07668
31
0
70
34
71
5
72
1
41
1
210
0
220
0
230
1
3
Standard
100
AcDb2LineAngularDimension
13
220.001586
23
12.958905
33
0
14
220.001586
24
21.19982
34
0
15
220.000937
25
21.993116
35
0
16
231.039343
26
10.955359
36
0
40
0
0
DIMENSION
5
241
100
AcDbEntity
8
SK2
62
256
6
ByLayer
370
13
48
1
60
0
100
AcDbDimension
2
DimnDraft3D4
10
-35.945338
20
-20
30
0
11
-35.445338
21
0.256579
31
0
70
33
71
5
72
1
41
1
210
0
220
0
230
1
3
Standard
100
AcDbAlignedDimension
13
-1.7
23
20
33
0
14
-1.7
24
-20
34
0
1001
ACAD
1000
DSTYLE
1002
{
1070
   279
1070
     0
1070
    74
1070
     0
1070
   173
1070
     1
1070
   340
1005
214
1070
   271
1070
     0
1070
    77
1070
     1
1070
    73
1070
     0
1070
   171
1070
     4
1070
   274
1070
     4
1070
   177
1070
     7
1070
   176
1070
     7
1070
   178
1070
     7
1070
    41
1041
3.175
1070
   147
1041
1.5
1070
    42
1041
2.0
1070
    44
1041
2.0
1070
   140
1041
3.0
1070
   343
1005
0
1070
   344
1005
0
1002
}
0
ENDSEC
0
SECTION
2
OBJECTS
0
DICTIONARY
5
2b1
330
0
100
AcDbDictionary
280
0
281
1
3
ACAD_GROUP
350
2b2
3
ACAD_GROUP
350
2b3
3
ACAD_MLINESTYLE
350
2b4
0
DICTIONARY
5
2b2
330
0
100
AcDbDictionary
280
0
281
1
0
DICTIONARY
5
2b3
330
0
100
AcDbDictionary
280
0
281
1
3
<200939429NDI000_00>
350
24C
3
<201778244MOD000_00>
350
24A
3
391_68A_1_03213C06B_A1
350
24B
3
DIT-000-00-UG_TO_2D CONVERT_BR20D_SIZED AND_E_TC
350
24D
0
DICTIONARY
5
2b4
330
0
100
AcDbDictionary
280
0
281
1
3
Standard
350
18
0
GROUP
5
24C
330
2b3
100
AcDbGroup
300

70
0
71
1
340
76
340
78
340
79
340
7B
340
7C
340
7D
340
7E
340
7F
340
80
340
12A
340
12B
340
198
340
199
340
19A
340
19B
340
19C
340
19D
340
19E
340
19F
340
1A0
340
1A1
340
1A2
340
1A3
340
1A4
340
1A5
340
1A6
340
1A7
340
1A8
340
1A9
340
1AA
340
1AB
340
1AC
340
1AD
340
1AE
340
1AF
340
1B0
340
1B1
340
1B2
340
1B3
340
1B4
340
1B5
340
1B6
340
1B7
340
1B8
340
1B9
340
1BA
340
1BB
340
1BC
340
1BD
340
1BE
340
1BF
340
1C0
340
1C1
340
1C2
0
GROUP
5
24A
330
2b3
100
AcDbGroup
300

70
0
71
1
340
6C
340
6E
340
70
340
72
340
73
340
75
340
76
340
78
340
79
340
7B
340
7C
340
7D
340
7E
340
7F
340
80
340
81
340
82
340
83
340
84
340
85
340
86
340
87
340
88
340
89
340
8A
340
8B
340
8C
340
8D
340
8E
340
8F
340
90
340
91
340
92
340
93
340
94
340
95
340
96
340
97
340
98
340
99
340
9A
340
9B
340
9C
340
9D
340
9E
340
9F
340
A0
340
A1
340
A2
340
A3
340
A4
340
A5
340
A6
340
A7
340
A8
340
A9
340
AA
340
AB
340
AC
340
AD
340
AE
340
AF
340
B0
340
B1
340
B2
340
B3
340
B4
340
B5
340
B6
340
B7
340
B8
340
B9
340
BA
340
BB
340
BC
340
BD
340
BE
340
BF
340
C0
340
C1
340
C2
340
C3
340
C4
340
C5
340
C6
340
C7
340
C8
340
C9
340
CA
340
CB
340
CC
340
CD
340
CE
340
CF
340
D0
340
D1
340
D2
340
D3
340
D4
340
D5
340
D6
340
D7
340
D8
340
D9
340
DA
340
DB
340
DC
340
DD
340
DE
340
DF
340
E0
340
E1
340
E2
340
E3
340
E4
340
E5
340
E6
340
E7
340
E8
340
E9
340
EA
340
EB
340
EC
340
ED
340
EE
340
EF
340
F0
340
F1
340
F2
340
F3
340
F4
340
F5
340
F6
340
F7
340
F8
340
F9
340
FA
340
FB
340
FC
340
FD
340
FE
340
FF
340
100
340
101
340
102
340
103
340
104
340
105
340
106
340
107
340
108
340
109
340
10A
340
10B
340
10C
340
10D
340
10E
340
10F
340
110
340
111
340
112
340
113
340
114
340
115
340
116
340
117
340
118
340
119
340
11A
340
11B
340
11C
340
11D
340
11E
340
11F
340
120
340
121
340
122
340
123
340
124
340
125
340
126
340
127
340
128
340
129
340
12A
340
12B
340
12C
340
12D
340
12E
340
12F
340
130
340
131
340
132
340
133
340
134
340
135
340
136
340
137
340
138
340
139
340
13A
340
13B
340
13C
340
13D
340
13E
340
13F
340
140
340
141
340
142
340
143
340
144
340
145
340
146
340
147
340
148
340
149
340
14A
340
14B
340
14C
340
14D
340
14E
340
14F
340
150
340
151
340
152
340
153
340
154
340
155
340
156
340
157
340
158
340
159
340
15A
340
15B
340
15C
340
15D
340
15E
340
15F
340
160
340
161
340
162
340
163
340
164
340
165
340
166
340
167
340
168
340
169
340
16A
340
16B
340
16C
340
16D
340
16E
340
16F
340
170
340
171
340
172
340
173
340
174
340
175
340
176
340
177
340
178
340
179
340
17A
340
17B
340
17C
340
17D
340
17E
340
17F
340
180
340
181
340
182
340
183
340
184
340
185
340
186
340
187
340
188
340
189
340
18A
340
18B
340
18C
340
18D
340
18E
340
18F
340
190
340
191
340
192
340
193
340
194
340
195
340
196
340
197
340
198
340
199
340
19A
340
19B
340
19C
340
19D
340
19E
340
19F
340
1A0
340
1A1
340
1A2
340
1A3
340
1A4
340
1A5
340
1A6
340
1A7
340
1A8
340
1A9
340
1AA
340
1AB
340
1AC
340
1AD
340
1AE
340
1AF
340
1B0
340
1B1
340
1B2
340
1B3
340
1B4
340
1B5
340
1B6
340
1B7
340
1B8
340
1B9
340
1BA
340
1BB
340
1BC
340
1BD
340
1BE
340
1BF
340
1C0
340
1C1
340
1C2
340
1C3
340
1C4
340
1C5
340
1C6
340
1C7
340
1C8
340
1C9
340
1CA
340
1CB
340
1CC
340
1CD
340
1CE
340
1CF
340
1D0
340
1D1
340
1D2
340
1D3
340
1D4
340
1D5
340
1D6
340
1D7
340
1D8
340
1D9
340
1DA
340
1DB
340
1DC
340
1DD
340
1DE
340
1DF
340
1E0
340
1E1
340
1E2
340
1E3
340
1E4
340
1E5
340
1E6
340
1E7
340
1E8
340
1E9
340
1EA
340
1EB
340
1EC
340
1ED
340
1EE
340
1EF
340
1F0
340
1F1
340
1F2
340
1F3
340
1F4
340
1F5
340
1F6
340
1F7
340
1F8
340
1F9
340
1FA
340
1FB
340
1FC
340
1FD
340
1FE
340
1FF
340
200
340
201
340
202
340
203
340
204
340
205
340
206
340
207
340
208
340
209
340
20A
340
20B
340
20C
340
20D
340
20E
340
20F
340
210
340
211
340
212
340
6E
340
75
340
213
340
22B
340
235
340
76
340
78
340
79
340
7B
340
7C
340
7D
340
7E
340
7F
340
80
340
12A
340
12B
340
198
340
199
340
19A
340
19B
340
19C
340
19D
340
19E
340
19F
340
1A0
340
1A1
340
1A2
340
1A3
340
1A4
340
1A5
340
1A6
340
1A7
340
1A8
340
1A9
340
1AA
340
1AB
340
1AC
340
1AD
340
1AE
340
1AF
340
1B0
340
1B1
340
1B2
340
1B3
340
1B4
340
1B5
340
1B6
340
1B7
340
1B8
340
1B9
340
1BA
340
1BB
340
1BC
340
1BD
340
1BE
340
1BF
340
1C0
340
1C1
340
1C2
340
81
340
82
340
83
340
84
340
85
340
86
340
87
340
88
340
89
340
8A
340
8B
340
8C
340
8D
340
8E
340
8F
340
90
340
91
340
92
340
93
340
94
340
95
340
96
340
97
340
98
340
99
340
9A
340
9B
340
9C
340
9D
340
9E
340
9F
340
A0
340
A1
340
A2
340
A3
340
A4
340
A5
340
A6
340
A7
340
A8
340
A9
340
AA
340
AB
340
AC
340
AD
340
AE
340
AF
340
B0
340
B1
340
B2
340
B3
340
B4
340
B5
340
B6
340
B7
340
B8
340
B9
340
BA
340
BB
340
BC
340
BD
340
BE
340
BF
340
C0
340
C1
340
C2
340
C3
340
C4
340
C5
340
C6
340
C7
340
C8
340
C9
340
CA
340
CB
340
CC
340
CD
340
CE
340
CF
340
D0
340
D1
340
D2
340
D3
340
D4
340
D5
340
D6
340
D7
340
D8
340
D9
340
DA
340
DB
340
DC
340
DD
340
DE
340
DF
340
E0
340
E1
340
E2
340
E3
340
E4
340
E5
340
E6
340
E7
340
E8
340
E9
340
EA
340
EB
340
EC
340
ED
340
EE
340
EF
340
F0
340
F1
340
F2
340
F3
340
F4
340
F5
340
F6
340
F7
340
F8
340
F9
340
FA
340
FB
340
FC
340
FD
340
FE
340
FF
340
100
340
101
340
102
340
103
340
104
340
105
340
106
340
107
340
108
340
109
340
10A
340
10B
340
10C
340
10D
340
10E
340
10F
340
110
340
111
340
112
340
113
340
114
340
115
340
116
340
117
340
118
340
119
340
11A
340
11B
340
11C
340
11D
340
11E
340
11F
340
120
340
121
340
122
340
123
340
124
340
125
340
126
340
127
340
128
340
129
340
12C
340
12D
340
12E
340
12F
340
130
340
131
340
132
340
133
340
134
340
135
340
136
340
137
340
138
340
139
340
13A
340
13B
340
13C
340
13D
340
13E
340
13F
340
140
340
141
340
142
340
143
340
144
340
145
340
146
340
147
340
148
340
149
340
14A
340
14B
340
14C
340
14D
340
14E
340
14F
340
150
340
151
340
152
340
153
340
154
340
155
340
156
340
157
340
158
340
159
340
15A
340
15B
340
15C
340
15D
340
15E
340
15F
340
160
340
161
340
162
340
163
340
164
340
165
340
166
340
167
340
168
340
169
340
16A
340
16B
340
16C
340
16D
340
16E
340
16F
340
170
340
171
340
172
340
173
340
174
340
175
340
176
340
177
340
178
340
179
340
17A
340
17B
340
17C
340
17D
340
17E
340
17F
340
180
340
181
340
182
340
183
340
184
340
185
340
186
340
187
340
188
340
189
340
18A
340
18B
340
18C
340
18D
340
18E
340
18F
340
190
340
191
340
192
340
193
340
194
340
195
340
196
340
197
340
1C3
340
1C4
340
1C5
340
1C6
340
1C7
340
1C8
340
1C9
340
1CA
340
1CB
340
1CC
340
1CD
340
1CE
340
1CF
340
1D0
340
1D1
340
1D2
340
1D3
340
1D4
340
1D5
340
1D6
340
1D7
340
1D8
340
1D9
340
1DA
340
1DB
340
1DC
340
1DD
340
1DE
340
1DF
340
1E0
340
1E1
340
1E2
340
1E3
340
1E4
340
1E5
340
1E6
340
1E7
340
1E8
340
1E9
340
1EA
340
1EB
340
1EC
340
1ED
340
1EE
340
1EF
340
1F0
340
1F1
340
1F2
340
1F3
340
1F4
340
1F5
340
1F6
340
1F7
340
1F8
340
1F9
340
1FA
340
1FB
340
1FC
340
1FD
340
1FE
340
1FF
340
200
340
201
340
202
340
203
340
204
340
205
340
206
340
207
340
208
340
209
340
20A
340
20B
340
20C
340
20D
340
20E
340
20F
340
210
340
211
340
212
340
213
340
221
340
22B
340
235
340
241
0
GROUP
5
24B
330
2b3
100
AcDbGroup
300

70
0
71
1
340
6E
340
75
340
213
340
22B
340
235
0
GROUP
5
24D
330
2b3
100
AcDbGroup
300

70
0
71
1
340
81
340
82
340
83
340
84
340
85
340
86
340
87
340
88
340
89
340
8A
340
8B
340
8C
340
8D
340
8E
340
8F
340
90
340
91
340
92
340
93
340
94
340
95
340
96
340
97
340
98
340
99
340
9A
340
9B
340
9C
340
9D
340
9E
340
9F
340
A0
340
A1
340
A2
340
A3
340
A4
340
A5
340
A6
340
A7
340
A8
340
A9
340
AA
340
AB
340
AC
340
AD
340
AE
340
AF
340
B0
340
B1
340
B2
340
B3
340
B4
340
B5
340
B6
340
B7
340
B8
340
B9
340
BA
340
BB
340
BC
340
BD
340
BE
340
BF
340
C0
340
C1
340
C2
340
C3
340
C4
340
C5
340
C6
340
C7
340
C8
340
C9
340
CA
340
CB
340
CC
340
CD
340
CE
340
CF
340
D0
340
D1
340
D2
340
D3
340
D4
340
D5
340
D6
340
D7
340
D8
340
D9
340
DA
340
DB
340
DC
340
DD
340
DE
340
DF
340
E0
340
E1
340
E2
340
E3
340
E4
340
E5
340
E6
340
E7
340
E8
340
E9
340
EA
340
EB
340
EC
340
ED
340
EE
340
EF
340
F0
340
F1
340
F2
340
F3
340
F4
340
F5
340
F6
340
F7
340
F8
340
F9
340
FA
340
FB
340
FC
340
FD
340
FE
340
FF
340
100
340
101
340
102
340
103
340
104
340
105
340
106
340
107
340
108
340
109
340
10A
340
10B
340
10C
340
10D
340
10E
340
10F
340
110
340
111
340
112
340
113
340
114
340
115
340
116
340
117
340
118
340
119
340
11A
340
11B
340
11C
340
11D
340
11E
340
11F
340
120
340
121
340
122
340
123
340
124
340
125
340
126
340
127
340
128
340
129
340
12C
340
12D
340
12E
340
12F
340
130
340
131
340
132
340
133
340
134
340
135
340
136
340
137
340
138
340
139
340
13A
340
13B
340
13C
340
13D
340
13E
340
13F
340
140
340
141
340
142
340
143
340
144
340
145
340
146
340
147
340
148
340
149
340
14A
340
14B
340
14C
340
14D
340
14E
340
14F
340
150
340
151
340
152
340
153
340
154
340
155
340
156
340
157
340
158
340
159
340
15A
340
15B
340
15C
340
15D
340
15E
340
15F
340
160
340
161
340
162
340
163
340
164
340
165
340
166
340
167
340
168
340
169
340
16A
340
16B
340
16C
340
16D
340
16E
340
16F
340
170
340
171
340
172
340
173
340
174
340
175
340
176
340
177
340
178
340
179
340
17A
340
17B
340
17C
340
17D
340
17E
340
17F
340
180
340
181
340
182
340
183
340
184
340
185
340
186
340
187
340
188
340
189
340
18A
340
18B
340
18C
340
18D
340
18E
340
18F
340
190
340
191
340
192
340
193
340
194
340
195
340
196
340
197
340
1C3
340
1C4
340
1C5
340
1C6
340
1C7
340
1C8
340
1C9
340
1CA
340
1CB
340
1CC
340
1CD
340
1CE
340
1CF
340
1D0
340
1D1
340
1D2
340
1D3
340
1D4
340
1D5
340
1D6
340
1D7
340
1D8
340
1D9
340
1DA
340
1DB
340
1DC
340
1DD
340
1DE
340
1DF
340
1E0
340
1E1
340
1E2
340
1E3
340
1E4
340
1E5
340
1E6
340
1E7
340
1E8
340
1E9
340
1EA
340
1EB
340
1EC
340
1ED
340
1EE
340
1EF
340
1F0
340
1F1
340
1F2
340
1F3
340
1F4
340
1F5
340
1F6
340
1F7
340
1F8
340
1F9
340
1FA
340
1FB
340
1FC
340
1FD
340
1FE
340
1FF
340
200
340
201
340
202
340
203
340
204
340
205
340
206
340
207
340
208
340
209
340
20A
340
20B
340
20C
340
20D
340
20E
340
20F
340
210
340
211
340
212
0
MLINESTYLE
5
18
330
2b4
100
AcDbMlineStyle
2
Standard
70
0
3

62
256
51
90
52
90
71
2
49
-0.5
62
256
6
ByLayer
49
0.5
62
256
6
ByLayer
0
RASTERVARIABLES
5
29e
330

100
AcDbRasterVariables
90
0
70
1
71
1
72
1
0
ENDSEC
0
EOF
